  0
SECTION
  2
HEADER
  9
$ACADVER
  1
AC1015
  9
$ACADMAINTVER
 70
    20
  9
$DWGCODEPAGE
  3
ANSI_1252
  9
$INSBASE
 10
0.0
 20
0.0
 30
0.0
  9
$EXTMIN
 10
-70.61955429913258
 20
494.2699339581961
 30
-0.0000213606748976
  9
$EXTMAX
 10
339.4278402377176
 20
764.3032077209881
 30
0.700021363934527
  9
$LIMMIN
 10
0.0
 20
0.0
  9
$LIMMAX
 10
420.0
 20
297.0
  9
$ORTHOMODE
 70
     1
  9
$REGENMODE
 70
     1
  9
$FILLMODE
 70
     1
  9
$QTEXTMODE
 70
     0
  9
$MIRRTEXT
 70
     0
  9
$LTSCALE
 40
23.1
  9
$ATTMODE
 70
     1
  9
$TEXTSIZE
 40
0.2
  9
$TRACEWID
 40
0.05
  9
$TEXTSTYLE
  7
Standard
  9
$CLAYER
  8
14100_Bottom_Dim
  9
$CELTYPE
  6
ByLayer
  9
$CECOLOR
 62
   256
  9
$CELTSCALE
 40
1.0
  9
$DISPSILH
 70
     0
  9
$DIMSCALE
 40
0.0
  9
$DIMASZ
 40
3.5
  9
$DIMEXO
 40
0.0
  9
$DIMDLI
 40
3.75
  9
$DIMRND
 40
0.0
  9
$DIMDLE
 40
0.0
  9
$DIMEXE
 40
2.0
  9
$DIMTP
 40
0.0
  9
$DIMTM
 40
0.0
  9
$DIMTXT
 40
3.5
  9
$DIMCEN
 40
2.5
  9
$DIMTSZ
 40
0.0
  9
$DIMTOL
 70
     0
  9
$DIMLIM
 70
     0
  9
$DIMTIH
 70
     0
  9
$DIMTOH
 70
     0
  9
$DIMSE1
 70
     0
  9
$DIMSE2
 70
     0
  9
$DIMTAD
 70
     1
  9
$DIMZIN
 70
     8
  9
$DIMBLK
  1

  9
$DIMASO
 70
     1
  9
$DIMSHO
 70
     1
  9
$DIMPOST
  1

  9
$DIMAPOST
  1

  9
$DIMALT
 70
     0
  9
$DIMALTD
 70
     4
  9
$DIMALTF
 40
0.039
  9
$DIMLFAC
 40
1.0
  9
$DIMTOFL
 70
     1
  9
$DIMTVP
 40
0.0
  9
$DIMTIX
 70
     0
  9
$DIMSOXD
 70
     0
  9
$DIMSAH
 70
     0
  9
$DIMBLK1
  1

  9
$DIMBLK2
  1

  9
$DIMSTYLE
  2
H035
  9
$DIMCLRD
 70
   256
  9
$DIMCLRE
 70
     7
  9
$DIMCLRT
 70
     7
  9
$DIMTFAC
 40
1.0
  9
$DIMGAP
 40
0.5
  9
$DIMJUST
 70
     0
  9
$DIMSD1
 70
     0
  9
$DIMSD2
 70
     0
  9
$DIMTOLJ
 70
     1
  9
$DIMTZIN
 70
     0
  9
$DIMALTZ
 70
     0
  9
$DIMALTTZ
 70
     0
  9
$DIMUPT
 70
     0
  9
$DIMDEC
 70
     0
  9
$DIMTDEC
 70
     2
  9
$DIMALTU
 70
     8
  9
$DIMALTTD
 70
     4
  9
$DIMTXSTY
  7
Standard
  9
$DIMAUNIT
 70
     0
  9
$DIMADEC
 70
     0
  9
$DIMALTRND
 40
0.0
  9
$DIMAZIN
 70
     0
  9
$DIMDSEP
 70
    46
  9
$DIMATFIT
 70
     3
  9
$DIMFRAC
 70
     0
  9
$DIMLDRBLK
  1

  9
$DIMLUNIT
 70
     2
  9
$DIMLWD
 70
    -2
  9
$DIMLWE
 70
    -2
  9
$DIMTMOVE
 70
     0
  9
$LUNITS
 70
     2
  9
$LUPREC
 70
     4
  9
$SKETCHINC
 40
0.1
  9
$FILLETRAD
 40
0.5
  9
$AUNITS
 70
     0
  9
$AUPREC
 70
     0
  9
$MENU
  1
.
  9
$ELEVATION
 40
0.0
  9
$PELEVATION
 40
0.0
  9
$THICKNESS
 40
0.0
  9
$LIMCHECK
 70
     0
  9
$CHAMFERA
 40
0.0
  9
$CHAMFERB
 40
0.0
  9
$CHAMFERC
 40
0.0
  9
$CHAMFERD
 40
0.0
  9
$SKPOLY
 70
     0
  9
$TDCREATE
 40
2452829.459279745
  9
$TDUCREATE
 40
2452829.375946412
  9
$TDUPDATE
 40
2453473.593557928
  9
$TDUUPDATE
 40
2453473.510224595
  9
$TDINDWG
 40
2.4738235532
  9
$TDUSRTIMER
 40
2.4738147106
  9
$USRTIMER
 70
     1
  9
$ANGBASE
 50
0.0
  9
$ANGDIR
 70
     0
  9
$PDMODE
 70
     0
  9
$PDSIZE
 40
0.0
  9
$PLINEWID
 40
0.0
  9
$SPLFRAME
 70
     0
  9
$SPLINETYPE
 70
     6
  9
$SPLINESEGS
 70
     8
  9
$HANDSEED
  5
D24E
  9
$SURFTAB1
 70
     6
  9
$SURFTAB2
 70
     6
  9
$SURFTYPE
 70
     6
  9
$SURFU
 70
     6
  9
$SURFV
 70
     6
  9
$UCSBASE
  2

  9
$UCSNAME
  2

  9
$UCSORG
 10
0.0
 20
0.0
 30
0.0
  9
$UCSXDIR
 10
1.0
 20
0.0
 30
0.0
  9
$UCSYDIR
 10
0.0
 20
1.0
 30
0.0
  9
$UCSORTHOREF
  2

  9
$UCSORTHOVIEW
 70
     0
  9
$UCSORGTOP
 10
0.0
 20
0.0
 30
0.0
  9
$UCSORGBOTTOM
 10
0.0
 20
0.0
 30
0.0
  9
$UCSORGLEFT
 10
0.0
 20
0.0
 30
0.0
  9
$UCSORGRIGHT
 10
0.0
 20
0.0
 30
0.0
  9
$UCSORGFRONT
 10
0.0
 20
0.0
 30
0.0
  9
$UCSORGBACK
 10
0.0
 20
0.0
 30
0.0
  9
$PUCSBASE
  2

  9
$PUCSNAME
  2

  9
$PUCSORG
 10
0.0
 20
0.0
 30
0.0
  9
$PUCSXDIR
 10
1.0
 20
0.0
 30
0.0
  9
$PUCSYDIR
 10
0.0
 20
1.0
 30
0.0
  9
$PUCSORTHOREF
  2

  9
$PUCSORTHOVIEW
 70
     0
  9
$PUCSORGTOP
 10
0.0
 20
0.0
 30
0.0
  9
$PUCSORGBOTTOM
 10
0.0
 20
0.0
 30
0.0
  9
$PUCSORGLEFT
 10
0.0
 20
0.0
 30
0.0
  9
$PUCSORGRIGHT
 10
0.0
 20
0.0
 30
0.0
  9
$PUCSORGFRONT
 10
0.0
 20
0.0
 30
0.0
  9
$PUCSORGBACK
 10
0.0
 20
0.0
 30
0.0
  9
$USERI1
 70
     0
  9
$USERI2
 70
     0
  9
$USERI3
 70
     0
  9
$USERI4
 70
     0
  9
$USERI5
 70
     0
  9
$USERR1
 40
0.0
  9
$USERR2
 40
0.0
  9
$USERR3
 40
0.0
  9
$USERR4
 40
0.0
  9
$USERR5
 40
0.0
  9
$WORLDVIEW
 70
     1
  9
$SHADEDGE
 70
     3
  9
$SHADEDIF
 70
    70
  9
$TILEMODE
 70
     1
  9
$MAXACTVP
 70
    64
  9
$PINSBASE
 10
0.0
 20
0.0
 30
0.0
  9
$PLIMCHECK
 70
     0
  9
$PEXTMIN
 10
1.131083280082761
 20
0.7887499858075238
 30
0.0
  9
$PEXTMAX
 10
10.17974952074486
 20
7.098749872267712
 30
0.0
  9
$PLIMMIN
 10
-0.1895838459645669
 20
-0.1895833390904224
  9
$PLIMMAX
 10
11.50041595218688
 20
8.077083103300079
  9
$UNITMODE
 70
     0
  9
$VISRETAIN
 70
     1
  9
$PLINEGEN
 70
     0
  9
$PSLTSCALE
 70
     1
  9
$TREEDEPTH
 70
  3020
  9
$CMLSTYLE
  2
Standard
  9
$CMLJUST
 70
     0
  9
$CMLSCALE
 40
1.0
  9
$PROXYGRAPHICS
 70
     1
  9
$MEASUREMENT
 70
     0
  9
$CELWEIGHT
370
    -1
  9
$ENDCAPS
280
     0
  9
$JOINSTYLE
280
     0
  9
$LWDISPLAY
290
     0
  9
$INSUNITS
 70
     0
  9
$HYPERLINKBASE
  1

  9
$STYLESHEET
  1
MONOCHROME.CTB
  9
$XEDIT
290
     1
  9
$CEPSNTYPE
380
     0
  9
$PSTYLEMODE
290
     1
  9
$FINGERPRINTGUID
  2
{D88032C4-1185-41D3-97DD-7638FCF99E3F}
  9
$VERSIONGUID
  2
{FF9A739E-33A6-41B4-B4D6-285A17079AF5}
  9
$EXTNAMES
290
     1
  9
$PSVPSCALE
 40
0.0
  9
$OLESTARTUP
290
     0
  0
ENDSEC
  0
SECTION
  2
CLASSES
  0
CLASS
  1
ACDBDICTIONARYWDFLT
  2
AcDbDictionaryWithDefault
  3
ObjectDBX Classes
 90
        0
280
     0
281
     0
  0
CLASS
  1
DICTIONARYVAR
  2
AcDbDictionaryVar
  3
ObjectDBX Classes
 90
        0
280
     0
281
     0
  0
CLASS
  1
ACDBPLACEHOLDER
  2
AcDbPlaceHolder
  3
ObjectDBX Classes
 90
        0
280
     0
281
     0
  0
CLASS
  1
LAYOUT
  2
AcDbLayout
  3
ObjectDBX Classes
 90
        0
280
     0
281
     0
  0
ENDSEC
  0
SECTION
  2
TABLES
  0
TABLE
  2
VPORT
  5
8
330
0
100
AcDbSymbolTable
 70
     2
  0
VPORT
  5
D241
330
8
100
AcDbSymbolTableRecord
100
AcDbViewportTableRecord
  2
*Active
 70
     0
 10
0.0
 20
0.0
 11
1.0
 21
1.0
 12
134.4041429692925
 22
629.2865708395922
 13
0.0
 23
0.0
 14
1.0
 24
1.0
 15
0.0
 25
0.0
 16
0.0
 26
0.0
 36
1.0
 17
0.0
 27
0.0
 37
0.0
 40
300.7685589627114
 41
1.37120211360634
 42
50.0
 43
0.0
 44
0.0
 50
0.0
 51
0.0
 71
     0
 72
   100
 73
     1
 74
     1
 75
     0
 76
     0
 77
     0
 78
     0
281
     0
 65
     1
110
0.0
120
0.0
130
0.0
111
1.0
121
0.0
131
0.0
112
0.0
122
1.0
132
0.0
 79
     0
146
0.0
  0
ENDTAB
  0
TABLE
  2
LTYPE
  5
5
330
0
100
AcDbSymbolTable
 70
     2
  0
LTYPE
  5
13
330
5
100
AcDbSymbolTableRecord
100
AcDbLinetypeTableRecord
  2
ByBlock
 70
     0
  3

 72
    65
 73
     0
 40
0.0
  0
LTYPE
  5
14
330
5
100
AcDbSymbolTableRecord
100
AcDbLinetypeTableRecord
  2
ByLayer
 70
     0
  3

 72
    65
 73
     0
 40
0.0
  0
LTYPE
  5
15
330
5
100
AcDbSymbolTableRecord
100
AcDbLinetypeTableRecord
  2
CONTINUOUS
 70
     0
  3
Solid line
 72
    65
 73
     0
 40
0.0
  0
LTYPE
  5
26
330
5
100
AcDbSymbolTableRecord
100
AcDbLinetypeTableRecord
  2
CENTER
 70
     0
  3
____ _ ____ _ ____ _ ____ _ ____ _ ____ _ ____
 72
    65
 73
     4
 40
0.6
 49
0.375
 74
     0
 49
-0.075
 74
     0
 49
0.075
 74
     0
 49
-0.075
 74
     0
  0
ENDTAB
  0
TABLE
  2
LAYER
  5
2
330
0
100
AcDbSymbolTable
 70
    10
  0
LAYER
  5
10
330
2
100
AcDbSymbolTableRecord
100
AcDbLayerTableRecord
  2
0
 70
     0
 62
     7
  6
CONTINUOUS
370
    -3
390
F
  0
LAYER
  5
1D8
330
2
100
AcDbSymbolTableRecord
100
AcDbLayerTableRecord
  2
Defpoints
 70
     0
 62
     7
  6
CONTINUOUS
290
     0
370
    -3
390
F
  0
LAYER
  5
1D9
330
2
100
AcDbSymbolTableRecord
100
AcDbLayerTableRecord
  2
91000_TIP
 70
     0
 62
     7
  6
CONTINUOUS
370
    -3
390
F
  0
LAYER
  5
1DA
330
2
100
AcDbSymbolTableRecord
100
AcDbLayerTableRecord
  2
11000_Left
 70
     0
 62
     7
  6
CONTINUOUS
370
    -3
390
F
  0
LAYER
  5
1DB
330
2
100
AcDbSymbolTableRecord
100
AcDbLayerTableRecord
  2
10000_FRONT
 70
     0
 62
     7
  6
CONTINUOUS
370
    -3
390
F
  0
LAYER
  5
1DC
330
2
100
AcDbSymbolTableRecord
100
AcDbLayerTableRecord
  2
10100_FRONT_DIM
 70
     0
 62
     7
  6
CONTINUOUS
370
    -3
390
F
  0
LAYER
  5
1DD
330
2
100
AcDbSymbolTableRecord
100
AcDbLayerTableRecord
  2
90000_FRAME
 70
     0
 62
     7
  6
CONTINUOUS
370
    -3
390
F
  0
LAYER
  5
1DE
330
2
100
AcDbSymbolTableRecord
100
AcDbLayerTableRecord
  2
11100_LEFT_DIM
 70
     0
 62
     7
  6
CONTINUOUS
370
    -3
390
F
  0
LAYER
  5
ABF6
330
2
100
AcDbSymbolTableRecord
100
AcDbLayerTableRecord
  2
14000_Bottom
 70
     0
 62
     7
  6
CONTINUOUS
370
    -3
390
F
  0
LAYER
  5
ABF7
330
2
100
AcDbSymbolTableRecord
100
AcDbLayerTableRecord
  2
14100_Bottom_Dim
 70
     0
 62
     7
  6
CONTINUOUS
370
    -3
390
F
  0
ENDTAB
  0
TABLE
  2
STYLE
  5
3
330
0
100
AcDbSymbolTable
 70
     1
  0
STYLE
  5
11
330
3
100
AcDbSymbolTableRecord
100
AcDbTextStyleTableRecord
  2
Standard
 70
     0
 40
0.0
 41
1.0
 50
0.0
 71
     0
 42
0.2
  3
txt
  4

  0
ENDTAB
  0
TABLE
  2
VIEW
  5
6
330
0
100
AcDbSymbolTable
 70
     0
  0
ENDTAB
  0
TABLE
  2
UCS
  5
7
330
0
100
AcDbSymbolTable
 70
     0
  0
ENDTAB
  0
TABLE
  2
APPID
  5
9
330
0
100
AcDbSymbolTable
 70
     3
  0
APPID
  5
12
330
9
100
AcDbSymbolTableRecord
100
AcDbRegAppTableRecord
  2
ACAD
 70
     0
  0
APPID
  5
1E8
330
9
100
AcDbSymbolTableRecord
100
AcDbRegAppTableRecord
  2
AUSTER_ANSICHT
 70
     0
  0
APPID
  5
1E9
330
9
100
AcDbSymbolTableRecord
100
AcDbRegAppTableRecord
  2
AUSTER_FOLIE
 70
     0
  0
ENDTAB
  0
TABLE
  2
DIMSTYLE
  5
A
330
0
100
AcDbSymbolTable
 70
     2
100
AcDbDimStyleTable
 71
     2
340
3A1A
340
BA
  0
DIMSTYLE
105
BA
330
A
100
AcDbSymbolTableRecord
100
AcDbDimStyleTableRecord
  2
Standard
 70
     0
340
11
  0
DIMSTYLE
105
3A1A
102
{ACAD_REACTORS
330
CD85
330
CE1C
330
CE1B
330
CE1E
330
CE1F
330
CE20
330
CF59
330
CF4C
330
CF93
330
CF66
330
CF73
102
}
330
A
100
AcDbSymbolTableRecord
100
AcDbDimStyleTableRecord
  2
H035
 70
     0
 40
0.0
 41
3.5
 42
0.0
 43
3.75
 44
2.0
 73
     0
 74
     0
 77
     1
 78
     8
140
3.5
141
2.5
143
0.039
147
0.5
171
     4
172
     1
176
   256
177
     7
178
     7
271
     0
272
     2
273
     8
274
     4
340
11
  0
ENDTAB
  0
TABLE
  2
BLOCK_RECORD
  5
1
330
0
100
AcDbSymbolTable
 70
    12
  0
BLOCK_RECORD
  5
20
330
1
100
AcDbSymbolTableRecord
100
AcDbBlockTableRecord
  2
*Model_Space
340
23
  0
BLOCK_RECORD
  5
1C
330
1
100
AcDbSymbolTableRecord
100
AcDbBlockTableRecord
  2
*Paper_Space
340
1F
  0
BLOCK_RECORD
  5
3A
330
1
100
AcDbSymbolTableRecord
100
AcDbBlockTableRecord
  2
SIEMENS_OUTLINE_BL0
340
0
102
{BLKREFS
331
BBA3
102
}
  0
BLOCK_RECORD
  5
CE4E
330
1
100
AcDbSymbolTableRecord
100
AcDbBlockTableRecord
  2
*D1
340
0
  0
BLOCK_RECORD
  5
CE5A
330
1
100
AcDbSymbolTableRecord
100
AcDbBlockTableRecord
  2
*D2
340
0
  0
BLOCK_RECORD
  5
CE66
330
1
100
AcDbSymbolTableRecord
100
AcDbBlockTableRecord
  2
*D3
340
0
  0
BLOCK_RECORD
  5
CE72
330
1
100
AcDbSymbolTableRecord
100
AcDbBlockTableRecord
  2
*D4
340
0
  0
BLOCK_RECORD
  5
CE7E
330
1
100
AcDbSymbolTableRecord
100
AcDbBlockTableRecord
  2
*D5
340
0
  0
BLOCK_RECORD
  5
CE8A
330
1
100
AcDbSymbolTableRecord
100
AcDbBlockTableRecord
  2
*D6
340
0
  0
BLOCK_RECORD
  5
CF4D
330
1
100
AcDbSymbolTableRecord
100
AcDbBlockTableRecord
  2
*D7
340
0
  0
BLOCK_RECORD
  5
CF5A
330
1
100
AcDbSymbolTableRecord
100
AcDbBlockTableRecord
  2
*D8
340
0
  0
BLOCK_RECORD
  5
CF67
330
1
100
AcDbSymbolTableRecord
100
AcDbBlockTableRecord
  2
*D9
340
0
  0
BLOCK_RECORD
  5
CF74
330
1
100
AcDbSymbolTableRecord
100
AcDbBlockTableRecord
  2
*D10
340
0
  0
BLOCK_RECORD
  5
CF94
330
1
100
AcDbSymbolTableRecord
100
AcDbBlockTableRecord
  2
*D11
340
0
  0
ENDTAB
  0
ENDSEC
  0
SECTION
  2
BLOCKS
  0
BLOCK
  5
21
330
20
100
AcDbEntity
  8
0
100
AcDbBlockBegin
  2
*Model_Space
 70
     0
 10
0.0
 20
0.0
 30
0.0
  3
*Model_Space
  1

  0
ENDBLK
  5
22
330
20
100
AcDbEntity
  8
0
100
AcDbBlockEnd
  0
BLOCK
  5
1D
330
1C
100
AcDbEntity
 67
     1
  8
0
100
AcDbBlockBegin
  2
*Paper_Space
 70
     0
 10
0.0
 20
0.0
 30
0.0
  3
*Paper_Space
  1

  0
ENDBLK
  5
1E
330
1C
100
AcDbEntity
 67
     1
  8
0
100
AcDbBlockEnd
  0
BLOCK
  5
3B
330
3A
100
AcDbEntity
  8
0
  6
Continuous
 62
     7
100
AcDbBlockBegin
  2
SIEMENS_OUTLINE_BL0
 70
     0
 10
0.0
 20
0.0
 30
0.0
  3
SIEMENS_OUTLINE_BL0
  1

  0
LINE
  5
3C
330
3A
100
AcDbEntity
  8
0
  6
Continuous
 62
     7
100
AcDbLine
 10
289.1235341257
 20
21.4969115175
 30
0.0
 11
289.1235341257
 21
16.7436424342
 31
0.0
  0
LINE
  5
3D
330
3A
100
AcDbEntity
  8
0
  6
Continuous
 62
     7
100
AcDbLine
 10
290.5495148507
 20
21.4969115175
 30
0.0
 11
290.5495148507
 21
16.7436424342
 31
0.0
  0
LINE
  5
3E
330
3A
100
AcDbEntity
  8
0
  6
Continuous
 62
     7
100
AcDbLine
 10
289.1235341257
 20
16.7436424342
 30
0.0
 11
290.5495148507
 21
16.7436424342
 31
0.0
  0
LINE
  5
3F
330
3A
100
AcDbEntity
  8
0
  6
Continuous
 62
     7
100
AcDbLine
 10
289.1235341257
 20
21.4969115175
 30
0.0
 11
290.5495148507
 21
21.4969115175
 31
0.0
  0
LINE
  5
40
330
3A
100
AcDbEntity
  8
0
  6
Continuous
 62
     7
100
AcDbLine
 10
291.6427667399
 20
21.4969115175
 30
0.0
 11
291.6427667399
 21
16.7436424342
 31
0.0
  0
LINE
  5
41
330
3A
100
AcDbEntity
  8
0
  6
Continuous
 62
     7
100
AcDbLine
 10
291.6427667399
 20
16.7436424342
 30
0.0
 11
295.2077185523
 21
16.7436424342
 31
0.0
  0
LINE
  5
42
330
3A
100
AcDbEntity
  8
0
  6
Continuous
 62
     7
100
AcDbLine
 10
295.2077185523
 20
17.64676356
 30
0.0
 11
293.021214774
 21
17.64676356
 31
0.0
  0
LINE
  5
43
330
3A
100
AcDbEntity
  8
0
  6
Continuous
 62
     7
100
AcDbLine
 10
295.2077185523
 20
17.64676356
 30
0.0
 11
295.2077185523
 21
16.7436424342
 31
0.0
  0
LINE
  5
44
330
3A
100
AcDbEntity
  8
0
  6
Continuous
 62
     7
100
AcDbLine
 10
295.1601858615
 20
21.4969115175
 30
0.0
 11
291.6427667399
 21
21.4969115175
 31
0.0
  0
LINE
  5
45
330
3A
100
AcDbEntity
  8
0
  6
Continuous
 62
     7
100
AcDbLine
 10
295.1601858615
 20
20.6175567371
 30
0.0
 11
293.021214774
 21
20.6175567371
 31
0.0
  0
LINE
  5
46
330
3A
100
AcDbEntity
  8
0
  6
Continuous
 62
     7
100
AcDbLine
 10
295.1601858615
 20
21.4969115175
 30
0.0
 11
295.1601858615
 21
20.6175567371
 31
0.0
  0
LINE
  5
47
330
3A
100
AcDbEntity
  8
0
  6
Continuous
 62
     7
100
AcDbLine
 10
294.8749897165
 20
18.7637817946
 30
0.0
 11
293.021214774
 21
18.7637817946
 31
0.0
  0
LINE
  5
48
330
3A
100
AcDbEntity
  8
0
  6
Continuous
 62
     7
100
AcDbLine
 10
294.8749897165
 20
19.5480711933
 30
0.0
 11
294.8749897165
 21
18.7637817946
 31
0.0
  0
LINE
  5
49
330
3A
100
AcDbEntity
  8
0
  6
Continuous
 62
     7
100
AcDbLine
 10
294.8749897165
 20
19.5480711933
 30
0.0
 11
293.021214774
 21
19.5480711933
 31
0.0
  0
LINE
  5
4A
330
3A
100
AcDbEntity
  8
0
  6
Continuous
 62
     7
100
AcDbLine
 10
293.021214774
 20
20.6175567371
 30
0.0
 11
293.021214774
 21
19.5480711933
 31
0.0
  0
LINE
  5
4B
330
3A
100
AcDbEntity
  8
0
  6
Continuous
 62
     7
100
AcDbLine
 10
293.021214774
 20
18.7637817946
 30
0.0
 11
293.021214774
 21
17.64676356
 31
0.0
  0
LINE
  5
4C
330
3A
100
AcDbEntity
  8
0
  6
Continuous
 62
     7
100
AcDbLine
 10
296.0157742965
 20
16.7436424342
 30
0.0
 11
296.0157742965
 21
21.4969115175
 31
0.0
  0
LINE
  5
4D
330
3A
100
AcDbEntity
  8
0
  6
Continuous
 62
     7
100
AcDbLine
 10
296.0157742965
 20
16.7436424342
 30
0.0
 11
296.9664281131
 21
16.7436424342
 31
0.0
  0
LINE
  5
4E
330
3A
100
AcDbEntity
  8
0
  6
Continuous
 62
     7
100
AcDbLine
 10
301.8622952689
 20
21.4969115175
 30
0.0
 11
301.8622952689
 21
16.7436424342
 31
0.0
  0
LINE
  5
4F
330
3A
100
AcDbEntity
  8
0
  6
Continuous
 62
     7
100
AcDbLine
 10
301.8622952689
 20
16.7436424342
 30
0.0
 11
300.4838472348
 21
16.7436424342
 31
0.0
  0
LINE
  5
50
330
3A
100
AcDbEntity
  8
0
  6
Continuous
 62
     7
100
AcDbLine
 10
298.2973434565
 20
16.6961097434
 30
0.0
 11
299.1529318914
 21
16.6961097434
 31
0.0
  0
LINE
  5
51
330
3A
100
AcDbEntity
  8
0
  6
Continuous
 62
     7
100
AcDbLine
 10
298.2973434565
 20
16.6961097434
 30
0.0
 11
296.9664281131
 21
19.7857346475
 31
0.0
  0
LINE
  5
52
330
3A
100
AcDbEntity
  8
0
  6
Continuous
 62
     7
100
AcDbLine
 10
296.9664281131
 20
16.7436424342
 30
0.0
 11
296.9664281131
 21
19.7857346475
 31
0.0
  0
LINE
  5
53
330
3A
100
AcDbEntity
  8
0
  6
Continuous
 62
     7
100
AcDbLine
 10
300.4838472348
 20
19.8332673383
 30
0.0
 11
299.1529318914
 21
16.6961097434
 31
0.0
  0
LINE
  5
54
330
3A
100
AcDbEntity
  8
0
  6
Continuous
 62
     7
100
AcDbLine
 10
297.7269511665
 20
21.4969115175
 30
0.0
 11
296.0157742965
 21
21.4969115175
 31
0.0
  0
LINE
  5
55
330
3A
100
AcDbEntity
  8
0
  6
Continuous
 62
     7
100
AcDbLine
 10
301.8622952689
 20
21.4969115175
 30
0.0
 11
300.1511183989
 21
21.4969115175
 31
0.0
  0
LINE
  5
56
330
3A
100
AcDbEntity
  8
0
  6
Continuous
 62
     7
100
AcDbLine
 10
297.7269511665
 20
21.4969115175
 30
0.0
 11
298.9628011281
 21
18.5974173767
 31
0.0
  0
LINE
  5
57
330
3A
100
AcDbEntity
  8
0
  6
Continuous
 62
     7
100
AcDbLine
 10
300.1511183989
 20
21.4969115175
 30
0.0
 11
298.9628011281
 21
18.5974173767
 31
0.0
  0
LINE
  5
58
330
3A
100
AcDbEntity
  8
0
  6
Continuous
 62
     7
100
AcDbLine
 10
300.4838472348
 20
19.8332673383
 30
0.0
 11
300.4838472348
 21
16.7436424342
 31
0.0
  0
LINE
  5
59
330
3A
100
AcDbEntity
  8
0
  6
Continuous
 62
     7
100
AcDbLine
 10
302.9555471581
 20
21.4969115175
 30
0.0
 11
302.9555471581
 21
16.7436424342
 31
0.0
  0
LINE
  5
5A
330
3A
100
AcDbEntity
  8
0
  6
Continuous
 62
     7
100
AcDbLine
 10
302.9555471581
 20
16.7436424342
 30
0.0
 11
306.5204989705
 21
16.7436424342
 31
0.0
  0
LINE
  5
5B
330
3A
100
AcDbEntity
  8
0
  6
Continuous
 62
     7
100
AcDbLine
 10
306.5204989705
 20
17.64676356
 30
0.0
 11
304.3339951922
 21
17.64676356
 31
0.0
  0
LINE
  5
5C
330
3A
100
AcDbEntity
  8
0
  6
Continuous
 62
     7
100
AcDbLine
 10
306.5204989705
 20
17.64676356
 30
0.0
 11
306.5204989705
 21
16.7436424342
 31
0.0
  0
LINE
  5
5D
330
3A
100
AcDbEntity
  8
0
  6
Continuous
 62
     7
100
AcDbLine
 10
306.4729662797
 20
21.4969115175
 30
0.0
 11
302.9555471581
 21
21.4969115175
 31
0.0
  0
LINE
  5
5E
330
3A
100
AcDbEntity
  8
0
  6
Continuous
 62
     7
100
AcDbLine
 10
306.4729662797
 20
20.6175567371
 30
0.0
 11
304.3339951922
 21
20.6175567371
 31
0.0
  0
LINE
  5
5F
330
3A
100
AcDbEntity
  8
0
  6
Continuous
 62
     7
100
AcDbLine
 10
306.4729662797
 20
21.4969115175
 30
0.0
 11
306.4729662797
 21
20.6175567371
 31
0.0
  0
LINE
  5
60
330
3A
100
AcDbEntity
  8
0
  6
Continuous
 62
     7
100
AcDbLine
 10
306.1877701347
 20
18.7637817946
 30
0.0
 11
304.3339951922
 21
18.7637817946
 31
0.0
  0
LINE
  5
61
330
3A
100
AcDbEntity
  8
0
  6
Continuous
 62
     7
100
AcDbLine
 10
306.1877701347
 20
19.5480711933
 30
0.0
 11
306.1877701347
 21
18.7637817946
 31
0.0
  0
LINE
  5
62
330
3A
100
AcDbEntity
  8
0
  6
Continuous
 62
     7
100
AcDbLine
 10
306.1877701347
 20
19.5480711933
 30
0.0
 11
304.3339951922
 21
19.5480711933
 31
0.0
  0
LINE
  5
63
330
3A
100
AcDbEntity
  8
0
  6
Continuous
 62
     7
100
AcDbLine
 10
304.3339951922
 20
20.6175567371
 30
0.0
 11
304.3339951922
 21
19.5480711933
 31
0.0
  0
LINE
  5
64
330
3A
100
AcDbEntity
  8
0
  6
Continuous
 62
     7
100
AcDbLine
 10
304.3339951922
 20
18.7637817946
 30
0.0
 11
304.3339951922
 21
17.64676356
 31
0.0
  0
LINE
  5
65
330
3A
100
AcDbEntity
  8
0
  6
Continuous
 62
     7
100
AcDbLine
 10
307.3047883693
 20
16.7436424342
 30
0.0
 11
307.3047883693
 21
21.4969115175
 31
0.0
  0
LINE
  5
66
330
3A
100
AcDbEntity
  8
0
  6
Continuous
 62
     7
100
AcDbLine
 10
311.4876651625
 20
21.4969115175
 30
0.0
 11
311.4876651625
 21
16.7436424342
 31
0.0
  0
LINE
  5
67
330
3A
100
AcDbEntity
  8
0
  6
Continuous
 62
     7
100
AcDbLine
 10
307.3047883693
 20
16.7436424342
 30
0.0
 11
308.2554421859
 21
16.7436424342
 31
0.0
  0
LINE
  5
68
330
3A
100
AcDbEntity
  8
0
  6
Continuous
 62
     7
100
AcDbLine
 10
311.4876651625
 20
21.4969115175
 30
0.0
 11
310.5370113459
 21
21.4969115175
 31
0.0
  0
LINE
  5
69
330
3A
100
AcDbEntity
  8
0
  6
Continuous
 62
     7
100
AcDbLine
 10
308.8496008213
 20
21.4969115175
 30
0.0
 11
307.3047883693
 21
21.4969115175
 31
0.0
  0
LINE
  5
6A
330
3A
100
AcDbEntity
  8
0
  6
Continuous
 62
     7
100
AcDbLine
 10
311.4876651625
 20
16.7436424342
 30
0.0
 11
309.9666190559
 21
16.7436424342
 31
0.0
  0
LINE
  5
6B
330
3A
100
AcDbEntity
  8
0
  6
Continuous
 62
     7
100
AcDbLine
 10
309.9666190559
 20
16.7436424342
 30
0.0
 11
308.2554421859
 21
19.7857346475
 31
0.0
  0
LINE
  5
6C
330
3A
100
AcDbEntity
  8
0
  6
Continuous
 62
     7
100
AcDbLine
 10
308.8496008213
 20
21.4969115175
 30
0.0
 11
310.5370113459
 21
18.5498846858
 31
0.0
  0
LINE
  5
6D
330
3A
100
AcDbEntity
  8
0
  6
Continuous
 62
     7
100
AcDbLine
 10
310.5370113459
 20
21.4969115175
 30
0.0
 11
310.5370113459
 21
18.5498846858
 31
0.0
  0
LINE
  5
6E
330
3A
100
AcDbEntity
  8
0
  6
Continuous
 62
     7
100
AcDbLine
 10
308.2554421859
 20
16.7436424342
 30
0.0
 11
308.2554421859
 21
19.7857346475
 31
0.0
  0
LINE
  5
6F
330
3A
100
AcDbEntity
  8
0
  6
Continuous
 62
     7
100
AcDbLine
 10
312.2957209067
 20
16.8387078159
 30
0.0
 11
312.2957209067
 21
17.7893616325
 31
0.0
  0
LINE
  5
70
330
3A
100
AcDbEntity
  8
0
  6
Continuous
 62
     7
100
AcDbLine
 10
315.623009265
 20
20.49872501
 30
0.0
 11
315.623009265
 21
21.4493788266
 31
0.0
  0
ARC
  5
71
330
3A
100
AcDbEntity
  8
0
  6
Continuous
 62
     7
100
AcDbCircle
 10
314.0003620317
 20
18.7008009792
 30
0.0
 40
1.111619360599997
100
AcDbArc
 50
277.7099956934
 51
295.6884927746
  0
ARC
  5
72
330
3A
100
AcDbEntity
  8
0
  6
Continuous
 62
     7
100
AcDbCircle
 10
314.2846720145
 20
17.9759752156
 30
0.0
 40
0.3401689265
100
AcDbArc
 50
305.503221255
 51
72.46528985229999
  0
ARC
  5
73
330
3A
100
AcDbEntity
  8
0
  6
Continuous
 62
     7
100
AcDbCircle
 10
313.7186782063
 20
21.3776821252
 30
0.0
 40
4.756794641099999
100
AcDbArc
 50
252.5939200548001
 51
280.9816604256
  0
ARC
  5
74
330
3A
100
AcDbEntity
  8
0
  6
Continuous
 62
     7
100
AcDbCircle
 10
314.1735135694
 20
18.7596683887
 30
0.0
 40
2.100726595299998
100
AcDbArc
 50
282.405835852
 51
311.8644433928
  0
ARC
  5
75
330
3A
100
AcDbEntity
  8
0
  6
Continuous
 62
     7
100
AcDbCircle
 10
313.8999492223
 20
20.3680101102
 30
0.0
 40
0.3029626476
100
AcDbArc
 50
154.4400348282
 51
221.8201698801
  0
ARC
  5
76
330
3A
100
AcDbEntity
  8
0
  6
Continuous
 62
     7
100
AcDbCircle
 10
313.9791703737
 20
20.2887889588
 30
0.0
 40
0.4103089737
100
AcDbArc
 50
102.8287828681
 51
149.2259639003
  0
ARC
  5
77
330
3A
100
AcDbEntity
  8
0
  6
Continuous
 62
     7
100
AcDbCircle
 10
314.3961972093
 20
18.546453629
 30
0.0
 40
2.201836557
100
AcDbArc
 50
84.0400061857
 51
103.3427657870999
  0
ARC
  5
78
330
3A
100
AcDbEntity
  8
0
  6
Continuous
 62
     7
100
AcDbCircle
 10
314.0552333846
 20
16.1290897051
 30
0.0
 40
4.642373736499997
100
AcDbArc
 50
70.2625858546
 51
82.95241863799999
  0
ARC
  5
79
330
3A
100
AcDbEntity
  8
0
  6
Continuous
 62
     7
100
AcDbCircle
 10
313.5412151824001
 20
20.8007125947
 30
0.0
 40
3.258755990899997
100
AcDbArc
 50
247.5300206145
 51
280.7579522143
  0
ARC
  5
7A
330
3A
100
AcDbEntity
  8
0
  6
Continuous
 62
     7
100
AcDbCircle
 10
307.1562487104
 20
2.5491926343
 30
0.0
 40
17.3316084133
100
AcDbArc
 50
65.34146746500001
 51
67.39977707359999
  0
ARC
  5
7B
330
3A
100
AcDbEntity
  8
0
  6
Continuous
 62
     7
100
AcDbCircle
 10
317.9521111158
 20
28.3416189974
 30
0.0
 40
10.6291642039
100
AcDbArc
 50
242.8620101252001
 51
247.1042029186
  0
ARC
  5
7C
330
3A
100
AcDbEntity
  8
0
  6
Continuous
 62
     7
100
AcDbCircle
 10
314.0972098893
 20
20.8076875004
 30
0.0
 40
2.166291629199998
100
AcDbArc
 50
227.3119280794
 51
242.7040315235
  0
ARC
  5
7D
330
3A
100
AcDbEntity
  8
0
  6
Continuous
 62
     7
100
AcDbCircle
 10
313.4931790796
 20
20.1020098596
 30
0.0
 40
1.238521734
100
AcDbArc
 50
194.7952194236
 51
225.7176549047
  0
ARC
  5
7E
330
3A
100
AcDbEntity
  8
0
  6
Continuous
 62
     7
100
AcDbCircle
 10
313.5553372138
 20
20.1422298287
 30
0.0
 40
1.309092072899999
100
AcDbArc
 50
164.1974860461
 51
195.8025139539
  0
ARC
  5
7F
330
3A
100
AcDbEntity
  8
0
  6
Continuous
 62
     7
100
AcDbCircle
 10
314.1123609345001
 20
19.2539626688
 30
0.0
 40
2.366924815299999
100
AcDbArc
 50
86.22180229280001
 51
120.4272602309
  0
ARC
  5
80
330
3A
100
AcDbEntity
  8
0
  6
Continuous
 62
     7
100
AcDbCircle
 10
313.8435041519
 20
12.5577948477
 30
0.0
 40
9.0679051661
100
AcDbArc
 50
78.68270492259998
 51
87.3147599624
  0
ARC
  5
81
330
3A
100
AcDbEntity
  8
0
  6
Continuous
 62
     7
100
AcDbCircle
 10
313.3874349735
 20
20.2497375912
 30
0.0
 40
1.119747444
100
AcDbArc
 50
142.813917903
 51
167.1522951417
  0
ARC
  5
82
330
3A
100
AcDbEntity
  8
0
  6
Continuous
 62
     7
100
AcDbCircle
 10
313.7327443151
 20
19.9431558946
 30
0.0
 40
1.580546684499998
100
AcDbArc
 50
121.2140948535
 51
141.5254768286
  0
ARC
  5
83
330
3A
100
AcDbEntity
  8
0
  6
Continuous
 62
     7
100
AcDbCircle
 10
314.3099186807
 20
20.7542132232
 30
0.0
 40
0.8661276051999998
100
AcDbArc
 50
222.7760387596
 51
239.0362434679
  0
ARC
  5
84
330
3A
100
AcDbEntity
  8
0
  6
Continuous
 62
     7
100
AcDbCircle
 10
311.8032091024
 20
13.4239410246
 30
0.0
 40
6.858773576299999
100
AcDbArc
 50
59.90202725600001
 51
68.2036481279
  0
ARC
  5
85
330
3A
100
AcDbEntity
  8
0
  6
Continuous
 62
     7
100
AcDbCircle
 10
315.2117035963
 20
22.3498275319
 30
0.0
 40
2.698741017099999
100
AcDbArc
 50
240.0481997804
 51
251.3779673736999
  0
ARC
  5
86
330
3A
100
AcDbEntity
  8
0
  6
Continuous
 62
     7
100
AcDbCircle
 10
314.5462464295
 20
18.1929289165
 30
0.0
 40
1.4334474881
100
AcDbArc
 50
315.8904553224
 51
333.5229264373
  0
ARC
  5
87
330
3A
100
AcDbEntity
  8
0
  6
Continuous
 62
     7
100
AcDbCircle
 10
314.5508846732
 20
18.1395217664
 30
0.0
 40
1.406228711899998
100
AcDbArc
 50
335.3867972702
 51
24.3915119402
  0
ARC
  5
88
330
3A
100
AcDbEntity
  8
0
  6
Continuous
 62
     7
100
AcDbCircle
 10
314.4786797697
 20
18.0616650746
 30
0.0
 40
1.504702514799999
100
AcDbArc
 50
25.95629166050001
 51
59.4834829668
  0
LINE
  5
89
330
3A
100
AcDbEntity
  8
0
  6
Continuous
 62
     7
100
AcDbLine
 10
284.7029938783
 20
16.8387078159
 30
0.0
 11
284.7029938783
 21
17.7893616325
 31
0.0
  0
LINE
  5
8A
330
3A
100
AcDbEntity
  8
0
  6
Continuous
 62
     7
100
AcDbLine
 10
288.0302822366
 20
20.49872501
 30
0.0
 11
288.0302822366
 21
21.4493788266
 31
0.0
  0
ARC
  5
8B
330
3A
100
AcDbEntity
  8
0
  6
Continuous
 62
     7
100
AcDbCircle
 10
286.4076350033
 20
18.7008009792
 30
0.0
 40
1.111619360599997
100
AcDbArc
 50
277.7099956934
 51
295.6884927746
  0
ARC
  5
8C
330
3A
100
AcDbEntity
  8
0
  6
Continuous
 62
     7
100
AcDbCircle
 10
286.691944986
 20
17.9759752156
 30
0.0
 40
0.3401689265
100
AcDbArc
 50
305.5032212556
 51
72.4652898515
  0
ARC
  5
8D
330
3A
100
AcDbEntity
  8
0
  6
Continuous
 62
     7
100
AcDbCircle
 10
286.1259511779
 20
21.3776821252
 30
0.0
 40
4.756794641099999
100
AcDbArc
 50
252.5939200545
 51
280.9816604253
  0
ARC
  5
8E
330
3A
100
AcDbEntity
  8
0
  6
Continuous
 62
     7
100
AcDbCircle
 10
286.580786541
 20
18.7596683887
 30
0.0
 40
2.100726595299998
100
AcDbArc
 50
282.4058358513
 51
311.8644433923
  0
ARC
  5
8F
330
3A
100
AcDbEntity
  8
0
  6
Continuous
 62
     7
100
AcDbCircle
 10
286.3072221939
 20
20.3680101102
 30
0.0
 40
0.3029626476
100
AcDbArc
 50
154.4400348282
 51
221.8201698801
  0
ARC
  5
90
330
3A
100
AcDbEntity
  8
0
  6
Continuous
 62
     7
100
AcDbCircle
 10
286.3864433453
 20
20.2887889588
 30
0.0
 40
0.4103089737
100
AcDbArc
 50
102.8287828727
 51
149.2259639027
  0
ARC
  5
91
330
3A
100
AcDbEntity
  8
0
  6
Continuous
 62
     7
100
AcDbCircle
 10
286.8034701809
 20
18.546453629
 30
0.0
 40
2.201836557
100
AcDbArc
 50
84.0400061859
 51
103.3427657872
  0
ARC
  5
92
330
3A
100
AcDbEntity
  8
0
  6
Continuous
 62
     7
100
AcDbCircle
 10
286.4625063562
 20
16.1290897051
 30
0.0
 40
4.642373736499997
100
AcDbArc
 50
70.2625858546
 51
82.9524186379
  0
ARC
  5
93
330
3A
100
AcDbEntity
  8
0
  6
Continuous
 62
     7
100
AcDbCircle
 10
285.948488154
 20
20.8007125947
 30
0.0
 40
3.258755990899997
100
AcDbArc
 50
247.5300206148
 51
280.7579522145
  0
ARC
  5
94
330
3A
100
AcDbEntity
  8
0
  6
Continuous
 62
     7
100
AcDbCircle
 10
279.563521682
 20
2.5491926343
 30
0.0
 40
17.3316084133
100
AcDbArc
 50
65.34146746500001
 51
67.39977707359999
  0
ARC
  5
95
330
3A
100
AcDbEntity
  8
0
  6
Continuous
 62
     7
100
AcDbCircle
 10
290.3593840874
 20
28.3416189974
 30
0.0
 40
10.6291642039
100
AcDbArc
 50
242.8620101252001
 51
247.1042029185
  0
ARC
  5
96
330
3A
100
AcDbEntity
  8
0
  6
Continuous
 62
     7
100
AcDbCircle
 10
286.5044828608
 20
20.8076875004
 30
0.0
 40
2.166291629199998
100
AcDbArc
 50
227.3119280794
 51
242.7040315235
  0
ARC
  5
97
330
3A
100
AcDbEntity
  8
0
  6
Continuous
 62
     7
100
AcDbCircle
 10
285.9004520512
 20
20.1020098596
 30
0.0
 40
1.238521734
100
AcDbArc
 50
194.7952194234
 51
225.7176549042
  0
ARC
  5
98
330
3A
100
AcDbEntity
  8
0
  6
Continuous
 62
     7
100
AcDbCircle
 10
286.519633906
 20
19.2539626688
 30
0.0
 40
2.366924815299999
100
AcDbArc
 50
86.22180229280001
 51
120.4272602309
  0
ARC
  5
99
330
3A
100
AcDbEntity
  8
0
  6
Continuous
 62
     7
100
AcDbCircle
 10
286.2507771235
 20
12.5577948477
 30
0.0
 40
9.0679051661
100
AcDbArc
 50
78.68270492259998
 51
87.3147599624
  0
ARC
  5
9A
330
3A
100
AcDbEntity
  8
0
  6
Continuous
 62
     7
100
AcDbCircle
 10
286.1400172867
 20
19.9431558946
 30
0.0
 40
1.580546684599998
100
AcDbArc
 50
121.2140948541
 51
141.525476829
  0
ARC
  5
9B
330
3A
100
AcDbEntity
  8
0
  6
Continuous
 62
     7
100
AcDbCircle
 10
286.7171916523
 20
20.7542132232
 30
0.0
 40
0.8661276051999998
100
AcDbArc
 50
222.7760387596
 51
239.0362434679
  0
ARC
  5
9C
330
3A
100
AcDbEntity
  8
0
  6
Continuous
 62
     7
100
AcDbCircle
 10
284.210482074
 20
13.4239410246
 30
0.0
 40
6.858773576299999
100
AcDbArc
 50
59.90202725620001
 51
68.20364812820002
  0
ARC
  5
9D
330
3A
100
AcDbEntity
  8
0
  6
Continuous
 62
     7
100
AcDbCircle
 10
287.6189765678
 20
22.3498275319
 30
0.0
 40
2.698741017099999
100
AcDbArc
 50
240.0481997804
 51
251.3779673734
  0
ARC
  5
9E
330
3A
100
AcDbEntity
  8
0
  6
Continuous
 62
     7
100
AcDbCircle
 10
286.953519401
 20
18.1929289165
 30
0.0
 40
1.4334474881
100
AcDbArc
 50
315.8904553226
 51
333.5229264375
  0
ARC
  5
9F
330
3A
100
AcDbEntity
  8
0
  6
Continuous
 62
     7
100
AcDbCircle
 10
286.9581576447
 20
18.1395217664
 30
0.0
 40
1.406228711899998
100
AcDbArc
 50
335.3867972703
 51
24.3915119403
  0
ARC
  5
A0
330
3A
100
AcDbEntity
  8
0
  6
Continuous
 62
     7
100
AcDbCircle
 10
286.8859527412
 20
18.0616650746
 30
0.0
 40
1.504702514699999
100
AcDbArc
 50
25.9562916611
 51
59.4834829676
  0
LINE
  5
A1
330
3A
100
AcDbEntity
  8
0
  6
Continuous
 62
     7
100
AcDbLine
 10
284.8948224676
 20
20.9161059766
 30
0.0
 11
285.1688882922
 21
21.1901790542
 31
0.0
  0
ARC
  5
A2
330
3A
100
AcDbEntity
  8
0
  6
Continuous
 62
     7
100
AcDbCircle
 10
285.9626101853
 20
20.1422298287
 30
0.0
 40
1.309092072899999
100
AcDbArc
 50
164.1974860461
 51
195.8025139539
  0
ARC
  5
A3
330
3A
100
AcDbEntity
  8
0
  6
Continuous
 62
     7
100
AcDbCircle
 10
285.7947079451
 20
20.2497375912
 30
0.0
 40
1.119747444
100
AcDbArc
 50
142.813917903
 51
167.1522951417
  0
ENDBLK
  5
A4
330
3A
100
AcDbEntity
  8
0
100
AcDbBlockEnd
  0
BLOCK
  5
CE58
330
CE4E
100
AcDbEntity
  8
0
100
AcDbBlockBegin
  2
*D1
 70
     1
 10
0.0
 20
0.0
 30
0.0
  3
*D1
  1

  0
LINE
  5
D0AF
330
CE4E
100
AcDbEntity
  8
10100_FRONT_DIM
  6
Continuous
 62
     7
370
    -2
100
AcDbLine
 10
-17.73722197178529
 20
689.0158466542555
 30
0.0
 11
-17.73722197178529
 21
711.0622058002353
 31
0.0
  0
LINE
  5
D0B0
330
CE4E
100
AcDbEntity
  8
10100_FRONT_DIM
  6
Continuous
 62
     7
370
    -2
100
AcDbLine
 10
29.4627780282147
 20
689.0158466542555
 30
0.0
 11
29.4627780282147
 21
711.0622058002353
 31
0.0
  0
LINE
  5
D0B1
330
CE4E
100
AcDbEntity
  8
10100_FRONT_DIM
  6
Continuous
370
    -2
100
AcDbLine
 10
-14.23722197178529
 20
709.0622058002353
 30
0.0
 11
1.446111332037831
 21
709.0622058002353
 31
0.0
  0
LINE
  5
D0B2
330
CE4E
100
AcDbEntity
  8
10100_FRONT_DIM
  6
Continuous
370
    -2
100
AcDbLine
 10
25.9627780282147
 20
709.0622058002353
 30
0.0
 11
10.27944466537117
 21
709.0622058002353
 31
0.0
  0
MTEXT
  5
D0B3
330
CE4E
100
AcDbEntity
  8
10100_FRONT_DIM
  6
Continuous
 62
     7
370
    13
100
AcDbMText
 10
5.862777998704501
 20
709.0622058002353
 30
0.0
 40
3.5
 41
0.0
 71
     5
 72
     1
  1
\A1;47
 73
     1
 44
1.0
1001
ACAD
1000
MTEXTBEGIN
1070
    73
1070
     1
1070
    44
1040
1.0
1070
    74
1070
     0
1000
MTEXTEND
  0
SOLID
  5
D0B4
330
CE4E
100
AcDbEntity
  8
10100_FRONT_DIM
  6
Continuous
100
AcDbTrace
 10
-14.23722197178529
 20
709.6455391335686
 30
0.0
 11
-14.23722197178529
 21
708.4788724669017
 31
0.0
 12
-17.73722197178529
 22
709.0622058002353
 32
0.0
 13
-17.73722197178529
 23
709.0622058002353
 33
0.0
  0
SOLID
  5
D0B5
330
CE4E
100
AcDbEntity
  8
10100_FRONT_DIM
  6
Continuous
100
AcDbTrace
 10
25.9627780282147
 20
709.6455391335686
 30
0.0
 11
25.9627780282147
 21
708.4788724669017
 31
0.0
 12
29.4627780282147
 22
709.0622058002353
 32
0.0
 13
29.4627780282147
 23
709.0622058002353
 33
0.0
  0
POINT
  5
D0B6
330
CE4E
100
AcDbEntity
  8
Defpoints
  6
Continuous
 62
     0
100
AcDbPoint
 10
-17.73722197178529
 20
689.0158466542555
 30
0.0
  0
POINT
  5
D0B7
330
CE4E
100
AcDbEntity
  8
Defpoints
  6
Continuous
 62
     0
100
AcDbPoint
 10
29.4627780282147
 20
689.0158466542555
 30
0.0
  0
POINT
  5
D0B8
330
CE4E
100
AcDbEntity
  8
Defpoints
  6
Continuous
 62
     0
100
AcDbPoint
 10
29.4627780282147
 20
709.0622058002353
 30
0.0
  0
ENDBLK
  5
CE59
330
CE4E
100
AcDbEntity
  8
0
100
AcDbBlockEnd
  0
BLOCK
  5
CE64
330
CE5A
100
AcDbEntity
  8
0
100
AcDbBlockBegin
  2
*D2
 70
     1
 10
0.0
 20
0.0
 30
0.0
  3
*D2
  1

  0
LINE
  5
D1E7
330
CE5A
100
AcDbEntity
  8
11100_LEFT_DIM
  6
Continuous
 62
     7
370
    -2
100
AcDbLine
 10
143.2053385278133
 20
690.0158466542555
 30
0.0
 11
143.2053385278133
 21
725.969860076794
 31
0.0
  0
LINE
  5
D1E8
330
CE5A
100
AcDbEntity
  8
11100_LEFT_DIM
  6
Continuous
 62
     7
370
    -2
100
AcDbLine
 10
183.2053385278133
 20
669.2463027375192
 30
0.0
 11
183.2053385278133
 21
725.969860076794
 31
0.0
  0
LINE
  5
D1E9
330
CE5A
100
AcDbEntity
  8
11100_LEFT_DIM
  6
Continuous
370
    -2
100
AcDbLine
 10
146.7053385278133
 20
723.969860076794
 30
0.0
 11
159.0803385278133
 21
723.969860076794
 31
0.0
  0
LINE
  5
D1EA
330
CE5A
100
AcDbEntity
  8
11100_LEFT_DIM
  6
Continuous
370
    -2
100
AcDbLine
 10
179.7053385278133
 20
723.969860076794
 30
0.0
 11
167.3303385278133
 21
723.969860076794
 31
0.0
  0
SOLID
  5
D1EB
330
CE5A
100
AcDbEntity
  8
11100_LEFT_DIM
  6
Continuous
100
AcDbTrace
 10
146.7053385278133
 20
724.5531934101274
 30
0.0
 11
146.7053385278133
 21
723.3865267434606
 31
0.0
 12
143.2053385278133
 22
723.969860076794
 32
0.0
 13
143.2053385278133
 23
723.969860076794
 33
0.0
  0
SOLID
  5
D1EC
330
CE5A
100
AcDbEntity
  8
11100_LEFT_DIM
  6
Continuous
100
AcDbTrace
 10
179.7053385278133
 20
724.5531934101274
 30
0.0
 11
179.7053385278133
 21
723.3865267434606
 31
0.0
 12
183.2053385278133
 22
723.969860076794
 32
0.0
 13
183.2053385278133
 23
723.969860076794
 33
0.0
  0
MTEXT
  5
D1ED
330
CE5A
100
AcDbEntity
  8
11100_LEFT_DIM
  6
Continuous
 62
     7
370
    13
100
AcDbMText
 10
163.2053385278133
 20
723.969860076794
 30
0.0
 40
3.5
 41
0.0
 71
     5
 72
     1
  1
\A1;40
 73
     1
 44
1.0
1001
ACAD
1000
MTEXTBEGIN
1070
    73
1070
     1
1070
    44
1040
1.0
1070
    74
1070
     0
1000
MTEXTEND
  0
POINT
  5
D1EE
330
CE5A
100
AcDbEntity
  8
Defpoints
  6
Continuous
 62
     0
100
AcDbPoint
 10
143.2053385278133
 20
690.0158466542555
 30
0.0
  0
POINT
  5
D1EF
330
CE5A
100
AcDbEntity
  8
Defpoints
  6
Continuous
 62
     0
100
AcDbPoint
 10
183.2053385278133
 20
669.2463027375192
 30
0.0
  0
POINT
  5
D1F0
330
CE5A
100
AcDbEntity
  8
Defpoints
  6
Continuous
 62
     0
100
AcDbPoint
 10
183.2053385278133
 20
723.969860076794
 30
0.0
  0
ENDBLK
  5
CE65
330
CE5A
100
AcDbEntity
  8
0
100
AcDbBlockEnd
  0
BLOCK
  5
CE70
330
CE66
100
AcDbEntity
  8
0
100
AcDbBlockBegin
  2
*D3
 70
     1
 10
0.0
 20
0.0
 30
0.0
  3
*D3
  1

  0
LINE
  5
D1DD
330
CE66
100
AcDbEntity
  8
11100_LEFT_DIM
  6
Continuous
 62
     7
370
    -2
100
AcDbLine
 10
157.2053385278133
 20
687.0158466542553
 30
0.0
 11
157.2053385278133
 21
713.1438552754373
 31
0.0
  0
LINE
  5
D1DE
330
CE66
100
AcDbEntity
  8
11100_LEFT_DIM
  6
Continuous
 62
     7
370
    -2
100
AcDbLine
 10
183.2053385278133
 20
669.5439026012909
 30
0.0
 11
183.2053385278133
 21
713.1438552754373
 31
0.0
  0
LINE
  5
D1DF
330
CE66
100
AcDbEntity
  8
11100_LEFT_DIM
  6
Continuous
370
    -2
100
AcDbLine
 10
160.7053385278133
 20
711.1438552754373
 30
0.0
 11
165.7886718611466
 21
711.1438552754373
 31
0.0
  0
LINE
  5
D1E0
330
CE66
100
AcDbEntity
  8
11100_LEFT_DIM
  6
Continuous
370
    -2
100
AcDbLine
 10
179.7053385278133
 20
711.1438552754373
 30
0.0
 11
174.62200519448
 21
711.1438552754373
 31
0.0
  0
SOLID
  5
D1E1
330
CE66
100
AcDbEntity
  8
11100_LEFT_DIM
  6
Continuous
100
AcDbTrace
 10
160.7053385278133
 20
711.7271886087706
 30
0.0
 11
160.7053385278133
 21
710.5605219421037
 31
0.0
 12
157.2053385278133
 22
711.1438552754373
 32
0.0
 13
157.2053385278133
 23
711.1438552754373
 33
0.0
  0
SOLID
  5
D1E2
330
CE66
100
AcDbEntity
  8
11100_LEFT_DIM
  6
Continuous
100
AcDbTrace
 10
179.7053385278133
 20
711.7271886087706
 30
0.0
 11
179.7053385278133
 21
710.5605219421037
 31
0.0
 12
183.2053385278133
 22
711.1438552754373
 32
0.0
 13
183.2053385278133
 23
711.1438552754373
 33
0.0
  0
MTEXT
  5
D1E3
330
CE66
100
AcDbEntity
  8
11100_LEFT_DIM
  6
Continuous
 62
     7
370
    13
100
AcDbMText
 10
170.2053385278133
 20
711.1438552754373
 30
0.0
 40
3.5
 41
0.0
 71
     5
 72
     1
  1
\A1;26
 73
     1
 44
1.0
1001
ACAD
1000
MTEXTBEGIN
1070
    73
1070
     1
1070
    44
1040
1.0
1070
    74
1070
     0
1000
MTEXTEND
  0
POINT
  5
D1E4
330
CE66
100
AcDbEntity
  8
Defpoints
  6
Continuous
 62
     0
100
AcDbPoint
 10
157.2053385278133
 20
687.0158466542553
 30
0.0
  0
POINT
  5
D1E5
330
CE66
100
AcDbEntity
  8
Defpoints
  6
Continuous
 62
     0
100
AcDbPoint
 10
183.2053385278133
 20
669.5439026012909
 30
0.0
  0
POINT
  5
D1E6
330
CE66
100
AcDbEntity
  8
Defpoints
  6
Continuous
 62
     0
100
AcDbPoint
 10
183.2053385278133
 20
711.1438552754373
 30
0.0
  0
ENDBLK
  5
CE71
330
CE66
100
AcDbEntity
  8
0
100
AcDbBlockEnd
  0
BLOCK
  5
CE7C
330
CE72
100
AcDbEntity
  8
0
100
AcDbBlockBegin
  2
*D4
 70
     1
 10
0.0
 20
0.0
 30
0.0
  3
*D4
  1

  0
LINE
  5
D069
330
CE72
100
AcDbEntity
  8
11100_LEFT_DIM
  6
Continuous
 62
     7
370
    -2
100
AcDbLine
 10
99.2053385278133
 20
682.2158466542555
 30
0.0
 11
99.2053385278133
 21
725.969860076794
 31
0.0
  0
LINE
  5
D06A
330
CE72
100
AcDbEntity
  8
11100_LEFT_DIM
  6
Continuous
 62
     7
370
    -2
100
AcDbLine
 10
143.2053385278133
 20
689.0158466542555
 30
0.0
 11
143.2053385278133
 21
725.969860076794
 31
0.0
  0
LINE
  5
D06B
330
CE72
100
AcDbEntity
  8
11100_LEFT_DIM
  6
Continuous
370
    -2
100
AcDbLine
 10
102.7053385278133
 20
723.969860076794
 30
0.0
 11
116.7886718611466
 21
723.969860076794
 31
0.0
  0
LINE
  5
D06C
330
CE72
100
AcDbEntity
  8
11100_LEFT_DIM
  6
Continuous
370
    -2
100
AcDbLine
 10
139.7053385278133
 20
723.969860076794
 30
0.0
 11
125.6220051944799
 21
723.969860076794
 31
0.0
  0
SOLID
  5
D06D
330
CE72
100
AcDbEntity
  8
11100_LEFT_DIM
  6
Continuous
100
AcDbTrace
 10
102.7053385278133
 20
724.5531934101274
 30
0.0
 11
102.7053385278133
 21
723.3865267434606
 31
0.0
 12
99.2053385278133
 22
723.969860076794
 32
0.0
 13
99.2053385278133
 23
723.969860076794
 33
0.0
  0
SOLID
  5
D06E
330
CE72
100
AcDbEntity
  8
11100_LEFT_DIM
  6
Continuous
100
AcDbTrace
 10
139.7053385278133
 20
724.5531934101274
 30
0.0
 11
139.7053385278133
 21
723.3865267434606
 31
0.0
 12
143.2053385278133
 22
723.969860076794
 32
0.0
 13
143.2053385278133
 23
723.969860076794
 33
0.0
  0
MTEXT
  5
D06F
330
CE72
100
AcDbEntity
  8
11100_LEFT_DIM
  6
Continuous
 62
     7
370
    13
100
AcDbMText
 10
121.2053385278133
 20
723.969860076794
 30
0.0
 40
3.5
 41
0.0
 71
     5
 72
     1
  1
\A1;44
 73
     1
 44
1.0
1001
ACAD
1000
MTEXTBEGIN
1070
    73
1070
     1
1070
    44
1040
1.0
1070
    74
1070
     0
1000
MTEXTEND
  0
POINT
  5
D070
330
CE72
100
AcDbEntity
  8
Defpoints
  6
Continuous
 62
     0
100
AcDbPoint
 10
99.2053385278133
 20
682.2158466542555
 30
0.0
  0
POINT
  5
D071
330
CE72
100
AcDbEntity
  8
Defpoints
  6
Continuous
 62
     0
100
AcDbPoint
 10
143.2053385278133
 20
689.0158466542555
 30
0.0
  0
POINT
  5
D072
330
CE72
100
AcDbEntity
  8
Defpoints
  6
Continuous
 62
     0
100
AcDbPoint
 10
143.2053385278133
 20
723.969860076794
 30
0.0
  0
ENDBLK
  5
CE7D
330
CE72
100
AcDbEntity
  8
0
100
AcDbBlockEnd
  0
BLOCK
  5
CE88
330
CE7E
100
AcDbEntity
  8
0
100
AcDbBlockBegin
  2
*D5
 70
     1
 10
0.0
 20
0.0
 30
0.0
  3
*D5
  1

  0
LINE
  5
D05F
330
CE7E
100
AcDbEntity
  8
11100_LEFT_DIM
  6
Continuous
 62
     7
370
    -2
100
AcDbLine
 10
99.2053385278133
 20
682.2158466542555
 30
0.0
 11
99.2053385278133
 21
713.1438552754373
 31
0.0
  0
LINE
  5
D060
330
CE7E
100
AcDbEntity
  8
11100_LEFT_DIM
  6
Continuous
 62
     7
370
    -2
100
AcDbLine
 10
136.2053385278133
 20
688.7158466542555
 30
0.0
 11
136.2053385278133
 21
713.1438552754373
 31
0.0
  0
LINE
  5
D061
330
CE7E
100
AcDbEntity
  8
11100_LEFT_DIM
  6
Continuous
370
    -2
100
AcDbLine
 10
102.7053385278133
 20
711.1438552754373
 30
0.0
 11
113.2886718611466
 21
711.1438552754373
 31
0.0
  0
LINE
  5
D062
330
CE7E
100
AcDbEntity
  8
11100_LEFT_DIM
  6
Continuous
370
    -2
100
AcDbLine
 10
132.7053385278133
 20
711.1438552754373
 30
0.0
 11
122.1220051944799
 21
711.1438552754373
 31
0.0
  0
SOLID
  5
D063
330
CE7E
100
AcDbEntity
  8
11100_LEFT_DIM
  6
Continuous
100
AcDbTrace
 10
102.7053385278133
 20
711.7271886087707
 30
0.0
 11
102.7053385278133
 21
710.5605219421041
 31
0.0
 12
99.2053385278133
 22
711.1438552754373
 32
0.0
 13
99.2053385278133
 23
711.1438552754373
 33
0.0
  0
SOLID
  5
D064
330
CE7E
100
AcDbEntity
  8
11100_LEFT_DIM
  6
Continuous
100
AcDbTrace
 10
132.7053385278133
 20
711.7271886087707
 30
0.0
 11
132.7053385278133
 21
710.5605219421041
 31
0.0
 12
136.2053385278133
 22
711.1438552754373
 32
0.0
 13
136.2053385278133
 23
711.1438552754373
 33
0.0
  0
MTEXT
  5
D065
330
CE7E
100
AcDbEntity
  8
11100_LEFT_DIM
  6
Continuous
 62
     7
370
    13
100
AcDbMText
 10
117.7053385278133
 20
711.1438552754373
 30
0.0
 40
3.5
 41
0.0
 71
     5
 72
     1
  1
\A1;37
 73
     1
 44
1.0
1001
ACAD
1000
MTEXTBEGIN
1070
    73
1070
     1
1070
    44
1040
1.0
1070
    74
1070
     0
1000
MTEXTEND
  0
POINT
  5
D066
330
CE7E
100
AcDbEntity
  8
Defpoints
  6
Continuous
 62
     0
100
AcDbPoint
 10
99.2053385278133
 20
682.2158466542555
 30
0.0
  0
POINT
  5
D067
330
CE7E
100
AcDbEntity
  8
Defpoints
  6
Continuous
 62
     0
100
AcDbPoint
 10
136.2053385278133
 20
688.7158466542555
 30
0.0
  0
POINT
  5
D068
330
CE7E
100
AcDbEntity
  8
Defpoints
  6
Continuous
 62
     0
100
AcDbPoint
 10
136.2053385278133
 20
711.1438552754373
 30
0.0
  0
ENDBLK
  5
CE89
330
CE7E
100
AcDbEntity
  8
0
100
AcDbBlockEnd
  0
BLOCK
  5
CE96
330
CE8A
100
AcDbEntity
  8
0
100
AcDbBlockBegin
  2
*D6
 70
     1
 10
0.0
 20
0.0
 30
0.0
  3
*D6
  1

  0
LINE
  5
D054
330
CE8A
100
AcDbEntity
  8
11100_LEFT_DIM
  6
Continuous
 62
     7
370
    -2
100
AcDbLine
 10
94.2053385278133
 20
698.7158466542555
 30
0.0
 11
94.2053385278133
 21
713.1438552754373
 31
0.0
  0
LINE
  5
D055
330
CE8A
100
AcDbEntity
  8
11100_LEFT_DIM
  6
Continuous
 62
     7
370
    -2
100
AcDbLine
 10
99.2053385278133
 20
682.2158466542555
 30
0.0
 11
99.2053385278133
 21
713.1438552754373
 31
0.0
  0
LINE
  5
D056
330
CE8A
100
AcDbEntity
  8
11100_LEFT_DIM
  6
Continuous
370
    -2
100
AcDbLine
 10
90.70533852781329
 20
711.1438552754373
 30
0.0
 11
87.20533852781329
 21
711.1438552754373
 31
0.0
  0
LINE
  5
D057
330
CE8A
100
AcDbEntity
  8
11100_LEFT_DIM
  6
Continuous
370
    -2
100
AcDbLine
 10
102.7053385278133
 20
711.1438552754373
 30
0.0
 11
106.2053385278133
 21
711.1438552754373
 31
0.0
  0
MTEXT
  5
D058
330
CE8A
100
AcDbEntity
  8
11100_LEFT_DIM
  6
Continuous
 62
     7
370
    13
100
AcDbMText
 10
85.37200519447996
 20
711.1438552754373
 30
0.0
 40
3.5
 41
0.0
 71
     5
 72
     1
  1
\A1;5
 73
     1
 44
1.0
1001
ACAD
1000
MTEXTBEGIN
1070
    73
1070
     1
1070
    44
1040
1.0
1070
    74
1070
     0
1000
MTEXTEND
  0
LINE
  5
D059
330
CE8A
100
AcDbEntity
  8
11100_LEFT_DIM
  6
Continuous
370
    -2
100
AcDbLine
 10
94.2053385278133
 20
711.1438552754373
 30
0.0
 11
99.2053385278133
 21
711.1438552754373
 31
0.0
  0
SOLID
  5
D05A
330
CE8A
100
AcDbEntity
  8
11100_LEFT_DIM
  6
Continuous
100
AcDbTrace
 10
90.70533852781329
 20
711.7271886087707
 30
0.0
 11
90.70533852781329
 21
710.5605219421041
 31
0.0
 12
94.2053385278133
 22
711.1438552754373
 32
0.0
 13
94.2053385278133
 23
711.1438552754373
 33
0.0
  0
SOLID
  5
D05B
330
CE8A
100
AcDbEntity
  8
11100_LEFT_DIM
  6
Continuous
100
AcDbTrace
 10
102.7053385278133
 20
711.7271886087707
 30
0.0
 11
102.7053385278133
 21
710.5605219421041
 31
0.0
 12
99.2053385278133
 22
711.1438552754373
 32
0.0
 13
99.2053385278133
 23
711.1438552754373
 33
0.0
  0
POINT
  5
D05C
330
CE8A
100
AcDbEntity
  8
Defpoints
  6
Continuous
 62
     0
100
AcDbPoint
 10
94.2053385278133
 20
698.7158466542555
 30
0.0
  0
POINT
  5
D05D
330
CE8A
100
AcDbEntity
  8
Defpoints
  6
Continuous
 62
     0
100
AcDbPoint
 10
99.2053385278133
 20
682.2158466542555
 30
0.0
  0
POINT
  5
D05E
330
CE8A
100
AcDbEntity
  8
Defpoints
  6
Continuous
 62
     0
100
AcDbPoint
 10
99.2053385278133
 20
711.1438552754373
 30
0.0
  0
ENDBLK
  5
CE97
330
CE8A
100
AcDbEntity
  8
0
100
AcDbBlockEnd
  0
BLOCK
  5
CF57
330
CF4D
100
AcDbEntity
  8
0
100
AcDbBlockBegin
  2
*D7
 70
     1
 10
0.0
 20
0.0
 30
0.0
  3
*D7
  1

  0
LINE
  5
D0A5
330
CF4D
100
AcDbEntity
  8
10100_FRONT_DIM
  6
Continuous
 62
     7
370
    -2
100
AcDbLine
 10
28.3627784987045
 20
689.8158466542552
 30
0.0
 11
60.67872980533458
 21
689.8158466542552
 31
0.0
  0
LINE
  5
D0A6
330
CF4D
100
AcDbEntity
  8
10100_FRONT_DIM
  6
Continuous
 62
     7
370
    -2
100
AcDbLine
 10
28.36277849870382
 20
639.2158466542556
 30
0.0
 11
60.67872980533457
 21
639.2158466542556
 31
0.0
  0
LINE
  5
D0A7
330
CF4D
100
AcDbEntity
  8
10100_FRONT_DIM
  6
Continuous
370
    -2
100
AcDbLine
 10
58.67872980533458
 20
686.3158466542552
 30
0.0
 11
58.67872980533458
 21
668.3491799875887
 31
0.0
  0
LINE
  5
D0A8
330
CF4D
100
AcDbEntity
  8
10100_FRONT_DIM
  6
Continuous
370
    -2
100
AcDbLine
 10
58.67872980533457
 20
642.7158466542556
 30
0.0
 11
58.67872980533458
 21
660.6825133209221
 31
0.0
  0
SOLID
  5
D0A9
330
CF4D
100
AcDbEntity
  8
10100_FRONT_DIM
  6
Continuous
100
AcDbTrace
 10
58.09539647200124
 20
686.3158466542552
 30
0.0
 11
59.26206313866789
 21
686.3158466542552
 31
0.0
 12
58.67872980533459
 22
689.8158466542552
 32
0.0
 13
58.67872980533459
 23
689.8158466542552
 33
0.0
  0
SOLID
  5
D0AA
330
CF4D
100
AcDbEntity
  8
10100_FRONT_DIM
  6
Continuous
100
AcDbTrace
 10
58.09539647200121
 20
642.7158466542556
 30
0.0
 11
59.26206313866789
 21
642.7158466542556
 31
0.0
 12
58.67872980533457
 22
639.2158466542556
 32
0.0
 13
58.67872980533457
 23
639.2158466542556
 33
0.0
  0
MTEXT
  5
D0AB
330
CF4D
100
AcDbEntity
  8
10100_FRONT_DIM
  6
Continuous
 62
     7
370
    13
100
AcDbMText
 10
58.67872980533447
 20
664.5158466542555
 30
0.0
 40
3.5
 41
0.0
 71
     5
 72
     1
  1
\A1;51
 11
0.0000000000000001
 21
1.0
 31
0.0
 73
     1
 44
1.0
1001
ACAD
1000
MTEXTBEGIN
1070
    73
1070
     1
1070
    44
1040
1.0
1070
    74
1070
     0
1000
MTEXTEND
  0
POINT
  5
D0AC
330
CF4D
100
AcDbEntity
  8
Defpoints
  6
Continuous
 62
     0
100
AcDbPoint
 10
28.3627784987045
 20
689.8158466542552
 30
0.0
  0
POINT
  5
D0AD
330
CF4D
100
AcDbEntity
  8
Defpoints
  6
Continuous
 62
     0
100
AcDbPoint
 10
28.36277849870382
 20
639.2158466542556
 30
0.0
  0
POINT
  5
D0AE
330
CF4D
100
AcDbEntity
  8
Defpoints
  6
Continuous
 62
     0
100
AcDbPoint
 10
58.67872980533457
 20
639.2158466542556
 30
0.0
  0
ENDBLK
  5
CF58
330
CF4D
100
AcDbEntity
  8
0
100
AcDbBlockEnd
  0
BLOCK
  5
CF64
330
CF5A
100
AcDbEntity
  8
0
100
AcDbBlockBegin
  2
*D8
 70
     1
 10
0.0
 20
0.0
 30
0.0
  3
*D8
  1

  0
LINE
  5
D09B
330
CF5A
100
AcDbEntity
  8
10100_FRONT_DIM
  6
Continuous
 62
     7
370
    -2
100
AcDbLine
 10
18.24410349870454
 20
698.7158466542555
 30
0.0
 11
66.90991664756578
 21
698.7158466542555
 31
0.0
  0
LINE
  5
D09C
330
CF5A
100
AcDbEntity
  8
10100_FRONT_DIM
  6
Continuous
 62
     7
370
    -2
100
AcDbLine
 10
-3.755896501295495
 20
630.7158466542555
 30
0.0
 11
66.90991664756575
 21
630.7158466542555
 31
0.0
  0
LINE
  5
D09D
330
CF5A
100
AcDbEntity
  8
10100_FRONT_DIM
  6
Continuous
370
    -2
100
AcDbLine
 10
64.90991664756577
 20
695.2158466542555
 30
0.0
 11
64.90991664756575
 21
669.132513320922
 31
0.0
  0
LINE
  5
D09E
330
CF5A
100
AcDbEntity
  8
10100_FRONT_DIM
  6
Continuous
370
    -2
100
AcDbLine
 10
64.90991664756575
 20
634.2158466542555
 30
0.0
 11
64.90991664756575
 21
660.2991799875889
 31
0.0
  0
SOLID
  5
D09F
330
CF5A
100
AcDbEntity
  8
10100_FRONT_DIM
  6
Continuous
100
AcDbTrace
 10
64.32658331423244
 20
695.2158466542555
 30
0.0
 11
65.49324998089909
 21
695.2158466542555
 31
0.0
 12
64.90991664756577
 22
698.7158466542555
 32
0.0
 13
64.90991664756577
 23
698.7158466542555
 33
0.0
  0
SOLID
  5
D0A0
330
CF5A
100
AcDbEntity
  8
10100_FRONT_DIM
  6
Continuous
100
AcDbTrace
 10
64.32658331423242
 20
634.2158466542555
 30
0.0
 11
65.49324998089907
 21
634.2158466542555
 31
0.0
 12
64.90991664756575
 22
630.7158466542555
 32
0.0
 13
64.90991664756575
 23
630.7158466542555
 33
0.0
  0
MTEXT
  5
D0A1
330
CF5A
100
AcDbEntity
  8
10100_FRONT_DIM
  6
Continuous
 62
     7
370
    13
100
AcDbMText
 10
64.90991664756565
 20
664.7158466542555
 30
0.0
 40
3.5
 41
0.0
 71
     5
 72
     1
  1
\A1;68
 11
0.0000000000000001
 21
1.0
 31
0.0
 73
     1
 44
1.0
1001
ACAD
1000
MTEXTBEGIN
1070
    73
1070
     1
1070
    44
1040
1.0
1070
    74
1070
     0
1000
MTEXTEND
  0
POINT
  5
D0A2
330
CF5A
100
AcDbEntity
  8
Defpoints
  6
Continuous
 62
     0
100
AcDbPoint
 10
18.24410349870454
 20
698.7158466542555
 30
0.0
  0
POINT
  5
D0A3
330
CF5A
100
AcDbEntity
  8
Defpoints
  6
Continuous
 62
     0
100
AcDbPoint
 10
-3.755896501295495
 20
630.7158466542555
 30
0.0
  0
POINT
  5
D0A4
330
CF5A
100
AcDbEntity
  8
Defpoints
  6
Continuous
 62
     0
100
AcDbPoint
 10
64.90991664756575
 20
630.7158466542555
 30
0.0
  0
ENDBLK
  5
CF65
330
CF5A
100
AcDbEntity
  8
0
100
AcDbBlockEnd
  0
BLOCK
  5
CF71
330
CF67
100
AcDbEntity
  8
0
100
AcDbBlockBegin
  2
*D9
 70
     1
 10
0.0
 20
0.0
 30
0.0
  3
*D9
  1

  0
LINE
  5
D036
330
CF67
100
AcDbEntity
  8
14100_Bottom_Dim
  6
Continuous
 62
     7
370
    -2
100
AcDbLine
 10
237.8975761871698
 20
694.7158466542555
 30
0.0
 11
287.4480894585509
 21
694.7158466542552
 31
0.0
  0
LINE
  5
D037
330
CF67
100
AcDbEntity
  8
14100_Bottom_Dim
  6
Continuous
 62
     7
370
    -2
100
AcDbLine
 10
259.8975761871698
 20
634.7158466542555
 30
0.0
 11
287.4480894585508
 21
634.7158466542555
 31
0.0
  0
LINE
  5
D038
330
CF67
100
AcDbEntity
  8
14100_Bottom_Dim
  6
Continuous
370
    -2
100
AcDbLine
 10
285.4480894585509
 20
691.2158466542554
 30
0.0
 11
285.4480894585509
 21
668.8408466542554
 31
0.0
  0
LINE
  5
D039
330
CF67
100
AcDbEntity
  8
14100_Bottom_Dim
  6
Continuous
370
    -2
100
AcDbLine
 10
285.4480894585508
 20
638.2158466542555
 30
0.0
 11
285.4480894585509
 21
660.5908466542554
 31
0.0
  0
SOLID
  5
D03A
330
CF67
100
AcDbEntity
  8
14100_Bottom_Dim
  6
Continuous
100
AcDbTrace
 10
284.8647561252176
 20
691.2158466542554
 30
0.0
 11
286.0314227918842
 21
691.2158466542554
 31
0.0
 12
285.4480894585509
 22
694.7158466542552
 32
0.0
 13
285.4480894585509
 23
694.7158466542552
 33
0.0
  0
SOLID
  5
D03B
330
CF67
100
AcDbEntity
  8
14100_Bottom_Dim
  6
Continuous
100
AcDbTrace
 10
284.8647561252175
 20
638.2158466542555
 30
0.0
 11
286.0314227918841
 21
638.2158466542555
 31
0.0
 12
285.4480894585508
 22
634.7158466542555
 32
0.0
 13
285.4480894585508
 23
634.7158466542555
 33
0.0
  0
MTEXT
  5
D03C
330
CF67
100
AcDbEntity
  8
14100_Bottom_Dim
  6
Continuous
 62
     7
370
    13
100
AcDbMText
 10
285.4480894585508
 20
664.7158466542555
 30
0.0
 40
3.5
 41
0.0
 71
     5
 72
     1
  1
\A1;60
 11
0.0000000000000001
 21
1.0
 31
0.0
 73
     1
 44
1.0
1001
ACAD
1000
MTEXTBEGIN
1070
    73
1070
     1
1070
    44
1040
1.0
1070
    74
1070
     0
1000
MTEXTEND
  0
POINT
  5
D03D
330
CF67
100
AcDbEntity
  8
Defpoints
  6
Continuous
 62
     0
100
AcDbPoint
 10
237.8975761871698
 20
694.7158466542555
 30
0.0
  0
POINT
  5
D03E
330
CF67
100
AcDbEntity
  8
Defpoints
  6
Continuous
 62
     0
100
AcDbPoint
 10
259.8975761871698
 20
634.7158466542555
 30
0.0
  0
POINT
  5
D03F
330
CF67
100
AcDbEntity
  8
Defpoints
  6
Continuous
 62
     0
100
AcDbPoint
 10
285.4480894585508
 20
634.7158466542555
 30
0.0
  0
ENDBLK
  5
CF72
330
CF67
100
AcDbEntity
  8
0
100
AcDbBlockEnd
  0
BLOCK
  5
CF7E
330
CF74
100
AcDbEntity
  8
0
100
AcDbBlockBegin
  2
*D10
 70
     1
 10
0.0
 20
0.0
 30
0.0
  3
*D10
  1

  0
LINE
  5
D02C
330
CF74
100
AcDbEntity
  8
14100_Bottom_Dim
  6
Continuous
 62
     7
370
    -2
100
AcDbLine
 10
235.6475761871698
 20
692.4658466542555
 30
0.0
 11
235.6475761871698
 21
621.9279826408352
 31
0.0
  0
LINE
  5
D02D
330
CF74
100
AcDbEntity
  8
14100_Bottom_Dim
  6
Continuous
 62
     7
370
    -2
100
AcDbLine
 10
257.6475761871698
 20
632.4658466542555
 30
0.0
 11
257.6475761871698
 21
621.9279826408352
 31
0.0
  0
LINE
  5
D02E
330
CF74
100
AcDbEntity
  8
14100_Bottom_Dim
  6
Continuous
370
    -2
100
AcDbLine
 10
239.1475761871698
 20
623.9279826408352
 30
0.0
 11
242.2309095205032
 21
623.9279826408352
 31
0.0
  0
LINE
  5
D02F
330
CF74
100
AcDbEntity
  8
14100_Bottom_Dim
  6
Continuous
370
    -2
100
AcDbLine
 10
254.1475761871698
 20
623.9279826408352
 30
0.0
 11
251.0642428538365
 21
623.9279826408352
 31
0.0
  0
SOLID
  5
D030
330
CF74
100
AcDbEntity
  8
14100_Bottom_Dim
  6
Continuous
100
AcDbTrace
 10
239.1475761871698
 20
624.5113159741687
 30
0.0
 11
239.1475761871698
 21
623.3446493075017
 31
0.0
 12
235.6475761871698
 22
623.9279826408352
 32
0.0
 13
235.6475761871698
 23
623.9279826408352
 33
0.0
  0
SOLID
  5
D031
330
CF74
100
AcDbEntity
  8
14100_Bottom_Dim
  6
Continuous
100
AcDbTrace
 10
254.1475761871698
 20
624.5113159741687
 30
0.0
 11
254.1475761871698
 21
623.3446493075017
 31
0.0
 12
257.6475761871698
 22
623.9279826408352
 32
0.0
 13
257.6475761871698
 23
623.9279826408352
 33
0.0
  0
MTEXT
  5
D032
330
CF74
100
AcDbEntity
  8
14100_Bottom_Dim
  6
Continuous
 62
     7
370
    13
100
AcDbMText
 10
246.6475761871698
 20
623.9279826408352
 30
0.0
 40
3.5
 41
0.0
 71
     5
 72
     1
  1
\A1;22
 73
     1
 44
1.0
1001
ACAD
1000
MTEXTBEGIN
1070
    73
1070
     1
1070
    44
1040
1.0
1070
    74
1070
     0
1000
MTEXTEND
  0
POINT
  5
D033
330
CF74
100
AcDbEntity
  8
Defpoints
  6
Continuous
 62
     0
100
AcDbPoint
 10
235.6475761871698
 20
692.4658466542555
 30
0.0
  0
POINT
  5
D034
330
CF74
100
AcDbEntity
  8
Defpoints
  6
Continuous
 62
     0
100
AcDbPoint
 10
257.6475761871698
 20
632.4658466542555
 30
0.0
  0
POINT
  5
D035
330
CF74
100
AcDbEntity
  8
Defpoints
  6
Continuous
 62
     0
100
AcDbPoint
 10
257.6475761871698
 20
623.9279826408352
 30
0.0
  0
ENDBLK
  5
CF7F
330
CF74
100
AcDbEntity
  8
0
100
AcDbBlockEnd
  0
BLOCK
  5
CF9E
330
CF94
100
AcDbEntity
  8
0
100
AcDbBlockBegin
  2
*D11
 70
     1
 10
0.0
 20
0.0
 30
0.0
  3
*D11
  1

  0
LINE
  5
D091
330
CF94
100
AcDbEntity
  8
10100_FRONT_DIM
  6
Continuous
 62
     7
370
    -2
100
AcDbLine
 10
29.4627780282147
 20
687.0175854189453
 30
0.0
 11
54.17662153058291
 21
687.0175854189453
 31
0.0
  0
LINE
  5
D092
330
CF94
100
AcDbEntity
  8
10100_FRONT_DIM
  6
Continuous
 62
     7
370
    -2
100
AcDbLine
 10
29.4627780282147
 20
642.0158466542556
 30
0.0
 11
54.17662153058291
 21
642.0158466542556
 31
0.0
  0
LINE
  5
D093
330
CF94
100
AcDbEntity
  8
10100_FRONT_DIM
  6
Continuous
370
    -2
100
AcDbLine
 10
52.17662153058292
 20
683.5175854189456
 30
0.0
 11
52.17662153058292
 21
668.9333827032672
 31
0.0
  0
LINE
  5
D094
330
CF94
100
AcDbEntity
  8
10100_FRONT_DIM
  6
Continuous
370
    -2
100
AcDbLine
 10
52.17662153058291
 20
645.5158466542556
 30
0.0
 11
52.17662153058292
 21
660.100049369934
 31
0.0
  0
SOLID
  5
D095
330
CF94
100
AcDbEntity
  8
10100_FRONT_DIM
  6
Continuous
100
AcDbTrace
 10
51.59328819724958
 20
683.5175854189456
 30
0.0
 11
52.75995486391625
 21
683.5175854189456
 31
0.0
 12
52.17662153058292
 22
687.0175854189453
 32
0.0
 13
52.17662153058292
 23
687.0175854189453
 33
0.0
  0
SOLID
  5
D096
330
CF94
100
AcDbEntity
  8
10100_FRONT_DIM
  6
Continuous
100
AcDbTrace
 10
51.59328819724958
 20
645.5158466542556
 30
0.0
 11
52.75995486391624
 21
645.5158466542556
 31
0.0
 12
52.17662153058291
 22
642.0158466542556
 32
0.0
 13
52.17662153058291
 23
642.0158466542556
 33
0.0
  0
MTEXT
  5
D097
330
CF94
100
AcDbEntity
  8
10100_FRONT_DIM
  6
Continuous
 62
     7
370
    13
100
AcDbMText
 10
52.17662153058281
 20
664.5167160366006
 30
0.0
 40
3.5
 41
0.0
 71
     5
 72
     1
  1
\A1;45
 11
0.0000000000000001
 21
1.0
 31
0.0
 73
     1
 44
1.0
1001
ACAD
1000
MTEXTBEGIN
1070
    73
1070
     1
1070
    44
1040
1.0
1070
    74
1070
     0
1000
MTEXTEND
  0
POINT
  5
D098
330
CF94
100
AcDbEntity
  8
Defpoints
  6
Continuous
 62
     0
100
AcDbPoint
 10
29.4627780282147
 20
687.0175854189453
 30
0.0
  0
POINT
  5
D099
330
CF94
100
AcDbEntity
  8
Defpoints
  6
Continuous
 62
     0
100
AcDbPoint
 10
29.4627780282147
 20
642.0158466542556
 30
0.0
  0
POINT
  5
D09A
330
CF94
100
AcDbEntity
  8
Defpoints
  6
Continuous
 62
     0
100
AcDbPoint
 10
52.17662153058291
 20
642.0158466542556
 30
0.0
  0
ENDBLK
  5
CF9F
330
CF94
100
AcDbEntity
  8
0
100
AcDbBlockEnd
  0
ENDSEC
  0
SECTION
  2
ENTITIES
  0
LINE
  5
BBA0
330
20
100
AcDbEntity
  8
90000_FRAME
  6
Continuous
 62
     7
100
AcDbLine
 10
-70.60458337769119
 20
764.279881970476
 30
0.0
 11
339.3954166223088
 21
764.279881970476
 31
0.0
  0
LINE
  5
BBA1
330
20
100
AcDbEntity
  8
90000_FRAME
  6
Continuous
 62
     7
100
AcDbLine
 10
-70.60458337769119
 20
494.279881970476
 30
0.0
 11
-70.60458337769119
 21
764.279881970476
 31
0.0
  0
LINE
  5
BBA2
330
20
100
AcDbEntity
  8
90000_FRAME
  6
Continuous
 62
     7
100
AcDbLine
 10
339.3954166223088
 20
494.279881970476
 30
0.0
 11
339.3954166223088
 21
764.279881970476
 31
0.0
  0
INSERT
  5
BBA3
330
20
100
AcDbEntity
  8
90000_FRAME
  6
Continuous
 62
     7
100
AcDbBlockReference
  2
SIEMENS_OUTLINE_BL0
 10
-80.60458337769194
 20
494.279881970476
 30
0.0
  0
LINE
  5
BBA4
330
20
100
AcDbEntity
  8
90000_FRAME
  6
Continuous
 62
     7
100
AcDbLine
 10
194.395416622308
 20
504.2798819704761
 30
0.0
 11
329.3954166223082
 21
504.2798819704761
 31
0.0
  0
LINE
  5
BBA5
330
20
100
AcDbEntity
  8
90000_FRAME
  6
Continuous
 62
     7
100
AcDbLine
 10
194.395416622308
 20
504.2798819704761
 30
0.0
 11
194.395416622308
 21
522.279881970476
 31
0.0
  0
LINE
  5
BBA6
330
20
100
AcDbEntity
  8
90000_FRAME
  6
Continuous
 62
     7
100
AcDbLine
 10
244.3954166223081
 20
510.2798819704761
 30
0.0
 11
329.3954166223082
 21
510.2798819704761
 31
0.0
  0
LINE
  5
BBA7
330
20
100
AcDbEntity
  8
90000_FRAME
  6
Continuous
 62
     7
100
AcDbLine
 10
194.395416622308
 20
522.279881970476
 30
0.0
 11
329.3954166223082
 21
522.279881970476
 31
0.0
  0
LINE
  5
BBA8
330
20
100
AcDbEntity
  8
90000_FRAME
  6
Continuous
 62
     7
100
AcDbLine
 10
244.3954166223081
 20
504.2798819704761
 30
0.0
 11
244.3954166223081
 21
522.279881970476
 31
0.0
  0
LINE
  5
BBA9
330
20
100
AcDbEntity
  8
90000_FRAME
  6
Continuous
 62
     7
100
AcDbLine
 10
286.8954166223081
 20
504.2798819704761
 30
0.0
 11
286.8954166223081
 21
510.2798819704761
 31
0.0
  0
LINE
  5
BBAA
330
20
100
AcDbEntity
  8
90000_FRAME
  6
Continuous
 62
     7
100
AcDbLine
 10
329.3954166223082
 20
504.2798819704761
 30
0.0
 11
329.3954166223082
 21
522.279881970476
 31
0.0
  0
TEXT
  5
BBAB
330
20
100
AcDbEntity
  8
90000_FRAME
  6
Continuous
 62
     7
100
AcDbText
 10
245.0554166223081
 20
506.179881970476
 30
0.0
 40
2.2
  1
Format / Size: DIN A3
 41
0.7994987468660263
 72
     5
 11
278.474464241308
 21
506.179881970476
 31
0.0
100
AcDbText
  0
TEXT
  5
BBAC
330
20
100
AcDbEntity
  8
90000_FRAME
  6
Continuous
 62
     7
100
AcDbText
 10
287.5554166223082
 20
506.179881970476
 30
0.0
 40
2.2
  1
Massstab / Scale: 1:1
 41
0.7732634338148454
 72
     5
 11
318.4601785271082
 21
506.179881970476
 31
0.0
100
AcDbText
  0
LINE
  5
BBAD
330
20
100
AcDbEntity
  8
91000_TIP
  6
Continuous
 62
     7
100
AcDbLine
 10
169.210086726334
 20
515.6036194928466
 30
0.0
 11
179.2100865221341
 21
518.1036194418465
 31
0.0
  0
LINE
  5
BBAE
330
20
100
AcDbEntity
  8
91000_TIP
  6
CENTER
 62
     7
100
AcDbLine
 10
167.930576254333
 20
513.1036195439467
 30
0.0
 11
191.532565518433
 21
513.1036195439467
 31
0.0
  0
LINE
  5
BBAF
330
20
100
AcDbEntity
  8
91000_TIP
  6
Continuous
 62
     7
100
AcDbLine
 10
169.210086726334
 20
510.6036195950466
 30
0.0
 11
179.2100865221341
 21
508.1036196460465
 31
0.0
  0
LINE
  5
BBB0
330
20
100
AcDbEntity
  8
91000_TIP
  6
Continuous
 62
     7
100
AcDbLine
 10
169.210086726334
 20
515.6036194928466
 30
0.0
 11
169.210086726334
 21
510.6036195950466
 31
0.0
  0
LINE
  5
BBB1
330
20
100
AcDbEntity
  8
91000_TIP
  6
Continuous
 62
     7
100
AcDbLine
 10
179.2100865221341
 20
518.1036194418465
 30
0.0
 11
179.2100865221341
 21
508.1036196460465
 31
0.0
  0
LINE
  5
BBB2
330
20
100
AcDbEntity
  8
91000_TIP
  6
CENTER
 62
     7
100
AcDbLine
 10
185.710086389334
 20
507.3821383375467
 30
0.0
 11
185.710086389334
 21
518.6655243375467
 31
0.0
  0
CIRCLE
  5
BBB3
330
20
100
AcDbEntity
  8
91000_TIP
  6
Continuous
 62
     7
100
AcDbCircle
 10
185.710086389334
 20
513.1036195439467
 30
0.0
 40
4.9999998979
  0
CIRCLE
  5
BBB4
330
20
100
AcDbEntity
  8
91000_TIP
  6
Continuous
 62
     7
100
AcDbCircle
 10
185.710086389334
 20
513.1036195439467
 30
0.0
 40
2.499999948899997
  0
TEXT
  5
BBB5
330
20
100
AcDbEntity
  8
90000_FRAME
  6
Continuous
 62
     7
100
AcDbText
 10
257.7013411462589
 20
514.5298819704761
 30
0.0
 40
3.5
  1
3LD2030_00000307_002_ALL
 41
0.7261321223270515
 72
     5
 11
313.6135145654419
 21
514.5298819704761
 31
0.0
100
AcDbText
  0
LINE
  5
BBB6
330
20
100
AcDbEntity
  8
90000_FRAME
  6
Continuous
 62
     7
100
AcDbLine
 10
-70.60458337769119
 20
494.279881970476
 30
0.0
 11
339.3954166223088
 21
494.279881970476
 31
0.0
  0
LINE
  5
BBB7
330
20
100
AcDbEntity
  8
90000_FRAME
  6
Continuous
 62
     7
100
AcDbLine
 10
329.3954166223082
 20
504.2798819704761
 30
0.0
 11
329.3954166223082
 21
522.279881970476
 31
0.0
  0
TEXT
  5
BBB8
330
20
100
AcDbEntity
  8
91000_TIP
  6
Continuous
 62
     7
100
AcDbText
 10
-66.55123359502733
 20
497.7621185921528
 30
0.0
 40
2.5
  1
All dimensions are in millimeters (mm).
 41
0.7513350295680265
 72
     5
 11
-6.444431229585262
 21
497.7621185921528
 31
0.0
100
AcDbText
  0
TEXT
  5
BBB9
330
20
100
AcDbEntity
  8
91000_TIP
  6
Continuous
 62
     7
100
AcDbText
 10
-66.55123359502733
 20
503.0121185921526
 30
0.0
 40
2.5
  1
Alle Bemassungswerte sind in Millimeter (mm) angegeben.
 41
0.6056311217924565
 72
     5
 11
7.133886223054927
 21
503.0121185921526
 31
0.0
100
AcDbText
  0
LINE
  5
CCA0
330
20
100
AcDbEntity
  8
14000_Bottom
  6
Continuous
 62
     7
370
    50
100
AcDbLine
 10
270.2475756576596
 20
689.0158466542555
 30
0.0
 11
270.2475756576596
 21
640.0158466542555
 31
0.0
1001
AUSTER_FOLIE
1002
{
1000
VERTEILEREINBAU_2030_M_KNEBEL
1002
}
1001
AUSTER_ANSICHT
1002
{
1000
R
1002
}
  0
LINE
  5
CCA1
330
20
100
AcDbEntity
  8
14000_Bottom
  6
Continuous
 62
     7
370
    50
100
AcDbLine
 10
223.0475756576597
 20
689.0158466542555
 30
0.0
 11
223.0475756576597
 21
640.0158466542555
 31
0.0
1001
AUSTER_FOLIE
1002
{
1000
VERTEILEREINBAU_2030_M_KNEBEL
1002
}
1001
AUSTER_ANSICHT
1002
{
1000
R
1002
}
  0
LINE
  5
CCA2
330
20
100
AcDbEntity
  8
10000_FRONT
  6
Continuous
 62
     7
370
    20
100
AcDbLine
 39
0.7
 10
-17.73722197178529
 20
689.0158466542555
 30
0.0
 11
-17.73722197178529
 21
687.0159473013306
 31
0.0
1001
AUSTER_FOLIE
1002
{
1000
VERTEILEREINBAU_2030_M_KNEBEL
1002
}
1001
AUSTER_ANSICHT
1002
{
1000
V
1002
}
  0
LINE
  5
CCA3
330
20
100
AcDbEntity
  8
10000_FRONT
  6
Continuous
 62
     7
370
    20
100
AcDbLine
 39
0.7
 10
29.4627780282147
 20
689.0158466542555
 30
0.0
 11
29.4627780282147
 21
687.0175854189453
 31
0.0
1001
AUSTER_FOLIE
1002
{
1000
VERTEILEREINBAU_2030_M_KNEBEL
1002
}
1001
AUSTER_ANSICHT
1002
{
1000
V
1002
}
  0
LINE
  5
CCA6
330
20
100
AcDbEntity
  8
11000_Left
  6
Continuous
 62
     7
 48
0.5
370
    50
100
AcDbLine
 39
0.7
 10
94.2053385278133
 20
639.7158466542555
 30
0.0
 11
94.2053385278133
 21
647.2158466542555
 31
0.0
1001
AUSTER_FOLIE
1002
{
1000
VERTEILEREINBAU_2030_M_KNEBEL
1002
}
1001
AUSTER_ANSICHT
1002
{
1000
SL
1002
}
  0
LINE
  5
CCA7
330
20
100
AcDbEntity
  8
11000_Left
  6
Continuous
 62
     7
 48
0.5
370
    50
100
AcDbLine
 39
0.7
 10
141.2053385278133
 20
648.9158466542552
 30
0.0
 11
141.2053385278133
 21
642.0158466542552
 31
0.0
1001
AUSTER_FOLIE
1002
{
1000
VERTEILEREINBAU_2030_M_KNEBEL
1002
}
1001
AUSTER_ANSICHT
1002
{
1000
SL
1002
}
  0
LINE
  5
CCA8
330
20
100
AcDbEntity
  8
11000_Left
  6
Continuous
 62
     7
 48
0.5
370
    50
100
AcDbLine
 39
0.7
 10
136.2053385278133
 20
648.9158466542552
 30
0.0
 11
136.2053385278133
 21
640.7158466542555
 31
0.0
1001
AUSTER_FOLIE
1002
{
1000
VERTEILEREINBAU_2030_M_KNEBEL
1002
}
1001
AUSTER_ANSICHT
1002
{
1000
SL
1002
}
  0
LINE
  5
CCAC
330
20
100
AcDbEntity
  8
14000_Bottom
  6
Continuous
 62
     7
 48
0.5
370
    50
100
AcDbLine
 39
0.7
 10
269.1475761871698
 20
639.7158466542555
 30
0.0
 11
269.1437791871698
 21
639.7158466542555
 31
0.0
1001
AUSTER_FOLIE
1002
{
1000
VERTEILEREINBAU_2030_M_KNEBEL
1002
}
1001
AUSTER_ANSICHT
1002
{
1000
R
1002
}
  0
LINE
  5
CCAD
330
20
100
AcDbEntity
  8
14000_Bottom
  6
Continuous
 62
     7
 48
0.5
370
    50
100
AcDbLine
 39
0.7
 10
256.2662501871699
 20
630.7158466542555
 30
0.0
 11
259.0289031871699
 21
630.7158466542555
 31
0.0
1001
AUSTER_FOLIE
1002
{
1000
VERTEILEREINBAU_2030_M_KNEBEL
1002
}
1001
AUSTER_ANSICHT
1002
{
1000
R
1002
}
  0
ARC
  5
CCAE
330
20
100
AcDbEntity
  8
14000_Bottom
  6
Continuous
 62
     7
 48
0.5
370
    50
100
AcDbCircle
 39
0.7
 10
259.0289018590155
 20
633.7158488041588
 30
0.0
 40
3.000002149903448
100
AcDbArc
 50
270.0000253658634
 51
352.2347907041532
1001
AUSTER_FOLIE
1002
{
1000
VERTEILEREINBAU_2030_M_KNEBEL
1002
}
1001
AUSTER_ANSICHT
1002
{
1000
R
1002
}
  0
ARC
  5
CCAF
330
20
100
AcDbEntity
  8
14000_Bottom
  6
Continuous
 62
     7
 48
0.5
370
    50
100
AcDbCircle
 39
0.7
 10
256.2662515153241
 20
633.7158488041584
 30
0.0
 40
3.000002149903205
100
AcDbArc
 50
187.7652092958402
 51
269.9999746341398
1001
AUSTER_FOLIE
1002
{
1000
VERTEILEREINBAU_2030_M_KNEBEL
1002
}
1001
AUSTER_ANSICHT
1002
{
1000
R
1002
}
  0
ARC
  5
CCB0
330
20
100
AcDbEntity
  8
14000_Bottom
  6
Continuous
 62
     7
 48
0.5
370
    20
100
AcDbCircle
 39
0.45
 10
257.6475761871698
 20
634.7158466542555
 30
0.0
 40
2.25
100
AcDbArc
 50
180.0
 51
0.0
1001
AUSTER_FOLIE
1002
{
1000
VERTEILEREINBAU_2030_M_KNEBEL
1002
}
1001
AUSTER_ANSICHT
1002
{
1000
R
1002
}
  0
ARC
  5
CCB1
330
20
100
AcDbEntity
  8
14000_Bottom
  6
Continuous
 62
     7
 48
0.5
370
    20
100
AcDbCircle
 39
0.45
 10
257.6475761871698
 20
634.7158466542555
 30
0.0
 40
2.25
100
AcDbArc
 50
0.0
 51
180.0
1001
AUSTER_FOLIE
1002
{
1000
VERTEILEREINBAU_2030_M_KNEBEL
1002
}
1001
AUSTER_ANSICHT
1002
{
1000
R
1002
}
  0
LINE
  5
CCB2
330
20
100
AcDbEntity
  8
14000_Bottom
  6
Continuous
 62
     7
 48
0.5
370
    50
100
AcDbLine
 39
0.7
 10
223.0475756576597
 20
640.0158466542555
 30
0.0
 11
224.1475751871698
 21
640.0158466542555
 31
0.0
1001
AUSTER_FOLIE
1002
{
1000
VERTEILEREINBAU_2030_M_KNEBEL
1002
}
1001
AUSTER_ANSICHT
1002
{
1000
R
1002
}
  0
LINE
  5
CCB3
330
20
100
AcDbEntity
  8
14000_Bottom
  6
Continuous
 62
     7
 48
0.5
370
    20
100
AcDbLine
 39
0.45
 10
270.2475756576596
 20
642.0158466542557
 30
0.0
 11
223.0475756576597
 21
642.0158466542556
 31
0.0
1001
AUSTER_FOLIE
1002
{
1000
VERTEILEREINBAU_2030_M_KNEBEL
1002
}
1001
AUSTER_ANSICHT
1002
{
1000
R
1002
}
  0
LINE
  5
CCB4
330
20
100
AcDbEntity
  8
14000_Bottom
  6
Continuous
 62
     7
 48
0.5
370
    50
100
AcDbLine
 39
0.7
 10
269.1475761871698
 20
640.0158466542555
 30
0.0
 11
270.2475756576596
 21
640.0158466542555
 31
0.0
1001
AUSTER_FOLIE
1002
{
1000
VERTEILEREINBAU_2030_M_KNEBEL
1002
}
1001
AUSTER_ANSICHT
1002
{
1000
R
1002
}
  0
LINE
  5
CCB5
330
20
100
AcDbEntity
  8
14000_Bottom
  6
Continuous
 62
     7
 48
0.5
370
    20
100
AcDbLine
 39
0.45
 10
224.1475751871698
 20
640.0158466542555
 30
0.0
 11
232.6475751871698
 21
640.0158466542555
 31
0.0
1001
AUSTER_FOLIE
1002
{
1000
VERTEILEREINBAU_2030_M_KNEBEL
1002
}
1001
AUSTER_ANSICHT
1002
{
1000
R
1002
}
  0
LINE
  5
CCB6
330
20
100
AcDbEntity
  8
14000_Bottom
  6
Continuous
 62
     7
 48
0.5
370
    50
100
AcDbLine
 39
0.7
 10
249.1475751871698
 20
640.0133766542555
 30
0.0
 11
249.1475751871698
 21
639.2158466542555
 31
0.0
1001
AUSTER_FOLIE
1002
{
1000
VERTEILEREINBAU_2030_M_KNEBEL
1002
}
1001
AUSTER_ANSICHT
1002
{
1000
R
1002
}
  0
LINE
  5
CCB7
330
20
100
AcDbEntity
  8
14000_Bottom
  6
Continuous
 62
     7
 48
0.5
370
    50
100
AcDbLine
 39
0.7
 10
245.1475751871698
 20
640.0133766542555
 30
0.0
 11
245.1475751871698
 21
639.2158466542555
 31
0.0
1001
AUSTER_FOLIE
1002
{
1000
VERTEILEREINBAU_2030_M_KNEBEL
1002
}
1001
AUSTER_ANSICHT
1002
{
1000
R
1002
}
  0
LINE
  5
CCB8
330
20
100
AcDbEntity
  8
14000_Bottom
  6
Continuous
 62
     7
 48
0.5
370
    50
100
AcDbLine
 39
0.7
 10
236.6475751871698
 20
640.0133766542555
 30
0.0
 11
236.6475751871698
 21
639.2158466542555
 31
0.0
1001
AUSTER_FOLIE
1002
{
1000
VERTEILEREINBAU_2030_M_KNEBEL
1002
}
1001
AUSTER_ANSICHT
1002
{
1000
R
1002
}
  0
LINE
  5
CCB9
330
20
100
AcDbEntity
  8
14000_Bottom
  6
Continuous
 62
     7
 48
0.5
370
    50
100
AcDbLine
 39
0.7
 10
232.6475751871698
 20
640.0133766542555
 30
0.0
 11
232.6475751871698
 21
639.2158466542557
 31
0.0
1001
AUSTER_FOLIE
1002
{
1000
VERTEILEREINBAU_2030_M_KNEBEL
1002
}
1001
AUSTER_ANSICHT
1002
{
1000
R
1002
}
  0
LINE
  5
CCBA
330
20
100
AcDbEntity
  8
14000_Bottom
  6
Continuous
 62
     7
 48
0.5
370
    50
100
AcDbLine
 39
0.7
 10
224.1475751871698
 20
640.0133766542555
 30
0.0
 11
224.1475751871698
 21
639.2158466542555
 31
0.0
1001
AUSTER_FOLIE
1002
{
1000
VERTEILEREINBAU_2030_M_KNEBEL
1002
}
1001
AUSTER_ANSICHT
1002
{
1000
R
1002
}
  0
LINE
  5
CCBB
330
20
100
AcDbEntity
  8
14000_Bottom
  6
Continuous
 62
     7
 48
0.5
370
    50
100
AcDbLine
 39
0.7
 10
269.1475761871698
 20
639.2158466542555
 30
0.0
 11
262.806667136502
 21
639.2158466542555
 31
0.0
1001
AUSTER_FOLIE
1002
{
1000
VERTEILEREINBAU_2030_M_KNEBEL
1002
}
1001
AUSTER_ANSICHT
1002
{
1000
R
1002
}
  0
LINE
  5
CCBC
330
20
100
AcDbEntity
  8
14000_Bottom
  6
Continuous
 62
     7
 48
0.5
370
    50
100
AcDbLine
 39
0.7
 10
249.1475751871698
 20
639.2158466542555
 30
0.0
 11
252.4884852761025
 21
639.2158466542554
 31
0.0
1001
AUSTER_FOLIE
1002
{
1000
VERTEILEREINBAU_2030_M_KNEBEL
1002
}
1001
AUSTER_ANSICHT
1002
{
1000
R
1002
}
  0
LINE
  5
CCBD
330
20
100
AcDbEntity
  8
14000_Bottom
  6
Continuous
 62
     7
 48
0.5
370
    50
100
AcDbLine
 39
0.7
 10
236.6475751871698
 20
639.2158466542555
 30
0.0
 11
245.1475751871698
 21
639.2158466542555
 31
0.0
1001
AUSTER_FOLIE
1002
{
1000
VERTEILEREINBAU_2030_M_KNEBEL
1002
}
1001
AUSTER_ANSICHT
1002
{
1000
R
1002
}
  0
LINE
  5
CCBE
330
20
100
AcDbEntity
  8
14000_Bottom
  6
Continuous
 62
     7
 48
0.5
370
    50
100
AcDbLine
 39
0.7
 10
232.6475751871698
 20
639.2158466542556
 30
0.0
 11
224.1475751871698
 21
639.2158466542555
 31
0.0
1001
AUSTER_FOLIE
1002
{
1000
VERTEILEREINBAU_2030_M_KNEBEL
1002
}
1001
AUSTER_ANSICHT
1002
{
1000
R
1002
}
  0
LINE
  5
CCBF
330
20
100
AcDbEntity
  8
14000_Bottom
  6
Continuous
 62
     7
 48
0.5
370
    50
100
AcDbLine
 39
0.7
 10
269.1475761871698
 20
640.0183166542555
 30
0.0
 11
269.1475761871698
 21
639.2158466542555
 31
0.0
1001
AUSTER_FOLIE
1002
{
1000
VERTEILEREINBAU_2030_M_KNEBEL
1002
}
1001
AUSTER_ANSICHT
1002
{
1000
R
1002
}
  0
LINE
  5
CCC0
330
20
100
AcDbEntity
  8
14000_Bottom
  6
Continuous
 62
     7
 48
0.5
370
    50
100
AcDbLine
 39
0.7
 10
262.0013941871699
 20
633.3105066542555
 30
0.0
 11
262.806667136502
 21
639.2158466542555
 31
0.0
1001
AUSTER_FOLIE
1002
{
1000
VERTEILEREINBAU_2030_M_KNEBEL
1002
}
1001
AUSTER_ANSICHT
1002
{
1000
R
1002
}
  0
LINE
  5
CCC1
330
20
100
AcDbEntity
  8
14000_Bottom
  6
Continuous
 62
     7
 48
0.5
370
    20
100
AcDbLine
 39
0.7
 10
252.3793943297974
 20
640.0158466542554
 30
0.0
 11
252.4884852761025
 21
639.2158466542552
 31
0.0
1001
AUSTER_FOLIE
1002
{
1000
VERTEILEREINBAU_2030_M_KNEBEL
1002
}
1001
AUSTER_ANSICHT
1002
{
1000
R
1002
}
  0
LINE
  5
CCC2
330
20
100
AcDbEntity
  8
10000_FRONT
  6
Continuous
 62
     7
 48
0.5
370
    20
100
AcDbLine
 39
0.7
 10
19.8627784987045
 20
639.2158466542556
 30
0.0
 11
28.3627784987045
 21
639.2158466542555
 31
0.0
1001
AUSTER_FOLIE
1002
{
1000
VERTEILEREINBAU_2030_M_KNEBEL
1002
}
1001
AUSTER_ANSICHT
1002
{
1000
V
1002
}
  0
LINE
  5
CCC3
330
20
100
AcDbEntity
  8
10000_FRONT
  6
Continuous
 62
     7
 48
0.5
370
    20
100
AcDbLine
 39
0.7
 10
15.8627784987045
 20
639.2158466542555
 30
0.0
 11
7.3627784987045
 21
639.2158466542555
 31
0.0
1001
AUSTER_FOLIE
1002
{
1000
VERTEILEREINBAU_2030_M_KNEBEL
1002
}
1001
AUSTER_ANSICHT
1002
{
1000
V
1002
}
  0
LINE
  5
CCC4
330
20
100
AcDbEntity
  8
10000_FRONT
  6
Continuous
 62
     7
 48
0.5
370
    20
100
AcDbLine
 39
0.7
 10
3.3627784987045
 20
639.2158466542555
 30
0.0
 11
-5.137221501295499
 21
639.2158466542555
 31
0.0
1001
AUSTER_FOLIE
1002
{
1000
VERTEILEREINBAU_2030_M_KNEBEL
1002
}
1001
AUSTER_ANSICHT
1002
{
1000
V
1002
}
  0
LINE
  5
CCC5
330
20
100
AcDbEntity
  8
10000_FRONT
  6
Continuous
 62
     7
 48
0.5
370
    20
100
AcDbLine
 39
0.7
 10
-16.6372225012955
 20
639.2158466542555
 30
0.0
 11
-9.137221501295528
 21
639.2158466542555
 31
0.0
1001
AUSTER_FOLIE
1002
{
1000
VERTEILEREINBAU_2030_M_KNEBEL
1002
}
1001
AUSTER_ANSICHT
1002
{
1000
V
1002
}
  0
LINE
  5
CCC6
330
20
100
AcDbEntity
  8
10000_FRONT
  6
Continuous
 62
     7
 48
0.5
370
    20
100
AcDbLine
 39
0.7
 10
28.3627784987045
 20
640.0133766542555
 30
0.0
 11
28.36277849870453
 21
639.2158466542555
 31
0.0
1001
AUSTER_FOLIE
1002
{
1000
VERTEILEREINBAU_2030_M_KNEBEL
1002
}
1001
AUSTER_ANSICHT
1002
{
1000
V
1002
}
  0
LINE
  5
CCC7
330
20
100
AcDbEntity
  8
10000_FRONT
  6
Continuous
 62
     7
 48
0.5
370
    20
100
AcDbLine
 39
0.7
 10
19.8627784987045
 20
640.0133766542555
 30
0.0
 11
19.86277849870453
 21
639.2158466542557
 31
0.0
1001
AUSTER_FOLIE
1002
{
1000
VERTEILEREINBAU_2030_M_KNEBEL
1002
}
1001
AUSTER_ANSICHT
1002
{
1000
V
1002
}
  0
LINE
  5
CCC8
330
20
100
AcDbEntity
  8
10000_FRONT
  6
Continuous
 62
     7
 48
0.5
370
    20
100
AcDbLine
 39
0.7
 10
15.8627784987045
 20
640.0133766542555
 30
0.0
 11
15.86277849870453
 21
639.2158466542555
 31
0.0
1001
AUSTER_FOLIE
1002
{
1000
VERTEILEREINBAU_2030_M_KNEBEL
1002
}
1001
AUSTER_ANSICHT
1002
{
1000
V
1002
}
  0
LINE
  5
CCC9
330
20
100
AcDbEntity
  8
10000_FRONT
  6
Continuous
 62
     7
 48
0.5
370
    20
100
AcDbLine
 39
0.7
 10
7.3627784987045
 20
640.0133766542555
 30
0.0
 11
7.362778498704527
 21
639.2158466542555
 31
0.0
1001
AUSTER_FOLIE
1002
{
1000
VERTEILEREINBAU_2030_M_KNEBEL
1002
}
1001
AUSTER_ANSICHT
1002
{
1000
V
1002
}
  0
LINE
  5
CCCA
330
20
100
AcDbEntity
  8
10000_FRONT
  6
Continuous
 62
     7
 48
0.5
370
    20
100
AcDbLine
 39
0.7
 10
3.3627784987045
 20
640.0133766542555
 30
0.0
 11
3.362778498704528
 21
639.2158466542555
 31
0.0
1001
AUSTER_FOLIE
1002
{
1000
VERTEILEREINBAU_2030_M_KNEBEL
1002
}
1001
AUSTER_ANSICHT
1002
{
1000
V
1002
}
  0
LINE
  5
CCCB
330
20
100
AcDbEntity
  8
10000_FRONT
  6
Continuous
 62
     7
 48
0.5
370
    20
100
AcDbLine
 39
0.7
 10
-5.137221501295499
 20
640.0133766542555
 30
0.0
 11
-5.137221501295499
 21
639.2158466542555
 31
0.0
1001
AUSTER_FOLIE
1002
{
1000
VERTEILEREINBAU_2030_M_KNEBEL
1002
}
1001
AUSTER_ANSICHT
1002
{
1000
V
1002
}
  0
LINE
  5
CCCC
330
20
100
AcDbEntity
  8
10000_FRONT
  6
Continuous
 62
     7
 48
0.5
370
    20
100
AcDbLine
 39
0.7
 10
-9.137221501295499
 20
640.0133766542555
 30
0.0
 11
-9.137221501295499
 21
639.2158466542555
 31
0.0
1001
AUSTER_FOLIE
1002
{
1000
VERTEILEREINBAU_2030_M_KNEBEL
1002
}
1001
AUSTER_ANSICHT
1002
{
1000
V
1002
}
  0
LINE
  5
CCCE
330
20
100
AcDbEntity
  8
11000_Left
  6
Continuous
 62
     7
 48
0.5
370
    50
100
AcDbLine
 39
0.7
 10
157.2053385278133
 20
642.0158466542552
 30
0.0
 11
143.2053385278133
 21
642.0158466542552
 31
0.0
1001
AUSTER_FOLIE
1002
{
1000
VERTEILEREINBAU_2030_M_KNEBEL
1002
}
1001
AUSTER_ANSICHT
1002
{
1000
SL
1002
}
  0
LINE
  5
CCCF
330
20
100
AcDbEntity
  8
10000_FRONT
  6
Continuous
 62
     7
 48
0.5
370
    20
100
AcDbLine
 39
0.7
 10
29.4627780282147
 20
640.0158466542555
 30
0.0
 11
28.3627784987045
 21
640.0158466542555
 31
0.0
1001
AUSTER_FOLIE
1002
{
1000
VERTEILEREINBAU_2030_M_KNEBEL
1002
}
1001
AUSTER_ANSICHT
1002
{
1000
V
1002
}
  0
LINE
  5
CCD0
330
20
100
AcDbEntity
  8
10000_FRONT
  6
Continuous
 62
     7
 48
0.5
370
    20
100
AcDbLine
 39
0.7
 10
-9.491040501295515
 20
633.3105066542555
 30
0.0
 11
-10.29631345062776
 21
639.2158466542555
 31
0.0
1001
AUSTER_FOLIE
1002
{
1000
VERTEILEREINBAU_2030_M_KNEBEL
1002
}
1001
AUSTER_ANSICHT
1002
{
1000
V
1002
}
  0
LINE
  5
CCD1
330
20
100
AcDbEntity
  8
10000_FRONT
  6
Continuous
 62
     7
 48
0.5
370
    20
100
AcDbLine
 39
0.7
 10
0.021868409771713
 20
639.2158466542555
 30
0.0
 11
-0.7834055012955048
 21
633.3105066542555
 31
0.0
1001
AUSTER_FOLIE
1002
{
1000
VERTEILEREINBAU_2030_M_KNEBEL
1002
}
1001
AUSTER_ANSICHT
1002
{
1000
V
1002
}
  0
ARC
  5
CCD2
330
20
100
AcDbEntity
  8
10000_FRONT
  6
Continuous
 62
     7
 48
0.5
370
    20
100
AcDbCircle
 39
0.45
 10
-5.137222501295497
 20
634.7158466542555
 30
0.0
 40
2.25
100
AcDbArc
 50
0.0
 51
180.0
1001
AUSTER_FOLIE
1002
{
1000
VERTEILEREINBAU_2030_M_KNEBEL
1002
}
1001
AUSTER_ANSICHT
1002
{
1000
V
1002
}
  0
ARC
  5
CCD3
330
20
100
AcDbEntity
  8
10000_FRONT
  6
Continuous
 62
     7
 48
0.5
370
    20
100
AcDbCircle
 39
0.45
 10
-5.137222501295497
 20
634.7158466542555
 30
0.0
 40
2.25
100
AcDbArc
 50
180.0
 51
0.0
1001
AUSTER_FOLIE
1002
{
1000
VERTEILEREINBAU_2030_M_KNEBEL
1002
}
1001
AUSTER_ANSICHT
1002
{
1000
V
1002
}
  0
ARC
  5
CCD4
330
20
100
AcDbEntity
  8
10000_FRONT
  6
Continuous
 62
     7
 48
0.5
370
    20
100
AcDbCircle
 39
0.7
 10
-3.755897829449736
 20
633.7158488041584
 30
0.0
 40
3.000002149903205
100
AcDbArc
 50
270.0000253658585
 51
352.2347907041598
1001
AUSTER_FOLIE
1002
{
1000
VERTEILEREINBAU_2030_M_KNEBEL
1002
}
1001
AUSTER_ANSICHT
1002
{
1000
V
1002
}
  0
ARC
  5
CCD5
330
20
100
AcDbEntity
  8
10000_FRONT
  6
Continuous
 62
     7
 48
0.5
370
    20
100
AcDbCircle
 39
0.7
 10
-6.518548173141056
 20
633.7158488041588
 30
0.0
 40
3.000002149903448
100
AcDbArc
 50
187.7652092958468
 51
269.9999746341366
1001
AUSTER_FOLIE
1002
{
1000
VERTEILEREINBAU_2030_M_KNEBEL
1002
}
1001
AUSTER_ANSICHT
1002
{
1000
V
1002
}
  0
LINE
  5
CCD6
330
20
100
AcDbEntity
  8
10000_FRONT
  6
Continuous
 62
     7
 48
0.5
370
    20
100
AcDbLine
 39
0.7
 10
-3.755896501295495
 20
630.7158466542555
 30
0.0
 11
-6.518549501295495
 21
630.7158466542555
 31
0.0
1001
AUSTER_FOLIE
1002
{
1000
VERTEILEREINBAU_2030_M_KNEBEL
1002
}
1001
AUSTER_ANSICHT
1002
{
1000
V
1002
}
  0
LINE
  5
CCD7
330
20
100
AcDbEntity
  8
10000_FRONT
  6
Continuous
 62
     7
 48
0.5
370
    20
100
AcDbLine
 39
0.7
 10
-16.6372225012955
 20
640.0183166542555
 30
0.0
 11
-16.6372225012955
 21
639.2158466542555
 31
0.0
1001
AUSTER_FOLIE
1002
{
1000
VERTEILEREINBAU_2030_M_KNEBEL
1002
}
1001
AUSTER_ANSICHT
1002
{
1000
V
1002
}
  0
LINE
  5
CCD8
330
20
100
AcDbEntity
  8
10000_FRONT
  6
Continuous
 62
     7
 48
0.5
370
    20
100
AcDbLine
 39
0.7
 10
-16.6372225012955
 20
639.7158466542555
 30
0.0
 11
-16.63342550129552
 21
639.7158466542555
 31
0.0
1001
AUSTER_FOLIE
1002
{
1000
VERTEILEREINBAU_2030_M_KNEBEL
1002
}
1001
AUSTER_ANSICHT
1002
{
1000
V
1002
}
  0
LINE
  5
CCDC
330
20
100
AcDbEntity
  8
11000_Left
  6
Continuous
 62
     7
 48
0.5
370
    50
100
AcDbLine
 39
0.7
 10
94.2053385278133
 20
639.7158466542555
 30
0.0
 11
94.2053385278133
 21
633.3105066542555
 31
0.0
1001
AUSTER_FOLIE
1002
{
1000
VERTEILEREINBAU_2030_M_KNEBEL
1002
}
1001
AUSTER_ANSICHT
1002
{
1000
SL
1002
}
  0
LINE
  5
CCDD
330
20
100
AcDbEntity
  8
11000_Left
  6
Continuous
 62
     7
 48
0.5
370
    50
100
AcDbLine
 39
0.7
 10
98.20533852781332
 20
633.3105066542555
 30
0.0
 11
98.20533852781332
 21
639.7158466542555
 31
0.0
1001
AUSTER_FOLIE
1002
{
1000
VERTEILEREINBAU_2030_M_KNEBEL
1002
}
1001
AUSTER_ANSICHT
1002
{
1000
SL
1002
}
  0
LINE
  5
CCDE
330
20
100
AcDbEntity
  8
11000_Left
  6
Continuous
 62
     7
 48
0.5
370
    50
100
AcDbLine
 39
0.7
 10
94.2053385278133
 20
630.7158466542555
 30
0.0
 11
98.20533852781332
 21
630.7158466542555
 31
0.0
1001
AUSTER_FOLIE
1002
{
1000
VERTEILEREINBAU_2030_M_KNEBEL
1002
}
1001
AUSTER_ANSICHT
1002
{
1000
SL
1002
}
  0
LINE
  5
CCDF
330
20
100
AcDbEntity
  8
11000_Left
  6
Continuous
 62
     7
 48
0.5
370
    50
100
AcDbLine
 39
0.7
 10
94.2053385278133
 20
632.4658466542555
 30
0.0
 11
94.20589852781324
 21
632.4658466542555
 31
0.0
1001
AUSTER_FOLIE
1002
{
1000
VERTEILEREINBAU_2030_M_KNEBEL
1002
}
1001
AUSTER_ANSICHT
1002
{
1000
SL
1002
}
  0
LINE
  5
CCE0
330
20
100
AcDbEntity
  8
11000_Left
  6
Continuous
 62
     7
 48
0.5
370
    50
100
AcDbLine
 39
0.7
 10
94.2053385278133
 20
633.3105066542555
 30
0.0
 11
94.2053385278133
 21
630.7158466542555
 31
0.0
1001
AUSTER_FOLIE
1002
{
1000
VERTEILEREINBAU_2030_M_KNEBEL
1002
}
1001
AUSTER_ANSICHT
1002
{
1000
SL
1002
}
  0
LINE
  5
CCE1
330
20
100
AcDbEntity
  8
11000_Left
  6
Continuous
 62
     7
 48
0.5
370
    50
100
AcDbLine
 39
0.7
 10
98.20533852781332
 20
630.7158466542555
 30
0.0
 11
98.20533852781332
 21
633.3105066542555
 31
0.0
1001
AUSTER_FOLIE
1002
{
1000
VERTEILEREINBAU_2030_M_KNEBEL
1002
}
1001
AUSTER_ANSICHT
1002
{
1000
SL
1002
}
  0
LINE
  5
CCE2
330
20
100
AcDbEntity
  8
11000_Left
  6
Continuous
 62
     7
 48
0.5
370
    50
100
AcDbLine
 39
0.7
 10
123.7053385278133
 20
639.2355554328243
 30
0.0
 11
110.2053385278133
 21
639.2355554328243
 31
0.0
1001
AUSTER_FOLIE
1002
{
1000
VERTEILEREINBAU_2030_M_KNEBEL
1002
}
1001
AUSTER_ANSICHT
1002
{
1000
SL
1002
}
  0
LINE
  5
CCE3
330
20
100
AcDbEntity
  8
11000_Left
  6
Continuous
 62
     7
 48
0.5
370
    50
100
AcDbLine
 39
0.7
 10
104.2053385278133
 20
639.7158466542555
 30
0.0
 11
98.20533852781332
 21
639.7158466542555
 31
0.0
1001
AUSTER_FOLIE
1002
{
1000
VERTEILEREINBAU_2030_M_KNEBEL
1002
}
1001
AUSTER_ANSICHT
1002
{
1000
SL
1002
}
  0
LINE
  5
CCE4
330
20
100
AcDbEntity
  8
11000_Left
  6
Continuous
 62
     7
 48
0.5
370
    50
100
AcDbLine
 39
0.7
 10
94.20599852781322
 20
636.9658466542555
 30
0.0
 11
94.2053385278133
 21
636.9658466542555
 31
0.0
1001
AUSTER_FOLIE
1002
{
1000
VERTEILEREINBAU_2030_M_KNEBEL
1002
}
1001
AUSTER_ANSICHT
1002
{
1000
SL
1002
}
  0
LINE
  5
CCE5
330
20
100
AcDbEntity
  8
11000_Left
  6
Continuous
 62
     7
 48
0.5
370
    50
100
AcDbLine
 39
0.7
 10
110.2053385278133
 20
640.7158466542555
 30
0.0
 11
104.2053385278133
 21
640.7158466542555
 31
0.0
1001
AUSTER_FOLIE
1002
{
1000
VERTEILEREINBAU_2030_M_KNEBEL
1002
}
1001
AUSTER_ANSICHT
1002
{
1000
SL
1002
}
  0
LINE
  5
CCE6
330
20
100
AcDbEntity
  8
11000_Left
  6
Continuous
 62
     7
 48
0.5
370
    50
100
AcDbLine
 39
0.7
 10
104.2053385278133
 20
640.7158466542555
 30
0.0
 11
104.2053385278133
 21
639.7158466542555
 31
0.0
1001
AUSTER_FOLIE
1002
{
1000
VERTEILEREINBAU_2030_M_KNEBEL
1002
}
1001
AUSTER_ANSICHT
1002
{
1000
SL
1002
}
  0
LINE
  5
CCE7
330
20
100
AcDbEntity
  8
11000_Left
  6
Continuous
 62
     7
 48
0.5
370
    50
100
AcDbLine
 39
0.7
 10
110.2053385278133
 20
639.2355554328243
 30
0.0
 11
110.2053385278133
 21
640.7158466542555
 31
0.0
1001
AUSTER_FOLIE
1002
{
1000
VERTEILEREINBAU_2030_M_KNEBEL
1002
}
1001
AUSTER_ANSICHT
1002
{
1000
SL
1002
}
  0
LINE
  5
CCE8
330
20
100
AcDbEntity
  8
11000_Left
  6
Continuous
 62
     7
 48
0.5
370
    50
100
AcDbLine
 39
0.7
 10
136.2053385278133
 20
640.7158466542555
 30
0.0
 11
123.7053385278133
 21
640.7158466542555
 31
0.0
1001
AUSTER_FOLIE
1002
{
1000
VERTEILEREINBAU_2030_M_KNEBEL
1002
}
1001
AUSTER_ANSICHT
1002
{
1000
SL
1002
}
  0
LINE
  5
CCE9
330
20
100
AcDbEntity
  8
11000_Left
  6
Continuous
 62
     7
 48
0.5
370
    50
100
AcDbLine
 39
0.7
 10
123.7053385278133
 20
640.7158466542555
 30
0.0
 11
123.7053385278133
 21
639.2355554328243
 31
0.0
1001
AUSTER_FOLIE
1002
{
1000
VERTEILEREINBAU_2030_M_KNEBEL
1002
}
1001
AUSTER_ANSICHT
1002
{
1000
SL
1002
}
  0
LINE
  5
CCEA
330
20
100
AcDbEntity
  8
11000_Left
  6
Continuous
 62
     7
 48
0.5
370
    50
100
AcDbLine
 39
0.7
 10
141.2053385278133
 20
642.0158466542552
 30
0.0
 11
141.2053385278133
 21
640.0158466542555
 31
0.0
1001
AUSTER_FOLIE
1002
{
1000
VERTEILEREINBAU_2030_M_KNEBEL
1002
}
1001
AUSTER_ANSICHT
1002
{
1000
SL
1002
}
  0
LINE
  5
CCEB
330
20
100
AcDbEntity
  8
11000_Left
  6
Continuous
 62
     7
 48
0.5
370
    50
100
AcDbLine
 39
0.7
 10
143.2053385278133
 20
640.0158466542555
 30
0.0
 11
143.2053385278133
 21
642.0158466542552
 31
0.0
1001
AUSTER_FOLIE
1002
{
1000
VERTEILEREINBAU_2030_M_KNEBEL
1002
}
1001
AUSTER_ANSICHT
1002
{
1000
SL
1002
}
  0
LINE
  5
CCEC
330
20
100
AcDbEntity
  8
11000_Left
  6
Continuous
 62
     7
 48
0.5
370
    50
100
AcDbLine
 39
0.7
 10
141.2053385278133
 20
640.0158466542555
 30
0.0
 11
143.2053385278133
 21
640.0158466542555
 31
0.0
1001
AUSTER_FOLIE
1002
{
1000
VERTEILEREINBAU_2030_M_KNEBEL
1002
}
1001
AUSTER_ANSICHT
1002
{
1000
SL
1002
}
  0
LINE
  5
CCED
330
20
100
AcDbEntity
  8
10000_FRONT
  6
Continuous
 62
     7
370
    50
100
AcDbLine
 39
0.7
 10
-17.73722197178526
 20
642.0158466542557
 30
0.0
 11
29.4627780282147
 21
642.0158466542556
 31
0.0
1001
AUSTER_FOLIE
1002
{
1000
VERTEILEREINBAU_2030_M_KNEBEL
1002
}
1001
AUSTER_ANSICHT
1002
{
1000
V
1002
}
  0
LINE
  5
CCEE
330
20
100
AcDbEntity
  8
10000_FRONT
  6
Continuous
 62
     7
 48
0.5
370
    20
100
AcDbLine
 39
0.7
 10
-16.6372225012955
 20
640.0158466542555
 30
0.0
 11
-17.73722197178529
 21
640.0158466542555
 31
0.0
1001
AUSTER_FOLIE
1002
{
1000
VERTEILEREINBAU_2030_M_KNEBEL
1002
}
1001
AUSTER_ANSICHT
1002
{
1000
V
1002
}
  0
LINE
  5
CCEF
330
20
100
AcDbEntity
  8
10000_FRONT
  6
Continuous
 62
     7
 48
0.5
370
    20
100
AcDbLine
 39
0.45
 10
28.3627784987045
 20
640.0158466542555
 30
0.0
 11
-16.6372225012955
 21
640.0158466542555
 31
0.0
1001
AUSTER_FOLIE
1002
{
1000
VERTEILEREINBAU_2030_M_KNEBEL
1002
}
1001
AUSTER_ANSICHT
1002
{
1000
V
1002
}
  0
LINE
  5
CCF0
330
20
100
AcDbEntity
  8
11000_Left
 48
0.5
100
AcDbLine
 39
0.45
 10
143.2053385278133
 20
642.0158466542552
 30
0.0
 11
141.2053385278133
 21
642.0158466542552
 31
0.0
1001
AUSTER_FOLIE
1002
{
1000
VERTEILEREINBAU_2030_M_KNEBEL
1002
}
1001
AUSTER_ANSICHT
1002
{
1000
SL
1002
}
  0
LINE
  5
CCF1
330
20
100
AcDbEntity
  8
11000_Left
  6
Continuous
 62
     7
 48
0.5
370
    20
100
AcDbLine
 39
0.45
 10
98.20533852781332
 20
639.7158466542555
 30
0.0
 11
94.2053385278133
 21
639.7158466542555
 31
0.0
1001
AUSTER_FOLIE
1002
{
1000
VERTEILEREINBAU_2030_M_KNEBEL
1002
}
1001
AUSTER_ANSICHT
1002
{
1000
SL
1002
}
  0
LINE
  5
CCF2
330
20
100
AcDbEntity
  8
14000_Bottom
  6
Continuous
 62
     7
 48
0.5
370
    20
100
AcDbLine
 39
0.45
 10
223.0475756576597
 20
647.2158466542555
 30
0.0
 11
270.2475756576596
 21
647.2158466542555
 31
0.0
1001
AUSTER_FOLIE
1002
{
1000
VERTEILEREINBAU_2030_M_KNEBEL
1002
}
1001
AUSTER_ANSICHT
1002
{
1000
R
1002
}
  0
LINE
  5
CCF3
330
20
100
AcDbEntity
  8
14000_Bottom
  6
Continuous
 62
     7
 48
0.5
370
    20
100
AcDbLine
 39
0.45
 10
223.0475756576597
 20
682.2158466542555
 30
0.0
 11
270.2475756576596
 21
682.2158466542555
 31
0.0
1001
AUSTER_FOLIE
1002
{
1000
VERTEILEREINBAU_2030_M_KNEBEL
1002
}
1001
AUSTER_ANSICHT
1002
{
1000
R
1002
}
  0
LINE
  5
CD02
330
20
100
AcDbEntity
  8
14000_Bottom
  6
Continuous
 62
     7
 48
0.5
370
    50
100
AcDbLine
 39
0.7
 10
237.0289031871699
 20
698.7158466542555
 30
0.0
 11
234.2662501871699
 21
698.7158466542555
 31
0.0
1001
AUSTER_FOLIE
1002
{
1000
VERTEILEREINBAU_2030_M_KNEBEL
1002
}
1001
AUSTER_ANSICHT
1002
{
1000
R
1002
}
  0
ARC
  5
CD03
330
20
100
AcDbEntity
  8
14000_Bottom
  6
Continuous
 62
     7
 48
0.5
370
    50
100
AcDbCircle
 39
0.7
 10
234.2662515153246
 20
695.7158445043518
 30
0.0
 40
3.000002149903787
100
AcDbArc
 50
90.00002536586828
 51
172.2347907041531
1001
AUSTER_FOLIE
1002
{
1000
VERTEILEREINBAU_2030_M_KNEBEL
1002
}
1001
AUSTER_ANSICHT
1002
{
1000
R
1002
}
  0
ARC
  5
CD04
330
20
100
AcDbEntity
  8
14000_Bottom
  6
Continuous
 62
     7
 48
0.5
370
    50
100
AcDbCircle
 39
0.7
 10
237.0289018590154
 20
695.7158445043526
 30
0.0
 40
3.000002149903318
100
AcDbArc
 50
7.765209295840212
 51
89.99997463413661
1001
AUSTER_FOLIE
1002
{
1000
VERTEILEREINBAU_2030_M_KNEBEL
1002
}
1001
AUSTER_ANSICHT
1002
{
1000
R
1002
}
  0
ARC
  5
CD05
330
20
100
AcDbEntity
  8
14000_Bottom
  6
Continuous
 62
     7
 48
0.5
370
    20
100
AcDbCircle
 39
0.45
 10
235.6475761871698
 20
694.7158466542555
 30
0.0
 40
2.25
100
AcDbArc
 50
180.0
 51
0.0
1001
AUSTER_FOLIE
1002
{
1000
VERTEILEREINBAU_2030_M_KNEBEL
1002
}
1001
AUSTER_ANSICHT
1002
{
1000
R
1002
}
  0
ARC
  5
CD06
330
20
100
AcDbEntity
  8
14000_Bottom
  6
Continuous
 62
     7
 48
0.5
370
    20
100
AcDbCircle
 39
0.45
 10
235.6475761871698
 20
694.7158466542555
 30
0.0
 40
2.25
100
AcDbArc
 50
0.0
 51
180.0
1001
AUSTER_FOLIE
1002
{
1000
VERTEILEREINBAU_2030_M_KNEBEL
1002
}
1001
AUSTER_ANSICHT
1002
{
1000
R
1002
}
  0
LINE
  5
CD08
330
20
100
AcDbEntity
  8
14000_Bottom
  6
Continuous
 62
     7
 48
0.5
370
    50
100
AcDbLine
 39
0.7
 10
224.1475751871698
 20
689.0158466542555
 30
0.0
 11
223.0475756576597
 21
689.0158466542555
 31
0.0
1001
AUSTER_FOLIE
1002
{
1000
VERTEILEREINBAU_2030_M_KNEBEL
1002
}
1001
AUSTER_ANSICHT
1002
{
1000
R
1002
}
  0
LINE
  5
CD09
330
20
100
AcDbEntity
  8
14000_Bottom
  6
Continuous
 62
     7
 48
0.5
370
    50
100
AcDbLine
 39
0.7
 10
270.2475756576596
 20
689.0158466542555
 30
0.0
 11
269.1475761871698
 21
689.0158466542555
 31
0.0
1001
AUSTER_FOLIE
1002
{
1000
VERTEILEREINBAU_2030_M_KNEBEL
1002
}
1001
AUSTER_ANSICHT
1002
{
1000
R
1002
}
  0
LINE
  5
CD0A
330
20
100
AcDbEntity
  8
14000_Bottom
  6
Continuous
 62
     7
 48
0.5
370
    20
100
AcDbLine
 39
0.45
 10
223.0475756576597
 20
687.0175854189453
 30
0.0
 11
270.2475756576596
 21
687.0159473013306
 31
0.0
1001
AUSTER_FOLIE
1002
{
1000
VERTEILEREINBAU_2030_M_KNEBEL
1002
}
1001
AUSTER_ANSICHT
1002
{
1000
R
1002
}
  0
LINE
  5
CD0B
330
20
100
AcDbEntity
  8
14000_Bottom
  6
Continuous
 62
     7
 48
0.5
370
    20
100
AcDbLine
 39
0.45
 10
269.1475761871698
 20
689.0158466542555
 30
0.0
 11
261.6475751871698
 21
689.0158466542557
 31
0.0
1001
AUSTER_FOLIE
1002
{
1000
VERTEILEREINBAU_2030_M_KNEBEL
1002
}
1001
AUSTER_ANSICHT
1002
{
1000
R
1002
}
  0
LINE
  5
CD0C
330
20
100
AcDbEntity
  8
14000_Bottom
  6
Continuous
 62
     7
 48
0.5
370
    50
100
AcDbLine
 39
0.7
 10
230.4213740820493
 20
689.8158466542552
 30
0.0
 11
224.1475751871698
 21
689.8158466542552
 31
0.0
1001
AUSTER_FOLIE
1002
{
1000
VERTEILEREINBAU_2030_M_KNEBEL
1002
}
1001
AUSTER_ANSICHT
1002
{
1000
R
1002
}
  0
LINE
  5
CD0D
330
20
100
AcDbEntity
  8
14000_Bottom
  6
Continuous
 62
     7
 48
0.5
370
    50
100
AcDbLine
 39
0.7
 10
240.8612131436712
 20
689.8158466542552
 30
0.0
 11
245.1475751871698
 21
689.8158466542552
 31
0.0
1001
AUSTER_FOLIE
1002
{
1000
VERTEILEREINBAU_2030_M_KNEBEL
1002
}
1001
AUSTER_ANSICHT
1002
{
1000
R
1002
}
  0
LINE
  5
CD0E
330
20
100
AcDbEntity
  8
14000_Bottom
  6
Continuous
 62
     7
 48
0.5
370
    50
100
AcDbLine
 39
0.7
 10
249.1475751871698
 20
689.8158466542552
 30
0.0
 11
257.6475751871698
 21
689.8158466542552
 31
0.0
1001
AUSTER_FOLIE
1002
{
1000
VERTEILEREINBAU_2030_M_KNEBEL
1002
}
1001
AUSTER_ANSICHT
1002
{
1000
R
1002
}
  0
LINE
  5
CD0F
330
20
100
AcDbEntity
  8
14000_Bottom
  6
Continuous
 62
     7
 48
0.5
370
    50
100
AcDbLine
 39
0.7
 10
269.1475761871698
 20
689.8158466542552
 30
0.0
 11
261.6475751871699
 21
689.8158466542552
 31
0.0
1001
AUSTER_FOLIE
1002
{
1000
VERTEILEREINBAU_2030_M_KNEBEL
1002
}
1001
AUSTER_ANSICHT
1002
{
1000
R
1002
}
  0
LINE
  5
CD10
330
20
100
AcDbEntity
  8
14000_Bottom
  6
Continuous
 62
     7
 48
0.5
370
    50
100
AcDbLine
 39
0.7
 10
224.1475751871698
 20
689.0183166542554
 30
0.0
 11
224.1475751871698
 21
689.8158466542552
 31
0.0
1001
AUSTER_FOLIE
1002
{
1000
VERTEILEREINBAU_2030_M_KNEBEL
1002
}
1001
AUSTER_ANSICHT
1002
{
1000
R
1002
}
  0
LINE
  5
CD11
330
20
100
AcDbEntity
  8
14000_Bottom
  6
Continuous
 62
     7
 48
0.5
370
    50
100
AcDbLine
 39
0.7
 10
245.1475751871698
 20
689.0183166542554
 30
0.0
 11
245.1475751871698
 21
689.8158466542552
 31
0.0
1001
AUSTER_FOLIE
1002
{
1000
VERTEILEREINBAU_2030_M_KNEBEL
1002
}
1001
AUSTER_ANSICHT
1002
{
1000
R
1002
}
  0
LINE
  5
CD12
330
20
100
AcDbEntity
  8
14000_Bottom
  6
Continuous
 62
     7
 48
0.5
370
    50
100
AcDbLine
 39
0.7
 10
249.1475751871698
 20
689.0183166542554
 30
0.0
 11
249.1475751871698
 21
689.8158466542552
 31
0.0
1001
AUSTER_FOLIE
1002
{
1000
VERTEILEREINBAU_2030_M_KNEBEL
1002
}
1001
AUSTER_ANSICHT
1002
{
1000
R
1002
}
  0
LINE
  5
CD13
330
20
100
AcDbEntity
  8
14000_Bottom
  6
Continuous
 62
     7
 48
0.5
370
    50
100
AcDbLine
 39
0.7
 10
257.6475751871698
 20
689.0183166542554
 30
0.0
 11
257.6475751871698
 21
689.8158466542552
 31
0.0
1001
AUSTER_FOLIE
1002
{
1000
VERTEILEREINBAU_2030_M_KNEBEL
1002
}
1001
AUSTER_ANSICHT
1002
{
1000
R
1002
}
  0
LINE
  5
CD14
330
20
100
AcDbEntity
  8
14000_Bottom
  6
Continuous
 62
     7
 48
0.5
370
    50
100
AcDbLine
 39
0.7
 10
261.6475751871698
 20
689.0183166542554
 30
0.0
 11
261.6475751871698
 21
689.8158466542552
 31
0.0
1001
AUSTER_FOLIE
1002
{
1000
VERTEILEREINBAU_2030_M_KNEBEL
1002
}
1001
AUSTER_ANSICHT
1002
{
1000
R
1002
}
  0
LINE
  5
CD15
330
20
100
AcDbEntity
  8
14000_Bottom
  6
Continuous
 62
     7
 48
0.5
370
    50
100
AcDbLine
 39
0.7
 10
269.1475761871698
 20
689.8158466542552
 30
0.0
 11
269.1475761871698
 21
689.0183166542554
 31
0.0
1001
AUSTER_FOLIE
1002
{
1000
VERTEILEREINBAU_2030_M_KNEBEL
1002
}
1001
AUSTER_ANSICHT
1002
{
1000
R
1002
}
  0
LINE
  5
CD16
330
20
100
AcDbEntity
  8
14000_Bottom
  6
Continuous
 62
     7
 48
0.5
370
    50
100
AcDbLine
 39
0.7
 10
231.2937591871699
 20
696.1211866542555
 30
0.0
 11
230.4213740820493
 21
689.8158466542552
 31
0.0
1001
AUSTER_FOLIE
1002
{
1000
VERTEILEREINBAU_2030_M_KNEBEL
1002
}
1001
AUSTER_ANSICHT
1002
{
1000
R
1002
}
  0
LINE
  5
CD17
330
20
100
AcDbEntity
  8
14000_Bottom
  6
Continuous
 62
     7
 48
0.5
370
    20
100
AcDbLine
 39
0.7
 10
240.9703040357089
 20
689.0158466542555
 30
0.0
 11
240.8613210907081
 21
689.8150550425278
 31
0.0
1001
AUSTER_FOLIE
1002
{
1000
VERTEILEREINBAU_2030_M_KNEBEL
1002
}
1001
AUSTER_ANSICHT
1002
{
1000
R
1002
}
  0
LINE
  5
CD18
330
20
100
AcDbEntity
  8
10000_FRONT
  6
Continuous
 62
     7
 48
0.5
370
    20
100
AcDbLine
 39
0.7
 10
3.3627784987045
 20
689.8158466542552
 30
0.0
 11
-5.137221501295499
 21
689.8158466542552
 31
0.0
1001
AUSTER_FOLIE
1002
{
1000
VERTEILEREINBAU_2030_M_KNEBEL
1002
}
1001
AUSTER_ANSICHT
1002
{
1000
V
1002
}
  0
LINE
  5
CD19
330
20
100
AcDbEntity
  8
10000_FRONT
  6
Continuous
 62
     7
 48
0.5
370
    20
100
AcDbLine
 39
0.7
 10
-9.137221501295499
 20
689.0183166542554
 30
0.0
 11
-9.137221501295499
 21
689.8158466542552
 31
0.0
1001
AUSTER_FOLIE
1002
{
1000
VERTEILEREINBAU_2030_M_KNEBEL
1002
}
1001
AUSTER_ANSICHT
1002
{
1000
V
1002
}
  0
LINE
  5
CD1A
330
20
100
AcDbEntity
  8
10000_FRONT
  6
Continuous
 62
     7
 48
0.5
370
    20
100
AcDbLine
 39
0.7
 10
-5.137221501295499
 20
689.0183166542554
 30
0.0
 11
-5.137221501295499
 21
689.8158466542552
 31
0.0
1001
AUSTER_FOLIE
1002
{
1000
VERTEILEREINBAU_2030_M_KNEBEL
1002
}
1001
AUSTER_ANSICHT
1002
{
1000
V
1002
}
  0
LINE
  5
CD1B
330
20
100
AcDbEntity
  8
10000_FRONT
  6
Continuous
 62
     7
 48
0.5
370
    20
100
AcDbLine
 39
0.7
 10
3.3627784987045
 20
689.0183166542554
 30
0.0
 11
3.362778498704528
 21
689.8158466542552
 31
0.0
1001
AUSTER_FOLIE
1002
{
1000
VERTEILEREINBAU_2030_M_KNEBEL
1002
}
1001
AUSTER_ANSICHT
1002
{
1000
V
1002
}
  0
LINE
  5
CD1C
330
20
100
AcDbEntity
  8
10000_FRONT
  6
Continuous
 62
     7
 48
0.5
370
    20
100
AcDbLine
 39
0.7
 10
7.3627784987045
 20
689.0183166542554
 30
0.0
 11
7.362778498704527
 21
689.8158466542552
 31
0.0
1001
AUSTER_FOLIE
1002
{
1000
VERTEILEREINBAU_2030_M_KNEBEL
1002
}
1001
AUSTER_ANSICHT
1002
{
1000
V
1002
}
  0
LINE
  5
CD1D
330
20
100
AcDbEntity
  8
10000_FRONT
  6
Continuous
 62
     7
 48
0.5
370
    20
100
AcDbLine
 39
0.7
 10
15.8627784987045
 20
689.0183166542554
 30
0.0
 11
15.86277849870453
 21
689.8158466542552
 31
0.0
1001
AUSTER_FOLIE
1002
{
1000
VERTEILEREINBAU_2030_M_KNEBEL
1002
}
1001
AUSTER_ANSICHT
1002
{
1000
V
1002
}
  0
LINE
  5
CD1E
330
20
100
AcDbEntity
  8
10000_FRONT
  6
Continuous
 62
     7
 48
0.5
370
    20
100
AcDbLine
 39
0.7
 10
19.8627784987045
 20
689.0183166542554
 30
0.0
 11
19.86277849870453
 21
689.8158466542552
 31
0.0
1001
AUSTER_FOLIE
1002
{
1000
VERTEILEREINBAU_2030_M_KNEBEL
1002
}
1001
AUSTER_ANSICHT
1002
{
1000
V
1002
}
  0
LINE
  5
CD20
330
20
100
AcDbEntity
  8
11000_Left
  6
Continuous
 62
     7
 48
0.5
370
    50
100
AcDbLine
 39
0.7
 10
157.2053385278133
 20
687.0158466542553
 30
0.0
 11
143.2053385278133
 21
687.0158466542553
 31
0.0
1001
AUSTER_FOLIE
1002
{
1000
VERTEILEREINBAU_2030_M_KNEBEL
1002
}
1001
AUSTER_ANSICHT
1002
{
1000
SL
1002
}
  0
LINE
  5
CD21
330
20
100
AcDbEntity
  8
11000_Left
  6
Continuous
 62
     7
 48
0.5
370
    20
100
AcDbLine
 39
0.45
 10
141.2053385278133
 20
680.5158466542555
 30
0.0
 11
145.7053385278133
 21
680.5158466542555
 31
0.0
1001
AUSTER_FOLIE
1002
{
1000
VERTEILEREINBAU_2030_M_KNEBEL
1002
}
1001
AUSTER_ANSICHT
1002
{
1000
SL
1002
}
  0
LINE
  5
CD22
330
20
100
AcDbEntity
  8
11000_Left
  6
Continuous
 62
     7
 48
0.5
370
    20
100
AcDbLine
 39
0.45
 10
145.7058885278132
 20
648.9158466542552
 30
0.0
 11
141.2053385278133
 21
648.9158466542552
 31
0.0
1001
AUSTER_FOLIE
1002
{
1000
VERTEILEREINBAU_2030_M_KNEBEL
1002
}
1001
AUSTER_ANSICHT
1002
{
1000
SL
1002
}
  0
LINE
  5
CD23
330
20
100
AcDbEntity
  8
10000_FRONT
  6
Continuous
 62
     7
 48
0.5
370
    20
100
AcDbLine
 39
0.7
 10
-17.73722197178529
 20
689.0158466542555
 30
0.0
 11
-16.6372225012955
 21
689.0158466542555
 31
0.0
1001
AUSTER_FOLIE
1002
{
1000
VERTEILEREINBAU_2030_M_KNEBEL
1002
}
1001
AUSTER_ANSICHT
1002
{
1000
V
1002
}
  0
ARC
  5
CD24
330
20
100
AcDbEntity
  8
10000_FRONT
 48
0.5
100
AcDbCircle
 39
0.45
 10
-14.34267750129552
 20
664.6725266542555
 30
0.0
 40
3.0
100
AcDbArc
 50
0.0
 51
180.0
1001
AUSTER_FOLIE
1002
{
1000
VERTEILEREINBAU_2030_M_KNEBEL
1002
}
1001
AUSTER_ANSICHT
1002
{
1000
V
1002
}
  0
ARC
  5
CD25
330
20
100
AcDbEntity
  8
10000_FRONT
 48
0.5
100
AcDbCircle
 39
0.45
 10
-14.34267750129552
 20
664.6725266542555
 30
0.0
 40
3.0
100
AcDbArc
 50
180.0
 51
0.0
1001
AUSTER_FOLIE
1002
{
1000
VERTEILEREINBAU_2030_M_KNEBEL
1002
}
1001
AUSTER_ANSICHT
1002
{
1000
V
1002
}
  0
LINE
  5
CD26
330
20
100
AcDbEntity
  8
10000_FRONT
  6
Continuous
 62
     7
 48
0.5
370
    20
100
AcDbLine
 39
0.7
 10
-16.6372225012955
 20
689.8158466542552
 30
0.0
 11
-9.137221501295528
 21
689.8158466542552
 31
0.0
1001
AUSTER_FOLIE
1002
{
1000
VERTEILEREINBAU_2030_M_KNEBEL
1002
}
1001
AUSTER_ANSICHT
1002
{
1000
V
1002
}
  0
LINE
  5
CD27
330
20
100
AcDbEntity
  8
10000_FRONT
  6
Continuous
 62
     7
 48
0.5
370
    20
100
AcDbLine
 39
0.7
 10
-16.6372225012955
 20
689.8158466542552
 30
0.0
 11
-16.6372225012955
 21
689.0183166542554
 31
0.0
1001
AUSTER_FOLIE
1002
{
1000
VERTEILEREINBAU_2030_M_KNEBEL
1002
}
1001
AUSTER_ANSICHT
1002
{
1000
V
1002
}
  0
LINE
  5
CD28
330
20
100
AcDbEntity
  8
11000_Left
  6
Continuous
 62
     7
 48
0.5
370
    50
100
AcDbLine
 39
0.7
 10
141.2053385278133
 20
687.0158466542553
 30
0.0
 11
141.2053385278133
 21
680.5158466542555
 31
0.0
1001
AUSTER_FOLIE
1002
{
1000
VERTEILEREINBAU_2030_M_KNEBEL
1002
}
1001
AUSTER_ANSICHT
1002
{
1000
SL
1002
}
  0
LINE
  5
CD29
330
20
100
AcDbEntity
  8
11000_Left
  6
Continuous
 62
     7
 48
0.5
370
    50
100
AcDbLine
 39
0.7
 10
99.2053385278133
 20
647.2158466542555
 30
0.0
 11
99.2053385278133
 21
682.2158466542555
 31
0.0
1001
AUSTER_FOLIE
1002
{
1000
VERTEILEREINBAU_2030_M_KNEBEL
1002
}
1001
AUSTER_ANSICHT
1002
{
1000
SL
1002
}
  0
LINE
  5
CD2A
330
20
100
AcDbEntity
  8
11000_Left
  6
Continuous
 62
     7
 48
0.5
370
    50
100
AcDbLine
 39
0.7
 10
136.2053385278133
 20
688.7158466542555
 30
0.0
 11
136.2053385278133
 21
680.5158466542555
 31
0.0
1001
AUSTER_FOLIE
1002
{
1000
VERTEILEREINBAU_2030_M_KNEBEL
1002
}
1001
AUSTER_ANSICHT
1002
{
1000
SL
1002
}
  0
LINE
  5
CD2C
330
20
100
AcDbEntity
  8
10000_FRONT
 48
0.5
100
AcDbLine
 39
0.45
 10
5.63146849870449
 20
685.9767066542555
 30
0.0
 11
5.63146849870449
 21
680.0463466542552
 31
0.0
1001
AUSTER_FOLIE
1002
{
1000
VERTEILEREINBAU_2030_M_KNEBEL
1002
}
1001
AUSTER_ANSICHT
1002
{
1000
V
1002
}
  0
LINE
  5
CD2D
330
20
100
AcDbEntity
  8
11000_Left
  6
Continuous
 62
     7
 48
0.5
370
    50
100
AcDbLine
 39
0.7
 10
94.2053385278133
 20
647.2158466542555
 30
0.0
 11
99.2053385278133
 21
647.2158466542555
 31
0.0
1001
AUSTER_FOLIE
1002
{
1000
VERTEILEREINBAU_2030_M_KNEBEL
1002
}
1001
AUSTER_ANSICHT
1002
{
1000
SL
1002
}
  0
LINE
  5
CD2E
330
20
100
AcDbEntity
  8
11000_Left
  6
Continuous
 62
     7
 48
0.5
370
    50
100
AcDbLine
 39
0.7
 10
136.2053385278133
 20
680.5158466542555
 30
0.0
 11
141.2053385278133
 21
680.5158466542555
 31
0.0
1001
AUSTER_FOLIE
1002
{
1000
VERTEILEREINBAU_2030_M_KNEBEL
1002
}
1001
AUSTER_ANSICHT
1002
{
1000
SL
1002
}
  0
LINE
  5
CD2F
330
20
100
AcDbEntity
  8
10000_FRONT
  6
Continuous
 62
     7
 48
0.5
370
    20
100
AcDbLine
 39
0.7
 10
21.21659449870449
 20
696.1211866542555
 30
0.0
 11
22.08897960382504
 21
689.8158466542552
 31
0.0
1001
AUSTER_FOLIE
1002
{
1000
VERTEILEREINBAU_2030_M_KNEBEL
1002
}
1001
AUSTER_ANSICHT
1002
{
1000
V
1002
}
  0
LINE
  5
CD30
330
20
100
AcDbEntity
  8
10000_FRONT
  6
Continuous
 62
     7
 48
0.5
370
    20
100
AcDbLine
 39
0.7
 10
11.6491405422031
 20
689.8158466542552
 30
0.0
 11
12.50895949870448
 21
696.1211866542555
 31
0.0
1001
AUSTER_FOLIE
1002
{
1000
VERTEILEREINBAU_2030_M_KNEBEL
1002
}
1001
AUSTER_ANSICHT
1002
{
1000
V
1002
}
  0
ARC
  5
CD31
330
20
100
AcDbEntity
  8
10000_FRONT
  6
Continuous
 62
     7
 48
0.5
370
    20
100
AcDbCircle
 39
0.45
 10
16.8627774987045
 20
694.7158466542555
 30
0.0
 40
2.25
100
AcDbArc
 50
0.0
 51
180.0
1001
AUSTER_FOLIE
1002
{
1000
VERTEILEREINBAU_2030_M_KNEBEL
1002
}
1001
AUSTER_ANSICHT
1002
{
1000
V
1002
}
  0
ARC
  5
CD32
330
20
100
AcDbEntity
  8
10000_FRONT
  6
Continuous
 62
     7
 48
0.5
370
    20
100
AcDbCircle
 39
0.45
 10
16.8627774987045
 20
694.7158466542555
 30
0.0
 40
2.25
100
AcDbArc
 50
180.0
 51
0.0
1001
AUSTER_FOLIE
1002
{
1000
VERTEILEREINBAU_2030_M_KNEBEL
1002
}
1001
AUSTER_ANSICHT
1002
{
1000
V
1002
}
  0
ARC
  5
CD33
330
20
100
AcDbEntity
  8
10000_FRONT
  6
Continuous
 62
     7
 48
0.5
370
    20
100
AcDbCircle
 39
0.7
 10
15.48145182685888
 20
695.7158445043526
 30
0.0
 40
3.000002149903318
100
AcDbArc
 50
90.0000253658634
 51
172.2347907041597
1001
AUSTER_FOLIE
1002
{
1000
VERTEILEREINBAU_2030_M_KNEBEL
1002
}
1001
AUSTER_ANSICHT
1002
{
1000
V
1002
}
  0
ARC
  5
CD34
330
20
100
AcDbEntity
  8
10000_FRONT
  6
Continuous
 62
     7
 48
0.5
370
    20
100
AcDbCircle
 39
0.7
 10
18.24410217054975
 20
695.7158445043518
 30
0.0
 40
3.000002149903787
100
AcDbArc
 50
7.76520929584678
 51
89.99997463413006
1001
AUSTER_FOLIE
1002
{
1000
VERTEILEREINBAU_2030_M_KNEBEL
1002
}
1001
AUSTER_ANSICHT
1002
{
1000
V
1002
}
  0
LINE
  5
CD35
330
20
100
AcDbEntity
  8
10000_FRONT
  6
Continuous
 62
     7
 48
0.5
370
    20
100
AcDbLine
 39
0.7
 10
15.4814504987045
 20
698.7158466542555
 30
0.0
 11
18.2441034987045
 21
698.7158466542555
 31
0.0
1001
AUSTER_FOLIE
1002
{
1000
VERTEILEREINBAU_2030_M_KNEBEL
1002
}
1001
AUSTER_ANSICHT
1002
{
1000
V
1002
}
  0
LINE
  5
CD36
330
20
100
AcDbEntity
  8
10000_FRONT
  6
Continuous
 62
     7
 48
0.5
370
    20
100
AcDbLine
 39
0.7
 10
28.3627784987045
 20
689.0183166542554
 30
0.0
 11
28.36277849870453
 21
689.8158466542552
 31
0.0
1001
AUSTER_FOLIE
1002
{
1000
VERTEILEREINBAU_2030_M_KNEBEL
1002
}
1001
AUSTER_ANSICHT
1002
{
1000
V
1002
}
  0
LINE
  5
CD37
330
20
100
AcDbEntity
  8
11000_Left
  6
Continuous
 62
     7
 48
0.5
370
    50
100
AcDbLine
 39
0.7
 10
110.2053385278133
 20
689.8158466542552
 30
0.0
 11
123.7053385278133
 21
689.8158466542552
 31
0.0
1001
AUSTER_FOLIE
1002
{
1000
VERTEILEREINBAU_2030_M_KNEBEL
1002
}
1001
AUSTER_ANSICHT
1002
{
1000
SL
1002
}
  0
LINE
  5
CD38
330
20
100
AcDbEntity
  8
11000_Left
  6
Continuous
 62
     7
 48
0.5
370
    50
100
AcDbLine
 39
0.7
 10
99.2053385278133
 20
682.2158466542555
 30
0.0
 11
94.2053385278133
 21
682.2158466542555
 31
0.0
1001
AUSTER_FOLIE
1002
{
1000
VERTEILEREINBAU_2030_M_KNEBEL
1002
}
1001
AUSTER_ANSICHT
1002
{
1000
SL
1002
}
  0
LINE
  5
CD39
330
20
100
AcDbEntity
  8
11000_Left
  6
Continuous
 62
     7
 48
0.5
370
    20
100
AcDbLine
 39
0.45
 10
94.2053385278133
 20
687.7158466542555
 30
0.0
 11
98.20533852781332
 21
687.7158466542555
 31
0.0
1001
AUSTER_FOLIE
1002
{
1000
VERTEILEREINBAU_2030_M_KNEBEL
1002
}
1001
AUSTER_ANSICHT
1002
{
1000
SL
1002
}
  0
LINE
  5
CD3A
330
20
100
AcDbEntity
  8
11000_Left
  6
Continuous
 62
     7
 48
0.5
370
    50
100
AcDbLine
 39
0.7
 10
98.20533852781332
 20
698.7158466542555
 30
0.0
 11
94.2053385278133
 21
698.7158466542555
 31
0.0
1001
AUSTER_FOLIE
1002
{
1000
VERTEILEREINBAU_2030_M_KNEBEL
1002
}
1001
AUSTER_ANSICHT
1002
{
1000
SL
1002
}
  0
LINE
  5
CD3B
330
20
100
AcDbEntity
  8
11000_Left
  6
Continuous
 62
     7
 48
0.5
370
    50
100
AcDbLine
 39
0.7
 10
94.2053385278133
 20
692.4658466542555
 30
0.0
 11
94.20599852781322
 21
692.4658466542555
 31
0.0
1001
AUSTER_FOLIE
1002
{
1000
VERTEILEREINBAU_2030_M_KNEBEL
1002
}
1001
AUSTER_ANSICHT
1002
{
1000
SL
1002
}
  0
LINE
  5
CD3C
330
20
100
AcDbEntity
  8
11000_Left
  6
Continuous
 62
     7
 48
0.5
370
    50
100
AcDbLine
 39
0.7
 10
94.2053385278133
 20
696.1211866542555
 30
0.0
 11
94.2053385278133
 21
687.7158466542555
 31
0.0
1001
AUSTER_FOLIE
1002
{
1000
VERTEILEREINBAU_2030_M_KNEBEL
1002
}
1001
AUSTER_ANSICHT
1002
{
1000
SL
1002
}
  0
LINE
  5
CD3D
330
20
100
AcDbEntity
  8
11000_Left
  6
Continuous
 62
     7
 48
0.5
370
    50
100
AcDbLine
 39
0.7
 10
94.2053385278133
 20
682.2158466542555
 30
0.0
 11
94.2053385278133
 21
687.7158466542555
 31
0.0
1001
AUSTER_FOLIE
1002
{
1000
VERTEILEREINBAU_2030_M_KNEBEL
1002
}
1001
AUSTER_ANSICHT
1002
{
1000
SL
1002
}
  0
LINE
  5
CD3E
330
20
100
AcDbEntity
  8
11000_Left
  6
Continuous
 62
     7
 48
0.5
370
    50
100
AcDbLine
 39
0.7
 10
94.2053385278133
 20
698.7158466542555
 30
0.0
 11
94.2053385278133
 21
696.1211866542555
 31
0.0
1001
AUSTER_FOLIE
1002
{
1000
VERTEILEREINBAU_2030_M_KNEBEL
1002
}
1001
AUSTER_ANSICHT
1002
{
1000
SL
1002
}
  0
LINE
  5
CD3F
330
20
100
AcDbEntity
  8
11000_Left
  6
Continuous
 62
     7
 48
0.5
370
    50
100
AcDbLine
 39
0.7
 10
94.20589852781324
 20
696.9658466542555
 30
0.0
 11
94.2053385278133
 21
696.9658466542555
 31
0.0
1001
AUSTER_FOLIE
1002
{
1000
VERTEILEREINBAU_2030_M_KNEBEL
1002
}
1001
AUSTER_ANSICHT
1002
{
1000
SL
1002
}
  0
LINE
  5
CD40
330
20
100
AcDbEntity
  8
11000_Left
  6
Continuous
 62
     7
 48
0.5
370
    50
100
AcDbLine
 39
0.7
 10
98.20533852781332
 20
687.719396654255
 30
0.0
 11
98.20533852781332
 21
696.1211866542555
 31
0.0
1001
AUSTER_FOLIE
1002
{
1000
VERTEILEREINBAU_2030_M_KNEBEL
1002
}
1001
AUSTER_ANSICHT
1002
{
1000
SL
1002
}
  0
LINE
  5
CD41
330
20
100
AcDbEntity
  8
11000_Left
  6
Continuous
 62
     7
 48
0.5
370
    50
100
AcDbLine
 39
0.7
 10
104.2053385278133
 20
688.7158466542555
 30
0.0
 11
110.2053385278133
 21
688.7158466542555
 31
0.0
1001
AUSTER_FOLIE
1002
{
1000
VERTEILEREINBAU_2030_M_KNEBEL
1002
}
1001
AUSTER_ANSICHT
1002
{
1000
SL
1002
}
  0
LINE
  5
CD42
330
20
100
AcDbEntity
  8
11000_Left
  6
Continuous
 62
     7
 48
0.5
370
    50
100
AcDbLine
 39
0.7
 10
104.2053385278133
 20
687.7158466542555
 30
0.0
 11
104.2053385278133
 21
688.7158466542555
 31
0.0
1001
AUSTER_FOLIE
1002
{
1000
VERTEILEREINBAU_2030_M_KNEBEL
1002
}
1001
AUSTER_ANSICHT
1002
{
1000
SL
1002
}
  0
LINE
  5
CD43
330
20
100
AcDbEntity
  8
11000_Left
  6
Continuous
 62
     7
 48
0.5
370
    50
100
AcDbLine
 39
0.7
 10
110.2053385278133
 20
688.7158466542555
 30
0.0
 11
110.2053385278133
 21
689.8158466542552
 31
0.0
1001
AUSTER_FOLIE
1002
{
1000
VERTEILEREINBAU_2030_M_KNEBEL
1002
}
1001
AUSTER_ANSICHT
1002
{
1000
SL
1002
}
  0
LINE
  5
CD44
330
20
100
AcDbEntity
  8
11000_Left
  6
Continuous
 62
     7
 48
0.5
370
    50
100
AcDbLine
 39
0.7
 10
98.20533852781332
 20
696.1211866542555
 30
0.0
 11
98.20533852781332
 21
698.7158466542555
 31
0.0
1001
AUSTER_FOLIE
1002
{
1000
VERTEILEREINBAU_2030_M_KNEBEL
1002
}
1001
AUSTER_ANSICHT
1002
{
1000
SL
1002
}
  0
LINE
  5
CD45
330
20
100
AcDbEntity
  8
11000_Left
  6
Continuous
 62
     7
 48
0.5
370
    50
100
AcDbLine
 39
0.7
 10
123.7053385278133
 20
688.7158466542555
 30
0.0
 11
136.2053385278133
 21
688.7158466542555
 31
0.0
1001
AUSTER_FOLIE
1002
{
1000
VERTEILEREINBAU_2030_M_KNEBEL
1002
}
1001
AUSTER_ANSICHT
1002
{
1000
SL
1002
}
  0
LINE
  5
CD46
330
20
100
AcDbEntity
  8
11000_Left
  6
Continuous
 62
     7
 48
0.5
370
    50
100
AcDbLine
 39
0.7
 10
123.7053385278133
 20
689.8158466542552
 30
0.0
 11
123.7053385278133
 21
688.7158466542555
 31
0.0
1001
AUSTER_FOLIE
1002
{
1000
VERTEILEREINBAU_2030_M_KNEBEL
1002
}
1001
AUSTER_ANSICHT
1002
{
1000
SL
1002
}
  0
LINE
  5
CD47
330
20
100
AcDbEntity
  8
11000_Left
  6
Continuous
 62
     7
 48
0.5
370
    50
100
AcDbLine
 39
0.7
 10
141.2053385278133
 20
689.0158466542555
 30
0.0
 11
141.2053385278133
 21
687.0158466542553
 31
0.0
1001
AUSTER_FOLIE
1002
{
1000
VERTEILEREINBAU_2030_M_KNEBEL
1002
}
1001
AUSTER_ANSICHT
1002
{
1000
SL
1002
}
  0
LINE
  5
CD48
330
20
100
AcDbEntity
  8
11000_Left
  6
Continuous
 62
     7
 48
0.5
370
    50
100
AcDbLine
 39
0.7
 10
141.2053385278133
 20
689.0158466542555
 30
0.0
 11
143.2053385278133
 21
689.0158466542555
 31
0.0
1001
AUSTER_FOLIE
1002
{
1000
VERTEILEREINBAU_2030_M_KNEBEL
1002
}
1001
AUSTER_ANSICHT
1002
{
1000
SL
1002
}
  0
LINE
  5
CD49
330
20
100
AcDbEntity
  8
11000_Left
  6
Continuous
 62
     7
 48
0.5
370
    50
100
AcDbLine
 39
0.7
 10
143.2053385278133
 20
687.0160966542555
 30
0.0
 11
143.2053385278133
 21
689.0158466542555
 31
0.0
1001
AUSTER_FOLIE
1002
{
1000
VERTEILEREINBAU_2030_M_KNEBEL
1002
}
1001
AUSTER_ANSICHT
1002
{
1000
SL
1002
}
  0
LINE
  5
CD4A
330
20
100
AcDbEntity
  8
11000_Left
  6
Continuous
 62
     7
 48
0.5
370
    50
100
AcDbLine
 39
0.7
 10
157.2053385278133
 20
687.0158466542553
 30
0.0
 11
157.2053385278133
 21
642.0158466542552
 31
0.0
1001
AUSTER_FOLIE
1002
{
1000
VERTEILEREINBAU_2030_M_KNEBEL
1002
}
1001
AUSTER_ANSICHT
1002
{
1000
SL
1002
}
  0
LINE
  5
CD4F
330
20
100
AcDbEntity
  8
11000_Left
  6
Continuous
 62
     7
 48
0.5
370
    20
100
AcDbLine
 39
0.45
 10
145.7053385278133
 20
680.5158466542555
 30
0.0
 11
145.7058885278132
 21
648.9158466542552
 31
0.0
1001
AUSTER_FOLIE
1002
{
1000
VERTEILEREINBAU_2030_M_KNEBEL
1002
}
1001
AUSTER_ANSICHT
1002
{
1000
SL
1002
}
  0
POINT
  5
CD6F
330
20
100
AcDbEntity
  8
11000_Left
  6
Continuous
 62
     7
 48
0.5
370
    50
100
AcDbPoint
 10
143.2053385278133
 20
687.0160966542555
 30
0.0
 39
0.7
1001
AUSTER_FOLIE
1002
{
1000
VERTEILEREINBAU_2030_M_KNEBEL
1002
}
1001
AUSTER_ANSICHT
1002
{
1000
SL
1002
}
  0
POINT
  5
CD70
330
20
100
AcDbEntity
  8
11000_Left
  6
Continuous
 62
     7
 48
0.5
370
    50
100
AcDbPoint
 10
157.2053385278133
 20
687.0158466542553
 30
0.0
 39
0.7
1001
AUSTER_FOLIE
1002
{
1000
VERTEILEREINBAU_2030_M_KNEBEL
1002
}
1001
AUSTER_ANSICHT
1002
{
1000
SL
1002
}
  0
POINT
  5
CD71
330
20
100
AcDbEntity
  8
11000_Left
  6
Continuous
 62
     7
 48
0.5
370
    50
100
AcDbPoint
 10
143.2053385278133
 20
687.0160966542555
 30
0.0
 39
0.7
1001
AUSTER_FOLIE
1002
{
1000
VERTEILEREINBAU_2030_M_KNEBEL
1002
}
1001
AUSTER_ANSICHT
1002
{
1000
SL
1002
}
  0
POINT
  5
CD73
330
20
100
AcDbEntity
  8
11000_Left
  6
Continuous
 62
     7
 48
0.5
370
    50
100
AcDbPoint
 10
143.2053385278133
 20
689.0158466542555
 30
0.0
 39
0.7
1001
AUSTER_FOLIE
1002
{
1000
VERTEILEREINBAU_2030_M_KNEBEL
1002
}
1001
AUSTER_ANSICHT
1002
{
1000
SL
1002
}
  0
POINT
  5
CD74
330
20
100
AcDbEntity
  8
11000_Left
  6
Continuous
 62
     7
 48
0.5
370
    50
100
AcDbPoint
 10
136.2053385278133
 20
688.7158466542555
 30
0.0
 39
0.7
1001
AUSTER_FOLIE
1002
{
1000
VERTEILEREINBAU_2030_M_KNEBEL
1002
}
1001
AUSTER_ANSICHT
1002
{
1000
SL
1002
}
  0
POINT
  5
CD75
330
20
100
AcDbEntity
  8
11000_Left
  6
Continuous
 62
     7
 48
0.5
370
    50
100
AcDbPoint
 10
94.2053385278133
 20
698.7158466542555
 30
0.0
 39
0.7
1001
AUSTER_FOLIE
1002
{
1000
VERTEILEREINBAU_2030_M_KNEBEL
1002
}
1001
AUSTER_ANSICHT
1002
{
1000
SL
1002
}
  0
LINE
  5
CD79
330
20
100
AcDbEntity
  8
10000_FRONT
  6
Continuous
 62
     7
370
    50
100
AcDbLine
 39
0.7
 10
29.4627780282147
 20
687.0175854189453
 30
0.0
 11
-17.73722197178529
 21
687.0159473013306
 31
0.0
1001
AUSTER_FOLIE
1002
{
1000
VERTEILEREINBAU_2030_M_KNEBEL
1002
}
1001
AUSTER_ANSICHT
1002
{
1000
V
1002
}
  0
LINE
  5
CD7A
330
20
100
AcDbEntity
  8
10000_FRONT
  6
Continuous
 62
     7
 48
0.5
370
    20
100
AcDbLine
 39
0.7
 10
28.3627784987045
 20
689.0158466542555
 30
0.0
 11
29.4627780282147
 21
689.0158466542555
 31
0.0
1001
AUSTER_FOLIE
1002
{
1000
VERTEILEREINBAU_2030_M_KNEBEL
1002
}
1001
AUSTER_ANSICHT
1002
{
1000
V
1002
}
  0
LINE
  5
CD7B
330
20
100
AcDbEntity
  8
10000_FRONT
  6
Continuous
 62
     7
 48
0.5
370
    20
100
AcDbLine
 39
0.7
 10
19.8627784987045
 20
689.8158466542552
 30
0.0
 11
28.3627784987045
 21
689.8158466542552
 31
0.0
1001
AUSTER_FOLIE
1002
{
1000
VERTEILEREINBAU_2030_M_KNEBEL
1002
}
1001
AUSTER_ANSICHT
1002
{
1000
V
1002
}
  0
LINE
  5
CD7C
330
20
100
AcDbEntity
  8
10000_FRONT
  6
Continuous
 62
     7
 48
0.5
370
    20
100
AcDbLine
 39
0.7
 10
15.8627784987045
 20
689.8158466542552
 30
0.0
 11
7.3627784987045
 21
689.8158466542552
 31
0.0
1001
AUSTER_FOLIE
1002
{
1000
VERTEILEREINBAU_2030_M_KNEBEL
1002
}
1001
AUSTER_ANSICHT
1002
{
1000
V
1002
}
  0
LINE
  5
CD7D
330
20
100
AcDbEntity
  8
10000_FRONT
  6
Continuous
 62
     7
 48
0.5
370
    20
100
AcDbLine
 39
0.45
 10
-16.6372225012955
 20
689.0158466542555
 30
0.0
 11
28.3627784987045
 21
689.0158466542555
 31
0.0
1001
AUSTER_FOLIE
1002
{
1000
VERTEILEREINBAU_2030_M_KNEBEL
1002
}
1001
AUSTER_ANSICHT
1002
{
1000
V
1002
}
  0
LINE
  5
CD81
330
20
100
AcDbEntity
  8
11000_Left
  6
Continuous
 62
     7
 48
0.5
370
    20
100
AcDbLine
 39
0.45
 10
143.2053385278133
 20
687.0158466542553
 30
0.0
 11
141.2053385278133
 21
687.0158466542553
 31
0.0
1001
AUSTER_FOLIE
1002
{
1000
VERTEILEREINBAU_2030_M_KNEBEL
1002
}
1001
AUSTER_ANSICHT
1002
{
1000
SL
1002
}
  0
LINE
  5
CD82
330
20
100
AcDbEntity
  8
11000_Left
  6
Continuous
 62
     7
 48
0.5
370
    50
100
AcDbLine
 39
0.7
 10
98.20533852781332
 20
687.7158466542555
 30
0.0
 11
104.2053385278133
 21
687.7158466542555
 31
0.0
1001
AUSTER_FOLIE
1002
{
1000
VERTEILEREINBAU_2030_M_KNEBEL
1002
}
1001
AUSTER_ANSICHT
1002
{
1000
SL
1002
}
  0
LINE
  5
CD83
330
20
100
AcDbEntity
  8
11000_Left
  6
Continuous
 62
     7
 48
0.5
370
    50
100
AcDbLine
 39
0.7
 10
141.2053385278133
 20
648.9158466542552
 30
0.0
 11
136.2053385278133
 21
648.9158466542552
 31
0.0
1001
AUSTER_FOLIE
1002
{
1000
VERTEILEREINBAU_2030_M_KNEBEL
1002
}
1001
AUSTER_ANSICHT
1002
{
1000
SL
1002
}
  0
LINE
  5
CD84
330
20
100
AcDbEntity
  8
10000_FRONT
  6
CENTER
 62
     7
370
     9
100
AcDbLine
 39
0.8
 10
44.99296849870449
 20
665.0564766542555
 30
0.0
 11
-22.77905550129552
 21
665.0564766542555
 31
0.0
1001
AUSTER_FOLIE
1002
{
1000
VERTEILEREINBAU_2030_M_KNEBEL
1002
}
1001
AUSTER_ANSICHT
1002
{
1000
V
1002
}
  0
DIMENSION
  5
CD85
330
20
100
AcDbEntity
  8
10100_FRONT_DIM
  6
Continuous
 62
     7
370
    13
100
AcDbDimension
  2
*D1
 10
29.4627780282147
 20
709.0622058002353
 30
0.0
 11
5.862777998704501
 21
709.0622058002353
 31
0.0
 70
   160
 71
     5
 42
47.19999999999997
  3
H035
100
AcDbAlignedDimension
 13
-17.73722197178529
 23
689.0158466542555
 33
0.0
 14
29.4627780282147
 24
689.0158466542555
 34
0.0
100
AcDbRotatedDimension
1001
AUSTER_FOLIE
1002
{
1000
VERTEILEREINBAU_2030_M_KNEBEL
1002
}
1001
AUSTER_ANSICHT
1002
{
1000
V
1002
}
1001
ACAD
1000
DSTYLE
1002
{
1070
    40
1040
1.0
1070
    77
1070
     0
1070
   147
1040
1.5
1070
   272
1070
     0
1070
   279
1070
     1
1070
   288
1070
     1
1002
}
  0
POINT
  5
CDF2
330
20
100
AcDbEntity
  8
11000_Left
  6
CENTER
 62
     7
 48
0.5
370
     9
100
AcDbPoint
 10
99.2053385278133
 20
682.2158466542555
 30
0.0
 39
0.35
1001
AUSTER_FOLIE
1002
{
1000
VERTEILEREINBAU_2030_M_KNEBEL
1002
}
1001
AUSTER_ANSICHT
1002
{
1000
SL
1002
}
  0
POINT
  5
CDF3
330
20
100
AcDbEntity
  8
11000_Left
  6
CENTER
 62
     7
 48
0.5
370
     9
100
AcDbPoint
 10
99.2053385278133
 20
682.2158466542555
 30
0.0
 39
0.35
1001
AUSTER_FOLIE
1002
{
1000
VERTEILEREINBAU_2030_M_KNEBEL
1002
}
1001
AUSTER_ANSICHT
1002
{
1000
SL
1002
}
  0
POINT
  5
CDF4
330
20
100
AcDbEntity
  8
11000_Left
  6
CENTER
 62
     7
 48
0.5
370
     9
100
AcDbPoint
 10
99.2053385278133
 20
682.2158466542555
 30
0.0
 39
0.35
1001
AUSTER_FOLIE
1002
{
1000
VERTEILEREINBAU_2030_M_KNEBEL
1002
}
1001
AUSTER_ANSICHT
1002
{
1000
SL
1002
}
  0
ARC
  5
CDF5
330
20
100
AcDbEntity
  8
11000_Left
  6
CENTER
 62
     7
 48
0.5
370
     9
100
AcDbCircle
 39
0.35
 10
92.7053385278133
 20
676.0658466542555
 30
0.0
 40
1.0
100
AcDbArc
 50
90.0
 51
180.0
1001
AUSTER_FOLIE
1002
{
1000
VERTEILEREINBAU_2030_M_KNEBEL
1002
}
1001
AUSTER_ANSICHT
1002
{
1000
SL
1002
}
  0
ARC
  5
CDF6
330
20
100
AcDbEntity
  8
11000_Left
  6
CENTER
 62
     7
 48
0.5
370
     9
100
AcDbCircle
 39
0.35
 10
92.7053385278133
 20
653.0658466542555
 30
0.0
 40
1.0
100
AcDbArc
 50
180.0
 51
270.0
1001
AUSTER_FOLIE
1002
{
1000
VERTEILEREINBAU_2030_M_KNEBEL
1002
}
1001
AUSTER_ANSICHT
1002
{
1000
SL
1002
}
  0
ARC
  5
CDF7
330
20
100
AcDbEntity
  8
11000_Left
  6
CENTER
 62
     7
 48
0.5
370
     9
100
AcDbCircle
 39
0.35
 10
95.30533852745326
 20
650.1658466538955
 30
0.0
 40
1.90000000036
100
AcDbArc
 50
0.0000000107477304
 51
89.99999998925064
1001
AUSTER_FOLIE
1002
{
1000
VERTEILEREINBAU_2030_M_KNEBEL
1002
}
1001
AUSTER_ANSICHT
1002
{
1000
SL
1002
}
  0
ARC
  5
CDF8
330
20
100
AcDbEntity
  8
11000_Left
  6
CENTER
 62
     7
 48
0.5
370
     9
100
AcDbCircle
 39
0.35
 10
97.7053385278333
 20
679.7158466542355
 30
0.0
 40
0.4999999999800001
100
AcDbArc
 50
270.0
 51
0.0
1001
AUSTER_FOLIE
1002
{
1000
VERTEILEREINBAU_2030_M_KNEBEL
1002
}
1001
AUSTER_ANSICHT
1002
{
1000
SL
1002
}
  0
ARC
  5
CDF9
330
20
100
AcDbEntity
  8
11000_Left
  6
CENTER
 62
     7
 48
0.5
370
     9
100
AcDbCircle
 39
0.35
 10
95.30533852745326
 20
678.9658466546152
 30
0.0
 40
1.90000000036
100
AcDbArc
 50
270.0000000107494
 51
359.9999999892523
1001
AUSTER_FOLIE
1002
{
1000
VERTEILEREINBAU_2030_M_KNEBEL
1002
}
1001
AUSTER_ANSICHT
1002
{
1000
SL
1002
}
  0
ARC
  5
CDFA
330
20
100
AcDbEntity
  8
11000_Left
  6
CENTER
 62
     7
 48
0.5
370
     9
100
AcDbCircle
 39
0.35
 10
95.20533852776329
 20
655.0658466542055
 30
0.0
 40
0.9999999999499999
100
AcDbArc
 50
180.0
 51
270.0
1001
AUSTER_FOLIE
1002
{
1000
VERTEILEREINBAU_2030_M_KNEBEL
1002
}
1001
AUSTER_ANSICHT
1002
{
1000
SL
1002
}
  0
ARC
  5
CDFB
330
20
100
AcDbEntity
  8
11000_Left
  6
CENTER
 62
     7
 48
0.5
370
     9
100
AcDbCircle
 39
0.35
 10
95.20533852776329
 20
674.0658466543052
 30
0.0
 40
0.9999999999499999
100
AcDbArc
 50
90.0
 51
180.0
1001
AUSTER_FOLIE
1002
{
1000
VERTEILEREINBAU_2030_M_KNEBEL
1002
}
1001
AUSTER_ANSICHT
1002
{
1000
SL
1002
}
  0
POINT
  5
CDFC
330
20
100
AcDbEntity
  8
11000_Left
  6
CENTER
 62
     7
 48
0.5
370
     9
100
AcDbPoint
 10
99.2053385278133
 20
677.0658466542555
 30
0.0
 39
0.35
1001
AUSTER_FOLIE
1002
{
1000
VERTEILEREINBAU_2030_M_KNEBEL
1002
}
1001
AUSTER_ANSICHT
1002
{
1000
SL
1002
}
  0
POINT
  5
CDFD
330
20
100
AcDbEntity
  8
11000_Left
  6
CENTER
 62
     7
 48
0.5
370
     9
100
AcDbPoint
 10
95.30533852781331
 20
652.0658466542555
 30
0.0
 39
0.35
1001
AUSTER_FOLIE
1002
{
1000
VERTEILEREINBAU_2030_M_KNEBEL
1002
}
1001
AUSTER_ANSICHT
1002
{
1000
SL
1002
}
  0
POINT
  5
CDFE
330
20
100
AcDbEntity
  8
11000_Left
  6
CENTER
 62
     7
 48
0.5
370
     9
100
AcDbPoint
 10
95.30533852781331
 20
677.0658466542555
 30
0.0
 39
0.35
1001
AUSTER_FOLIE
1002
{
1000
VERTEILEREINBAU_2030_M_KNEBEL
1002
}
1001
AUSTER_ANSICHT
1002
{
1000
SL
1002
}
  0
POINT
  5
CDFF
330
20
100
AcDbEntity
  8
11000_Left
  6
CENTER
 62
     7
 48
0.5
370
     9
100
AcDbPoint
 10
92.7053385278133
 20
677.0658466542555
 30
0.0
 39
0.35
1001
AUSTER_FOLIE
1002
{
1000
VERTEILEREINBAU_2030_M_KNEBEL
1002
}
1001
AUSTER_ANSICHT
1002
{
1000
SL
1002
}
  0
POINT
  5
CE00
330
20
100
AcDbEntity
  8
11000_Left
  6
CENTER
 62
     7
 48
0.5
370
     9
100
AcDbPoint
 10
91.7053385278133
 20
676.0658466542555
 30
0.0
 39
0.35
1001
AUSTER_FOLIE
1002
{
1000
VERTEILEREINBAU_2030_M_KNEBEL
1002
}
1001
AUSTER_ANSICHT
1002
{
1000
SL
1002
}
  0
POINT
  5
CE01
330
20
100
AcDbEntity
  8
11000_Left
  6
CENTER
 62
     7
 48
0.5
370
     9
100
AcDbPoint
 10
91.7053385278133
 20
653.0658466542555
 30
0.0
 39
0.35
1001
AUSTER_FOLIE
1002
{
1000
VERTEILEREINBAU_2030_M_KNEBEL
1002
}
1001
AUSTER_ANSICHT
1002
{
1000
SL
1002
}
  0
POINT
  5
CE02
330
20
100
AcDbEntity
  8
11000_Left
  6
CENTER
 62
     7
 48
0.5
370
     9
100
AcDbPoint
 10
92.7053385278133
 20
652.0658466542555
 30
0.0
 39
0.35
1001
AUSTER_FOLIE
1002
{
1000
VERTEILEREINBAU_2030_M_KNEBEL
1002
}
1001
AUSTER_ANSICHT
1002
{
1000
SL
1002
}
  0
POINT
  5
CE03
330
20
100
AcDbEntity
  8
11000_Left
  6
CENTER
 62
     7
 48
0.5
370
     9
100
AcDbPoint
 10
97.20533852781329
 20
675.0658466542555
 30
0.0
 39
0.35
1001
AUSTER_FOLIE
1002
{
1000
VERTEILEREINBAU_2030_M_KNEBEL
1002
}
1001
AUSTER_ANSICHT
1002
{
1000
SL
1002
}
  0
POINT
  5
CE04
330
20
100
AcDbEntity
  8
11000_Left
  6
CENTER
 62
     7
 48
0.5
370
     9
100
AcDbPoint
 10
97.20534292781326
 20
654.0658449542555
 30
0.0
 39
0.35
1001
AUSTER_FOLIE
1002
{
1000
VERTEILEREINBAU_2030_M_KNEBEL
1002
}
1001
AUSTER_ANSICHT
1002
{
1000
SL
1002
}
  0
POINT
  5
CE05
330
20
100
AcDbEntity
  8
11000_Left
  6
CENTER
 48
0.5
100
AcDbPoint
 10
99.20534292781326
 20
652.0658449542556
 30
0.0
 39
0.35
1001
AUSTER_FOLIE
1002
{
1000
VERTEILEREINBAU_2030_M_KNEBEL
1002
}
1001
AUSTER_ANSICHT
1002
{
1000
SL
1002
}
  0
POINT
  5
CE06
330
20
100
AcDbEntity
  8
11000_Left
  6
CENTER
 62
     7
 48
0.5
370
     9
100
AcDbPoint
 10
97.7053385278133
 20
649.9158466542556
 30
0.0
 39
0.35
1001
AUSTER_FOLIE
1002
{
1000
VERTEILEREINBAU_2030_M_KNEBEL
1002
}
1001
AUSTER_ANSICHT
1002
{
1000
SL
1002
}
  0
POINT
  5
CE07
330
20
100
AcDbEntity
  8
11000_Left
  6
CENTER
 62
     7
 48
0.5
370
     9
100
AcDbPoint
 10
97.20533852781329
 20
649.9158466542556
 30
0.0
 39
0.35
1001
AUSTER_FOLIE
1002
{
1000
VERTEILEREINBAU_2030_M_KNEBEL
1002
}
1001
AUSTER_ANSICHT
1002
{
1000
SL
1002
}
  0
POINT
  5
CE08
330
20
100
AcDbEntity
  8
11000_Left
  6
CENTER
 62
     7
 48
0.5
370
     9
100
AcDbPoint
 10
97.7053385278133
 20
679.2158466542555
 30
0.0
 39
0.35
1001
AUSTER_FOLIE
1002
{
1000
VERTEILEREINBAU_2030_M_KNEBEL
1002
}
1001
AUSTER_ANSICHT
1002
{
1000
SL
1002
}
  0
POINT
  5
CE09
330
20
100
AcDbEntity
  8
11000_Left
  6
CENTER
 62
     7
 48
0.5
370
     9
100
AcDbPoint
 10
97.20533852781329
 20
679.2158466542555
 30
0.0
 39
0.35
1001
AUSTER_FOLIE
1002
{
1000
VERTEILEREINBAU_2030_M_KNEBEL
1002
}
1001
AUSTER_ANSICHT
1002
{
1000
SL
1002
}
  0
POINT
  5
CE0B
330
20
100
AcDbEntity
  8
11000_Left
  6
CENTER
 48
0.5
100
AcDbPoint
 10
96.97865913981331
 20
651.0658466542555
 30
0.0
 39
0.35
1001
AUSTER_FOLIE
1002
{
1000
VERTEILEREINBAU_2030_M_KNEBEL
1002
}
1001
AUSTER_ANSICHT
1002
{
1000
SL
1002
}
  0
POINT
  5
CE0C
330
20
100
AcDbEntity
  8
11000_Left
  6
CENTER
 62
     7
 48
0.5
370
     9
100
AcDbPoint
 10
98.05889191841336
 20
649.7694000448555
 30
0.0
 39
0.35
1001
AUSTER_FOLIE
1002
{
1000
VERTEILEREINBAU_2030_M_KNEBEL
1002
}
1001
AUSTER_ANSICHT
1002
{
1000
SL
1002
}
  0
POINT
  5
CE0D
330
20
100
AcDbEntity
  8
11000_Left
  6
CENTER
 62
     7
 48
0.5
370
     9
100
AcDbPoint
 10
97.20533852781329
 20
650.1658466542555
 30
0.0
 39
0.35
1001
AUSTER_FOLIE
1002
{
1000
VERTEILEREINBAU_2030_M_KNEBEL
1002
}
1001
AUSTER_ANSICHT
1002
{
1000
SL
1002
}
  0
POINT
  5
CE0E
330
20
100
AcDbEntity
  8
11000_Left
  6
CENTER
 48
0.5
100
AcDbPoint
 10
96.64884141211324
 20
651.5093495382556
 30
0.0
 39
0.35
1001
AUSTER_FOLIE
1002
{
1000
VERTEILEREINBAU_2030_M_KNEBEL
1002
}
1001
AUSTER_ANSICHT
1002
{
1000
SL
1002
}
  0
POINT
  5
CE0F
330
20
100
AcDbEntity
  8
11000_Left
  6
CENTER
 62
     7
 48
0.5
370
     9
100
AcDbPoint
 10
98.05889191841336
 20
679.3622932636556
 30
0.0
 39
0.35
1001
AUSTER_FOLIE
1002
{
1000
VERTEILEREINBAU_2030_M_KNEBEL
1002
}
1001
AUSTER_ANSICHT
1002
{
1000
SL
1002
}
  0
POINT
  5
CE10
330
20
100
AcDbEntity
  8
11000_Left
  6
CENTER
 62
     7
 48
0.5
370
     9
100
AcDbPoint
 10
98.20533852781332
 20
679.7158466542555
 30
0.0
 39
0.35
1001
AUSTER_FOLIE
1002
{
1000
VERTEILEREINBAU_2030_M_KNEBEL
1002
}
1001
AUSTER_ANSICHT
1002
{
1000
SL
1002
}
  0
POINT
  5
CE11
330
20
100
AcDbEntity
  8
11000_Left
  6
CENTER
 62
     7
 48
0.5
370
     9
100
AcDbPoint
 10
96.64884141181335
 20
677.6223437699556
 30
0.0
 39
0.35
1001
AUSTER_FOLIE
1002
{
1000
VERTEILEREINBAU_2030_M_KNEBEL
1002
}
1001
AUSTER_ANSICHT
1002
{
1000
SL
1002
}
  0
POINT
  5
CE12
330
20
100
AcDbEntity
  8
11000_Left
  6
CENTER
 62
     7
 48
0.5
370
     9
100
AcDbPoint
 10
97.20533852781329
 20
678.9658466542555
 30
0.0
 39
0.35
1001
AUSTER_FOLIE
1002
{
1000
VERTEILEREINBAU_2030_M_KNEBEL
1002
}
1001
AUSTER_ANSICHT
1002
{
1000
SL
1002
}
  0
POINT
  5
CE13
330
20
100
AcDbEntity
  8
11000_Left
  6
CENTER
 62
     7
 48
0.5
370
     9
100
AcDbPoint
 10
94.2053385278133
 20
655.0658466542556
 30
0.0
 39
0.35
1001
AUSTER_FOLIE
1002
{
1000
VERTEILEREINBAU_2030_M_KNEBEL
1002
}
1001
AUSTER_ANSICHT
1002
{
1000
SL
1002
}
  0
POINT
  5
CE14
330
20
100
AcDbEntity
  8
11000_Left
  6
CENTER
 62
     7
 48
0.5
370
     9
100
AcDbPoint
 10
94.49823174661331
 20
654.3587398730552
 30
0.0
 39
0.35
1001
AUSTER_FOLIE
1002
{
1000
VERTEILEREINBAU_2030_M_KNEBEL
1002
}
1001
AUSTER_ANSICHT
1002
{
1000
SL
1002
}
  0
POINT
  5
CE15
330
20
100
AcDbEntity
  8
11000_Left
  6
CENTER
 62
     7
 48
0.5
370
     9
100
AcDbPoint
 10
95.2053385278133
 20
654.0658466542555
 30
0.0
 39
0.35
1001
AUSTER_FOLIE
1002
{
1000
VERTEILEREINBAU_2030_M_KNEBEL
1002
}
1001
AUSTER_ANSICHT
1002
{
1000
SL
1002
}
  0
POINT
  5
CE16
330
20
100
AcDbEntity
  8
11000_Left
  6
CENTER
 62
     7
 48
0.5
370
     9
100
AcDbPoint
 10
95.2053385278133
 20
675.0658466542555
 30
0.0
 39
0.35
1001
AUSTER_FOLIE
1002
{
1000
VERTEILEREINBAU_2030_M_KNEBEL
1002
}
1001
AUSTER_ANSICHT
1002
{
1000
SL
1002
}
  0
POINT
  5
CE17
330
20
100
AcDbEntity
  8
11000_Left
  6
CENTER
 62
     7
 48
0.5
370
     9
100
AcDbPoint
 10
94.49823174661331
 20
674.7729534354554
 30
0.0
 39
0.35
1001
AUSTER_FOLIE
1002
{
1000
VERTEILEREINBAU_2030_M_KNEBEL
1002
}
1001
AUSTER_ANSICHT
1002
{
1000
SL
1002
}
  0
POINT
  5
CE18
330
20
100
AcDbEntity
  8
11000_Left
  6
CENTER
 62
     7
 48
0.5
370
     9
100
AcDbPoint
 10
94.2053385278133
 20
674.0658466542555
 30
0.0
 39
0.35
1001
AUSTER_FOLIE
1002
{
1000
VERTEILEREINBAU_2030_M_KNEBEL
1002
}
1001
AUSTER_ANSICHT
1002
{
1000
SL
1002
}
  0
POINT
  5
CE19
330
20
100
AcDbEntity
  8
11000_Left
  6
CENTER
 62
     7
 48
0.5
370
     9
100
AcDbPoint
 10
99.20514400871333
 20
646.9160767697656
 30
0.0
 39
0.35
1001
AUSTER_FOLIE
1002
{
1000
VERTEILEREINBAU_2030_M_KNEBEL
1002
}
1001
AUSTER_ANSICHT
1002
{
1000
SL
1002
}
  0
ARC
  5
CE1A
330
20
100
AcDbEntity
  8
11000_Left
  6
CENTER
 62
     7
 48
0.5
370
     9
100
AcDbCircle
 39
0.35
 10
97.70533852783628
 20
649.4158466542785
 30
0.0
 40
0.4999999999770214
100
AcDbArc
 50
359.9999999973684
 51
90.00000000263483
1001
AUSTER_FOLIE
1002
{
1000
VERTEILEREINBAU_2030_M_KNEBEL
1002
}
1001
AUSTER_ANSICHT
1002
{
1000
SL
1002
}
  0
DIMENSION
  5
CE1B
330
20
100
AcDbEntity
  8
11100_LEFT_DIM
  6
Continuous
 62
     7
370
    13
100
AcDbDimension
  2
*D2
 10
183.2053385278133
 20
723.969860076794
 30
0.0
 11
163.2053385278133
 21
723.969860076794
 31
0.0
 70
    32
 71
     5
 42
40.0
  3
H035
100
AcDbAlignedDimension
 13
143.2053385278133
 23
690.0158466542555
 33
0.0
 14
183.2053385278133
 24
669.2463027375192
 34
0.0
100
AcDbRotatedDimension
1001
AUSTER_FOLIE
1002
{
1000
VERTEILEREINBAU_2030_M_KNEBEL
1002
}
1001
AUSTER_ANSICHT
1002
{
1000
SL
1002
}
1001
ACAD
1000
DSTYLE
1002
{
1070
    40
1040
1.0
1070
    77
1070
     0
1070
   147
1040
1.5
1070
   272
1070
     0
1070
   279
1070
     1
1070
   288
1070
     1
1002
}
  0
DIMENSION
  5
CE1C
330
20
100
AcDbEntity
  8
11100_LEFT_DIM
  6
Continuous
 62
     7
370
    13
100
AcDbDimension
  2
*D3
 10
183.2053385278133
 20
711.1438552754373
 30
0.0
 11
170.2053385278133
 21
711.1438552754373
 31
0.0
 70
    32
 71
     5
 42
26.0
  3
H035
100
AcDbAlignedDimension
 13
157.2053385278133
 23
687.0158466542553
 33
0.0
 14
183.2053385278133
 24
669.5439026012909
 34
0.0
100
AcDbRotatedDimension
1001
AUSTER_FOLIE
1002
{
1000
VERTEILEREINBAU_2030_M_KNEBEL
1002
}
1001
AUSTER_ANSICHT
1002
{
1000
SL
1002
}
1001
ACAD
1000
DSTYLE
1002
{
1070
    40
1040
1.0
1070
    77
1070
     0
1070
   147
1040
1.5
1070
   272
1070
     0
1070
   279
1070
     1
1070
   288
1070
     1
1002
}
  0
LINE
  5
CE1D
330
20
100
AcDbEntity
  8
11000_Left
  6
CENTER
 62
     7
370
     9
100
AcDbLine
 39
0.8
 10
192.2564085278132
 20
664.7158466542555
 30
0.0
 11
89.9277785278133
 21
664.7158466542555
 31
0.0
1001
AUSTER_FOLIE
1002
{
1000
VERTEILEREINBAU_2030_M_KNEBEL
1002
}
1001
AUSTER_ANSICHT
1002
{
1000
SL
1002
}
  0
DIMENSION
  5
CE1E
330
20
100
AcDbEntity
  8
11100_LEFT_DIM
  6
Continuous
 62
     7
370
    13
100
AcDbDimension
  2
*D4
 10
143.2053385278133
 20
723.969860076794
 30
0.0
 11
121.2053385278133
 21
723.969860076794
 31
0.0
 70
    32
 71
     5
 42
44.0
  3
H035
100
AcDbAlignedDimension
 13
99.2053385278133
 23
682.2158466542555
 33
0.0
 14
143.2053385278133
 24
689.0158466542555
 34
0.0
100
AcDbRotatedDimension
1001
AUSTER_FOLIE
1002
{
1000
VERTEILEREINBAU_2030_M_KNEBEL
1002
}
1001
AUSTER_ANSICHT
1002
{
1000
SL
1002
}
1001
ACAD
1000
DSTYLE
1002
{
1070
    40
1040
1.0
1070
    77
1070
     0
1070
   147
1040
1.5
1070
   272
1070
     0
1070
   279
1070
     1
1070
   288
1070
     1
1002
}
  0
DIMENSION
  5
CE1F
330
20
100
AcDbEntity
  8
11100_LEFT_DIM
  6
Continuous
 62
     7
370
    13
100
AcDbDimension
  2
*D5
 10
136.2053385278133
 20
711.1438552754373
 30
0.0
 11
117.7053385278133
 21
711.1438552754373
 31
0.0
 70
    32
 71
     5
 42
37.0
  3
H035
100
AcDbAlignedDimension
 13
99.2053385278133
 23
682.2158466542555
 33
0.0
 14
136.2053385278133
 24
688.7158466542555
 34
0.0
100
AcDbRotatedDimension
1001
AUSTER_FOLIE
1002
{
1000
VERTEILEREINBAU_2030_M_KNEBEL
1002
}
1001
AUSTER_ANSICHT
1002
{
1000
SL
1002
}
1001
ACAD
1000
DSTYLE
1002
{
1070
    40
1040
1.0
1070
    77
1070
     0
1070
   147
1040
1.5
1070
   272
1070
     0
1070
   279
1070
     1
1070
   288
1070
     1
1002
}
  0
DIMENSION
  5
CE20
330
20
100
AcDbEntity
  8
11100_LEFT_DIM
  6
Continuous
 62
     7
370
    13
100
AcDbDimension
  2
*D6
 10
99.2053385278133
 20
711.1438552754373
 30
0.0
 11
85.37200519447996
 21
711.1438552754373
 31
0.0
 70
   160
 71
     5
 42
5.0
  3
H035
100
AcDbAlignedDimension
 13
94.2053385278133
 23
698.7158466542555
 33
0.0
 14
99.2053385278133
 24
682.2158466542555
 34
0.0
100
AcDbRotatedDimension
1001
AUSTER_FOLIE
1002
{
1000
VERTEILEREINBAU_2030_M_KNEBEL
1002
}
1001
AUSTER_ANSICHT
1002
{
1000
SL
1002
}
1001
ACAD
1000
DSTYLE
1002
{
1070
    40
1040
1.0
1070
    77
1070
     0
1070
   147
1040
1.5
1070
   272
1070
     0
1070
   279
1070
     1
1070
   288
1070
     1
1002
}
  0
LINE
  5
CE21
330
20
100
AcDbEntity
  8
11000_Left
  6
CENTER
 62
     7
 48
0.5
370
     9
100
AcDbLine
 39
0.35
 10
95.30533852781331
 20
677.0658466542555
 30
0.0
 11
92.7053385278133
 21
677.0658466542555
 31
0.0
1001
AUSTER_FOLIE
1002
{
1000
VERTEILEREINBAU_2030_M_KNEBEL
1002
}
1001
AUSTER_ANSICHT
1002
{
1000
SL
1002
}
  0
LINE
  5
CE22
330
20
100
AcDbEntity
  8
11000_Left
  6
CENTER
 62
     7
 48
0.5
370
     9
100
AcDbLine
 39
0.35
 10
95.2053385278133
 20
675.0658466542555
 30
0.0
 11
97.20533852781329
 21
675.0658466542555
 31
0.0
1001
AUSTER_FOLIE
1002
{
1000
VERTEILEREINBAU_2030_M_KNEBEL
1002
}
1001
AUSTER_ANSICHT
1002
{
1000
SL
1002
}
  0
LINE
  5
CE23
330
20
100
AcDbEntity
  8
11000_Left
  6
CENTER
 62
     7
 48
0.5
370
     9
100
AcDbLine
 39
0.35
 10
99.2053385278133
 20
677.0658466542555
 30
0.0
 11
97.20533852781329
 21
675.0658466542555
 31
0.0
1001
AUSTER_FOLIE
1002
{
1000
VERTEILEREINBAU_2030_M_KNEBEL
1002
}
1001
AUSTER_ANSICHT
1002
{
1000
SL
1002
}
  0
LINE
  5
CE24
330
20
100
AcDbEntity
  8
11000_Left
  6
CENTER
 62
     7
 48
0.5
370
     9
100
AcDbLine
 39
0.35
 10
97.7053385278133
 20
679.2158466542555
 30
0.0
 11
97.20533852781329
 21
679.2158466542555
 31
0.0
1001
AUSTER_FOLIE
1002
{
1000
VERTEILEREINBAU_2030_M_KNEBEL
1002
}
1001
AUSTER_ANSICHT
1002
{
1000
SL
1002
}
  0
LINE
  5
CE25
330
20
100
AcDbEntity
  8
11000_Left
  6
CENTER
 62
     7
 48
0.5
370
     9
100
AcDbLine
 39
0.35
 10
97.20533852781329
 20
678.9658466542555
 30
0.0
 11
97.20533852781329
 21
679.2158466542555
 31
0.0
1001
AUSTER_FOLIE
1002
{
1000
VERTEILEREINBAU_2030_M_KNEBEL
1002
}
1001
AUSTER_ANSICHT
1002
{
1000
SL
1002
}
  0
LINE
  5
CE26
330
20
100
AcDbEntity
  8
11000_Left
  6
CENTER
 62
     7
 48
0.5
370
     9
100
AcDbLine
 39
0.35
 10
98.20533852781332
 20
679.7158466542555
 30
0.0
 11
98.20533852781332
 21
682.2158466542555
 31
0.0
1001
AUSTER_FOLIE
1002
{
1000
VERTEILEREINBAU_2030_M_KNEBEL
1002
}
1001
AUSTER_ANSICHT
1002
{
1000
SL
1002
}
  0
LINE
  5
CE27
330
20
100
AcDbEntity
  8
11000_Left
  6
CENTER
 62
     7
 48
0.5
370
     9
100
AcDbLine
 39
0.35
 10
98.20533852781332
 20
682.2158466542555
 30
0.0
 11
99.2053385278133
 21
682.2158466542555
 31
0.0
1001
AUSTER_FOLIE
1002
{
1000
VERTEILEREINBAU_2030_M_KNEBEL
1002
}
1001
AUSTER_ANSICHT
1002
{
1000
SL
1002
}
  0
LINE
  5
CE28
330
20
100
AcDbEntity
  8
11000_Left
  6
CENTER
 62
     7
 48
0.5
370
     9
100
AcDbLine
 39
0.35
 10
99.2053385278133
 20
682.2158466542555
 30
0.0
 11
99.2053385278133
 21
677.0658466542555
 31
0.0
1001
AUSTER_FOLIE
1002
{
1000
VERTEILEREINBAU_2030_M_KNEBEL
1002
}
1001
AUSTER_ANSICHT
1002
{
1000
SL
1002
}
  0
LINE
  5
CE29
330
20
100
AcDbEntity
  8
11000_Left
  6
CENTER
 62
     7
 48
0.5
370
     9
100
AcDbLine
 39
0.35
 10
95.30533852781331
 20
652.0658466542555
 30
0.0
 11
92.7053385278133
 21
652.0658466542555
 31
0.0
1001
AUSTER_FOLIE
1002
{
1000
VERTEILEREINBAU_2030_M_KNEBEL
1002
}
1001
AUSTER_ANSICHT
1002
{
1000
SL
1002
}
  0
LINE
  5
CE2A
330
20
100
AcDbEntity
  8
11000_Left
  6
CENTER
 62
     7
 48
0.5
370
     9
100
AcDbLine
 39
0.35
 10
95.2053385278133
 20
654.0658466542555
 30
0.0
 11
97.20534292781326
 21
654.0658449542555
 31
0.0
1001
AUSTER_FOLIE
1002
{
1000
VERTEILEREINBAU_2030_M_KNEBEL
1002
}
1001
AUSTER_ANSICHT
1002
{
1000
SL
1002
}
  0
LINE
  5
CE2B
330
20
100
AcDbEntity
  8
11000_Left
  6
CENTER
 62
     7
 48
0.5
370
     9
100
AcDbLine
 39
0.35
 10
99.20534292781326
 20
652.0658449542556
 30
0.0
 11
97.20534292781326
 21
654.0658449542555
 31
0.0
1001
AUSTER_FOLIE
1002
{
1000
VERTEILEREINBAU_2030_M_KNEBEL
1002
}
1001
AUSTER_ANSICHT
1002
{
1000
SL
1002
}
  0
LINE
  5
CE2C
330
20
100
AcDbEntity
  8
11000_Left
  6
CENTER
 62
     7
 48
0.5
370
     9
100
AcDbLine
 39
0.35
 10
94.2053385278133
 20
655.0658466542556
 30
0.0
 11
94.2053385278133
 21
664.5658466542555
 31
0.0
1001
AUSTER_FOLIE
1002
{
1000
VERTEILEREINBAU_2030_M_KNEBEL
1002
}
1001
AUSTER_ANSICHT
1002
{
1000
SL
1002
}
  0
LINE
  5
CE2D
330
20
100
AcDbEntity
  8
11000_Left
  6
CENTER
 62
     7
 48
0.5
370
     9
100
AcDbLine
 39
0.35
 10
91.7053385278133
 20
676.0658466542555
 30
0.0
 11
91.7053385278133
 21
653.0658466542555
 31
0.0
1001
AUSTER_FOLIE
1002
{
1000
VERTEILEREINBAU_2030_M_KNEBEL
1002
}
1001
AUSTER_ANSICHT
1002
{
1000
SL
1002
}
  0
LINE
  5
CE2E
330
20
100
AcDbEntity
  8
11000_Left
  6
CENTER
 62
     7
 48
0.5
370
     9
100
AcDbLine
 39
0.35
 10
94.2053385278133
 20
674.0658466542555
 30
0.0
 11
94.2053385278133
 21
664.5658466542555
 31
0.0
1001
AUSTER_FOLIE
1002
{
1000
VERTEILEREINBAU_2030_M_KNEBEL
1002
}
1001
AUSTER_ANSICHT
1002
{
1000
SL
1002
}
  0
LINE
  5
CE2F
330
20
100
AcDbEntity
  8
11000_Left
  6
CENTER
 62
     7
 48
0.5
370
     9
100
AcDbLine
 39
0.35
 10
97.7053385278133
 20
649.9158466542556
 30
0.0
 11
97.20533852781329
 21
649.9158466542556
 31
0.0
1001
AUSTER_FOLIE
1002
{
1000
VERTEILEREINBAU_2030_M_KNEBEL
1002
}
1001
AUSTER_ANSICHT
1002
{
1000
SL
1002
}
  0
LINE
  5
CE30
330
20
100
AcDbEntity
  8
11000_Left
  6
CENTER
 62
     7
 48
0.5
370
     9
100
AcDbLine
 39
0.35
 10
97.20533852781329
 20
650.1658466542555
 30
0.0
 11
97.20533852781329
 21
649.9158466542556
 31
0.0
1001
AUSTER_FOLIE
1002
{
1000
VERTEILEREINBAU_2030_M_KNEBEL
1002
}
1001
AUSTER_ANSICHT
1002
{
1000
SL
1002
}
  0
LINE
  5
CE31
330
20
100
AcDbEntity
  8
11000_Left
  6
CENTER
 62
     7
 48
0.5
370
     9
100
AcDbLine
 39
0.35
 10
98.20533852781332
 20
649.4158466542556
 30
0.0
 11
98.20533852781332
 21
646.9158449542556
 31
0.0
1001
AUSTER_FOLIE
1002
{
1000
VERTEILEREINBAU_2030_M_KNEBEL
1002
}
1001
AUSTER_ANSICHT
1002
{
1000
SL
1002
}
  0
LINE
  5
CE32
330
20
100
AcDbEntity
  8
11000_Left
  6
CENTER
 62
     7
 48
0.5
370
     9
100
AcDbLine
 39
0.35
 10
98.20533852781332
 20
646.9158449542556
 30
0.0
 11
99.20534292781338
 21
646.9158449542556
 31
0.0
1001
AUSTER_FOLIE
1002
{
1000
VERTEILEREINBAU_2030_M_KNEBEL
1002
}
1001
AUSTER_ANSICHT
1002
{
1000
SL
1002
}
  0
LINE
  5
CE33
330
20
100
AcDbEntity
  8
11000_Left
  6
CENTER
 62
     7
 48
0.5
370
     9
100
AcDbLine
 39
0.35
 10
99.20534292781326
 20
652.0658449542556
 30
0.0
 11
99.20534292781338
 21
646.9160767697656
 31
0.0
1001
AUSTER_FOLIE
1002
{
1000
VERTEILEREINBAU_2030_M_KNEBEL
1002
}
1001
AUSTER_ANSICHT
1002
{
1000
SL
1002
}
  0
LINE
  5
CE35
330
20
100
AcDbEntity
  8
14000_Bottom
  6
CENTER
 62
     7
370
     9
100
AcDbLine
 39
0.8
 10
207.5173851871698
 20
665.0564766542555
 30
0.0
 11
275.2894091871699
 21
665.0564766542555
 31
0.0
1001
AUSTER_FOLIE
1002
{
1000
VERTEILEREINBAU_2030_M_KNEBEL
1002
}
1001
AUSTER_ANSICHT
1002
{
1000
R
1002
}
  0
LINE
  5
CEF6
330
20
100
AcDbEntity
  8
10000_FRONT
  6
Continuous
 62
     7
370
    50
100
AcDbLine
 39
0.7
 10
29.4627780282147
 20
687.0175854189453
 30
0.0
 11
29.4627780282147
 21
667.3502132652587
 31
0.0
1001
AUSTER_FOLIE
1002
{
1000
VERTEILEREINBAU_2030_M_KNEBEL
1002
}
1001
AUSTER_ANSICHT
1002
{
1000
V
1002
}
  0
LINE
  5
CEF7
330
20
100
AcDbEntity
  8
10000_FRONT
  6
Continuous
 62
     7
370
    50
100
AcDbLine
 39
0.7
 10
-17.73722197178529
 20
687.0159473013306
 30
0.0
 11
-17.73722197178529
 21
642.0185066542556
 31
0.0
1001
AUSTER_FOLIE
1002
{
1000
VERTEILEREINBAU_2030_M_KNEBEL
1002
}
1001
AUSTER_ANSICHT
1002
{
1000
V
1002
}
  0
LINE
  5
CEF8
330
20
100
AcDbEntity
  8
10000_FRONT
  6
Continuous
 62
     7
370
    20
100
AcDbLine
 39
0.7
 10
-17.73722197178529
 20
642.0185066542556
 30
0.0
 11
-17.73722197178529
 21
640.0158466542555
 31
0.0
1001
AUSTER_FOLIE
1002
{
1000
VERTEILEREINBAU_2030_M_KNEBEL
1002
}
1001
AUSTER_ANSICHT
1002
{
1000
V
1002
}
  0
LINE
  5
CEF9
330
20
100
AcDbEntity
  8
10000_FRONT
  6
Continuous
 62
     7
370
    20
100
AcDbLine
 39
0.7
 10
29.4627780282147
 20
642.0158466542556
 30
0.0
 11
29.4627780282147
 21
640.0158466542555
 31
0.0
1001
AUSTER_FOLIE
1002
{
1000
VERTEILEREINBAU_2030_M_KNEBEL
1002
}
1001
AUSTER_ANSICHT
1002
{
1000
V
1002
}
  0
LINE
  5
CF04
330
20
100
AcDbEntity
  8
10000_FRONT
  6
Continuous
 62
     7
370
    50
100
AcDbLine
 39
0.7
 10
29.4627780282147
 20
662.8502132652587
 30
0.0
 11
29.4627780282147
 21
642.0158466542556
 31
0.0
1001
AUSTER_FOLIE
1002
{
1000
VERTEILEREINBAU_2030_M_KNEBEL
1002
}
1001
AUSTER_ANSICHT
1002
{
1000
V
1002
}
  0
LINE
  5
CF48
330
20
100
AcDbEntity
  8
14000_Bottom
  6
Continuous
 62
     7
 48
0.5
370
    50
100
AcDbLine
 39
0.7
 10
240.8613210907081
 20
689.8150550425278
 30
0.0
 11
240.0013941871699
 21
696.1211866542555
 31
0.0
1001
AUSTER_FOLIE
1002
{
1000
VERTEILEREINBAU_2030_M_KNEBEL
1002
}
1001
AUSTER_ANSICHT
1002
{
1000
R
1002
}
  0
LINE
  5
CF49
330
20
100
AcDbEntity
  8
14000_Bottom
  6
Continuous
 62
     7
 48
0.5
370
    20
100
AcDbLine
 39
0.7
 10
230.4213740820493
 20
689.8158466542552
 30
0.0
 11
230.3106888400011
 21
689.0158466542555
 31
0.0
1001
AUSTER_FOLIE
1002
{
1000
VERTEILEREINBAU_2030_M_KNEBEL
1002
}
1001
AUSTER_ANSICHT
1002
{
1000
R
1002
}
  0
LINE
  5
CF4A
330
20
100
AcDbEntity
  8
14000_Bottom
  6
Continuous
 62
     7
 48
0.5
370
    20
100
AcDbLine
 39
0.7
 10
262.806667136502
 20
639.2158466542555
 30
0.0
 11
262.9157579525203
 21
640.0158466542554
 31
0.0
1001
AUSTER_FOLIE
1002
{
1000
VERTEILEREINBAU_2030_M_KNEBEL
1002
}
1001
AUSTER_ANSICHT
1002
{
1000
R
1002
}
  0
LINE
  5
CF4B
330
20
100
AcDbEntity
  8
14000_Bottom
  6
Continuous
 62
     7
 48
0.5
370
    50
100
AcDbLine
 39
0.7
 10
252.4884852761025
 20
639.2158466542552
 30
0.0
 11
253.2937591871699
 21
633.3105066542555
 31
0.0
1001
AUSTER_FOLIE
1002
{
1000
VERTEILEREINBAU_2030_M_KNEBEL
1002
}
1001
AUSTER_ANSICHT
1002
{
1000
R
1002
}
  0
DIMENSION
  5
CF4C
330
20
100
AcDbEntity
  8
10100_FRONT_DIM
  6
Continuous
 62
     7
370
    13
100
AcDbDimension
  2
*D7
 10
58.67872980533457
 20
639.2158466542556
 30
0.0
 11
58.67872980533447
 21
664.5158466542555
 31
0.0
 70
    32
 71
     5
 42
50.5999999999998
  3
H035
100
AcDbAlignedDimension
 13
28.3627784987045
 23
689.8158466542552
 33
0.0
 14
28.36277849870382
 24
639.2158466542556
 34
0.0
 50
90.0
100
AcDbRotatedDimension
1001
ACAD
1000
DSTYLE
1002
{
1070
    40
1040
1.0
1070
    77
1070
     0
1070
   147
1040
1.5
1070
   272
1070
     0
1070
   279
1070
     1
1070
   288
1070
     1
1002
}
  0
DIMENSION
  5
CF59
330
20
100
AcDbEntity
  8
10100_FRONT_DIM
  6
Continuous
 62
     7
370
    13
100
AcDbDimension
  2
*D8
 10
64.90991664756575
 20
630.7158466542555
 30
0.0
 11
64.90991664756565
 21
664.7158466542555
 31
0.0
 70
    32
 71
     5
 42
68.0
  3
H035
100
AcDbAlignedDimension
 13
18.24410349870454
 23
698.7158466542555
 33
0.0
 14
-3.755896501295495
 24
630.7158466542555
 34
0.0
 50
90.0
100
AcDbRotatedDimension
1001
ACAD
1000
DSTYLE
1002
{
1070
    40
1040
1.0
1070
    77
1070
     0
1070
   147
1040
1.5
1070
   272
1070
     0
1070
   279
1070
     1
1070
   288
1070
     1
1002
}
  0
DIMENSION
  5
CF66
330
20
100
AcDbEntity
  8
14100_Bottom_Dim
  6
Continuous
 62
     7
370
    13
100
AcDbDimension
  2
*D9
 10
285.4480894585508
 20
634.7158466542555
 30
0.0
 11
285.4480894585508
 21
664.7158466542555
 31
0.0
 70
    32
 71
     5
 42
59.99999999999989
  3
H035
100
AcDbAlignedDimension
 13
237.8975761871698
 23
694.7158466542555
 33
0.0
 14
259.8975761871698
 24
634.7158466542555
 34
0.0
 50
90.0
100
AcDbRotatedDimension
1001
ACAD
1000
DSTYLE
1002
{
1070
    40
1040
1.0
1070
    77
1070
     0
1070
   147
1040
1.5
1070
   272
1070
     0
1070
   279
1070
     1
1070
   288
1070
     1
1002
}
  0
DIMENSION
  5
CF73
330
20
100
AcDbEntity
  8
14100_Bottom_Dim
  6
Continuous
 62
     7
370
    13
100
AcDbDimension
  2
*D10
 10
257.6475761871698
 20
623.9279826408352
 30
0.0
 11
246.6475761871698
 21
623.9279826408352
 31
0.0
 70
    32
 71
     5
 42
22.0
  3
H035
100
AcDbAlignedDimension
 13
235.6475761871698
 23
692.4658466542555
 33
0.0
 14
257.6475761871698
 24
632.4658466542555
 34
0.0
100
AcDbRotatedDimension
1001
ACAD
1000
DSTYLE
1002
{
1070
    40
1040
1.0
1070
    77
1070
     0
1070
   147
1040
1.5
1070
   272
1070
     0
1070
   279
1070
     1
1070
   288
1070
     1
1002
}
  0
DIMENSION
  5
CF93
330
20
100
AcDbEntity
  8
10100_FRONT_DIM
  6
Continuous
 62
     7
370
    13
100
AcDbDimension
  2
*D11
 10
52.17662153058291
 20
642.0158466542556
 30
0.0
 11
52.17662153058281
 21
664.5167160366006
 31
0.0
 70
    32
 71
     5
 42
45.00173876468998
  3
H035
100
AcDbAlignedDimension
 13
29.4627780282147
 23
687.0175854189453
 33
0.0
 14
29.4627780282147
 24
642.0158466542556
 34
0.0
 50
90.0
100
AcDbRotatedDimension
1001
ACAD
1000
DSTYLE
1002
{
1070
    40
1040
1.0
1070
    77
1070
     0
1070
   147
1040
1.5
1070
   272
1070
     0
1070
   279
1070
     1
1070
   288
1070
     1
1002
}
  0
LINE
  5
D0B9
330
20
100
AcDbEntity
  8
14000_Bottom
  6
Continuous
 62
     7
 48
0.5
370
    50
100
AcDbLine
 39
0.45
 10
261.6475751871698
 20
689.0158466542557
 30
0.0
 11
257.6475751871698
 21
689.0158466542557
 31
0.0
1001
AUSTER_FOLIE
1002
{
1000
VERTEILEREINBAU_2030_M_KNEBEL
1002
}
1001
AUSTER_ANSICHT
1002
{
1000
R
1002
}
  0
LINE
  5
D0BA
330
20
100
AcDbEntity
  8
14000_Bottom
  6
Continuous
 62
     7
 48
0.5
370
    20
100
AcDbLine
 39
0.45
 10
257.6475751871698
 20
689.0158466542557
 30
0.0
 11
249.1475751871698
 21
689.0158466542557
 31
0.0
1001
AUSTER_FOLIE
1002
{
1000
VERTEILEREINBAU_2030_M_KNEBEL
1002
}
1001
AUSTER_ANSICHT
1002
{
1000
R
1002
}
  0
LINE
  5
D0BB
330
20
100
AcDbEntity
  8
14000_Bottom
  6
Continuous
 62
     7
 48
0.5
370
    50
100
AcDbLine
 39
0.45
 10
249.1475751871698
 20
689.0158466542557
 30
0.0
 11
245.1475751871698
 21
689.0158466542557
 31
0.0
1001
AUSTER_FOLIE
1002
{
1000
VERTEILEREINBAU_2030_M_KNEBEL
1002
}
1001
AUSTER_ANSICHT
1002
{
1000
R
1002
}
  0
LINE
  5
D0BC
330
20
100
AcDbEntity
  8
14000_Bottom
  6
Continuous
 62
     7
 48
0.5
370
    20
100
AcDbLine
 39
0.45
 10
245.1475751871698
 20
689.0158466542557
 30
0.0
 11
224.1475751871698
 21
689.0158466542555
 31
0.0
1001
AUSTER_FOLIE
1002
{
1000
VERTEILEREINBAU_2030_M_KNEBEL
1002
}
1001
AUSTER_ANSICHT
1002
{
1000
R
1002
}
  0
LINE
  5
D0BD
330
20
100
AcDbEntity
  8
14000_Bottom
  6
Continuous
 62
     7
 48
0.5
370
    20
100
AcDbLine
 39
0.45
 10
249.1475751871699
 20
640.0158466542555
 30
0.0
 11
269.1475761871698
 21
640.0158466542555
 31
0.0
1001
AUSTER_FOLIE
1002
{
1000
VERTEILEREINBAU_2030_M_KNEBEL
1002
}
1001
AUSTER_ANSICHT
1002
{
1000
R
1002
}
  0
LINE
  5
D0BE
330
20
100
AcDbEntity
  8
14000_Bottom
  6
Continuous
 62
     7
 48
0.5
370
    50
100
AcDbLine
 39
0.45
 10
245.1475751871698
 20
640.0158466542555
 30
0.0
 11
249.1475751871699
 21
640.0158466542555
 31
0.0
1001
AUSTER_FOLIE
1002
{
1000
VERTEILEREINBAU_2030_M_KNEBEL
1002
}
1001
AUSTER_ANSICHT
1002
{
1000
R
1002
}
  0
LINE
  5
D0BF
330
20
100
AcDbEntity
  8
14000_Bottom
  6
Continuous
 62
     7
 48
0.5
370
    20
100
AcDbLine
 39
0.45
 10
236.6475751871699
 20
640.0158466542555
 30
0.0
 11
245.1475751871698
 21
640.0158466542555
 31
0.0
1001
AUSTER_FOLIE
1002
{
1000
VERTEILEREINBAU_2030_M_KNEBEL
1002
}
1001
AUSTER_ANSICHT
1002
{
1000
R
1002
}
  0
LINE
  5
D0C0
330
20
100
AcDbEntity
  8
14000_Bottom
  6
Continuous
 62
     7
 48
0.5
370
    50
100
AcDbLine
 39
0.45
 10
232.6475751871698
 20
640.0158466542555
 30
0.0
 11
236.6475751871699
 21
640.0158466542555
 31
0.0
1001
AUSTER_FOLIE
1002
{
1000
VERTEILEREINBAU_2030_M_KNEBEL
1002
}
1001
AUSTER_ANSICHT
1002
{
1000
R
1002
}
  0
ARC
  5
D190
330
20
100
AcDbEntity
  8
10000_FRONT
  6
Continuous
 62
     7
370
    13
100
AcDbCircle
 10
5.541206742758078
 20
665.0564766542555
 30
0.0
 40
15.0
100
AcDbArc
 50
22.69855975856029
 51
180.0
  0
ARC
  5
D191
330
20
100
AcDbEntity
  8
10000_FRONT
  6
Continuous
 62
     7
370
    13
100
AcDbCircle
 10
5.541206742758078
 20
665.0564766542555
 30
0.0
 40
15.0
100
AcDbArc
 50
180.0
 51
337.3014402414397
  0
ARC
  5
D192
330
20
100
AcDbEntity
  8
10000_FRONT
  6
Continuous
 62
     7
370
    13
100
AcDbCircle
 10
5.541206742758078
 20
665.0564766542555
 30
0.0
 40
14.63314554501871
100
AcDbArc
 50
202.0774165485301
 51
337.9225834514699
  0
ARC
  5
D193
330
20
100
AcDbEntity
  8
10000_FRONT
  6
Continuous
 62
     7
370
    13
100
AcDbCircle
 10
5.541206742758078
 20
665.0564766542555
 30
0.0
 40
14.63314554501871
100
AcDbArc
 50
22.07741654853012
 51
157.9225834514699
  0
CIRCLE
  5
D194
330
20
100
AcDbEntity
  8
10000_FRONT
  6
Continuous
 62
     7
370
    13
100
AcDbCircle
 10
-1.483793257241939
 20
665.0564766542555
 30
0.0
 40
1.6
  0
SPLINE
  5
D195
330
20
100
AcDbEntity
  8
10000_FRONT
  6
Continuous
 62
     7
370
    13
100
AcDbSpline
210
0.0
220
0.0
230
1.0
 70
    12
 71
     2
 72
     6
 73
     3
 74
     0
 42
0.0000000001
 43
0.0000000001
 40
1.803397050669063
 40
1.803397050669063
 40
1.803397050669063
 40
7.840233583340617
 40
7.840233583340617
 40
7.840233583340617
 10
-8.018990473422107
 20
670.5564766542551
 30
0.0
 41
1.0
 10
-7.909954959925285
 20
670.3945890483595
 30
0.0
 41
1.0
 10
-7.800919446430595
 20
670.2353048704187
 30
0.0
 41
1.0
  0
LINE
  5
D196
330
20
100
AcDbEntity
  8
10000_FRONT
  6
Continuous
 62
     7
370
    13
100
AcDbLine
 10
-8.018990473422107
 20
670.5564766542551
 30
0.0
 11
19.10140395893828
 21
670.5564766542551
 31
0.0
  0
SPLINE
  5
D197
330
20
100
AcDbEntity
  8
10000_FRONT
  6
Continuous
 62
     7
370
    13
100
AcDbSpline
210
0.0
220
0.0
230
1.0
 70
    12
 71
     2
 72
     6
 73
     3
 74
     0
 42
0.0000000001
 43
0.0000000001
 40
0.0
 40
0.0
 40
0.0
 40
5.510920448459382
 40
5.510920448459382
 40
5.510920448459382
 10
19.10140395893828
 20
670.5564766542551
 30
0.0
 41
1.0
 10
19.19778837602745
 20
670.6995808780809
 30
0.0
 41
1.0
 10
19.29417279290219
 20
670.8447194403122
 30
0.0
 41
1.0
  0
LINE
  5
D198
330
20
100
AcDbEntity
  8
10000_FRONT
  6
Continuous
 62
     7
370
    13
100
AcDbLine
 10
27.57166282602183
 20
670.8447194403122
 30
0.0
 11
19.29417279290221
 21
670.8447194403122
 31
0.0
  0
LINE
  5
D199
330
20
100
AcDbEntity
  8
10000_FRONT
  6
Continuous
 62
     7
370
    13
100
AcDbLine
 10
27.57166282602183
 20
669.5869327375191
 30
0.0
 11
27.57166282602183
 21
670.844719440312
 31
0.0
  0
LINE
  5
D19A
330
20
100
AcDbEntity
  8
10000_FRONT
  6
Continuous
 62
     7
370
    13
100
AcDbLine
 10
24.57166282602183
 20
670.3468455371234
 30
0.0
 11
24.57166282602183
 21
669.5869327375191
 31
0.0
  0
LINE
  5
D19B
330
20
100
AcDbEntity
  8
10000_FRONT
  6
Continuous
 62
     7
370
    13
100
AcDbLine
 10
24.57166282602183
 20
669.5869327375191
 30
0.0
 11
27.57166282602183
 21
669.5869327375191
 31
0.0
  0
LINE
  5
D19C
330
20
100
AcDbEntity
  8
10000_FRONT
  6
Continuous
 62
     7
370
    13
100
AcDbLine
 10
27.57166282602183
 20
669.5869327375191
 30
0.0
 11
27.57166282602183
 21
660.5260205709917
 31
0.0
  0
LINE
  5
D19D
330
20
100
AcDbEntity
  8
10000_FRONT
  6
Continuous
 62
     7
370
    13
100
AcDbLine
 10
24.57166282602183
 20
662.5564766542555
 30
0.0
 11
24.57166282602183
 21
660.5260205709917
 31
0.0
  0
LINE
  5
D19E
330
20
100
AcDbEntity
  8
10000_FRONT
  6
Continuous
 62
     7
370
    13
100
AcDbLine
 10
17.77166282602181
 20
662.5564766542555
 30
0.0
 11
24.57166282602183
 21
662.5564766542555
 31
0.0
  0
LINE
  5
D19F
330
20
100
AcDbEntity
  8
10000_FRONT
  6
Continuous
 62
     7
370
    13
100
AcDbLine
 10
-5.251496866346542
 20
669.5869327375191
 30
0.0
 11
17.77166282602182
 21
669.5869327375191
 31
0.0
  0
LINE
  5
D1A0
330
20
100
AcDbEntity
  8
10000_FRONT
  6
Continuous
 62
     7
370
    13
100
AcDbLine
 10
24.57166282602183
 20
669.5869327375191
 30
0.0
 11
24.57166282602183
 21
667.5564766542552
 31
0.0
  0
CIRCLE
  5
D1A1
330
20
100
AcDbEntity
  8
10000_FRONT
  6
Continuous
 62
     7
370
    13
100
AcDbCircle
 10
-1.483793257241939
 20
665.0564766542555
 30
0.0
 40
2.9
  0
LINE
  5
D1A2
330
20
100
AcDbEntity
  8
10000_FRONT
  6
Continuous
 62
     7
370
    13
100
AcDbLine
 10
24.57166282602183
 20
667.5564766542552
 30
0.0
 11
17.77166282602181
 21
667.5564766542552
 31
0.0
  0
LINE
  5
D1A3
330
20
100
AcDbEntity
  8
10000_FRONT
  6
Continuous
 62
     7
370
    13
100
AcDbLine
 10
17.77166282602181
 20
667.5564766542552
 30
0.0
 11
17.77166282602181
 21
669.5869327375191
 31
0.0
  0
LINE
  5
D1A4
330
20
100
AcDbEntity
  8
10000_FRONT
  6
Continuous
 62
     7
370
    13
100
AcDbLine
 10
17.77166282602181
 20
669.5869327375191
 30
0.0
 11
17.77166282602181
 21
670.3468455371234
 31
0.0
  0
ELLIPSE
  5
D1A5
330
20
100
AcDbEntity
  8
10000_FRONT
  6
Continuous
 62
     7
370
    13
100
AcDbEllipse
 10
20.77166282602181
 20
670.3468455371234
 30
0.0
 11
-3.0
 21
0.0000000000000003
 31
0.0
210
0.0
220
0.0
230
1.0
 40
0.0524077792830412
 41
4.712388980384688
 42
6.283185307179584
  0
LINE
  5
D1A6
330
20
100
AcDbEntity
  8
10000_FRONT
  6
Continuous
 62
     7
370
    13
100
AcDbLine
 10
17.77166282602181
 20
660.5260205709917
 30
0.0
 11
17.77166282602181
 21
662.5564766542555
 31
0.0
  0
LINE
  5
D1A7
330
20
100
AcDbEntity
  8
10000_FRONT
  6
Continuous
 62
     7
370
    13
100
AcDbLine
 10
20.77166282602183
 20
670.5040688749725
 30
0.0
 11
21.57166282602183
 21
670.5040688749725
 31
0.0
  0
ELLIPSE
  5
D1A8
330
20
100
AcDbEntity
  8
10000_FRONT
  6
Continuous
 62
     7
370
    13
100
AcDbEllipse
 10
21.57166282602183
 20
670.3468455371234
 30
0.0
 11
-3.0
 21
0.0000000000000003
 31
0.0
210
0.0
220
0.0
230
1.0
 40
0.0524077792830412
 41
3.14159265358979
 42
4.712388980384688
  0
LINE
  5
D1A9
330
20
100
AcDbEntity
  8
10000_FRONT
  6
Continuous
 62
     7
370
    13
100
AcDbLine
 10
17.77166282602181
 20
660.5260205709917
 30
0.0
 11
-5.251496866346542
 21
660.5260205709917
 31
0.0
  0
LINE
  5
D1AA
330
20
100
AcDbEntity
  8
10000_FRONT
  6
Continuous
 62
     7
370
    13
100
AcDbLine
 10
17.77166282602181
 20
659.7661077713877
 30
0.0
 11
17.77166282602181
 21
660.5260205709917
 31
0.0
  0
ELLIPSE
  5
D1AB
330
20
100
AcDbEntity
  8
10000_FRONT
  6
Continuous
 62
     7
370
    13
100
AcDbEllipse
 10
20.77166282602181
 20
659.7661077713877
 30
0.0
 11
3.0
 21
-0.0000000000000007
 31
0.0
210
0.0
220
0.0
230
1.0
 40
0.0524077792830412
 41
3.14159265358979
 42
4.712388980384688
  0
LINE
  5
D1AC
330
20
100
AcDbEntity
  8
10000_FRONT
  6
Continuous
 62
     7
370
    13
100
AcDbLine
 10
21.57166282602183
 20
659.6088844335386
 30
0.0
 11
20.77166282602181
 21
659.6088844335386
 31
0.0
  0
ELLIPSE
  5
D1AD
330
20
100
AcDbEntity
  8
10000_FRONT
  6
Continuous
 62
     7
370
    13
100
AcDbEllipse
 10
21.57166282602183
 20
659.7661077713877
 30
0.0
 11
3.0
 21
-0.0000000000000007
 31
0.0
210
0.0
220
0.0
230
1.0
 40
0.0524077792830412
 41
4.712388980384688
 42
6.283185307179584
  0
LINE
  5
D1AE
330
20
100
AcDbEntity
  8
10000_FRONT
  6
Continuous
 62
     7
370
    13
100
AcDbLine
 10
24.57166282602183
 20
660.5260205709917
 30
0.0
 11
24.57166282602183
 21
659.7661077713877
 31
0.0
  0
LINE
  5
D1AF
330
20
100
AcDbEntity
  8
10000_FRONT
  6
Continuous
 62
     7
370
    13
100
AcDbLine
 10
27.57166282602183
 20
660.5260205709917
 30
0.0
 11
24.57166282602183
 21
660.5260205709917
 31
0.0
  0
LINE
  5
D1B0
330
20
100
AcDbEntity
  8
10000_FRONT
  6
Continuous
 62
     7
370
    13
100
AcDbLine
 10
27.57166282602183
 20
659.2682338681989
 30
0.0
 11
27.57166282602183
 21
660.5260205709917
 31
0.0
  0
LINE
  5
D1B1
330
20
100
AcDbEntity
  8
10000_FRONT
  6
Continuous
 62
     7
370
    13
100
AcDbLine
 10
19.29417279290219
 20
659.2682338681989
 30
0.0
 11
27.57166282602183
 21
659.2682338681989
 31
0.0
  0
SPLINE
  5
D1B2
330
20
100
AcDbEntity
  8
10000_FRONT
  6
Continuous
 62
     7
370
    13
100
AcDbSpline
210
0.0
220
0.0
230
1.0
 70
    12
 71
     2
 72
     6
 73
     3
 74
     0
 42
0.0000000001
 43
0.0000000001
 40
0.0
 40
0.0
 40
0.0
 40
5.510920448459382
 40
5.510920448459382
 40
5.510920448459382
 10
19.29417279290219
 20
659.2682338681989
 30
0.0
 41
1.0
 10
19.19778837594065
 20
659.4133724305597
 30
0.0
 41
1.0
 10
19.10140395893827
 20
659.5564766542556
 30
0.0
 41
1.0
  0
LINE
  5
D1B3
330
20
100
AcDbEntity
  8
10000_FRONT
  6
Continuous
 62
     7
370
    13
100
AcDbLine
 10
19.10140395893827
 20
659.5564766542556
 30
0.0
 11
-8.018990473422107
 21
659.5564766542556
 31
0.0
  0
SPLINE
  5
D1B4
330
20
100
AcDbEntity
  8
10000_FRONT
  6
Continuous
 62
     7
370
    13
100
AcDbSpline
210
0.0
220
0.0
230
1.0
 70
    12
 71
     2
 72
     6
 73
     3
 74
     0
 42
0.0000000001
 43
0.0000000001
 40
1.803397050669063
 40
1.803397050669063
 40
1.803397050669063
 40
7.840233583340617
 40
7.840233583340617
 40
7.840233583340617
 10
-8.018990473422107
 20
659.5564766542556
 30
0.0
 41
1.0
 10
-7.9099549599253
 20
659.7183642601516
 30
0.0
 41
1.0
 10
-7.800919446430595
 20
659.8776484380921
 30
0.0
 41
1.0
  0
LINE
  5
D1B5
330
20
100
AcDbEntity
  8
10000_FRONT
  6
Continuous
 62
     7
370
    13
100
AcDbLine
 10
-7.677154055378338
 20
670.1850008732675
 30
0.0
 11
-5.251496866346528
 21
669.5869327375191
 31
0.0
  0
LINE
  5
D1B6
330
20
100
AcDbEntity
  8
10000_FRONT
  6
Continuous
 62
     7
370
    13
100
AcDbLine
 10
-5.251496866346542
 20
669.5869327375191
 30
0.0
 11
-5.251496866346542
 21
660.5260205709917
 31
0.0
  0
LINE
  5
D1B7
330
20
100
AcDbEntity
  8
10000_FRONT
  6
Continuous
 62
     7
370
    13
100
AcDbLine
 10
-5.251496866346542
 20
660.5260205709917
 30
0.0
 11
-7.677154055378338
 21
659.9279524352432
 31
0.0
  0
ARC
  5
D1B8
330
20
100
AcDbEntity
  8
10000_FRONT
  6
Continuous
 62
     7
370
    13
100
AcDbCircle
 10
-7.646816215717548
 20
659.6759057315654
 30
0.0
 40
0.2538659594211557
100
AcDbArc
 50
96.86344196808716
 51
127.3747706244067
  0
ARC
  5
D1B9
330
20
100
AcDbEntity
  8
10000_FRONT
  6
Continuous
 62
     7
370
    13
100
AcDbCircle
 10
-7.646769390189062
 20
670.4371627840896
 30
0.0
 40
0.2539859388839539
100
AcDbArc
 50
232.6326110877434
 51
263.1291763198071
  0
LINE
  5
D1BA
330
20
100
AcDbEntity
  8
10000_FRONT
  6
Continuous
 62
     7
370
    13
100
AcDbLine
 10
31.86277849870451
 20
662.8502132652587
 30
0.0
 11
27.57166282602183
 21
662.8502132652587
 31
0.0
  0
LINE
  5
D1BB
330
20
100
AcDbEntity
  8
10000_FRONT
  6
Continuous
 62
     7
370
    13
100
AcDbLine
 10
31.86277849870451
 20
667.3502132652587
 30
0.0
 11
27.57166282602183
 21
667.3502132652587
 31
0.0
  0
ARC
  5
D1BC
330
20
100
AcDbEntity
  8
10000_FRONT
  6
Continuous
 62
     7
370
    13
100
AcDbCircle
 10
31.86277849870451
 20
663.3502132652587
 30
0.0
 40
0.5
100
AcDbArc
 50
270.0
 51
0.0
  0
ARC
  5
D1BD
330
20
100
AcDbEntity
  8
10000_FRONT
  6
Continuous
 62
     7
370
    13
100
AcDbCircle
 10
31.86277849870451
 20
666.8502132652591
 30
0.0
 40
0.5
100
AcDbArc
 50
0.0
 51
90.0
  0
LINE
  5
D1BE
330
20
100
AcDbEntity
  8
10000_FRONT
  6
Continuous
 62
     7
370
    13
100
AcDbLine
 10
32.36277849870451
 20
666.8502132652591
 30
0.0
 11
32.36277849870451
 21
663.3502132652587
 31
0.0
  0
LINE
  5
D1D0
330
20
100
AcDbEntity
  8
11000_Left
  6
Continuous
 62
     7
370
    50
100
AcDbLine
 10
164.7053385278133
 20
679.348992199274
 30
0.0
 11
157.7053385278133
 21
679.7158466542554
 31
0.0
  0
LINE
  5
D1D1
330
20
100
AcDbEntity
  8
11000_Left
  6
Continuous
 62
     7
370
    50
100
AcDbLine
 10
164.7053385278133
 20
650.0827011092369
 30
0.0
 11
157.7053385278133
 21
649.7158466542555
 31
0.0
  0
LINE
  5
D1D2
330
20
100
AcDbEntity
  8
11000_Left
  6
Continuous
 62
     7
370
    50
100
AcDbLine
 10
157.7053385278133
 20
664.7158466542555
 30
0.0
 11
157.7053385278133
 21
679.7158466542554
 31
0.0
  0
LINE
  5
D1D3
330
20
100
AcDbEntity
  8
11000_Left
  6
Continuous
 62
     7
370
    50
100
AcDbLine
 10
157.7053385278133
 20
649.7158466542555
 30
0.0
 11
157.7053385278133
 21
664.7158466542555
 31
0.0
  0
LINE
  5
D1D4
330
20
100
AcDbEntity
  8
11000_Left
  6
Continuous
 62
     7
370
    50
100
AcDbLine
 10
164.7053385278133
 20
659.2158466542555
 30
0.0
 11
164.7053385278133
 21
650.0827011092369
 31
0.0
  0
LINE
  5
D1D5
330
20
100
AcDbEntity
  8
11000_Left
  6
Continuous
 62
     7
370
    50
100
AcDbLine
 10
164.7053385278133
 20
679.348992199274
 30
0.0
 11
164.7053385278133
 21
670.2158466542554
 31
0.0
  0
LINE
  5
D1D6
330
20
100
AcDbEntity
  8
11000_Left
  6
Continuous
 62
     7
370
    50
100
AcDbLine
 10
164.7053385278133
 20
670.2158466542554
 30
0.0
 11
170.8336612354412
 21
669.8946748704187
 31
0.0
  0
LINE
  5
D1D7
330
20
100
AcDbEntity
  8
11000_Left
  6
Continuous
 62
     7
370
    50
100
AcDbLine
 10
164.7053385278133
 20
659.2158466542555
 30
0.0
 11
170.8336612354412
 21
659.5370184380921
 31
0.0
  0
LINE
  5
D1D8
330
20
100
AcDbEntity
  8
11000_Left
  6
Continuous
 62
     7
370
    50
100
AcDbLine
 10
171.7935186810214
 20
669.8443708732675
 30
0.0
 11
183.2053385278133
 21
669.2463027375192
 31
0.0
  0
LINE
  5
D1D9
330
20
100
AcDbEntity
  8
11000_Left
  6
Continuous
 62
     7
370
    50
100
AcDbLine
 10
183.2053385278133
 20
669.2463027375192
 30
0.0
 11
183.2053385278133
 21
660.1853905709917
 31
0.0
  0
LINE
  5
D1DA
330
20
100
AcDbEntity
  8
11000_Left
  6
Continuous
 62
     7
370
    50
100
AcDbLine
 10
183.2053385278133
 20
660.1853905709917
 30
0.0
 11
171.7935186810214
 21
659.587322435243
 31
0.0
  0
LINE
  5
D1DB
330
20
100
AcDbEntity
  8
11000_Left
  6
Continuous
 62
     7
370
    50
100
AcDbLine
 10
170.8336612354412
 20
659.5370184380921
 30
0.0
 11
171.793518681227
 21
659.587322435254
 31
0.0
  0
LINE
  5
D1DC
330
20
100
AcDbEntity
  8
11000_Left
  6
Continuous
 62
     7
370
    50
100
AcDbLine
 10
170.8336612354412
 20
669.8946748704185
 30
0.0
 11
171.793518681227
 21
669.8443708732565
 31
0.0
  0
LINE
  5
D1FA
330
20
100
AcDbEntity
  8
14000_Bottom
  6
Continuous
 62
     7
370
    13
100
AcDbLine
 10
221.1875756576597
 20
667.3064766542552
 30
0.0
 11
223.0475756576597
 21
667.3064766542555
 31
0.0
  0
LINE
  5
D1FB
330
20
100
AcDbEntity
  8
14000_Bottom
  6
Continuous
 62
     7
370
    13
100
AcDbLine
 10
223.0475756576597
 20
662.8064766542555
 30
0.0
 11
221.1875756576597
 21
662.8064766542555
 31
0.0
  0
LINE
  5
D1FC
330
20
100
AcDbEntity
  8
14000_Bottom
  6
Continuous
 62
     7
370
    13
100
AcDbLine
 10
220.1875756576597
 20
666.3064766542555
 30
0.0
 11
220.1875756576597
 21
663.8064766542555
 31
0.0
  0
ARC
  5
D1FD
330
20
100
AcDbEntity
  8
14000_Bottom
  6
Continuous
 62
     7
370
    13
100
AcDbCircle
 10
221.1875756576597
 20
663.8064766542555
 30
0.0
 40
1.0
100
AcDbArc
 50
180.0
 51
270.0
  0
ARC
  5
D1FE
330
20
100
AcDbEntity
  8
14000_Bottom
  6
Continuous
 62
     7
370
    13
100
AcDbCircle
 10
221.1875756576598
 20
666.3064766542552
 30
0.0
 40
1.000000000000113
100
AcDbArc
 50
90.00000000000651
 51
179.999999999987
  0
VIEWPORT
  5
CF45
102
{ACAD_XDICTIONARY
360
D24A
102
}
330
1C
100
AcDbEntity
 67
     1
  8
0
100
AcDbViewport
 10
6.252396556412556
 20
5.821667933437668
 30
0.0
 40
4.029497461230413
 41
2.580726465751173
 68
     1
 69
     1
 12
6.252396556412556
 22
5.821667933437668
 13
0.0
 23
0.0
 14
10.0
 24
10.0
 15
10.0
 25
10.0
 16
0.0
 26
0.0
 36
1.0
 17
0.0
 27
0.0
 37
0.0
 42
50.0
 43
0.0
 44
0.0
 45
2.580726465751173
 50
0.0
 51
0.0
 72
   100
 90
    32800
  1

281
     0
 71
     1
 74
     0
110
0.0
120
0.0
130
0.0
111
1.0
121
0.0
131
0.0
112
0.0
122
1.0
132
0.0
 79
     0
146
0.0
  0
VIEWPORT
  5
CF47
102
{ACAD_XDICTIONARY
360
D24C
102
}
330
1C
100
AcDbEntity
 67
     1
  8
14100_Bottom_Dim
100
AcDbViewport
 10
5.655416400413812
 20
3.943749929037617
 30
0.0
 40
9.048666240662099
 41
6.30999988646019
 68
     2
 69
     2
 12
134.3954166223088
 22
692.0801776676877
 13
0.0
 23
0.0
 14
1.0
 24
1.0
 15
0.0
 25
0.0
 16
0.0
 26
0.0
 36
1.0
 17
0.0
 27
0.0
 37
0.0
 42
50.0
 43
0.0
 44
0.0
 45
399.816583487437
 50
0.0
 51
0.0
 72
   100
 90
    32800
  1

281
     0
 71
     1
 74
     0
110
0.0
120
0.0
130
0.0
111
1.0
121
0.0
131
0.0
112
0.0
122
1.0
132
0.0
 79
     0
146
0.0
  0
ENDSEC
  0
SECTION
  2
OBJECTS
  0
DICTIONARY
  5
C
330
0
100
AcDbDictionary
281
     1
  3
ACAD_COLOR
350
1B
  3
ACAD_GROUP
350
D
  3
ACAD_LAYOUT
350
19
  3
ACAD_MATERIAL
350
1A
  3
ACAD_MLINESTYLE
350
16
  3
ACAD_PLOTSETTINGS
350
18
  3
ACAD_PLOTSTYLENAME
350
E
  3
ACDBHEADERROUNDTRIPXREC
350
D243
  3
AcDbVariableDictionary
350
687E
  3
DWGPROPS
350
D242
  0
DICTIONARY
  5
D24A
330
CF45
100
AcDbDictionary
280
     1
281
     1
  3
ACAD_XREC_ROUNDTRIP
360
D24B
  0
DICTIONARY
  5
D24C
330
CF47
100
AcDbDictionary
280
     1
281
     1
  3
ACAD_XREC_ROUNDTRIP
360
D24D
  0
DICTIONARY
  5
1B
102
{ACAD_REACTORS
330
C
102
}
330
C
100
AcDbDictionary
281
     1
  0
DICTIONARY
  5
D
102
{ACAD_REACTORS
330
C
102
}
330
C
100
AcDbDictionary
281
     1
  0
DICTIONARY
  5
19
102
{ACAD_REACTORS
330
C
102
}
330
C
100
AcDbDictionary
281
     1
  3
Layout1
350
1F
  3
Model
350
23
  0
DICTIONARY
  5
1A
102
{ACAD_REACTORS
330
C
102
}
330
C
100
AcDbDictionary
281
     1
  0
DICTIONARY
  5
16
102
{ACAD_REACTORS
330
C
102
}
330
C
100
AcDbDictionary
281
     1
  3
Standard
350
17
  0
DICTIONARY
  5
18
102
{ACAD_REACTORS
330
C
102
}
330
C
100
AcDbDictionary
281
     1
  0
ACDBDICTIONARYWDFLT
  5
E
102
{ACAD_REACTORS
330
C
102
}
330
C
100
AcDbDictionary
281
     1
  3
Normal
350
F
100
AcDbDictionaryWithDefault
340
F
  0
DICTIONARY
  5
D243
102
{ACAD_REACTORS
330
C
102
}
330
C
100
AcDbDictionary
281
     1
  3
COLORDICT
350
D245
  3
MATERIALDICT
350
D244
  0
DICTIONARY
  5
687E
102
{ACAD_REACTORS
330
C
102
}
330
C
100
AcDbDictionary
281
     1
  3
DIMASSOC
350
687F
  3
PROJECTNAME
350
6880
  0
XRECORD
  5
D242
102
{ACAD_REACTORS
330
C
102
}
330
C
100
AcDbXrecord
280
     1
  1
DWGPROPS COOKIE
  2

  3

  4

  6

  7

  8

  9

300
=
301
=
302
=
303
=
304
=
305
=
306
=
307
=
308
=
309
=
 40
2.47382355324074
 41
2452829.459279745
 42
2453473.593557928
  1

 90
        0
  0
XRECORD
  5
D24B
102
{ACAD_REACTORS
330
D24A
102
}
330
D24A
100
AcDbXrecord
280
     1
102
SHADEPLOT
 70
     0
  0
XRECORD
  5
D24D
102
{ACAD_REACTORS
330
D24C
102
}
330
D24C
100
AcDbXrecord
280
     1
102
SHADEPLOT
 70
     0
  0
LAYOUT
  5
1F
102
{ACAD_XDICTIONARY
360
D246
102
}
102
{ACAD_REACTORS
330
19
102
}
330
19
100
AcDbPlotSettings
  1

  2
\\AMBW779A\A_P00873 (Canon iR2200-3300 PCL6)
  4
A4
  6

 40
4.815416812896728
 41
4.815412044525146
 42
4.815414428710936
 43
4.8154296875
 44
209.9733276367186
 45
296.9259948730469
 46
0.0
 47
0.0
 48
0.0
 49
0.0
140
0.0
141
0.0
142
1.0
143
1.0
 70
   688
 72
     0
 73
     1
 74
     5
  7
monochrome.ctb
 75
    16
147
1.0
148
0.0
149
0.0
100
AcDbLayout
  1
Layout1
 70
     1
 71
     1
 10
-0.1895838459645669
 20
-0.1895833390904224
 11
11.50041595218688
 21
8.077083103300079
 12
0.0
 22
0.0
 32
0.0
 14
1.131083280082761
 24
0.7887499858075238
 34
0.0
 15
10.17974952074486
 25
7.098749872267712
 35
0.0
146
0.0
 13
0.0
 23
0.0
 33
0.0
 16
1.0
 26
0.0
 36
0.0
 17
0.0
 27
1.0
 37
0.0
 76
     0
330
1C
331
CF45
  0
LAYOUT
  5
23
102
{ACAD_XDICTIONARY
360
D248
102
}
102
{ACAD_REACTORS
330
19
102
}
330
19
100
AcDbPlotSettings
  1

  2
\\AMBW779A\A_P00873 (Canon iR2200-3300 PCL6)
  4
A3
  6

 40
4.815416812896728
 41
4.815412044525146
 42
4.815399169921875
 43
4.8154296875
 44
296.9259948730469
 45
419.9466552734373
 46
0.0
 47
0.0
 48
0.0
 49
0.0
140
0.0
141
0.0
142
1.0
143
1.0
 70
 11952
 72
     1
 73
     1
 74
     1
  7
monochrome.ctb
 75
    16
147
1.0
148
70.61955429913258
149
-494.2301886448267
100
AcDbLayout
  1
Model
 70
     1
 71
     0
 10
0.0
 20
0.0
 11
12.0
 21
9.0
 12
0.0
 22
0.0
 32
0.0
 14
0.0
 24
0.0
 34
0.0
 15
0.0
 25
0.0
 35
0.0
146
0.0
 13
0.0
 23
0.0
 33
0.0
 16
1.0
 26
0.0
 36
0.0
 17
0.0
 27
1.0
 37
0.0
 76
     0
330
20
  0
MLINESTYLE
  5
17
102
{ACAD_REACTORS
330
16
102
}
330
16
100
AcDbMlineStyle
  2
STANDARD
 70
     0
  3

 62
   256
 51
90.0
 52
90.0
 71
     2
 49
0.5
 62
   256
  6
BYLAYER
 49
-0.5
 62
   256
  6
BYLAYER
  0
ACDBPLACEHOLDER
  5
F
102
{ACAD_REACTORS
330
E
102
}
330
E
  0
XRECORD
  5
D245
102
{ACAD_REACTORS
330
D243
102
}
330
D243
100
AcDbXrecord
280
     1
340
1B
  0
XRECORD
  5
D244
102
{ACAD_REACTORS
330
D243
102
}
330
D243
100
AcDbXrecord
280
     1
340
1A
  0
DICTIONARYVAR
  5
687F
102
{ACAD_REACTORS
330
687E
102
}
330
687E
100
DictionaryVariables
280
     0
  1
1
  0
DICTIONARYVAR
  5
6880
102
{ACAD_REACTORS
330
687E
102
}
330
687E
100
DictionaryVariables
280
     0
  1

  0
DICTIONARY
  5
D246
330
1F
100
AcDbDictionary
280
     1
281
     1
  3
ACAD_XREC_ROUNDTRIP
360
D247
  0
DICTIONARY
  5
D248
330
23
100
AcDbDictionary
280
     1
281
     1
  3
ACAD_XREC_ROUNDTRIP
360
D249
  0
XRECORD
  5
D247
102
{ACAD_REACTORS
330
D246
102
}
330
D246
100
AcDbXrecord
280
     1
102
SHADEPLOT
 70
     0
102
SHADEPLOTRESLEVEL
 70
     2
102
SHADEPLOTCUSTOMDPI
 70
   300
  0
XRECORD
  5
D249
102
{ACAD_REACTORS
330
D248
102
}
330
D248
100
AcDbXrecord
280
     1
102
SHADEPLOT
 70
     1
102
SHADEPLOTRESLEVEL
 70
     2
102
SHADEPLOTCUSTOMDPI
 70
   300
  0
ENDSEC
  0
EOF
