  0
SECTION
  2
HEADER
  9
$ACADVER
  1
AC1015
  9
$ACADMAINTVER
 70
    20
  9
$DWGCODEPAGE
  3
ANSI_1252
  9
$INSBASE
 10
0.0
 20
0.0
 30
0.0
  9
$EXTMIN
 10
-70.60458337769119
 20
288.7994897070327
 30
0.0
  9
$EXTMAX
 10
339.3954166223088
 20
558.7994897070326
 30
0.7
  9
$LIMMIN
 10
0.0
 20
0.0
  9
$LIMMAX
 10
420.0
 20
297.0
  9
$ORTHOMODE
 70
     1
  9
$REGENMODE
 70
     1
  9
$FILLMODE
 70
     1
  9
$QTEXTMODE
 70
     0
  9
$MIRRTEXT
 70
     0
  9
$LTSCALE
 40
23.1
  9
$ATTMODE
 70
     1
  9
$TEXTSIZE
 40
0.2
  9
$TRACEWID
 40
0.05
  9
$TEXTSTYLE
  7
Standard
  9
$CLAYER
  8
90000_FRAME
  9
$CELTYPE
  6
ByLayer
  9
$CECOLOR
 62
   256
  9
$CELTSCALE
 40
1.0
  9
$DISPSILH
 70
     0
  9
$DIMSCALE
 40
0.0
  9
$DIMASZ
 40
3.5
  9
$DIMEXO
 40
0.0
  9
$DIMDLI
 40
3.75
  9
$DIMRND
 40
0.0
  9
$DIMDLE
 40
0.0
  9
$DIMEXE
 40
2.0
  9
$DIMTP
 40
0.0
  9
$DIMTM
 40
0.0
  9
$DIMTXT
 40
3.5
  9
$DIMCEN
 40
2.5
  9
$DIMTSZ
 40
0.0
  9
$DIMTOL
 70
     0
  9
$DIMLIM
 70
     0
  9
$DIMTIH
 70
     0
  9
$DIMTOH
 70
     0
  9
$DIMSE1
 70
     0
  9
$DIMSE2
 70
     0
  9
$DIMTAD
 70
     1
  9
$DIMZIN
 70
     8
  9
$DIMBLK
  1

  9
$DIMASO
 70
     1
  9
$DIMSHO
 70
     1
  9
$DIMPOST
  1

  9
$DIMAPOST
  1

  9
$DIMALT
 70
     0
  9
$DIMALTD
 70
     4
  9
$DIMALTF
 40
0.039
  9
$DIMLFAC
 40
1.0
  9
$DIMTOFL
 70
     1
  9
$DIMTVP
 40
0.0
  9
$DIMTIX
 70
     0
  9
$DIMSOXD
 70
     0
  9
$DIMSAH
 70
     0
  9
$DIMBLK1
  1

  9
$DIMBLK2
  1

  9
$DIMSTYLE
  2
H035
  9
$DIMCLRD
 70
   256
  9
$DIMCLRE
 70
     7
  9
$DIMCLRT
 70
     7
  9
$DIMTFAC
 40
1.0
  9
$DIMGAP
 40
0.5
  9
$DIMJUST
 70
     0
  9
$DIMSD1
 70
     0
  9
$DIMSD2
 70
     0
  9
$DIMTOLJ
 70
     1
  9
$DIMTZIN
 70
     0
  9
$DIMALTZ
 70
     0
  9
$DIMALTTZ
 70
     0
  9
$DIMUPT
 70
     0
  9
$DIMDEC
 70
     0
  9
$DIMTDEC
 70
     2
  9
$DIMALTU
 70
     8
  9
$DIMALTTD
 70
     4
  9
$DIMTXSTY
  7
Standard
  9
$DIMAUNIT
 70
     0
  9
$DIMADEC
 70
     0
  9
$DIMALTRND
 40
0.0
  9
$DIMAZIN
 70
     0
  9
$DIMDSEP
 70
    46
  9
$DIMATFIT
 70
     3
  9
$DIMFRAC
 70
     0
  9
$DIMLDRBLK
  1

  9
$DIMLUNIT
 70
     2
  9
$DIMLWD
 70
    -2
  9
$DIMLWE
 70
    -2
  9
$DIMTMOVE
 70
     0
  9
$LUNITS
 70
     2
  9
$LUPREC
 70
     4
  9
$SKETCHINC
 40
0.1
  9
$FILLETRAD
 40
0.5
  9
$AUNITS
 70
     0
  9
$AUPREC
 70
     0
  9
$MENU
  1
.
  9
$ELEVATION
 40
0.0
  9
$PELEVATION
 40
0.0
  9
$THICKNESS
 40
0.0
  9
$LIMCHECK
 70
     0
  9
$CHAMFERA
 40
0.0
  9
$CHAMFERB
 40
0.0
  9
$CHAMFERC
 40
0.0
  9
$CHAMFERD
 40
0.0
  9
$SKPOLY
 70
     0
  9
$TDCREATE
 40
2452829.459279745
  9
$TDUCREATE
 40
2452829.375946412
  9
$TDUPDATE
 40
2453473.594401181
  9
$TDUUPDATE
 40
2453473.511067847
  9
$TDINDWG
 40
3.1024360648
  9
$TDUSRTIMER
 40
3.1024215972
  9
$USRTIMER
 70
     1
  9
$ANGBASE
 50
0.0
  9
$ANGDIR
 70
     0
  9
$PDMODE
 70
     0
  9
$PDSIZE
 40
0.0
  9
$PLINEWID
 40
0.0
  9
$SPLFRAME
 70
     0
  9
$SPLINETYPE
 70
     6
  9
$SPLINESEGS
 70
     8
  9
$HANDSEED
  5
283FA
  9
$SURFTAB1
 70
     6
  9
$SURFTAB2
 70
     6
  9
$SURFTYPE
 70
     6
  9
$SURFU
 70
     6
  9
$SURFV
 70
     6
  9
$UCSBASE
  2

  9
$UCSNAME
  2

  9
$UCSORG
 10
0.0
 20
0.0
 30
0.0
  9
$UCSXDIR
 10
1.0
 20
0.0
 30
0.0
  9
$UCSYDIR
 10
0.0
 20
1.0
 30
0.0
  9
$UCSORTHOREF
  2

  9
$UCSORTHOVIEW
 70
     0
  9
$UCSORGTOP
 10
0.0
 20
0.0
 30
0.0
  9
$UCSORGBOTTOM
 10
0.0
 20
0.0
 30
0.0
  9
$UCSORGLEFT
 10
0.0
 20
0.0
 30
0.0
  9
$UCSORGRIGHT
 10
0.0
 20
0.0
 30
0.0
  9
$UCSORGFRONT
 10
0.0
 20
0.0
 30
0.0
  9
$UCSORGBACK
 10
0.0
 20
0.0
 30
0.0
  9
$PUCSBASE
  2

  9
$PUCSNAME
  2

  9
$PUCSORG
 10
0.0
 20
0.0
 30
0.0
  9
$PUCSXDIR
 10
1.0
 20
0.0
 30
0.0
  9
$PUCSYDIR
 10
0.0
 20
1.0
 30
0.0
  9
$PUCSORTHOREF
  2

  9
$PUCSORTHOVIEW
 70
     0
  9
$PUCSORGTOP
 10
0.0
 20
0.0
 30
0.0
  9
$PUCSORGBOTTOM
 10
0.0
 20
0.0
 30
0.0
  9
$PUCSORGLEFT
 10
0.0
 20
0.0
 30
0.0
  9
$PUCSORGRIGHT
 10
0.0
 20
0.0
 30
0.0
  9
$PUCSORGFRONT
 10
0.0
 20
0.0
 30
0.0
  9
$PUCSORGBACK
 10
0.0
 20
0.0
 30
0.0
  9
$USERI1
 70
     0
  9
$USERI2
 70
     0
  9
$USERI3
 70
     0
  9
$USERI4
 70
     0
  9
$USERI5
 70
     0
  9
$USERR1
 40
0.0
  9
$USERR2
 40
0.0
  9
$USERR3
 40
0.0
  9
$USERR4
 40
0.0
  9
$USERR5
 40
0.0
  9
$WORLDVIEW
 70
     1
  9
$SHADEDGE
 70
     3
  9
$SHADEDIF
 70
    70
  9
$TILEMODE
 70
     1
  9
$MAXACTVP
 70
    64
  9
$PINSBASE
 10
0.0
 20
0.0
 30
0.0
  9
$PLIMCHECK
 70
     0
  9
$PEXTMIN
 10
1.000000000000000E+20
 20
1.000000000000000E+20
 30
1.000000000000000E+20
  9
$PEXTMAX
 10
-1.000000000000000E+20
 20
-1.000000000000000E+20
 30
-1.000000000000000E+20
  9
$PLIMMIN
 10
0.0
 20
0.0
  9
$PLIMMAX
 10
12.0
 20
9.0
  9
$UNITMODE
 70
     0
  9
$VISRETAIN
 70
     1
  9
$PLINEGEN
 70
     0
  9
$PSLTSCALE
 70
     1
  9
$TREEDEPTH
 70
  3020
  9
$CMLSTYLE
  2
Standard
  9
$CMLJUST
 70
     0
  9
$CMLSCALE
 40
1.0
  9
$PROXYGRAPHICS
 70
     1
  9
$MEASUREMENT
 70
     0
  9
$CELWEIGHT
370
    -1
  9
$ENDCAPS
280
     0
  9
$JOINSTYLE
280
     0
  9
$LWDISPLAY
290
     0
  9
$INSUNITS
 70
     0
  9
$HYPERLINKBASE
  1

  9
$STYLESHEET
  1
MONOCHROME.CTB
  9
$XEDIT
290
     1
  9
$CEPSNTYPE
380
     0
  9
$PSTYLEMODE
290
     1
  9
$FINGERPRINTGUID
  2
{D88032C4-1185-41D3-97DD-7638FCF99E3F}
  9
$VERSIONGUID
  2
{7531D3C4-D30D-4B7B-B4D0-FFA7A663437D}
  9
$EXTNAMES
290
     1
  9
$PSVPSCALE
 40
0.0
  9
$OLESTARTUP
290
     0
  0
ENDSEC
  0
SECTION
  2
CLASSES
  0
CLASS
  1
ACDBDICTIONARYWDFLT
  2
AcDbDictionaryWithDefault
  3
ObjectDBX Classes
 90
        0
280
     0
281
     0
  0
CLASS
  1
DICTIONARYVAR
  2
AcDbDictionaryVar
  3
ObjectDBX Classes
 90
        0
280
     0
281
     0
  0
CLASS
  1
ACDBPLACEHOLDER
  2
AcDbPlaceHolder
  3
ObjectDBX Classes
 90
        0
280
     0
281
     0
  0
CLASS
  1
LAYOUT
  2
AcDbLayout
  3
ObjectDBX Classes
 90
        0
280
     0
281
     0
  0
CLASS
  1
DIMASSOC
  2
AcDbDimAssoc
  3
"AcDbDimAssoc|Product Desc:     AcDim ARX App For Dimension|Company:          Autodesk, Inc.|WEB Address:      www.autodesk.com"
 90
    32768
280
     0
281
     0
  0
ENDSEC
  0
SECTION
  2
TABLES
  0
TABLE
  2
VPORT
  5
8
330
0
100
AcDbSymbolTable
 70
     2
  0
VPORT
  5
283F1
330
8
100
AcDbSymbolTableRecord
100
AcDbViewportTableRecord
  2
*Active
 70
     0
 10
0.0
 20
0.0
 11
1.0
 21
1.0
 12
174.9229433604698
 22
423.8107115694178
 13
0.0
 23
0.0
 14
1.0
 24
1.0
 15
0.0
 25
0.0
 16
0.0
 26
0.0
 36
1.0
 17
0.0
 27
0.0
 37
0.0
 40
300.8252932153892
 41
1.37120211360634
 42
50.0
 43
0.0
 44
0.0
 50
0.0
 51
0.0
 71
     0
 72
   100
 73
     1
 74
     1
 75
     0
 76
     0
 77
     0
 78
     0
281
     0
 65
     1
110
0.0
120
0.0
130
0.0
111
1.0
121
0.0
131
0.0
112
0.0
122
1.0
132
0.0
 79
     0
146
0.0
  0
ENDTAB
  0
TABLE
  2
LTYPE
  5
5
330
0
100
AcDbSymbolTable
 70
     2
  0
LTYPE
  5
13
330
5
100
AcDbSymbolTableRecord
100
AcDbLinetypeTableRecord
  2
ByBlock
 70
     0
  3

 72
    65
 73
     0
 40
0.0
  0
LTYPE
  5
14
330
5
100
AcDbSymbolTableRecord
100
AcDbLinetypeTableRecord
  2
ByLayer
 70
     0
  3

 72
    65
 73
     0
 40
0.0
  0
LTYPE
  5
15
330
5
100
AcDbSymbolTableRecord
100
AcDbLinetypeTableRecord
  2
CONTINUOUS
 70
     0
  3
Solid line
 72
    65
 73
     0
 40
0.0
  0
LTYPE
  5
26
330
5
100
AcDbSymbolTableRecord
100
AcDbLinetypeTableRecord
  2
CENTER
 70
     0
  3
____ _ ____ _ ____ _ ____ _ ____ _ ____ _ ____
 72
    65
 73
     4
 40
0.6
 49
0.375
 74
     0
 49
-0.075
 74
     0
 49
0.075
 74
     0
 49
-0.075
 74
     0
  0
ENDTAB
  0
TABLE
  2
LAYER
  5
2
330
0
100
AcDbSymbolTable
 70
    12
  0
LAYER
  5
10
330
2
100
AcDbSymbolTableRecord
100
AcDbLayerTableRecord
  2
0
 70
     0
 62
     7
  6
CONTINUOUS
370
    -3
390
F
  0
LAYER
  5
1D8
330
2
100
AcDbSymbolTableRecord
100
AcDbLayerTableRecord
  2
Defpoints
 70
     0
 62
     7
  6
CONTINUOUS
290
     0
370
    -3
390
F
  0
LAYER
  5
1D9
330
2
100
AcDbSymbolTableRecord
100
AcDbLayerTableRecord
  2
91000_TIP
 70
     0
 62
     7
  6
CONTINUOUS
370
    -3
390
F
  0
LAYER
  5
1DA
330
2
100
AcDbSymbolTableRecord
100
AcDbLayerTableRecord
  2
11000_Left
 70
     0
 62
     7
  6
CONTINUOUS
370
    -3
390
F
  0
LAYER
  5
1DB
330
2
100
AcDbSymbolTableRecord
100
AcDbLayerTableRecord
  2
10000_FRONT
 70
     0
 62
     7
  6
CONTINUOUS
370
    -3
390
F
  0
LAYER
  5
1DC
330
2
100
AcDbSymbolTableRecord
100
AcDbLayerTableRecord
  2
10100_FRONT_DIM
 70
     0
 62
     7
  6
CONTINUOUS
370
    -3
390
F
  0
LAYER
  5
1DD
330
2
100
AcDbSymbolTableRecord
100
AcDbLayerTableRecord
  2
90000_FRAME
 70
     0
 62
     7
  6
CONTINUOUS
370
    -3
390
F
  0
LAYER
  5
1DE
330
2
100
AcDbSymbolTableRecord
100
AcDbLayerTableRecord
  2
11100_LEFT_DIM
 70
     0
 62
     7
  6
CONTINUOUS
370
    -3
390
F
  0
LAYER
  5
2768E
330
2
100
AcDbSymbolTableRecord
100
AcDbLayerTableRecord
  2
14000_Bottom
 70
     0
 62
     7
  6
CONTINUOUS
370
    -3
390
F
  0
LAYER
  5
2768F
330
2
100
AcDbSymbolTableRecord
100
AcDbLayerTableRecord
  2
14100_Bottom_Dim
 70
     0
 62
     7
  6
CONTINUOUS
370
    -3
390
F
  0
LAYER
  5
27E03
330
2
100
AcDbSymbolTableRecord
100
AcDbLayerTableRecord
  2
30000_Drilling
 70
     0
 62
     7
  6
CONTINUOUS
370
    -3
390
F
  0
LAYER
  5
27E04
330
2
100
AcDbSymbolTableRecord
100
AcDbLayerTableRecord
  2
30100_Drilling_Dim
 70
     0
 62
     7
  6
CONTINUOUS
370
    -3
390
F
  0
ENDTAB
  0
TABLE
  2
STYLE
  5
3
330
0
100
AcDbSymbolTable
 70
     2
  0
STYLE
  5
11
330
3
100
AcDbSymbolTableRecord
100
AcDbTextStyleTableRecord
  2
Standard
 70
     0
 40
0.0
 41
1.0
 50
0.0
 71
     0
 42
0.2
  3
txt
  4

  0
STYLE
  5
27066
330
3
100
AcDbSymbolTableRecord
100
AcDbTextStyleTableRecord
  2
TAHOMA
 70
     0
 40
0.0
 41
1.0
 50
0.0
 71
     0
 42
3.0
  3
TAHOMA.TTF
  4

1001
ACAD
1000
Tahoma
1071
       34
  0
ENDTAB
  0
TABLE
  2
VIEW
  5
6
330
0
100
AcDbSymbolTable
 70
     0
  0
ENDTAB
  0
TABLE
  2
UCS
  5
7
330
0
100
AcDbSymbolTable
 70
     0
  0
ENDTAB
  0
TABLE
  2
APPID
  5
9
330
0
100
AcDbSymbolTable
 70
     3
  0
APPID
  5
12
330
9
100
AcDbSymbolTableRecord
100
AcDbRegAppTableRecord
  2
ACAD
 70
     0
  0
APPID
  5
1E8
330
9
100
AcDbSymbolTableRecord
100
AcDbRegAppTableRecord
  2
AUSTER_ANSICHT
 70
     0
  0
APPID
  5
1E9
330
9
100
AcDbSymbolTableRecord
100
AcDbRegAppTableRecord
  2
AUSTER_FOLIE
 70
     0
  0
ENDTAB
  0
TABLE
  2
DIMSTYLE
  5
A
330
0
100
AcDbSymbolTable
 70
     3
100
AcDbDimStyleTable
 71
     3
340
1E7
340
3A1A
340
BA
  0
DIMSTYLE
105
BA
330
A
100
AcDbSymbolTableRecord
100
AcDbDimStyleTableRecord
  2
Standard
 70
     0
340
11
  0
DIMSTYLE
105
1E7
102
{ACAD_REACTORS
330
27C90
330
27C9D
330
27C83
330
27C76
330
27CE0
330
27D1B
330
27D0E
330
27D02
330
27CF6
102
}
330
A
100
AcDbSymbolTableRecord
100
AcDbDimStyleTableRecord
  2
DSTYLE1
 70
     0
 41
3.0
 42
0.0
 44
1.0
 73
     0
 74
     0
 77
     1
 78
     3
140
2.5
143
0.039370079
147
1.0
271
     3
272
     3
274
     0
279
     2
340
11
  0
DIMSTYLE
105
3A1A
102
{ACAD_REACTORS
330
27C5C
330
27C69
102
}
330
A
100
AcDbSymbolTableRecord
100
AcDbDimStyleTableRecord
  2
H035
 70
     0
 40
0.0
 41
3.5
 42
0.0
 43
3.75
 44
2.0
 73
     0
 74
     0
 77
     1
 78
     8
140
3.5
141
2.5
143
0.039
147
0.5
171
     4
172
     1
176
   256
177
     7
178
     7
271
     0
272
     2
273
     8
274
     4
340
11
  0
ENDTAB
  0
TABLE
  2
BLOCK_RECORD
  5
1
330
0
100
AcDbSymbolTable
 70
    12
  0
BLOCK_RECORD
  5
20
330
1
100
AcDbSymbolTableRecord
100
AcDbBlockTableRecord
  2
*Model_Space
340
23
  0
BLOCK_RECORD
  5
1C
330
1
100
AcDbSymbolTableRecord
100
AcDbBlockTableRecord
  2
*Paper_Space
340
1F
  0
BLOCK_RECORD
  5
3A
330
1
100
AcDbSymbolTableRecord
100
AcDbBlockTableRecord
  2
SIEMENS_OUTLINE_BL0
340
0
102
{BLKREFS
331
8CC5
102
}
  0
BLOCK_RECORD
  5
27C5D
330
1
100
AcDbSymbolTableRecord
100
AcDbBlockTableRecord
  2
*D1
340
0
  0
BLOCK_RECORD
  5
27C6A
330
1
100
AcDbSymbolTableRecord
100
AcDbBlockTableRecord
  2
*D2
340
0
  0
BLOCK_RECORD
  5
27C77
330
1
100
AcDbSymbolTableRecord
100
AcDbBlockTableRecord
  2
*D3
340
0
  0
BLOCK_RECORD
  5
27C84
330
1
100
AcDbSymbolTableRecord
100
AcDbBlockTableRecord
  2
*D4
340
0
  0
BLOCK_RECORD
  5
27C91
330
1
100
AcDbSymbolTableRecord
100
AcDbBlockTableRecord
  2
*D5
340
0
  0
BLOCK_RECORD
  5
27C9E
330
1
100
AcDbSymbolTableRecord
100
AcDbBlockTableRecord
  2
*D6
340
0
  0
BLOCK_RECORD
  5
27CE1
330
1
100
AcDbSymbolTableRecord
100
AcDbBlockTableRecord
  2
*D7
340
0
  0
BLOCK_RECORD
  5
27CF7
330
1
100
AcDbSymbolTableRecord
100
AcDbBlockTableRecord
  2
*D8
340
0
  0
BLOCK_RECORD
  5
27D03
330
1
100
AcDbSymbolTableRecord
100
AcDbBlockTableRecord
  2
*D9
340
0
  0
BLOCK_RECORD
  5
27D0F
330
1
100
AcDbSymbolTableRecord
100
AcDbBlockTableRecord
  2
*D10
340
0
  0
BLOCK_RECORD
  5
27D1C
330
1
100
AcDbSymbolTableRecord
100
AcDbBlockTableRecord
  2
*D11
340
0
  0
ENDTAB
  0
ENDSEC
  0
SECTION
  2
BLOCKS
  0
BLOCK
  5
21
330
20
100
AcDbEntity
  8
0
100
AcDbBlockBegin
  2
*Model_Space
 70
     0
 10
0.0
 20
0.0
 30
0.0
  3
*Model_Space
  1

  0
ENDBLK
  5
22
330
20
100
AcDbEntity
  8
0
100
AcDbBlockEnd
  0
BLOCK
  5
1D
330
1C
100
AcDbEntity
 67
     1
  8
0
100
AcDbBlockBegin
  2
*Paper_Space
 70
     0
 10
0.0
 20
0.0
 30
0.0
  3
*Paper_Space
  1

  0
ENDBLK
  5
1E
330
1C
100
AcDbEntity
 67
     1
  8
0
100
AcDbBlockEnd
  0
BLOCK
  5
3B
330
3A
100
AcDbEntity
  8
0
  6
Continuous
 62
     7
100
AcDbBlockBegin
  2
SIEMENS_OUTLINE_BL0
 70
     0
 10
0.0
 20
0.0
 30
0.0
  3
SIEMENS_OUTLINE_BL0
  1

  0
LINE
  5
3C
330
3A
100
AcDbEntity
  8
0
  6
Continuous
 62
     7
100
AcDbLine
 10
289.1235341257
 20
21.4969115175
 30
0.0
 11
289.1235341257
 21
16.7436424342
 31
0.0
  0
LINE
  5
3D
330
3A
100
AcDbEntity
  8
0
  6
Continuous
 62
     7
100
AcDbLine
 10
290.5495148507
 20
21.4969115175
 30
0.0
 11
290.5495148507
 21
16.7436424342
 31
0.0
  0
LINE
  5
3E
330
3A
100
AcDbEntity
  8
0
  6
Continuous
 62
     7
100
AcDbLine
 10
289.1235341257
 20
16.7436424342
 30
0.0
 11
290.5495148507
 21
16.7436424342
 31
0.0
  0
LINE
  5
3F
330
3A
100
AcDbEntity
  8
0
  6
Continuous
 62
     7
100
AcDbLine
 10
289.1235341257
 20
21.4969115175
 30
0.0
 11
290.5495148507
 21
21.4969115175
 31
0.0
  0
LINE
  5
40
330
3A
100
AcDbEntity
  8
0
  6
Continuous
 62
     7
100
AcDbLine
 10
291.6427667399
 20
21.4969115175
 30
0.0
 11
291.6427667399
 21
16.7436424342
 31
0.0
  0
LINE
  5
41
330
3A
100
AcDbEntity
  8
0
  6
Continuous
 62
     7
100
AcDbLine
 10
291.6427667399
 20
16.7436424342
 30
0.0
 11
295.2077185523
 21
16.7436424342
 31
0.0
  0
LINE
  5
42
330
3A
100
AcDbEntity
  8
0
  6
Continuous
 62
     7
100
AcDbLine
 10
295.2077185523
 20
17.64676356
 30
0.0
 11
293.021214774
 21
17.64676356
 31
0.0
  0
LINE
  5
43
330
3A
100
AcDbEntity
  8
0
  6
Continuous
 62
     7
100
AcDbLine
 10
295.2077185523
 20
17.64676356
 30
0.0
 11
295.2077185523
 21
16.7436424342
 31
0.0
  0
LINE
  5
44
330
3A
100
AcDbEntity
  8
0
  6
Continuous
 62
     7
100
AcDbLine
 10
295.1601858615
 20
21.4969115175
 30
0.0
 11
291.6427667399
 21
21.4969115175
 31
0.0
  0
LINE
  5
45
330
3A
100
AcDbEntity
  8
0
  6
Continuous
 62
     7
100
AcDbLine
 10
295.1601858615
 20
20.6175567371
 30
0.0
 11
293.021214774
 21
20.6175567371
 31
0.0
  0
LINE
  5
46
330
3A
100
AcDbEntity
  8
0
  6
Continuous
 62
     7
100
AcDbLine
 10
295.1601858615
 20
21.4969115175
 30
0.0
 11
295.1601858615
 21
20.6175567371
 31
0.0
  0
LINE
  5
47
330
3A
100
AcDbEntity
  8
0
  6
Continuous
 62
     7
100
AcDbLine
 10
294.8749897165
 20
18.7637817946
 30
0.0
 11
293.021214774
 21
18.7637817946
 31
0.0
  0
LINE
  5
48
330
3A
100
AcDbEntity
  8
0
  6
Continuous
 62
     7
100
AcDbLine
 10
294.8749897165
 20
19.5480711933
 30
0.0
 11
294.8749897165
 21
18.7637817946
 31
0.0
  0
LINE
  5
49
330
3A
100
AcDbEntity
  8
0
  6
Continuous
 62
     7
100
AcDbLine
 10
294.8749897165
 20
19.5480711933
 30
0.0
 11
293.021214774
 21
19.5480711933
 31
0.0
  0
LINE
  5
4A
330
3A
100
AcDbEntity
  8
0
  6
Continuous
 62
     7
100
AcDbLine
 10
293.021214774
 20
20.6175567371
 30
0.0
 11
293.021214774
 21
19.5480711933
 31
0.0
  0
LINE
  5
4B
330
3A
100
AcDbEntity
  8
0
  6
Continuous
 62
     7
100
AcDbLine
 10
293.021214774
 20
18.7637817946
 30
0.0
 11
293.021214774
 21
17.64676356
 31
0.0
  0
LINE
  5
4C
330
3A
100
AcDbEntity
  8
0
  6
Continuous
 62
     7
100
AcDbLine
 10
296.0157742965
 20
16.7436424342
 30
0.0
 11
296.0157742965
 21
21.4969115175
 31
0.0
  0
LINE
  5
4D
330
3A
100
AcDbEntity
  8
0
  6
Continuous
 62
     7
100
AcDbLine
 10
296.0157742965
 20
16.7436424342
 30
0.0
 11
296.9664281131
 21
16.7436424342
 31
0.0
  0
LINE
  5
4E
330
3A
100
AcDbEntity
  8
0
  6
Continuous
 62
     7
100
AcDbLine
 10
301.8622952689
 20
21.4969115175
 30
0.0
 11
301.8622952689
 21
16.7436424342
 31
0.0
  0
LINE
  5
4F
330
3A
100
AcDbEntity
  8
0
  6
Continuous
 62
     7
100
AcDbLine
 10
301.8622952689
 20
16.7436424342
 30
0.0
 11
300.4838472348
 21
16.7436424342
 31
0.0
  0
LINE
  5
50
330
3A
100
AcDbEntity
  8
0
  6
Continuous
 62
     7
100
AcDbLine
 10
298.2973434565
 20
16.6961097434
 30
0.0
 11
299.1529318914
 21
16.6961097434
 31
0.0
  0
LINE
  5
51
330
3A
100
AcDbEntity
  8
0
  6
Continuous
 62
     7
100
AcDbLine
 10
298.2973434565
 20
16.6961097434
 30
0.0
 11
296.9664281131
 21
19.7857346475
 31
0.0
  0
LINE
  5
52
330
3A
100
AcDbEntity
  8
0
  6
Continuous
 62
     7
100
AcDbLine
 10
296.9664281131
 20
16.7436424342
 30
0.0
 11
296.9664281131
 21
19.7857346475
 31
0.0
  0
LINE
  5
53
330
3A
100
AcDbEntity
  8
0
  6
Continuous
 62
     7
100
AcDbLine
 10
300.4838472348
 20
19.8332673383
 30
0.0
 11
299.1529318914
 21
16.6961097434
 31
0.0
  0
LINE
  5
54
330
3A
100
AcDbEntity
  8
0
  6
Continuous
 62
     7
100
AcDbLine
 10
297.7269511665
 20
21.4969115175
 30
0.0
 11
296.0157742965
 21
21.4969115175
 31
0.0
  0
LINE
  5
55
330
3A
100
AcDbEntity
  8
0
  6
Continuous
 62
     7
100
AcDbLine
 10
301.8622952689
 20
21.4969115175
 30
0.0
 11
300.1511183989
 21
21.4969115175
 31
0.0
  0
LINE
  5
56
330
3A
100
AcDbEntity
  8
0
  6
Continuous
 62
     7
100
AcDbLine
 10
297.7269511665
 20
21.4969115175
 30
0.0
 11
298.9628011281
 21
18.5974173767
 31
0.0
  0
LINE
  5
57
330
3A
100
AcDbEntity
  8
0
  6
Continuous
 62
     7
100
AcDbLine
 10
300.1511183989
 20
21.4969115175
 30
0.0
 11
298.9628011281
 21
18.5974173767
 31
0.0
  0
LINE
  5
58
330
3A
100
AcDbEntity
  8
0
  6
Continuous
 62
     7
100
AcDbLine
 10
300.4838472348
 20
19.8332673383
 30
0.0
 11
300.4838472348
 21
16.7436424342
 31
0.0
  0
LINE
  5
59
330
3A
100
AcDbEntity
  8
0
  6
Continuous
 62
     7
100
AcDbLine
 10
302.9555471581
 20
21.4969115175
 30
0.0
 11
302.9555471581
 21
16.7436424342
 31
0.0
  0
LINE
  5
5A
330
3A
100
AcDbEntity
  8
0
  6
Continuous
 62
     7
100
AcDbLine
 10
302.9555471581
 20
16.7436424342
 30
0.0
 11
306.5204989705
 21
16.7436424342
 31
0.0
  0
LINE
  5
5B
330
3A
100
AcDbEntity
  8
0
  6
Continuous
 62
     7
100
AcDbLine
 10
306.5204989705
 20
17.64676356
 30
0.0
 11
304.3339951922
 21
17.64676356
 31
0.0
  0
LINE
  5
5C
330
3A
100
AcDbEntity
  8
0
  6
Continuous
 62
     7
100
AcDbLine
 10
306.5204989705
 20
17.64676356
 30
0.0
 11
306.5204989705
 21
16.7436424342
 31
0.0
  0
LINE
  5
5D
330
3A
100
AcDbEntity
  8
0
  6
Continuous
 62
     7
100
AcDbLine
 10
306.4729662797
 20
21.4969115175
 30
0.0
 11
302.9555471581
 21
21.4969115175
 31
0.0
  0
LINE
  5
5E
330
3A
100
AcDbEntity
  8
0
  6
Continuous
 62
     7
100
AcDbLine
 10
306.4729662797
 20
20.6175567371
 30
0.0
 11
304.3339951922
 21
20.6175567371
 31
0.0
  0
LINE
  5
5F
330
3A
100
AcDbEntity
  8
0
  6
Continuous
 62
     7
100
AcDbLine
 10
306.4729662797
 20
21.4969115175
 30
0.0
 11
306.4729662797
 21
20.6175567371
 31
0.0
  0
LINE
  5
60
330
3A
100
AcDbEntity
  8
0
  6
Continuous
 62
     7
100
AcDbLine
 10
306.1877701347
 20
18.7637817946
 30
0.0
 11
304.3339951922
 21
18.7637817946
 31
0.0
  0
LINE
  5
61
330
3A
100
AcDbEntity
  8
0
  6
Continuous
 62
     7
100
AcDbLine
 10
306.1877701347
 20
19.5480711933
 30
0.0
 11
306.1877701347
 21
18.7637817946
 31
0.0
  0
LINE
  5
62
330
3A
100
AcDbEntity
  8
0
  6
Continuous
 62
     7
100
AcDbLine
 10
306.1877701347
 20
19.5480711933
 30
0.0
 11
304.3339951922
 21
19.5480711933
 31
0.0
  0
LINE
  5
63
330
3A
100
AcDbEntity
  8
0
  6
Continuous
 62
     7
100
AcDbLine
 10
304.3339951922
 20
20.6175567371
 30
0.0
 11
304.3339951922
 21
19.5480711933
 31
0.0
  0
LINE
  5
64
330
3A
100
AcDbEntity
  8
0
  6
Continuous
 62
     7
100
AcDbLine
 10
304.3339951922
 20
18.7637817946
 30
0.0
 11
304.3339951922
 21
17.64676356
 31
0.0
  0
LINE
  5
65
330
3A
100
AcDbEntity
  8
0
  6
Continuous
 62
     7
100
AcDbLine
 10
307.3047883693
 20
16.7436424342
 30
0.0
 11
307.3047883693
 21
21.4969115175
 31
0.0
  0
LINE
  5
66
330
3A
100
AcDbEntity
  8
0
  6
Continuous
 62
     7
100
AcDbLine
 10
311.4876651625
 20
21.4969115175
 30
0.0
 11
311.4876651625
 21
16.7436424342
 31
0.0
  0
LINE
  5
67
330
3A
100
AcDbEntity
  8
0
  6
Continuous
 62
     7
100
AcDbLine
 10
307.3047883693
 20
16.7436424342
 30
0.0
 11
308.2554421859
 21
16.7436424342
 31
0.0
  0
LINE
  5
68
330
3A
100
AcDbEntity
  8
0
  6
Continuous
 62
     7
100
AcDbLine
 10
311.4876651625
 20
21.4969115175
 30
0.0
 11
310.5370113459
 21
21.4969115175
 31
0.0
  0
LINE
  5
69
330
3A
100
AcDbEntity
  8
0
  6
Continuous
 62
     7
100
AcDbLine
 10
308.8496008213
 20
21.4969115175
 30
0.0
 11
307.3047883693
 21
21.4969115175
 31
0.0
  0
LINE
  5
6A
330
3A
100
AcDbEntity
  8
0
  6
Continuous
 62
     7
100
AcDbLine
 10
311.4876651625
 20
16.7436424342
 30
0.0
 11
309.9666190559
 21
16.7436424342
 31
0.0
  0
LINE
  5
6B
330
3A
100
AcDbEntity
  8
0
  6
Continuous
 62
     7
100
AcDbLine
 10
309.9666190559
 20
16.7436424342
 30
0.0
 11
308.2554421859
 21
19.7857346475
 31
0.0
  0
LINE
  5
6C
330
3A
100
AcDbEntity
  8
0
  6
Continuous
 62
     7
100
AcDbLine
 10
308.8496008213
 20
21.4969115175
 30
0.0
 11
310.5370113459
 21
18.5498846858
 31
0.0
  0
LINE
  5
6D
330
3A
100
AcDbEntity
  8
0
  6
Continuous
 62
     7
100
AcDbLine
 10
310.5370113459
 20
21.4969115175
 30
0.0
 11
310.5370113459
 21
18.5498846858
 31
0.0
  0
LINE
  5
6E
330
3A
100
AcDbEntity
  8
0
  6
Continuous
 62
     7
100
AcDbLine
 10
308.2554421859
 20
16.7436424342
 30
0.0
 11
308.2554421859
 21
19.7857346475
 31
0.0
  0
LINE
  5
6F
330
3A
100
AcDbEntity
  8
0
  6
Continuous
 62
     7
100
AcDbLine
 10
312.2957209067
 20
16.8387078159
 30
0.0
 11
312.2957209067
 21
17.7893616325
 31
0.0
  0
LINE
  5
70
330
3A
100
AcDbEntity
  8
0
  6
Continuous
 62
     7
100
AcDbLine
 10
315.623009265
 20
20.49872501
 30
0.0
 11
315.623009265
 21
21.4493788266
 31
0.0
  0
ARC
  5
71
330
3A
100
AcDbEntity
  8
0
  6
Continuous
 62
     7
100
AcDbCircle
 10
314.0003620317
 20
18.7008009792
 30
0.0
 40
1.111619360599997
100
AcDbArc
 50
277.7099956934
 51
295.6884927746
  0
ARC
  5
72
330
3A
100
AcDbEntity
  8
0
  6
Continuous
 62
     7
100
AcDbCircle
 10
314.2846720145
 20
17.9759752156
 30
0.0
 40
0.3401689265
100
AcDbArc
 50
305.503221255
 51
72.46528985229999
  0
ARC
  5
73
330
3A
100
AcDbEntity
  8
0
  6
Continuous
 62
     7
100
AcDbCircle
 10
313.7186782063
 20
21.3776821252
 30
0.0
 40
4.756794641099999
100
AcDbArc
 50
252.5939200548001
 51
280.9816604256
  0
ARC
  5
74
330
3A
100
AcDbEntity
  8
0
  6
Continuous
 62
     7
100
AcDbCircle
 10
314.1735135694
 20
18.7596683887
 30
0.0
 40
2.100726595299998
100
AcDbArc
 50
282.405835852
 51
311.8644433928
  0
ARC
  5
75
330
3A
100
AcDbEntity
  8
0
  6
Continuous
 62
     7
100
AcDbCircle
 10
313.8999492223
 20
20.3680101102
 30
0.0
 40
0.3029626476
100
AcDbArc
 50
154.4400348282
 51
221.8201698801
  0
ARC
  5
76
330
3A
100
AcDbEntity
  8
0
  6
Continuous
 62
     7
100
AcDbCircle
 10
313.9791703737
 20
20.2887889588
 30
0.0
 40
0.4103089737
100
AcDbArc
 50
102.8287828681
 51
149.2259639003
  0
ARC
  5
77
330
3A
100
AcDbEntity
  8
0
  6
Continuous
 62
     7
100
AcDbCircle
 10
314.3961972093
 20
18.546453629
 30
0.0
 40
2.201836557
100
AcDbArc
 50
84.0400061857
 51
103.3427657870999
  0
ARC
  5
78
330
3A
100
AcDbEntity
  8
0
  6
Continuous
 62
     7
100
AcDbCircle
 10
314.0552333846
 20
16.1290897051
 30
0.0
 40
4.642373736499997
100
AcDbArc
 50
70.2625858546
 51
82.95241863799999
  0
ARC
  5
79
330
3A
100
AcDbEntity
  8
0
  6
Continuous
 62
     7
100
AcDbCircle
 10
313.5412151824001
 20
20.8007125947
 30
0.0
 40
3.258755990899997
100
AcDbArc
 50
247.5300206145
 51
280.7579522143
  0
ARC
  5
7A
330
3A
100
AcDbEntity
  8
0
  6
Continuous
 62
     7
100
AcDbCircle
 10
307.1562487104
 20
2.5491926343
 30
0.0
 40
17.3316084133
100
AcDbArc
 50
65.34146746500001
 51
67.39977707359999
  0
ARC
  5
7B
330
3A
100
AcDbEntity
  8
0
  6
Continuous
 62
     7
100
AcDbCircle
 10
317.9521111158
 20
28.3416189974
 30
0.0
 40
10.6291642039
100
AcDbArc
 50
242.8620101252001
 51
247.1042029186
  0
ARC
  5
7C
330
3A
100
AcDbEntity
  8
0
  6
Continuous
 62
     7
100
AcDbCircle
 10
314.0972098893
 20
20.8076875004
 30
0.0
 40
2.166291629199998
100
AcDbArc
 50
227.3119280794
 51
242.7040315235
  0
ARC
  5
7D
330
3A
100
AcDbEntity
  8
0
  6
Continuous
 62
     7
100
AcDbCircle
 10
313.4931790796
 20
20.1020098596
 30
0.0
 40
1.238521734
100
AcDbArc
 50
194.7952194236
 51
225.7176549047
  0
ARC
  5
7E
330
3A
100
AcDbEntity
  8
0
  6
Continuous
 62
     7
100
AcDbCircle
 10
313.5553372138
 20
20.1422298287
 30
0.0
 40
1.309092072899999
100
AcDbArc
 50
164.1974860461
 51
195.8025139539
  0
ARC
  5
7F
330
3A
100
AcDbEntity
  8
0
  6
Continuous
 62
     7
100
AcDbCircle
 10
314.1123609345001
 20
19.2539626688
 30
0.0
 40
2.366924815299999
100
AcDbArc
 50
86.22180229280001
 51
120.4272602309
  0
ARC
  5
80
330
3A
100
AcDbEntity
  8
0
  6
Continuous
 62
     7
100
AcDbCircle
 10
313.8435041519
 20
12.5577948477
 30
0.0
 40
9.0679051661
100
AcDbArc
 50
78.68270492259998
 51
87.3147599624
  0
ARC
  5
81
330
3A
100
AcDbEntity
  8
0
  6
Continuous
 62
     7
100
AcDbCircle
 10
313.3874349735
 20
20.2497375912
 30
0.0
 40
1.119747444
100
AcDbArc
 50
142.813917903
 51
167.1522951417
  0
ARC
  5
82
330
3A
100
AcDbEntity
  8
0
  6
Continuous
 62
     7
100
AcDbCircle
 10
313.7327443151
 20
19.9431558946
 30
0.0
 40
1.580546684499998
100
AcDbArc
 50
121.2140948535
 51
141.5254768286
  0
ARC
  5
83
330
3A
100
AcDbEntity
  8
0
  6
Continuous
 62
     7
100
AcDbCircle
 10
314.3099186807
 20
20.7542132232
 30
0.0
 40
0.8661276051999998
100
AcDbArc
 50
222.7760387596
 51
239.0362434679
  0
ARC
  5
84
330
3A
100
AcDbEntity
  8
0
  6
Continuous
 62
     7
100
AcDbCircle
 10
311.8032091024
 20
13.4239410246
 30
0.0
 40
6.858773576299999
100
AcDbArc
 50
59.90202725600001
 51
68.2036481279
  0
ARC
  5
85
330
3A
100
AcDbEntity
  8
0
  6
Continuous
 62
     7
100
AcDbCircle
 10
315.2117035963
 20
22.3498275319
 30
0.0
 40
2.698741017099999
100
AcDbArc
 50
240.0481997804
 51
251.3779673736999
  0
ARC
  5
86
330
3A
100
AcDbEntity
  8
0
  6
Continuous
 62
     7
100
AcDbCircle
 10
314.5462464295
 20
18.1929289165
 30
0.0
 40
1.4334474881
100
AcDbArc
 50
315.8904553224
 51
333.5229264373
  0
ARC
  5
87
330
3A
100
AcDbEntity
  8
0
  6
Continuous
 62
     7
100
AcDbCircle
 10
314.5508846732
 20
18.1395217664
 30
0.0
 40
1.406228711899998
100
AcDbArc
 50
335.3867972702
 51
24.3915119402
  0
ARC
  5
88
330
3A
100
AcDbEntity
  8
0
  6
Continuous
 62
     7
100
AcDbCircle
 10
314.4786797697
 20
18.0616650746
 30
0.0
 40
1.504702514799999
100
AcDbArc
 50
25.95629166050001
 51
59.4834829668
  0
LINE
  5
89
330
3A
100
AcDbEntity
  8
0
  6
Continuous
 62
     7
100
AcDbLine
 10
284.7029938783
 20
16.8387078159
 30
0.0
 11
284.7029938783
 21
17.7893616325
 31
0.0
  0
LINE
  5
8A
330
3A
100
AcDbEntity
  8
0
  6
Continuous
 62
     7
100
AcDbLine
 10
288.0302822366
 20
20.49872501
 30
0.0
 11
288.0302822366
 21
21.4493788266
 31
0.0
  0
ARC
  5
8B
330
3A
100
AcDbEntity
  8
0
  6
Continuous
 62
     7
100
AcDbCircle
 10
286.4076350033
 20
18.7008009792
 30
0.0
 40
1.111619360599997
100
AcDbArc
 50
277.7099956934
 51
295.6884927746
  0
ARC
  5
8C
330
3A
100
AcDbEntity
  8
0
  6
Continuous
 62
     7
100
AcDbCircle
 10
286.691944986
 20
17.9759752156
 30
0.0
 40
0.3401689265
100
AcDbArc
 50
305.5032212556
 51
72.4652898515
  0
ARC
  5
8D
330
3A
100
AcDbEntity
  8
0
  6
Continuous
 62
     7
100
AcDbCircle
 10
286.1259511779
 20
21.3776821252
 30
0.0
 40
4.756794641099999
100
AcDbArc
 50
252.5939200545
 51
280.9816604253
  0
ARC
  5
8E
330
3A
100
AcDbEntity
  8
0
  6
Continuous
 62
     7
100
AcDbCircle
 10
286.580786541
 20
18.7596683887
 30
0.0
 40
2.100726595299998
100
AcDbArc
 50
282.4058358513
 51
311.8644433923
  0
ARC
  5
8F
330
3A
100
AcDbEntity
  8
0
  6
Continuous
 62
     7
100
AcDbCircle
 10
286.3072221939
 20
20.3680101102
 30
0.0
 40
0.3029626476
100
AcDbArc
 50
154.4400348282
 51
221.8201698801
  0
ARC
  5
90
330
3A
100
AcDbEntity
  8
0
  6
Continuous
 62
     7
100
AcDbCircle
 10
286.3864433453
 20
20.2887889588
 30
0.0
 40
0.4103089737
100
AcDbArc
 50
102.8287828727
 51
149.2259639027
  0
ARC
  5
91
330
3A
100
AcDbEntity
  8
0
  6
Continuous
 62
     7
100
AcDbCircle
 10
286.8034701809
 20
18.546453629
 30
0.0
 40
2.201836557
100
AcDbArc
 50
84.0400061859
 51
103.3427657872
  0
ARC
  5
92
330
3A
100
AcDbEntity
  8
0
  6
Continuous
 62
     7
100
AcDbCircle
 10
286.4625063562
 20
16.1290897051
 30
0.0
 40
4.642373736499997
100
AcDbArc
 50
70.2625858546
 51
82.9524186379
  0
ARC
  5
93
330
3A
100
AcDbEntity
  8
0
  6
Continuous
 62
     7
100
AcDbCircle
 10
285.948488154
 20
20.8007125947
 30
0.0
 40
3.258755990899997
100
AcDbArc
 50
247.5300206148
 51
280.7579522145
  0
ARC
  5
94
330
3A
100
AcDbEntity
  8
0
  6
Continuous
 62
     7
100
AcDbCircle
 10
279.563521682
 20
2.5491926343
 30
0.0
 40
17.3316084133
100
AcDbArc
 50
65.34146746500001
 51
67.39977707359999
  0
ARC
  5
95
330
3A
100
AcDbEntity
  8
0
  6
Continuous
 62
     7
100
AcDbCircle
 10
290.3593840874
 20
28.3416189974
 30
0.0
 40
10.6291642039
100
AcDbArc
 50
242.8620101252001
 51
247.1042029185
  0
ARC
  5
96
330
3A
100
AcDbEntity
  8
0
  6
Continuous
 62
     7
100
AcDbCircle
 10
286.5044828608
 20
20.8076875004
 30
0.0
 40
2.166291629199998
100
AcDbArc
 50
227.3119280794
 51
242.7040315235
  0
ARC
  5
97
330
3A
100
AcDbEntity
  8
0
  6
Continuous
 62
     7
100
AcDbCircle
 10
285.9004520512
 20
20.1020098596
 30
0.0
 40
1.238521734
100
AcDbArc
 50
194.7952194234
 51
225.7176549042
  0
ARC
  5
98
330
3A
100
AcDbEntity
  8
0
  6
Continuous
 62
     7
100
AcDbCircle
 10
286.519633906
 20
19.2539626688
 30
0.0
 40
2.366924815299999
100
AcDbArc
 50
86.22180229280001
 51
120.4272602309
  0
ARC
  5
99
330
3A
100
AcDbEntity
  8
0
  6
Continuous
 62
     7
100
AcDbCircle
 10
286.2507771235
 20
12.5577948477
 30
0.0
 40
9.0679051661
100
AcDbArc
 50
78.68270492259998
 51
87.3147599624
  0
ARC
  5
9A
330
3A
100
AcDbEntity
  8
0
  6
Continuous
 62
     7
100
AcDbCircle
 10
286.1400172867
 20
19.9431558946
 30
0.0
 40
1.580546684599998
100
AcDbArc
 50
121.2140948541
 51
141.525476829
  0
ARC
  5
9B
330
3A
100
AcDbEntity
  8
0
  6
Continuous
 62
     7
100
AcDbCircle
 10
286.7171916523
 20
20.7542132232
 30
0.0
 40
0.8661276051999998
100
AcDbArc
 50
222.7760387596
 51
239.0362434679
  0
ARC
  5
9C
330
3A
100
AcDbEntity
  8
0
  6
Continuous
 62
     7
100
AcDbCircle
 10
284.210482074
 20
13.4239410246
 30
0.0
 40
6.858773576299999
100
AcDbArc
 50
59.90202725620001
 51
68.20364812820002
  0
ARC
  5
9D
330
3A
100
AcDbEntity
  8
0
  6
Continuous
 62
     7
100
AcDbCircle
 10
287.6189765678
 20
22.3498275319
 30
0.0
 40
2.698741017099999
100
AcDbArc
 50
240.0481997804
 51
251.3779673734
  0
ARC
  5
9E
330
3A
100
AcDbEntity
  8
0
  6
Continuous
 62
     7
100
AcDbCircle
 10
286.953519401
 20
18.1929289165
 30
0.0
 40
1.4334474881
100
AcDbArc
 50
315.8904553226
 51
333.5229264375
  0
ARC
  5
9F
330
3A
100
AcDbEntity
  8
0
  6
Continuous
 62
     7
100
AcDbCircle
 10
286.9581576447
 20
18.1395217664
 30
0.0
 40
1.406228711899998
100
AcDbArc
 50
335.3867972703
 51
24.3915119403
  0
ARC
  5
A0
330
3A
100
AcDbEntity
  8
0
  6
Continuous
 62
     7
100
AcDbCircle
 10
286.8859527412
 20
18.0616650746
 30
0.0
 40
1.504702514699999
100
AcDbArc
 50
25.9562916611
 51
59.4834829676
  0
LINE
  5
A1
330
3A
100
AcDbEntity
  8
0
  6
Continuous
 62
     7
100
AcDbLine
 10
284.8948224676
 20
20.9161059766
 30
0.0
 11
285.1688882922
 21
21.1901790542
 31
0.0
  0
ARC
  5
A2
330
3A
100
AcDbEntity
  8
0
  6
Continuous
 62
     7
100
AcDbCircle
 10
285.9626101853
 20
20.1422298287
 30
0.0
 40
1.309092072899999
100
AcDbArc
 50
164.1974860461
 51
195.8025139539
  0
ARC
  5
A3
330
3A
100
AcDbEntity
  8
0
  6
Continuous
 62
     7
100
AcDbCircle
 10
285.7947079451
 20
20.2497375912
 30
0.0
 40
1.119747444
100
AcDbArc
 50
142.813917903
 51
167.1522951417
  0
ENDBLK
  5
A4
330
3A
100
AcDbEntity
  8
0
100
AcDbBlockEnd
  0
BLOCK
  5
27C67
330
27C5D
100
AcDbEntity
  8
0
100
AcDbBlockBegin
  2
*D1
 70
     1
 10
0.0
 20
0.0
 30
0.0
  3
*D1
  1

  0
LINE
  5
27EBA
330
27C5D
100
AcDbEntity
  8
10100_FRONT_DIM
  6
Continuous
 62
     7
370
    -2
100
AcDbLine
 10
-19.08393741608557
 20
429.8133730923171
 30
0.0
 11
-19.08393741608557
 21
414.9273003592305
 31
0.0
  0
LINE
  5
27EBB
330
27C5D
100
AcDbEntity
  8
10100_FRONT_DIM
  6
Continuous
 62
     7
370
    -2
100
AcDbLine
 10
28.91606258391443
 20
429.8133730923171
 30
0.0
 11
28.91606258391443
 21
414.9273003592305
 31
0.0
  0
LINE
  5
27EBC
330
27C5D
100
AcDbEntity
  8
10100_FRONT_DIM
  6
Continuous
370
    -2
100
AcDbLine
 10
-15.58393741608557
 20
416.9273003592308
 30
0.0
 11
0.4993959172477638
 21
416.9273003592308
 31
0.0
  0
LINE
  5
27EBD
330
27C5D
100
AcDbEntity
  8
10100_FRONT_DIM
  6
Continuous
370
    -2
100
AcDbLine
 10
25.41606258391443
 20
416.9273003592308
 30
0.0
 11
9.332729250581095
 21
416.9273003592308
 31
0.0
  0
SOLID
  5
27EBE
330
27C5D
100
AcDbEntity
  8
10100_FRONT_DIM
  6
Continuous
100
AcDbTrace
 10
-15.58393741608557
 20
417.5106336925641
 30
0.0
 11
-15.58393741608557
 21
416.3439670258973
 31
0.0
 12
-19.08393741608557
 22
416.9273003592308
 32
0.0
 13
-19.08393741608557
 23
416.9273003592308
 33
0.0
  0
SOLID
  5
27EBF
330
27C5D
100
AcDbEntity
  8
10100_FRONT_DIM
  6
Continuous
100
AcDbTrace
 10
25.41606258391443
 20
417.5106336925641
 30
0.0
 11
25.41606258391443
 21
416.3439670258973
 31
0.0
 12
28.91606258391443
 22
416.9273003592308
 32
0.0
 13
28.91606258391443
 23
416.9273003592308
 33
0.0
  0
MTEXT
  5
27EC0
330
27C5D
100
AcDbEntity
  8
10100_FRONT_DIM
  6
Continuous
 62
     7
370
    13
100
AcDbMText
 10
4.916062583914428
 20
416.9273003592308
 30
0.0
 40
3.5
 41
0.0
 71
     5
 72
     1
  1
\A1;48
 73
     1
 44
1.0
1001
ACAD
1000
MTEXTBEGIN
1070
    73
1070
     1
1070
    44
1040
1.0
1070
    74
1070
     0
1000
MTEXTEND
  0
POINT
  5
27EC1
330
27C5D
100
AcDbEntity
  8
Defpoints
  6
Continuous
 62
     0
100
AcDbPoint
 10
-19.08393741608557
 20
429.8133730923171
 30
0.0
  0
POINT
  5
27EC2
330
27C5D
100
AcDbEntity
  8
Defpoints
  6
Continuous
 62
     0
100
AcDbPoint
 10
28.91606258391443
 20
429.8133730923171
 30
0.0
  0
POINT
  5
27EC3
330
27C5D
100
AcDbEntity
  8
Defpoints
  6
Continuous
 62
     0
100
AcDbPoint
 10
28.91606258391443
 20
416.9273003592308
 30
0.0
  0
ENDBLK
  5
27C68
330
27C5D
100
AcDbEntity
  8
0
100
AcDbBlockEnd
  0
BLOCK
  5
27C74
330
27C6A
100
AcDbEntity
  8
0
100
AcDbBlockBegin
  2
*D2
 70
     1
 10
0.0
 20
0.0
 30
0.0
  3
*D2
  1

  0
LINE
  5
27EB0
330
27C6A
100
AcDbEntity
  8
10100_FRONT_DIM
  6
Continuous
 62
     7
370
    -2
100
AcDbLine
 10
-16.78393741608556
 20
474.8233730923173
 30
0.0
 11
-28.31309154995233
 21
474.8233730923173
 31
0.0
  0
LINE
  5
27EB1
330
27C6A
100
AcDbEntity
  8
10100_FRONT_DIM
  6
Continuous
 62
     7
370
    -2
100
AcDbLine
 10
-16.1712200172562
 20
426.8146430923173
 30
0.0
 11
-28.31309154995234
 21
426.8146430923173
 31
0.0
  0
LINE
  5
27EB2
330
27C6A
100
AcDbEntity
  8
10100_FRONT_DIM
  6
Continuous
370
    -2
100
AcDbLine
 10
-26.31309154995232
 20
471.3233730923173
 30
0.0
 11
-26.31309154995234
 21
455.2356747589841
 31
0.0
  0
LINE
  5
27EB3
330
27C6A
100
AcDbEntity
  8
10100_FRONT_DIM
  6
Continuous
370
    -2
100
AcDbLine
 10
-26.31309154995234
 20
430.3146430923172
 30
0.0
 11
-26.31309154995234
 21
446.4023414256507
 31
0.0
  0
SOLID
  5
27EB4
330
27C6A
100
AcDbEntity
  8
10100_FRONT_DIM
  6
Continuous
100
AcDbTrace
 10
-26.89642488328567
 20
471.3233730923173
 30
0.0
 11
-25.729758216619
 21
471.3233730923173
 31
0.0
 12
-26.31309154995232
 22
474.8233730923173
 32
0.0
 13
-26.31309154995232
 23
474.8233730923173
 33
0.0
  0
SOLID
  5
27EB5
330
27C6A
100
AcDbEntity
  8
10100_FRONT_DIM
  6
Continuous
100
AcDbTrace
 10
-26.89642488328567
 20
430.3146430923172
 30
0.0
 11
-25.72975821661901
 21
430.3146430923172
 31
0.0
 12
-26.31309154995234
 22
426.8146430923173
 32
0.0
 13
-26.31309154995234
 23
426.8146430923173
 33
0.0
  0
MTEXT
  5
27EB6
330
27C6A
100
AcDbEntity
  8
10100_FRONT_DIM
  6
Continuous
 62
     7
370
    13
100
AcDbMText
 10
-26.31309154995241
 20
450.8190080923172
 30
0.0
 40
3.5
 41
0.0
 71
     5
 72
     1
  1
\A1;48
 11
0.0000000000000001
 21
1.0
 31
0.0
 73
     1
 44
1.0
1001
ACAD
1000
MTEXTBEGIN
1070
    73
1070
     1
1070
    44
1040
1.0
1070
    74
1070
     0
1000
MTEXTEND
  0
POINT
  5
27EB7
330
27C6A
100
AcDbEntity
  8
Defpoints
  6
Continuous
 62
     0
100
AcDbPoint
 10
-16.78393741608556
 20
474.8233730923173
 30
0.0
  0
POINT
  5
27EB8
330
27C6A
100
AcDbEntity
  8
Defpoints
  6
Continuous
 62
     0
100
AcDbPoint
 10
-16.1712200172562
 20
426.8146430923173
 30
0.0
  0
POINT
  5
27EB9
330
27C6A
100
AcDbEntity
  8
Defpoints
  6
Continuous
 62
     0
100
AcDbPoint
 10
-26.31309154995234
 20
426.8146430923173
 30
0.0
  0
ENDBLK
  5
27C75
330
27C6A
100
AcDbEntity
  8
0
100
AcDbBlockEnd
  0
BLOCK
  5
27C81
330
27C77
100
AcDbEntity
  8
0
100
AcDbBlockBegin
  2
*D3
 70
     1
 10
0.0
 20
0.0
 30
0.0
  3
*D3
  1

  0
LINE
  5
27EA6
330
27C77
100
AcDbEntity
  8
11100_LEFT_DIM
  6
Continuous
 62
     0
370
    -2
100
AcDbLine
 10
84.88620478096596
 20
478.469603092317
 30
0.0
 11
49.91307422412957
 21
478.469603092317
 31
0.0
  0
LINE
  5
27EA7
330
27C77
100
AcDbEntity
  8
11100_LEFT_DIM
  6
Continuous
 62
     0
370
    -2
100
AcDbLine
 10
85.23117478096594
 20
423.8233730923171
 30
0.0
 11
49.91307422412956
 21
423.8233730923171
 31
0.0
  0
LINE
  5
27EA8
330
27C77
100
AcDbEntity
  8
11100_LEFT_DIM
  6
Continuous
 62
     0
370
    -2
100
AcDbLine
 10
50.91307422412957
 20
475.4696030923173
 30
0.0
 11
50.91307422412956
 21
455.0631547589841
 31
0.0
  0
LINE
  5
27EA9
330
27C77
100
AcDbEntity
  8
11100_LEFT_DIM
  6
Continuous
 62
     0
370
    -2
100
AcDbLine
 10
50.91307422412956
 20
426.8233730923173
 30
0.0
 11
50.91307422412956
 21
447.2298214256507
 31
0.0
  0
SOLID
  5
27EAA
330
27C77
100
AcDbEntity
  8
11100_LEFT_DIM
  6
Continuous
 62
     0
100
AcDbTrace
 10
50.41307422412957
 20
475.4696030923173
 30
0.0
 11
51.41307422412957
 21
475.4696030923173
 31
0.0
 12
50.91307422412957
 22
478.469603092317
 32
0.0
 13
50.91307422412957
 23
478.469603092317
 33
0.0
  0
SOLID
  5
27EAB
330
27C77
100
AcDbEntity
  8
11100_LEFT_DIM
  6
Continuous
 62
     0
100
AcDbTrace
 10
50.41307422412955
 20
426.8233730923173
 30
0.0
 11
51.41307422412956
 21
426.8233730923173
 31
0.0
 12
50.91307422412956
 22
423.8233730923171
 32
0.0
 13
50.91307422412956
 23
423.8233730923171
 33
0.0
  0
MTEXT
  5
27EAC
330
27C77
100
AcDbEntity
  8
11100_LEFT_DIM
  6
Continuous
 62
     0
370
    13
100
AcDbMText
 10
50.91307422412949
 20
451.146488092317
 30
0.0
 40
3.5
 41
0.0
 71
     5
 72
     1
  1
\A1;55
 11
0.0000000000000001
 21
1.0
 31
0.0
 73
     1
 44
1.0
1001
ACAD
1000
MTEXTBEGIN
1070
    73
1070
     1
1070
    44
1040
1.0
1070
    74
1070
     0
1000
MTEXTEND
  0
POINT
  5
27EAD
330
27C77
100
AcDbEntity
  8
Defpoints
  6
Continuous
 62
     0
100
AcDbPoint
 10
85.88620478096595
 20
478.469603092317
 30
0.0
  0
POINT
  5
27EAE
330
27C77
100
AcDbEntity
  8
Defpoints
  6
Continuous
 62
     0
100
AcDbPoint
 10
86.23117478096594
 20
423.8233730923171
 30
0.0
  0
POINT
  5
27EAF
330
27C77
100
AcDbEntity
  8
Defpoints
  6
Continuous
 62
     0
100
AcDbPoint
 10
50.91307422412956
 20
423.8233730923171
 30
0.0
  0
ENDBLK
  5
27C82
330
27C77
100
AcDbEntity
  8
0
100
AcDbBlockEnd
  0
BLOCK
  5
27C8E
330
27C84
100
AcDbEntity
  8
0
100
AcDbBlockBegin
  2
*D4
 70
     1
 10
0.0
 20
0.0
 30
0.0
  3
*D4
  1

  0
LINE
  5
27E9C
330
27C84
100
AcDbEntity
  8
11100_LEFT_DIM
  6
Continuous
 62
     0
370
    -2
100
AcDbLine
 10
56.78972433658385
 20
450.8183730923173
 30
0.0
 11
59.04276111856632
 21
450.8183730923173
 31
0.0
  0
LINE
  5
27E9D
330
27C84
100
AcDbEntity
  8
11100_LEFT_DIM
  6
Continuous
 62
     0
370
    -2
100
AcDbLine
 10
82.23017478096597
 20
494.8243730923173
 30
0.0
 11
57.04276111856633
 21
494.8243730923173
 31
0.0
  0
LINE
  5
27E9E
330
27C84
100
AcDbEntity
  8
11100_LEFT_DIM
  6
Continuous
 62
     0
370
    -2
100
AcDbLine
 10
58.04276111856633
 20
453.8183730923171
 30
0.0
 11
58.04276111856633
 21
468.9047064256506
 31
0.0
  0
LINE
  5
27E9F
330
27C84
100
AcDbEntity
  8
11100_LEFT_DIM
  6
Continuous
 62
     0
370
    -2
100
AcDbLine
 10
58.04276111856633
 20
491.8243730923173
 30
0.0
 11
58.04276111856633
 21
476.7380397589838
 31
0.0
  0
SOLID
  5
27EA0
330
27C84
100
AcDbEntity
  8
11100_LEFT_DIM
  6
Continuous
 62
     0
100
AcDbTrace
 10
57.54276111856633
 20
453.8183730923171
 30
0.0
 11
58.54276111856632
 21
453.8183730923171
 31
0.0
 12
58.04276111856633
 22
450.8183730923173
 32
0.0
 13
58.04276111856633
 23
450.8183730923173
 33
0.0
  0
SOLID
  5
27EA1
330
27C84
100
AcDbEntity
  8
11100_LEFT_DIM
  6
Continuous
 62
     0
100
AcDbTrace
 10
57.54276111856633
 20
491.8243730923173
 30
0.0
 11
58.54276111856633
 21
491.8243730923173
 31
0.0
 12
58.04276111856633
 22
494.8243730923173
 32
0.0
 13
58.04276111856633
 23
494.8243730923173
 33
0.0
  0
MTEXT
  5
27EA2
330
27C84
100
AcDbEntity
  8
11100_LEFT_DIM
  6
Continuous
 62
     0
370
    13
100
AcDbMText
 10
58.04276111856625
 20
472.8213730923171
 30
0.0
 40
3.5
 41
0.0
 71
     5
 72
     1
  1
\A1;44
 11
0.0000000000000001
 21
1.0
 31
0.0
 73
     1
 44
1.0
1001
ACAD
1000
MTEXTBEGIN
1070
    73
1070
     1
1070
    44
1040
1.0
1070
    74
1070
     0
1000
MTEXTEND
  0
POINT
  5
27EA3
330
27C84
100
AcDbEntity
  8
Defpoints
  6
Continuous
 62
     0
100
AcDbPoint
 10
55.78972433658385
 20
450.8183730923173
 30
0.0
  0
POINT
  5
27EA4
330
27C84
100
AcDbEntity
  8
Defpoints
  6
Continuous
 62
     0
100
AcDbPoint
 10
83.23017478096597
 20
494.8243730923173
 30
0.0
  0
POINT
  5
27EA5
330
27C84
100
AcDbEntity
  8
Defpoints
  6
Continuous
 62
     0
100
AcDbPoint
 10
58.04276111856633
 20
494.8243730923173
 30
0.0
  0
ENDBLK
  5
27C8F
330
27C84
100
AcDbEntity
  8
0
100
AcDbBlockEnd
  0
BLOCK
  5
27C9B
330
27C91
100
AcDbEntity
  8
0
100
AcDbBlockBegin
  2
*D5
 70
     1
 10
0.0
 20
0.0
 30
0.0
  3
*D5
  1

  0
LINE
  5
27E92
330
27C91
100
AcDbEntity
  8
11100_LEFT_DIM
  6
Continuous
 62
     0
370
    -2
100
AcDbLine
 10
68.23117478096595
 20
467.3233730923173
 30
0.0
 11
68.23117478096595
 21
507.0204385629008
 31
0.0
  0
LINE
  5
27E93
330
27C91
100
AcDbEntity
  8
11100_LEFT_DIM
  6
Continuous
 62
     0
370
    -2
100
AcDbLine
 10
118.2311747809659
 20
504.5811674394696
 30
0.0
 11
118.2311747809659
 21
507.0204385629008
 31
0.0
  0
LINE
  5
27E94
330
27C91
100
AcDbEntity
  8
11100_LEFT_DIM
  6
Continuous
 62
     0
370
    -2
100
AcDbLine
 10
71.23117478096595
 20
506.0204385629008
 30
0.0
 11
89.60617478096592
 21
506.0204385629008
 31
0.0
  0
LINE
  5
27E95
330
27C91
100
AcDbEntity
  8
11100_LEFT_DIM
  6
Continuous
 62
     0
370
    -2
100
AcDbLine
 10
115.2311747809659
 20
506.0204385629008
 30
0.0
 11
96.85617478096595
 21
506.0204385629008
 31
0.0
  0
SOLID
  5
27E96
330
27C91
100
AcDbEntity
  8
11100_LEFT_DIM
  6
Continuous
 62
     0
100
AcDbTrace
 10
71.23117478096595
 20
506.5204385629008
 30
0.0
 11
71.23117478096595
 21
505.5204385629008
 31
0.0
 12
68.23117478096595
 22
506.0204385629008
 32
0.0
 13
68.23117478096595
 23
506.0204385629008
 33
0.0
  0
SOLID
  5
27E97
330
27C91
100
AcDbEntity
  8
11100_LEFT_DIM
  6
Continuous
 62
     0
100
AcDbTrace
 10
115.2311747809659
 20
506.5204385629008
 30
0.0
 11
115.2311747809659
 21
505.5204385629008
 31
0.0
 12
118.2311747809659
 22
506.0204385629008
 32
0.0
 13
118.2311747809659
 23
506.0204385629008
 33
0.0
  0
MTEXT
  5
27E98
330
27C91
100
AcDbEntity
  8
11100_LEFT_DIM
  6
Continuous
 62
     0
370
    13
100
AcDbMText
 10
93.23117478096591
 20
506.0204385629008
 30
0.0
 40
3.5
 41
0.0
 71
     5
 72
     1
  1
\A1;50
 73
     1
 44
1.0
1001
ACAD
1000
MTEXTBEGIN
1070
    73
1070
     1
1070
    44
1040
1.0
1070
    74
1070
     0
1000
MTEXTEND
  0
POINT
  5
27E99
330
27C91
100
AcDbEntity
  8
Defpoints
  6
Continuous
 62
     0
100
AcDbPoint
 10
68.23117478096595
 20
466.3233730923173
 30
0.0
  0
POINT
  5
27E9A
330
27C91
100
AcDbEntity
  8
Defpoints
  6
Continuous
 62
     0
100
AcDbPoint
 10
118.2311747809659
 20
503.5811674394696
 30
0.0
  0
POINT
  5
27E9B
330
27C91
100
AcDbEntity
  8
Defpoints
  6
Continuous
 62
     0
100
AcDbPoint
 10
118.2311747809659
 20
506.0204385629008
 30
0.0
  0
ENDBLK
  5
27C9C
330
27C91
100
AcDbEntity
  8
0
100
AcDbBlockEnd
  0
BLOCK
  5
27CA8
330
27C9E
100
AcDbEntity
  8
0
100
AcDbBlockBegin
  2
*D6
 70
     1
 10
0.0
 20
0.0
 30
0.0
  3
*D6
  1

  0
LINE
  5
28351
330
27C9E
100
AcDbEntity
  8
11100_LEFT_DIM
  6
Continuous
 62
     0
370
    -2
100
AcDbLine
 10
120.2311747809659
 20
501.9307948064482
 30
0.0
 11
120.2311747809659
 21
507.0204385629008
 31
0.0
  0
LINE
  5
28352
330
27C9E
100
AcDbEntity
  8
11100_LEFT_DIM
  6
Continuous
 62
     0
370
    -2
100
AcDbLine
 10
151.1905316751713
 20
456.353829175581
 30
0.0
 11
151.1905316751713
 21
507.0204385629008
 31
0.0
  0
LINE
  5
28353
330
27C9E
100
AcDbEntity
  8
11100_LEFT_DIM
  6
Continuous
 62
     0
370
    -2
100
AcDbLine
 10
123.2311747809659
 20
506.0204385629008
 30
0.0
 11
132.3775198947352
 21
506.0204385629008
 31
0.0
  0
LINE
  5
28354
330
27C9E
100
AcDbEntity
  8
11100_LEFT_DIM
  6
Continuous
 62
     0
370
    -2
100
AcDbLine
 10
148.1905316751713
 20
506.0204385629008
 30
0.0
 11
139.0441865614019
 21
506.0204385629008
 31
0.0
  0
SOLID
  5
28355
330
27C9E
100
AcDbEntity
  8
11100_LEFT_DIM
  6
Continuous
 62
     0
100
AcDbTrace
 10
123.2311747809659
 20
506.5204385629008
 30
0.0
 11
123.2311747809659
 21
505.5204385629008
 31
0.0
 12
120.2311747809659
 22
506.0204385629008
 32
0.0
 13
120.2311747809659
 23
506.0204385629008
 33
0.0
  0
SOLID
  5
28356
330
27C9E
100
AcDbEntity
  8
11100_LEFT_DIM
  6
Continuous
 62
     0
100
AcDbTrace
 10
148.1905316751713
 20
506.5204385629008
 30
0.0
 11
148.1905316751713
 21
505.5204385629008
 31
0.0
 12
151.1905316751713
 22
506.0204385629008
 32
0.0
 13
151.1905316751713
 23
506.0204385629008
 33
0.0
  0
MTEXT
  5
28357
330
27C9E
100
AcDbEntity
  8
11100_LEFT_DIM
  6
Continuous
 62
     0
370
    13
100
AcDbMText
 10
135.7108532280686
 20
506.0204385629008
 30
0.0
 40
3.5
 41
0.0
 71
     5
 72
     1
  1
\A1;31
 73
     1
 44
1.0
1001
ACAD
1000
MTEXTBEGIN
1070
    73
1070
     1
1070
    44
1040
1.0
1070
    74
1070
     0
1000
MTEXTEND
  0
POINT
  5
28358
330
27C9E
100
AcDbEntity
  8
Defpoints
  6
Continuous
 62
     0
100
AcDbPoint
 10
120.2311747809659
 20
500.9307948064481
 30
0.0
  0
POINT
  5
28359
330
27C9E
100
AcDbEntity
  8
Defpoints
  6
Continuous
 62
     0
100
AcDbPoint
 10
151.1905316751713
 20
455.353829175581
 30
0.0
  0
POINT
  5
2835A
330
27C9E
100
AcDbEntity
  8
Defpoints
  6
Continuous
 62
     0
100
AcDbPoint
 10
151.1905316751713
 20
506.0204385629008
 30
0.0
  0
ENDBLK
  5
27CA9
330
27C9E
100
AcDbEntity
  8
0
100
AcDbBlockEnd
  0
BLOCK
  5
27CEB
330
27CE1
100
AcDbEntity
  8
0
100
AcDbBlockBegin
  2
*D7
 70
     1
 10
0.0
 20
0.0
 30
0.0
  3
*D7
  1

  0
LINE
  5
27E7E
330
27CE1
100
AcDbEntity
  8
14100_Bottom_Dim
  6
Continuous
 62
     0
370
    -2
100
AcDbLine
 10
186.2971241068784
 20
495.8233730923173
 30
0.0
 11
186.2971241068784
 21
506.7152746780991
 31
0.0
  0
LINE
  5
27E7F
330
27CE1
100
AcDbEntity
  8
14100_Bottom_Dim
  6
Continuous
 62
     0
370
    -2
100
AcDbLine
 10
231.6971241068784
 20
495.8233730923173
 30
0.0
 11
231.6971241068784
 21
506.7152746780991
 31
0.0
  0
LINE
  5
27E80
330
27CE1
100
AcDbEntity
  8
14100_Bottom_Dim
  6
Continuous
 62
     0
370
    -2
100
AcDbLine
 10
189.2971241068783
 20
505.7152746780992
 30
0.0
 11
205.0804574402117
 21
505.7152746780992
 31
0.0
  0
LINE
  5
27E81
330
27CE1
100
AcDbEntity
  8
14100_Bottom_Dim
  6
Continuous
 62
     0
370
    -2
100
AcDbLine
 10
228.6971241068784
 20
505.7152746780992
 30
0.0
 11
212.913790773545
 21
505.7152746780992
 31
0.0
  0
SOLID
  5
27E82
330
27CE1
100
AcDbEntity
  8
14100_Bottom_Dim
  6
Continuous
 62
     0
100
AcDbTrace
 10
189.2971241068783
 20
506.2152746780991
 30
0.0
 11
189.2971241068783
 21
505.2152746780993
 31
0.0
 12
186.2971241068784
 22
505.7152746780992
 32
0.0
 13
186.2971241068784
 23
505.7152746780992
 33
0.0
  0
SOLID
  5
27E83
330
27CE1
100
AcDbEntity
  8
14100_Bottom_Dim
  6
Continuous
 62
     0
100
AcDbTrace
 10
228.6971241068784
 20
506.2152746780991
 30
0.0
 11
228.6971241068784
 21
505.2152746780993
 31
0.0
 12
231.6971241068784
 22
505.7152746780992
 32
0.0
 13
231.6971241068784
 23
505.7152746780992
 33
0.0
  0
MTEXT
  5
27E84
330
27CE1
100
AcDbEntity
  8
14100_Bottom_Dim
  6
Continuous
 62
     0
370
    13
100
AcDbMText
 10
208.9971241068784
 20
505.7152746780992
 30
0.0
 40
3.5
 41
0.0
 71
     5
 72
     1
  1
\A1;45
 73
     1
 44
1.0
1001
ACAD
1000
MTEXTBEGIN
1070
    73
1070
     1
1070
    44
1040
1.0
1070
    74
1070
     0
1000
MTEXTEND
  0
POINT
  5
27E85
330
27CE1
100
AcDbEntity
  8
Defpoints
  6
Continuous
 62
     0
100
AcDbPoint
 10
186.2971241068784
 20
494.823373092317
 30
0.0
  0
POINT
  5
27E86
330
27CE1
100
AcDbEntity
  8
Defpoints
  6
Continuous
 62
     0
100
AcDbPoint
 10
231.6971241068784
 20
494.823373092317
 30
0.0
  0
POINT
  5
27E87
330
27CE1
100
AcDbEntity
  8
Defpoints
  6
Continuous
 62
     0
100
AcDbPoint
 10
231.6971241068784
 20
505.7152746780992
 30
0.0
  0
ENDBLK
  5
27CEC
330
27CE1
100
AcDbEntity
  8
0
100
AcDbBlockEnd
  0
BLOCK
  5
27D00
330
27CF7
100
AcDbEntity
  8
0
100
AcDbBlockBegin
  2
*D8
 70
     1
 10
0.0
 20
0.0
 30
0.0
  3
*D8
  1

  0
LINE
  5
27E76
330
27CF7
100
AcDbEntity
  8
30100_Drilling_Dim
  6
Continuous
 62
     0
370
    -2
100
AcDbLine
 10
292.9292082217575
 20
429.4546827146445
 30
0.0
 11
295.6727671331455
 21
430.6683072446142
 31
0.0
  0
LINE
  5
27E77
330
27CF7
100
AcDbEntity
  8
30100_Drilling_Dim
  6
Continuous
 62
     0
370
    -2
100
AcDbLine
 10
305.2752233230037
 20
434.9159930995065
 30
0.0
 11
308.0187822343918
 21
436.1296176294755
 31
0.0
  0
MTEXT
  5
27E78
330
27CF7
100
AcDbEntity
  8
30100_Drilling_Dim
  6
Continuous
 62
     0
370
    13
100
AcDbMText
 10
289.3473396430008
 20
427.8702284671849
 30
0.0
 40
3.5
 41
0.0
 71
     5
 72
     1
  1
\A1;\U+22054
 11
0.9145196371293588
 21
0.4045415099897486
 31
0.0
 73
     1
 44
1.0
1001
ACAD
1000
MTEXTBEGIN
1070
    73
1070
     1
1070
    44
1040
1.0
1070
    74
1070
     0
1000
MTEXTEND
  0
LINE
  5
27E79
330
27CF7
100
AcDbEntity
  8
30100_Drilling_Dim
  6
Continuous
 62
     0
370
    -2
100
AcDbLine
 10
302.5316644116156
 20
433.7023685695371
 30
0.0
 11
298.4163260445336
 21
431.8819317745832
 31
0.0
  0
SOLID
  5
27E7A
330
27CF7
100
AcDbEntity
  8
30100_Drilling_Dim
  6
Continuous
 62
     0
100
AcDbTrace
 10
305.0729525680088
 20
435.3732529180712
 30
0.0
 11
305.4774940779986
 21
434.4587332809418
 31
0.0
 12
302.5316644116156
 22
433.7023685695371
 32
0.0
 13
302.5316644116156
 23
433.7023685695371
 33
0.0
  0
SOLID
  5
27E7B
330
27CF7
100
AcDbEntity
  8
30100_Drilling_Dim
  6
Continuous
 62
     0
100
AcDbTrace
 10
295.4704963781507
 20
431.1255670631789
 30
0.0
 11
295.8750378881404
 21
430.2110474260493
 31
0.0
 12
298.4163260445336
 22
431.8819317745832
 32
0.0
 13
298.4163260445336
 23
431.8819317745832
 33
0.0
  0
POINT
  5
27E7C
330
27CF7
100
AcDbEntity
  8
Defpoints
  6
Continuous
 62
     0
100
AcDbPoint
 10
298.4163260445336
 20
431.8819317745832
 30
0.0
  0
POINT
  5
27E7D
330
27CF7
100
AcDbEntity
  8
Defpoints
  6
Continuous
 62
     0
100
AcDbPoint
 10
302.5316644116156
 20
433.7023685695371
 30
0.0
  0
ENDBLK
  5
27D01
330
27CF7
100
AcDbEntity
  8
0
100
AcDbBlockEnd
  0
BLOCK
  5
27D0C
330
27D03
100
AcDbEntity
  8
0
100
AcDbBlockBegin
  2
*D9
 70
     1
 10
0.0
 20
0.0
 30
0.0
  3
*D9
  1

  0
LINE
  5
27E6E
330
27D03
100
AcDbEntity
  8
30100_Drilling_Dim
  6
Continuous
 62
     0
370
    -2
100
AcDbLine
 10
272.649141103788
 20
445.8149014851848
 30
0.0
 11
275.3201314321598
 21
447.1808482871298
 31
0.0
  0
LINE
  5
27E6F
330
27D03
100
AcDbEntity
  8
30100_Drilling_Dim
  6
Continuous
 62
     0
370
    -2
100
AcDbLine
 10
289.5654131834758
 20
454.4658978975046
 30
0.0
 11
292.2364035118476
 21
455.8318446994498
 31
0.0
  0
MTEXT
  5
27E70
330
27D03
100
AcDbEntity
  8
30100_Drilling_Dim
  6
Continuous
 62
     0
370
    13
100
AcDbMText
 10
268.3829759959719
 20
443.6331808987445
 30
0.0
 40
3.5
 41
0.0
 71
     5
 72
     1
  1
\A1;\U+220510
 11
0.8903301094572594
 21
0.4553156006484125
 31
0.0
 73
     1
 44
1.0
1001
ACAD
1000
MTEXTBEGIN
1070
    73
1070
     1
1070
    44
1040
1.0
1070
    74
1070
     0
1000
MTEXTEND
  0
LINE
  5
27E71
330
27D03
100
AcDbEntity
  8
30100_Drilling_Dim
  6
Continuous
 62
     0
370
    -2
100
AcDbLine
 10
286.894422855104
 20
453.0999510955593
 30
0.0
 11
277.9911217605315
 21
448.5467950890753
 31
0.0
  0
SOLID
  5
27E72
330
27D03
100
AcDbEntity
  8
30100_Drilling_Dim
  6
Continuous
 62
     0
100
AcDbTrace
 10
289.3377553831516
 20
454.911062952233
 30
0.0
 11
289.7930709838
 21
454.0207328427761
 31
0.0
 12
286.894422855104
 22
453.0999510955593
 32
0.0
 13
286.894422855104
 23
453.0999510955593
 33
0.0
  0
SOLID
  5
27E73
330
27D03
100
AcDbEntity
  8
30100_Drilling_Dim
  6
Continuous
 62
     0
100
AcDbTrace
 10
275.0924736318355
 20
447.6260133418586
 30
0.0
 11
275.547789232484
 21
446.7356832324012
 31
0.0
 12
277.9911217605315
 22
448.5467950890753
 32
0.0
 13
277.9911217605315
 23
448.5467950890753
 33
0.0
  0
POINT
  5
27E74
330
27D03
100
AcDbEntity
  8
Defpoints
  6
Continuous
 62
     0
100
AcDbPoint
 10
277.9911217605315
 20
448.5467950890753
 30
0.0
  0
POINT
  5
27E75
330
27D03
100
AcDbEntity
  8
Defpoints
  6
Continuous
 62
     0
100
AcDbPoint
 10
286.894422855104
 20
453.0999510955593
 30
0.0
  0
ENDBLK
  5
27D0D
330
27D03
100
AcDbEntity
  8
0
100
AcDbBlockEnd
  0
BLOCK
  5
27D19
330
27D0F
100
AcDbEntity
  8
0
100
AcDbBlockBegin
  2
*D10
 70
     1
 10
0.0
 20
0.0
 30
0.0
  3
*D10
  1

  0
LINE
  5
27E64
330
27D0F
100
AcDbEntity
  8
30100_Drilling_Dim
  6
Continuous
 62
     0
370
    -2
100
AcDbLine
 10
264.4115493875607
 20
473.1045960125746
 30
0.0
 11
264.4115493875607
 21
477.9326534830905
 31
0.0
  0
LINE
  5
27E65
330
27D0F
100
AcDbEntity
  8
30100_Drilling_Dim
  6
Continuous
 62
     0
370
    -2
100
AcDbLine
 10
300.4739952280748
 20
473.1045960125746
 30
0.0
 11
300.4739952280748
 21
477.9326534830905
 31
0.0
  0
LINE
  5
27E66
330
27D0F
100
AcDbEntity
  8
30100_Drilling_Dim
  6
Continuous
 62
     0
370
    -2
100
AcDbLine
 10
267.4115493875607
 20
476.9326534830902
 30
0.0
 11
278.526105641151
 21
476.9326534830902
 31
0.0
  0
LINE
  5
27E67
330
27D0F
100
AcDbEntity
  8
30100_Drilling_Dim
  6
Continuous
 62
     0
370
    -2
100
AcDbLine
 10
297.4739952280748
 20
476.9326534830902
 30
0.0
 11
286.3594389744843
 21
476.9326534830902
 31
0.0
  0
SOLID
  5
27E68
330
27D0F
100
AcDbEntity
  8
30100_Drilling_Dim
  6
Continuous
 62
     0
100
AcDbTrace
 10
267.4115493875607
 20
477.4326534830903
 30
0.0
 11
267.4115493875607
 21
476.4326534830902
 31
0.0
 12
264.4115493875607
 22
476.9326534830902
 32
0.0
 13
264.4115493875607
 23
476.9326534830902
 33
0.0
  0
SOLID
  5
27E69
330
27D0F
100
AcDbEntity
  8
30100_Drilling_Dim
  6
Continuous
 62
     0
100
AcDbTrace
 10
297.4739952280748
 20
477.4326534830903
 30
0.0
 11
297.4739952280748
 21
476.4326534830902
 31
0.0
 12
300.4739952280748
 22
476.9326534830902
 32
0.0
 13
300.4739952280748
 23
476.9326534830902
 33
0.0
  0
MTEXT
  5
27E6A
330
27D0F
100
AcDbEntity
  8
30100_Drilling_Dim
  6
Continuous
 62
     0
370
    13
100
AcDbMText
 10
282.4427723078177
 20
476.9326534830902
 30
0.0
 40
3.5
 41
0.0
 71
     5
 72
     1
  1
\A1;36
 73
     1
 44
1.0
1001
ACAD
1000
MTEXTBEGIN
1070
    73
1070
     1
1070
    44
1040
1.0
1070
    74
1070
     0
1000
MTEXTEND
  0
POINT
  5
27E6B
330
27D0F
100
AcDbEntity
  8
Defpoints
  6
Continuous
 62
     0
100
AcDbPoint
 10
264.4115493875607
 20
472.1045960125747
 30
0.0
  0
POINT
  5
27E6C
330
27D0F
100
AcDbEntity
  8
Defpoints
  6
Continuous
 62
     0
100
AcDbPoint
 10
300.4739952280748
 20
472.1045960125747
 30
0.0
  0
POINT
  5
27E6D
330
27D0F
100
AcDbEntity
  8
Defpoints
  6
Continuous
 62
     0
100
AcDbPoint
 10
300.4739952280748
 20
476.9326534830902
 30
0.0
  0
ENDBLK
  5
27D1A
330
27D0F
100
AcDbEntity
  8
0
100
AcDbBlockEnd
  0
BLOCK
  5
27D26
330
27D1C
100
AcDbEntity
  8
0
100
AcDbBlockBegin
  2
*D11
 70
     1
 10
0.0
 20
0.0
 30
0.0
  3
*D11
  1

  0
LINE
  5
27E5A
330
27D1C
100
AcDbEntity
  8
30100_Drilling_Dim
  6
Continuous
 62
     0
370
    -2
100
AcDbLine
 10
260.1615493875607
 20
468.8545960125749
 30
0.0
 11
255.4508621899385
 21
468.8545960125749
 31
0.0
  0
LINE
  5
27E5B
330
27D1C
100
AcDbEntity
  8
30100_Drilling_Dim
  6
Continuous
 62
     0
370
    -2
100
AcDbLine
 10
260.1615493875605
 20
432.7921501720607
 30
0.0
 11
255.4508621899385
 21
432.7921501720607
 31
0.0
  0
LINE
  5
27E5C
330
27D1C
100
AcDbEntity
  8
30100_Drilling_Dim
  6
Continuous
 62
     0
370
    -2
100
AcDbLine
 10
256.4508621899386
 20
465.8545960125747
 30
0.0
 11
256.4508621899386
 21
454.7400397589844
 31
0.0
  0
LINE
  5
27E5D
330
27D1C
100
AcDbEntity
  8
30100_Drilling_Dim
  6
Continuous
 62
     0
370
    -2
100
AcDbLine
 10
256.4508621899386
 20
435.7921501720607
 30
0.0
 11
256.4508621899386
 21
446.9067064256511
 31
0.0
  0
SOLID
  5
27E5E
330
27D1C
100
AcDbEntity
  8
30100_Drilling_Dim
  6
Continuous
 62
     0
100
AcDbTrace
 10
255.9508621899386
 20
465.8545960125747
 30
0.0
 11
256.9508621899386
 21
465.8545960125747
 31
0.0
 12
256.4508621899386
 22
468.8545960125749
 32
0.0
 13
256.4508621899386
 23
468.8545960125749
 33
0.0
  0
SOLID
  5
27E5F
330
27D1C
100
AcDbEntity
  8
30100_Drilling_Dim
  6
Continuous
 62
     0
100
AcDbTrace
 10
255.9508621899385
 20
435.7921501720607
 30
0.0
 11
256.9508621899386
 21
435.7921501720607
 31
0.0
 12
256.4508621899386
 22
432.7921501720607
 32
0.0
 13
256.4508621899386
 23
432.7921501720607
 33
0.0
  0
MTEXT
  5
27E60
330
27D1C
100
AcDbEntity
  8
30100_Drilling_Dim
  6
Continuous
 62
     0
370
    13
100
AcDbMText
 10
256.4508621899384
 20
450.8233730923178
 30
0.0
 40
3.5
 41
0.0
 71
     5
 72
     1
  1
\A1;36
 11
0.0000000000000001
 21
1.0
 31
0.0
 73
     1
 44
1.0
1001
ACAD
1000
MTEXTBEGIN
1070
    73
1070
     1
1070
    44
1040
1.0
1070
    74
1070
     0
1000
MTEXTEND
  0
POINT
  5
27E61
330
27D1C
100
AcDbEntity
  8
Defpoints
  6
Continuous
 62
     0
100
AcDbPoint
 10
261.1615493875607
 20
468.8545960125749
 30
0.0
  0
POINT
  5
27E62
330
27D1C
100
AcDbEntity
  8
Defpoints
  6
Continuous
 62
     0
100
AcDbPoint
 10
261.1615493875606
 20
432.7921501720607
 30
0.0
  0
POINT
  5
27E63
330
27D1C
100
AcDbEntity
  8
Defpoints
  6
Continuous
 62
     0
100
AcDbPoint
 10
256.4508621899386
 20
432.7921501720607
 30
0.0
  0
ENDBLK
  5
27D27
330
27D1C
100
AcDbEntity
  8
0
100
AcDbBlockEnd
  0
ENDSEC
  0
SECTION
  2
ENTITIES
  0
TEXT
  5
8CAC
330
20
100
AcDbEntity
  8
91000_TIP
  6
Continuous
 62
     7
100
AcDbText
 10
-66.55123359502733
 20
297.5317263287093
 30
0.0
 40
2.5
  1
Alle Bemassungswerte sind in Millimeter (mm) angegeben.
 41
0.6056311217924567
 72
     5
 11
7.133886223054927
 21
297.5317263287093
 31
0.0
100
AcDbText
  0
TEXT
  5
8CAD
330
20
100
AcDbEntity
  8
91000_TIP
  6
Continuous
 62
     7
100
AcDbText
 10
-66.55123359502733
 20
292.2817263287094
 30
0.0
 40
2.5
  1
All dimensions are in millimeters (mm).
 41
0.7513350295680265
 72
     5
 11
-6.444431229585262
 21
292.2817263287094
 31
0.0
100
AcDbText
  0
LINE
  5
8CAE
330
20
100
AcDbEntity
  8
90000_FRAME
  6
Continuous
 62
     7
100
AcDbLine
 10
329.3954166223081
 20
298.7994897070328
 30
0.0
 11
329.3954166223081
 21
316.7994897070327
 31
0.0
  0
LINE
  5
8CB1
330
20
100
AcDbEntity
  8
90000_FRAME
  6
Continuous
 62
     7
100
AcDbLine
 10
-70.60458337769119
 20
288.7994897070327
 30
0.0
 11
339.3954166223088
 21
288.7994897070327
 31
0.0
  0
LINE
  5
8CB2
330
20
100
AcDbEntity
  8
90000_FRAME
  6
Continuous
 62
     7
100
AcDbLine
 10
339.3954166223088
 20
288.7994897070327
 30
0.0
 11
339.3954166223088
 21
558.7994897070326
 31
0.0
  0
TEXT
  5
8CB3
330
20
100
AcDbEntity
  8
90000_FRAME
  6
Continuous
 62
     7
100
AcDbText
 10
257.7013411462589
 20
309.0494897070328
 30
0.0
 40
3.5
  1
3LD2122_00000290_002_ALL
 41
0.7261321223270515
 72
     5
 11
313.6135145654419
 21
309.0494897070328
 31
0.0
100
AcDbText
  0
CIRCLE
  5
8CB4
330
20
100
AcDbEntity
  8
91000_TIP
  6
Continuous
 62
     7
100
AcDbCircle
 10
185.710086389334
 20
307.6232272805033
 30
0.0
 40
2.499999948899997
  0
CIRCLE
  5
8CB5
330
20
100
AcDbEntity
  8
91000_TIP
  6
Continuous
 62
     7
100
AcDbCircle
 10
185.710086389334
 20
307.6232272805033
 30
0.0
 40
4.9999998979
  0
LINE
  5
8CB6
330
20
100
AcDbEntity
  8
91000_TIP
  6
CENTER
 62
     7
100
AcDbLine
 10
185.710086389334
 20
301.9017460741033
 30
0.0
 11
185.710086389334
 21
313.1851320741033
 31
0.0
  0
LINE
  5
8CB7
330
20
100
AcDbEntity
  8
91000_TIP
  6
Continuous
 62
     7
100
AcDbLine
 10
179.2100865221341
 20
312.6232271784033
 30
0.0
 11
179.2100865221341
 21
302.6232273826032
 31
0.0
  0
LINE
  5
8CB8
330
20
100
AcDbEntity
  8
91000_TIP
  6
Continuous
 62
     7
100
AcDbLine
 10
169.210086726334
 20
310.1232272294034
 30
0.0
 11
169.210086726334
 21
305.1232273316033
 31
0.0
  0
LINE
  5
8CB9
330
20
100
AcDbEntity
  8
91000_TIP
  6
Continuous
 62
     7
100
AcDbLine
 10
169.210086726334
 20
305.1232273316033
 30
0.0
 11
179.2100865221341
 21
302.6232273826032
 31
0.0
  0
LINE
  5
8CBA
330
20
100
AcDbEntity
  8
91000_TIP
  6
CENTER
 62
     7
100
AcDbLine
 10
167.930576254333
 20
307.6232272805033
 30
0.0
 11
191.532565518433
 21
307.6232272805033
 31
0.0
  0
LINE
  5
8CBB
330
20
100
AcDbEntity
  8
91000_TIP
  6
Continuous
 62
     7
100
AcDbLine
 10
169.210086726334
 20
310.1232272294034
 30
0.0
 11
179.2100865221341
 21
312.6232271784033
 31
0.0
  0
TEXT
  5
8CBC
330
20
100
AcDbEntity
  8
90000_FRAME
  6
Continuous
 62
     7
100
AcDbText
 10
287.5554166223082
 20
300.6994897070327
 30
0.0
 40
2.2
  1
Massstab / Scale: 1:1
 41
0.7732634338148454
 72
     5
 11
318.4601785271082
 21
300.6994897070327
 31
0.0
100
AcDbText
  0
TEXT
  5
8CBD
330
20
100
AcDbEntity
  8
90000_FRAME
  6
Continuous
 62
     7
100
AcDbText
 10
245.0554166223081
 20
300.6994897070327
 30
0.0
 40
2.2
  1
Format / Size: DIN A3
 41
0.7994987468660265
 72
     5
 11
278.474464241308
 21
300.6994897070327
 31
0.0
100
AcDbText
  0
LINE
  5
8CBE
330
20
100
AcDbEntity
  8
90000_FRAME
  6
Continuous
 62
     7
100
AcDbLine
 10
329.3954166223081
 20
298.7994897070328
 30
0.0
 11
329.3954166223081
 21
316.7994897070327
 31
0.0
  0
LINE
  5
8CBF
330
20
100
AcDbEntity
  8
90000_FRAME
  6
Continuous
 62
     7
100
AcDbLine
 10
286.8954166223081
 20
298.7994897070328
 30
0.0
 11
286.8954166223081
 21
304.7994897070328
 31
0.0
  0
LINE
  5
8CC0
330
20
100
AcDbEntity
  8
90000_FRAME
  6
Continuous
 62
     7
100
AcDbLine
 10
244.3954166223081
 20
298.7994897070328
 30
0.0
 11
244.3954166223081
 21
316.7994897070327
 31
0.0
  0
LINE
  5
8CC1
330
20
100
AcDbEntity
  8
90000_FRAME
  6
Continuous
 62
     7
100
AcDbLine
 10
194.395416622308
 20
316.7994897070327
 30
0.0
 11
329.3954166223081
 21
316.7994897070327
 31
0.0
  0
LINE
  5
8CC2
330
20
100
AcDbEntity
  8
90000_FRAME
  6
Continuous
 62
     7
100
AcDbLine
 10
244.3954166223081
 20
304.7994897070328
 30
0.0
 11
329.3954166223081
 21
304.7994897070328
 31
0.0
  0
LINE
  5
8CC3
330
20
100
AcDbEntity
  8
90000_FRAME
  6
Continuous
 62
     7
100
AcDbLine
 10
194.395416622308
 20
298.7994897070328
 30
0.0
 11
194.395416622308
 21
316.7994897070327
 31
0.0
  0
LINE
  5
8CC4
330
20
100
AcDbEntity
  8
90000_FRAME
  6
Continuous
 62
     7
100
AcDbLine
 10
194.395416622308
 20
298.7994897070328
 30
0.0
 11
329.3954166223081
 21
298.7994897070328
 31
0.0
  0
INSERT
  5
8CC5
330
20
100
AcDbEntity
  8
90000_FRAME
  6
Continuous
 62
     7
100
AcDbBlockReference
  2
SIEMENS_OUTLINE_BL0
 10
-80.60458337769194
 20
288.7994897070327
 30
0.0
  0
LINE
  5
2548F
330
20
100
AcDbEntity
  8
90000_FRAME
  6
Continuous
 62
     7
100
AcDbLine
 10
-70.60458337769119
 20
288.7994897070327
 30
0.0
 11
-70.60458337769119
 21
558.7994897070326
 31
0.0
  0
LINE
  5
25490
330
20
100
AcDbEntity
  8
90000_FRAME
  6
Continuous
 62
     7
100
AcDbLine
 10
-70.60458337769119
 20
558.7994897070326
 30
0.0
 11
339.3954166223088
 21
558.7994897070326
 31
0.0
  0
LINE
  5
27A07
330
20
100
AcDbEntity
  8
11000_Left
  6
Continuous
 62
     7
 48
0.5
370
     9
100
AcDbLine
 39
0.7
 10
118.2311747809659
 20
511.6386053163656
 30
0.0
 11
120.2311747809659
 21
511.7918798486108
 31
0.0
1001
AUSTER_FOLIE
1002
{
1000
VIERLOCH_MIT_KNEBEL_49_AUSTER
1002
}
1001
AUSTER_ANSICHT
1002
{
1000
SL
1002
}
  0
LINE
  5
27A08
330
20
100
AcDbEntity
  8
11000_Left
  6
Continuous
 62
     7
 48
0.5
370
     9
100
AcDbLine
 39
0.7
 10
118.2311747809658
 20
506.7508063550308
 30
0.0
 11
120.2311747809658
 21
508.7508063550306
 31
0.0
1001
AUSTER_FOLIE
1002
{
1000
VIERLOCH_MIT_KNEBEL_49_AUSTER
1002
}
1001
AUSTER_ANSICHT
1002
{
1000
SL
1002
}
  0
LINE
  5
27A09
330
20
100
AcDbEntity
  8
11000_Left
  6
Continuous
 62
     7
 48
0.5
370
     9
100
AcDbLine
 39
0.7
 10
118.2311747809659
 20
502.2606763550307
 30
0.0
 11
120.2311747809659
 21
504.2606763550308
 31
0.0
1001
AUSTER_FOLIE
1002
{
1000
VIERLOCH_MIT_KNEBEL_49_AUSTER
1002
}
1001
AUSTER_ANSICHT
1002
{
1000
SL
1002
}
  0
LINE
  5
27A0A
330
20
100
AcDbEntity
  8
11000_Left
  6
Continuous
 62
     7
 48
0.5
370
     9
100
AcDbLine
 39
0.7
 10
118.2311747809659
 20
493.280422173427
 30
0.0
 11
120.2311747809658
 21
495.2804221734271
 31
0.0
1001
AUSTER_FOLIE
1002
{
1000
VIERLOCH_MIT_KNEBEL_49_AUSTER
1002
}
1001
AUSTER_ANSICHT
1002
{
1000
SL
1002
}
  0
LINE
  5
27A0B
330
20
100
AcDbEntity
  8
11000_Left
  6
Continuous
 62
     7
 48
0.5
370
     9
100
AcDbLine
 39
0.7
 10
118.2311747809658
 20
488.7902921734272
 30
0.0
 11
120.2311747809658
 21
490.7902921734269
 31
0.0
1001
AUSTER_FOLIE
1002
{
1000
VIERLOCH_MIT_KNEBEL_49_AUSTER
1002
}
1001
AUSTER_ANSICHT
1002
{
1000
SL
1002
}
  0
LINE
  5
27A0C
330
20
100
AcDbEntity
  8
11000_Left
  6
Continuous
 62
     7
 48
0.5
370
     9
100
AcDbLine
 39
0.7
 10
118.2311747809659
 20
479.810037991823
 30
0.0
 11
120.2311747809659
 21
481.8100379918233
 31
0.0
1001
AUSTER_FOLIE
1002
{
1000
VIERLOCH_MIT_KNEBEL_49_AUSTER
1002
}
1001
AUSTER_ANSICHT
1002
{
1000
SL
1002
}
  0
LINE
  5
27A0D
330
20
100
AcDbEntity
  8
11000_Left
  6
Continuous
 62
     7
 48
0.5
370
    50
100
AcDbLine
 39
0.7
 10
125.1905316751713
 20
426.8233730923173
 30
0.0
 11
125.1905316751713
 21
474.8233730923173
 31
0.0
1001
AUSTER_FOLIE
1002
{
1000
VIERLOCH_MIT_KNEBEL_49_AUSTER
1002
}
1001
AUSTER_ANSICHT
1002
{
1000
SL
1002
}
  0
LINE
  5
27A0E
330
20
100
AcDbEntity
  8
11000_Left
  6
Continuous
 62
     7
 48
0.5
370
    50
100
AcDbLine
 39
0.7
 10
125.1905316751713
 20
474.8233730923173
 30
0.0
 11
120.2311747809659
 21
474.8233730923173
 31
0.0
1001
AUSTER_FOLIE
1002
{
1000
VIERLOCH_MIT_KNEBEL_49_AUSTER
1002
}
1001
AUSTER_ANSICHT
1002
{
1000
SL
1002
}
  0
LINE
  5
27A10
330
20
100
AcDbEntity
  8
11000_Left
  6
Continuous
 62
     7
 48
0.5
370
    50
100
AcDbLine
 39
0.7
 10
115.2311747809659
 20
473.3233730923172
 30
0.0
 11
115.2311747809659
 21
470.3233730923171
 31
0.0
1001
AUSTER_FOLIE
1002
{
1000
VIERLOCH_MIT_KNEBEL_49_AUSTER
1002
}
1001
AUSTER_ANSICHT
1002
{
1000
SL
1002
}
  0
LINE
  5
27A11
330
20
100
AcDbEntity
  8
11000_Left
  6
Continuous
 62
     7
 48
0.5
370
    50
100
AcDbLine
 39
0.7
 10
118.2311747809659
 20
473.3233730923172
 30
0.0
 11
115.2311747809659
 21
473.3233730923172
 31
0.0
1001
AUSTER_FOLIE
1002
{
1000
VIERLOCH_MIT_KNEBEL_49_AUSTER
1002
}
1001
AUSTER_ANSICHT
1002
{
1000
SL
1002
}
  0
LINE
  5
27A13
330
20
100
AcDbEntity
  8
11000_Left
  6
Continuous
 62
     7
 48
0.5
370
    50
100
AcDbLine
 39
0.7
 10
115.2311747809659
 20
470.3233730923171
 30
0.0
 11
115.2311747809659
 21
466.3233730923173
 31
0.0
1001
AUSTER_FOLIE
1002
{
1000
VIERLOCH_MIT_KNEBEL_49_AUSTER
1002
}
1001
AUSTER_ANSICHT
1002
{
1000
SL
1002
}
  0
LINE
  5
27A14
330
20
100
AcDbEntity
  8
11000_Left
  6
Continuous
 62
     7
 48
0.5
370
     9
100
AcDbLine
 39
0.7
 10
118.2311747809658
 20
466.3396538102197
 30
0.0
 11
120.2311747809658
 21
468.3396538102193
 31
0.0
1001
AUSTER_FOLIE
1002
{
1000
VIERLOCH_MIT_KNEBEL_49_AUSTER
1002
}
1001
AUSTER_ANSICHT
1002
{
1000
SL
1002
}
  0
LINE
  5
27A15
330
20
100
AcDbEntity
  8
11000_Left
  6
Continuous
 62
     7
 48
0.5
370
     9
100
AcDbLine
 39
0.7
 10
118.2311747809659
 20
475.3199079918233
 30
0.0
 11
120.2311747809659
 21
477.3199079918233
 31
0.0
1001
AUSTER_FOLIE
1002
{
1000
VIERLOCH_MIT_KNEBEL_49_AUSTER
1002
}
1001
AUSTER_ANSICHT
1002
{
1000
SL
1002
}
  0
LINE
  5
27A16
330
20
100
AcDbEntity
  8
11000_Left
  6
Continuous
 62
     7
 48
0.5
370
    50
100
AcDbLine
 39
0.7
 10
105.2311747809659
 20
466.3233730923173
 30
0.0
 11
105.2311747809659
 21
474.8233730923173
 31
0.0
1001
AUSTER_FOLIE
1002
{
1000
VIERLOCH_MIT_KNEBEL_49_AUSTER
1002
}
1001
AUSTER_ANSICHT
1002
{
1000
SL
1002
}
  0
LINE
  5
27A17
330
20
100
AcDbEntity
  8
11000_Left
  6
Continuous
 62
     7
 48
0.5
370
    20
100
AcDbLine
 39
0.7
 10
99.73117478096597
 20
474.8245230923171
 30
0.0
 11
99.73117478096597
 21
474.8234930923175
 31
0.0
1001
AUSTER_FOLIE
1002
{
1000
VIERLOCH_MIT_KNEBEL_49_AUSTER
1002
}
1001
AUSTER_ANSICHT
1002
{
1000
SL
1002
}
  0
LINE
  5
27A18
330
20
100
AcDbEntity
  8
11000_Left
  6
Continuous
 62
     7
 48
0.5
370
    20
100
AcDbLine
 39
0.7
 10
99.53094478096593
 20
478.4399730923174
 30
0.0
 11
99.53094478096593
 21
474.8061430923171
 31
0.0
1001
AUSTER_FOLIE
1002
{
1000
VIERLOCH_MIT_KNEBEL_49_AUSTER
1002
}
1001
AUSTER_ANSICHT
1002
{
1000
SL
1002
}
  0
LINE
  5
27A19
330
20
100
AcDbEntity
  8
11000_Left
  6
Continuous
 62
     7
 48
0.5
370
    50
100
AcDbLine
 39
0.7
 10
115.2311747809659
 20
466.3233730923173
 30
0.0
 11
105.2311747809659
 21
466.3233730923173
 31
0.0
1001
AUSTER_FOLIE
1002
{
1000
VIERLOCH_MIT_KNEBEL_49_AUSTER
1002
}
1001
AUSTER_ANSICHT
1002
{
1000
SL
1002
}
  0
LINE
  5
27A1A
330
20
100
AcDbEntity
  8
11000_Left
  6
Continuous
 62
     7
 48
0.5
370
    20
100
AcDbLine
 39
0.7
 10
103.2301747809659
 20
494.8243730923173
 30
0.0
 11
103.2301747809659
 21
474.8243730923173
 31
0.0
1001
AUSTER_FOLIE
1002
{
1000
VIERLOCH_MIT_KNEBEL_49_AUSTER
1002
}
1001
AUSTER_ANSICHT
1002
{
1000
SL
1002
}
  0
LINE
  5
27A23
330
20
100
AcDbEntity
  8
11000_Left
  6
Continuous
 62
     7
 48
0.5
370
     9
100
AcDbLine
 39
0.7
 10
118.2311747809659
 20
452.8692696286158
 30
0.0
 11
120.2311747809659
 21
454.8692696286158
 31
0.0
1001
AUSTER_FOLIE
1002
{
1000
VIERLOCH_MIT_KNEBEL_49_AUSTER
1002
}
1001
AUSTER_ANSICHT
1002
{
1000
SL
1002
}
  0
LINE
  5
27A24
330
20
100
AcDbEntity
  8
11000_Left
  6
Continuous
 62
     7
 48
0.5
370
     9
100
AcDbLine
 39
0.7
 10
118.2311747809658
 20
448.3791396286157
 30
0.0
 11
120.2311747809658
 21
450.3791396286158
 31
0.0
1001
AUSTER_FOLIE
1002
{
1000
VIERLOCH_MIT_KNEBEL_49_AUSTER
1002
}
1001
AUSTER_ANSICHT
1002
{
1000
SL
1002
}
  0
LINE
  5
27A27
330
20
100
AcDbEntity
  8
11000_Left
  6
Continuous
 62
     7
 48
0.5
370
     9
100
AcDbLine
 39
0.7
 10
118.2311747809658
 20
439.3988854470121
 30
0.0
 11
120.2311747809659
 21
441.3988854470122
 31
0.0
1001
AUSTER_FOLIE
1002
{
1000
VIERLOCH_MIT_KNEBEL_49_AUSTER
1002
}
1001
AUSTER_ANSICHT
1002
{
1000
SL
1002
}
  0
LINE
  5
27A28
330
20
100
AcDbEntity
  8
11000_Left
  6
Continuous
 62
     7
 48
0.5
370
     9
100
AcDbLine
 39
0.7
 10
118.2311747809659
 20
434.9087554470121
 30
0.0
 11
120.2311747809659
 21
436.9087554470119
 31
0.0
1001
AUSTER_FOLIE
1002
{
1000
VIERLOCH_MIT_KNEBEL_49_AUSTER
1002
}
1001
AUSTER_ANSICHT
1002
{
1000
SL
1002
}
  0
LINE
  5
27A29
330
20
100
AcDbEntity
  8
11000_Left
  6
Continuous
 62
     7
 48
0.5
370
    50
100
AcDbLine
 39
0.7
 10
105.2311747809659
 20
435.3233730923173
 30
0.0
 11
115.2311747809659
 21
435.3233730923173
 31
0.0
1001
AUSTER_FOLIE
1002
{
1000
VIERLOCH_MIT_KNEBEL_49_AUSTER
1002
}
1001
AUSTER_ANSICHT
1002
{
1000
SL
1002
}
  0
LINE
  5
27A2C
330
20
100
AcDbEntity
  8
11000_Left
  6
Continuous
 62
     7
 48
0.5
370
    50
100
AcDbLine
 39
0.7
 10
120.2311747809659
 20
426.8233730923173
 30
0.0
 11
125.1905316751713
 21
426.8233730923173
 31
0.0
1001
AUSTER_FOLIE
1002
{
1000
VIERLOCH_MIT_KNEBEL_49_AUSTER
1002
}
1001
AUSTER_ANSICHT
1002
{
1000
SL
1002
}
  0
LINE
  5
27A2E
330
20
100
AcDbEntity
  8
11000_Left
  6
Continuous
 62
     7
 48
0.5
370
    50
100
AcDbLine
 39
0.7
 10
115.2311747809659
 20
431.3233730923172
 30
0.0
 11
115.2311747809659
 21
428.323373092317
 31
0.0
1001
AUSTER_FOLIE
1002
{
1000
VIERLOCH_MIT_KNEBEL_49_AUSTER
1002
}
1001
AUSTER_ANSICHT
1002
{
1000
SL
1002
}
  0
LINE
  5
27A2F
330
20
100
AcDbEntity
  8
11000_Left
  6
Continuous
 62
     7
 48
0.5
370
    50
100
AcDbLine
 39
0.7
 10
115.2311747809659
 20
428.323373092317
 30
0.0
 11
118.2311747809659
 21
428.323373092317
 31
0.0
1001
AUSTER_FOLIE
1002
{
1000
VIERLOCH_MIT_KNEBEL_49_AUSTER
1002
}
1001
AUSTER_ANSICHT
1002
{
1000
SL
1002
}
  0
LINE
  5
27A30
330
20
100
AcDbEntity
  8
11000_Left
  6
Continuous
 62
     7
 48
0.5
370
     9
100
AcDbLine
 39
0.7
 10
118.2311747809659
 20
425.9285012654084
 30
0.0
 11
120.2311747809658
 21
427.9285012654083
 31
0.0
1001
AUSTER_FOLIE
1002
{
1000
VIERLOCH_MIT_KNEBEL_49_AUSTER
1002
}
1001
AUSTER_ANSICHT
1002
{
1000
SL
1002
}
  0
LINE
  5
27A31
330
20
100
AcDbEntity
  8
11000_Left
  6
Continuous
 62
     7
 48
0.5
370
     9
100
AcDbLine
 39
0.7
 10
118.2311747809658
 20
421.4383712654083
 30
0.0
 11
120.2311747809658
 21
423.4383712654083
 31
0.0
1001
AUSTER_FOLIE
1002
{
1000
VIERLOCH_MIT_KNEBEL_49_AUSTER
1002
}
1001
AUSTER_ANSICHT
1002
{
1000
SL
1002
}
  0
LINE
  5
27A32
330
20
100
AcDbEntity
  8
11000_Left
  6
Continuous
 62
     7
 48
0.5
370
     9
100
AcDbLine
 39
0.7
 10
120.2311747809659
 20
406.952429865985
 30
0.0
 11
118.2311747809659
 21
407.105703180248
 31
0.0
1001
AUSTER_FOLIE
1002
{
1000
VIERLOCH_MIT_KNEBEL_49_AUSTER
1002
}
1001
AUSTER_ANSICHT
1002
{
1000
SL
1002
}
  0
LINE
  5
27A33
330
20
100
AcDbEntity
  8
11000_Left
  6
Continuous
 62
     7
 48
0.5
370
     9
100
AcDbLine
 39
0.7
 10
118.2311747809658
 20
412.4581170838045
 30
0.0
 11
120.2311747809658
 21
414.4581170838047
 31
0.0
1001
AUSTER_FOLIE
1002
{
1000
VIERLOCH_MIT_KNEBEL_49_AUSTER
1002
}
1001
AUSTER_ANSICHT
1002
{
1000
SL
1002
}
  0
LINE
  5
27A34
330
20
100
AcDbEntity
  8
11000_Left
  6
Continuous
 62
     7
 48
0.5
370
     9
100
AcDbLine
 39
0.7
 10
118.2311747809659
 20
407.9679870838047
 30
0.0
 11
120.2311747809659
 21
409.9679870838047
 31
0.0
1001
AUSTER_FOLIE
1002
{
1000
VIERLOCH_MIT_KNEBEL_49_AUSTER
1002
}
1001
AUSTER_ANSICHT
1002
{
1000
SL
1002
}
  0
LINE
  5
27A35
330
20
100
AcDbEntity
  8
11000_Left
  6
Continuous
 62
     7
 48
0.5
370
    20
100
AcDbLine
 39
0.7
 10
99.73117478096597
 20
426.8233730923173
 30
0.0
 11
99.73117478096597
 21
423.8233730923171
 31
0.0
1001
AUSTER_FOLIE
1002
{
1000
VIERLOCH_MIT_KNEBEL_49_AUSTER
1002
}
1001
AUSTER_ANSICHT
1002
{
1000
SL
1002
}
  0
LINE
  5
27A36
330
20
100
AcDbEntity
  8
11000_Left
  6
Continuous
 62
     7
 48
0.5
370
    20
100
AcDbLine
 39
0.7
 10
97.73117478096594
 20
423.8233730923171
 30
0.0
 11
97.73117478096594
 21
423.8241330923171
 31
0.0
1001
AUSTER_FOLIE
1002
{
1000
VIERLOCH_MIT_KNEBEL_49_AUSTER
1002
}
1001
AUSTER_ANSICHT
1002
{
1000
SL
1002
}
  0
LINE
  5
27A38
330
20
100
AcDbEntity
  8
11000_Left
  6
Continuous
 62
     7
 48
0.5
370
    50
100
AcDbLine
 39
0.7
 10
115.2311747809659
 20
435.3233730923173
 30
0.0
 11
115.2311747809659
 21
431.3233730923172
 31
0.0
1001
AUSTER_FOLIE
1002
{
1000
VIERLOCH_MIT_KNEBEL_49_AUSTER
1002
}
1001
AUSTER_ANSICHT
1002
{
1000
SL
1002
}
  0
LINE
  5
27A39
330
20
100
AcDbEntity
  8
11000_Left
  6
Continuous
 62
     7
 48
0.5
370
    50
100
AcDbLine
 39
0.7
 10
105.2311747809659
 20
426.8233730923173
 30
0.0
 11
105.2311747809659
 21
435.3233730923173
 31
0.0
1001
AUSTER_FOLIE
1002
{
1000
VIERLOCH_MIT_KNEBEL_49_AUSTER
1002
}
1001
AUSTER_ANSICHT
1002
{
1000
SL
1002
}
  0
LINE
  5
27A3F
330
20
100
AcDbEntity
  8
11000_Left
  6
Continuous
 62
     7
 48
0.5
370
     9
100
AcDbLine
 39
0.7
 10
118.2311747809659
 20
461.8495238102195
 30
0.0
 11
120.2311747809658
 21
463.8495238102198
 31
0.0
1001
AUSTER_FOLIE
1002
{
1000
VIERLOCH_MIT_KNEBEL_49_AUSTER
1002
}
1001
AUSTER_ANSICHT
1002
{
1000
SL
1002
}
  0
LINE
  5
27A40
330
20
100
AcDbEntity
  8
11000_Left
  6
Continuous
 62
     7
 48
0.5
370
    20
100
AcDbLine
 39
0.7
 10
102.914104780966
 20
428.3656730923174
 30
0.0
 11
102.914104780966
 21
473.2786730923172
 31
0.0
1001
AUSTER_FOLIE
1002
{
1000
VIERLOCH_MIT_KNEBEL_49_AUSTER
1002
}
1001
AUSTER_ANSICHT
1002
{
1000
SL
1002
}
  0
LINE
  5
27A43
330
20
100
AcDbEntity
  8
11000_Left
  6
Continuous
 62
     7
 48
0.5
370
    13
100
AcDbLine
 39
0.7
 10
118.2311747809659
 20
407.105703180248
 30
0.0
 11
118.2311747809659
 21
511.6386053163656
 31
0.0
1001
AUSTER_FOLIE
1002
{
1000
VIERLOCH_MIT_KNEBEL_49_AUSTER
1002
}
1001
AUSTER_ANSICHT
1002
{
1000
SL
1002
}
  0
LINE
  5
27A44
330
20
100
AcDbEntity
  8
11000_Left
  6
Continuous
 62
     7
 48
0.5
370
    13
100
AcDbLine
 39
0.7
 10
120.2311747809659
 20
406.952429865985
 30
0.0
 11
120.2311747809659
 21
511.7918798486108
 31
0.0
1001
AUSTER_FOLIE
1002
{
1000
VIERLOCH_MIT_KNEBEL_49_AUSTER
1002
}
1001
AUSTER_ANSICHT
1002
{
1000
SL
1002
}
  0
LINE
  5
27A45
330
20
100
AcDbEntity
  8
11000_Left
  6
Continuous
 62
     7
 48
0.5
370
    20
100
AcDbLine
 39
0.7
 10
86.23117478096594
 20
474.8234930923175
 30
0.0
 11
86.23117478096594
 21
474.8245230923171
 31
0.0
1001
AUSTER_FOLIE
1002
{
1000
VIERLOCH_MIT_KNEBEL_49_AUSTER
1002
}
1001
AUSTER_ANSICHT
1002
{
1000
SL
1002
}
  0
LINE
  5
27A46
330
20
100
AcDbEntity
  8
11000_Left
  6
Continuous
 62
     7
 48
0.5
370
    20
100
AcDbLine
 39
0.7
 10
85.88620478096595
 20
474.8539330923176
 30
0.0
 11
85.88620478096595
 21
478.4399730923174
 31
0.0
1001
AUSTER_FOLIE
1002
{
1000
VIERLOCH_MIT_KNEBEL_49_AUSTER
1002
}
1001
AUSTER_ANSICHT
1002
{
1000
SL
1002
}
  0
LINE
  5
27A47
330
20
100
AcDbEntity
  8
11000_Left
  6
Continuous
 62
     7
 48
0.5
370
    20
100
AcDbLine
 39
0.7
 10
73.23212478096593
 20
472.8233730923173
 30
0.0
 11
73.23117478096595
 21
472.8233730923173
 31
0.0
1001
AUSTER_FOLIE
1002
{
1000
VIERLOCH_MIT_KNEBEL_49_AUSTER
1002
}
1001
AUSTER_ANSICHT
1002
{
1000
SL
1002
}
  0
LINE
  5
27A48
330
20
100
AcDbEntity
  8
11000_Left
  6
Continuous
 62
     7
 48
0.5
370
    20
100
AcDbLine
 39
0.7
 10
73.23117478096595
 20
466.8233730923173
 30
0.0
 11
73.23212478096593
 21
466.8233730923173
 31
0.0
1001
AUSTER_FOLIE
1002
{
1000
VIERLOCH_MIT_KNEBEL_49_AUSTER
1002
}
1001
AUSTER_ANSICHT
1002
{
1000
SL
1002
}
  0
LINE
  5
27A49
330
20
100
AcDbEntity
  8
11000_Left
  6
Continuous
 62
     7
 48
0.5
370
    50
100
AcDbLine
 39
0.7
 10
73.23117478096595
 20
466.3233730923173
 30
0.0
 11
68.23117478096595
 21
466.3233730923173
 31
0.0
1001
AUSTER_FOLIE
1002
{
1000
VIERLOCH_MIT_KNEBEL_49_AUSTER
1002
}
1001
AUSTER_ANSICHT
1002
{
1000
SL
1002
}
  0
LINE
  5
27A4A
330
20
100
AcDbEntity
  8
11000_Left
  6
Continuous
 62
     7
 48
0.5
370
    20
100
AcDbLine
 39
0.7
 10
73.23017478096597
 20
466.8243730923173
 30
0.0
 11
69.23017478096595
 21
466.8243730923173
 31
0.0
1001
AUSTER_FOLIE
1002
{
1000
VIERLOCH_MIT_KNEBEL_49_AUSTER
1002
}
1001
AUSTER_ANSICHT
1002
{
1000
SL
1002
}
  0
LINE
  5
27A4B
330
20
100
AcDbEntity
  8
11000_Left
  6
Continuous
 62
     7
 48
0.5
370
    20
100
AcDbLine
 39
0.7
 10
73.23017478096597
 20
474.8243730923173
 30
0.0
 11
73.23017478096597
 21
466.8243730923173
 31
0.0
1001
AUSTER_FOLIE
1002
{
1000
VIERLOCH_MIT_KNEBEL_49_AUSTER
1002
}
1001
AUSTER_ANSICHT
1002
{
1000
SL
1002
}
  0
LINE
  5
27A4C
330
20
100
AcDbEntity
  8
11000_Left
  6
Continuous
 62
     7
 48
0.5
370
    50
100
AcDbLine
 39
0.7
 10
73.23117478096595
 20
474.8233730923173
 30
0.0
 11
73.23117478096595
 21
466.3233730923173
 31
0.0
1001
AUSTER_FOLIE
1002
{
1000
VIERLOCH_MIT_KNEBEL_49_AUSTER
1002
}
1001
AUSTER_ANSICHT
1002
{
1000
SL
1002
}
  0
LINE
  5
27A4D
330
20
100
AcDbEntity
  8
11000_Left
  6
Continuous
 62
     7
 48
0.5
370
    20
100
AcDbLine
 39
0.7
 10
69.23017478096595
 20
466.8243730923173
 30
0.0
 11
69.23017478096595
 21
480.8243730923172
 31
0.0
1001
AUSTER_FOLIE
1002
{
1000
VIERLOCH_MIT_KNEBEL_49_AUSTER
1002
}
1001
AUSTER_ANSICHT
1002
{
1000
SL
1002
}
  0
LINE
  5
27A4E
330
20
100
AcDbEntity
  8
11000_Left
  6
Continuous
 62
     7
 48
0.5
370
    20
100
AcDbLine
 39
0.7
 10
69.23017478096595
 20
480.8243730923172
 30
0.0
 11
83.23017478096597
 21
494.8243730923173
 31
0.0
1001
AUSTER_FOLIE
1002
{
1000
VIERLOCH_MIT_KNEBEL_49_AUSTER
1002
}
1001
AUSTER_ANSICHT
1002
{
1000
SL
1002
}
  0
LINE
  5
27A50
330
20
100
AcDbEntity
  8
11000_Left
  6
Continuous
 62
     7
 48
0.5
370
    50
100
AcDbLine
 39
0.7
 10
68.23117478096595
 20
435.3233730923173
 30
0.0
 11
73.23117478096595
 21
435.3233730923173
 31
0.0
1001
AUSTER_FOLIE
1002
{
1000
VIERLOCH_MIT_KNEBEL_49_AUSTER
1002
}
1001
AUSTER_ANSICHT
1002
{
1000
SL
1002
}
  0
LINE
  5
27A51
330
20
100
AcDbEntity
  8
11000_Left
  6
Continuous
 62
     7
 48
0.5
370
    20
100
AcDbLine
 39
0.7
 10
87.73117478096594
 20
423.8233730923171
 30
0.0
 11
87.73117478096594
 21
423.8235630923171
 31
0.0
1001
AUSTER_FOLIE
1002
{
1000
VIERLOCH_MIT_KNEBEL_49_AUSTER
1002
}
1001
AUSTER_ANSICHT
1002
{
1000
SL
1002
}
  0
LINE
  5
27A53
330
20
100
AcDbEntity
  8
11000_Left
  6
Continuous
 62
     7
 48
0.5
370
    20
100
AcDbLine
 39
0.7
 10
86.23117478096594
 20
423.8233730923171
 30
0.0
 11
86.23117478096594
 21
426.8233730923173
 31
0.0
1001
AUSTER_FOLIE
1002
{
1000
VIERLOCH_MIT_KNEBEL_49_AUSTER
1002
}
1001
AUSTER_ANSICHT
1002
{
1000
SL
1002
}
  0
LINE
  5
27A55
330
20
100
AcDbEntity
  8
11000_Left
  6
Continuous
 62
     7
 48
0.5
370
    50
100
AcDbLine
 39
0.7
 10
73.23117478096595
 20
435.3233730923173
 30
0.0
 11
73.23117478096595
 21
426.8233730923173
 31
0.0
1001
AUSTER_FOLIE
1002
{
1000
VIERLOCH_MIT_KNEBEL_49_AUSTER
1002
}
1001
AUSTER_ANSICHT
1002
{
1000
SL
1002
}
  0
LINE
  5
27A56
330
20
100
AcDbEntity
  8
11000_Left
  6
Continuous
 62
     7
 48
0.5
370
    50
100
AcDbLine
 39
0.7
 10
68.23117478096595
 20
466.3233730923173
 30
0.0
 11
68.23117478096595
 21
435.3233730923173
 31
0.0
1001
AUSTER_FOLIE
1002
{
1000
VIERLOCH_MIT_KNEBEL_49_AUSTER
1002
}
1001
AUSTER_ANSICHT
1002
{
1000
SL
1002
}
  0
LINE
  5
27A57
330
20
100
AcDbEntity
  8
11000_Left
  6
Continuous
 62
     7
 48
0.5
370
    20
100
AcDbLine
 39
0.7
 10
75.03026478096592
 20
473.2786730923172
 30
0.0
 11
75.03026478096592
 21
428.3656730923174
 31
0.0
1001
AUSTER_FOLIE
1002
{
1000
VIERLOCH_MIT_KNEBEL_49_AUSTER
1002
}
1001
AUSTER_ANSICHT
1002
{
1000
SL
1002
}
  0
LINE
  5
27A58
330
20
100
AcDbEntity
  8
11000_Left
  6
Continuous
 62
     7
 48
0.5
370
    20
100
AcDbLine
 39
0.7
 10
75.03026478096592
 20
473.2786730923172
 30
0.0
 11
102.914104780966
 21
473.2786730923172
 31
0.0
1001
AUSTER_FOLIE
1002
{
1000
VIERLOCH_MIT_KNEBEL_49_AUSTER
1002
}
1001
AUSTER_ANSICHT
1002
{
1000
SL
1002
}
  0
LINE
  5
27A59
330
20
100
AcDbEntity
  8
11000_Left
  6
Continuous
 62
     7
 48
0.5
370
    20
100
AcDbLine
 39
0.7
 10
85.88620478096595
 20
478.469603092317
 30
0.0
 11
99.53094478096593
 21
478.469603092317
 31
0.0
1001
AUSTER_FOLIE
1002
{
1000
VIERLOCH_MIT_KNEBEL_49_AUSTER
1002
}
1001
AUSTER_ANSICHT
1002
{
1000
SL
1002
}
  0
LINE
  5
27A5A
330
20
100
AcDbEntity
  8
11000_Left
  6
Continuous
 62
     7
 48
0.5
370
    20
100
AcDbLine
 39
0.7
 10
83.23017478096597
 20
494.8243730923173
 30
0.0
 11
103.2301747809659
 21
494.8243730923173
 31
0.0
1001
AUSTER_FOLIE
1002
{
1000
VIERLOCH_MIT_KNEBEL_49_AUSTER
1002
}
1001
AUSTER_ANSICHT
1002
{
1000
SL
1002
}
  0
LINE
  5
27A5B
330
20
100
AcDbEntity
  8
11000_Left
  6
Continuous
 62
     7
 48
0.5
370
    20
100
AcDbLine
 39
0.7
 10
103.2301747809659
 20
474.8243730923173
 30
0.0
 11
73.23017478096597
 21
474.8243730923173
 31
0.0
1001
AUSTER_FOLIE
1002
{
1000
VIERLOCH_MIT_KNEBEL_49_AUSTER
1002
}
1001
AUSTER_ANSICHT
1002
{
1000
SL
1002
}
  0
LINE
  5
27A5C
330
20
100
AcDbEntity
  8
11000_Left
  6
Continuous
 62
     7
 48
0.5
370
    50
100
AcDbLine
 39
0.7
 10
105.2311747809659
 20
474.8233730923173
 30
0.0
 11
73.23117478096595
 21
474.8233730923173
 31
0.0
1001
AUSTER_FOLIE
1002
{
1000
VIERLOCH_MIT_KNEBEL_49_AUSTER
1002
}
1001
AUSTER_ANSICHT
1002
{
1000
SL
1002
}
  0
LINE
  5
27A5D
330
20
100
AcDbEntity
  8
11000_Left
  6
Continuous
 62
     7
 48
0.5
370
    20
100
AcDbLine
 39
0.7
 10
75.03026478096592
 20
428.3656730923174
 30
0.0
 11
102.914104780966
 21
428.3656730923174
 31
0.0
1001
AUSTER_FOLIE
1002
{
1000
VIERLOCH_MIT_KNEBEL_49_AUSTER
1002
}
1001
AUSTER_ANSICHT
1002
{
1000
SL
1002
}
  0
LINE
  5
27A5E
330
20
100
AcDbEntity
  8
11000_Left
  6
Continuous
 62
     7
 48
0.5
370
    50
100
AcDbLine
 39
0.7
 10
73.23117478096595
 20
426.8233730923173
 30
0.0
 11
105.2311747809659
 21
426.8233730923173
 31
0.0
1001
AUSTER_FOLIE
1002
{
1000
VIERLOCH_MIT_KNEBEL_49_AUSTER
1002
}
1001
AUSTER_ANSICHT
1002
{
1000
SL
1002
}
  0
LINE
  5
27A5F
330
20
100
AcDbEntity
  8
11000_Left
  6
Continuous
 62
     7
 48
0.5
370
    20
100
AcDbLine
 39
0.7
 10
99.73117478096597
 20
423.8233730923171
 30
0.0
 11
86.23117478096594
 21
423.8233730923171
 31
0.0
1001
AUSTER_FOLIE
1002
{
1000
VIERLOCH_MIT_KNEBEL_49_AUSTER
1002
}
1001
AUSTER_ANSICHT
1002
{
1000
SL
1002
}
  0
LINE
  5
27A60
330
20
100
AcDbEntity
  8
10000_FRONT
  6
Continuous
 62
     7
370
    20
100
AcDbLine
 39
0.7
 10
25.11606258391442
 20
492.8233730923173
 30
0.0
 11
25.61606258391441
 21
492.8233730923173
 31
0.0
1001
AUSTER_FOLIE
1002
{
1000
VIERLOCH_MIT_KNEBEL_49_AUSTER
1002
}
1001
AUSTER_ANSICHT
1002
{
1000
V
1002
}
  0
LINE
  5
27A61
330
20
100
AcDbEntity
  8
10000_FRONT
  6
Continuous
 62
     7
370
    20
100
AcDbLine
 39
0.7
 10
25.11606258391442
 20
494.823373092317
 30
0.0
 11
25.11606258391442
 21
492.8233730923173
 31
0.0
1001
AUSTER_FOLIE
1002
{
1000
VIERLOCH_MIT_KNEBEL_49_AUSTER
1002
}
1001
AUSTER_ANSICHT
1002
{
1000
V
1002
}
  0
LINE
  5
27A62
330
20
100
AcDbEntity
  8
10000_FRONT
  6
Continuous
 62
     7
370
    20
100
AcDbLine
 39
0.7
 10
27.61606258391442
 20
494.823373092317
 30
0.0
 11
25.11606258391442
 21
494.823373092317
 31
0.0
1001
AUSTER_FOLIE
1002
{
1000
VIERLOCH_MIT_KNEBEL_49_AUSTER
1002
}
1001
AUSTER_ANSICHT
1002
{
1000
V
1002
}
  0
LINE
  5
27A64
330
20
100
AcDbEntity
  8
10000_FRONT
  6
Continuous
 62
     7
370
    20
100
AcDbLine
 39
0.7
 10
27.61606258391442
 20
474.8233730923173
 30
0.0
 11
27.61606258391442
 21
474.3044530923172
 31
0.0
1001
AUSTER_FOLIE
1002
{
1000
VIERLOCH_MIT_KNEBEL_49_AUSTER
1002
}
1001
AUSTER_ANSICHT
1002
{
1000
V
1002
}
  0
ARC
  5
27A65
330
20
100
AcDbEntity
  8
10000_FRONT
  6
Continuous
 62
     7
370
    50
100
AcDbCircle
 39
0.7
 10
25.9160618012852
 20
471.8133723096878
 30
0.0
 40
3.000000782629358
100
AcDbArc
 50
0.0000149471161624
 51
89.99998505288543
1001
AUSTER_FOLIE
1002
{
1000
VIERLOCH_MIT_KNEBEL_49_AUSTER
1002
}
1001
AUSTER_ANSICHT
1002
{
1000
V
1002
}
  0
LINE
  5
27A66
330
20
100
AcDbEntity
  8
10000_FRONT
  6
Continuous
 62
     7
370
    20
100
AcDbLine
 39
0.7
 10
27.61606258391442
 20
474.8233730923173
 30
0.0
 11
25.61606258391441
 21
474.8233730923173
 31
0.0
1001
AUSTER_FOLIE
1002
{
1000
VIERLOCH_MIT_KNEBEL_49_AUSTER
1002
}
1001
AUSTER_ANSICHT
1002
{
1000
V
1002
}
  0
LINE
  5
27A67
330
20
100
AcDbEntity
  8
10000_FRONT
  6
Continuous
 62
     7
370
    20
100
AcDbLine
 39
0.7
 10
25.61606258391441
 20
492.8233730923173
 30
0.0
 11
25.61606258391441
 21
474.8233730923173
 31
0.0
1001
AUSTER_FOLIE
1002
{
1000
VIERLOCH_MIT_KNEBEL_49_AUSTER
1002
}
1001
AUSTER_ANSICHT
1002
{
1000
V
1002
}
  0
LINE
  5
27A68
330
20
100
AcDbEntity
  8
10000_FRONT
  6
Continuous
 62
     7
370
    20
100
AcDbLine
 39
0.7
 10
27.61606258391442
 20
494.823373092317
 30
0.0
 11
27.61606258391442
 21
474.8233730923173
 31
0.0
1001
AUSTER_FOLIE
1002
{
1000
VIERLOCH_MIT_KNEBEL_49_AUSTER
1002
}
1001
AUSTER_ANSICHT
1002
{
1000
V
1002
}
  0
LINE
  5
27A69
330
20
100
AcDbEntity
  8
10000_FRONT
  6
Continuous
 62
     7
370
    20
100
AcDbLine
 39
0.7
 10
15.11606258391441
 20
492.8233730923173
 30
0.0
 11
15.11606258391441
 21
494.823373092317
 31
0.0
1001
AUSTER_FOLIE
1002
{
1000
VIERLOCH_MIT_KNEBEL_49_AUSTER
1002
}
1001
AUSTER_ANSICHT
1002
{
1000
V
1002
}
  0
LINE
  5
27A6A
330
20
100
AcDbEntity
  8
10000_FRONT
  6
Continuous
 62
     7
370
    20
100
AcDbLine
 39
0.7
 10
10.11606258391441
 20
494.823373092317
 30
0.0
 11
10.11606258391441
 21
492.8233730923173
 31
0.0
1001
AUSTER_FOLIE
1002
{
1000
VIERLOCH_MIT_KNEBEL_49_AUSTER
1002
}
1001
AUSTER_ANSICHT
1002
{
1000
V
1002
}
  0
LINE
  5
27A6B
330
20
100
AcDbEntity
  8
10000_FRONT
  6
Continuous
 62
     7
370
    20
100
AcDbLine
 39
0.7
 10
10.11606258391441
 20
492.8233730923173
 30
0.0
 11
15.11606258391441
 21
492.8233730923173
 31
0.0
1001
AUSTER_FOLIE
1002
{
1000
VIERLOCH_MIT_KNEBEL_49_AUSTER
1002
}
1001
AUSTER_ANSICHT
1002
{
1000
V
1002
}
  0
LINE
  5
27A6C
330
20
100
AcDbEntity
  8
10000_FRONT
  6
Continuous
 62
     7
370
    20
100
AcDbLine
 39
0.7
 10
15.11606258391441
 20
494.823373092317
 30
0.0
 11
10.11606258391441
 21
494.823373092317
 31
0.0
1001
AUSTER_FOLIE
1002
{
1000
VIERLOCH_MIT_KNEBEL_49_AUSTER
1002
}
1001
AUSTER_ANSICHT
1002
{
1000
V
1002
}
  0
LINE
  5
27A6D
330
20
100
AcDbEntity
  8
10000_FRONT
  6
Continuous
 62
     7
370
    20
100
AcDbLine
 39
0.7
 10
0.1160625839144131
 20
492.8233730923173
 30
0.0
 11
0.1160625839144131
 21
494.823373092317
 31
0.0
1001
AUSTER_FOLIE
1002
{
1000
VIERLOCH_MIT_KNEBEL_49_AUSTER
1002
}
1001
AUSTER_ANSICHT
1002
{
1000
V
1002
}
  0
LINE
  5
27A6E
330
20
100
AcDbEntity
  8
10000_FRONT
  6
Continuous
 62
     7
370
    20
100
AcDbLine
 39
0.7
 10
10.11606258391441
 20
494.823373092317
 30
0.0
 11
0.1160895839144302
 21
494.823373092317
 31
0.0
1001
AUSTER_FOLIE
1002
{
1000
VIERLOCH_MIT_KNEBEL_49_AUSTER
1002
}
1001
AUSTER_ANSICHT
1002
{
1000
V
1002
}
  0
LINE
  5
27A6F
330
20
100
AcDbEntity
  8
10000_FRONT
  6
Continuous
 62
     7
370
    20
100
AcDbLine
 39
0.7
 10
0.1160625839144131
 20
492.8233730923173
 30
0.0
 11
10.11606258391441
 21
492.8233730923173
 31
0.0
1001
AUSTER_FOLIE
1002
{
1000
VIERLOCH_MIT_KNEBEL_49_AUSTER
1002
}
1001
AUSTER_ANSICHT
1002
{
1000
V
1002
}
  0
LINE
  5
27A70
330
20
100
AcDbEntity
  8
10000_FRONT
  6
Continuous
 62
     7
370
    20
100
AcDbLine
 39
0.7
 10
-4.883937416085585
 20
494.823373092317
 30
0.0
 11
-4.883937416085585
 21
492.8233730923173
 31
0.0
1001
AUSTER_FOLIE
1002
{
1000
VIERLOCH_MIT_KNEBEL_49_AUSTER
1002
}
1001
AUSTER_ANSICHT
1002
{
1000
V
1002
}
  0
LINE
  5
27A71
330
20
100
AcDbEntity
  8
10000_FRONT
  6
Continuous
 62
     7
370
    20
100
AcDbLine
 39
0.7
 10
-14.88393741608559
 20
494.823373092317
 30
0.0
 11
-17.78393741608556
 21
494.823373092317
 31
0.0
1001
AUSTER_FOLIE
1002
{
1000
VIERLOCH_MIT_KNEBEL_49_AUSTER
1002
}
1001
AUSTER_ANSICHT
1002
{
1000
V
1002
}
  0
LINE
  5
27A72
330
20
100
AcDbEntity
  8
10000_FRONT
  6
Continuous
 62
     7
370
    20
100
AcDbLine
 39
0.7
 10
-15.78393741608556
 20
492.8233730923173
 30
0.0
 11
-14.88393741608559
 21
492.8233730923173
 31
0.0
1001
AUSTER_FOLIE
1002
{
1000
VIERLOCH_MIT_KNEBEL_49_AUSTER
1002
}
1001
AUSTER_ANSICHT
1002
{
1000
V
1002
}
  0
LINE
  5
27A73
330
20
100
AcDbEntity
  8
10000_FRONT
  6
Continuous
 62
     7
370
    20
100
AcDbLine
 39
0.7
 10
-14.88393741608559
 20
492.8233730923173
 30
0.0
 11
-14.88393741608559
 21
494.823373092317
 31
0.0
1001
AUSTER_FOLIE
1002
{
1000
VIERLOCH_MIT_KNEBEL_49_AUSTER
1002
}
1001
AUSTER_ANSICHT
1002
{
1000
V
1002
}
  0
LINE
  5
27A74
330
20
100
AcDbEntity
  8
10000_FRONT
  6
Continuous
 62
     7
370
    20
100
AcDbLine
 39
0.7
 10
-4.883937416085585
 20
494.823373092317
 30
0.0
 11
-14.88391041608557
 21
494.823373092317
 31
0.0
1001
AUSTER_FOLIE
1002
{
1000
VIERLOCH_MIT_KNEBEL_49_AUSTER
1002
}
1001
AUSTER_ANSICHT
1002
{
1000
V
1002
}
  0
LINE
  5
27A75
330
20
100
AcDbEntity
  8
10000_FRONT
  6
Continuous
 62
     7
370
    20
100
AcDbLine
 39
0.7
 10
-14.88393741608559
 20
492.8233730923173
 30
0.0
 11
-4.883937416085585
 21
492.8233730923173
 31
0.0
1001
AUSTER_FOLIE
1002
{
1000
VIERLOCH_MIT_KNEBEL_49_AUSTER
1002
}
1001
AUSTER_ANSICHT
1002
{
1000
V
1002
}
  0
LINE
  5
27A76
330
20
100
AcDbEntity
  8
10000_FRONT
  6
Continuous
 62
     7
370
    20
100
AcDbLine
 39
0.7
 10
0.1160625839144131
 20
494.823373092317
 30
0.0
 11
-4.883937416085585
 21
494.823373092317
 31
0.0
1001
AUSTER_FOLIE
1002
{
1000
VIERLOCH_MIT_KNEBEL_49_AUSTER
1002
}
1001
AUSTER_ANSICHT
1002
{
1000
V
1002
}
  0
LINE
  5
27A77
330
20
100
AcDbEntity
  8
10000_FRONT
  6
Continuous
 62
     7
370
    20
100
AcDbLine
 39
0.7
 10
-4.883937416085585
 20
492.8233730923173
 30
0.0
 11
0.1160625839144131
 21
492.8233730923173
 31
0.0
1001
AUSTER_FOLIE
1002
{
1000
VIERLOCH_MIT_KNEBEL_49_AUSTER
1002
}
1001
AUSTER_ANSICHT
1002
{
1000
V
1002
}
  0
LINE
  5
27A79
330
20
100
AcDbEntity
  8
10000_FRONT
  6
Continuous
 62
     7
370
    20
100
AcDbLine
 39
0.7
 10
5.069231583914413
 20
472.6183130923173
 30
0.0
 11
5.069231583914413
 21
467.2073230923172
 31
0.0
1001
AUSTER_FOLIE
1002
{
1000
VIERLOCH_MIT_KNEBEL_49_AUSTER
1002
}
1001
AUSTER_ANSICHT
1002
{
1000
V
1002
}
  0
LINE
  5
27A7A
330
20
100
AcDbEntity
  8
10000_FRONT
  6
Continuous
 62
     7
370
    20
100
AcDbLine
 39
0.7
 10
14.41606258391442
 20
478.3133730923172
 30
0.0
 11
14.41606258391442
 21
474.8193930923171
 31
0.0
1001
AUSTER_FOLIE
1002
{
1000
VIERLOCH_MIT_KNEBEL_49_AUSTER
1002
}
1001
AUSTER_ANSICHT
1002
{
1000
V
1002
}
  0
LINE
  5
27A7B
330
20
100
AcDbEntity
  8
10000_FRONT
  6
Continuous
 62
     7
370
    20
100
AcDbLine
 39
0.7
 10
10.91606258391442
 20
474.8193930923171
 30
0.0
 11
10.91606258391442
 21
478.3133730923172
 31
0.0
1001
AUSTER_FOLIE
1002
{
1000
VIERLOCH_MIT_KNEBEL_49_AUSTER
1002
}
1001
AUSTER_ANSICHT
1002
{
1000
V
1002
}
  0
LINE
  5
27A7C
330
20
100
AcDbEntity
  8
10000_FRONT
  6
Continuous
 62
     7
370
    20
100
AcDbLine
 39
0.7
 10
-15.78325741608557
 20
478.3133730923172
 30
0.0
 11
-4.583937416085575
 21
478.3133730923172
 31
0.0
1001
AUSTER_FOLIE
1002
{
1000
VIERLOCH_MIT_KNEBEL_49_AUSTER
1002
}
1001
AUSTER_ANSICHT
1002
{
1000
V
1002
}
  0
LINE
  5
27A82
330
20
100
AcDbEntity
  8
10000_FRONT
  6
Continuous
 62
     7
370
    20
100
AcDbLine
 39
0.7
 10
-15.78393741608556
 20
474.8233730923173
 30
0.0
 11
-17.78393741608556
 21
474.8233730923173
 31
0.0
1001
AUSTER_FOLIE
1002
{
1000
VIERLOCH_MIT_KNEBEL_49_AUSTER
1002
}
1001
AUSTER_ANSICHT
1002
{
1000
V
1002
}
  0
LINE
  5
27A83
330
20
100
AcDbEntity
  8
10000_FRONT
  6
Continuous
 62
     7
370
    20
100
AcDbLine
 39
0.7
 10
-17.78393741608556
 20
474.8233730923173
 30
0.0
 11
-17.78393741608556
 21
474.2846230923171
 31
0.0
1001
AUSTER_FOLIE
1002
{
1000
VIERLOCH_MIT_KNEBEL_49_AUSTER
1002
}
1001
AUSTER_ANSICHT
1002
{
1000
V
1002
}
  0
LINE
  5
27A84
330
20
100
AcDbEntity
  8
10000_FRONT
  6
Continuous
 62
     7
370
    20
100
AcDbLine
 39
0.7
 10
-1.083937416085575
 20
478.3133730923172
 30
0.0
 11
-1.083937416085575
 21
474.8193930923171
 31
0.0
1001
AUSTER_FOLIE
1002
{
1000
VIERLOCH_MIT_KNEBEL_49_AUSTER
1002
}
1001
AUSTER_ANSICHT
1002
{
1000
V
1002
}
  0
LINE
  5
27A85
330
20
100
AcDbEntity
  8
10000_FRONT
  6
Continuous
 62
     7
370
    20
100
AcDbLine
 39
0.7
 10
-4.583937416085575
 20
474.8193930923171
 30
0.0
 11
-4.583937416085575
 21
478.3133730923172
 31
0.0
1001
AUSTER_FOLIE
1002
{
1000
VIERLOCH_MIT_KNEBEL_49_AUSTER
1002
}
1001
AUSTER_ANSICHT
1002
{
1000
V
1002
}
  0
LINE
  5
27A86
330
20
100
AcDbEntity
  8
10000_FRONT
  6
Continuous
 62
     7
370
    20
100
AcDbLine
 39
0.7
 10
-1.083937416085575
 20
478.3133730923172
 30
0.0
 11
10.91606258391442
 21
478.3133730923172
 31
0.0
1001
AUSTER_FOLIE
1002
{
1000
VIERLOCH_MIT_KNEBEL_49_AUSTER
1002
}
1001
AUSTER_ANSICHT
1002
{
1000
V
1002
}
  0
LINE
  5
27A87
330
20
100
AcDbEntity
  8
10000_FRONT
  6
Continuous
 62
     7
370
    20
100
AcDbLine
 39
0.7
 10
-2.883937416085586
 20
474.8233730923173
 30
0.0
 11
-2.883937416085586
 21
492.8233730923173
 31
0.0
1001
AUSTER_FOLIE
1002
{
1000
VIERLOCH_MIT_KNEBEL_49_AUSTER
1002
}
1001
AUSTER_ANSICHT
1002
{
1000
V
1002
}
  0
LINE
  5
27A88
330
20
100
AcDbEntity
  8
10000_FRONT
  6
Continuous
 62
     7
370
    20
100
AcDbLine
 39
0.7
 10
-1.883937416085585
 20
474.8233730923173
 30
0.0
 11
-1.883937416085585
 21
492.8233730923173
 31
0.0
1001
AUSTER_FOLIE
1002
{
1000
VIERLOCH_MIT_KNEBEL_49_AUSTER
1002
}
1001
AUSTER_ANSICHT
1002
{
1000
V
1002
}
  0
LINE
  5
27A89
330
20
100
AcDbEntity
  8
10000_FRONT
  6
Continuous
 62
     7
370
    20
100
AcDbLine
 39
0.7
 10
13.11606258391441
 20
474.8233730923173
 30
0.0
 11
13.11606258391441
 21
492.8233730923173
 31
0.0
1001
AUSTER_FOLIE
1002
{
1000
VIERLOCH_MIT_KNEBEL_49_AUSTER
1002
}
1001
AUSTER_ANSICHT
1002
{
1000
V
1002
}
  0
LINE
  5
27A8A
330
20
100
AcDbEntity
  8
10000_FRONT
  6
Continuous
 62
     7
370
    20
100
AcDbLine
 39
0.7
 10
12.11606258391441
 20
492.8233730923173
 30
0.0
 11
12.11606258391441
 21
474.8233730923173
 31
0.0
1001
AUSTER_FOLIE
1002
{
1000
VIERLOCH_MIT_KNEBEL_49_AUSTER
1002
}
1001
AUSTER_ANSICHT
1002
{
1000
V
1002
}
  0
LINE
  5
27A8B
330
20
100
AcDbEntity
  8
10000_FRONT
  6
Continuous
 62
     7
370
    20
100
AcDbLine
 39
0.7
 10
-15.78393741608556
 20
474.8233730923173
 30
0.0
 11
-15.78393741608556
 21
492.8233730923173
 31
0.0
1001
AUSTER_FOLIE
1002
{
1000
VIERLOCH_MIT_KNEBEL_49_AUSTER
1002
}
1001
AUSTER_ANSICHT
1002
{
1000
V
1002
}
  0
LINE
  5
27A8C
330
20
100
AcDbEntity
  8
10000_FRONT
  6
Continuous
 62
     7
370
    20
100
AcDbLine
 39
0.7
 10
-17.78393741608556
 20
494.823373092317
 30
0.0
 11
-17.78393741608556
 21
474.8233730923173
 31
0.0
1001
AUSTER_FOLIE
1002
{
1000
VIERLOCH_MIT_KNEBEL_49_AUSTER
1002
}
1001
AUSTER_ANSICHT
1002
{
1000
V
1002
}
  0
LINE
  5
27A8D
330
20
100
AcDbEntity
  8
10000_FRONT
  6
Continuous
 62
     7
370
    20
100
AcDbLine
 39
0.7
 10
25.11606258391442
 20
494.823373092317
 30
0.0
 11
15.11609258391445
 21
494.823373092317
 31
0.0
1001
AUSTER_FOLIE
1002
{
1000
VIERLOCH_MIT_KNEBEL_49_AUSTER
1002
}
1001
AUSTER_ANSICHT
1002
{
1000
V
1002
}
  0
LINE
  5
27A8E
330
20
100
AcDbEntity
  8
10000_FRONT
  6
Continuous
 62
     7
370
    20
100
AcDbLine
 39
0.7
 10
15.11606258391441
 20
492.8233730923173
 30
0.0
 11
25.11606258391442
 21
492.8233730923173
 31
0.0
1001
AUSTER_FOLIE
1002
{
1000
VIERLOCH_MIT_KNEBEL_49_AUSTER
1002
}
1001
AUSTER_ANSICHT
1002
{
1000
V
1002
}
  0
LINE
  5
27A8F
330
20
100
AcDbEntity
  8
10000_FRONT
  6
Continuous
 62
     7
370
    20
100
AcDbLine
 39
0.7
 10
14.41606258391442
 20
478.3133730923172
 30
0.0
 11
25.6167425839144
 21
478.3133730923172
 31
0.0
1001
AUSTER_FOLIE
1002
{
1000
VIERLOCH_MIT_KNEBEL_49_AUSTER
1002
}
1001
AUSTER_ANSICHT
1002
{
1000
V
1002
}
  0
LINE
  5
27A90
330
20
100
AcDbEntity
  8
10000_FRONT
  6
Continuous
 62
     7
370
    50
100
AcDbLine
 39
0.7
 10
25.91606258391442
 20
474.8133730923171
 30
0.0
 11
-16.08393741608557
 21
474.8133730923171
 31
0.0
1001
AUSTER_FOLIE
1002
{
1000
VIERLOCH_MIT_KNEBEL_49_AUSTER
1002
}
1001
AUSTER_ANSICHT
1002
{
1000
V
1002
}
  0
LINE
  5
27AA4
330
20
100
AcDbEntity
  8
10000_FRONT
  6
Continuous
 62
     7
370
    20
100
AcDbLine
 39
0.7
 10
26.41606258391443
 20
423.3133730923172
 30
0.0
 11
26.41606258391443
 21
426.8133730923172
 31
0.0
1001
AUSTER_FOLIE
1002
{
1000
VIERLOCH_MIT_KNEBEL_49_AUSTER
1002
}
1001
AUSTER_ANSICHT
1002
{
1000
V
1002
}
  0
LINE
  5
27AA5
330
20
100
AcDbEntity
  8
10000_FRONT
  6
Continuous
 62
     7
370
    20
100
AcDbLine
 39
0.7
 10
27.41606258391442
 20
426.8133730923172
 30
0.0
 11
27.41606258391442
 21
427.2159230923172
 31
0.0
1001
AUSTER_FOLIE
1002
{
1000
VIERLOCH_MIT_KNEBEL_49_AUSTER
1002
}
1001
AUSTER_ANSICHT
1002
{
1000
V
1002
}
  0
LINE
  5
27AA8
330
20
100
AcDbEntity
  8
10000_FRONT
  6
Continuous
 62
     7
370
    20
100
AcDbLine
 39
0.7
 10
25.91606258391442
 20
426.8133730923172
 30
0.0
 11
27.41606258391442
 21
426.8133730923172
 31
0.0
1001
AUSTER_FOLIE
1002
{
1000
VIERLOCH_MIT_KNEBEL_49_AUSTER
1002
}
1001
AUSTER_ANSICHT
1002
{
1000
V
1002
}
  0
ARC
  5
27AA9
330
20
100
AcDbEntity
  8
10000_FRONT
  6
Continuous
 62
     7
370
    50
100
AcDbCircle
 39
0.7
 10
25.91606180128525
 20
429.8133738749465
 30
0.0
 40
3.00000078262916
100
AcDbArc
 50
270.0000149471129
 51
359.9999850528903
1001
AUSTER_FOLIE
1002
{
1000
VIERLOCH_MIT_KNEBEL_49_AUSTER
1002
}
1001
AUSTER_ANSICHT
1002
{
1000
V
1002
}
  0
ARC
  5
27AAB
330
20
100
AcDbEntity
  8
10000_FRONT
  6
Continuous
 62
     7
370
    20
100
AcDbCircle
 39
0.7
 10
-14.96782341608559
 20
450.4294230923171
 30
0.0
 40
3.0
100
AcDbArc
 50
0.0
 51
180.0
1001
AUSTER_FOLIE
1002
{
1000
VIERLOCH_MIT_KNEBEL_49_AUSTER
1002
}
1001
AUSTER_ANSICHT
1002
{
1000
V
1002
}
  0
ARC
  5
27AAE
330
20
100
AcDbEntity
  8
10000_FRONT
  6
Continuous
 62
     7
370
    20
100
AcDbCircle
 39
0.7
 10
-14.96782341608559
 20
450.4294230923171
 30
0.0
 40
3.0
100
AcDbArc
 50
180.0
 51
0.0
1001
AUSTER_FOLIE
1002
{
1000
VIERLOCH_MIT_KNEBEL_49_AUSTER
1002
}
1001
AUSTER_ANSICHT
1002
{
1000
V
1002
}
  0
LINE
  5
27AB1
330
20
100
AcDbEntity
  8
10000_FRONT
  6
Continuous
 62
     7
370
    20
100
AcDbLine
 39
0.7
 10
14.41606258391442
 20
426.8133730923172
 30
0.0
 11
14.41606258391442
 21
423.3133730923172
 31
0.0
1001
AUSTER_FOLIE
1002
{
1000
VIERLOCH_MIT_KNEBEL_49_AUSTER
1002
}
1001
AUSTER_ANSICHT
1002
{
1000
V
1002
}
  0
LINE
  5
27AB3
330
20
100
AcDbEntity
  8
10000_FRONT
  6
Continuous
 62
     7
370
    20
100
AcDbLine
 39
0.7
 10
15.91606258391442
 20
423.3133730923172
 30
0.0
 11
15.91606258391442
 21
423.3139430923172
 31
0.0
1001
AUSTER_FOLIE
1002
{
1000
VIERLOCH_MIT_KNEBEL_49_AUSTER
1002
}
1001
AUSTER_ANSICHT
1002
{
1000
V
1002
}
  0
LINE
  5
27AB4
330
20
100
AcDbEntity
  8
10000_FRONT
  6
Continuous
 62
     7
370
    20
100
AcDbLine
 39
0.7
 10
10.91606258391442
 20
423.3133730923172
 30
0.0
 11
10.91606258391442
 21
426.8133730923172
 31
0.0
1001
AUSTER_FOLIE
1002
{
1000
VIERLOCH_MIT_KNEBEL_49_AUSTER
1002
}
1001
AUSTER_ANSICHT
1002
{
1000
V
1002
}
  0
LINE
  5
27AB6
330
20
100
AcDbEntity
  8
10000_FRONT
  6
Continuous
 62
     7
370
    20
100
AcDbLine
 39
0.7
 10
9.416062583914424
 20
423.3133730923172
 30
0.0
 11
9.416062583914424
 21
423.3139430923172
 31
0.0
1001
AUSTER_FOLIE
1002
{
1000
VIERLOCH_MIT_KNEBEL_49_AUSTER
1002
}
1001
AUSTER_ANSICHT
1002
{
1000
V
1002
}
  0
LINE
  5
27AB8
330
20
100
AcDbEntity
  8
10000_FRONT
  6
Continuous
 62
     7
370
    20
100
AcDbLine
 39
0.7
 10
0.4160625839144246
 20
423.3133730923172
 30
0.0
 11
0.4160625839144246
 21
423.3139430923172
 31
0.0
1001
AUSTER_FOLIE
1002
{
1000
VIERLOCH_MIT_KNEBEL_49_AUSTER
1002
}
1001
AUSTER_ANSICHT
1002
{
1000
V
1002
}
  0
LINE
  5
27AB9
330
20
100
AcDbEntity
  8
10000_FRONT
  6
Continuous
 62
     7
370
    20
100
AcDbLine
 39
0.7
 10
-1.083937416085575
 20
426.8133730923172
 30
0.0
 11
-1.083937416085575
 21
423.3133730923172
 31
0.0
1001
AUSTER_FOLIE
1002
{
1000
VIERLOCH_MIT_KNEBEL_49_AUSTER
1002
}
1001
AUSTER_ANSICHT
1002
{
1000
V
1002
}
  0
LINE
  5
27ABA
330
20
100
AcDbEntity
  8
10000_FRONT
  6
Continuous
 62
     7
370
    20
100
AcDbLine
 39
0.7
 10
-4.583937416085575
 20
423.3133730923172
 30
0.0
 11
-4.583937416085575
 21
426.8133730923172
 31
0.0
1001
AUSTER_FOLIE
1002
{
1000
VIERLOCH_MIT_KNEBEL_49_AUSTER
1002
}
1001
AUSTER_ANSICHT
1002
{
1000
V
1002
}
  0
LINE
  5
27ABC
330
20
100
AcDbEntity
  8
10000_FRONT
  6
Continuous
 62
     7
370
    20
100
AcDbLine
 39
0.7
 10
-6.083937416085574
 20
423.3133730923172
 30
0.0
 11
-6.083937416085574
 21
423.3139430923172
 31
0.0
1001
AUSTER_FOLIE
1002
{
1000
VIERLOCH_MIT_KNEBEL_49_AUSTER
1002
}
1001
AUSTER_ANSICHT
1002
{
1000
V
1002
}
  0
LINE
  5
27ABE
330
20
100
AcDbEntity
  8
10000_FRONT
  6
Continuous
 62
     7
370
    20
100
AcDbLine
 39
0.7
 10
-17.58393741608557
 20
423.3133730923172
 30
0.0
 11
-17.58393741608557
 21
426.8133730923172
 31
0.0
1001
AUSTER_FOLIE
1002
{
1000
VIERLOCH_MIT_KNEBEL_49_AUSTER
1002
}
1001
AUSTER_ANSICHT
1002
{
1000
V
1002
}
  0
LINE
  5
27AC1
330
20
100
AcDbEntity
  8
10000_FRONT
  6
Continuous
 62
     7
370
    20
100
AcDbLine
 39
0.7
 10
-17.58393741608557
 20
426.8133730923172
 30
0.0
 11
-17.58393741608557
 21
427.2253630923172
 31
0.0
1001
AUSTER_FOLIE
1002
{
1000
VIERLOCH_MIT_KNEBEL_49_AUSTER
1002
}
1001
AUSTER_ANSICHT
1002
{
1000
V
1002
}
  0
LINE
  5
27AC2
330
20
100
AcDbEntity
  8
10000_FRONT
  6
Continuous
 62
     7
370
    20
100
AcDbLine
 39
0.7
 10
-17.58393741608557
 20
426.8133730923172
 30
0.0
 11
-16.08393741608557
 21
426.8133730923172
 31
0.0
1001
AUSTER_FOLIE
1002
{
1000
VIERLOCH_MIT_KNEBEL_49_AUSTER
1002
}
1001
AUSTER_ANSICHT
1002
{
1000
V
1002
}
  0
LINE
  5
27AC3
330
20
100
AcDbEntity
  8
10000_FRONT
  6
Continuous
 62
     7
370
    20
100
AcDbLine
 39
0.7
 10
-17.58393741608557
 20
423.3133730923172
 30
0.0
 11
-4.583937416085575
 21
423.3133730923172
 31
0.0
1001
AUSTER_FOLIE
1002
{
1000
VIERLOCH_MIT_KNEBEL_49_AUSTER
1002
}
1001
AUSTER_ANSICHT
1002
{
1000
V
1002
}
  0
LINE
  5
27AC4
330
20
100
AcDbEntity
  8
10000_FRONT
  6
Continuous
 62
     7
370
    20
100
AcDbLine
 39
0.7
 10
-1.083937416085575
 20
423.3133730923172
 30
0.0
 11
10.91606258391442
 21
423.3133730923172
 31
0.0
1001
AUSTER_FOLIE
1002
{
1000
VIERLOCH_MIT_KNEBEL_49_AUSTER
1002
}
1001
AUSTER_ANSICHT
1002
{
1000
V
1002
}
  0
LINE
  5
27AC5
330
20
100
AcDbEntity
  8
10000_FRONT
  6
Continuous
 62
     7
370
    20
100
AcDbLine
 39
0.7
 10
14.41606258391442
 20
423.3133730923172
 30
0.0
 11
26.41606258391443
 21
423.3133730923172
 31
0.0
1001
AUSTER_FOLIE
1002
{
1000
VIERLOCH_MIT_KNEBEL_49_AUSTER
1002
}
1001
AUSTER_ANSICHT
1002
{
1000
V
1002
}
  0
LINE
  5
27AC8
330
20
100
AcDbEntity
  8
10000_FRONT
  6
Continuous
 62
     7
370
    50
100
AcDbLine
 39
0.7
 10
-16.08393741608557
 20
426.8133730923172
 30
0.0
 11
25.91606258391442
 21
426.8133730923172
 31
0.0
1001
AUSTER_FOLIE
1002
{
1000
VIERLOCH_MIT_KNEBEL_49_AUSTER
1002
}
1001
AUSTER_ANSICHT
1002
{
1000
V
1002
}
  0
LINE
  5
27ACB
330
20
100
AcDbEntity
  8
10000_FRONT
  6
Continuous
 62
     7
370
    50
100
AcDbLine
 39
0.7
 10
28.91606258391443
 20
429.8133730923171
 30
0.0
 11
28.91606258391443
 21
448.5633730923169
 31
0.0
1001
AUSTER_FOLIE
1002
{
1000
VIERLOCH_MIT_KNEBEL_49_AUSTER
1002
}
1001
AUSTER_ANSICHT
1002
{
1000
V
1002
}
  0
LINE
  5
27ACD
330
20
100
AcDbEntity
  8
10000_FRONT
  6
Continuous
 62
     7
370
    50
100
AcDbLine
 39
0.7
 10
-19.08393741608557
 20
471.8133730923171
 30
0.0
 11
-19.08393741608557
 21
429.8133730923171
 31
0.0
1001
AUSTER_FOLIE
1002
{
1000
VIERLOCH_MIT_KNEBEL_49_AUSTER
1002
}
1001
AUSTER_ANSICHT
1002
{
1000
V
1002
}
  0
ARC
  5
27ACE
330
20
100
AcDbEntity
  8
10000_FRONT
  6
Continuous
 62
     7
370
    50
100
AcDbCircle
 39
0.7
 10
-16.0839366334564
 20
471.8133723096881
 30
0.0
 40
3.000000782629274
100
AcDbArc
 50
90.00001494711289
 51
179.9999850528838
1001
AUSTER_FOLIE
1002
{
1000
VIERLOCH_MIT_KNEBEL_49_AUSTER
1002
}
1001
AUSTER_ANSICHT
1002
{
1000
V
1002
}
  0
ARC
  5
27ACF
330
20
100
AcDbEntity
  8
10000_FRONT
  6
Continuous
 62
     7
370
    50
100
AcDbCircle
 39
0.7
 10
-16.08393663345626
 20
429.8133738749468
 30
0.0
 40
3.000000782629411
100
AcDbArc
 50
180.0000149471161
 51
269.9999850528854
1001
AUSTER_FOLIE
1002
{
1000
VIERLOCH_MIT_KNEBEL_49_AUSTER
1002
}
1001
AUSTER_ANSICHT
1002
{
1000
V
1002
}
  0
LINE
  5
27AD0
330
20
100
AcDbEntity
  8
11000_Left
  6
Continuous
 62
     7
 48
0.5
370
    20
100
AcDbLine
 39
0.3
 10
100.103030980966
 20
445.4306866923173
 30
0.0
 11
100.103030980966
 21
446.4056866923171
 31
0.0
1001
AUSTER_FOLIE
1002
{
1000
VIERLOCH_MIT_KNEBEL_49_AUSTER
1002
}
1001
AUSTER_ANSICHT
1002
{
1000
SL
1002
}
  0
LINE
  5
27AD1
330
20
100
AcDbEntity
  8
11000_Left
  6
Continuous
 62
     7
 48
0.5
370
    20
100
AcDbLine
 39
0.3
 10
97.10303090296587
 20
444.7256866923171
 30
0.0
 11
99.02303089096598
 21
445.8056866923173
 31
0.0
1001
AUSTER_FOLIE
1002
{
1000
VIERLOCH_MIT_KNEBEL_49_AUSTER
1002
}
1001
AUSTER_ANSICHT
1002
{
1000
SL
1002
}
  0
POINT
  5
27AD6
330
20
100
AcDbEntity
  8
11000_Left
  6
Continuous
 62
     7
 48
0.5
370
    20
100
AcDbPoint
 10
100.1812775809659
 20
440.9448187923173
 30
0.0
 39
0.3
1001
AUSTER_FOLIE
1002
{
1000
VIERLOCH_MIT_KNEBEL_49_AUSTER
1002
}
1001
AUSTER_ANSICHT
1002
{
1000
SL
1002
}
  0
POINT
  5
27AD7
330
20
100
AcDbEntity
  8
11000_Left
  6
Continuous
 62
     7
 48
0.5
370
    20
100
AcDbPoint
 10
98.60341621096587
 20
440.9448187923173
 30
0.0
 39
0.3
1001
AUSTER_FOLIE
1002
{
1000
VIERLOCH_MIT_KNEBEL_49_AUSTER
1002
}
1001
AUSTER_ANSICHT
1002
{
1000
SL
1002
}
  0
LINE
  5
27AD8
330
20
100
AcDbEntity
  8
11000_Left
  6
Continuous
 62
     7
 48
0.5
370
    20
100
AcDbLine
 39
0.3
 10
100.103030980966
 20
443.7656866923171
 30
0.0
 11
100.103030980966
 21
444.3656866923172
 31
0.0
1001
AUSTER_FOLIE
1002
{
1000
VIERLOCH_MIT_KNEBEL_49_AUSTER
1002
}
1001
AUSTER_ANSICHT
1002
{
1000
SL
1002
}
  0
LINE
  5
27AD9
330
20
100
AcDbEntity
  8
11000_Left
  6
Continuous
 62
     7
 48
0.5
370
    20
100
AcDbLine
 39
0.3
 10
100.103030980966
 20
444.3656866923172
 30
0.0
 11
98.24303089096588
 21
444.3656866923172
 31
0.0
1001
AUSTER_FOLIE
1002
{
1000
VIERLOCH_MIT_KNEBEL_49_AUSTER
1002
}
1001
AUSTER_ANSICHT
1002
{
1000
SL
1002
}
  0
LINE
  5
27ADA
330
20
100
AcDbEntity
  8
11000_Left
  6
Continuous
 62
     7
 48
0.5
370
    20
100
AcDbLine
 39
0.3
 10
99.47303089096592
 20
441.1556866923175
 30
0.0
 11
100.0730309809659
 21
441.1556866923175
 31
0.0
1001
AUSTER_FOLIE
1002
{
1000
VIERLOCH_MIT_KNEBEL_49_AUSTER
1002
}
1001
AUSTER_ANSICHT
1002
{
1000
SL
1002
}
  0
ARC
  5
27ADB
330
20
100
AcDbEntity
  8
11000_Left
  6
Continuous
 62
     7
 48
0.5
370
    20
100
AcDbCircle
 39
0.3
 10
99.39053089096592
 20
442.2431866923171
 30
0.0
 40
0.191213232
100
AcDbArc
 50
64.44003000000169
 51
131.8201700000005
1001
AUSTER_FOLIE
1002
{
1000
VIERLOCH_MIT_KNEBEL_49_AUSTER
1002
}
1001
AUSTER_ANSICHT
1002
{
1000
SL
1002
}
  0
ARC
  5
27ADC
330
20
100
AcDbEntity
  8
11000_Left
  6
Continuous
 62
     7
 48
0.5
370
    20
100
AcDbCircle
 39
0.3
 10
99.34053091096586
 20
442.1931865923172
 30
0.0
 40
0.258964284
100
AcDbArc
 50
12.82877999999832
 51
59.22596000000186
1001
AUSTER_FOLIE
1002
{
1000
VIERLOCH_MIT_KNEBEL_49_AUSTER
1002
}
1001
AUSTER_ANSICHT
1002
{
1000
SL
1002
}
  0
ARC
  5
27ADD
330
20
100
AcDbEntity
  8
11000_Left
  6
Continuous
 62
     7
 48
0.5
370
    20
100
AcDbCircle
 39
0.3
 10
98.24086540096596
 20
441.9299824923172
 30
0.0
 40
1.38967719
100
AcDbArc
 50
354.0400060000035
 51
13.34276999999979
1001
AUSTER_FOLIE
1002
{
1000
VIERLOCH_MIT_KNEBEL_49_AUSTER
1002
}
1001
AUSTER_ANSICHT
1002
{
1000
SL
1002
}
  0
ARC
  5
27ADE
330
20
100
AcDbEntity
  8
11000_Left
  6
Continuous
 62
     7
 48
0.5
370
    20
100
AcDbCircle
 39
0.3
 10
96.71515927096596
 20
442.1451799923172
 30
0.0
 40
2.930009009999998
100
AcDbArc
 50
340.2625859999978
 51
352.9524190000003
1001
AUSTER_FOLIE
1002
{
1000
VIERLOCH_MIT_KNEBEL_49_AUSTER
1002
}
1001
AUSTER_ANSICHT
1002
{
1000
SL
1002
}
  0
ARC
  5
27ADF
330
20
100
AcDbEntity
  8
11000_Left
  6
Continuous
 62
     7
 48
0.5
370
    20
100
AcDbCircle
 39
0.3
 10
104.4230309809659
 20
439.6856866923175
 30
0.0
 40
6.7085394
100
AcDbArc
 50
152.8620100000038
 51
157.1041999999991
1001
AUSTER_FOLIE
1002
{
1000
VIERLOCH_MIT_KNEBEL_49_AUSTER
1002
}
1001
AUSTER_ANSICHT
1002
{
1000
SL
1002
}
  0
ARC
  5
27AE0
330
20
100
AcDbEntity
  8
11000_Left
  6
Continuous
 62
     7
 48
0.5
370
    20
100
AcDbCircle
 39
0.3
 10
99.66803089096595
 20
442.1186866923175
 30
0.0
 40
1.367243219999999
100
AcDbArc
 50
137.311930000002
 51
152.7040299999999
1001
AUSTER_FOLIE
1002
{
1000
VIERLOCH_MIT_KNEBEL_49_AUSTER
1002
}
1001
AUSTER_ANSICHT
1002
{
1000
SL
1002
}
  0
ARC
  5
27AE1
330
20
100
AcDbEntity
  8
11000_Left
  6
Continuous
 62
     7
 48
0.5
370
    20
100
AcDbCircle
 39
0.3
 10
99.22264630096597
 20
442.4999173923171
 30
0.0
 40
0.7816862699999999
100
AcDbArc
 50
104.7952199999997
 51
135.7176499999981
1001
AUSTER_FOLIE
1002
{
1000
VIERLOCH_MIT_KNEBEL_49_AUSTER
1002
}
1001
AUSTER_ANSICHT
1002
{
1000
SL
1002
}
  0
ARC
  5
27AE2
330
20
100
AcDbEntity
  8
11000_Left
  6
Continuous
 62
     7
 48
0.5
370
    20
100
AcDbCircle
 39
0.3
 10
99.24803089096588
 20
442.4606866923173
 30
0.0
 40
0.82622637
100
AcDbArc
 50
74.19748999999993
 51
105.80251
1001
AUSTER_FOLIE
1002
{
1000
VIERLOCH_MIT_KNEBEL_49_AUSTER
1002
}
1001
AUSTER_ANSICHT
1002
{
1000
SL
1002
}
  0
ARC
  5
27AE3
330
20
100
AcDbEntity
  8
11000_Left
  6
Continuous
 62
     7
 48
0.5
370
    20
100
AcDbCircle
 39
0.3
 10
98.68740589096592
 20
442.109124192317
 30
0.0
 40
1.493871749999999
100
AcDbArc
 50
356.2218020000003
 51
30.42725999999733
1001
AUSTER_FOLIE
1002
{
1000
VIERLOCH_MIT_KNEBEL_49_AUSTER
1002
}
1001
AUSTER_ANSICHT
1002
{
1000
SL
1002
}
  0
ARC
  5
27AE4
330
20
100
AcDbEntity
  8
11000_Left
  6
Continuous
 62
     7
 48
0.5
370
    20
100
AcDbCircle
 39
0.3
 10
94.46115589096589
 20
442.2788116923173
 30
0.0
 40
5.723159099999997
100
AcDbArc
 50
348.6827049999971
 51
357.3147599999983
1001
AUSTER_FOLIE
1002
{
1000
VIERLOCH_MIT_KNEBEL_49_AUSTER
1002
}
1001
AUSTER_ANSICHT
1002
{
1000
SL
1002
}
  0
ARC
  5
27AE5
330
20
100
AcDbEntity
  8
11000_Left
  6
Continuous
 62
     7
 48
0.5
370
    20
100
AcDbCircle
 39
0.3
 10
99.31588384096595
 20
442.5666571923172
 30
0.0
 40
0.7067225399999999
100
AcDbArc
 50
52.81391999999899
 51
77.15230000000051
1001
AUSTER_FOLIE
1002
{
1000
VIERLOCH_MIT_KNEBEL_49_AUSTER
1002
}
1001
AUSTER_ANSICHT
1002
{
1000
SL
1002
}
  0
ARC
  5
27AE6
330
20
100
AcDbEntity
  8
11000_Left
  6
Continuous
 62
     7
 48
0.5
370
    20
100
AcDbCircle
 39
0.3
 10
99.12238648096591
 20
442.3487170923174
 30
0.0
 40
0.9975534599999999
100
AcDbArc
 50
31.21408999999899
 51
51.52547999999866
1001
AUSTER_FOLIE
1002
{
1000
VIERLOCH_MIT_KNEBEL_49_AUSTER
1002
}
1001
AUSTER_ANSICHT
1002
{
1000
SL
1002
}
  0
ARC
  5
27AE7
330
20
100
AcDbEntity
  8
11000_Left
  6
Continuous
 62
     7
 48
0.5
370
    20
100
AcDbCircle
 39
0.3
 10
99.6342808909659
 20
441.9844366923173
 30
0.0
 40
0.5466517499999999
100
AcDbArc
 50
132.7760400000023
 51
149.0362399999993
1001
AUSTER_FOLIE
1002
{
1000
VIERLOCH_MIT_KNEBEL_49_AUSTER
1002
}
1001
AUSTER_ANSICHT
1002
{
1000
SL
1002
}
  0
ARC
  5
27AE8
330
20
100
AcDbEntity
  8
11000_Left
  6
Continuous
 62
     7
 48
0.5
370
    20
100
AcDbCircle
 39
0.3
 10
95.00781937096588
 20
443.5665328923175
 30
0.0
 40
4.3288776
100
AcDbArc
 50
329.9020269999993
 51
338.203648
1001
AUSTER_FOLIE
1002
{
1000
VIERLOCH_MIT_KNEBEL_49_AUSTER
1002
}
1001
AUSTER_ANSICHT
1002
{
1000
SL
1002
}
  0
ARC
  5
27AE9
330
20
100
AcDbEntity
  8
11000_Left
  6
Continuous
 62
     7
 48
0.5
370
    20
100
AcDbCircle
 39
0.3
 10
100.6413440809659
 20
441.415279992317
 30
0.0
 40
1.703295749999995
100
AcDbArc
 50
150.0482000000009
 51
161.3779700000008
1001
AUSTER_FOLIE
1002
{
1000
VIERLOCH_MIT_KNEBEL_49_AUSTER
1002
}
1001
AUSTER_ANSICHT
1002
{
1000
SL
1002
}
  0
ARC
  5
27AEA
330
20
100
AcDbEntity
  8
11000_Left
  6
Continuous
 62
     7
 48
0.5
370
    20
100
AcDbCircle
 39
0.3
 10
97.93489375096593
 20
441.877924092317
 30
0.0
 40
0.9496848299999999
100
AcDbArc
 50
295.9562920000012
 51
329.4834829999989
1001
AUSTER_FOLIE
1002
{
1000
VIERLOCH_MIT_KNEBEL_49_AUSTER
1002
}
1001
AUSTER_ANSICHT
1002
{
1000
SL
1002
}
  0
POINT
  5
27AEB
330
20
100
AcDbEntity
  8
11000_Left
  6
Continuous
 62
     7
 48
0.5
370
    20
100
AcDbPoint
 10
97.02555478096588
 20
440.9448187923173
 30
0.0
 39
0.3
1001
AUSTER_FOLIE
1002
{
1000
VIERLOCH_MIT_KNEBEL_49_AUSTER
1002
}
1001
AUSTER_ANSICHT
1002
{
1000
SL
1002
}
  0
LINE
  5
27AEC
330
20
100
AcDbEntity
  8
11000_Left
  6
Continuous
 62
     7
 48
0.5
370
    20
100
AcDbLine
 39
0.3
 10
97.16303090296595
 20
443.2556866923173
 30
0.0
 11
97.76303089096586
 21
443.2556866923173
 31
0.0
1001
AUSTER_FOLIE
1002
{
1000
VIERLOCH_MIT_KNEBEL_49_AUSTER
1002
}
1001
AUSTER_ANSICHT
1002
{
1000
SL
1002
}
  0
ARC
  5
27AED
330
20
100
AcDbEntity
  8
11000_Left
  6
Continuous
 62
     7
 48
0.5
370
    20
100
AcDbCircle
 39
0.3
 10
98.33828089096597
 20
442.1798116923175
 30
0.0
 40
0.7015925400000002
100
AcDbArc
 50
187.7100000000004
 51
205.6884900000011
1001
AUSTER_FOLIE
1002
{
1000
VIERLOCH_MIT_KNEBEL_49_AUSTER
1002
}
1001
AUSTER_ANSICHT
1002
{
1000
SL
1002
}
  0
ARC
  5
27AEE
330
20
100
AcDbEntity
  8
11000_Left
  6
Continuous
 62
     7
 48
0.5
370
    20
100
AcDbCircle
 39
0.3
 10
97.8808110409659
 20
442.0003708923172
 30
0.0
 40
0.214695774
100
AcDbArc
 50
215.5032200000007
 51
342.4652899999992
1001
AUSTER_FOLIE
1002
{
1000
VIERLOCH_MIT_KNEBEL_49_AUSTER
1002
}
1001
AUSTER_ANSICHT
1002
{
1000
SL
1002
}
  0
ARC
  5
27AEF
330
20
100
AcDbEntity
  8
11000_Left
  6
Continuous
 62
     7
 48
0.5
370
    20
100
AcDbCircle
 39
0.3
 10
100.0277798809659
 20
442.3575949923172
 30
0.0
 40
3.002225099999998
100
AcDbArc
 50
162.5939199999995
 51
190.9816600000016
1001
AUSTER_FOLIE
1002
{
1000
VIERLOCH_MIT_KNEBEL_49_AUSTER
1002
}
1001
AUSTER_ANSICHT
1002
{
1000
SL
1002
}
  0
ARC
  5
27AF0
330
20
100
AcDbEntity
  8
11000_Left
  6
Continuous
 62
     7
 48
0.5
370
    20
100
AcDbCircle
 39
0.3
 10
98.37543475096595
 20
442.0705279923171
 30
0.0
 40
1.325862209999999
100
AcDbArc
 50
192.4058400000003
 51
221.8644399999982
1001
AUSTER_FOLIE
1002
{
1000
VIERLOCH_MIT_KNEBEL_49_AUSTER
1002
}
1001
AUSTER_ANSICHT
1002
{
1000
SL
1002
}
  0
ARC
  5
27AF1
330
20
100
AcDbEntity
  8
11000_Left
  6
Continuous
 62
     7
 48
0.5
370
    20
100
AcDbCircle
 39
0.3
 10
99.6636287209659
 20
442.4695996923173
 30
0.0
 40
2.056746179999999
100
AcDbArc
 50
157.5300200000013
 51
190.7579500000007
1001
AUSTER_FOLIE
1002
{
1000
VIERLOCH_MIT_KNEBEL_49_AUSTER
1002
}
1001
AUSTER_ANSICHT
1002
{
1000
SL
1002
}
  0
ARC
  5
27AF2
330
20
100
AcDbEntity
  8
11000_Left
  6
Continuous
 62
     7
 48
0.5
370
    20
100
AcDbCircle
 39
0.3
 10
98.01774019096592
 20
441.8352796923172
 30
0.0
 40
0.9047126099999999
100
AcDbArc
 50
225.8904599999991
 51
243.522929999999
1001
AUSTER_FOLIE
1002
{
1000
VIERLOCH_MIT_KNEBEL_49_AUSTER
1002
}
1001
AUSTER_ANSICHT
1002
{
1000
SL
1002
}
  0
LINE
  5
27AF3
330
20
100
AcDbEntity
  8
11000_Left
  6
Continuous
 62
     7
 48
0.5
370
    20
100
AcDbLine
 39
0.3
 10
100.103030980966
 20
443.7656866923171
 30
0.0
 11
97.10303090296587
 21
443.7656866923171
 31
0.0
1001
AUSTER_FOLIE
1002
{
1000
VIERLOCH_MIT_KNEBEL_49_AUSTER
1002
}
1001
AUSTER_ANSICHT
1002
{
1000
SL
1002
}
  0
ARC
  5
27AF4
330
20
100
AcDbEntity
  8
11000_Left
  6
Continuous
 62
     7
 48
0.5
370
    20
100
AcDbCircle
 39
0.3
 10
88.14428098096596
 20
446.4994366923175
 30
0.0
 40
10.9387506
100
AcDbArc
 50
335.341467
 51
337.399776999999
1001
AUSTER_FOLIE
1002
{
1000
VIERLOCH_MIT_KNEBEL_49_AUSTER
1002
}
1001
AUSTER_ANSICHT
1002
{
1000
SL
1002
}
  0
ARC
  5
27AF5
330
20
100
AcDbEntity
  8
11000_Left
  6
Continuous
 62
     7
 48
0.5
370
    20
100
AcDbCircle
 39
0.3
 10
97.98403258096596
 20
441.8323522923173
 30
0.0
 40
0.8875336199999999
100
AcDbArc
 50
245.3868000000008
 51
294.3915099999998
1001
AUSTER_FOLIE
1002
{
1000
VIERLOCH_MIT_KNEBEL_49_AUSTER
1002
}
1001
AUSTER_ANSICHT
1002
{
1000
SL
1002
}
  0
LINE
  5
27AF6
330
20
100
AcDbEntity
  8
11000_Left
  6
Continuous
 62
     7
 48
0.5
370
    20
100
AcDbLine
 39
0.3
 10
97.10303090296587
 20
443.7656866923171
 30
0.0
 11
97.10303090296587
 21
444.7256866923171
 31
0.0
1001
AUSTER_FOLIE
1002
{
1000
VIERLOCH_MIT_KNEBEL_49_AUSTER
1002
}
1001
AUSTER_ANSICHT
1002
{
1000
SL
1002
}
  0
LINE
  5
27AF7
330
20
100
AcDbEntity
  8
11000_Left
  6
Continuous
 62
     7
 48
0.5
370
    20
100
AcDbLine
 39
0.3
 10
100.103030980966
 20
445.4306866923173
 30
0.0
 11
98.24303089096588
 21
444.3656866923172
 31
0.0
1001
AUSTER_FOLIE
1002
{
1000
VIERLOCH_MIT_KNEBEL_49_AUSTER
1002
}
1001
AUSTER_ANSICHT
1002
{
1000
SL
1002
}
  0
POINT
  5
27AF8
330
20
100
AcDbEntity
  8
11000_Left
  6
Continuous
 62
     7
 48
0.5
370
    20
100
AcDbPoint
 10
86.23117478096594
 20
423.8233730923171
 30
0.0
 39
0.25
1001
AUSTER_FOLIE
1002
{
1000
VIERLOCH_MIT_KNEBEL_49_AUSTER
1002
}
1001
AUSTER_ANSICHT
1002
{
1000
SL
1002
}
  0
POINT
  5
27AF9
330
20
100
AcDbEntity
  8
11000_Left
  6
Continuous
 62
     7
 48
0.5
370
    20
100
AcDbPoint
 10
86.23117478096594
 20
423.8233730923171
 30
0.0
 39
0.25
1001
AUSTER_FOLIE
1002
{
1000
VIERLOCH_MIT_KNEBEL_49_AUSTER
1002
}
1001
AUSTER_ANSICHT
1002
{
1000
SL
1002
}
  0
LINE
  5
27AFD
330
20
100
AcDbEntity
  8
11000_Left
  6
Continuous
 62
     7
 48
0.5
370
    20
100
AcDbLine
 39
0.35
 10
98.47965478096591
 20
414.7426730923172
 30
0.0
 11
92.02891478096592
 21
434.7040030923174
 31
0.0
1001
AUSTER_FOLIE
1002
{
1000
VIERLOCH_MIT_KNEBEL_49_AUSTER
1002
}
1001
AUSTER_ANSICHT
1002
{
1000
SL
1002
}
  0
LINE
  5
27B03
330
20
100
AcDbEntity
  8
10000_FRONT
  6
Continuous
 62
     7
370
    13
100
AcDbLine
 39
0.7
 10
23.02742258391441
 20
431.9852630923172
 30
0.0
 11
37.8690425839144
 21
417.6933230923173
 31
0.0
1001
AUSTER_FOLIE
1002
{
1000
VIERLOCH_MIT_KNEBEL_49_AUSTER
1002
}
1001
AUSTER_ANSICHT
1002
{
1000
V
1002
}
  0
TEXT
  5
27B0E
330
20
100
AcDbEntity
  8
10000_FRONT
  6
Continuous
 62
     7
370
    13
100
AcDbText
 39
0.7
 10
-17.08393741608557
 20
428.8133730923171
 30
0.0
 40
2.0
  1
SIEMENS
  7
TAHOMA
100
AcDbText
1001
AUSTER_FOLIE
1002
{
1000
VIERLOCH_MIT_KNEBEL_49_AUSTER
1002
}
1001
AUSTER_ANSICHT
1002
{
1000
V
1002
}
  0
TEXT
  5
27B0F
330
20
100
AcDbEntity
  8
10000_FRONT
  6
Continuous
 62
     7
370
    13
100
AcDbText
 39
0.7
 10
34.7248125839144
 20
413.6933230923172
 30
0.0
 40
2.5
  1
Schild
 41
0.8
100
AcDbText
1001
AUSTER_FOLIE
1002
{
1000
VIERLOCH_MIT_KNEBEL_49_AUSTER
1002
}
1001
AUSTER_ANSICHT
1002
{
1000
V
1002
}
  0
TEXT
  5
27B10
330
20
100
AcDbEntity
  8
11000_Left
  6
Continuous
 62
     7
 48
0.5
370
    20
100
AcDbText
 10
91.82082478096594
 20
411.2030230923173
 30
0.0
 40
2.5
  1
Typschild
 41
0.8
 11
91.82082478096594
 21
413.7030230923174
 31
0.0
100
AcDbText
 73
     3
1001
AUSTER_FOLIE
1002
{
1000
VIERLOCH_MIT_KNEBEL_49_AUSTER
1002
}
1001
AUSTER_ANSICHT
1002
{
1000
SL
1002
}
  0
POINT
  5
27B1E
330
20
100
AcDbEntity
  8
11000_Left
  6
Continuous
 62
     7
 48
0.5
370
    20
100
AcDbPoint
 10
100.1812775809659
 20
460.7019130923172
 30
0.0
 39
0.3
1001
AUSTER_FOLIE
1002
{
1000
VIERLOCH_MIT_KNEBEL_49_AUSTER
1002
}
1001
AUSTER_ANSICHT
1002
{
1000
SL
1002
}
  0
POINT
  5
27B1F
330
20
100
AcDbEntity
  8
11000_Left
  6
Continuous
 62
     7
 48
0.5
370
    20
100
AcDbPoint
 10
98.60341621096587
 20
460.7019130923172
 30
0.0
 39
0.3
1001
AUSTER_FOLIE
1002
{
1000
VIERLOCH_MIT_KNEBEL_49_AUSTER
1002
}
1001
AUSTER_ANSICHT
1002
{
1000
SL
1002
}
  0
LINE
  5
27B20
330
20
100
AcDbEntity
  8
11000_Left
  6
Continuous
 62
     7
 48
0.5
370
    20
100
AcDbLine
 39
0.3
 10
99.47303089096592
 20
458.5706867223172
 30
0.0
 11
100.0730309809659
 21
458.5706867223172
 31
0.0
1001
AUSTER_FOLIE
1002
{
1000
VIERLOCH_MIT_KNEBEL_49_AUSTER
1002
}
1001
AUSTER_ANSICHT
1002
{
1000
SL
1002
}
  0
ARC
  5
27B21
330
20
100
AcDbEntity
  8
11000_Left
  6
Continuous
 62
     7
 48
0.5
370
    20
100
AcDbCircle
 39
0.3
 10
99.39053089096592
 20
459.6581867223175
 30
0.0
 40
0.191213232
100
AcDbArc
 50
64.44003000000169
 51
131.8201700000005
1001
AUSTER_FOLIE
1002
{
1000
VIERLOCH_MIT_KNEBEL_49_AUSTER
1002
}
1001
AUSTER_ANSICHT
1002
{
1000
SL
1002
}
  0
ARC
  5
27B22
330
20
100
AcDbEntity
  8
11000_Left
  6
Continuous
 62
     7
 48
0.5
370
    20
100
AcDbCircle
 39
0.3
 10
99.34053091096586
 20
459.6081867423172
 30
0.0
 40
0.258964284
100
AcDbArc
 50
12.82877999999832
 51
59.22596000000186
1001
AUSTER_FOLIE
1002
{
1000
VIERLOCH_MIT_KNEBEL_49_AUSTER
1002
}
1001
AUSTER_ANSICHT
1002
{
1000
SL
1002
}
  0
ARC
  5
27B23
330
20
100
AcDbEntity
  8
11000_Left
  6
Continuous
 62
     7
 48
0.5
370
    20
100
AcDbCircle
 39
0.3
 10
98.24086540096596
 20
459.3449824923172
 30
0.0
 40
1.38967719
100
AcDbArc
 50
354.0400060000035
 51
13.34276999999979
1001
AUSTER_FOLIE
1002
{
1000
VIERLOCH_MIT_KNEBEL_49_AUSTER
1002
}
1001
AUSTER_ANSICHT
1002
{
1000
SL
1002
}
  0
ARC
  5
27B24
330
20
100
AcDbEntity
  8
11000_Left
  6
Continuous
 62
     7
 48
0.5
370
    20
100
AcDbCircle
 39
0.3
 10
96.71515927096596
 20
459.5601799623172
 30
0.0
 40
2.930009009999998
100
AcDbArc
 50
340.2625859999978
 51
352.9524190000003
1001
AUSTER_FOLIE
1002
{
1000
VIERLOCH_MIT_KNEBEL_49_AUSTER
1002
}
1001
AUSTER_ANSICHT
1002
{
1000
SL
1002
}
  0
ARC
  5
27B25
330
20
100
AcDbEntity
  8
11000_Left
  6
Continuous
 62
     7
 48
0.5
370
    20
100
AcDbCircle
 39
0.3
 10
104.4230309809659
 20
457.1006866923172
 30
0.0
 40
6.7085394
100
AcDbArc
 50
152.8620100000038
 51
157.1041999999991
1001
AUSTER_FOLIE
1002
{
1000
VIERLOCH_MIT_KNEBEL_49_AUSTER
1002
}
1001
AUSTER_ANSICHT
1002
{
1000
SL
1002
}
  0
ARC
  5
27B26
330
20
100
AcDbEntity
  8
11000_Left
  6
Continuous
 62
     7
 48
0.5
370
    20
100
AcDbCircle
 39
0.3
 10
99.66803089096595
 20
459.5336867223172
 30
0.0
 40
1.367243219999999
100
AcDbArc
 50
137.311930000002
 51
152.7040299999999
1001
AUSTER_FOLIE
1002
{
1000
VIERLOCH_MIT_KNEBEL_49_AUSTER
1002
}
1001
AUSTER_ANSICHT
1002
{
1000
SL
1002
}
  0
ARC
  5
27B27
330
20
100
AcDbEntity
  8
11000_Left
  6
Continuous
 62
     7
 48
0.5
370
    20
100
AcDbCircle
 39
0.3
 10
99.22264630096597
 20
459.9149175123171
 30
0.0
 40
0.7816862699999999
100
AcDbArc
 50
104.7952199999997
 51
135.7176499999981
1001
AUSTER_FOLIE
1002
{
1000
VIERLOCH_MIT_KNEBEL_49_AUSTER
1002
}
1001
AUSTER_ANSICHT
1002
{
1000
SL
1002
}
  0
ARC
  5
27B28
330
20
100
AcDbEntity
  8
11000_Left
  6
Continuous
 62
     7
 48
0.5
370
    20
100
AcDbCircle
 39
0.3
 10
99.24803089096588
 20
459.8756867223174
 30
0.0
 40
0.82622637
100
AcDbArc
 50
74.19748999999993
 51
105.80251
1001
AUSTER_FOLIE
1002
{
1000
VIERLOCH_MIT_KNEBEL_49_AUSTER
1002
}
1001
AUSTER_ANSICHT
1002
{
1000
SL
1002
}
  0
ARC
  5
27B29
330
20
100
AcDbEntity
  8
11000_Left
  6
Continuous
 62
     7
 48
0.5
370
    20
100
AcDbCircle
 39
0.3
 10
98.68740589096592
 20
459.5241242223171
 30
0.0
 40
1.493871749999999
100
AcDbArc
 50
356.2218020000003
 51
30.42725999999733
1001
AUSTER_FOLIE
1002
{
1000
VIERLOCH_MIT_KNEBEL_49_AUSTER
1002
}
1001
AUSTER_ANSICHT
1002
{
1000
SL
1002
}
  0
ARC
  5
27B2A
330
20
100
AcDbEntity
  8
11000_Left
  6
Continuous
 62
     7
 48
0.5
370
    20
100
AcDbCircle
 39
0.3
 10
94.46115589096589
 20
459.6938117223174
 30
0.0
 40
5.723159099999997
100
AcDbArc
 50
348.6827049999971
 51
357.3147599999983
1001
AUSTER_FOLIE
1002
{
1000
VIERLOCH_MIT_KNEBEL_49_AUSTER
1002
}
1001
AUSTER_ANSICHT
1002
{
1000
SL
1002
}
  0
ARC
  5
27B2B
330
20
100
AcDbEntity
  8
11000_Left
  6
Continuous
 62
     7
 48
0.5
370
    20
100
AcDbCircle
 39
0.3
 10
99.31588384096595
 20
459.9816573123172
 30
0.0
 40
0.7067225399999999
100
AcDbArc
 50
52.81391999999899
 51
77.15230000000051
1001
AUSTER_FOLIE
1002
{
1000
VIERLOCH_MIT_KNEBEL_49_AUSTER
1002
}
1001
AUSTER_ANSICHT
1002
{
1000
SL
1002
}
  0
ARC
  5
27B2C
330
20
100
AcDbEntity
  8
11000_Left
  6
Continuous
 62
     7
 48
0.5
370
    20
100
AcDbCircle
 39
0.3
 10
99.12238648096591
 20
459.7637172123172
 30
0.0
 40
0.9975534599999999
100
AcDbArc
 50
31.21408999999899
 51
51.52547999999866
1001
AUSTER_FOLIE
1002
{
1000
VIERLOCH_MIT_KNEBEL_49_AUSTER
1002
}
1001
AUSTER_ANSICHT
1002
{
1000
SL
1002
}
  0
ARC
  5
27B2D
330
20
100
AcDbEntity
  8
11000_Left
  6
Continuous
 62
     7
 48
0.5
370
    20
100
AcDbCircle
 39
0.3
 10
99.6342808909659
 20
459.3994367223174
 30
0.0
 40
0.5466517499999999
100
AcDbArc
 50
132.7760400000023
 51
149.0362399999993
1001
AUSTER_FOLIE
1002
{
1000
VIERLOCH_MIT_KNEBEL_49_AUSTER
1002
}
1001
AUSTER_ANSICHT
1002
{
1000
SL
1002
}
  0
ARC
  5
27B2E
330
20
100
AcDbEntity
  8
11000_Left
  6
Continuous
 62
     7
 48
0.5
370
    20
100
AcDbCircle
 39
0.3
 10
95.00781937096588
 20
460.9815328863174
 30
0.0
 40
4.3288776
100
AcDbArc
 50
329.9020269999993
 51
338.203648
1001
AUSTER_FOLIE
1002
{
1000
VIERLOCH_MIT_KNEBEL_49_AUSTER
1002
}
1001
AUSTER_ANSICHT
1002
{
1000
SL
1002
}
  0
ARC
  5
27B2F
330
20
100
AcDbEntity
  8
11000_Left
  6
Continuous
 62
     7
 48
0.5
370
    20
100
AcDbCircle
 39
0.3
 10
100.6413440809659
 20
458.830280082317
 30
0.0
 40
1.703295749999995
100
AcDbArc
 50
150.0482000000009
 51
161.3779700000008
1001
AUSTER_FOLIE
1002
{
1000
VIERLOCH_MIT_KNEBEL_49_AUSTER
1002
}
1001
AUSTER_ANSICHT
1002
{
1000
SL
1002
}
  0
ARC
  5
27B30
330
20
100
AcDbEntity
  8
11000_Left
  6
Continuous
 62
     7
 48
0.5
370
    20
100
AcDbCircle
 39
0.3
 10
97.93489375096593
 20
459.2929240923175
 30
0.0
 40
0.9496848299999999
100
AcDbArc
 50
295.9562920000012
 51
329.4834829999989
1001
AUSTER_FOLIE
1002
{
1000
VIERLOCH_MIT_KNEBEL_49_AUSTER
1002
}
1001
AUSTER_ANSICHT
1002
{
1000
SL
1002
}
  0
POINT
  5
27B31
330
20
100
AcDbEntity
  8
11000_Left
  6
Continuous
 62
     7
 48
0.5
370
    20
100
AcDbPoint
 10
97.02555478096588
 20
460.7019130923172
 30
0.0
 39
0.3
1001
AUSTER_FOLIE
1002
{
1000
VIERLOCH_MIT_KNEBEL_49_AUSTER
1002
}
1001
AUSTER_ANSICHT
1002
{
1000
SL
1002
}
  0
LINE
  5
27B32
330
20
100
AcDbEntity
  8
11000_Left
  6
Continuous
 62
     7
 48
0.5
370
    20
100
AcDbLine
 39
0.3
 10
97.16303090296595
 20
460.6706867313175
 30
0.0
 11
97.76303089096586
 21
460.6706867313175
 31
0.0
1001
AUSTER_FOLIE
1002
{
1000
VIERLOCH_MIT_KNEBEL_49_AUSTER
1002
}
1001
AUSTER_ANSICHT
1002
{
1000
SL
1002
}
  0
ARC
  5
27B33
330
20
100
AcDbEntity
  8
11000_Left
  6
Continuous
 62
     7
 48
0.5
370
    20
100
AcDbCircle
 39
0.3
 10
98.33828089096597
 20
459.5948117223172
 30
0.0
 40
0.7015925400000002
100
AcDbArc
 50
187.7100000000004
 51
205.6884900000011
1001
AUSTER_FOLIE
1002
{
1000
VIERLOCH_MIT_KNEBEL_49_AUSTER
1002
}
1001
AUSTER_ANSICHT
1002
{
1000
SL
1002
}
  0
ARC
  5
27B34
330
20
100
AcDbEntity
  8
11000_Left
  6
Continuous
 62
     7
 48
0.5
370
    20
100
AcDbCircle
 39
0.3
 10
97.8808110409659
 20
459.4153710423172
 30
0.0
 40
0.214695774
100
AcDbArc
 50
215.5032200000007
 51
342.4652899999992
1001
AUSTER_FOLIE
1002
{
1000
VIERLOCH_MIT_KNEBEL_49_AUSTER
1002
}
1001
AUSTER_ANSICHT
1002
{
1000
SL
1002
}
  0
ARC
  5
27B35
330
20
100
AcDbEntity
  8
11000_Left
  6
Continuous
 62
     7
 48
0.5
370
    20
100
AcDbCircle
 39
0.3
 10
100.0277798809659
 20
459.7725949623172
 30
0.0
 40
3.002225099999998
100
AcDbArc
 50
162.5939199999995
 51
190.9816600000016
1001
AUSTER_FOLIE
1002
{
1000
VIERLOCH_MIT_KNEBEL_49_AUSTER
1002
}
1001
AUSTER_ANSICHT
1002
{
1000
SL
1002
}
  0
ARC
  5
27B36
330
20
100
AcDbEntity
  8
11000_Left
  6
Continuous
 62
     7
 48
0.5
370
    20
100
AcDbCircle
 39
0.3
 10
98.37543475096595
 20
459.4855280823177
 30
0.0
 40
1.325862209999999
100
AcDbArc
 50
192.4058400000003
 51
221.8644399999982
1001
AUSTER_FOLIE
1002
{
1000
VIERLOCH_MIT_KNEBEL_49_AUSTER
1002
}
1001
AUSTER_ANSICHT
1002
{
1000
SL
1002
}
  0
ARC
  5
27B37
330
20
100
AcDbEntity
  8
11000_Left
  6
Continuous
 62
     7
 48
0.5
370
    20
100
AcDbCircle
 39
0.3
 10
99.6636287209659
 20
459.8845997823172
 30
0.0
 40
2.056746179999999
100
AcDbArc
 50
157.5300200000013
 51
190.7579500000007
1001
AUSTER_FOLIE
1002
{
1000
VIERLOCH_MIT_KNEBEL_49_AUSTER
1002
}
1001
AUSTER_ANSICHT
1002
{
1000
SL
1002
}
  0
ARC
  5
27B38
330
20
100
AcDbEntity
  8
11000_Left
  6
Continuous
 62
     7
 48
0.5
370
    20
100
AcDbCircle
 39
0.3
 10
98.01774019096592
 20
459.2502797523173
 30
0.0
 40
0.9047126099999999
100
AcDbArc
 50
225.8904599999991
 51
243.522929999999
1001
AUSTER_FOLIE
1002
{
1000
VIERLOCH_MIT_KNEBEL_49_AUSTER
1002
}
1001
AUSTER_ANSICHT
1002
{
1000
SL
1002
}
  0
LINE
  5
27B39
330
20
100
AcDbEntity
  8
11000_Left
  6
Continuous
 62
     7
 48
0.5
370
    20
100
AcDbLine
 39
0.3
 10
100.103030980966
 20
457.8806867223171
 30
0.0
 11
97.10303090296587
 21
457.8806867223171
 31
0.0
1001
AUSTER_FOLIE
1002
{
1000
VIERLOCH_MIT_KNEBEL_49_AUSTER
1002
}
1001
AUSTER_ANSICHT
1002
{
1000
SL
1002
}
  0
ARC
  5
27B3A
330
20
100
AcDbEntity
  8
11000_Left
  6
Continuous
 62
     7
 48
0.5
370
    20
100
AcDbCircle
 39
0.3
 10
88.14428098096596
 20
463.9144366923175
 30
0.0
 40
10.9387506
100
AcDbArc
 50
335.341467
 51
337.399776999999
1001
AUSTER_FOLIE
1002
{
1000
VIERLOCH_MIT_KNEBEL_49_AUSTER
1002
}
1001
AUSTER_ANSICHT
1002
{
1000
SL
1002
}
  0
ARC
  5
27B3B
330
20
100
AcDbEntity
  8
11000_Left
  6
Continuous
 62
     7
 48
0.5
370
    20
100
AcDbCircle
 39
0.3
 10
97.98403258096596
 20
459.2473523523174
 30
0.0
 40
0.8875336199999999
100
AcDbArc
 50
245.3868000000008
 51
294.3915099999998
1001
AUSTER_FOLIE
1002
{
1000
VIERLOCH_MIT_KNEBEL_49_AUSTER
1002
}
1001
AUSTER_ANSICHT
1002
{
1000
SL
1002
}
  0
POINT
  5
27B3C
330
20
100
AcDbEntity
  8
11000_Left
  6
Continuous
 62
     7
 48
0.5
370
    20
100
AcDbPoint
 10
100.1812775809659
 20
450.8233657923173
 30
0.0
 39
0.3
1001
AUSTER_FOLIE
1002
{
1000
VIERLOCH_MIT_KNEBEL_49_AUSTER
1002
}
1001
AUSTER_ANSICHT
1002
{
1000
SL
1002
}
  0
POINT
  5
27B3D
330
20
100
AcDbEntity
  8
11000_Left
  6
Continuous
 62
     7
 48
0.5
370
    20
100
AcDbPoint
 10
98.60341621096587
 20
450.8233657923173
 30
0.0
 39
0.3
1001
AUSTER_FOLIE
1002
{
1000
VIERLOCH_MIT_KNEBEL_49_AUSTER
1002
}
1001
AUSTER_ANSICHT
1002
{
1000
SL
1002
}
  0
LINE
  5
27B3E
330
20
100
AcDbEntity
  8
11000_Left
  6
Continuous
 62
     7
 48
0.5
370
    20
100
AcDbLine
 39
0.3
 10
100.103030980966
 20
454.0706866923172
 30
0.0
 11
100.103030980966
 21
456.2906866923174
 31
0.0
1001
AUSTER_FOLIE
1002
{
1000
VIERLOCH_MIT_KNEBEL_49_AUSTER
1002
}
1001
AUSTER_ANSICHT
1002
{
1000
SL
1002
}
  0
LINE
  5
27B3F
330
20
100
AcDbEntity
  8
11000_Left
  6
Continuous
 62
     7
 48
0.5
370
    20
100
AcDbLine
 39
0.3
 10
99.54803089096596
 20
454.0706866923172
 30
0.0
 11
99.54803089096596
 21
455.4206866923173
 31
0.0
1001
AUSTER_FOLIE
1002
{
1000
VIERLOCH_MIT_KNEBEL_49_AUSTER
1002
}
1001
AUSTER_ANSICHT
1002
{
1000
SL
1002
}
  0
LINE
  5
27B40
330
20
100
AcDbEntity
  8
11000_Left
  6
Continuous
 62
     7
 48
0.5
370
    20
100
AcDbLine
 39
0.3
 10
100.103030980966
 20
454.0706866923172
 30
0.0
 11
99.54803089096596
 21
454.0706866923172
 31
0.0
1001
AUSTER_FOLIE
1002
{
1000
VIERLOCH_MIT_KNEBEL_49_AUSTER
1002
}
1001
AUSTER_ANSICHT
1002
{
1000
SL
1002
}
  0
LINE
  5
27B41
330
20
100
AcDbEntity
  8
11000_Left
  6
Continuous
 62
     7
 48
0.5
370
    20
100
AcDbLine
 39
0.3
 10
98.37803089096588
 20
454.2506866923169
 30
0.0
 11
98.37803089096588
 21
455.4206866923173
 31
0.0
1001
AUSTER_FOLIE
1002
{
1000
VIERLOCH_MIT_KNEBEL_49_AUSTER
1002
}
1001
AUSTER_ANSICHT
1002
{
1000
SL
1002
}
  0
LINE
  5
27B42
330
20
100
AcDbEntity
  8
11000_Left
  6
Continuous
 62
     7
 48
0.5
370
    20
100
AcDbLine
 39
0.3
 10
98.87303089096588
 20
454.2506866923169
 30
0.0
 11
98.37803089096588
 21
454.2506866923169
 31
0.0
1001
AUSTER_FOLIE
1002
{
1000
VIERLOCH_MIT_KNEBEL_49_AUSTER
1002
}
1001
AUSTER_ANSICHT
1002
{
1000
SL
1002
}
  0
LINE
  5
27B43
330
20
100
AcDbEntity
  8
11000_Left
  6
Continuous
 62
     7
 48
0.5
370
    20
100
AcDbLine
 39
0.3
 10
98.87303089096588
 20
454.2506866923169
 30
0.0
 11
98.87303089096588
 21
455.4206866923173
 31
0.0
1001
AUSTER_FOLIE
1002
{
1000
VIERLOCH_MIT_KNEBEL_49_AUSTER
1002
}
1001
AUSTER_ANSICHT
1002
{
1000
SL
1002
}
  0
LINE
  5
27B44
330
20
100
AcDbEntity
  8
11000_Left
  6
Continuous
 62
     7
 48
0.5
370
    20
100
AcDbLine
 39
0.3
 10
99.54803089096596
 20
455.4206866923173
 30
0.0
 11
98.87303089096588
 21
455.4206866923173
 31
0.0
1001
AUSTER_FOLIE
1002
{
1000
VIERLOCH_MIT_KNEBEL_49_AUSTER
1002
}
1001
AUSTER_ANSICHT
1002
{
1000
SL
1002
}
  0
LINE
  5
27B45
330
20
100
AcDbEntity
  8
11000_Left
  6
Continuous
 62
     7
 48
0.5
370
    20
100
AcDbLine
 39
0.3
 10
100.103030980966
 20
452.4506866923172
 30
0.0
 11
100.103030980966
 21
453.5306866923175
 31
0.0
1001
AUSTER_FOLIE
1002
{
1000
VIERLOCH_MIT_KNEBEL_49_AUSTER
1002
}
1001
AUSTER_ANSICHT
1002
{
1000
SL
1002
}
  0
LINE
  5
27B46
330
20
100
AcDbEntity
  8
11000_Left
  6
Continuous
 62
     7
 48
0.5
370
    20
100
AcDbLine
 39
0.3
 10
100.103030980966
 20
449.8406866923174
 30
0.0
 11
100.103030980966
 21
450.9206866923173
 31
0.0
1001
AUSTER_FOLIE
1002
{
1000
VIERLOCH_MIT_KNEBEL_49_AUSTER
1002
}
1001
AUSTER_ANSICHT
1002
{
1000
SL
1002
}
  0
LINE
  5
27B47
330
20
100
AcDbEntity
  8
11000_Left
  6
Continuous
 62
     7
 48
0.5
370
    20
100
AcDbLine
 39
0.3
 10
100.103030980966
 20
452.4506866923172
 30
0.0
 11
98.27303089096595
 21
451.6706866923173
 31
0.0
1001
AUSTER_FOLIE
1002
{
1000
VIERLOCH_MIT_KNEBEL_49_AUSTER
1002
}
1001
AUSTER_ANSICHT
1002
{
1000
SL
1002
}
  0
LINE
  5
27B48
330
20
100
AcDbEntity
  8
11000_Left
  6
Continuous
 62
     7
 48
0.5
370
    20
100
AcDbLine
 39
0.3
 10
100.103030980966
 20
450.9206866923173
 30
0.0
 11
98.27303089096595
 21
451.6706866923173
 31
0.0
1001
AUSTER_FOLIE
1002
{
1000
VIERLOCH_MIT_KNEBEL_49_AUSTER
1002
}
1001
AUSTER_ANSICHT
1002
{
1000
SL
1002
}
  0
LINE
  5
27B49
330
20
100
AcDbEntity
  8
11000_Left
  6
Continuous
 62
     7
 48
0.5
370
    20
100
AcDbLine
 39
0.3
 10
99.54803089096596
 20
448.2806866923174
 30
0.0
 11
98.87303089096588
 21
448.2806866923174
 31
0.0
1001
AUSTER_FOLIE
1002
{
1000
VIERLOCH_MIT_KNEBEL_49_AUSTER
1002
}
1001
AUSTER_ANSICHT
1002
{
1000
SL
1002
}
  0
POINT
  5
27B4A
330
20
100
AcDbEntity
  8
11000_Left
  6
Continuous
 62
     7
 48
0.5
370
    20
100
AcDbPoint
 10
97.02555478096588
 20
450.8233657923173
 30
0.0
 39
0.3
1001
AUSTER_FOLIE
1002
{
1000
VIERLOCH_MIT_KNEBEL_49_AUSTER
1002
}
1001
AUSTER_ANSICHT
1002
{
1000
SL
1002
}
  0
LINE
  5
27B4B
330
20
100
AcDbEntity
  8
11000_Left
  6
Continuous
 62
     7
 48
0.5
370
    20
100
AcDbLine
 39
0.3
 10
97.10303090296587
 20
456.2906866923174
 30
0.0
 11
97.10303090296587
 21
454.0406866923174
 31
0.0
1001
AUSTER_FOLIE
1002
{
1000
VIERLOCH_MIT_KNEBEL_49_AUSTER
1002
}
1001
AUSTER_ANSICHT
1002
{
1000
SL
1002
}
  0
LINE
  5
27B4C
330
20
100
AcDbEntity
  8
11000_Left
  6
Continuous
 62
     7
 48
0.5
370
    20
100
AcDbLine
 39
0.3
 10
97.67303089096596
 20
454.0406866923174
 30
0.0
 11
97.67303089096596
 21
455.4206866923173
 31
0.0
1001
AUSTER_FOLIE
1002
{
1000
VIERLOCH_MIT_KNEBEL_49_AUSTER
1002
}
1001
AUSTER_ANSICHT
1002
{
1000
SL
1002
}
  0
LINE
  5
27B4D
330
20
100
AcDbEntity
  8
11000_Left
  6
Continuous
 62
     7
 48
0.5
370
    20
100
AcDbLine
 39
0.3
 10
97.67303089096596
 20
454.0406866923174
 30
0.0
 11
97.10303090296587
 21
454.0406866923174
 31
0.0
1001
AUSTER_FOLIE
1002
{
1000
VIERLOCH_MIT_KNEBEL_49_AUSTER
1002
}
1001
AUSTER_ANSICHT
1002
{
1000
SL
1002
}
  0
LINE
  5
27B4E
330
20
100
AcDbEntity
  8
11000_Left
  6
Continuous
 62
     7
 48
0.5
370
    20
100
AcDbLine
 39
0.3
 10
97.10303090296587
 20
453.5306866923175
 30
0.0
 11
97.10303090296587
 21
452.9306866923173
 31
0.0
1001
AUSTER_FOLIE
1002
{
1000
VIERLOCH_MIT_KNEBEL_49_AUSTER
1002
}
1001
AUSTER_ANSICHT
1002
{
1000
SL
1002
}
  0
LINE
  5
27B4F
330
20
100
AcDbEntity
  8
11000_Left
  6
Continuous
 62
     7
 48
0.5
370
    20
100
AcDbLine
 39
0.3
 10
97.10303090296587
 20
449.8406866923174
 30
0.0
 11
97.10303090296587
 21
450.7106866923172
 31
0.0
1001
AUSTER_FOLIE
1002
{
1000
VIERLOCH_MIT_KNEBEL_49_AUSTER
1002
}
1001
AUSTER_ANSICHT
1002
{
1000
SL
1002
}
  0
LINE
  5
27B50
330
20
100
AcDbEntity
  8
11000_Left
  6
Continuous
 62
     7
 48
0.5
370
    20
100
AcDbLine
 39
0.3
 10
97.07303090296592
 20
452.0906866923174
 30
0.0
 11
97.07303090296592
 21
451.5506866923173
 31
0.0
1001
AUSTER_FOLIE
1002
{
1000
VIERLOCH_MIT_KNEBEL_49_AUSTER
1002
}
1001
AUSTER_ANSICHT
1002
{
1000
SL
1002
}
  0
LINE
  5
27B51
330
20
100
AcDbEntity
  8
11000_Left
  6
Continuous
 62
     7
 48
0.5
370
    20
100
AcDbLine
 39
0.3
 10
100.103030980966
 20
456.9806866923172
 30
0.0
 11
97.10303090296587
 21
456.9806866923172
 31
0.0
1001
AUSTER_FOLIE
1002
{
1000
VIERLOCH_MIT_KNEBEL_49_AUSTER
1002
}
1001
AUSTER_ANSICHT
1002
{
1000
SL
1002
}
  0
LINE
  5
27B52
330
20
100
AcDbEntity
  8
11000_Left
  6
Continuous
 62
     7
 48
0.5
370
    20
100
AcDbLine
 39
0.3
 10
100.103030980966
 20
456.2906866923174
 30
0.0
 11
97.10303090296587
 21
456.2906866923174
 31
0.0
1001
AUSTER_FOLIE
1002
{
1000
VIERLOCH_MIT_KNEBEL_49_AUSTER
1002
}
1001
AUSTER_ANSICHT
1002
{
1000
SL
1002
}
  0
LINE
  5
27B53
330
20
100
AcDbEntity
  8
11000_Left
  6
Continuous
 62
     7
 48
0.5
370
    20
100
AcDbLine
 39
0.3
 10
98.37803089096588
 20
455.4206866923173
 30
0.0
 11
97.67303089096596
 21
455.4206866923173
 31
0.0
1001
AUSTER_FOLIE
1002
{
1000
VIERLOCH_MIT_KNEBEL_49_AUSTER
1002
}
1001
AUSTER_ANSICHT
1002
{
1000
SL
1002
}
  0
LINE
  5
27B54
330
20
100
AcDbEntity
  8
11000_Left
  6
Continuous
 62
     7
 48
0.5
370
    20
100
AcDbLine
 39
0.3
 10
97.10303090296587
 20
453.5306866923175
 30
0.0
 11
100.103030980966
 21
453.5306866923175
 31
0.0
1001
AUSTER_FOLIE
1002
{
1000
VIERLOCH_MIT_KNEBEL_49_AUSTER
1002
}
1001
AUSTER_ANSICHT
1002
{
1000
SL
1002
}
  0
LINE
  5
27B55
330
20
100
AcDbEntity
  8
11000_Left
  6
Continuous
 62
     7
 48
0.5
370
    20
100
AcDbLine
 39
0.3
 10
100.103030980966
 20
449.8406866923174
 30
0.0
 11
97.10303090296587
 21
449.8406866923174
 31
0.0
1001
AUSTER_FOLIE
1002
{
1000
VIERLOCH_MIT_KNEBEL_49_AUSTER
1002
}
1001
AUSTER_ANSICHT
1002
{
1000
SL
1002
}
  0
LINE
  5
27B56
330
20
100
AcDbEntity
  8
11000_Left
  6
Continuous
 62
     7
 48
0.5
370
    20
100
AcDbLine
 39
0.3
 10
97.07303090296592
 20
452.0906866923174
 30
0.0
 11
99.02303089096598
 21
452.9306866923173
 31
0.0
1001
AUSTER_FOLIE
1002
{
1000
VIERLOCH_MIT_KNEBEL_49_AUSTER
1002
}
1001
AUSTER_ANSICHT
1002
{
1000
SL
1002
}
  0
LINE
  5
27B57
330
20
100
AcDbEntity
  8
11000_Left
  6
Continuous
 62
     7
 48
0.5
370
    20
100
AcDbLine
 39
0.3
 10
97.10303090296587
 20
452.9306866923173
 30
0.0
 11
99.02303089096598
 21
452.9306866923173
 31
0.0
1001
AUSTER_FOLIE
1002
{
1000
VIERLOCH_MIT_KNEBEL_49_AUSTER
1002
}
1001
AUSTER_ANSICHT
1002
{
1000
SL
1002
}
  0
LINE
  5
27B58
330
20
100
AcDbEntity
  8
11000_Left
  6
Continuous
 62
     7
 48
0.5
370
    20
100
AcDbLine
 39
0.3
 10
99.05303089096594
 20
450.7106866923172
 30
0.0
 11
97.07303090296592
 21
451.5506866923173
 31
0.0
1001
AUSTER_FOLIE
1002
{
1000
VIERLOCH_MIT_KNEBEL_49_AUSTER
1002
}
1001
AUSTER_ANSICHT
1002
{
1000
SL
1002
}
  0
LINE
  5
27B59
330
20
100
AcDbEntity
  8
11000_Left
  6
Continuous
 62
     7
 48
0.5
370
    20
100
AcDbLine
 39
0.3
 10
99.05303089096594
 20
450.7106866923172
 30
0.0
 11
97.10303090296587
 21
450.7106866923172
 31
0.0
1001
AUSTER_FOLIE
1002
{
1000
VIERLOCH_MIT_KNEBEL_49_AUSTER
1002
}
1001
AUSTER_ANSICHT
1002
{
1000
SL
1002
}
  0
LINE
  5
27B5A
330
20
100
AcDbEntity
  8
11000_Left
  6
Continuous
 62
     7
 48
0.5
370
    20
100
AcDbLine
 39
0.3
 10
100.103030980966
 20
449.1506866923172
 30
0.0
 11
97.10303090296587
 21
449.1506866923172
 31
0.0
1001
AUSTER_FOLIE
1002
{
1000
VIERLOCH_MIT_KNEBEL_49_AUSTER
1002
}
1001
AUSTER_ANSICHT
1002
{
1000
SL
1002
}
  0
LINE
  5
27B5B
330
20
100
AcDbEntity
  8
11000_Left
  6
Continuous
 62
     7
 48
0.5
370
    20
100
AcDbLine
 39
0.3
 10
98.37803089096588
 20
448.2806866923174
 30
0.0
 11
97.67303089096596
 21
448.2806866923174
 31
0.0
1001
AUSTER_FOLIE
1002
{
1000
VIERLOCH_MIT_KNEBEL_49_AUSTER
1002
}
1001
AUSTER_ANSICHT
1002
{
1000
SL
1002
}
  0
LINE
  5
27B5C
330
20
100
AcDbEntity
  8
11000_Left
  6
Continuous
 62
     7
 48
0.5
370
    20
100
AcDbLine
 39
0.3
 10
97.10303090296587
 20
457.8806867223171
 30
0.0
 11
97.10303090296587
 21
456.9806866923172
 31
0.0
1001
AUSTER_FOLIE
1002
{
1000
VIERLOCH_MIT_KNEBEL_49_AUSTER
1002
}
1001
AUSTER_ANSICHT
1002
{
1000
SL
1002
}
  0
LINE
  5
27B5D
330
20
100
AcDbEntity
  8
11000_Left
  6
Continuous
 62
     7
 48
0.5
370
    20
100
AcDbLine
 39
0.3
 10
100.103030980966
 20
457.8806867223171
 30
0.0
 11
100.103030980966
 21
456.9806866923172
 31
0.0
1001
AUSTER_FOLIE
1002
{
1000
VIERLOCH_MIT_KNEBEL_49_AUSTER
1002
}
1001
AUSTER_ANSICHT
1002
{
1000
SL
1002
}
  0
LINE
  5
27B5E
330
20
100
AcDbEntity
  8
11000_Left
  6
Continuous
 62
     7
 48
0.5
370
    20
100
AcDbLine
 39
0.3
 10
100.103030980966
 20
446.9306866923171
 30
0.0
 11
99.54803089096596
 21
446.9306866923171
 31
0.0
1001
AUSTER_FOLIE
1002
{
1000
VIERLOCH_MIT_KNEBEL_49_AUSTER
1002
}
1001
AUSTER_ANSICHT
1002
{
1000
SL
1002
}
  0
LINE
  5
27B5F
330
20
100
AcDbEntity
  8
11000_Left
  6
Continuous
 62
     7
 48
0.5
370
    20
100
AcDbLine
 39
0.3
 10
98.87303089096588
 20
447.1106866923173
 30
0.0
 11
98.37803089096588
 21
447.1106866923173
 31
0.0
1001
AUSTER_FOLIE
1002
{
1000
VIERLOCH_MIT_KNEBEL_49_AUSTER
1002
}
1001
AUSTER_ANSICHT
1002
{
1000
SL
1002
}
  0
LINE
  5
27B60
330
20
100
AcDbEntity
  8
11000_Left
  6
Continuous
 62
     7
 48
0.5
370
    20
100
AcDbLine
 39
0.3
 10
97.67303089096596
 20
446.9006866923172
 30
0.0
 11
97.10303090296587
 21
446.9006866923172
 31
0.0
1001
AUSTER_FOLIE
1002
{
1000
VIERLOCH_MIT_KNEBEL_49_AUSTER
1002
}
1001
AUSTER_ANSICHT
1002
{
1000
SL
1002
}
  0
LINE
  5
27B61
330
20
100
AcDbEntity
  8
11000_Left
  6
Continuous
 62
     7
 48
0.5
370
    20
100
AcDbLine
 39
0.3
 10
97.10303090296587
 20
446.4056866923171
 30
0.0
 11
97.10303090296587
 21
445.8056866923173
 31
0.0
1001
AUSTER_FOLIE
1002
{
1000
VIERLOCH_MIT_KNEBEL_49_AUSTER
1002
}
1001
AUSTER_ANSICHT
1002
{
1000
SL
1002
}
  0
LINE
  5
27B62
330
20
100
AcDbEntity
  8
11000_Left
  6
Continuous
 62
     7
 48
0.5
370
    20
100
AcDbLine
 39
0.3
 10
97.10303090296587
 20
446.4056866923171
 30
0.0
 11
100.103030980966
 21
446.4056866923171
 31
0.0
1001
AUSTER_FOLIE
1002
{
1000
VIERLOCH_MIT_KNEBEL_49_AUSTER
1002
}
1001
AUSTER_ANSICHT
1002
{
1000
SL
1002
}
  0
LINE
  5
27B63
330
20
100
AcDbEntity
  8
11000_Left
  6
Continuous
 62
     7
 48
0.5
370
    20
100
AcDbLine
 39
0.3
 10
97.10303090296587
 20
445.8056866923173
 30
0.0
 11
99.02303089096598
 21
445.8056866923173
 31
0.0
1001
AUSTER_FOLIE
1002
{
1000
VIERLOCH_MIT_KNEBEL_49_AUSTER
1002
}
1001
AUSTER_ANSICHT
1002
{
1000
SL
1002
}
  0
LINE
  5
27B64
330
20
100
AcDbEntity
  8
11000_Left
  6
Continuous
 62
     7
 48
0.5
370
    20
100
AcDbLine
 39
0.3
 10
100.103030980966
 20
446.9306866923171
 30
0.0
 11
100.103030980966
 21
449.1506866923172
 31
0.0
1001
AUSTER_FOLIE
1002
{
1000
VIERLOCH_MIT_KNEBEL_49_AUSTER
1002
}
1001
AUSTER_ANSICHT
1002
{
1000
SL
1002
}
  0
LINE
  5
27B65
330
20
100
AcDbEntity
  8
11000_Left
  6
Continuous
 62
     7
 48
0.5
370
    20
100
AcDbLine
 39
0.3
 10
99.54803089096596
 20
446.9306866923171
 30
0.0
 11
99.54803089096596
 21
448.2806866923174
 31
0.0
1001
AUSTER_FOLIE
1002
{
1000
VIERLOCH_MIT_KNEBEL_49_AUSTER
1002
}
1001
AUSTER_ANSICHT
1002
{
1000
SL
1002
}
  0
LINE
  5
27B66
330
20
100
AcDbEntity
  8
11000_Left
  6
Continuous
 62
     7
 48
0.5
370
    20
100
AcDbLine
 39
0.3
 10
98.37803089096588
 20
447.1106866923173
 30
0.0
 11
98.37803089096588
 21
448.2806866923174
 31
0.0
1001
AUSTER_FOLIE
1002
{
1000
VIERLOCH_MIT_KNEBEL_49_AUSTER
1002
}
1001
AUSTER_ANSICHT
1002
{
1000
SL
1002
}
  0
LINE
  5
27B67
330
20
100
AcDbEntity
  8
11000_Left
  6
Continuous
 62
     7
 48
0.5
370
    20
100
AcDbLine
 39
0.3
 10
98.87303089096588
 20
447.1106866923173
 30
0.0
 11
98.87303089096588
 21
448.2806866923174
 31
0.0
1001
AUSTER_FOLIE
1002
{
1000
VIERLOCH_MIT_KNEBEL_49_AUSTER
1002
}
1001
AUSTER_ANSICHT
1002
{
1000
SL
1002
}
  0
LINE
  5
27B68
330
20
100
AcDbEntity
  8
11000_Left
  6
Continuous
 62
     7
 48
0.5
370
    20
100
AcDbLine
 39
0.3
 10
97.10303090296587
 20
449.1506866923172
 30
0.0
 11
97.10303090296587
 21
446.9006866923172
 31
0.0
1001
AUSTER_FOLIE
1002
{
1000
VIERLOCH_MIT_KNEBEL_49_AUSTER
1002
}
1001
AUSTER_ANSICHT
1002
{
1000
SL
1002
}
  0
LINE
  5
27B69
330
20
100
AcDbEntity
  8
11000_Left
  6
Continuous
 62
     7
 48
0.5
370
    20
100
AcDbLine
 39
0.3
 10
97.67303089096596
 20
446.9006866923172
 30
0.0
 11
97.67303089096596
 21
448.2806866923174
 31
0.0
1001
AUSTER_FOLIE
1002
{
1000
VIERLOCH_MIT_KNEBEL_49_AUSTER
1002
}
1001
AUSTER_ANSICHT
1002
{
1000
SL
1002
}
  0
POINT
  5
27B6B
330
20
100
AcDbEntity
  8
11000_Left
  6
Continuous
 62
     7
 48
0.5
370
    20
100
AcDbPoint
 10
83.23017478096597
 20
494.8243730923173
 30
0.0
 39
0.25
1001
AUSTER_FOLIE
1002
{
1000
VIERLOCH_MIT_KNEBEL_49_AUSTER
1002
}
1001
AUSTER_ANSICHT
1002
{
1000
SL
1002
}
  0
POINT
  5
27B6C
330
20
100
AcDbEntity
  8
11000_Left
  6
Continuous
 62
     7
 48
0.5
370
    20
100
AcDbPoint
 10
83.23017478096597
 20
494.8243730923173
 30
0.0
 39
0.25
1001
AUSTER_FOLIE
1002
{
1000
VIERLOCH_MIT_KNEBEL_49_AUSTER
1002
}
1001
AUSTER_ANSICHT
1002
{
1000
SL
1002
}
  0
POINT
  5
27B6F
330
20
100
AcDbEntity
  8
11000_Left
  6
Continuous
 62
     7
 48
0.5
370
    20
100
AcDbPoint
 10
85.88620478096595
 20
478.469603092317
 30
0.0
 39
0.25
1001
AUSTER_FOLIE
1002
{
1000
VIERLOCH_MIT_KNEBEL_49_AUSTER
1002
}
1001
AUSTER_ANSICHT
1002
{
1000
SL
1002
}
  0
POINT
  5
27B70
330
20
100
AcDbEntity
  8
11000_Left
  6
Continuous
 62
     7
 48
0.5
370
    20
100
AcDbPoint
 10
85.88620478096595
 20
478.469603092317
 30
0.0
 39
0.25
1001
AUSTER_FOLIE
1002
{
1000
VIERLOCH_MIT_KNEBEL_49_AUSTER
1002
}
1001
AUSTER_ANSICHT
1002
{
1000
SL
1002
}
  0
LINE
  5
27B85
330
20
100
AcDbEntity
  8
10000_FRONT
  6
CENTER
 62
     7
 48
0.5
370
     9
100
AcDbLine
 39
0.8
 10
44.36782258391439
 20
450.8133730923171
 30
0.0
 11
-23.40420141608559
 21
450.8133730923171
 31
0.0
1001
AUSTER_FOLIE
1002
{
1000
VIERLOCH_MIT_KNEBEL_49_AUSTER
1002
}
1001
AUSTER_ANSICHT
1002
{
1000
V
1002
}
  0
LINE
  5
27B86
330
20
100
AcDbEntity
  8
11000_Left
  6
CENTER
 62
     7
370
     9
100
AcDbLine
 39
1.0
 10
157.495344780966
 20
450.8233730923173
 30
0.0
 11
61.52463478096592
 21
450.8233730923173
 31
0.0
1001
AUSTER_FOLIE
1002
{
1000
VIERLOCH_MIT_KNEBEL_49_AUSTER
1002
}
1001
AUSTER_ANSICHT
1002
{
1000
SL
1002
}
  0
TEXT
  5
27B87
330
20
100
AcDbEntity
  8
11000_Left
  6
Continuous
 62
     7
 48
0.5
370
    20
100
AcDbText
 10
92.60188478096598
 20
470.1955030923172
 30
0.0
 40
2.5
  1
3LD2
 50
270.0
 11
95.10188478096598
 21
470.1955030923172
 31
0.0
100
AcDbText
 73
     3
1001
AUSTER_FOLIE
1002
{
1000
VIERLOCH_MIT_KNEBEL_49_AUSTER
1002
}
1001
AUSTER_ANSICHT
1002
{
1000
SL
1002
}
  0
CIRCLE
  5
27B88
330
20
100
AcDbEntity
  8
30000_Drilling
  6
Continuous
 62
     7
 48
0.5
370
    50
100
AcDbCircle
 39
0.7
 10
300.4739952280748
 20
468.8545960125741
 30
0.0
 40
2.25
1001
AUSTER_FOLIE
1002
{
1000
VIERLOCH_MIT_KNEBEL_49_AUSTER
1002
}
1001
AUSTER_ANSICHT
1002
{
1000
Det01
1002
}
  0
CIRCLE
  5
27B89
330
20
100
AcDbEntity
  8
30000_Drilling
  6
Continuous
 62
     7
 48
0.5
370
    50
100
AcDbCircle
 39
0.7
 10
264.4115493875607
 20
468.8545960125749
 30
0.0
 40
2.25
1001
AUSTER_FOLIE
1002
{
1000
VIERLOCH_MIT_KNEBEL_49_AUSTER
1002
}
1001
AUSTER_ANSICHT
1002
{
1000
Det01
1002
}
  0
CIRCLE
  5
27B8A
330
20
100
AcDbEntity
  8
30000_Drilling
  6
Continuous
 62
     7
 48
0.5
370
    50
100
AcDbCircle
 39
0.7
 10
300.4739952280747
 20
432.79215017206
 30
0.0
 40
2.25
1001
AUSTER_FOLIE
1002
{
1000
VIERLOCH_MIT_KNEBEL_49_AUSTER
1002
}
1001
AUSTER_ANSICHT
1002
{
1000
Det01
1002
}
  0
CIRCLE
  5
27B8B
330
20
100
AcDbEntity
  8
30000_Drilling
  6
Continuous
 62
     7
 48
0.5
370
    50
100
AcDbCircle
 39
0.7
 10
282.4427723078178
 20
450.8233730923173
 30
0.0
 40
5.0
1001
AUSTER_FOLIE
1002
{
1000
VIERLOCH_MIT_KNEBEL_49_AUSTER
1002
}
1001
AUSTER_ANSICHT
1002
{
1000
Det01
1002
}
  0
CIRCLE
  5
27B8C
330
20
100
AcDbEntity
  8
30000_Drilling
  6
Continuous
 62
     7
 48
0.5
370
    50
100
AcDbCircle
 39
0.7
 10
264.4115493875606
 20
432.7921501720607
 30
0.0
 40
2.25
1001
AUSTER_FOLIE
1002
{
1000
VIERLOCH_MIT_KNEBEL_49_AUSTER
1002
}
1001
AUSTER_ANSICHT
1002
{
1000
Det01
1002
}
  0
LINE
  5
27B8D
330
20
100
AcDbEntity
  8
14000_Bottom
  6
Continuous
 62
     7
 48
0.5
370
    20
100
AcDbLine
 39
0.7
 10
231.6963441068784
 20
474.8233730923173
 30
0.0
 11
231.6971241068784
 21
474.8233730923173
 31
0.0
1001
AUSTER_FOLIE
1002
{
1000
VIERLOCH_MIT_KNEBEL_49_AUSTER
1002
}
1001
AUSTER_ANSICHT
1002
{
1000
R
1002
}
  0
ARC
  5
27B8E
330
20
100
AcDbEntity
  8
14000_Bottom
  6
Continuous
 62
     7
 48
0.5
370
    20
100
AcDbCircle
 39
0.7
 10
230.6196654688703
 20
471.7111112866404
 30
0.0
 40
2.380107621191513
100
AcDbArc
 50
2.703455474751978
 51
63.08338862222819
1001
AUSTER_FOLIE
1002
{
1000
VIERLOCH_MIT_KNEBEL_49_AUSTER
1002
}
1001
AUSTER_ANSICHT
1002
{
1000
R
1002
}
  0
LINE
  5
27B90
330
20
100
AcDbEntity
  8
14000_Bottom
  6
Continuous
 62
     7
 48
0.5
370
    20
100
AcDbLine
 39
0.7
 10
231.6971241068784
 20
466.8233730923173
 30
0.0
 11
231.6971241068784
 21
480.8233730923173
 31
0.0
1001
AUSTER_FOLIE
1002
{
1000
VIERLOCH_MIT_KNEBEL_49_AUSTER
1002
}
1001
AUSTER_ANSICHT
1002
{
1000
R
1002
}
  0
LINE
  5
27B91
330
20
100
AcDbEntity
  8
14000_Bottom
  6
Continuous
 62
     7
 48
0.5
370
    20
100
AcDbLine
 39
0.7
 10
231.6971241068784
 20
480.8233730923173
 30
0.0
 11
231.6971241068784
 21
494.823373092317
 31
0.0
1001
AUSTER_FOLIE
1002
{
1000
VIERLOCH_MIT_KNEBEL_49_AUSTER
1002
}
1001
AUSTER_ANSICHT
1002
{
1000
R
1002
}
  0
ARC
  5
27B92
330
20
100
AcDbEntity
  8
14000_Bottom
  6
Continuous
 62
     7
 48
0.5
370
    20
100
AcDbCircle
 39
0.7
 10
224.4971241068784
 20
431.8233730923171
 30
0.0
 40
1.85
100
AcDbArc
 50
73.83655491912016
 51
106.1634450808196
1001
AUSTER_FOLIE
1002
{
1000
VIERLOCH_MIT_KNEBEL_49_AUSTER
1002
}
1001
AUSTER_ANSICHT
1002
{
1000
R
1002
}
  0
LINE
  5
27B93
330
20
100
AcDbEntity
  8
14000_Bottom
  6
Continuous
 62
     7
 48
0.5
370
    20
100
AcDbLine
 39
0.7
 10
228.9971241068784
 20
423.3233730923172
 30
0.0
 11
228.9971241068784
 21
423.3235630923172
 31
0.0
1001
AUSTER_FOLIE
1002
{
1000
VIERLOCH_MIT_KNEBEL_49_AUSTER
1002
}
1001
AUSTER_ANSICHT
1002
{
1000
R
1002
}
  0
LINE
  5
27B97
330
20
100
AcDbEntity
  8
14000_Bottom
  6
Continuous
 62
     7
 48
0.5
370
    20
100
AcDbLine
 39
0.7
 10
231.4971241068785
 20
426.8233730923173
 30
0.0
 11
231.4971241068785
 21
423.3233730923172
 31
0.0
1001
AUSTER_FOLIE
1002
{
1000
VIERLOCH_MIT_KNEBEL_49_AUSTER
1002
}
1001
AUSTER_ANSICHT
1002
{
1000
R
1002
}
  0
ARC
  5
27B98
330
20
100
AcDbEntity
  8
14000_Bottom
  6
Continuous
 62
     7
 48
0.5
370
    20
100
AcDbCircle
 39
0.7
 10
229.9970958047064
 20
429.8233891161678
 30
0.0
 40
3.000028302214953
100
AcDbArc
 50
299.7043595086342
 51
359.9996939698808
1001
AUSTER_FOLIE
1002
{
1000
VIERLOCH_MIT_KNEBEL_49_AUSTER
1002
}
1001
AUSTER_ANSICHT
1002
{
1000
R
1002
}
  0
ARC
  5
27B99
330
20
100
AcDbEntity
  8
14000_Bottom
  6
Continuous
 62
     7
 48
0.5
370
    20
100
AcDbCircle
 39
0.7
 10
224.4971241068784
 20
431.8233730923171
 30
0.0
 40
2.85049121087
100
AcDbArc
 50
347.7603717271906
 51
12.23962827280256
1001
AUSTER_FOLIE
1002
{
1000
VIERLOCH_MIT_KNEBEL_49_AUSTER
1002
}
1001
AUSTER_ANSICHT
1002
{
1000
R
1002
}
  0
LINE
  5
27B9A
330
20
100
AcDbEntity
  8
14000_Bottom
  6
Continuous
 62
     7
 48
0.5
370
    20
100
AcDbLine
 39
0.7
 10
224.4971241068784
 20
423.3233730923172
 30
0.0
 11
224.4971241068784
 21
423.3248330923172
 31
0.0
1001
AUSTER_FOLIE
1002
{
1000
VIERLOCH_MIT_KNEBEL_49_AUSTER
1002
}
1001
AUSTER_ANSICHT
1002
{
1000
R
1002
}
  0
LINE
  5
27B9C
330
20
100
AcDbEntity
  8
14000_Bottom
  6
Continuous
 62
     7
 48
0.5
370
    20
100
AcDbLine
 39
0.7
 10
219.9971241068785
 20
423.3233730923172
 30
0.0
 11
219.9971241068785
 21
423.3235630923172
 31
0.0
1001
AUSTER_FOLIE
1002
{
1000
VIERLOCH_MIT_KNEBEL_49_AUSTER
1002
}
1001
AUSTER_ANSICHT
1002
{
1000
R
1002
}
  0
LINE
  5
27B9E
330
20
100
AcDbEntity
  8
14000_Bottom
  6
Continuous
 62
     7
 48
0.5
370
    20
100
AcDbLine
 39
0.7
 10
218.4971241068784
 20
426.8233730923173
 30
0.0
 11
218.4971241068784
 21
423.3233730923172
 31
0.0
1001
AUSTER_FOLIE
1002
{
1000
VIERLOCH_MIT_KNEBEL_49_AUSTER
1002
}
1001
AUSTER_ANSICHT
1002
{
1000
R
1002
}
  0
POINT
  5
27BA0
330
20
100
AcDbEntity
  8
14000_Bottom
  6
Continuous
 62
     7
 48
0.5
370
    20
100
AcDbPoint
 10
224.4971241068784
 20
431.8233730923171
 30
0.0
 39
0.7
1001
AUSTER_FOLIE
1002
{
1000
VIERLOCH_MIT_KNEBEL_49_AUSTER
1002
}
1001
AUSTER_ANSICHT
1002
{
1000
R
1002
}
  0
POINT
  5
27BA1
330
20
100
AcDbEntity
  8
14000_Bottom
  6
Continuous
 62
     7
 48
0.5
370
    20
100
AcDbPoint
 10
224.4971565014683
 20
431.8232776922671
 30
0.0
 39
0.7
1001
AUSTER_FOLIE
1002
{
1000
VIERLOCH_MIT_KNEBEL_49_AUSTER
1002
}
1001
AUSTER_ANSICHT
1002
{
1000
R
1002
}
  0
POINT
  5
27BA2
330
20
100
AcDbEntity
  8
14000_Bottom
  6
Continuous
 62
     7
 48
0.5
370
    20
100
AcDbPoint
 10
224.4971241068784
 20
431.8233730923171
 30
0.0
 39
0.7
1001
AUSTER_FOLIE
1002
{
1000
VIERLOCH_MIT_KNEBEL_49_AUSTER
1002
}
1001
AUSTER_ANSICHT
1002
{
1000
R
1002
}
  0
POINT
  5
27BA3
330
20
100
AcDbEntity
  8
14000_Bottom
  6
Continuous
 62
     7
 48
0.5
370
    20
100
AcDbPoint
 10
224.4971241068784
 20
431.8233730923171
 30
0.0
 39
0.7
1001
AUSTER_FOLIE
1002
{
1000
VIERLOCH_MIT_KNEBEL_49_AUSTER
1002
}
1001
AUSTER_ANSICHT
1002
{
1000
R
1002
}
  0
POINT
  5
27BA4
330
20
100
AcDbEntity
  8
14000_Bottom
  6
Continuous
 62
     7
 48
0.5
370
    20
100
AcDbPoint
 10
224.4971241068784
 20
431.8233730923171
 30
0.0
 39
0.7
1001
AUSTER_FOLIE
1002
{
1000
VIERLOCH_MIT_KNEBEL_49_AUSTER
1002
}
1001
AUSTER_ANSICHT
1002
{
1000
R
1002
}
  0
POINT
  5
27BA5
330
20
100
AcDbEntity
  8
14000_Bottom
  6
Continuous
 62
     7
 48
0.5
370
    20
100
AcDbPoint
 10
224.4971241068784
 20
431.8233730923171
 30
0.0
 39
0.7
1001
AUSTER_FOLIE
1002
{
1000
VIERLOCH_MIT_KNEBEL_49_AUSTER
1002
}
1001
AUSTER_ANSICHT
1002
{
1000
R
1002
}
  0
POINT
  5
27BA6
330
20
100
AcDbEntity
  8
14000_Bottom
  6
Continuous
 62
     7
 48
0.5
370
    20
100
AcDbPoint
 10
224.4971241068784
 20
431.8233730923171
 30
0.0
 39
0.7
1001
AUSTER_FOLIE
1002
{
1000
VIERLOCH_MIT_KNEBEL_49_AUSTER
1002
}
1001
AUSTER_ANSICHT
1002
{
1000
R
1002
}
  0
ARC
  5
27BA7
330
20
100
AcDbEntity
  8
14000_Bottom
  6
Continuous
 62
     7
 48
0.5
370
    20
100
AcDbCircle
 39
0.7
 10
224.4971241068784
 20
431.8233730923171
 30
0.0
 40
1.85
100
AcDbArc
 50
253.8365549191803
 51
286.1634450808799
1001
AUSTER_FOLIE
1002
{
1000
VIERLOCH_MIT_KNEBEL_49_AUSTER
1002
}
1001
AUSTER_ANSICHT
1002
{
1000
R
1002
}
  0
ARC
  5
27BA8
330
20
100
AcDbEntity
  8
14000_Bottom
  6
Continuous
 62
     7
 48
0.5
370
    20
100
AcDbCircle
 39
0.7
 10
224.4971241068784
 20
431.8233730923171
 30
0.0
 40
2.85049121087
100
AcDbArc
 50
167.7603717271974
 51
192.2396282728161
1001
AUSTER_FOLIE
1002
{
1000
VIERLOCH_MIT_KNEBEL_49_AUSTER
1002
}
1001
AUSTER_ANSICHT
1002
{
1000
R
1002
}
  0
LINE
  5
27BA9
330
20
100
AcDbEntity
  8
14000_Bottom
  6
Continuous
 62
     7
 48
0.5
370
    20
100
AcDbLine
 39
0.7
 10
223.9821256486184
 20
432.6079494603174
 30
0.0
 11
223.9821241068785
 21
432.4276794225773
 31
0.0
1001
AUSTER_FOLIE
1002
{
1000
VIERLOCH_MIT_KNEBEL_49_AUSTER
1002
}
1001
AUSTER_ANSICHT
1002
{
1000
R
1002
}
  0
LINE
  5
27BAA
330
20
100
AcDbEntity
  8
14000_Bottom
  6
Continuous
 62
     7
 48
0.5
370
    20
100
AcDbLine
 39
0.7
 10
223.9821241068785
 20
431.0387989261273
 30
0.0
 11
223.9821241068785
 21
431.2190667620572
 31
0.0
1001
AUSTER_FOLIE
1002
{
1000
VIERLOCH_MIT_KNEBEL_49_AUSTER
1002
}
1001
AUSTER_ANSICHT
1002
{
1000
R
1002
}
  0
LINE
  5
27BAB
330
20
100
AcDbEntity
  8
14000_Bottom
  6
Continuous
 62
     7
 48
0.5
370
    20
100
AcDbLine
 39
0.7
 10
225.0121225651484
 20
432.6079494603174
 30
0.0
 11
225.0121241068784
 21
432.4276794225773
 31
0.0
1001
AUSTER_FOLIE
1002
{
1000
VIERLOCH_MIT_KNEBEL_49_AUSTER
1002
}
1001
AUSTER_ANSICHT
1002
{
1000
R
1002
}
  0
LINE
  5
27BAC
330
20
100
AcDbEntity
  8
14000_Bottom
  6
Continuous
 62
     7
 48
0.5
370
    20
100
AcDbLine
 39
0.7
 10
225.0121225651484
 20
431.0387967243074
 30
0.0
 11
225.0121241068784
 21
431.2190667620572
 31
0.0
1001
AUSTER_FOLIE
1002
{
1000
VIERLOCH_MIT_KNEBEL_49_AUSTER
1002
}
1001
AUSTER_ANSICHT
1002
{
1000
R
1002
}
  0
LINE
  5
27BAD
330
20
100
AcDbEntity
  8
14000_Bottom
  6
Continuous
 62
     7
 48
0.5
370
    20
100
AcDbLine
 39
0.7
 10
225.0121241068784
 20
431.0387989261273
 30
0.0
 11
225.0121241068784
 21
430.0465008402873
 31
0.0
1001
AUSTER_FOLIE
1002
{
1000
VIERLOCH_MIT_KNEBEL_49_AUSTER
1002
}
1001
AUSTER_ANSICHT
1002
{
1000
R
1002
}
  0
LINE
  5
27BAE
330
20
100
AcDbEntity
  8
14000_Bottom
  6
Continuous
 62
     7
 48
0.5
370
    20
100
AcDbLine
 39
0.7
 10
223.9821241068785
 20
430.0465008402873
 30
0.0
 11
223.9821241068785
 21
431.0387989261273
 31
0.0
1001
AUSTER_FOLIE
1002
{
1000
VIERLOCH_MIT_KNEBEL_49_AUSTER
1002
}
1001
AUSTER_ANSICHT
1002
{
1000
R
1002
}
  0
LINE
  5
27BAF
330
20
100
AcDbEntity
  8
14000_Bottom
  6
Continuous
 62
     7
 48
0.5
370
    20
100
AcDbLine
 39
0.7
 10
223.9821241068785
 20
431.2190667620572
 30
0.0
 11
221.7114259892684
 21
431.2190667620572
 31
0.0
1001
AUSTER_FOLIE
1002
{
1000
VIERLOCH_MIT_KNEBEL_49_AUSTER
1002
}
1001
AUSTER_ANSICHT
1002
{
1000
R
1002
}
  0
LINE
  5
27BB0
330
20
100
AcDbEntity
  8
14000_Bottom
  6
Continuous
 62
     7
 48
0.5
370
    20
100
AcDbLine
 39
0.7
 10
221.7114259892684
 20
432.4276794225773
 30
0.0
 11
223.9821241068785
 21
432.4276794225773
 31
0.0
1001
AUSTER_FOLIE
1002
{
1000
VIERLOCH_MIT_KNEBEL_49_AUSTER
1002
}
1001
AUSTER_ANSICHT
1002
{
1000
R
1002
}
  0
LINE
  5
27BB2
330
20
100
AcDbEntity
  8
14000_Bottom
  6
Continuous
 62
     7
 48
0.5
370
    20
100
AcDbLine
 39
0.7
 10
214.9971241068785
 20
423.3233730923172
 30
0.0
 11
214.9971241068785
 21
426.8233730923173
 31
0.0
1001
AUSTER_FOLIE
1002
{
1000
VIERLOCH_MIT_KNEBEL_49_AUSTER
1002
}
1001
AUSTER_ANSICHT
1002
{
1000
R
1002
}
  0
LINE
  5
27BB3
330
20
100
AcDbEntity
  8
14000_Bottom
  6
Continuous
 62
     7
 48
0.5
370
    20
100
AcDbLine
 39
0.7
 10
208.9971241068785
 20
423.3233730923172
 30
0.0
 11
208.9971241068785
 21
423.3248330923172
 31
0.0
1001
AUSTER_FOLIE
1002
{
1000
VIERLOCH_MIT_KNEBEL_49_AUSTER
1002
}
1001
AUSTER_ANSICHT
1002
{
1000
R
1002
}
  0
LINE
  5
27BB5
330
20
100
AcDbEntity
  8
14000_Bottom
  6
Continuous
 62
     7
 48
0.5
370
    20
100
AcDbLine
 39
0.7
 10
213.4971241068785
 20
423.3233730923172
 30
0.0
 11
213.4971241068785
 21
423.3235630923172
 31
0.0
1001
AUSTER_FOLIE
1002
{
1000
VIERLOCH_MIT_KNEBEL_49_AUSTER
1002
}
1001
AUSTER_ANSICHT
1002
{
1000
R
1002
}
  0
POINT
  5
27BB7
330
20
100
AcDbEntity
  8
14000_Bottom
  6
Continuous
 62
     7
 48
0.5
370
    20
100
AcDbPoint
 10
208.9971241068785
 20
431.8233730923171
 30
0.0
 39
0.7
1001
AUSTER_FOLIE
1002
{
1000
VIERLOCH_MIT_KNEBEL_49_AUSTER
1002
}
1001
AUSTER_ANSICHT
1002
{
1000
R
1002
}
  0
POINT
  5
27BB8
330
20
100
AcDbEntity
  8
14000_Bottom
  6
Continuous
 62
     7
 48
0.5
370
    20
100
AcDbPoint
 10
208.9971565014683
 20
431.8232776922671
 30
0.0
 39
0.7
1001
AUSTER_FOLIE
1002
{
1000
VIERLOCH_MIT_KNEBEL_49_AUSTER
1002
}
1001
AUSTER_ANSICHT
1002
{
1000
R
1002
}
  0
POINT
  5
27BB9
330
20
100
AcDbEntity
  8
14000_Bottom
  6
Continuous
 62
     7
 48
0.5
370
    20
100
AcDbPoint
 10
208.9971241068785
 20
431.8233730923171
 30
0.0
 39
0.7
1001
AUSTER_FOLIE
1002
{
1000
VIERLOCH_MIT_KNEBEL_49_AUSTER
1002
}
1001
AUSTER_ANSICHT
1002
{
1000
R
1002
}
  0
POINT
  5
27BBA
330
20
100
AcDbEntity
  8
14000_Bottom
  6
Continuous
 62
     7
 48
0.5
370
    20
100
AcDbPoint
 10
208.9971241068785
 20
431.8233730923171
 30
0.0
 39
0.7
1001
AUSTER_FOLIE
1002
{
1000
VIERLOCH_MIT_KNEBEL_49_AUSTER
1002
}
1001
AUSTER_ANSICHT
1002
{
1000
R
1002
}
  0
POINT
  5
27BBB
330
20
100
AcDbEntity
  8
14000_Bottom
  6
Continuous
 62
     7
 48
0.5
370
    20
100
AcDbPoint
 10
208.9971241068785
 20
431.8233730923171
 30
0.0
 39
0.7
1001
AUSTER_FOLIE
1002
{
1000
VIERLOCH_MIT_KNEBEL_49_AUSTER
1002
}
1001
AUSTER_ANSICHT
1002
{
1000
R
1002
}
  0
POINT
  5
27BBC
330
20
100
AcDbEntity
  8
14000_Bottom
  6
Continuous
 62
     7
 48
0.5
370
    20
100
AcDbPoint
 10
208.9971241068785
 20
431.8233730923171
 30
0.0
 39
0.7
1001
AUSTER_FOLIE
1002
{
1000
VIERLOCH_MIT_KNEBEL_49_AUSTER
1002
}
1001
AUSTER_ANSICHT
1002
{
1000
R
1002
}
  0
POINT
  5
27BBD
330
20
100
AcDbEntity
  8
14000_Bottom
  6
Continuous
 62
     7
 48
0.5
370
    20
100
AcDbPoint
 10
208.9971241068785
 20
431.8233730923171
 30
0.0
 39
0.7
1001
AUSTER_FOLIE
1002
{
1000
VIERLOCH_MIT_KNEBEL_49_AUSTER
1002
}
1001
AUSTER_ANSICHT
1002
{
1000
R
1002
}
  0
ARC
  5
27BBE
330
20
100
AcDbEntity
  8
14000_Bottom
  6
Continuous
 62
     7
 48
0.5
370
    20
100
AcDbCircle
 39
0.7
 10
208.9971241068785
 20
431.8233730923171
 30
0.0
 40
2.85049121087
100
AcDbArc
 50
347.7603717271906
 51
12.23962827280256
1001
AUSTER_FOLIE
1002
{
1000
VIERLOCH_MIT_KNEBEL_49_AUSTER
1002
}
1001
AUSTER_ANSICHT
1002
{
1000
R
1002
}
  0
LINE
  5
27BBF
330
20
100
AcDbEntity
  8
14000_Bottom
  6
Continuous
 62
     7
 48
0.5
370
    20
100
AcDbLine
 39
0.7
 10
209.5121225651484
 20
432.6079494603174
 30
0.0
 11
209.5121241068784
 21
432.4276794225773
 31
0.0
1001
AUSTER_FOLIE
1002
{
1000
VIERLOCH_MIT_KNEBEL_49_AUSTER
1002
}
1001
AUSTER_ANSICHT
1002
{
1000
R
1002
}
  0
LINE
  5
27BC0
330
20
100
AcDbEntity
  8
14000_Bottom
  6
Continuous
 62
     7
 48
0.5
370
    20
100
AcDbLine
 39
0.7
 10
209.5121225651484
 20
431.0387967243074
 30
0.0
 11
209.5121241068784
 21
431.2190667620572
 31
0.0
1001
AUSTER_FOLIE
1002
{
1000
VIERLOCH_MIT_KNEBEL_49_AUSTER
1002
}
1001
AUSTER_ANSICHT
1002
{
1000
R
1002
}
  0
LINE
  5
27BC1
330
20
100
AcDbEntity
  8
14000_Bottom
  6
Continuous
 62
     7
 48
0.5
370
    20
100
AcDbLine
 39
0.7
 10
209.5121241068784
 20
431.0387989261273
 30
0.0
 11
209.5121241068784
 21
430.0465008402873
 31
0.0
1001
AUSTER_FOLIE
1002
{
1000
VIERLOCH_MIT_KNEBEL_49_AUSTER
1002
}
1001
AUSTER_ANSICHT
1002
{
1000
R
1002
}
  0
LINE
  5
27BC2
330
20
100
AcDbEntity
  8
14000_Bottom
  6
Continuous
 62
     7
 48
0.5
370
    20
100
AcDbLine
 39
0.7
 10
211.7828222244884
 20
431.2190667620572
 30
0.0
 11
209.5121241068784
 21
431.2190667620572
 31
0.0
1001
AUSTER_FOLIE
1002
{
1000
VIERLOCH_MIT_KNEBEL_49_AUSTER
1002
}
1001
AUSTER_ANSICHT
1002
{
1000
R
1002
}
  0
LINE
  5
27BC3
330
20
100
AcDbEntity
  8
14000_Bottom
  6
Continuous
 62
     7
 48
0.5
370
    20
100
AcDbLine
 39
0.7
 10
209.5121241068784
 20
432.4276794225773
 30
0.0
 11
211.7828222244884
 21
432.4276794225773
 31
0.0
1001
AUSTER_FOLIE
1002
{
1000
VIERLOCH_MIT_KNEBEL_49_AUSTER
1002
}
1001
AUSTER_ANSICHT
1002
{
1000
R
1002
}
  0
LINE
  5
27BC4
330
20
100
AcDbEntity
  8
14000_Bottom
  6
Continuous
 62
     7
 48
0.5
370
    20
100
AcDbLine
 39
0.7
 10
231.4971241068785
 20
423.3233730923172
 30
0.0
 11
218.4971241068784
 21
423.3233730923172
 31
0.0
1001
AUSTER_FOLIE
1002
{
1000
VIERLOCH_MIT_KNEBEL_49_AUSTER
1002
}
1001
AUSTER_ANSICHT
1002
{
1000
R
1002
}
  0
LINE
  5
27BC5
330
20
100
AcDbEntity
  8
14000_Bottom
  6
Continuous
 62
     7
 48
0.5
370
    20
100
AcDbLine
 39
0.7
 10
227.2828222244884
 20
431.2190667620572
 30
0.0
 11
225.0121241068784
 21
431.2190667620572
 31
0.0
1001
AUSTER_FOLIE
1002
{
1000
VIERLOCH_MIT_KNEBEL_49_AUSTER
1002
}
1001
AUSTER_ANSICHT
1002
{
1000
R
1002
}
  0
LINE
  5
27BC6
330
20
100
AcDbEntity
  8
14000_Bottom
  6
Continuous
 62
     7
 48
0.5
370
    20
100
AcDbLine
 39
0.7
 10
225.0121241068784
 20
432.4276794225773
 30
0.0
 11
227.2828222244884
 21
432.4276794225773
 31
0.0
1001
AUSTER_FOLIE
1002
{
1000
VIERLOCH_MIT_KNEBEL_49_AUSTER
1002
}
1001
AUSTER_ANSICHT
1002
{
1000
R
1002
}
  0
LINE
  5
27BC7
330
20
100
AcDbEntity
  8
14000_Bottom
  6
Continuous
 62
     7
 48
0.5
370
    50
100
AcDbLine
 39
0.7
 10
231.4971241068785
 20
435.3233730923173
 30
0.0
 11
231.4971241068785
 21
426.8233730923173
 31
0.0
1001
AUSTER_FOLIE
1002
{
1000
VIERLOCH_MIT_KNEBEL_49_AUSTER
1002
}
1001
AUSTER_ANSICHT
1002
{
1000
R
1002
}
  0
CIRCLE
  5
27BC8
330
20
100
AcDbEntity
  8
14000_Bottom
  6
Continuous
 62
     7
 48
0.5
370
    20
100
AcDbCircle
 39
0.7
 10
224.4971241068784
 20
431.8233730923171
 30
0.0
 40
3.1
1001
AUSTER_FOLIE
1002
{
1000
VIERLOCH_MIT_KNEBEL_49_AUSTER
1002
}
1001
AUSTER_ANSICHT
1002
{
1000
R
1002
}
  0
CIRCLE
  5
27BC9
330
20
100
AcDbEntity
  8
14000_Bottom
  6
Continuous
 62
     7
 48
0.5
370
    20
100
AcDbCircle
 39
0.7
 10
224.4971241068784
 20
431.8233730923171
 30
0.0
 40
3.1
1001
AUSTER_FOLIE
1002
{
1000
VIERLOCH_MIT_KNEBEL_49_AUSTER
1002
}
1001
AUSTER_ANSICHT
1002
{
1000
R
1002
}
  0
LINE
  5
27BCA
330
20
100
AcDbEntity
  8
14000_Bottom
  6
Continuous
 62
     7
 48
0.5
370
    20
100
AcDbLine
 39
0.7
 10
223.9821256486184
 20
432.6079494603174
 30
0.0
 11
223.9821241068785
 21
433.6002453443373
 31
0.0
1001
AUSTER_FOLIE
1002
{
1000
VIERLOCH_MIT_KNEBEL_49_AUSTER
1002
}
1001
AUSTER_ANSICHT
1002
{
1000
R
1002
}
  0
LINE
  5
27BCB
330
20
100
AcDbEntity
  8
14000_Bottom
  6
Continuous
 62
     7
 48
0.5
370
    20
100
AcDbLine
 39
0.7
 10
225.0121241068784
 20
433.6002453443373
 30
0.0
 11
225.0121241068784
 21
432.6079472584972
 31
0.0
1001
AUSTER_FOLIE
1002
{
1000
VIERLOCH_MIT_KNEBEL_49_AUSTER
1002
}
1001
AUSTER_ANSICHT
1002
{
1000
R
1002
}
  0
LINE
  5
27BCC
330
20
100
AcDbEntity
  8
14000_Bottom
  6
Continuous
 62
     7
 48
0.5
370
    20
100
AcDbLine
 39
0.7
 10
209.5121241068784
 20
433.6002453443373
 30
0.0
 11
209.5121241068784
 21
432.6079472584972
 31
0.0
1001
AUSTER_FOLIE
1002
{
1000
VIERLOCH_MIT_KNEBEL_49_AUSTER
1002
}
1001
AUSTER_ANSICHT
1002
{
1000
R
1002
}
  0
LINE
  5
27BCD
330
20
100
AcDbEntity
  8
14000_Bottom
  6
Continuous
 62
     7
 48
0.5
370
    50
100
AcDbLine
 39
0.7
 10
231.4971241068785
 20
466.3233730923173
 30
0.0
 11
231.4971241068785
 21
435.3233730923173
 31
0.0
1001
AUSTER_FOLIE
1002
{
1000
VIERLOCH_MIT_KNEBEL_49_AUSTER
1002
}
1001
AUSTER_ANSICHT
1002
{
1000
R
1002
}
  0
LINE
  5
27BCE
330
20
100
AcDbEntity
  8
14000_Bottom
  6
Continuous
 62
     7
 48
0.5
370
    20
100
AcDbLine
 39
0.7
 10
232.9971241068784
 20
471.8233730923173
 30
0.0
 11
232.9971241068784
 21
429.8233730923173
 31
0.0
1001
AUSTER_FOLIE
1002
{
1000
VIERLOCH_MIT_KNEBEL_49_AUSTER
1002
}
1001
AUSTER_ANSICHT
1002
{
1000
R
1002
}
  0
ARC
  5
27BCF
330
20
100
AcDbEntity
  8
14000_Bottom
  6
Continuous
 62
     7
 48
0.5
370
    20
100
AcDbCircle
 39
0.7
 10
187.9970937443337
 20
471.8233877729643
 30
0.0
 40
2.999969637491311
100
AcDbArc
 50
124.8480724133524
 51
180.0002803825366
1001
AUSTER_FOLIE
1002
{
1000
VIERLOCH_MIT_KNEBEL_49_AUSTER
1002
}
1001
AUSTER_ANSICHT
1002
{
1000
R
1002
}
  0
LINE
  5
27BD0
330
20
100
AcDbEntity
  8
14000_Bottom
  6
Continuous
 62
     7
 48
0.5
370
    20
100
AcDbLine
 39
0.7
 10
186.2971241068784
 20
466.8233730923173
 30
0.0
 11
186.2971241068784
 21
480.8233730923173
 31
0.0
1001
AUSTER_FOLIE
1002
{
1000
VIERLOCH_MIT_KNEBEL_49_AUSTER
1002
}
1001
AUSTER_ANSICHT
1002
{
1000
R
1002
}
  0
LINE
  5
27BD1
330
20
100
AcDbEntity
  8
14000_Bottom
  6
Continuous
 62
     7
 48
0.5
370
    20
100
AcDbLine
 39
0.7
 10
186.2971241068784
 20
480.8233730923173
 30
0.0
 11
186.2971241068784
 21
494.823373092317
 31
0.0
1001
AUSTER_FOLIE
1002
{
1000
VIERLOCH_MIT_KNEBEL_49_AUSTER
1002
}
1001
AUSTER_ANSICHT
1002
{
1000
R
1002
}
  0
ARC
  5
27BD2
330
20
100
AcDbEntity
  8
14000_Bottom
  6
Continuous
 62
     7
 48
0.5
370
    20
100
AcDbCircle
 39
0.7
 10
193.4971241068785
 20
431.8233730923171
 30
0.0
 40
1.85
100
AcDbArc
 50
73.83655491912016
 51
106.1634450808196
1001
AUSTER_FOLIE
1002
{
1000
VIERLOCH_MIT_KNEBEL_49_AUSTER
1002
}
1001
AUSTER_ANSICHT
1002
{
1000
R
1002
}
  0
LINE
  5
27BDF
330
20
100
AcDbEntity
  8
14000_Bottom
  6
Continuous
 62
     7
 48
0.5
370
    20
100
AcDbLine
 39
0.7
 10
202.9971241068785
 20
426.8233730923173
 30
0.0
 11
202.9971241068785
 21
423.3233730923172
 31
0.0
1001
AUSTER_FOLIE
1002
{
1000
VIERLOCH_MIT_KNEBEL_49_AUSTER
1002
}
1001
AUSTER_ANSICHT
1002
{
1000
R
1002
}
  0
LINE
  5
27BE0
330
20
100
AcDbEntity
  8
14000_Bottom
  6
Continuous
 62
     7
 48
0.5
370
    20
100
AcDbLine
 39
0.7
 10
204.4971241068785
 20
423.3233730923172
 30
0.0
 11
204.4971241068785
 21
423.3235630923172
 31
0.0
1001
AUSTER_FOLIE
1002
{
1000
VIERLOCH_MIT_KNEBEL_49_AUSTER
1002
}
1001
AUSTER_ANSICHT
1002
{
1000
R
1002
}
  0
ARC
  5
27BE2
330
20
100
AcDbEntity
  8
14000_Bottom
  6
Continuous
 62
     7
 48
0.5
370
    20
100
AcDbCircle
 39
0.7
 10
208.9971241068785
 20
431.8233730923171
 30
0.0
 40
2.85049121087
100
AcDbArc
 50
167.7603717271974
 51
192.2396282728161
1001
AUSTER_FOLIE
1002
{
1000
VIERLOCH_MIT_KNEBEL_49_AUSTER
1002
}
1001
AUSTER_ANSICHT
1002
{
1000
R
1002
}
  0
LINE
  5
27BE3
330
20
100
AcDbEntity
  8
14000_Bottom
  6
Continuous
 62
     7
 48
0.5
370
    20
100
AcDbLine
 39
0.7
 10
208.4821256486184
 20
432.6079494603174
 30
0.0
 11
208.4821241068785
 21
432.4276794225773
 31
0.0
1001
AUSTER_FOLIE
1002
{
1000
VIERLOCH_MIT_KNEBEL_49_AUSTER
1002
}
1001
AUSTER_ANSICHT
1002
{
1000
R
1002
}
  0
LINE
  5
27BE4
330
20
100
AcDbEntity
  8
14000_Bottom
  6
Continuous
 62
     7
 48
0.5
370
    20
100
AcDbLine
 39
0.7
 10
208.4821241068785
 20
431.0387989261273
 30
0.0
 11
208.4821241068785
 21
431.2190667620572
 31
0.0
1001
AUSTER_FOLIE
1002
{
1000
VIERLOCH_MIT_KNEBEL_49_AUSTER
1002
}
1001
AUSTER_ANSICHT
1002
{
1000
R
1002
}
  0
LINE
  5
27BE5
330
20
100
AcDbEntity
  8
14000_Bottom
  6
Continuous
 62
     7
 48
0.5
370
    20
100
AcDbLine
 39
0.7
 10
208.4821241068785
 20
430.0465008402873
 30
0.0
 11
208.4821241068785
 21
431.0387989261273
 31
0.0
1001
AUSTER_FOLIE
1002
{
1000
VIERLOCH_MIT_KNEBEL_49_AUSTER
1002
}
1001
AUSTER_ANSICHT
1002
{
1000
R
1002
}
  0
LINE
  5
27BE6
330
20
100
AcDbEntity
  8
14000_Bottom
  6
Continuous
 62
     7
 48
0.5
370
    20
100
AcDbLine
 39
0.7
 10
208.4821241068785
 20
431.2190667620572
 30
0.0
 11
206.2114259892684
 21
431.2190667620572
 31
0.0
1001
AUSTER_FOLIE
1002
{
1000
VIERLOCH_MIT_KNEBEL_49_AUSTER
1002
}
1001
AUSTER_ANSICHT
1002
{
1000
R
1002
}
  0
LINE
  5
27BE7
330
20
100
AcDbEntity
  8
14000_Bottom
  6
Continuous
 62
     7
 48
0.5
370
    20
100
AcDbLine
 39
0.7
 10
206.2114259892684
 20
432.4276794225773
 30
0.0
 11
208.4821241068785
 21
432.4276794225773
 31
0.0
1001
AUSTER_FOLIE
1002
{
1000
VIERLOCH_MIT_KNEBEL_49_AUSTER
1002
}
1001
AUSTER_ANSICHT
1002
{
1000
R
1002
}
  0
LINE
  5
27BEA
330
20
100
AcDbEntity
  8
14000_Bottom
  6
Continuous
 62
     7
 48
0.5
370
    20
100
AcDbLine
 39
0.7
 10
197.9971241068784
 20
423.3233730923172
 30
0.0
 11
197.9971241068784
 21
423.3235630923172
 31
0.0
1001
AUSTER_FOLIE
1002
{
1000
VIERLOCH_MIT_KNEBEL_49_AUSTER
1002
}
1001
AUSTER_ANSICHT
1002
{
1000
R
1002
}
  0
LINE
  5
27BEC
330
20
100
AcDbEntity
  8
14000_Bottom
  6
Continuous
 62
     7
 48
0.5
370
    20
100
AcDbLine
 39
0.7
 10
199.4971241068784
 20
423.3233730923172
 30
0.0
 11
199.4971241068784
 21
426.8233730923173
 31
0.0
1001
AUSTER_FOLIE
1002
{
1000
VIERLOCH_MIT_KNEBEL_49_AUSTER
1002
}
1001
AUSTER_ANSICHT
1002
{
1000
R
1002
}
  0
LINE
  5
27BED
330
20
100
AcDbEntity
  8
14000_Bottom
  6
Continuous
 62
     7
 48
0.5
370
    20
100
AcDbLine
 39
0.7
 10
193.4971241068785
 20
423.3233730923172
 30
0.0
 11
193.4971241068785
 21
423.3248330923172
 31
0.0
1001
AUSTER_FOLIE
1002
{
1000
VIERLOCH_MIT_KNEBEL_49_AUSTER
1002
}
1001
AUSTER_ANSICHT
1002
{
1000
R
1002
}
  0
POINT
  5
27BEF
330
20
100
AcDbEntity
  8
14000_Bottom
  6
Continuous
 62
     7
 48
0.5
370
    20
100
AcDbPoint
 10
193.4971241068785
 20
431.8233730923171
 30
0.0
 39
0.7
1001
AUSTER_FOLIE
1002
{
1000
VIERLOCH_MIT_KNEBEL_49_AUSTER
1002
}
1001
AUSTER_ANSICHT
1002
{
1000
R
1002
}
  0
POINT
  5
27BF0
330
20
100
AcDbEntity
  8
14000_Bottom
  6
Continuous
 62
     7
 48
0.5
370
    20
100
AcDbPoint
 10
193.4971565014683
 20
431.8232776922671
 30
0.0
 39
0.7
1001
AUSTER_FOLIE
1002
{
1000
VIERLOCH_MIT_KNEBEL_49_AUSTER
1002
}
1001
AUSTER_ANSICHT
1002
{
1000
R
1002
}
  0
POINT
  5
27BF1
330
20
100
AcDbEntity
  8
14000_Bottom
  6
Continuous
 62
     7
 48
0.5
370
    20
100
AcDbPoint
 10
193.4971241068785
 20
431.8233730923171
 30
0.0
 39
0.7
1001
AUSTER_FOLIE
1002
{
1000
VIERLOCH_MIT_KNEBEL_49_AUSTER
1002
}
1001
AUSTER_ANSICHT
1002
{
1000
R
1002
}
  0
POINT
  5
27BF2
330
20
100
AcDbEntity
  8
14000_Bottom
  6
Continuous
 62
     7
 48
0.5
370
    20
100
AcDbPoint
 10
193.4971241068785
 20
431.8233730923171
 30
0.0
 39
0.7
1001
AUSTER_FOLIE
1002
{
1000
VIERLOCH_MIT_KNEBEL_49_AUSTER
1002
}
1001
AUSTER_ANSICHT
1002
{
1000
R
1002
}
  0
POINT
  5
27BF3
330
20
100
AcDbEntity
  8
14000_Bottom
  6
Continuous
 62
     7
 48
0.5
370
    20
100
AcDbPoint
 10
193.4971241068785
 20
431.8233730923171
 30
0.0
 39
0.7
1001
AUSTER_FOLIE
1002
{
1000
VIERLOCH_MIT_KNEBEL_49_AUSTER
1002
}
1001
AUSTER_ANSICHT
1002
{
1000
R
1002
}
  0
POINT
  5
27BF4
330
20
100
AcDbEntity
  8
14000_Bottom
  6
Continuous
 62
     7
 48
0.5
370
    20
100
AcDbPoint
 10
193.4971241068785
 20
431.8233730923171
 30
0.0
 39
0.7
1001
AUSTER_FOLIE
1002
{
1000
VIERLOCH_MIT_KNEBEL_49_AUSTER
1002
}
1001
AUSTER_ANSICHT
1002
{
1000
R
1002
}
  0
POINT
  5
27BF5
330
20
100
AcDbEntity
  8
14000_Bottom
  6
Continuous
 62
     7
 48
0.5
370
    20
100
AcDbPoint
 10
193.4971241068785
 20
431.8233730923171
 30
0.0
 39
0.7
1001
AUSTER_FOLIE
1002
{
1000
VIERLOCH_MIT_KNEBEL_49_AUSTER
1002
}
1001
AUSTER_ANSICHT
1002
{
1000
R
1002
}
  0
ARC
  5
27BF6
330
20
100
AcDbEntity
  8
14000_Bottom
  6
Continuous
 62
     7
 48
0.5
370
    20
100
AcDbCircle
 39
0.7
 10
193.4971241068785
 20
431.8233730923171
 30
0.0
 40
2.85049121087
100
AcDbArc
 50
347.7603717271906
 51
12.23962827280256
1001
AUSTER_FOLIE
1002
{
1000
VIERLOCH_MIT_KNEBEL_49_AUSTER
1002
}
1001
AUSTER_ANSICHT
1002
{
1000
R
1002
}
  0
ARC
  5
27BF7
330
20
100
AcDbEntity
  8
14000_Bottom
  6
Continuous
 62
     7
 48
0.5
370
    20
100
AcDbCircle
 39
0.7
 10
193.4971241068785
 20
431.8233730923171
 30
0.0
 40
1.85
100
AcDbArc
 50
253.8365549191803
 51
286.1634450808799
1001
AUSTER_FOLIE
1002
{
1000
VIERLOCH_MIT_KNEBEL_49_AUSTER
1002
}
1001
AUSTER_ANSICHT
1002
{
1000
R
1002
}
  0
LINE
  5
27BF8
330
20
100
AcDbEntity
  8
14000_Bottom
  6
Continuous
 62
     7
 48
0.5
370
    20
100
AcDbLine
 39
0.7
 10
192.9821256486184
 20
432.6079494603174
 30
0.0
 11
192.9821241068784
 21
432.4276794225773
 31
0.0
1001
AUSTER_FOLIE
1002
{
1000
VIERLOCH_MIT_KNEBEL_49_AUSTER
1002
}
1001
AUSTER_ANSICHT
1002
{
1000
R
1002
}
  0
LINE
  5
27BF9
330
20
100
AcDbEntity
  8
14000_Bottom
  6
Continuous
 62
     7
 48
0.5
370
    20
100
AcDbLine
 39
0.7
 10
192.9821241068784
 20
431.0387989261273
 30
0.0
 11
192.9821241068784
 21
431.2190667620572
 31
0.0
1001
AUSTER_FOLIE
1002
{
1000
VIERLOCH_MIT_KNEBEL_49_AUSTER
1002
}
1001
AUSTER_ANSICHT
1002
{
1000
R
1002
}
  0
LINE
  5
27BFA
330
20
100
AcDbEntity
  8
14000_Bottom
  6
Continuous
 62
     7
 48
0.5
370
    20
100
AcDbLine
 39
0.7
 10
194.0121225651484
 20
432.6079494603174
 30
0.0
 11
194.0121241068784
 21
432.4276794225773
 31
0.0
1001
AUSTER_FOLIE
1002
{
1000
VIERLOCH_MIT_KNEBEL_49_AUSTER
1002
}
1001
AUSTER_ANSICHT
1002
{
1000
R
1002
}
  0
LINE
  5
27BFB
330
20
100
AcDbEntity
  8
14000_Bottom
  6
Continuous
 62
     7
 48
0.5
370
    20
100
AcDbLine
 39
0.7
 10
194.0121225651484
 20
431.0387967243074
 30
0.0
 11
194.0121241068784
 21
431.2190667620572
 31
0.0
1001
AUSTER_FOLIE
1002
{
1000
VIERLOCH_MIT_KNEBEL_49_AUSTER
1002
}
1001
AUSTER_ANSICHT
1002
{
1000
R
1002
}
  0
LINE
  5
27BFC
330
20
100
AcDbEntity
  8
14000_Bottom
  6
Continuous
 62
     7
 48
0.5
370
    20
100
AcDbLine
 39
0.7
 10
194.0121241068784
 20
431.0387989261273
 30
0.0
 11
194.0121241068784
 21
430.0465008402873
 31
0.0
1001
AUSTER_FOLIE
1002
{
1000
VIERLOCH_MIT_KNEBEL_49_AUSTER
1002
}
1001
AUSTER_ANSICHT
1002
{
1000
R
1002
}
  0
LINE
  5
27BFD
330
20
100
AcDbEntity
  8
14000_Bottom
  6
Continuous
 62
     7
 48
0.5
370
    20
100
AcDbLine
 39
0.7
 10
192.9821241068784
 20
430.0465008402873
 30
0.0
 11
192.9821241068784
 21
431.0387989261273
 31
0.0
1001
AUSTER_FOLIE
1002
{
1000
VIERLOCH_MIT_KNEBEL_49_AUSTER
1002
}
1001
AUSTER_ANSICHT
1002
{
1000
R
1002
}
  0
LINE
  5
27BFE
330
20
100
AcDbEntity
  8
14000_Bottom
  6
Continuous
 62
     7
 48
0.5
370
    20
100
AcDbLine
 39
0.7
 10
196.2828222244884
 20
431.2190667620572
 30
0.0
 11
194.0121241068784
 21
431.2190667620572
 31
0.0
1001
AUSTER_FOLIE
1002
{
1000
VIERLOCH_MIT_KNEBEL_49_AUSTER
1002
}
1001
AUSTER_ANSICHT
1002
{
1000
R
1002
}
  0
LINE
  5
27BFF
330
20
100
AcDbEntity
  8
14000_Bottom
  6
Continuous
 62
     7
 48
0.5
370
    20
100
AcDbLine
 39
0.7
 10
194.0121241068784
 20
432.4276794225773
 30
0.0
 11
196.2828222244884
 21
432.4276794225773
 31
0.0
1001
AUSTER_FOLIE
1002
{
1000
VIERLOCH_MIT_KNEBEL_49_AUSTER
1002
}
1001
AUSTER_ANSICHT
1002
{
1000
R
1002
}
  0
LINE
  5
27C00
330
20
100
AcDbEntity
  8
14000_Bottom
  6
Continuous
 62
     7
 48
0.5
370
    20
100
AcDbLine
 39
0.7
 10
188.9971241068784
 20
423.3233730923172
 30
0.0
 11
188.9971241068784
 21
423.3235630923172
 31
0.0
1001
AUSTER_FOLIE
1002
{
1000
VIERLOCH_MIT_KNEBEL_49_AUSTER
1002
}
1001
AUSTER_ANSICHT
1002
{
1000
R
1002
}
  0
LINE
  5
27C04
330
20
100
AcDbEntity
  8
14000_Bottom
  6
Continuous
 62
     7
 48
0.5
370
    20
100
AcDbLine
 39
0.7
 10
186.4971241068784
 20
426.8233730923173
 30
0.0
 11
186.4971241068784
 21
423.3233730923172
 31
0.0
1001
AUSTER_FOLIE
1002
{
1000
VIERLOCH_MIT_KNEBEL_49_AUSTER
1002
}
1001
AUSTER_ANSICHT
1002
{
1000
R
1002
}
  0
ARC
  5
27C05
330
20
100
AcDbEntity
  8
14000_Bottom
  6
Continuous
 62
     7
 48
0.5
370
    20
100
AcDbCircle
 39
0.7
 10
187.9457477150698
 20
429.7937106058746
 30
0.0
 40
2.948772803368521
100
AcDbArc
 50
179.4236368618491
 51
240.5763570950854
1001
AUSTER_FOLIE
1002
{
1000
VIERLOCH_MIT_KNEBEL_49_AUSTER
1002
}
1001
AUSTER_ANSICHT
1002
{
1000
R
1002
}
  0
ARC
  5
27C06
330
20
100
AcDbEntity
  8
14000_Bottom
  6
Continuous
 62
     7
 48
0.5
370
    20
100
AcDbCircle
 39
0.7
 10
193.4971241068785
 20
431.8233730923171
 30
0.0
 40
2.85049121087
100
AcDbArc
 50
167.7603717271974
 51
192.2396282728161
1001
AUSTER_FOLIE
1002
{
1000
VIERLOCH_MIT_KNEBEL_49_AUSTER
1002
}
1001
AUSTER_ANSICHT
1002
{
1000
R
1002
}
  0
LINE
  5
27C09
330
20
100
AcDbEntity
  8
14000_Bottom
  6
Continuous
 62
     7
 48
0.5
370
    20
100
AcDbLine
 39
0.7
 10
199.4971241068784
 20
423.3233730923172
 30
0.0
 11
186.4971241068784
 21
423.3233730923172
 31
0.0
1001
AUSTER_FOLIE
1002
{
1000
VIERLOCH_MIT_KNEBEL_49_AUSTER
1002
}
1001
AUSTER_ANSICHT
1002
{
1000
R
1002
}
  0
LINE
  5
27C0A
330
20
100
AcDbEntity
  8
14000_Bottom
  6
Continuous
 62
     7
 48
0.5
370
    20
100
AcDbLine
 39
0.7
 10
192.9821241068784
 20
431.2190667620572
 30
0.0
 11
190.7114259892684
 21
431.2190667620572
 31
0.0
1001
AUSTER_FOLIE
1002
{
1000
VIERLOCH_MIT_KNEBEL_49_AUSTER
1002
}
1001
AUSTER_ANSICHT
1002
{
1000
R
1002
}
  0
LINE
  5
27C0B
330
20
100
AcDbEntity
  8
14000_Bottom
  6
Continuous
 62
     7
 48
0.5
370
    20
100
AcDbLine
 39
0.7
 10
190.7114259892684
 20
432.4276794225773
 30
0.0
 11
192.9821241068784
 21
432.4276794225773
 31
0.0
1001
AUSTER_FOLIE
1002
{
1000
VIERLOCH_MIT_KNEBEL_49_AUSTER
1002
}
1001
AUSTER_ANSICHT
1002
{
1000
R
1002
}
  0
LINE
  5
27C0C
330
20
100
AcDbEntity
  8
14000_Bottom
  6
Continuous
 62
     7
 48
0.5
370
    50
100
AcDbLine
 39
0.7
 10
186.4971241068784
 20
435.3233730923173
 30
0.0
 11
186.4971241068784
 21
426.8233730923173
 31
0.0
1001
AUSTER_FOLIE
1002
{
1000
VIERLOCH_MIT_KNEBEL_49_AUSTER
1002
}
1001
AUSTER_ANSICHT
1002
{
1000
R
1002
}
  0
CIRCLE
  5
27C0D
330
20
100
AcDbEntity
  8
14000_Bottom
  6
Continuous
 62
     7
 48
0.5
370
    20
100
AcDbCircle
 39
0.7
 10
193.4971241068785
 20
431.8233730923171
 30
0.0
 40
3.1
1001
AUSTER_FOLIE
1002
{
1000
VIERLOCH_MIT_KNEBEL_49_AUSTER
1002
}
1001
AUSTER_ANSICHT
1002
{
1000
R
1002
}
  0
CIRCLE
  5
27C0E
330
20
100
AcDbEntity
  8
14000_Bottom
  6
Continuous
 62
     7
 48
0.5
370
    20
100
AcDbCircle
 39
0.7
 10
193.4971241068785
 20
431.8233730923171
 30
0.0
 40
3.1
1001
AUSTER_FOLIE
1002
{
1000
VIERLOCH_MIT_KNEBEL_49_AUSTER
1002
}
1001
AUSTER_ANSICHT
1002
{
1000
R
1002
}
  0
LINE
  5
27C0F
330
20
100
AcDbEntity
  8
14000_Bottom
  6
Continuous
 62
     7
 48
0.5
370
    20
100
AcDbLine
 39
0.7
 10
192.9821256486184
 20
432.6079494603174
 30
0.0
 11
192.9821241068784
 21
433.6002453443373
 31
0.0
1001
AUSTER_FOLIE
1002
{
1000
VIERLOCH_MIT_KNEBEL_49_AUSTER
1002
}
1001
AUSTER_ANSICHT
1002
{
1000
R
1002
}
  0
LINE
  5
27C10
330
20
100
AcDbEntity
  8
14000_Bottom
  6
Continuous
 62
     7
 48
0.5
370
    20
100
AcDbLine
 39
0.7
 10
194.0121241068784
 20
433.6002453443373
 30
0.0
 11
194.0121241068784
 21
432.6079472584972
 31
0.0
1001
AUSTER_FOLIE
1002
{
1000
VIERLOCH_MIT_KNEBEL_49_AUSTER
1002
}
1001
AUSTER_ANSICHT
1002
{
1000
R
1002
}
  0
LINE
  5
27C11
330
20
100
AcDbEntity
  8
14000_Bottom
  6
Continuous
 62
     7
 48
0.5
370
    20
100
AcDbLine
 39
0.7
 10
208.4821256486184
 20
432.6079494603174
 30
0.0
 11
208.4821241068785
 21
433.6002453443373
 31
0.0
1001
AUSTER_FOLIE
1002
{
1000
VIERLOCH_MIT_KNEBEL_49_AUSTER
1002
}
1001
AUSTER_ANSICHT
1002
{
1000
R
1002
}
  0
LINE
  5
27C12
330
20
100
AcDbEntity
  8
14000_Bottom
  6
Continuous
 62
     7
 48
0.5
370
    50
100
AcDbLine
 39
0.7
 10
186.4971241068784
 20
466.3233730923173
 30
0.0
 11
186.4971241068784
 21
435.3233730923173
 31
0.0
1001
AUSTER_FOLIE
1002
{
1000
VIERLOCH_MIT_KNEBEL_49_AUSTER
1002
}
1001
AUSTER_ANSICHT
1002
{
1000
R
1002
}
  0
LINE
  5
27C13
330
20
100
AcDbEntity
  8
14000_Bottom
  6
Continuous
 62
     7
 48
0.5
370
    20
100
AcDbLine
 39
0.7
 10
184.9971241068784
 20
429.8233730923173
 30
0.0
 11
184.9971241068784
 21
471.8233730923173
 31
0.0
1001
AUSTER_FOLIE
1002
{
1000
VIERLOCH_MIT_KNEBEL_49_AUSTER
1002
}
1001
AUSTER_ANSICHT
1002
{
1000
R
1002
}
  0
LINE
  5
27C14
330
20
100
AcDbEntity
  8
14000_Bottom
  6
Continuous
 62
     7
 48
0.5
370
    20
100
AcDbLine
 39
0.7
 10
186.2971241068784
 20
494.823373092317
 30
0.0
 11
231.6971241068784
 21
494.823373092317
 31
0.0
1001
AUSTER_FOLIE
1002
{
1000
VIERLOCH_MIT_KNEBEL_49_AUSTER
1002
}
1001
AUSTER_ANSICHT
1002
{
1000
R
1002
}
  0
LINE
  5
27C15
330
20
100
AcDbEntity
  8
14000_Bottom
  6
Continuous
 62
     7
 48
0.5
370
    20
100
AcDbLine
 39
0.7
 10
186.2971241068784
 20
480.8233730923173
 30
0.0
 11
231.6971241068784
 21
480.8233730923173
 31
0.0
1001
AUSTER_FOLIE
1002
{
1000
VIERLOCH_MIT_KNEBEL_49_AUSTER
1002
}
1001
AUSTER_ANSICHT
1002
{
1000
R
1002
}
  0
LINE
  5
27C16
330
20
100
AcDbEntity
  8
14000_Bottom
  6
Continuous
 62
     7
 48
0.5
370
     9
100
AcDbLine
 39
0.7
 10
186.2971241068784
 20
466.8233730923173
 30
0.0
 11
231.6971241068784
 21
466.8233730923173
 31
0.0
1001
AUSTER_FOLIE
1002
{
1000
VIERLOCH_MIT_KNEBEL_49_AUSTER
1002
}
1001
AUSTER_ANSICHT
1002
{
1000
R
1002
}
  0
LINE
  5
27C17
330
20
100
AcDbEntity
  8
14000_Bottom
  6
Continuous
 62
     7
 48
0.5
370
    20
100
AcDbLine
 39
0.7
 10
231.4971241068785
 20
435.3233730923173
 30
0.0
 11
186.4971241068784
 21
435.3233730923173
 31
0.0
1001
AUSTER_FOLIE
1002
{
1000
VIERLOCH_MIT_KNEBEL_49_AUSTER
1002
}
1001
AUSTER_ANSICHT
1002
{
1000
R
1002
}
  0
LINE
  5
27C18
330
20
100
AcDbEntity
  8
14000_Bottom
  6
Continuous
 62
     7
 48
0.5
370
    50
100
AcDbLine
 39
0.7
 10
231.4971241068785
 20
466.3233730923173
 30
0.0
 11
186.4971241068784
 21
466.3233730923173
 31
0.0
1001
AUSTER_FOLIE
1002
{
1000
VIERLOCH_MIT_KNEBEL_49_AUSTER
1002
}
1001
AUSTER_ANSICHT
1002
{
1000
R
1002
}
  0
LINE
  5
27C19
330
20
100
AcDbEntity
  8
14000_Bottom
  6
Continuous
 62
     7
 48
0.5
370
    50
100
AcDbLine
 39
0.7
 10
231.4971241068785
 20
426.8233730923173
 30
0.0
 11
186.4971241068784
 21
426.8233730923173
 31
0.0
1001
AUSTER_FOLIE
1002
{
1000
VIERLOCH_MIT_KNEBEL_49_AUSTER
1002
}
1001
AUSTER_ANSICHT
1002
{
1000
R
1002
}
  0
LINE
  5
27C1A
330
20
100
AcDbEntity
  8
14000_Bottom
  6
Continuous
 62
     7
 48
0.5
370
    20
100
AcDbLine
 39
0.7
 10
214.9971241068785
 20
423.3233730923172
 30
0.0
 11
202.9971241068785
 21
423.3233730923172
 31
0.0
1001
AUSTER_FOLIE
1002
{
1000
VIERLOCH_MIT_KNEBEL_49_AUSTER
1002
}
1001
AUSTER_ANSICHT
1002
{
1000
R
1002
}
  0
CIRCLE
  5
27C1B
330
20
100
AcDbEntity
  8
14000_Bottom
  6
Continuous
 62
     7
 48
0.5
370
    20
100
AcDbCircle
 39
0.7
 10
208.9971241068785
 20
431.8233730923171
 30
0.0
 40
3.1
1001
AUSTER_FOLIE
1002
{
1000
VIERLOCH_MIT_KNEBEL_49_AUSTER
1002
}
1001
AUSTER_ANSICHT
1002
{
1000
R
1002
}
  0
ARC
  5
27C1C
330
20
100
AcDbEntity
  8
14000_Bottom
  6
Continuous
 62
     7
 48
0.5
370
    20
100
AcDbCircle
 39
0.7
 10
208.9971241068785
 20
431.8233730923171
 30
0.0
 40
1.85
100
AcDbArc
 50
73.83655491912016
 51
106.1634450808196
1001
AUSTER_FOLIE
1002
{
1000
VIERLOCH_MIT_KNEBEL_49_AUSTER
1002
}
1001
AUSTER_ANSICHT
1002
{
1000
R
1002
}
  0
ARC
  5
27C1D
330
20
100
AcDbEntity
  8
14000_Bottom
  6
Continuous
 62
     7
 48
0.5
370
    20
100
AcDbCircle
 39
0.7
 10
208.9971241068785
 20
431.8233730923171
 30
0.0
 40
1.85
100
AcDbArc
 50
253.8365549191803
 51
286.1634450808799
1001
AUSTER_FOLIE
1002
{
1000
VIERLOCH_MIT_KNEBEL_49_AUSTER
1002
}
1001
AUSTER_ANSICHT
1002
{
1000
R
1002
}
  0
CIRCLE
  5
27C1E
330
20
100
AcDbEntity
  8
14000_Bottom
  6
Continuous
 62
     7
 48
0.5
370
    20
100
AcDbCircle
 39
0.7
 10
208.9971241068785
 20
431.8233730923171
 30
0.0
 40
3.1
1001
AUSTER_FOLIE
1002
{
1000
VIERLOCH_MIT_KNEBEL_49_AUSTER
1002
}
1001
AUSTER_ANSICHT
1002
{
1000
R
1002
}
  0
POINT
  5
27C2A
330
20
100
AcDbEntity
  8
14000_Bottom
  6
Continuous
 62
     7
 48
0.5
370
    50
100
AcDbPoint
 10
302.7239952280747
 20
432.79215017206
 30
0.0
 39
0.7
1001
AUSTER_FOLIE
1002
{
1000
VIERLOCH_MIT_KNEBEL_49_AUSTER
1002
}
1001
AUSTER_ANSICHT
1002
{
1000
Det01
1002
}
  0
POINT
  5
27C2B
330
20
100
AcDbEntity
  8
14000_Bottom
  6
Continuous
 62
     7
 48
0.5
370
    50
100
AcDbPoint
 10
298.2239952280746
 20
432.79215017206
 30
0.0
 39
0.7
1001
AUSTER_FOLIE
1002
{
1000
VIERLOCH_MIT_KNEBEL_49_AUSTER
1002
}
1001
AUSTER_ANSICHT
1002
{
1000
Det01
1002
}
  0
POINT
  5
27C2C
330
20
100
AcDbEntity
  8
14000_Bottom
  6
Continuous
 62
     7
 48
0.5
370
    50
100
AcDbPoint
 10
302.7239952280747
 20
432.79215017206
 30
0.0
 39
0.7
1001
AUSTER_FOLIE
1002
{
1000
VIERLOCH_MIT_KNEBEL_49_AUSTER
1002
}
1001
AUSTER_ANSICHT
1002
{
1000
Det01
1002
}
  0
POINT
  5
27C2D
330
20
100
AcDbEntity
  8
14000_Bottom
  6
Continuous
 62
     7
 48
0.5
370
    50
100
AcDbPoint
 10
298.2239952280746
 20
432.79215017206
 30
0.0
 39
0.7
1001
AUSTER_FOLIE
1002
{
1000
VIERLOCH_MIT_KNEBEL_49_AUSTER
1002
}
1001
AUSTER_ANSICHT
1002
{
1000
Det01
1002
}
  0
POINT
  5
27C2E
330
20
100
AcDbEntity
  8
14000_Bottom
  6
Continuous
 62
     7
 48
0.5
370
    50
100
AcDbPoint
 10
262.1615493875605
 20
432.7921501720607
 30
0.0
 39
0.7
1001
AUSTER_FOLIE
1002
{
1000
VIERLOCH_MIT_KNEBEL_49_AUSTER
1002
}
1001
AUSTER_ANSICHT
1002
{
1000
Det01
1002
}
  0
POINT
  5
27C2F
330
20
100
AcDbEntity
  8
14000_Bottom
  6
Continuous
 62
     7
 48
0.5
370
    50
100
AcDbPoint
 10
262.1615493875605
 20
432.7921501720607
 30
0.0
 39
0.7
1001
AUSTER_FOLIE
1002
{
1000
VIERLOCH_MIT_KNEBEL_49_AUSTER
1002
}
1001
AUSTER_ANSICHT
1002
{
1000
Det01
1002
}
  0
POINT
  5
27C34
330
20
100
AcDbEntity
  8
14000_Bottom
  6
Continuous
 62
     7
 48
0.5
370
    50
100
AcDbPoint
 10
300.4739952280748
 20
471.1045960125741
 30
0.0
 39
0.7
1001
AUSTER_FOLIE
1002
{
1000
VIERLOCH_MIT_KNEBEL_49_AUSTER
1002
}
1001
AUSTER_ANSICHT
1002
{
1000
Det01
1002
}
  0
POINT
  5
27C35
330
20
100
AcDbEntity
  8
14000_Bottom
  6
Continuous
 62
     7
 48
0.5
370
    50
100
AcDbPoint
 10
300.4739952280748
 20
471.1045960125741
 30
0.0
 39
0.7
1001
AUSTER_FOLIE
1002
{
1000
VIERLOCH_MIT_KNEBEL_49_AUSTER
1002
}
1001
AUSTER_ANSICHT
1002
{
1000
Det01
1002
}
  0
POINT
  5
27C39
330
20
100
AcDbEntity
  8
14000_Bottom
  6
Continuous
 62
     7
 48
0.5
370
    50
100
AcDbPoint
 10
264.4115493875607
 20
471.1045960125749
 30
0.0
 39
0.7
1001
AUSTER_FOLIE
1002
{
1000
VIERLOCH_MIT_KNEBEL_49_AUSTER
1002
}
1001
AUSTER_ANSICHT
1002
{
1000
Det01
1002
}
  0
POINT
  5
27C3A
330
20
100
AcDbEntity
  8
14000_Bottom
  6
Continuous
 62
     7
 48
0.5
370
    50
100
AcDbPoint
 10
264.4115493875607
 20
471.1045960125749
 30
0.0
 39
0.7
1001
AUSTER_FOLIE
1002
{
1000
VIERLOCH_MIT_KNEBEL_49_AUSTER
1002
}
1001
AUSTER_ANSICHT
1002
{
1000
Det01
1002
}
  0
POINT
  5
27C3C
330
20
100
AcDbEntity
  8
14000_Bottom
  6
Continuous
 62
     7
 48
0.5
370
    50
100
AcDbPoint
 10
262.1615493875607
 20
468.8545960125749
 30
0.0
 39
0.7
1001
AUSTER_FOLIE
1002
{
1000
VIERLOCH_MIT_KNEBEL_49_AUSTER
1002
}
1001
AUSTER_ANSICHT
1002
{
1000
Det01
1002
}
  0
POINT
  5
27C3E
330
20
100
AcDbEntity
  8
14000_Bottom
  6
Continuous
 62
     7
 48
0.5
370
    50
100
AcDbPoint
 10
262.1615493875607
 20
468.8545960125749
 30
0.0
 39
0.7
1001
AUSTER_FOLIE
1002
{
1000
VIERLOCH_MIT_KNEBEL_49_AUSTER
1002
}
1001
AUSTER_ANSICHT
1002
{
1000
Det01
1002
}
  0
POINT
  5
27C42
330
20
100
AcDbEntity
  8
14000_Bottom
  6
Continuous
 62
     7
 48
0.5
370
    50
100
AcDbPoint
 10
287.4427698078171
 20
450.8183730923173
 30
0.0
 39
0.7
1001
AUSTER_FOLIE
1002
{
1000
VIERLOCH_MIT_KNEBEL_49_AUSTER
1002
}
1001
AUSTER_ANSICHT
1002
{
1000
Det01
1002
}
  0
POINT
  5
27C46
330
20
100
AcDbEntity
  8
14000_Bottom
  6
Continuous
 62
     7
 48
0.5
370
    50
100
AcDbPoint
 10
287.4427723078178
 20
450.8233730923173
 30
0.0
 39
0.7
1001
AUSTER_FOLIE
1002
{
1000
VIERLOCH_MIT_KNEBEL_49_AUSTER
1002
}
1001
AUSTER_ANSICHT
1002
{
1000
Det01
1002
}
  0
POINT
  5
27C47
330
20
100
AcDbEntity
  8
14000_Bottom
  6
Continuous
 62
     7
 48
0.5
370
    50
100
AcDbPoint
 10
277.4427723078178
 20
450.8233730923173
 30
0.0
 39
0.7
1001
AUSTER_FOLIE
1002
{
1000
VIERLOCH_MIT_KNEBEL_49_AUSTER
1002
}
1001
AUSTER_ANSICHT
1002
{
1000
Det01
1002
}
  0
POINT
  5
27C49
330
20
100
AcDbEntity
  8
14000_Bottom
  6
Continuous
 62
     7
 48
0.5
370
    50
100
AcDbPoint
 10
277.4427723078178
 20
450.8233730923173
 30
0.0
 39
0.7
1001
AUSTER_FOLIE
1002
{
1000
VIERLOCH_MIT_KNEBEL_49_AUSTER
1002
}
1001
AUSTER_ANSICHT
1002
{
1000
Det01
1002
}
  0
POINT
  5
27C4C
330
20
100
AcDbEntity
  8
14000_Bottom
  6
Continuous
 62
     7
 48
0.5
370
    20
100
AcDbPoint
 10
231.6971241068784
 20
494.823373092317
 30
0.0
 39
0.25
1001
AUSTER_FOLIE
1002
{
1000
VIERLOCH_MIT_KNEBEL_49_AUSTER
1002
}
1001
AUSTER_ANSICHT
1002
{
1000
R
1002
}
  0
POINT
  5
27C4F
330
20
100
AcDbEntity
  8
14000_Bottom
  6
Continuous
 62
     7
 48
0.5
370
    20
100
AcDbPoint
 10
231.6971241068784
 20
494.823373092317
 30
0.0
 39
0.25
1001
AUSTER_FOLIE
1002
{
1000
VIERLOCH_MIT_KNEBEL_49_AUSTER
1002
}
1001
AUSTER_ANSICHT
1002
{
1000
R
1002
}
  0
POINT
  5
27C51
330
20
100
AcDbEntity
  8
14000_Bottom
  6
Continuous
 62
     7
 48
0.5
370
    20
100
AcDbPoint
 10
186.2971241068784
 20
494.823373092317
 30
0.0
 39
0.25
1001
AUSTER_FOLIE
1002
{
1000
VIERLOCH_MIT_KNEBEL_49_AUSTER
1002
}
1001
AUSTER_ANSICHT
1002
{
1000
R
1002
}
  0
POINT
  5
27C54
330
20
100
AcDbEntity
  8
14000_Bottom
  6
Continuous
 62
     7
 48
0.5
370
    20
100
AcDbPoint
 10
186.2971241068784
 20
494.823373092317
 30
0.0
 39
0.25
1001
AUSTER_FOLIE
1002
{
1000
VIERLOCH_MIT_KNEBEL_49_AUSTER
1002
}
1001
AUSTER_ANSICHT
1002
{
1000
R
1002
}
  0
LINE
  5
27C58
330
20
100
AcDbEntity
  8
14000_Bottom
  6
CENTER
 62
     7
 48
0.5
370
     9
100
AcDbLine
 39
0.8
 10
237.4241041068784
 20
450.8233730923173
 30
0.0
 11
172.3320241068784
 21
450.8233730923173
 31
0.0
1001
AUSTER_FOLIE
1002
{
1000
VIERLOCH_MIT_KNEBEL_49_AUSTER
1002
}
1001
AUSTER_ANSICHT
1002
{
1000
R
1002
}
  0
DIMENSION
  5
27C5C
330
20
100
AcDbEntity
  8
10100_FRONT_DIM
  6
Continuous
 62
     7
370
    13
100
AcDbDimension
  2
*D1
 10
28.91606258391443
 20
416.9273003592308
 30
0.0
 11
4.916062583914428
 21
416.9273003592308
 31
0.0
 70
    32
 71
     5
 42
48.0
  3
H035
100
AcDbAlignedDimension
 13
-19.08393741608557
 23
429.8133730923171
 33
0.0
 14
28.91606258391443
 24
429.8133730923171
 34
0.0
100
AcDbRotatedDimension
1001
ACAD
1000
DSTYLE
1002
{
1070
    40
1040
1.0
1070
    77
1070
     0
1070
   147
1040
1.5
1070
   271
1070
     1
1070
   272
1070
     0
1070
   279
1070
     1
1070
   288
1070
     1
1002
}
  0
DIMENSION
  5
27C69
330
20
100
AcDbEntity
  8
10100_FRONT_DIM
  6
Continuous
 62
     7
370
    13
100
AcDbDimension
  2
*D2
 10
-26.31309154995234
 20
426.8146430923173
 30
0.0
 11
-26.31309154995241
 21
450.8190080923172
 31
0.0
 70
    32
 71
     5
 42
48.00873000000001
  3
H035
100
AcDbAlignedDimension
 13
-16.78393741608556
 23
474.8233730923173
 33
0.0
 14
-16.1712200172562
 24
426.8146430923173
 34
0.0
 50
90.0
100
AcDbRotatedDimension
1001
ACAD
1000
DSTYLE
1002
{
1070
    40
1040
1.0
1070
    77
1070
     0
1070
   147
1040
1.5
1070
   271
1070
     1
1070
   272
1070
     0
1070
   279
1070
     1
1070
   288
1070
     1
1002
}
  0
DIMENSION
  5
27C76
330
20
100
AcDbEntity
  8
11100_LEFT_DIM
  6
Continuous
 62
     7
370
    13
100
AcDbDimension
  2
*D3
 10
50.91307422412956
 20
423.8233730923171
 30
0.0
 11
50.91307422412949
 21
451.146488092317
 31
0.0
 70
    32
 71
     5
 42
54.64622999999996
  3
DSTYLE1
100
AcDbAlignedDimension
 13
85.88620478096595
 23
478.469603092317
 33
0.0
 14
86.23117478096594
 24
423.8233730923171
 34
0.0
 50
90.0
100
AcDbRotatedDimension
1001
ACAD
1000
DSTYLE
1002
{
1070
    42
1040
1.0
1070
    43
1040
1.0
1070
    47
1040
0.005
1070
    48
1040
-0.005
1070
    77
1070
     0
1070
    78
1070
     0
1070
   140
1040
3.5
1070
   143
1040
25.4
1070
   171
1070
     0
1070
   172
1070
     1
1070
   271
1070
     0
1070
   272
1070
     1
1070
   277
1070
     6
1070
   279
1070
     0
1002
}
  0
DIMENSION
  5
27C83
330
20
100
AcDbEntity
  8
11100_LEFT_DIM
  6
Continuous
 62
     7
370
    13
100
AcDbDimension
  2
*D4
 10
58.04276111856633
 20
494.8243730923173
 30
0.0
 11
58.04276111856625
 21
472.8213730923171
 31
0.0
 70
    32
 71
     5
 42
44.00600000000006
  3
DSTYLE1
100
AcDbAlignedDimension
 13
55.78972433658385
 23
450.8183730923173
 33
0.0
 14
83.23017478096597
 24
494.8243730923173
 34
0.0
 50
90.0
100
AcDbRotatedDimension
1001
ACAD
1000
DSTYLE
1002
{
1070
    42
1040
1.0
1070
    43
1040
1.0
1070
    47
1040
0.005
1070
    48
1040
-0.005
1070
    77
1070
     0
1070
    78
1070
     0
1070
   140
1040
3.5
1070
   143
1040
25.4
1070
   171
1070
     0
1070
   172
1070
     1
1070
   271
1070
     0
1070
   272
1070
     1
1070
   277
1070
     6
1070
   279
1070
     0
1002
}
  0
DIMENSION
  5
27C90
330
20
100
AcDbEntity
  8
11100_LEFT_DIM
  6
Continuous
 62
     7
370
    13
100
AcDbDimension
  2
*D5
 10
118.2311747809659
 20
506.0204385629008
 30
0.0
 11
93.23117478096591
 21
506.0204385629008
 31
0.0
 70
    32
 71
     5
 42
49.99999999999993
  3
DSTYLE1
100
AcDbAlignedDimension
 13
68.23117478096595
 23
466.3233730923173
 33
0.0
 14
118.2311747809659
 24
503.5811674394696
 34
0.0
100
AcDbRotatedDimension
1001
ACAD
1000
DSTYLE
1002
{
1070
    42
1040
1.0
1070
    43
1040
1.0
1070
    47
1040
0.005
1070
    48
1040
-0.005
1070
    77
1070
     0
1070
    78
1070
     0
1070
   140
1040
3.5
1070
   143
1040
25.4
1070
   171
1070
     0
1070
   172
1070
     1
1070
   271
1070
     0
1070
   272
1070
     1
1070
   277
1070
     6
1070
   279
1070
     0
1002
}
  0
DIMENSION
  5
27C9D
330
20
100
AcDbEntity
  8
11100_LEFT_DIM
  6
Continuous
 62
     7
370
    13
100
AcDbDimension
  2
*D6
 10
151.1905316751713
 20
506.0204385629008
 30
0.0
 11
135.7108532280686
 21
506.0204385629008
 31
0.0
 70
    32
 71
     5
 42
30.95935689420541
  3
DSTYLE1
100
AcDbAlignedDimension
 13
120.2311747809659
 23
500.9307948064481
 33
0.0
 14
151.1905316751713
 24
455.353829175581
 34
0.0
100
AcDbRotatedDimension
1001
ACAD
1000
DSTYLE
1002
{
1070
    42
1040
1.0
1070
    43
1040
1.0
1070
    47
1040
0.005
1070
    48
1040
-0.005
1070
    77
1070
     0
1070
    78
1070
     0
1070
   140
1040
3.5
1070
   143
1040
25.4
1070
   171
1070
     0
1070
   172
1070
     1
1070
   271
1070
     0
1070
   272
1070
     1
1070
   277
1070
     6
1070
   279
1070
     0
1002
}
  0
DIMENSION
  5
27CE0
330
20
100
AcDbEntity
  8
14100_Bottom_Dim
  6
Continuous
 62
     7
370
    13
100
AcDbDimension
  2
*D7
 10
231.6971241068784
 20
505.7152746780992
 30
0.0
 11
208.9971241068784
 21
505.7152746780992
 31
0.0
 70
    32
 71
     5
 42
45.4
  3
DSTYLE1
100
AcDbAlignedDimension
 13
186.2971241068784
 23
494.823373092317
 33
0.0
 14
231.6971241068784
 24
494.823373092317
 34
0.0
100
AcDbRotatedDimension
1001
ACAD
1000
DSTYLE
1002
{
1070
    42
1040
1.0
1070
    43
1040
1.0
1070
    47
1040
0.005
1070
    48
1040
-0.005
1070
    77
1070
     0
1070
    78
1070
     0
1070
   140
1040
3.5
1070
   143
1040
25.4
1070
   171
1070
     0
1070
   172
1070
     1
1070
   271
1070
     0
1070
   272
1070
     1
1070
   277
1070
     6
1070
   279
1070
     0
1002
}
  0
DIMENSION
  5
27CF6
330
20
100
AcDbEntity
  8
30100_Drilling_Dim
  6
Continuous
 62
     7
370
    13
100
AcDbDimension
  2
*D8
 10
302.5316644116156
 20
433.7023685695371
 30
0.0
 11
289.3473396430008
 21
427.8702284671849
 31
0.0
 70
    35
 71
     5
 42
4.499999999999886
  3
DSTYLE1
100
AcDbDiametricDimension
 15
298.4163260445336
 25
431.8819317745832
 35
0.0
 40
0.0
1001
ACAD
1000
DSTYLE
1002
{
1070
    42
1040
1.0
1070
    43
1040
1.0
1070
    47
1040
0.005
1070
    48
1040
-0.005
1070
    77
1070
     0
1070
    78
1070
     0
1070
   140
1040
3.5
1070
   143
1040
25.4
1070
   171
1070
     0
1070
   172
1070
     1
1070
   271
1070
     0
1070
   272
1070
     1
1070
   277
1070
     6
1070
   279
1070
     0
1002
}
  0
DIMENSION
  5
27D02
330
20
100
AcDbEntity
  8
30100_Drilling_Dim
  6
Continuous
 62
     7
370
    13
100
AcDbDimension
  2
*D9
 10
286.894422855104
 20
453.0999510955593
 30
0.0
 11
268.3829759959719
 21
443.6331808987445
 31
0.0
 70
    35
 71
     5
 42
9.999999999999886
  3
DSTYLE1
100
AcDbDiametricDimension
 15
277.9911217605315
 25
448.5467950890753
 35
0.0
 40
0.0
1001
ACAD
1000
DSTYLE
1002
{
1070
    42
1040
1.0
1070
    43
1040
1.0
1070
    47
1040
0.005
1070
    48
1040
-0.005
1070
    77
1070
     0
1070
    78
1070
     0
1070
   140
1040
3.5
1070
   143
1040
25.4
1070
   171
1070
     0
1070
   172
1070
     1
1070
   271
1070
     0
1070
   272
1070
     1
1070
   277
1070
     6
1070
   279
1070
     0
1002
}
  0
DIMENSION
  5
27D0E
330
20
100
AcDbEntity
  8
30100_Drilling_Dim
  6
Continuous
 62
     7
370
    13
100
AcDbDimension
  2
*D10
 10
300.4739952280748
 20
476.9326534830902
 30
0.0
 11
282.4427723078177
 21
476.9326534830902
 31
0.0
 70
    32
 71
     5
 42
36.0624458405141
  3
DSTYLE1
100
AcDbAlignedDimension
 13
264.4115493875607
 23
472.1045960125747
 33
0.0
 14
300.4739952280748
 24
472.1045960125747
 34
0.0
100
AcDbRotatedDimension
1001
ACAD
1000
DSTYLE
1002
{
1070
    42
1040
1.0
1070
    43
1040
1.0
1070
    47
1040
0.005
1070
    48
1040
-0.005
1070
    77
1070
     0
1070
    78
1070
     0
1070
   140
1040
3.5
1070
   143
1040
25.4
1070
   171
1070
     0
1070
   172
1070
     1
1070
   271
1070
     0
1070
   272
1070
     1
1070
   277
1070
     6
1070
   279
1070
     0
1002
}
  0
DIMENSION
  5
27D1B
330
20
100
AcDbEntity
  8
30100_Drilling_Dim
  6
Continuous
 62
     7
370
    13
100
AcDbDimension
  2
*D11
 10
256.4508621899386
 20
432.7921501720607
 30
0.0
 11
256.4508621899384
 21
450.8233730923178
 31
0.0
 70
    32
 71
     5
 42
36.0624458405141
  3
DSTYLE1
100
AcDbAlignedDimension
 13
261.1615493875607
 23
468.8545960125749
 33
0.0
 14
261.1615493875606
 24
432.7921501720607
 34
0.0
 50
90.0
100
AcDbRotatedDimension
1001
ACAD
1000
DSTYLE
1002
{
1070
    42
1040
1.0
1070
    43
1040
1.0
1070
    47
1040
0.005
1070
    48
1040
-0.005
1070
    77
1070
     0
1070
    78
1070
     0
1070
   140
1040
3.5
1070
   143
1040
25.4
1070
   171
1070
     0
1070
   172
1070
     1
1070
   271
1070
     0
1070
   272
1070
     1
1070
   277
1070
     6
1070
   279
1070
     0
1002
}
  0
ARC
  5
28306
330
20
100
AcDbEntity
  8
10000_FRONT
  6
Continuous
 62
     7
370
    13
100
AcDbCircle
 10
4.916060827968006
 20
450.8133730923171
 30
0.0
 40
15.0
100
AcDbArc
 50
22.69855975856029
 51
180.0
  0
ARC
  5
28307
330
20
100
AcDbEntity
  8
10000_FRONT
  6
Continuous
 62
     7
370
    13
100
AcDbCircle
 10
4.916060827968006
 20
450.8133730923171
 30
0.0
 40
15.0
100
AcDbArc
 50
180.0
 51
337.3014402414397
  0
ARC
  5
28308
330
20
100
AcDbEntity
  8
10000_FRONT
  6
Continuous
 62
     7
370
    13
100
AcDbCircle
 10
4.916060827968006
 20
450.8133730923171
 30
0.0
 40
14.63314554501871
100
AcDbArc
 50
202.0774165485301
 51
337.9225834514699
  0
ARC
  5
28309
330
20
100
AcDbEntity
  8
10000_FRONT
  6
Continuous
 62
     7
370
    13
100
AcDbCircle
 10
4.916060827968006
 20
450.8133730923171
 30
0.0
 40
14.63314554501871
100
AcDbArc
 50
22.07741654853012
 51
157.9225834514699
  0
CIRCLE
  5
2830A
330
20
100
AcDbEntity
  8
10000_FRONT
  6
Continuous
 62
     7
370
    13
100
AcDbCircle
 10
-2.108939172032008
 20
450.8133730923171
 30
0.0
 40
1.6
  0
SPLINE
  5
2830B
330
20
100
AcDbEntity
  8
10000_FRONT
  6
Continuous
 62
     7
370
    13
100
AcDbSpline
210
0.0
220
0.0
230
1.0
 70
    12
 71
     2
 72
     6
 73
     3
 74
     0
 42
0.0000000001
 43
0.0000000001
 40
1.803397050669063
 40
1.803397050669063
 40
1.803397050669063
 40
7.840233583340617
 40
7.840233583340617
 40
7.840233583340617
 10
-8.644136388212174
 20
456.3133730923172
 30
0.0
 41
1.0
 10
-8.535100874715352
 20
456.1514854864212
 30
0.0
 41
1.0
 10
-8.426065361220665
 20
455.9922013084807
 30
0.0
 41
1.0
  0
LINE
  5
2830C
330
20
100
AcDbEntity
  8
10000_FRONT
  6
Continuous
 62
     7
370
    13
100
AcDbLine
 10
-8.644136388212174
 20
456.3133730923172
 30
0.0
 11
18.47625804414821
 21
456.3133730923172
 31
0.0
  0
SPLINE
  5
2830D
330
20
100
AcDbEntity
  8
10000_FRONT
  6
Continuous
 62
     7
370
    13
100
AcDbSpline
210
0.0
220
0.0
230
1.0
 70
    12
 71
     2
 72
     6
 73
     3
 74
     0
 42
0.0000000001
 43
0.0000000001
 40
0.0
 40
0.0
 40
0.0
 40
5.510920448459382
 40
5.510920448459382
 40
5.510920448459382
 10
18.47625804414821
 20
456.3133730923172
 30
0.0
 41
1.0
 10
18.57264246123738
 20
456.4564773161428
 30
0.0
 41
1.0
 10
18.66902687811212
 20
456.601615878374
 30
0.0
 41
1.0
  0
LINE
  5
2830E
330
20
100
AcDbEntity
  8
10000_FRONT
  6
Continuous
 62
     7
370
    13
100
AcDbLine
 10
26.94651691123175
 20
456.601615878374
 30
0.0
 11
18.66902687811213
 21
456.601615878374
 31
0.0
  0
LINE
  5
2830F
330
20
100
AcDbEntity
  8
10000_FRONT
  6
Continuous
 62
     7
370
    13
100
AcDbLine
 10
26.94651691123175
 20
455.3438291755808
 30
0.0
 11
26.94651691123175
 21
456.6016158783738
 31
0.0
  0
LINE
  5
28310
330
20
100
AcDbEntity
  8
10000_FRONT
  6
Continuous
 62
     7
370
    13
100
AcDbLine
 10
23.94651691123176
 20
456.1037419751848
 30
0.0
 11
23.94651691123176
 21
455.3438291755808
 31
0.0
  0
LINE
  5
28311
330
20
100
AcDbEntity
  8
10000_FRONT
  6
Continuous
 62
     7
370
    13
100
AcDbLine
 10
23.94651691123176
 20
455.3438291755808
 30
0.0
 11
26.94651691123175
 21
455.3438291755808
 31
0.0
  0
LINE
  5
28312
330
20
100
AcDbEntity
  8
10000_FRONT
  6
Continuous
 62
     7
370
    13
100
AcDbLine
 10
26.94651691123175
 20
455.3438291755808
 30
0.0
 11
26.94651691123175
 21
446.2829170090535
 31
0.0
  0
LINE
  5
28313
330
20
100
AcDbEntity
  8
10000_FRONT
  6
Continuous
 62
     7
370
    13
100
AcDbLine
 10
23.94651691123176
 20
448.3133730923174
 30
0.0
 11
23.94651691123176
 21
446.2829170090535
 31
0.0
  0
LINE
  5
28314
330
20
100
AcDbEntity
  8
10000_FRONT
  6
Continuous
 62
     7
370
    13
100
AcDbLine
 10
17.14651691123174
 20
448.3133730923174
 30
0.0
 11
23.94651691123176
 21
448.3133730923174
 31
0.0
  0
LINE
  5
28315
330
20
100
AcDbEntity
  8
10000_FRONT
  6
Continuous
 62
     7
370
    13
100
AcDbLine
 10
-5.876642781136607
 20
455.3438291755808
 30
0.0
 11
17.14651691123175
 21
455.3438291755808
 31
0.0
  0
LINE
  5
28316
330
20
100
AcDbEntity
  8
10000_FRONT
  6
Continuous
 62
     7
370
    13
100
AcDbLine
 10
23.94651691123176
 20
455.3438291755808
 30
0.0
 11
23.94651691123176
 21
453.3133730923172
 31
0.0
  0
CIRCLE
  5
28317
330
20
100
AcDbEntity
  8
10000_FRONT
  6
Continuous
 62
     7
370
    13
100
AcDbCircle
 10
-2.108939172032008
 20
450.8133730923171
 30
0.0
 40
2.9
  0
LINE
  5
28318
330
20
100
AcDbEntity
  8
10000_FRONT
  6
Continuous
 62
     7
370
    13
100
AcDbLine
 10
23.94651691123176
 20
453.3133730923172
 30
0.0
 11
17.14651691123174
 21
453.3133730923172
 31
0.0
  0
LINE
  5
28319
330
20
100
AcDbEntity
  8
10000_FRONT
  6
Continuous
 62
     7
370
    13
100
AcDbLine
 10
17.14651691123174
 20
453.3133730923172
 30
0.0
 11
17.14651691123174
 21
455.3438291755808
 31
0.0
  0
LINE
  5
2831A
330
20
100
AcDbEntity
  8
10000_FRONT
  6
Continuous
 62
     7
370
    13
100
AcDbLine
 10
17.14651691123174
 20
455.3438291755808
 30
0.0
 11
17.14651691123174
 21
456.1037419751848
 31
0.0
  0
ELLIPSE
  5
2831B
330
20
100
AcDbEntity
  8
10000_FRONT
  6
Continuous
 62
     7
370
    13
100
AcDbEllipse
 10
20.14651691123173
 20
456.1037419751848
 30
0.0
 11
-3.0
 21
0.0000000000000003
 31
0.0
210
0.0
220
0.0
230
1.0
 40
0.0524077792830412
 41
4.712388980384688
 42
6.283185307179584
  0
LINE
  5
2831C
330
20
100
AcDbEntity
  8
10000_FRONT
  6
Continuous
 62
     7
370
    13
100
AcDbLine
 10
17.14651691123174
 20
446.2829170090535
 30
0.0
 11
17.14651691123174
 21
448.3133730923172
 31
0.0
  0
LINE
  5
2831D
330
20
100
AcDbEntity
  8
10000_FRONT
  6
Continuous
 62
     7
370
    13
100
AcDbLine
 10
20.14651691123176
 20
456.2609653130341
 30
0.0
 11
20.94651691123175
 21
456.2609653130341
 31
0.0
  0
ELLIPSE
  5
2831E
330
20
100
AcDbEntity
  8
10000_FRONT
  6
Continuous
 62
     7
370
    13
100
AcDbEllipse
 10
20.94651691123175
 20
456.1037419751848
 30
0.0
 11
-3.0
 21
0.0000000000000003
 31
0.0
210
0.0
220
0.0
230
1.0
 40
0.0524077792830412
 41
3.14159265358979
 42
4.712388980384688
  0
LINE
  5
2831F
330
20
100
AcDbEntity
  8
10000_FRONT
  6
Continuous
 62
     7
370
    13
100
AcDbLine
 10
17.14651691123174
 20
446.2829170090535
 30
0.0
 11
-5.876642781136607
 21
446.2829170090535
 31
0.0
  0
LINE
  5
28320
330
20
100
AcDbEntity
  8
10000_FRONT
  6
Continuous
 62
     7
370
    13
100
AcDbLine
 10
17.14651691123174
 20
445.5230042094493
 30
0.0
 11
17.14651691123174
 21
446.2829170090535
 31
0.0
  0
ELLIPSE
  5
28321
330
20
100
AcDbEntity
  8
10000_FRONT
  6
Continuous
 62
     7
370
    13
100
AcDbEllipse
 10
20.14651691123173
 20
445.5230042094493
 30
0.0
 11
3.0
 21
-0.0000000000000007
 31
0.0
210
0.0
220
0.0
230
1.0
 40
0.0524077792830412
 41
3.14159265358979
 42
4.712388980384688
  0
LINE
  5
28322
330
20
100
AcDbEntity
  8
10000_FRONT
  6
Continuous
 62
     7
370
    13
100
AcDbLine
 10
20.94651691123175
 20
445.3657808716003
 30
0.0
 11
20.14651691123173
 21
445.3657808716003
 31
0.0
  0
ELLIPSE
  5
28323
330
20
100
AcDbEntity
  8
10000_FRONT
  6
Continuous
 62
     7
370
    13
100
AcDbEllipse
 10
20.94651691123175
 20
445.5230042094493
 30
0.0
 11
3.0
 21
-0.0000000000000007
 31
0.0
210
0.0
220
0.0
230
1.0
 40
0.0524077792830412
 41
4.712388980384688
 42
6.283185307179584
  0
LINE
  5
28324
330
20
100
AcDbEntity
  8
10000_FRONT
  6
Continuous
 62
     7
370
    13
100
AcDbLine
 10
23.94651691123176
 20
446.2829170090535
 30
0.0
 11
23.94651691123176
 21
445.5230042094493
 31
0.0
  0
LINE
  5
28325
330
20
100
AcDbEntity
  8
10000_FRONT
  6
Continuous
 62
     7
370
    13
100
AcDbLine
 10
26.94651691123175
 20
446.2829170090535
 30
0.0
 11
23.94651691123176
 21
446.2829170090535
 31
0.0
  0
LINE
  5
28326
330
20
100
AcDbEntity
  8
10000_FRONT
  6
Continuous
 62
     7
370
    13
100
AcDbLine
 10
26.94651691123175
 20
445.0251303062604
 30
0.0
 11
26.94651691123175
 21
446.2829170090535
 31
0.0
  0
LINE
  5
28327
330
20
100
AcDbEntity
  8
10000_FRONT
  6
Continuous
 62
     7
370
    13
100
AcDbLine
 10
18.66902687811212
 20
445.0251303062604
 30
0.0
 11
26.94651691123175
 21
445.0251303062604
 31
0.0
  0
SPLINE
  5
28328
330
20
100
AcDbEntity
  8
10000_FRONT
  6
Continuous
 62
     7
370
    13
100
AcDbSpline
210
0.0
220
0.0
230
1.0
 70
    12
 71
     2
 72
     6
 73
     3
 74
     0
 42
0.0000000001
 43
0.0000000001
 40
0.0
 40
0.0
 40
0.0
 40
5.510920448459382
 40
5.510920448459382
 40
5.510920448459382
 10
18.66902687811212
 20
445.0251303062604
 30
0.0
 41
1.0
 10
18.57264246115059
 20
445.1702688686212
 30
0.0
 41
1.0
 10
18.47625804414819
 20
445.3133730923171
 30
0.0
 41
1.0
  0
LINE
  5
28329
330
20
100
AcDbEntity
  8
10000_FRONT
  6
Continuous
 62
     7
370
    13
100
AcDbLine
 10
18.47625804414819
 20
445.3133730923171
 30
0.0
 11
-8.644136388212174
 21
445.3133730923171
 31
0.0
  0
SPLINE
  5
2832A
330
20
100
AcDbEntity
  8
10000_FRONT
  6
Continuous
 62
     7
370
    13
100
AcDbSpline
210
0.0
220
0.0
230
1.0
 70
    12
 71
     2
 72
     6
 73
     3
 74
     0
 42
0.0000000001
 43
0.0000000001
 40
1.803397050669063
 40
1.803397050669063
 40
1.803397050669063
 40
7.840233583340617
 40
7.840233583340617
 40
7.840233583340617
 10
-8.644136388212174
 20
445.3133730923171
 30
0.0
 41
1.0
 10
-8.535100874715366
 20
445.4752606982133
 30
0.0
 41
1.0
 10
-8.426065361220665
 20
445.6345448761537
 30
0.0
 41
1.0
  0
LINE
  5
2832B
330
20
100
AcDbEntity
  8
10000_FRONT
  6
Continuous
 62
     7
370
    13
100
AcDbLine
 10
-8.302299970168405
 20
455.9418973113293
 30
0.0
 11
-5.876642781136592
 21
455.3438291755808
 31
0.0
  0
LINE
  5
2832C
330
20
100
AcDbEntity
  8
10000_FRONT
  6
Continuous
 62
     7
370
    13
100
AcDbLine
 10
-5.876642781136607
 20
455.3438291755808
 30
0.0
 11
-5.876642781136607
 21
446.2829170090536
 31
0.0
  0
LINE
  5
2832D
330
20
100
AcDbEntity
  8
10000_FRONT
  6
Continuous
 62
     7
370
    13
100
AcDbLine
 10
-5.876642781136607
 20
446.2829170090535
 30
0.0
 11
-8.302299970168405
 21
445.684848873305
 31
0.0
  0
ARC
  5
2832E
330
20
100
AcDbEntity
  8
10000_FRONT
  6
Continuous
 62
     7
370
    13
100
AcDbCircle
 10
-8.271962130507617
 20
445.4328021696274
 30
0.0
 40
0.2538659594211557
100
AcDbArc
 50
96.86344196808637
 51
127.3747706244062
  0
ARC
  5
2832F
330
20
100
AcDbEntity
  8
10000_FRONT
  6
Continuous
 62
     7
370
    13
100
AcDbCircle
 10
-8.271915304979131
 20
456.1940592221513
 30
0.0
 40
0.2539859388839539
100
AcDbArc
 50
232.6326110877442
 51
263.1291763198075
  0
LINE
  5
28343
330
20
100
AcDbEntity
  8
11000_Left
  6
Continuous
 62
     7
370
    50
100
AcDbLine
 10
132.6905316751713
 20
465.456518637336
 30
0.0
 11
125.6905316751713
 21
465.823373092317
 31
0.0
  0
LINE
  5
28344
330
20
100
AcDbEntity
  8
11000_Left
  6
Continuous
 62
     7
370
    50
100
AcDbLine
 10
132.6905316751713
 20
436.1902275472986
 30
0.0
 11
125.6905316751713
 21
435.8233730923172
 31
0.0
  0
LINE
  5
28345
330
20
100
AcDbEntity
  8
11000_Left
  6
Continuous
 62
     7
370
    50
100
AcDbLine
 10
125.6905316751713
 20
450.8233730923173
 30
0.0
 11
125.6905316751713
 21
465.823373092317
 31
0.0
  0
LINE
  5
28346
330
20
100
AcDbEntity
  8
11000_Left
  6
Continuous
 62
     7
370
    50
100
AcDbLine
 10
125.6905316751713
 20
435.8233730923172
 30
0.0
 11
125.6905316751713
 21
450.8233730923173
 31
0.0
  0
LINE
  5
28347
330
20
100
AcDbEntity
  8
11000_Left
  6
Continuous
 62
     7
370
    50
100
AcDbLine
 10
132.6905316751713
 20
445.3233730923171
 30
0.0
 11
132.6905316751713
 21
436.1902275472986
 31
0.0
  0
LINE
  5
28348
330
20
100
AcDbEntity
  8
11000_Left
  6
Continuous
 62
     7
370
    50
100
AcDbLine
 10
132.6905316751713
 20
465.456518637336
 30
0.0
 11
132.6905316751713
 21
456.3233730923172
 31
0.0
  0
LINE
  5
28349
330
20
100
AcDbEntity
  8
11000_Left
  6
Continuous
 62
     7
370
    50
100
AcDbLine
 10
132.6905316751713
 20
456.3233730923172
 30
0.0
 11
138.8188543827992
 21
456.0022013084807
 31
0.0
  0
LINE
  5
2834A
330
20
100
AcDbEntity
  8
11000_Left
  6
Continuous
 62
     7
370
    50
100
AcDbLine
 10
132.6905316751713
 20
445.3233730923171
 30
0.0
 11
138.8188543827992
 21
445.644544876154
 31
0.0
  0
LINE
  5
2834B
330
20
100
AcDbEntity
  8
11000_Left
  6
Continuous
 62
     7
370
    50
100
AcDbLine
 10
139.7787118283794
 20
455.9518973113295
 30
0.0
 11
151.1905316751713
 21
455.353829175581
 31
0.0
  0
LINE
  5
2834C
330
20
100
AcDbEntity
  8
11000_Left
  6
Continuous
 62
     7
370
    50
100
AcDbLine
 10
151.1905316751713
 20
455.353829175581
 30
0.0
 11
151.1905316751713
 21
446.2929170090537
 31
0.0
  0
LINE
  5
2834D
330
20
100
AcDbEntity
  8
11000_Left
  6
Continuous
 62
     7
370
    50
100
AcDbLine
 10
151.1905316751713
 20
446.2929170090535
 30
0.0
 11
139.7787118283794
 21
445.6948488733051
 31
0.0
  0
LINE
  5
2834E
330
20
100
AcDbEntity
  8
11000_Left
  6
Continuous
 62
     7
370
    50
100
AcDbLine
 10
138.8188543827992
 20
445.644544876154
 30
0.0
 11
139.7787118285851
 21
445.6948488733159
 31
0.0
  0
LINE
  5
2834F
330
20
100
AcDbEntity
  8
11000_Left
  6
Continuous
 62
     7
370
    50
100
AcDbLine
 10
138.8188543827992
 20
456.0022013084802
 30
0.0
 11
139.7787118285851
 21
455.9518973113183
 31
0.0
  0
LINE
  5
28392
330
20
100
AcDbEntity
  8
10000_FRONT
  6
Continuous
 62
     7
370
    13
100
AcDbLine
 10
31.23763258391443
 20
448.5633730923171
 30
0.0
 11
26.94651691123175
 21
448.5633730923171
 31
0.0
  0
LINE
  5
28393
330
20
100
AcDbEntity
  8
10000_FRONT
  6
Continuous
 62
     7
370
    13
100
AcDbLine
 10
31.23763258391443
 20
453.0633730923171
 30
0.0
 11
26.94651691123175
 21
453.0633730923171
 31
0.0
  0
ARC
  5
28394
330
20
100
AcDbEntity
  8
10000_FRONT
  6
Continuous
 62
     7
370
    13
100
AcDbCircle
 10
31.23763258391443
 20
449.0633730923171
 30
0.0
 40
0.5
100
AcDbArc
 50
270.0
 51
0.0
  0
ARC
  5
28395
330
20
100
AcDbEntity
  8
10000_FRONT
  6
Continuous
 62
     7
370
    13
100
AcDbCircle
 10
31.23763258391443
 20
452.5633730923171
 30
0.0
 40
0.5
100
AcDbArc
 50
0.0
 51
90.0
  0
LINE
  5
28397
330
20
100
AcDbEntity
  8
10000_FRONT
100
AcDbLine
 10
31.73763258391443
 20
452.5633730923171
 30
0.0
 11
31.73763258391443
 21
449.0633730923171
 31
0.0
  0
LINE
  5
28398
330
20
100
AcDbEntity
  8
10000_FRONT
  6
Continuous
 62
     7
370
    50
100
AcDbLine
 39
0.7
 10
28.91606258391443
 20
453.0633730923169
 30
0.0
 11
28.91606258391443
 21
471.8133730923171
 31
0.0
1001
AUSTER_FOLIE
1002
{
1000
VIERLOCH_MIT_KNEBEL_49_AUSTER
1002
}
1001
AUSTER_ANSICHT
1002
{
1000
V
1002
}
  0
ARC
  5
283B9
330
20
100
AcDbEntity
  8
14000_Bottom
  6
Continuous
 62
     7
370
    13
100
AcDbCircle
 10
183.1371241068785
 20
452.0733730923171
 30
0.0
 40
1.000000000000113
100
AcDbArc
 50
90.00000000000651
 51
179.999999999987
  0
ARC
  5
283BA
330
20
100
AcDbEntity
  8
14000_Bottom
  6
Continuous
 62
     7
370
    13
100
AcDbCircle
 10
183.1371241068784
 20
449.5733730923173
 30
0.0
 40
1.0
100
AcDbArc
 50
180.0
 51
270.0
  0
LINE
  5
283BB
330
20
100
AcDbEntity
  8
14000_Bottom
  6
Continuous
 62
     7
370
    13
100
AcDbLine
 10
182.1371241068784
 20
452.0733730923173
 30
0.0
 11
182.1371241068784
 21
449.5733730923173
 31
0.0
  0
LINE
  5
283BC
330
20
100
AcDbEntity
  8
14000_Bottom
  6
Continuous
 62
     7
370
    13
100
AcDbLine
 10
184.9971241068784
 20
448.5733730923173
 30
0.0
 11
183.1371241068784
 21
448.5733730923173
 31
0.0
  0
LINE
  5
283BD
330
20
100
AcDbEntity
  8
14000_Bottom
  6
Continuous
 62
     7
370
    13
100
AcDbLine
 10
183.1371241068784
 20
453.0733730923172
 30
0.0
 11
184.9971241068784
 21
453.0733730923173
 31
0.0
  0
ENDSEC
  0
SECTION
  2
OBJECTS
  0
DICTIONARY
  5
C
330
0
100
AcDbDictionary
281
     1
  3
ACAD_COLOR
350
1B
  3
ACAD_GROUP
350
D
  3
ACAD_LAYOUT
350
19
  3
ACAD_MATERIAL
350
1A
  3
ACAD_MLINESTYLE
350
16
  3
ACAD_PLOTSETTINGS
350
18
  3
ACAD_PLOTSTYLENAME
350
E
  3
ACDBHEADERROUNDTRIPXREC
350
283F3
  3
AcDbVariableDictionary
350
687E
  3
DWGPROPS
350
283F2
  0
DICTIONARY
  5
1B
102
{ACAD_REACTORS
330
C
102
}
330
C
100
AcDbDictionary
281
     1
  0
DICTIONARY
  5
D
102
{ACAD_REACTORS
330
C
102
}
330
C
100
AcDbDictionary
281
     1
  0
DICTIONARY
  5
19
102
{ACAD_REACTORS
330
C
102
}
330
C
100
AcDbDictionary
281
     1
  3
Layout1
350
1F
  3
Model
350
23
  0
DICTIONARY
  5
1A
102
{ACAD_REACTORS
330
C
102
}
330
C
100
AcDbDictionary
281
     1
  0
DICTIONARY
  5
16
102
{ACAD_REACTORS
330
C
102
}
330
C
100
AcDbDictionary
281
     1
  3
Standard
350
17
  0
DICTIONARY
  5
18
102
{ACAD_REACTORS
330
C
102
}
330
C
100
AcDbDictionary
281
     1
  0
ACDBDICTIONARYWDFLT
  5
E
102
{ACAD_REACTORS
330
C
102
}
330
C
100
AcDbDictionary
281
     1
  3
Normal
350
F
100
AcDbDictionaryWithDefault
340
F
  0
DICTIONARY
  5
283F3
102
{ACAD_REACTORS
330
C
102
}
330
C
100
AcDbDictionary
281
     1
  3
COLORDICT
350
283F5
  3
MATERIALDICT
350
283F4
  0
DICTIONARY
  5
687E
102
{ACAD_REACTORS
330
C
102
}
330
C
100
AcDbDictionary
281
     1
  3
DIMASSOC
350
687F
  3
PROJECTNAME
350
6880
  0
XRECORD
  5
283F2
102
{ACAD_REACTORS
330
C
102
}
330
C
100
AcDbXrecord
280
     1
  1
DWGPROPS COOKIE
  2

  3

  4

  6

  7

  8

  9

300
=
301
=
302
=
303
=
304
=
305
=
306
=
307
=
308
=
309
=
 40
3.102435891203703
 41
2452829.459279745
 42
2453473.594401181
  1

 90
        0
  0
LAYOUT
  5
1F
102
{ACAD_XDICTIONARY
360
283F6
102
}
102
{ACAD_REACTORS
330
19
102
}
330
19
100
AcDbPlotSettings
  1

  2
HP LaserJet 5000 Series PS
  4

  6

 40
0.0
 41
0.0
 42
0.0
 43
0.0
 44
0.0
 45
0.0
 46
0.0
 47
0.0
 48
0.0
 49
0.0
140
0.0
141
0.0
142
1.0
143
1.0
 70
   688
 72
     0
 73
     0
 74
     5
  7
monochrome.ctb
 75
    16
147
1.0
148
0.0
149
0.0
100
AcDbLayout
  1
Layout1
 70
     1
 71
     1
 10
0.0
 20
0.0
 11
12.0
 21
9.0
 12
0.0
 22
0.0
 32
0.0
 14
1.000000000000000E+20
 24
1.000000000000000E+20
 34
1.000000000000000E+20
 15
-1.000000000000000E+20
 25
-1.000000000000000E+20
 35
-1.000000000000000E+20
146
0.0
 13
0.0
 23
0.0
 33
0.0
 16
1.0
 26
0.0
 36
0.0
 17
0.0
 27
1.0
 37
0.0
 76
     0
330
1C
  0
LAYOUT
  5
23
102
{ACAD_XDICTIONARY
360
283F8
102
}
102
{ACAD_REACTORS
330
19
102
}
330
19
100
AcDbPlotSettings
  1

  2
\\AMBW779A\A_P00873 (Canon iR2200-3300 PCL6)
  4
A3
  6

 40
4.815416812896728
 41
4.815412044525146
 42
4.815399169921875
 43
4.8154296875
 44
296.9259948730469
 45
419.9466552734373
 46
0.0
 47
0.0
 48
0.0
 49
0.0
140
0.0
141
0.0
142
1.0
143
1.0
 70
 11952
 72
     1
 73
     1
 74
     1
  7
monochrome.ctb
 75
    16
147
1.0
148
70.62161691749873
149
-288.7471012785038
100
AcDbLayout
  1
Model
 70
     1
 71
     0
 10
0.0
 20
0.0
 11
12.0
 21
9.0
 12
0.0
 22
0.0
 32
0.0
 14
0.0
 24
0.0
 34
0.0
 15
0.0
 25
0.0
 35
0.0
146
0.0
 13
0.0
 23
0.0
 33
0.0
 16
1.0
 26
0.0
 36
0.0
 17
0.0
 27
1.0
 37
0.0
 76
     0
330
20
  0
MLINESTYLE
  5
17
102
{ACAD_REACTORS
330
16
102
}
330
16
100
AcDbMlineStyle
  2
STANDARD
 70
     0
  3

 62
   256
 51
90.0
 52
90.0
 71
     2
 49
0.5
 62
   256
  6
BYLAYER
 49
-0.5
 62
   256
  6
BYLAYER
  0
ACDBPLACEHOLDER
  5
F
102
{ACAD_REACTORS
330
E
102
}
330
E
  0
XRECORD
  5
283F5
102
{ACAD_REACTORS
330
283F3
102
}
330
283F3
100
AcDbXrecord
280
     1
340
1B
  0
XRECORD
  5
283F4
102
{ACAD_REACTORS
330
283F3
102
}
330
283F3
100
AcDbXrecord
280
     1
340
1A
  0
DICTIONARYVAR
  5
687F
102
{ACAD_REACTORS
330
687E
102
}
330
687E
100
DictionaryVariables
280
     0
  1
1
  0
DICTIONARYVAR
  5
6880
102
{ACAD_REACTORS
330
687E
102
}
330
687E
100
DictionaryVariables
280
     0
  1

  0
DICTIONARY
  5
283F6
330
1F
100
AcDbDictionary
280
     1
281
     1
  3
ACAD_XREC_ROUNDTRIP
360
283F7
  0
DICTIONARY
  5
283F8
330
23
100
AcDbDictionary
280
     1
281
     1
  3
ACAD_XREC_ROUNDTRIP
360
283F9
  0
XRECORD
  5
283F7
102
{ACAD_REACTORS
330
283F6
102
}
330
283F6
100
AcDbXrecord
280
     1
102
SHADEPLOT
 70
     0
102
SHADEPLOTRESLEVEL
 70
     2
102
SHADEPLOTCUSTOMDPI
 70
   300
  0
XRECORD
  5
283F9
102
{ACAD_REACTORS
330
283F8
102
}
330
283F8
100
AcDbXrecord
280
     1
102
SHADEPLOT
 70
     1
102
SHADEPLOTRESLEVEL
 70
     2
102
SHADEPLOTCUSTOMDPI
 70
   300
  0
ENDSEC
  0
EOF
