  0
SECTION
  2
HEADER
  9
$ACADVER
  1
AC1015
  9
$ACADMAINTVER
 70
    20
  9
$DWGCODEPAGE
  3
ANSI_1252
  9
$INSBASE
 10
0.0
 20
0.0
 30
0.0
  9
$EXTMIN
 10
-70.60458337769119
 20
288.7994897070327
 30
0.0
  9
$EXTMAX
 10
339.3954166223088
 20
558.7994897070326
 30
0.7
  9
$LIMMIN
 10
0.0
 20
0.0
  9
$LIMMAX
 10
420.0
 20
297.0
  9
$ORTHOMODE
 70
     1
  9
$REGENMODE
 70
     1
  9
$FILLMODE
 70
     1
  9
$QTEXTMODE
 70
     0
  9
$MIRRTEXT
 70
     0
  9
$LTSCALE
 40
23.1
  9
$ATTMODE
 70
     1
  9
$TEXTSIZE
 40
0.2
  9
$TRACEWID
 40
0.05
  9
$TEXTSTYLE
  7
Standard
  9
$CLAYER
  8
14100_Bottom_Dim
  9
$CELTYPE
  6
ByLayer
  9
$CECOLOR
 62
   256
  9
$CELTSCALE
 40
1.0
  9
$DISPSILH
 70
     0
  9
$DIMSCALE
 40
0.0
  9
$DIMASZ
 40
3.5
  9
$DIMEXO
 40
0.0
  9
$DIMDLI
 40
3.75
  9
$DIMRND
 40
0.0
  9
$DIMDLE
 40
0.0
  9
$DIMEXE
 40
2.0
  9
$DIMTP
 40
0.0
  9
$DIMTM
 40
0.0
  9
$DIMTXT
 40
3.5
  9
$DIMCEN
 40
2.5
  9
$DIMTSZ
 40
0.0
  9
$DIMTOL
 70
     0
  9
$DIMLIM
 70
     0
  9
$DIMTIH
 70
     0
  9
$DIMTOH
 70
     0
  9
$DIMSE1
 70
     0
  9
$DIMSE2
 70
     0
  9
$DIMTAD
 70
     1
  9
$DIMZIN
 70
     8
  9
$DIMBLK
  1

  9
$DIMASO
 70
     1
  9
$DIMSHO
 70
     1
  9
$DIMPOST
  1

  9
$DIMAPOST
  1

  9
$DIMALT
 70
     0
  9
$DIMALTD
 70
     4
  9
$DIMALTF
 40
0.039
  9
$DIMLFAC
 40
1.0
  9
$DIMTOFL
 70
     1
  9
$DIMTVP
 40
0.0
  9
$DIMTIX
 70
     0
  9
$DIMSOXD
 70
     0
  9
$DIMSAH
 70
     0
  9
$DIMBLK1
  1

  9
$DIMBLK2
  1

  9
$DIMSTYLE
  2
H035
  9
$DIMCLRD
 70
   256
  9
$DIMCLRE
 70
     7
  9
$DIMCLRT
 70
     7
  9
$DIMTFAC
 40
1.0
  9
$DIMGAP
 40
0.5
  9
$DIMJUST
 70
     0
  9
$DIMSD1
 70
     0
  9
$DIMSD2
 70
     0
  9
$DIMTOLJ
 70
     1
  9
$DIMTZIN
 70
     0
  9
$DIMALTZ
 70
     0
  9
$DIMALTTZ
 70
     0
  9
$DIMUPT
 70
     0
  9
$DIMDEC
 70
     0
  9
$DIMTDEC
 70
     2
  9
$DIMALTU
 70
     8
  9
$DIMALTTD
 70
     4
  9
$DIMTXSTY
  7
Standard
  9
$DIMAUNIT
 70
     0
  9
$DIMADEC
 70
     0
  9
$DIMALTRND
 40
0.0
  9
$DIMAZIN
 70
     0
  9
$DIMDSEP
 70
    46
  9
$DIMATFIT
 70
     3
  9
$DIMFRAC
 70
     0
  9
$DIMLDRBLK
  1

  9
$DIMLUNIT
 70
     2
  9
$DIMLWD
 70
    -2
  9
$DIMLWE
 70
    -2
  9
$DIMTMOVE
 70
     0
  9
$LUNITS
 70
     2
  9
$LUPREC
 70
     4
  9
$SKETCHINC
 40
0.1
  9
$FILLETRAD
 40
0.5
  9
$AUNITS
 70
     0
  9
$AUPREC
 70
     0
  9
$MENU
  1
.
  9
$ELEVATION
 40
0.0
  9
$PELEVATION
 40
0.0
  9
$THICKNESS
 40
0.0
  9
$LIMCHECK
 70
     0
  9
$CHAMFERA
 40
0.0
  9
$CHAMFERB
 40
0.0
  9
$CHAMFERC
 40
0.0
  9
$CHAMFERD
 40
0.0
  9
$SKPOLY
 70
     0
  9
$TDCREATE
 40
2452829.417613079
  9
$TDUCREATE
 40
2452829.375946412
  9
$TDUPDATE
 40
2453423.620274803
  9
$TDUUPDATE
 40
2453423.578608137
  9
$TDINDWG
 40
2.1614712153
  9
$TDUSRTIMER
 40
2.1614650694
  9
$USRTIMER
 70
     1
  9
$ANGBASE
 50
0.0
  9
$ANGDIR
 70
     0
  9
$PDMODE
 70
     0
  9
$PDSIZE
 40
0.0
  9
$PLINEWID
 40
0.0
  9
$SPLFRAME
 70
     0
  9
$SPLINETYPE
 70
     6
  9
$SPLINESEGS
 70
     8
  9
$HANDSEED
  5
ACFB
  9
$SURFTAB1
 70
     6
  9
$SURFTAB2
 70
     6
  9
$SURFTYPE
 70
     6
  9
$SURFU
 70
     6
  9
$SURFV
 70
     6
  9
$UCSBASE
  2

  9
$UCSNAME
  2

  9
$UCSORG
 10
0.0
 20
0.0
 30
0.0
  9
$UCSXDIR
 10
1.0
 20
0.0
 30
0.0
  9
$UCSYDIR
 10
0.0
 20
1.0
 30
0.0
  9
$UCSORTHOREF
  2

  9
$UCSORTHOVIEW
 70
     0
  9
$UCSORGTOP
 10
0.0
 20
0.0
 30
0.0
  9
$UCSORGBOTTOM
 10
0.0
 20
0.0
 30
0.0
  9
$UCSORGLEFT
 10
0.0
 20
0.0
 30
0.0
  9
$UCSORGRIGHT
 10
0.0
 20
0.0
 30
0.0
  9
$UCSORGFRONT
 10
0.0
 20
0.0
 30
0.0
  9
$UCSORGBACK
 10
0.0
 20
0.0
 30
0.0
  9
$PUCSBASE
  2

  9
$PUCSNAME
  2

  9
$PUCSORG
 10
0.0
 20
0.0
 30
0.0
  9
$PUCSXDIR
 10
1.0
 20
0.0
 30
0.0
  9
$PUCSYDIR
 10
0.0
 20
1.0
 30
0.0
  9
$PUCSORTHOREF
  2

  9
$PUCSORTHOVIEW
 70
     0
  9
$PUCSORGTOP
 10
0.0
 20
0.0
 30
0.0
  9
$PUCSORGBOTTOM
 10
0.0
 20
0.0
 30
0.0
  9
$PUCSORGLEFT
 10
0.0
 20
0.0
 30
0.0
  9
$PUCSORGRIGHT
 10
0.0
 20
0.0
 30
0.0
  9
$PUCSORGFRONT
 10
0.0
 20
0.0
 30
0.0
  9
$PUCSORGBACK
 10
0.0
 20
0.0
 30
0.0
  9
$USERI1
 70
     0
  9
$USERI2
 70
     0
  9
$USERI3
 70
     0
  9
$USERI4
 70
     0
  9
$USERI5
 70
     0
  9
$USERR1
 40
0.0
  9
$USERR2
 40
0.0
  9
$USERR3
 40
0.0
  9
$USERR4
 40
0.0
  9
$USERR5
 40
0.0
  9
$WORLDVIEW
 70
     1
  9
$SHADEDGE
 70
     3
  9
$SHADEDIF
 70
    70
  9
$TILEMODE
 70
     1
  9
$MAXACTVP
 70
    64
  9
$PINSBASE
 10
0.0
 20
0.0
 30
0.0
  9
$PLIMCHECK
 70
     0
  9
$PEXTMIN
 10
1.000000000000000E+20
 20
1.000000000000000E+20
 30
1.000000000000000E+20
  9
$PEXTMAX
 10
-1.000000000000000E+20
 20
-1.000000000000000E+20
 30
-1.000000000000000E+20
  9
$PLIMMIN
 10
0.0
 20
0.0
  9
$PLIMMAX
 10
12.0
 20
9.0
  9
$UNITMODE
 70
     0
  9
$VISRETAIN
 70
     1
  9
$PLINEGEN
 70
     0
  9
$PSLTSCALE
 70
     1
  9
$TREEDEPTH
 70
  3020
  9
$CMLSTYLE
  2
Standard
  9
$CMLJUST
 70
     0
  9
$CMLSCALE
 40
1.0
  9
$PROXYGRAPHICS
 70
     1
  9
$MEASUREMENT
 70
     0
  9
$CELWEIGHT
370
    -1
  9
$ENDCAPS
280
     0
  9
$JOINSTYLE
280
     0
  9
$LWDISPLAY
290
     0
  9
$INSUNITS
 70
     0
  9
$HYPERLINKBASE
  1

  9
$STYLESHEET
  1
MONOCHROME.CTB
  9
$XEDIT
290
     1
  9
$CEPSNTYPE
380
     0
  9
$PSTYLEMODE
290
     1
  9
$FINGERPRINTGUID
  2
{D88032C4-1185-41D3-97DD-7638FCF99E3F}
  9
$VERSIONGUID
  2
{CADD2ECE-FE65-41A7-9985-137CC947875F}
  9
$EXTNAMES
290
     1
  9
$PSVPSCALE
 40
0.0
  9
$OLESTARTUP
290
     0
  0
ENDSEC
  0
SECTION
  2
CLASSES
  0
CLASS
  1
ACDBDICTIONARYWDFLT
  2
AcDbDictionaryWithDefault
  3
ObjectDBX Classes
 90
        0
280
     0
281
     0
  0
CLASS
  1
DICTIONARYVAR
  2
AcDbDictionaryVar
  3
ObjectDBX Classes
 90
        0
280
     0
281
     0
  0
CLASS
  1
ACDBPLACEHOLDER
  2
AcDbPlaceHolder
  3
ObjectDBX Classes
 90
        0
280
     0
281
     0
  0
CLASS
  1
LAYOUT
  2
AcDbLayout
  3
ObjectDBX Classes
 90
        0
280
     0
281
     0
  0
ENDSEC
  0
SECTION
  2
TABLES
  0
TABLE
  2
VPORT
  5
8
330
0
100
AcDbSymbolTable
 70
     2
  0
VPORT
  5
ACF2
330
8
100
AcDbSymbolTableRecord
100
AcDbViewportTableRecord
  2
*Active
 70
     0
 10
0.0
 20
0.0
 11
1.0
 21
1.0
 12
136.1171507979482
 22
423.8010772987361
 13
0.0
 23
0.0
 14
1.0
 24
1.0
 15
0.0
 25
0.0
 16
0.0
 26
0.0
 36
1.0
 17
0.0
 27
0.0
 37
0.0
 40
272.1292822133278
 41
1.571994715984147
 42
50.0
 43
0.0
 44
0.0
 50
0.0
 51
0.0
 71
     0
 72
   100
 73
     1
 74
     1
 75
     0
 76
     0
 77
     0
 78
     0
281
     0
 65
     1
110
0.0
120
0.0
130
0.0
111
1.0
121
0.0
131
0.0
112
0.0
122
1.0
132
0.0
 79
     0
146
0.0
  0
ENDTAB
  0
TABLE
  2
LTYPE
  5
5
330
0
100
AcDbSymbolTable
 70
     2
  0
LTYPE
  5
13
330
5
100
AcDbSymbolTableRecord
100
AcDbLinetypeTableRecord
  2
ByBlock
 70
     0
  3

 72
    65
 73
     0
 40
0.0
  0
LTYPE
  5
14
330
5
100
AcDbSymbolTableRecord
100
AcDbLinetypeTableRecord
  2
ByLayer
 70
     0
  3

 72
    65
 73
     0
 40
0.0
  0
LTYPE
  5
15
330
5
100
AcDbSymbolTableRecord
100
AcDbLinetypeTableRecord
  2
CONTINUOUS
 70
     0
  3
Solid line
 72
    65
 73
     0
 40
0.0
  0
LTYPE
  5
26
330
5
100
AcDbSymbolTableRecord
100
AcDbLinetypeTableRecord
  2
CENTER
 70
     0
  3
____ _ ____ _ ____ _ ____ _ ____ _ ____ _ ____
 72
    65
 73
     4
 40
0.6
 49
0.375
 74
     0
 49
-0.075
 74
     0
 49
0.075
 74
     0
 49
-0.075
 74
     0
  0
ENDTAB
  0
TABLE
  2
LAYER
  5
2
330
0
100
AcDbSymbolTable
 70
    12
  0
LAYER
  5
10
330
2
100
AcDbSymbolTableRecord
100
AcDbLayerTableRecord
  2
0
 70
     0
 62
     7
  6
CONTINUOUS
370
    -3
390
F
  0
LAYER
  5
1D8
330
2
100
AcDbSymbolTableRecord
100
AcDbLayerTableRecord
  2
Defpoints
 70
     0
 62
     7
  6
CONTINUOUS
290
     0
370
    -3
390
F
  0
LAYER
  5
1D9
330
2
100
AcDbSymbolTableRecord
100
AcDbLayerTableRecord
  2
91000_TIP
 70
     0
 62
     7
  6
CONTINUOUS
370
    -3
390
F
  0
LAYER
  5
1DA
330
2
100
AcDbSymbolTableRecord
100
AcDbLayerTableRecord
  2
11000_Left
 70
     0
 62
     7
  6
CONTINUOUS
370
    -3
390
F
  0
LAYER
  5
1DB
330
2
100
AcDbSymbolTableRecord
100
AcDbLayerTableRecord
  2
10000_FRONT
 70
     0
 62
     7
  6
CONTINUOUS
370
    -3
390
F
  0
LAYER
  5
1DC
330
2
100
AcDbSymbolTableRecord
100
AcDbLayerTableRecord
  2
10100_FRONT_DIM
 70
     0
 62
     7
  6
CONTINUOUS
370
    -3
390
F
  0
LAYER
  5
1DD
330
2
100
AcDbSymbolTableRecord
100
AcDbLayerTableRecord
  2
90000_FRAME
 70
     0
 62
     7
  6
CONTINUOUS
370
    -3
390
F
  0
LAYER
  5
1DE
330
2
100
AcDbSymbolTableRecord
100
AcDbLayerTableRecord
  2
11100_LEFT_DIM
 70
     0
 62
     7
  6
CONTINUOUS
370
    -3
390
F
  0
LAYER
  5
8E71
330
2
100
AcDbSymbolTableRecord
100
AcDbLayerTableRecord
  2
30000_Drilling
 70
     0
 62
     7
  6
CONTINUOUS
370
    -3
390
F
  0
LAYER
  5
8E72
330
2
100
AcDbSymbolTableRecord
100
AcDbLayerTableRecord
  2
30100_Drilling_DIM
 70
     0
 62
     7
  6
CONTINUOUS
370
    -3
390
F
  0
LAYER
  5
ABF6
330
2
100
AcDbSymbolTableRecord
100
AcDbLayerTableRecord
  2
14000_Bottom
 70
     0
 62
     7
  6
CONTINUOUS
370
    -3
390
F
  0
LAYER
  5
ABF7
330
2
100
AcDbSymbolTableRecord
100
AcDbLayerTableRecord
  2
14100_Bottom_Dim
 70
     0
 62
     7
  6
CONTINUOUS
370
    -3
390
F
  0
ENDTAB
  0
TABLE
  2
STYLE
  5
3
330
0
100
AcDbSymbolTable
 70
     2
  0
STYLE
  5
11
330
3
100
AcDbSymbolTableRecord
100
AcDbTextStyleTableRecord
  2
Standard
 70
     0
 40
0.0
 41
1.0
 50
0.0
 71
     0
 42
0.2
  3
txt
  4

  0
STYLE
  5
9965
330
3
100
AcDbSymbolTableRecord
100
AcDbTextStyleTableRecord
  2
TAHOMA
 70
     0
 40
0.0
 41
1.0
 50
0.0
 71
     0
 42
2.0
  3
txt
  4

  0
ENDTAB
  0
TABLE
  2
VIEW
  5
6
330
0
100
AcDbSymbolTable
 70
     0
  0
ENDTAB
  0
TABLE
  2
UCS
  5
7
330
0
100
AcDbSymbolTable
 70
     0
  0
ENDTAB
  0
TABLE
  2
APPID
  5
9
330
0
100
AcDbSymbolTable
 70
     3
  0
APPID
  5
12
330
9
100
AcDbSymbolTableRecord
100
AcDbRegAppTableRecord
  2
ACAD
 70
     0
  0
APPID
  5
1E8
330
9
100
AcDbSymbolTableRecord
100
AcDbRegAppTableRecord
  2
AUSTER_ANSICHT
 70
     0
  0
APPID
  5
1E9
330
9
100
AcDbSymbolTableRecord
100
AcDbRegAppTableRecord
  2
AUSTER_FOLIE
 70
     0
  0
ENDTAB
  0
TABLE
  2
DIMSTYLE
  5
A
330
0
100
AcDbSymbolTable
 70
     3
100
AcDbDimStyleTable
 71
     3
340
3A1A
340
1E7
340
BA
  0
DIMSTYLE
105
BA
330
A
100
AcDbSymbolTableRecord
100
AcDbDimStyleTableRecord
  2
Standard
 70
     0
340
11
  0
DIMSTYLE
105
1E7
102
{ACAD_REACTORS
330
A99F
330
A961
330
A96E
330
A9B3
330
A9DB
330
A9FA
102
}
330
A
100
AcDbSymbolTableRecord
100
AcDbDimStyleTableRecord
  2
DSTYLE1
 70
     0
 41
3.0
 42
0.0
 44
1.0
 73
     0
 74
     0
 77
     1
 78
     3
140
2.5
143
0.039370079
147
1.0
271
     3
272
     3
274
     0
279
     2
340
11
  0
DIMSTYLE
105
3A1A
102
{ACAD_REACTORS
330
AAB4
330
AA9E
330
AA6D
330
AB29
330
AB1C
330
AB04
330
AAF7
330
ABA6
330
ABB3
330
ABF8
102
}
330
A
100
AcDbSymbolTableRecord
100
AcDbDimStyleTableRecord
  2
H035
 70
     0
 40
0.0
 41
3.5
 42
0.0
 43
3.75
 44
2.0
 73
     0
 74
     0
 77
     1
 78
     8
140
3.5
141
2.5
143
0.039
147
0.5
171
     4
172
     1
176
   256
177
     7
178
     7
271
     0
272
     2
273
     8
274
     4
340
11
  0
ENDTAB
  0
TABLE
  2
BLOCK_RECORD
  5
1
330
0
100
AcDbSymbolTable
 70
    17
  0
BLOCK_RECORD
  5
20
330
1
100
AcDbSymbolTableRecord
100
AcDbBlockTableRecord
  2
*Model_Space
340
23
  0
BLOCK_RECORD
  5
1C
330
1
100
AcDbSymbolTableRecord
100
AcDbBlockTableRecord
  2
*Paper_Space
340
1F
  0
BLOCK_RECORD
  5
3A
330
1
100
AcDbSymbolTableRecord
100
AcDbBlockTableRecord
  2
SIEMENS_OUTLINE_BL0
340
0
102
{BLKREFS
331
8CC5
102
}
  0
BLOCK_RECORD
  5
A962
330
1
100
AcDbSymbolTableRecord
100
AcDbBlockTableRecord
  2
*D1
340
0
  0
BLOCK_RECORD
  5
A96F
330
1
100
AcDbSymbolTableRecord
100
AcDbBlockTableRecord
  2
*D2
340
0
  0
BLOCK_RECORD
  5
A9A0
330
1
100
AcDbSymbolTableRecord
100
AcDbBlockTableRecord
  2
*D3
340
0
  0
BLOCK_RECORD
  5
A9B4
330
1
100
AcDbSymbolTableRecord
100
AcDbBlockTableRecord
  2
*D4
340
0
  0
BLOCK_RECORD
  5
A9DC
330
1
100
AcDbSymbolTableRecord
100
AcDbBlockTableRecord
  2
*D5
340
0
  0
BLOCK_RECORD
  5
A9FB
330
1
100
AcDbSymbolTableRecord
100
AcDbBlockTableRecord
  2
*D6
340
0
  0
BLOCK_RECORD
  5
AA6E
330
1
100
AcDbSymbolTableRecord
100
AcDbBlockTableRecord
  2
*D7
340
0
  0
BLOCK_RECORD
  5
AA9F
330
1
100
AcDbSymbolTableRecord
100
AcDbBlockTableRecord
  2
*D8
340
0
  0
BLOCK_RECORD
  5
AAB5
330
1
100
AcDbSymbolTableRecord
100
AcDbBlockTableRecord
  2
*D9
340
0
  0
BLOCK_RECORD
  5
AAF8
330
1
100
AcDbSymbolTableRecord
100
AcDbBlockTableRecord
  2
*D10
340
0
  0
BLOCK_RECORD
  5
AB05
330
1
100
AcDbSymbolTableRecord
100
AcDbBlockTableRecord
  2
*D11
340
0
  0
BLOCK_RECORD
  5
AB1D
330
1
100
AcDbSymbolTableRecord
100
AcDbBlockTableRecord
  2
*D12
340
0
  0
BLOCK_RECORD
  5
AB2A
330
1
100
AcDbSymbolTableRecord
100
AcDbBlockTableRecord
  2
*D13
340
0
  0
BLOCK_RECORD
  5
ABA7
330
1
100
AcDbSymbolTableRecord
100
AcDbBlockTableRecord
  2
*D14
340
0
  0
BLOCK_RECORD
  5
ABB4
330
1
100
AcDbSymbolTableRecord
100
AcDbBlockTableRecord
  2
*D15
340
0
  0
BLOCK_RECORD
  5
ABF9
330
1
100
AcDbSymbolTableRecord
100
AcDbBlockTableRecord
  2
*D16
340
0
  0
ENDTAB
  0
ENDSEC
  0
SECTION
  2
BLOCKS
  0
BLOCK
  5
21
330
20
100
AcDbEntity
  8
0
100
AcDbBlockBegin
  2
*Model_Space
 70
     0
 10
0.0
 20
0.0
 30
0.0
  3
*Model_Space
  1

  0
ENDBLK
  5
22
330
20
100
AcDbEntity
  8
0
100
AcDbBlockEnd
  0
BLOCK
  5
1D
330
1C
100
AcDbEntity
 67
     1
  8
0
100
AcDbBlockBegin
  2
*Paper_Space
 70
     0
 10
0.0
 20
0.0
 30
0.0
  3
*Paper_Space
  1

  0
ENDBLK
  5
1E
330
1C
100
AcDbEntity
 67
     1
  8
0
100
AcDbBlockEnd
  0
BLOCK
  5
3B
330
3A
100
AcDbEntity
  8
0
  6
Continuous
 62
     7
100
AcDbBlockBegin
  2
SIEMENS_OUTLINE_BL0
 70
     0
 10
0.0
 20
0.0
 30
0.0
  3
SIEMENS_OUTLINE_BL0
  1

  0
LINE
  5
3C
330
3A
100
AcDbEntity
  8
0
  6
Continuous
 62
     7
100
AcDbLine
 10
289.1235341257
 20
21.4969115175
 30
0.0
 11
289.1235341257
 21
16.7436424342
 31
0.0
  0
LINE
  5
3D
330
3A
100
AcDbEntity
  8
0
  6
Continuous
 62
     7
100
AcDbLine
 10
290.5495148507
 20
21.4969115175
 30
0.0
 11
290.5495148507
 21
16.7436424342
 31
0.0
  0
LINE
  5
3E
330
3A
100
AcDbEntity
  8
0
  6
Continuous
 62
     7
100
AcDbLine
 10
289.1235341257
 20
16.7436424342
 30
0.0
 11
290.5495148507
 21
16.7436424342
 31
0.0
  0
LINE
  5
3F
330
3A
100
AcDbEntity
  8
0
  6
Continuous
 62
     7
100
AcDbLine
 10
289.1235341257
 20
21.4969115175
 30
0.0
 11
290.5495148507
 21
21.4969115175
 31
0.0
  0
LINE
  5
40
330
3A
100
AcDbEntity
  8
0
  6
Continuous
 62
     7
100
AcDbLine
 10
291.6427667399
 20
21.4969115175
 30
0.0
 11
291.6427667399
 21
16.7436424342
 31
0.0
  0
LINE
  5
41
330
3A
100
AcDbEntity
  8
0
  6
Continuous
 62
     7
100
AcDbLine
 10
291.6427667399
 20
16.7436424342
 30
0.0
 11
295.2077185523
 21
16.7436424342
 31
0.0
  0
LINE
  5
42
330
3A
100
AcDbEntity
  8
0
  6
Continuous
 62
     7
100
AcDbLine
 10
295.2077185523
 20
17.64676356
 30
0.0
 11
293.021214774
 21
17.64676356
 31
0.0
  0
LINE
  5
43
330
3A
100
AcDbEntity
  8
0
  6
Continuous
 62
     7
100
AcDbLine
 10
295.2077185523
 20
17.64676356
 30
0.0
 11
295.2077185523
 21
16.7436424342
 31
0.0
  0
LINE
  5
44
330
3A
100
AcDbEntity
  8
0
  6
Continuous
 62
     7
100
AcDbLine
 10
295.1601858615
 20
21.4969115175
 30
0.0
 11
291.6427667399
 21
21.4969115175
 31
0.0
  0
LINE
  5
45
330
3A
100
AcDbEntity
  8
0
  6
Continuous
 62
     7
100
AcDbLine
 10
295.1601858615
 20
20.6175567371
 30
0.0
 11
293.021214774
 21
20.6175567371
 31
0.0
  0
LINE
  5
46
330
3A
100
AcDbEntity
  8
0
  6
Continuous
 62
     7
100
AcDbLine
 10
295.1601858615
 20
21.4969115175
 30
0.0
 11
295.1601858615
 21
20.6175567371
 31
0.0
  0
LINE
  5
47
330
3A
100
AcDbEntity
  8
0
  6
Continuous
 62
     7
100
AcDbLine
 10
294.8749897165
 20
18.7637817946
 30
0.0
 11
293.021214774
 21
18.7637817946
 31
0.0
  0
LINE
  5
48
330
3A
100
AcDbEntity
  8
0
  6
Continuous
 62
     7
100
AcDbLine
 10
294.8749897165
 20
19.5480711933
 30
0.0
 11
294.8749897165
 21
18.7637817946
 31
0.0
  0
LINE
  5
49
330
3A
100
AcDbEntity
  8
0
  6
Continuous
 62
     7
100
AcDbLine
 10
294.8749897165
 20
19.5480711933
 30
0.0
 11
293.021214774
 21
19.5480711933
 31
0.0
  0
LINE
  5
4A
330
3A
100
AcDbEntity
  8
0
  6
Continuous
 62
     7
100
AcDbLine
 10
293.021214774
 20
20.6175567371
 30
0.0
 11
293.021214774
 21
19.5480711933
 31
0.0
  0
LINE
  5
4B
330
3A
100
AcDbEntity
  8
0
  6
Continuous
 62
     7
100
AcDbLine
 10
293.021214774
 20
18.7637817946
 30
0.0
 11
293.021214774
 21
17.64676356
 31
0.0
  0
LINE
  5
4C
330
3A
100
AcDbEntity
  8
0
  6
Continuous
 62
     7
100
AcDbLine
 10
296.0157742965
 20
16.7436424342
 30
0.0
 11
296.0157742965
 21
21.4969115175
 31
0.0
  0
LINE
  5
4D
330
3A
100
AcDbEntity
  8
0
  6
Continuous
 62
     7
100
AcDbLine
 10
296.0157742965
 20
16.7436424342
 30
0.0
 11
296.9664281131
 21
16.7436424342
 31
0.0
  0
LINE
  5
4E
330
3A
100
AcDbEntity
  8
0
  6
Continuous
 62
     7
100
AcDbLine
 10
301.8622952689
 20
21.4969115175
 30
0.0
 11
301.8622952689
 21
16.7436424342
 31
0.0
  0
LINE
  5
4F
330
3A
100
AcDbEntity
  8
0
  6
Continuous
 62
     7
100
AcDbLine
 10
301.8622952689
 20
16.7436424342
 30
0.0
 11
300.4838472348
 21
16.7436424342
 31
0.0
  0
LINE
  5
50
330
3A
100
AcDbEntity
  8
0
  6
Continuous
 62
     7
100
AcDbLine
 10
298.2973434565
 20
16.6961097434
 30
0.0
 11
299.1529318914
 21
16.6961097434
 31
0.0
  0
LINE
  5
51
330
3A
100
AcDbEntity
  8
0
  6
Continuous
 62
     7
100
AcDbLine
 10
298.2973434565
 20
16.6961097434
 30
0.0
 11
296.9664281131
 21
19.7857346475
 31
0.0
  0
LINE
  5
52
330
3A
100
AcDbEntity
  8
0
  6
Continuous
 62
     7
100
AcDbLine
 10
296.9664281131
 20
16.7436424342
 30
0.0
 11
296.9664281131
 21
19.7857346475
 31
0.0
  0
LINE
  5
53
330
3A
100
AcDbEntity
  8
0
  6
Continuous
 62
     7
100
AcDbLine
 10
300.4838472348
 20
19.8332673383
 30
0.0
 11
299.1529318914
 21
16.6961097434
 31
0.0
  0
LINE
  5
54
330
3A
100
AcDbEntity
  8
0
  6
Continuous
 62
     7
100
AcDbLine
 10
297.7269511665
 20
21.4969115175
 30
0.0
 11
296.0157742965
 21
21.4969115175
 31
0.0
  0
LINE
  5
55
330
3A
100
AcDbEntity
  8
0
  6
Continuous
 62
     7
100
AcDbLine
 10
301.8622952689
 20
21.4969115175
 30
0.0
 11
300.1511183989
 21
21.4969115175
 31
0.0
  0
LINE
  5
56
330
3A
100
AcDbEntity
  8
0
  6
Continuous
 62
     7
100
AcDbLine
 10
297.7269511665
 20
21.4969115175
 30
0.0
 11
298.9628011281
 21
18.5974173767
 31
0.0
  0
LINE
  5
57
330
3A
100
AcDbEntity
  8
0
  6
Continuous
 62
     7
100
AcDbLine
 10
300.1511183989
 20
21.4969115175
 30
0.0
 11
298.9628011281
 21
18.5974173767
 31
0.0
  0
LINE
  5
58
330
3A
100
AcDbEntity
  8
0
  6
Continuous
 62
     7
100
AcDbLine
 10
300.4838472348
 20
19.8332673383
 30
0.0
 11
300.4838472348
 21
16.7436424342
 31
0.0
  0
LINE
  5
59
330
3A
100
AcDbEntity
  8
0
  6
Continuous
 62
     7
100
AcDbLine
 10
302.9555471581
 20
21.4969115175
 30
0.0
 11
302.9555471581
 21
16.7436424342
 31
0.0
  0
LINE
  5
5A
330
3A
100
AcDbEntity
  8
0
  6
Continuous
 62
     7
100
AcDbLine
 10
302.9555471581
 20
16.7436424342
 30
0.0
 11
306.5204989705
 21
16.7436424342
 31
0.0
  0
LINE
  5
5B
330
3A
100
AcDbEntity
  8
0
  6
Continuous
 62
     7
100
AcDbLine
 10
306.5204989705
 20
17.64676356
 30
0.0
 11
304.3339951922
 21
17.64676356
 31
0.0
  0
LINE
  5
5C
330
3A
100
AcDbEntity
  8
0
  6
Continuous
 62
     7
100
AcDbLine
 10
306.5204989705
 20
17.64676356
 30
0.0
 11
306.5204989705
 21
16.7436424342
 31
0.0
  0
LINE
  5
5D
330
3A
100
AcDbEntity
  8
0
  6
Continuous
 62
     7
100
AcDbLine
 10
306.4729662797
 20
21.4969115175
 30
0.0
 11
302.9555471581
 21
21.4969115175
 31
0.0
  0
LINE
  5
5E
330
3A
100
AcDbEntity
  8
0
  6
Continuous
 62
     7
100
AcDbLine
 10
306.4729662797
 20
20.6175567371
 30
0.0
 11
304.3339951922
 21
20.6175567371
 31
0.0
  0
LINE
  5
5F
330
3A
100
AcDbEntity
  8
0
  6
Continuous
 62
     7
100
AcDbLine
 10
306.4729662797
 20
21.4969115175
 30
0.0
 11
306.4729662797
 21
20.6175567371
 31
0.0
  0
LINE
  5
60
330
3A
100
AcDbEntity
  8
0
  6
Continuous
 62
     7
100
AcDbLine
 10
306.1877701347
 20
18.7637817946
 30
0.0
 11
304.3339951922
 21
18.7637817946
 31
0.0
  0
LINE
  5
61
330
3A
100
AcDbEntity
  8
0
  6
Continuous
 62
     7
100
AcDbLine
 10
306.1877701347
 20
19.5480711933
 30
0.0
 11
306.1877701347
 21
18.7637817946
 31
0.0
  0
LINE
  5
62
330
3A
100
AcDbEntity
  8
0
  6
Continuous
 62
     7
100
AcDbLine
 10
306.1877701347
 20
19.5480711933
 30
0.0
 11
304.3339951922
 21
19.5480711933
 31
0.0
  0
LINE
  5
63
330
3A
100
AcDbEntity
  8
0
  6
Continuous
 62
     7
100
AcDbLine
 10
304.3339951922
 20
20.6175567371
 30
0.0
 11
304.3339951922
 21
19.5480711933
 31
0.0
  0
LINE
  5
64
330
3A
100
AcDbEntity
  8
0
  6
Continuous
 62
     7
100
AcDbLine
 10
304.3339951922
 20
18.7637817946
 30
0.0
 11
304.3339951922
 21
17.64676356
 31
0.0
  0
LINE
  5
65
330
3A
100
AcDbEntity
  8
0
  6
Continuous
 62
     7
100
AcDbLine
 10
307.3047883693
 20
16.7436424342
 30
0.0
 11
307.3047883693
 21
21.4969115175
 31
0.0
  0
LINE
  5
66
330
3A
100
AcDbEntity
  8
0
  6
Continuous
 62
     7
100
AcDbLine
 10
311.4876651625
 20
21.4969115175
 30
0.0
 11
311.4876651625
 21
16.7436424342
 31
0.0
  0
LINE
  5
67
330
3A
100
AcDbEntity
  8
0
  6
Continuous
 62
     7
100
AcDbLine
 10
307.3047883693
 20
16.7436424342
 30
0.0
 11
308.2554421859
 21
16.7436424342
 31
0.0
  0
LINE
  5
68
330
3A
100
AcDbEntity
  8
0
  6
Continuous
 62
     7
100
AcDbLine
 10
311.4876651625
 20
21.4969115175
 30
0.0
 11
310.5370113459
 21
21.4969115175
 31
0.0
  0
LINE
  5
69
330
3A
100
AcDbEntity
  8
0
  6
Continuous
 62
     7
100
AcDbLine
 10
308.8496008213
 20
21.4969115175
 30
0.0
 11
307.3047883693
 21
21.4969115175
 31
0.0
  0
LINE
  5
6A
330
3A
100
AcDbEntity
  8
0
  6
Continuous
 62
     7
100
AcDbLine
 10
311.4876651625
 20
16.7436424342
 30
0.0
 11
309.9666190559
 21
16.7436424342
 31
0.0
  0
LINE
  5
6B
330
3A
100
AcDbEntity
  8
0
  6
Continuous
 62
     7
100
AcDbLine
 10
309.9666190559
 20
16.7436424342
 30
0.0
 11
308.2554421859
 21
19.7857346475
 31
0.0
  0
LINE
  5
6C
330
3A
100
AcDbEntity
  8
0
  6
Continuous
 62
     7
100
AcDbLine
 10
308.8496008213
 20
21.4969115175
 30
0.0
 11
310.5370113459
 21
18.5498846858
 31
0.0
  0
LINE
  5
6D
330
3A
100
AcDbEntity
  8
0
  6
Continuous
 62
     7
100
AcDbLine
 10
310.5370113459
 20
21.4969115175
 30
0.0
 11
310.5370113459
 21
18.5498846858
 31
0.0
  0
LINE
  5
6E
330
3A
100
AcDbEntity
  8
0
  6
Continuous
 62
     7
100
AcDbLine
 10
308.2554421859
 20
16.7436424342
 30
0.0
 11
308.2554421859
 21
19.7857346475
 31
0.0
  0
LINE
  5
6F
330
3A
100
AcDbEntity
  8
0
  6
Continuous
 62
     7
100
AcDbLine
 10
312.2957209067
 20
16.8387078159
 30
0.0
 11
312.2957209067
 21
17.7893616325
 31
0.0
  0
LINE
  5
70
330
3A
100
AcDbEntity
  8
0
  6
Continuous
 62
     7
100
AcDbLine
 10
315.623009265
 20
20.49872501
 30
0.0
 11
315.623009265
 21
21.4493788266
 31
0.0
  0
ARC
  5
71
330
3A
100
AcDbEntity
  8
0
  6
Continuous
 62
     7
100
AcDbCircle
 10
314.0003620317
 20
18.7008009792
 30
0.0
 40
1.111619360599997
100
AcDbArc
 50
277.7099956934
 51
295.6884927746
  0
ARC
  5
72
330
3A
100
AcDbEntity
  8
0
  6
Continuous
 62
     7
100
AcDbCircle
 10
314.2846720145
 20
17.9759752156
 30
0.0
 40
0.3401689265
100
AcDbArc
 50
305.503221255
 51
72.46528985229999
  0
ARC
  5
73
330
3A
100
AcDbEntity
  8
0
  6
Continuous
 62
     7
100
AcDbCircle
 10
313.7186782063
 20
21.3776821252
 30
0.0
 40
4.756794641099999
100
AcDbArc
 50
252.5939200548001
 51
280.9816604256
  0
ARC
  5
74
330
3A
100
AcDbEntity
  8
0
  6
Continuous
 62
     7
100
AcDbCircle
 10
314.1735135694
 20
18.7596683887
 30
0.0
 40
2.100726595299998
100
AcDbArc
 50
282.405835852
 51
311.8644433928
  0
ARC
  5
75
330
3A
100
AcDbEntity
  8
0
  6
Continuous
 62
     7
100
AcDbCircle
 10
313.8999492223
 20
20.3680101102
 30
0.0
 40
0.3029626476
100
AcDbArc
 50
154.4400348282
 51
221.8201698801
  0
ARC
  5
76
330
3A
100
AcDbEntity
  8
0
  6
Continuous
 62
     7
100
AcDbCircle
 10
313.9791703737
 20
20.2887889588
 30
0.0
 40
0.4103089737
100
AcDbArc
 50
102.8287828681
 51
149.2259639003
  0
ARC
  5
77
330
3A
100
AcDbEntity
  8
0
  6
Continuous
 62
     7
100
AcDbCircle
 10
314.3961972093
 20
18.546453629
 30
0.0
 40
2.201836557
100
AcDbArc
 50
84.0400061857
 51
103.3427657870999
  0
ARC
  5
78
330
3A
100
AcDbEntity
  8
0
  6
Continuous
 62
     7
100
AcDbCircle
 10
314.0552333846
 20
16.1290897051
 30
0.0
 40
4.642373736499997
100
AcDbArc
 50
70.2625858546
 51
82.95241863799999
  0
ARC
  5
79
330
3A
100
AcDbEntity
  8
0
  6
Continuous
 62
     7
100
AcDbCircle
 10
313.5412151824001
 20
20.8007125947
 30
0.0
 40
3.258755990899997
100
AcDbArc
 50
247.5300206145
 51
280.7579522143
  0
ARC
  5
7A
330
3A
100
AcDbEntity
  8
0
  6
Continuous
 62
     7
100
AcDbCircle
 10
307.1562487104
 20
2.5491926343
 30
0.0
 40
17.3316084133
100
AcDbArc
 50
65.34146746500001
 51
67.39977707359999
  0
ARC
  5
7B
330
3A
100
AcDbEntity
  8
0
  6
Continuous
 62
     7
100
AcDbCircle
 10
317.9521111158
 20
28.3416189974
 30
0.0
 40
10.6291642039
100
AcDbArc
 50
242.8620101252001
 51
247.1042029186
  0
ARC
  5
7C
330
3A
100
AcDbEntity
  8
0
  6
Continuous
 62
     7
100
AcDbCircle
 10
314.0972098893
 20
20.8076875004
 30
0.0
 40
2.166291629199998
100
AcDbArc
 50
227.3119280794
 51
242.7040315235
  0
ARC
  5
7D
330
3A
100
AcDbEntity
  8
0
  6
Continuous
 62
     7
100
AcDbCircle
 10
313.4931790796
 20
20.1020098596
 30
0.0
 40
1.238521734
100
AcDbArc
 50
194.7952194236
 51
225.7176549047
  0
ARC
  5
7E
330
3A
100
AcDbEntity
  8
0
  6
Continuous
 62
     7
100
AcDbCircle
 10
313.5553372138
 20
20.1422298287
 30
0.0
 40
1.309092072899999
100
AcDbArc
 50
164.1974860461
 51
195.8025139539
  0
ARC
  5
7F
330
3A
100
AcDbEntity
  8
0
  6
Continuous
 62
     7
100
AcDbCircle
 10
314.1123609345001
 20
19.2539626688
 30
0.0
 40
2.366924815299999
100
AcDbArc
 50
86.22180229280001
 51
120.4272602309
  0
ARC
  5
80
330
3A
100
AcDbEntity
  8
0
  6
Continuous
 62
     7
100
AcDbCircle
 10
313.8435041519
 20
12.5577948477
 30
0.0
 40
9.0679051661
100
AcDbArc
 50
78.68270492259998
 51
87.3147599624
  0
ARC
  5
81
330
3A
100
AcDbEntity
  8
0
  6
Continuous
 62
     7
100
AcDbCircle
 10
313.3874349735
 20
20.2497375912
 30
0.0
 40
1.119747444
100
AcDbArc
 50
142.813917903
 51
167.1522951417
  0
ARC
  5
82
330
3A
100
AcDbEntity
  8
0
  6
Continuous
 62
     7
100
AcDbCircle
 10
313.7327443151
 20
19.9431558946
 30
0.0
 40
1.580546684499998
100
AcDbArc
 50
121.2140948535
 51
141.5254768286
  0
ARC
  5
83
330
3A
100
AcDbEntity
  8
0
  6
Continuous
 62
     7
100
AcDbCircle
 10
314.3099186807
 20
20.7542132232
 30
0.0
 40
0.8661276051999998
100
AcDbArc
 50
222.7760387596
 51
239.0362434679
  0
ARC
  5
84
330
3A
100
AcDbEntity
  8
0
  6
Continuous
 62
     7
100
AcDbCircle
 10
311.8032091024
 20
13.4239410246
 30
0.0
 40
6.858773576299999
100
AcDbArc
 50
59.90202725600001
 51
68.2036481279
  0
ARC
  5
85
330
3A
100
AcDbEntity
  8
0
  6
Continuous
 62
     7
100
AcDbCircle
 10
315.2117035963
 20
22.3498275319
 30
0.0
 40
2.698741017099999
100
AcDbArc
 50
240.0481997804
 51
251.3779673736999
  0
ARC
  5
86
330
3A
100
AcDbEntity
  8
0
  6
Continuous
 62
     7
100
AcDbCircle
 10
314.5462464295
 20
18.1929289165
 30
0.0
 40
1.4334474881
100
AcDbArc
 50
315.8904553224
 51
333.5229264373
  0
ARC
  5
87
330
3A
100
AcDbEntity
  8
0
  6
Continuous
 62
     7
100
AcDbCircle
 10
314.5508846732
 20
18.1395217664
 30
0.0
 40
1.406228711899998
100
AcDbArc
 50
335.3867972702
 51
24.3915119402
  0
ARC
  5
88
330
3A
100
AcDbEntity
  8
0
  6
Continuous
 62
     7
100
AcDbCircle
 10
314.4786797697
 20
18.0616650746
 30
0.0
 40
1.504702514799999
100
AcDbArc
 50
25.95629166050001
 51
59.4834829668
  0
LINE
  5
89
330
3A
100
AcDbEntity
  8
0
  6
Continuous
 62
     7
100
AcDbLine
 10
284.7029938783
 20
16.8387078159
 30
0.0
 11
284.7029938783
 21
17.7893616325
 31
0.0
  0
LINE
  5
8A
330
3A
100
AcDbEntity
  8
0
  6
Continuous
 62
     7
100
AcDbLine
 10
288.0302822366
 20
20.49872501
 30
0.0
 11
288.0302822366
 21
21.4493788266
 31
0.0
  0
ARC
  5
8B
330
3A
100
AcDbEntity
  8
0
  6
Continuous
 62
     7
100
AcDbCircle
 10
286.4076350033
 20
18.7008009792
 30
0.0
 40
1.111619360599997
100
AcDbArc
 50
277.7099956934
 51
295.6884927746
  0
ARC
  5
8C
330
3A
100
AcDbEntity
  8
0
  6
Continuous
 62
     7
100
AcDbCircle
 10
286.691944986
 20
17.9759752156
 30
0.0
 40
0.3401689265
100
AcDbArc
 50
305.5032212556
 51
72.4652898515
  0
ARC
  5
8D
330
3A
100
AcDbEntity
  8
0
  6
Continuous
 62
     7
100
AcDbCircle
 10
286.1259511779
 20
21.3776821252
 30
0.0
 40
4.756794641099999
100
AcDbArc
 50
252.5939200545
 51
280.9816604253
  0
ARC
  5
8E
330
3A
100
AcDbEntity
  8
0
  6
Continuous
 62
     7
100
AcDbCircle
 10
286.580786541
 20
18.7596683887
 30
0.0
 40
2.100726595299998
100
AcDbArc
 50
282.4058358513
 51
311.8644433923
  0
ARC
  5
8F
330
3A
100
AcDbEntity
  8
0
  6
Continuous
 62
     7
100
AcDbCircle
 10
286.3072221939
 20
20.3680101102
 30
0.0
 40
0.3029626476
100
AcDbArc
 50
154.4400348282
 51
221.8201698801
  0
ARC
  5
90
330
3A
100
AcDbEntity
  8
0
  6
Continuous
 62
     7
100
AcDbCircle
 10
286.3864433453
 20
20.2887889588
 30
0.0
 40
0.4103089737
100
AcDbArc
 50
102.8287828727
 51
149.2259639027
  0
ARC
  5
91
330
3A
100
AcDbEntity
  8
0
  6
Continuous
 62
     7
100
AcDbCircle
 10
286.8034701809
 20
18.546453629
 30
0.0
 40
2.201836557
100
AcDbArc
 50
84.0400061859
 51
103.3427657872
  0
ARC
  5
92
330
3A
100
AcDbEntity
  8
0
  6
Continuous
 62
     7
100
AcDbCircle
 10
286.4625063562
 20
16.1290897051
 30
0.0
 40
4.642373736499997
100
AcDbArc
 50
70.2625858546
 51
82.9524186379
  0
ARC
  5
93
330
3A
100
AcDbEntity
  8
0
  6
Continuous
 62
     7
100
AcDbCircle
 10
285.948488154
 20
20.8007125947
 30
0.0
 40
3.258755990899997
100
AcDbArc
 50
247.5300206148
 51
280.7579522145
  0
ARC
  5
94
330
3A
100
AcDbEntity
  8
0
  6
Continuous
 62
     7
100
AcDbCircle
 10
279.563521682
 20
2.5491926343
 30
0.0
 40
17.3316084133
100
AcDbArc
 50
65.34146746500001
 51
67.39977707359999
  0
ARC
  5
95
330
3A
100
AcDbEntity
  8
0
  6
Continuous
 62
     7
100
AcDbCircle
 10
290.3593840874
 20
28.3416189974
 30
0.0
 40
10.6291642039
100
AcDbArc
 50
242.8620101252001
 51
247.1042029185
  0
ARC
  5
96
330
3A
100
AcDbEntity
  8
0
  6
Continuous
 62
     7
100
AcDbCircle
 10
286.5044828608
 20
20.8076875004
 30
0.0
 40
2.166291629199998
100
AcDbArc
 50
227.3119280794
 51
242.7040315235
  0
ARC
  5
97
330
3A
100
AcDbEntity
  8
0
  6
Continuous
 62
     7
100
AcDbCircle
 10
285.9004520512
 20
20.1020098596
 30
0.0
 40
1.238521734
100
AcDbArc
 50
194.7952194234
 51
225.7176549042
  0
ARC
  5
98
330
3A
100
AcDbEntity
  8
0
  6
Continuous
 62
     7
100
AcDbCircle
 10
286.519633906
 20
19.2539626688
 30
0.0
 40
2.366924815299999
100
AcDbArc
 50
86.22180229280001
 51
120.4272602309
  0
ARC
  5
99
330
3A
100
AcDbEntity
  8
0
  6
Continuous
 62
     7
100
AcDbCircle
 10
286.2507771235
 20
12.5577948477
 30
0.0
 40
9.0679051661
100
AcDbArc
 50
78.68270492259998
 51
87.3147599624
  0
ARC
  5
9A
330
3A
100
AcDbEntity
  8
0
  6
Continuous
 62
     7
100
AcDbCircle
 10
286.1400172867
 20
19.9431558946
 30
0.0
 40
1.580546684599998
100
AcDbArc
 50
121.2140948541
 51
141.525476829
  0
ARC
  5
9B
330
3A
100
AcDbEntity
  8
0
  6
Continuous
 62
     7
100
AcDbCircle
 10
286.7171916523
 20
20.7542132232
 30
0.0
 40
0.8661276051999998
100
AcDbArc
 50
222.7760387596
 51
239.0362434679
  0
ARC
  5
9C
330
3A
100
AcDbEntity
  8
0
  6
Continuous
 62
     7
100
AcDbCircle
 10
284.210482074
 20
13.4239410246
 30
0.0
 40
6.858773576299999
100
AcDbArc
 50
59.90202725620001
 51
68.20364812820002
  0
ARC
  5
9D
330
3A
100
AcDbEntity
  8
0
  6
Continuous
 62
     7
100
AcDbCircle
 10
287.6189765678
 20
22.3498275319
 30
0.0
 40
2.698741017099999
100
AcDbArc
 50
240.0481997804
 51
251.3779673734
  0
ARC
  5
9E
330
3A
100
AcDbEntity
  8
0
  6
Continuous
 62
     7
100
AcDbCircle
 10
286.953519401
 20
18.1929289165
 30
0.0
 40
1.4334474881
100
AcDbArc
 50
315.8904553226
 51
333.5229264375
  0
ARC
  5
9F
330
3A
100
AcDbEntity
  8
0
  6
Continuous
 62
     7
100
AcDbCircle
 10
286.9581576447
 20
18.1395217664
 30
0.0
 40
1.406228711899998
100
AcDbArc
 50
335.3867972703
 51
24.3915119403
  0
ARC
  5
A0
330
3A
100
AcDbEntity
  8
0
  6
Continuous
 62
     7
100
AcDbCircle
 10
286.8859527412
 20
18.0616650746
 30
0.0
 40
1.504702514699999
100
AcDbArc
 50
25.9562916611
 51
59.4834829676
  0
LINE
  5
A1
330
3A
100
AcDbEntity
  8
0
  6
Continuous
 62
     7
100
AcDbLine
 10
284.8948224676
 20
20.9161059766
 30
0.0
 11
285.1688882922
 21
21.1901790542
 31
0.0
  0
ARC
  5
A2
330
3A
100
AcDbEntity
  8
0
  6
Continuous
 62
     7
100
AcDbCircle
 10
285.9626101853
 20
20.1422298287
 30
0.0
 40
1.309092072899999
100
AcDbArc
 50
164.1974860461
 51
195.8025139539
  0
ARC
  5
A3
330
3A
100
AcDbEntity
  8
0
  6
Continuous
 62
     7
100
AcDbCircle
 10
285.7947079451
 20
20.2497375912
 30
0.0
 40
1.119747444
100
AcDbArc
 50
142.813917903
 51
167.1522951417
  0
ENDBLK
  5
A4
330
3A
100
AcDbEntity
  8
0
100
AcDbBlockEnd
  0
BLOCK
  5
A96C
330
A962
100
AcDbEntity
  8
0
100
AcDbBlockBegin
  2
*D1
 70
     1
 10
0.0
 20
0.0
 30
0.0
  3
*D1
  1

  0
LINE
  5
ACB8
330
A962
100
AcDbEntity
  8
30100_Drilling_DIM
  6
Continuous
 62
     0
370
    -2
100
AcDbLine
 10
135.1453819170175
 20
391.9081092577544
 30
0.0
 11
135.1453819170175
 21
395.8990011541008
 31
0.0
  0
LINE
  5
ACB9
330
A962
100
AcDbEntity
  8
30100_Drilling_DIM
  6
Continuous
 62
     0
370
    -2
100
AcDbLine
 10
157.1453819170175
 20
331.9081092577546
 30
0.0
 11
157.1453819170175
 21
395.8990011541008
 31
0.0
  0
LINE
  5
ACBA
330
A962
100
AcDbEntity
  8
30100_Drilling_DIM
  6
Continuous
 62
     0
370
    -2
100
AcDbLine
 10
138.6453819170175
 20
394.8990011541008
 30
0.0
 11
142.2287152503508
 21
394.8990011541008
 31
0.0
  0
LINE
  5
ACBB
330
A962
100
AcDbEntity
  8
30100_Drilling_DIM
  6
Continuous
 62
     0
370
    -2
100
AcDbLine
 10
153.6453819170175
 20
394.8990011541008
 30
0.0
 11
150.0620485836841
 21
394.8990011541008
 31
0.0
  0
SOLID
  5
ACBC
330
A962
100
AcDbEntity
  8
30100_Drilling_DIM
  6
Continuous
 62
     0
100
AcDbTrace
 10
138.6453819170175
 20
395.482334487434
 30
0.0
 11
138.6453819170175
 21
394.3156678207674
 31
0.0
 12
135.1453819170175
 22
394.8990011541008
 32
0.0
 13
135.1453819170175
 23
394.8990011541008
 33
0.0
  0
SOLID
  5
ACBD
330
A962
100
AcDbEntity
  8
30100_Drilling_DIM
  6
Continuous
 62
     0
100
AcDbTrace
 10
153.6453819170175
 20
395.482334487434
 30
0.0
 11
153.6453819170175
 21
394.3156678207674
 31
0.0
 12
157.1453819170175
 22
394.8990011541008
 32
0.0
 13
157.1453819170175
 23
394.8990011541008
 33
0.0
  0
MTEXT
  5
ACBE
330
A962
100
AcDbEntity
  8
30100_Drilling_DIM
  6
Continuous
 62
     0
370
    13
100
AcDbMText
 10
146.1453819170175
 20
394.8990011541008
 30
0.0
 40
3.5
 41
0.0
 71
     5
 72
     1
  1
\A1;22
 73
     1
 44
1.0
1001
ACAD
1000
MTEXTBEGIN
1070
    73
1070
     1
1070
    44
1040
1.0
1070
    74
1070
     0
1000
MTEXTEND
  0
POINT
  5
ACBF
330
A962
100
AcDbEntity
  8
Defpoints
  6
Continuous
 62
     0
100
AcDbPoint
 10
135.1453819170175
 20
390.9081092577543
 30
0.0
  0
POINT
  5
ACC0
330
A962
100
AcDbEntity
  8
Defpoints
  6
Continuous
 62
     0
100
AcDbPoint
 10
157.1453819170175
 20
330.9081092577546
 30
0.0
  0
POINT
  5
ACC1
330
A962
100
AcDbEntity
  8
Defpoints
  6
Continuous
 62
     0
100
AcDbPoint
 10
157.1453819170175
 20
394.8990011541008
 30
0.0
  0
ENDBLK
  5
A96D
330
A962
100
AcDbEntity
  8
0
100
AcDbBlockEnd
  0
BLOCK
  5
A979
330
A96F
100
AcDbEntity
  8
0
100
AcDbBlockBegin
  2
*D2
 70
     1
 10
0.0
 20
0.0
 30
0.0
  3
*D2
  1

  0
LINE
  5
ACAE
330
A96F
100
AcDbEntity
  8
30100_Drilling_DIM
  6
Continuous
 62
     0
370
    -2
100
AcDbLine
 10
131.8953819170175
 20
388.6581092577543
 30
0.0
 11
125.5888274939149
 21
388.6581092577545
 31
0.0
  0
LINE
  5
ACAF
330
A96F
100
AcDbEntity
  8
30100_Drilling_DIM
  6
Continuous
 62
     0
370
    -2
100
AcDbLine
 10
153.8953819170175
 20
328.6581092577546
 30
0.0
 11
125.5888274939149
 21
328.6581092577547
 31
0.0
  0
LINE
  5
ACB0
330
A96F
100
AcDbEntity
  8
30100_Drilling_DIM
  6
Continuous
 62
     0
370
    -2
100
AcDbLine
 10
126.5888274939149
 20
385.1581092577545
 30
0.0
 11
126.5888274939149
 21
362.2831092577543
 31
0.0
  0
LINE
  5
ACB1
330
A96F
100
AcDbEntity
  8
30100_Drilling_DIM
  6
Continuous
 62
     0
370
    -2
100
AcDbLine
 10
126.5888274939149
 20
332.1581092577547
 30
0.0
 11
126.5888274939149
 21
355.0331092577544
 31
0.0
  0
SOLID
  5
ACB2
330
A96F
100
AcDbEntity
  8
30100_Drilling_DIM
  6
Continuous
 62
     0
100
AcDbTrace
 10
126.0054941605816
 20
385.1581092577545
 30
0.0
 11
127.1721608272483
 21
385.1581092577545
 31
0.0
 12
126.5888274939149
 22
388.6581092577545
 32
0.0
 13
126.5888274939149
 23
388.6581092577545
 33
0.0
  0
SOLID
  5
ACB3
330
A96F
100
AcDbEntity
  8
30100_Drilling_DIM
  6
Continuous
 62
     0
100
AcDbTrace
 10
126.0054941605816
 20
332.1581092577547
 30
0.0
 11
127.1721608272482
 21
332.1581092577547
 31
0.0
 12
126.5888274939149
 22
328.6581092577547
 32
0.0
 13
126.5888274939149
 23
328.6581092577547
 33
0.0
  0
MTEXT
  5
ACB4
330
A96F
100
AcDbEntity
  8
30100_Drilling_DIM
  6
Continuous
 62
     0
370
    13
100
AcDbMText
 10
126.5888274939149
 20
358.6581092577544
 30
0.0
 40
3.5
 41
0.0
 71
     5
 72
     1
  1
\A1;60
 11
0.0000000000000001
 21
1.0
 31
0.0
 73
     1
 44
1.0
1001
ACAD
1000
MTEXTBEGIN
1070
    73
1070
     1
1070
    44
1040
1.0
1070
    74
1070
     0
1000
MTEXTEND
  0
POINT
  5
ACB5
330
A96F
100
AcDbEntity
  8
Defpoints
  6
Continuous
 62
     0
100
AcDbPoint
 10
132.8953819170175
 20
388.6581092577543
 30
0.0
  0
POINT
  5
ACB6
330
A96F
100
AcDbEntity
  8
Defpoints
  6
Continuous
 62
     0
100
AcDbPoint
 10
154.8953819170175
 20
328.6581092577546
 30
0.0
  0
POINT
  5
ACB7
330
A96F
100
AcDbEntity
  8
Defpoints
  6
Continuous
 62
     0
100
AcDbPoint
 10
126.5888274939149
 20
328.6581092577547
 30
0.0
  0
ENDBLK
  5
A97A
330
A96F
100
AcDbEntity
  8
0
100
AcDbBlockEnd
  0
BLOCK
  5
A9A9
330
A9A0
100
AcDbEntity
  8
0
100
AcDbBlockBegin
  2
*D3
 70
     1
 10
0.0
 20
0.0
 30
0.0
  3
*D3
  1

  0
LINE
  5
ACA6
330
A9A0
100
AcDbEntity
  8
30100_Drilling_DIM
  6
Continuous
 62
     0
370
    -2
100
AcDbLine
 10
166.0907238399286
 20
331.0125429226098
 30
0.0
 11
162.7059998690974
 21
330.1216761305024
 31
0.0
  0
LINE
  5
ACA7
330
A9A0
100
AcDbEntity
  8
30100_Drilling_DIM
  6
Continuous
 62
     0
370
    -2
100
AcDbLine
 10
151.5847639649373
 20
327.1945423850067
 30
0.0
 11
148.200039994106
 21
326.3036755928993
 31
0.0
  0
MTEXT
  5
ACA8
330
A9A0
100
AcDbEntity
  8
30100_Drilling_DIM
  6
Continuous
 62
     0
370
    13
100
AcDbMText
 10
169.8783911406209
 20
332.0094652852062
 30
0.0
 40
3.5
 41
0.0
 71
     5
 72
     1
  1
\A1;\U+22054
 11
0.9670639916660977
 21
0.2545333691735401
 31
0.0
 73
     1
 44
1.0
1001
ACAD
1000
MTEXTBEGIN
1070
    73
1070
     1
1070
    44
1040
1.0
1070
    74
1070
     0
1000
MTEXTEND
  0
LINE
  5
ACA9
330
A9A0
100
AcDbEntity
  8
30100_Drilling_DIM
  6
Continuous
 62
     0
370
    -2
100
AcDbLine
 10
154.9694879357686
 20
328.0854091771141
 30
0.0
 11
159.3212758982661
 21
329.2308093383951
 31
0.0
  0
SOLID
  5
ACAA
330
A9A0
100
AcDbEntity
  8
30100_Drilling_DIM
  6
Continuous
 62
     0
100
AcDbTrace
 10
151.4362861662528
 20
327.7586630468119
 30
0.0
 11
151.7332417636219
 21
326.6304217232015
 31
0.0
 12
154.9694879357686
 22
328.0854091771141
 32
0.0
 13
154.9694879357686
 23
328.0854091771141
 33
0.0
  0
SOLID
  5
ACAB
330
A9A0
100
AcDbEntity
  8
30100_Drilling_DIM
  6
Continuous
 62
     0
100
AcDbTrace
 10
162.5575220704129
 20
330.6857967923077
 30
0.0
 11
162.854477667782
 21
329.5575554686973
 31
0.0
 12
159.3212758982661
 22
329.2308093383951
 32
0.0
 13
159.3212758982661
 23
329.2308093383951
 33
0.0
  0
POINT
  5
ACAC
330
A9A0
100
AcDbEntity
  8
Defpoints
  6
Continuous
 62
     0
100
AcDbPoint
 10
159.3212758982661
 20
329.2308093383951
 30
0.0
  0
POINT
  5
ACAD
330
A9A0
100
AcDbEntity
  8
Defpoints
  6
Continuous
 62
     0
100
AcDbPoint
 10
154.9694879357686
 20
328.0854091771141
 30
0.0
  0
ENDBLK
  5
A9AA
330
A9A0
100
AcDbEntity
  8
0
100
AcDbBlockEnd
  0
BLOCK
  5
A9BE
330
A9B4
100
AcDbEntity
  8
0
100
AcDbBlockBegin
  2
*D4
 70
     1
 10
0.0
 20
0.0
 30
0.0
  3
*D4
  1

  0
LINE
  5
AC9C
330
A9B4
100
AcDbEntity
  8
30100_Drilling_DIM
  6
Continuous
 62
     0
370
    -2
100
AcDbLine
 10
76.77838191701754
 20
347.4491092577546
 30
0.0
 11
99.2969381787898
 21
347.4491092577546
 31
0.0
  0
LINE
  5
AC9D
330
A9B4
100
AcDbEntity
  8
30100_Drilling_DIM
  6
Continuous
 62
     0
370
    -2
100
AcDbLine
 10
78.37438191701744
 20
371.5211092577546
 30
0.0
 11
99.2969381787898
 21
371.5211092577546
 31
0.0
  0
LINE
  5
AC9E
330
A9B4
100
AcDbEntity
  8
30100_Drilling_DIM
  6
Continuous
 62
     0
370
    -2
100
AcDbLine
 10
98.29693817878981
 20
350.9491092577546
 30
0.0
 11
98.29693817878981
 21
353.5267759244212
 31
0.0
  0
LINE
  5
AC9F
330
A9B4
100
AcDbEntity
  8
30100_Drilling_DIM
  6
Continuous
 62
     0
370
    -2
100
AcDbLine
 10
98.29693817878981
 20
368.0211092577546
 30
0.0
 11
98.29693817878981
 21
365.4434425910879
 31
0.0
  0
SOLID
  5
ACA0
330
A9B4
100
AcDbEntity
  8
30100_Drilling_DIM
  6
Continuous
 62
     0
100
AcDbTrace
 10
97.71360484545644
 20
350.9491092577546
 30
0.0
 11
98.88027151212313
 21
350.9491092577546
 31
0.0
 12
98.29693817878981
 22
347.4491092577546
 32
0.0
 13
98.29693817878981
 23
347.4491092577546
 33
0.0
  0
SOLID
  5
ACA1
330
A9B4
100
AcDbEntity
  8
30100_Drilling_DIM
  6
Continuous
 62
     0
100
AcDbTrace
 10
97.71360484545649
 20
368.0211092577546
 30
0.0
 11
98.88027151212313
 21
368.0211092577546
 31
0.0
 12
98.29693817878981
 22
371.5211092577546
 32
0.0
 13
98.29693817878981
 23
371.5211092577546
 33
0.0
  0
MTEXT
  5
ACA2
330
A9B4
100
AcDbEntity
  8
30100_Drilling_DIM
  6
Continuous
 62
     0
370
    13
100
AcDbMText
 10
98.29693817878977
 20
359.4851092577546
 30
0.0
 40
3.5
 41
0.0
 71
     5
 72
     1
  1
\A1;24,1
 11
0.0000000000000001
 21
1.0
 31
0.0
 73
     1
 44
1.0
1001
ACAD
1000
MTEXTBEGIN
1070
    73
1070
     1
1070
    44
1040
1.0
1070
    74
1070
     0
1000
MTEXTEND
  0
POINT
  5
ACA3
330
A9B4
100
AcDbEntity
  8
Defpoints
  6
Continuous
 62
     0
100
AcDbPoint
 10
75.77838191701754
 20
347.4491092577546
 30
0.0
  0
POINT
  5
ACA4
330
A9B4
100
AcDbEntity
  8
Defpoints
  6
Continuous
 62
     0
100
AcDbPoint
 10
77.37438191701745
 20
371.5211092577546
 30
0.0
  0
POINT
  5
ACA5
330
A9B4
100
AcDbEntity
  8
Defpoints
  6
Continuous
 62
     0
100
AcDbPoint
 10
98.29693817878981
 20
371.5211092577546
 30
0.0
  0
ENDBLK
  5
A9BF
330
A9B4
100
AcDbEntity
  8
0
100
AcDbBlockEnd
  0
BLOCK
  5
A9E6
330
A9DC
100
AcDbEntity
  8
0
100
AcDbBlockBegin
  2
*D5
 70
     1
 10
0.0
 20
0.0
 30
0.0
  3
*D5
  1

  0
LINE
  5
AC92
330
A9DC
100
AcDbEntity
  8
30100_Drilling_DIM
  6
Continuous
 62
     0
370
    -2
100
AcDbLine
 10
64.54238191701755
 20
357.6851092577546
 30
0.0
 11
64.54238191701755
 21
336.1178790282811
 31
0.0
  0
LINE
  5
AC93
330
A9DC
100
AcDbEntity
  8
30100_Drilling_DIM
  6
Continuous
 62
     0
370
    -2
100
AcDbLine
 10
87.01438191701756
 20
357.6851092577546
 30
0.0
 11
87.01438191701756
 21
336.1178790282811
 31
0.0
  0
LINE
  5
AC94
330
A9DC
100
AcDbEntity
  8
30100_Drilling_DIM
  6
Continuous
 62
     0
370
    -2
100
AcDbLine
 10
68.04238191701755
 20
337.1178790282812
 30
0.0
 11
69.23671525035088
 21
337.1178790282812
 31
0.0
  0
LINE
  5
AC95
330
A9DC
100
AcDbEntity
  8
30100_Drilling_DIM
  6
Continuous
 62
     0
370
    -2
100
AcDbLine
 10
83.51438191701756
 20
337.1178790282812
 30
0.0
 11
82.32004858368425
 21
337.1178790282812
 31
0.0
  0
SOLID
  5
AC96
330
A9DC
100
AcDbEntity
  8
30100_Drilling_DIM
  6
Continuous
 62
     0
100
AcDbTrace
 10
68.04238191701755
 20
337.7012123616144
 30
0.0
 11
68.04238191701755
 21
336.5345456949478
 31
0.0
 12
64.54238191701755
 22
337.1178790282812
 32
0.0
 13
64.54238191701755
 23
337.1178790282812
 33
0.0
  0
SOLID
  5
AC97
330
A9DC
100
AcDbEntity
  8
30100_Drilling_DIM
  6
Continuous
 62
     0
100
AcDbTrace
 10
83.51438191701756
 20
337.7012123616144
 30
0.0
 11
83.51438191701756
 21
336.5345456949478
 31
0.0
 12
87.01438191701756
 22
337.1178790282812
 32
0.0
 13
87.01438191701756
 23
337.1178790282812
 33
0.0
  0
MTEXT
  5
AC98
330
A9DC
100
AcDbEntity
  8
30100_Drilling_DIM
  6
Continuous
 62
     0
370
    13
100
AcDbMText
 10
75.77838191701754
 20
337.1178790282812
 30
0.0
 40
3.5
 41
0.0
 71
     5
 72
     1
  1
\A1;22,5
 73
     1
 44
1.0
1001
ACAD
1000
MTEXTBEGIN
1070
    73
1070
     1
1070
    44
1040
1.0
1070
    74
1070
     0
1000
MTEXTEND
  0
POINT
  5
AC99
330
A9DC
100
AcDbEntity
  8
Defpoints
  6
Continuous
 62
     0
100
AcDbPoint
 10
64.54238191701755
 20
358.6851092577546
 30
0.0
  0
POINT
  5
AC9A
330
A9DC
100
AcDbEntity
  8
Defpoints
  6
Continuous
 62
     0
100
AcDbPoint
 10
87.01438191701756
 20
358.6851092577546
 30
0.0
  0
POINT
  5
AC9B
330
A9DC
100
AcDbEntity
  8
Defpoints
  6
Continuous
 62
     0
100
AcDbPoint
 10
87.01438191701756
 20
337.1178790282812
 30
0.0
  0
ENDBLK
  5
A9E7
330
A9DC
100
AcDbEntity
  8
0
100
AcDbBlockEnd
  0
BLOCK
  5
AA07
330
A9FB
100
AcDbEntity
  8
0
100
AcDbBlockBegin
  2
*D6
 70
     1
 10
0.0
 20
0.0
 30
0.0
  3
*D6
  1

  0
LINE
  5
AC87
330
A9FB
100
AcDbEntity
  8
30100_Drilling_DIM
  6
Continuous
 62
     0
370
    -2
100
AcDbLine
 10
74.18338191701753
 20
372.5211092577546
 30
0.0
 11
74.18338191701753
 21
380.4806566016404
 31
0.0
  0
LINE
  5
AC88
330
A9FB
100
AcDbEntity
  8
30100_Drilling_DIM
  6
Continuous
 62
     0
370
    -2
100
AcDbLine
 10
77.37436453809734
 20
372.5285561250152
 30
0.0
 11
77.37436453809734
 21
380.4806566016404
 31
0.0
  0
LINE
  5
AC89
330
A9FB
100
AcDbEntity
  8
30100_Drilling_DIM
  6
Continuous
 62
     0
370
    -2
100
AcDbLine
 10
70.68338191701752
 20
379.4806566016404
 30
0.0
 11
67.18338191701753
 21
379.4806566016404
 31
0.0
  0
LINE
  5
AC8A
330
A9FB
100
AcDbEntity
  8
30100_Drilling_DIM
  6
Continuous
 62
     0
370
    -2
100
AcDbLine
 10
80.87436453809734
 20
379.4806566016404
 30
0.0
 11
84.37436453809734
 21
379.4806566016404
 31
0.0
  0
LINE
  5
AC8B
330
A9FB
100
AcDbEntity
  8
30100_Drilling_DIM
  6
Continuous
 62
     0
370
    -2
100
AcDbLine
 10
74.18338191701753
 20
379.4806566016404
 30
0.0
 11
77.37436453809734
 21
379.4806566016404
 31
0.0
  0
SOLID
  5
AC8C
330
A9FB
100
AcDbEntity
  8
30100_Drilling_DIM
  6
Continuous
 62
     0
100
AcDbTrace
 10
70.68338191701752
 20
380.0639899349737
 30
0.0
 11
70.68338191701752
 21
378.897323268307
 31
0.0
 12
74.18338191701753
 22
379.4806566016404
 32
0.0
 13
74.18338191701753
 23
379.4806566016404
 33
0.0
  0
SOLID
  5
AC8D
330
A9FB
100
AcDbEntity
  8
30100_Drilling_DIM
  6
Continuous
 62
     0
100
AcDbTrace
 10
80.87436453809734
 20
380.0639899349737
 30
0.0
 11
80.87436453809734
 21
378.897323268307
 31
0.0
 12
77.37436453809734
 22
379.4806566016404
 32
0.0
 13
77.37436453809734
 23
379.4806566016404
 33
0.0
  0
MTEXT
  5
AC8E
330
A9FB
100
AcDbEntity
  8
30100_Drilling_DIM
  6
Continuous
 62
     0
370
    13
100
AcDbMText
 10
89.166031204764
 20
379.4806566016404
 30
0.0
 40
3.5
 41
0.0
 71
     5
 72
     1
  1
\A1;3,2
 73
     1
 44
1.0
1001
ACAD
1000
MTEXTBEGIN
1070
    73
1070
     1
1070
    44
1040
1.0
1070
    74
1070
     0
1000
MTEXTEND
  0
POINT
  5
AC8F
330
A9FB
100
AcDbEntity
  8
Defpoints
  6
Continuous
 62
     0
100
AcDbPoint
 10
74.18338191701753
 20
371.5211092577546
 30
0.0
  0
POINT
  5
AC90
330
A9FB
100
AcDbEntity
  8
Defpoints
  6
Continuous
 62
     0
100
AcDbPoint
 10
77.37436453809734
 20
371.5285561250151
 30
0.0
  0
POINT
  5
AC91
330
A9FB
100
AcDbEntity
  8
Defpoints
  6
Continuous
 62
     0
100
AcDbPoint
 10
77.37436453809734
 20
379.4806566016404
 30
0.0
  0
ENDBLK
  5
AA08
330
A9FB
100
AcDbEntity
  8
0
100
AcDbBlockEnd
  0
BLOCK
  5
AA78
330
AA6E
100
AcDbEntity
  8
0
100
AcDbBlockBegin
  2
*D7
 70
     1
 10
0.0
 20
0.0
 30
0.0
  3
*D7
  1

  0
LINE
  5
AC7D
330
AA6E
100
AcDbEntity
  8
11100_LEFT_DIM
  6
Continuous
 62
     7
370
    -2
100
AcDbLine
 10
83.58494394283201
 20
465.769999044124
 30
0.0
 11
83.58494394283201
 21
424.1624852837204
 31
0.0
  0
LINE
  5
AC7E
330
AA6E
100
AcDbEntity
  8
11100_LEFT_DIM
  6
Continuous
 62
     7
370
    -2
100
AcDbLine
 10
282.5849439428321
 20
431.6089990441238
 30
0.0
 11
282.5849439428321
 21
424.1624852837204
 31
0.0
  0
LINE
  5
AC7F
330
AA6E
100
AcDbEntity
  8
11100_LEFT_DIM
  6
Continuous
370
    -2
100
AcDbLine
 10
87.08494394283201
 20
426.1624852837203
 30
0.0
 11
169.6266106094987
 21
426.1624852837203
 31
0.0
  0
LINE
  5
AC80
330
AA6E
100
AcDbEntity
  8
11100_LEFT_DIM
  6
Continuous
370
    -2
100
AcDbLine
 10
279.0849439428321
 20
426.1624852837203
 30
0.0
 11
196.5432772761653
 21
426.1624852837203
 31
0.0
  0
SOLID
  5
AC81
330
AA6E
100
AcDbEntity
  8
11100_LEFT_DIM
  6
Continuous
100
AcDbTrace
 10
87.08494394283201
 20
426.7458186170538
 30
0.0
 11
87.08494394283201
 21
425.5791519503871
 31
0.0
 12
83.58494394283201
 22
426.1624852837203
 32
0.0
 13
83.58494394283201
 23
426.1624852837203
 33
0.0
  0
SOLID
  5
AC82
330
AA6E
100
AcDbEntity
  8
11100_LEFT_DIM
  6
Continuous
100
AcDbTrace
 10
279.0849439428321
 20
426.7458186170538
 30
0.0
 11
279.0849439428321
 21
425.5791519503871
 31
0.0
 12
282.5849439428321
 22
426.1624852837203
 32
0.0
 13
282.5849439428321
 23
426.1624852837203
 33
0.0
  0
MTEXT
  5
AC83
330
AA6E
100
AcDbEntity
  8
11100_LEFT_DIM
  6
Continuous
 62
     7
370
    13
100
AcDbMText
 10
183.0849439428321
 20
426.1624852837203
 30
0.0
 40
3.5
 41
0.0
 71
     5
 72
     1
  1
\A1;max. 403
 73
     1
 44
1.0
1001
ACAD
1000
MTEXTBEGIN
1070
    73
1070
     1
1070
    44
1040
1.0
1070
    74
1070
     0
1000
MTEXTEND
  0
POINT
  5
AC84
330
AA6E
100
AcDbEntity
  8
Defpoints
  6
Continuous
 62
     0
100
AcDbPoint
 10
83.58494394283201
 20
465.769999044124
 30
0.0
  0
POINT
  5
AC85
330
AA6E
100
AcDbEntity
  8
Defpoints
  6
Continuous
 62
     0
100
AcDbPoint
 10
282.5849439428321
 20
431.6089990441238
 30
0.0
  0
POINT
  5
AC86
330
AA6E
100
AcDbEntity
  8
Defpoints
  6
Continuous
 62
     0
100
AcDbPoint
 10
282.5849439428321
 20
426.1624852837203
 30
0.0
  0
ENDBLK
  5
AA79
330
AA6E
100
AcDbEntity
  8
0
100
AcDbBlockEnd
  0
BLOCK
  5
AAA9
330
AA9F
100
AcDbEntity
  8
0
100
AcDbBlockBegin
  2
*D8
 70
     1
 10
0.0
 20
0.0
 30
0.0
  3
*D8
  1

  0
LINE
  5
AC73
330
AA9F
100
AcDbEntity
  8
11100_LEFT_DIM
  6
Continuous
 62
     7
370
    -2
100
AcDbLine
 10
284.5849439428321
 20
536.2949990441241
 30
0.0
 11
284.5849439428321
 21
543.8448696318205
 31
0.0
  0
LINE
  5
AC74
330
AA9F
100
AcDbEntity
  8
11100_LEFT_DIM
  6
Continuous
 62
     7
370
    -2
100
AcDbLine
 10
320.784943942832
 20
490.8749990441238
 30
0.0
 11
320.784943942832
 21
543.8448696318205
 31
0.0
  0
LINE
  5
AC75
330
AA9F
100
AcDbEntity
  8
11100_LEFT_DIM
  6
Continuous
370
    -2
100
AcDbLine
 10
288.0849439428321
 20
541.8448696318205
 30
0.0
 11
298.2682772761654
 21
541.8448696318205
 31
0.0
  0
LINE
  5
AC76
330
AA9F
100
AcDbEntity
  8
11100_LEFT_DIM
  6
Continuous
370
    -2
100
AcDbLine
 10
317.284943942832
 20
541.8448696318205
 30
0.0
 11
307.1016106094988
 21
541.8448696318205
 31
0.0
  0
SOLID
  5
AC77
330
AA9F
100
AcDbEntity
  8
11100_LEFT_DIM
  6
Continuous
100
AcDbTrace
 10
288.0849439428321
 20
542.4282029651537
 30
0.0
 11
288.0849439428321
 21
541.2615362984872
 31
0.0
 12
284.5849439428321
 22
541.8448696318205
 32
0.0
 13
284.5849439428321
 23
541.8448696318205
 33
0.0
  0
SOLID
  5
AC78
330
AA9F
100
AcDbEntity
  8
11100_LEFT_DIM
  6
Continuous
100
AcDbTrace
 10
317.284943942832
 20
542.4282029651537
 30
0.0
 11
317.284943942832
 21
541.2615362984872
 31
0.0
 12
320.784943942832
 22
541.8448696318205
 32
0.0
 13
320.784943942832
 23
541.8448696318205
 33
0.0
  0
MTEXT
  5
AC79
330
AA9F
100
AcDbEntity
  8
11100_LEFT_DIM
  6
Continuous
 62
     7
370
    13
100
AcDbMText
 10
302.6849439428321
 20
541.8448696318205
 30
0.0
 40
3.5
 41
0.0
 71
     5
 72
     1
  1
\A1;36
 73
     1
 44
1.0
1001
ACAD
1000
MTEXTBEGIN
1070
    73
1070
     1
1070
    44
1040
1.0
1070
    74
1070
     0
1000
MTEXTEND
  0
POINT
  5
AC7A
330
AA9F
100
AcDbEntity
  8
Defpoints
  6
Continuous
 62
     0
100
AcDbPoint
 10
284.5849439428321
 20
536.2949990441241
 30
0.0
  0
POINT
  5
AC7B
330
AA9F
100
AcDbEntity
  8
Defpoints
  6
Continuous
 62
     0
100
AcDbPoint
 10
320.784943942832
 20
490.8749990441238
 30
0.0
  0
POINT
  5
AC7C
330
AA9F
100
AcDbEntity
  8
Defpoints
  6
Continuous
 62
     0
100
AcDbPoint
 10
320.784943942832
 20
541.8448696318205
 30
0.0
  0
ENDBLK
  5
AAAA
330
AA9F
100
AcDbEntity
  8
0
100
AcDbBlockEnd
  0
BLOCK
  5
AABF
330
AAB5
100
AcDbEntity
  8
0
100
AcDbBlockBegin
  2
*D9
 70
     1
 10
0.0
 20
0.0
 30
0.0
  3
*D9
  1

  0
LINE
  5
AC69
330
AAB5
100
AcDbEntity
  8
11100_LEFT_DIM
  6
Continuous
 62
     7
370
    -2
100
AcDbLine
 10
181.5849439428319
 20
492.0749990441238
 30
0.0
 11
181.5849439428319
 21
543.6691833233108
 31
0.0
  0
LINE
  5
AC6A
330
AAB5
100
AcDbEntity
  8
11100_LEFT_DIM
  6
Continuous
 62
     7
370
    -2
100
AcDbLine
 10
282.5849439428321
 20
536.1419990441238
 30
0.0
 11
282.5849439428321
 21
543.6691833233108
 31
0.0
  0
LINE
  5
AC6B
330
AAB5
100
AcDbEntity
  8
11100_LEFT_DIM
  6
Continuous
370
    -2
100
AcDbLine
 10
185.084943942832
 20
541.6691833233109
 30
0.0
 11
227.3766106094987
 21
541.6691833233109
 31
0.0
  0
LINE
  5
AC6C
330
AAB5
100
AcDbEntity
  8
11100_LEFT_DIM
  6
Continuous
370
    -2
100
AcDbLine
 10
279.0849439428321
 20
541.6691833233109
 30
0.0
 11
236.7932772761654
 21
541.6691833233109
 31
0.0
  0
SOLID
  5
AC6D
330
AAB5
100
AcDbEntity
  8
11100_LEFT_DIM
  6
Continuous
100
AcDbTrace
 10
185.084943942832
 20
542.2525166566441
 30
0.0
 11
185.084943942832
 21
541.0858499899775
 31
0.0
 12
181.5849439428319
 22
541.6691833233109
 32
0.0
 13
181.5849439428319
 23
541.6691833233109
 33
0.0
  0
SOLID
  5
AC6E
330
AAB5
100
AcDbEntity
  8
11100_LEFT_DIM
  6
Continuous
100
AcDbTrace
 10
279.0849439428321
 20
542.2525166566441
 30
0.0
 11
279.0849439428321
 21
541.0858499899775
 31
0.0
 12
282.5849439428321
 22
541.6691833233109
 32
0.0
 13
282.5849439428321
 23
541.6691833233109
 33
0.0
  0
MTEXT
  5
AC6F
330
AAB5
100
AcDbEntity
  8
11100_LEFT_DIM
  6
Continuous
 62
     7
370
    13
100
AcDbMText
 10
232.0849439428321
 20
541.6691833233109
 30
0.0
 40
3.5
 41
0.0
 71
     5
 72
     1
  1
\A1;101
 73
     1
 44
1.0
1001
ACAD
1000
MTEXTBEGIN
1070
    73
1070
     1
1070
    44
1040
1.0
1070
    74
1070
     0
1000
MTEXTEND
  0
POINT
  5
AC70
330
AAB5
100
AcDbEntity
  8
Defpoints
  6
Continuous
 62
     0
100
AcDbPoint
 10
181.5849439428319
 20
492.0749990441238
 30
0.0
  0
POINT
  5
AC71
330
AAB5
100
AcDbEntity
  8
Defpoints
  6
Continuous
 62
     0
100
AcDbPoint
 10
282.5849439428321
 20
536.1419990441238
 30
0.0
  0
POINT
  5
AC72
330
AAB5
100
AcDbEntity
  8
Defpoints
  6
Continuous
 62
     0
100
AcDbPoint
 10
282.5849439428321
 20
541.6691833233109
 30
0.0
  0
ENDBLK
  5
AAC0
330
AAB5
100
AcDbEntity
  8
0
100
AcDbBlockEnd
  0
BLOCK
  5
AB02
330
AAF8
100
AcDbEntity
  8
0
100
AcDbBlockBegin
  2
*D10
 70
     1
 10
0.0
 20
0.0
 30
0.0
  3
*D10
  1

  0
LINE
  5
AC5F
330
AAF8
100
AcDbEntity
  8
11100_LEFT_DIM
  6
Continuous
 62
     7
370
    -2
100
AcDbLine
 10
83.58494394283201
 20
501.769999044124
 30
0.0
 11
83.58494394283201
 21
538.6863004857855
 31
0.0
  0
LINE
  5
AC60
330
AAF8
100
AcDbEntity
  8
11100_LEFT_DIM
  6
Continuous
 62
     7
370
    -2
100
AcDbLine
 10
141.584943942832
 20
500.069999044124
 30
0.0
 11
141.584943942832
 21
538.6863004857855
 31
0.0
  0
LINE
  5
AC61
330
AAF8
100
AcDbEntity
  8
11100_LEFT_DIM
  6
Continuous
370
    -2
100
AcDbLine
 10
87.08494394283201
 20
536.6863004857854
 30
0.0
 11
108.1682772761653
 21
536.6863004857854
 31
0.0
  0
LINE
  5
AC62
330
AAF8
100
AcDbEntity
  8
11100_LEFT_DIM
  6
Continuous
370
    -2
100
AcDbLine
 10
138.084943942832
 20
536.6863004857854
 30
0.0
 11
117.0016106094986
 21
536.6863004857854
 31
0.0
  0
SOLID
  5
AC63
330
AAF8
100
AcDbEntity
  8
11100_LEFT_DIM
  6
Continuous
100
AcDbTrace
 10
87.08494394283201
 20
537.2696338191189
 30
0.0
 11
87.08494394283201
 21
536.102967152452
 31
0.0
 12
83.58494394283201
 22
536.6863004857854
 32
0.0
 13
83.58494394283201
 23
536.6863004857854
 33
0.0
  0
SOLID
  5
AC64
330
AAF8
100
AcDbEntity
  8
11100_LEFT_DIM
  6
Continuous
100
AcDbTrace
 10
138.084943942832
 20
537.2696338191189
 30
0.0
 11
138.084943942832
 21
536.102967152452
 31
0.0
 12
141.584943942832
 22
536.6863004857854
 32
0.0
 13
141.584943942832
 23
536.6863004857854
 33
0.0
  0
MTEXT
  5
AC65
330
AAF8
100
AcDbEntity
  8
11100_LEFT_DIM
  6
Continuous
 62
     7
370
    13
100
AcDbMText
 10
112.584943942832
 20
536.6863004857854
 30
0.0
 40
3.5
 41
0.0
 71
     5
 72
     1
  1
\A1;58
 73
     1
 44
1.0
1001
ACAD
1000
MTEXTBEGIN
1070
    73
1070
     1
1070
    44
1040
1.0
1070
    74
1070
     0
1000
MTEXTEND
  0
POINT
  5
AC66
330
AAF8
100
AcDbEntity
  8
Defpoints
  6
Continuous
 62
     0
100
AcDbPoint
 10
83.58494394283201
 20
501.769999044124
 30
0.0
  0
POINT
  5
AC67
330
AAF8
100
AcDbEntity
  8
Defpoints
  6
Continuous
 62
     0
100
AcDbPoint
 10
141.584943942832
 20
500.069999044124
 30
0.0
  0
POINT
  5
AC68
330
AAF8
100
AcDbEntity
  8
Defpoints
  6
Continuous
 62
     0
100
AcDbPoint
 10
141.584943942832
 20
536.6863004857854
 30
0.0
  0
ENDBLK
  5
AB03
330
AAF8
100
AcDbEntity
  8
0
100
AcDbBlockEnd
  0
BLOCK
  5
AB11
330
AB05
100
AcDbEntity
  8
0
100
AcDbBlockBegin
  2
*D11
 70
     1
 10
0.0
 20
0.0
 30
0.0
  3
*D11
  1

  0
LINE
  5
AC56
330
AB05
100
AcDbEntity
  8
11100_LEFT_DIM
  6
Continuous
 62
     7
370
    -2
100
AcDbLine
 10
83.58494394283201
 20
501.769999044124
 30
0.0
 11
83.58494394283201
 21
538.6863004857855
 31
0.0
  0
LINE
  5
AC57
330
AB05
100
AcDbEntity
  8
11100_LEFT_DIM
  6
Continuous
 62
     7
370
    -2
100
AcDbLine
 10
78.58494394283201
 20
518.2699990441241
 30
0.0
 11
78.58494394283201
 21
538.6863004857855
 31
0.0
  0
LINE
  5
AC58
330
AB05
100
AcDbEntity
  8
11100_LEFT_DIM
  6
Continuous
370
    -2
100
AcDbLine
 10
71.58494394283201
 20
536.6863004857854
 30
0.0
 11
75.08494394283201
 21
536.6863004857854
 31
0.0
  0
LINE
  5
AC59
330
AB05
100
AcDbEntity
  8
11100_LEFT_DIM
  6
Continuous
370
    -2
100
AcDbLine
 10
78.58494394283201
 20
536.6863004857854
 30
0.0
 11
71.58494394283201
 21
536.6863004857854
 31
0.0
  0
MTEXT
  5
AC5A
330
AB05
100
AcDbEntity
  8
11100_LEFT_DIM
  6
Continuous
 62
     7
370
    13
100
AcDbMText
 10
81.08494394283201
 20
536.6863004857854
 30
0.0
 40
3.5
 41
0.0
 71
     5
 72
     1
  1
\A1;5
 73
     1
 44
1.0
1001
ACAD
1000
MTEXTBEGIN
1070
    73
1070
     1
1070
    44
1040
1.0
1070
    74
1070
     0
1000
MTEXTEND
  0
SOLID
  5
AC5B
330
AB05
100
AcDbEntity
  8
11100_LEFT_DIM
  6
Continuous
100
AcDbTrace
 10
75.08494394283201
 20
537.2696338191189
 30
0.0
 11
75.08494394283201
 21
536.102967152452
 31
0.0
 12
78.58494394283201
 22
536.6863004857854
 32
0.0
 13
78.58494394283201
 23
536.6863004857854
 33
0.0
  0
POINT
  5
AC5C
330
AB05
100
AcDbEntity
  8
Defpoints
  6
Continuous
 62
     0
100
AcDbPoint
 10
83.58494394283201
 20
501.769999044124
 30
0.0
  0
POINT
  5
AC5D
330
AB05
100
AcDbEntity
  8
Defpoints
  6
Continuous
 62
     0
100
AcDbPoint
 10
78.58494394283201
 20
518.2699990441241
 30
0.0
  0
POINT
  5
AC5E
330
AB05
100
AcDbEntity
  8
Defpoints
  6
Continuous
 62
     0
100
AcDbPoint
 10
78.58494394283201
 20
536.6863004857854
 30
0.0
  0
ENDBLK
  5
AB12
330
AB05
100
AcDbEntity
  8
0
100
AcDbBlockEnd
  0
BLOCK
  5
AB27
330
AB1D
100
AcDbEntity
  8
0
100
AcDbBlockBegin
  2
*D12
 70
     1
 10
0.0
 20
0.0
 30
0.0
  3
*D12
  1

  0
LINE
  5
AC4C
330
AB1D
100
AcDbEntity
  8
11100_LEFT_DIM
  6
Continuous
 62
     7
370
    -2
100
AcDbLine
 10
90.59494394283198
 20
528.2799990441239
 30
0.0
 11
66.96825355630379
 21
528.2799990441239
 31
0.0
  0
LINE
  5
AC4D
330
AB1D
100
AcDbEntity
  8
11100_LEFT_DIM
  6
Continuous
 62
     7
370
    -2
100
AcDbLine
 10
66.46388997901635
 20
484.2699990441241
 30
0.0
 11
70.96825355630379
 21
484.2699990441241
 31
0.0
  0
LINE
  5
AC4E
330
AB1D
100
AcDbEntity
  8
11100_LEFT_DIM
  6
Continuous
370
    -2
100
AcDbLine
 10
68.9682535563038
 20
524.7799990441238
 30
0.0
 11
68.9682535563038
 21
510.6916657107906
 31
0.0
  0
LINE
  5
AC4F
330
AB1D
100
AcDbEntity
  8
11100_LEFT_DIM
  6
Continuous
370
    -2
100
AcDbLine
 10
68.9682535563038
 20
487.7699990441241
 30
0.0
 11
68.9682535563038
 21
501.8583323774572
 31
0.0
  0
SOLID
  5
AC50
330
AB1D
100
AcDbEntity
  8
11100_LEFT_DIM
  6
Continuous
100
AcDbTrace
 10
68.38492022297045
 20
524.7799990441238
 30
0.0
 11
69.55158688963712
 21
524.7799990441238
 31
0.0
 12
68.9682535563038
 22
528.2799990441239
 32
0.0
 13
68.9682535563038
 23
528.2799990441239
 33
0.0
  0
SOLID
  5
AC51
330
AB1D
100
AcDbEntity
  8
11100_LEFT_DIM
  6
Continuous
100
AcDbTrace
 10
68.38492022297045
 20
487.7699990441241
 30
0.0
 11
69.55158688963712
 21
487.7699990441241
 31
0.0
 12
68.9682535563038
 22
484.2699990441241
 32
0.0
 13
68.9682535563038
 23
484.2699990441241
 33
0.0
  0
MTEXT
  5
AC52
330
AB1D
100
AcDbEntity
  8
11100_LEFT_DIM
  6
Continuous
 62
     7
370
    13
100
AcDbMText
 10
68.96825355630371
 20
506.274999044124
 30
0.0
 40
3.5
 41
0.0
 71
     5
 72
     1
  1
\A1;44
 11
0.0000000000000001
 21
1.0
 31
0.0
 73
     1
 44
1.0
1001
ACAD
1000
MTEXTBEGIN
1070
    73
1070
     1
1070
    44
1040
1.0
1070
    74
1070
     0
1000
MTEXTEND
  0
POINT
  5
AC53
330
AB1D
100
AcDbEntity
  8
Defpoints
  6
Continuous
 62
     0
100
AcDbPoint
 10
90.59494394283198
 20
528.2799990441239
 30
0.0
  0
POINT
  5
AC54
330
AB1D
100
AcDbEntity
  8
Defpoints
  6
Continuous
 62
     0
100
AcDbPoint
 10
66.46388997901635
 20
484.2699990441241
 30
0.0
  0
POINT
  5
AC55
330
AB1D
100
AcDbEntity
  8
Defpoints
  6
Continuous
 62
     0
100
AcDbPoint
 10
68.9682535563038
 20
484.2699990441241
 30
0.0
  0
ENDBLK
  5
AB28
330
AB1D
100
AcDbEntity
  8
0
100
AcDbBlockEnd
  0
BLOCK
  5
AB34
330
AB2A
100
AcDbEntity
  8
0
100
AcDbBlockBegin
  2
*D13
 70
     1
 10
0.0
 20
0.0
 30
0.0
  3
*D13
  1

  0
LINE
  5
AC42
330
AB2A
100
AcDbEntity
  8
11100_LEFT_DIM
  6
Continuous
 62
     7
370
    -2
100
AcDbLine
 10
94.22794394283206
 20
511.7769990441241
 30
0.0
 11
58.75836099544109
 21
511.7769990441241
 31
0.0
  0
LINE
  5
AC43
330
AB2A
100
AcDbEntity
  8
11100_LEFT_DIM
  6
Continuous
 62
     7
370
    -2
100
AcDbLine
 10
94.58494394283199
 20
456.769999044124
 30
0.0
 11
58.75836099544107
 21
456.769999044124
 31
0.0
  0
LINE
  5
AC44
330
AB2A
100
AcDbEntity
  8
11100_LEFT_DIM
  6
Continuous
370
    -2
100
AcDbLine
 10
60.75836099544107
 20
508.2769990441241
 30
0.0
 11
60.75836099544107
 21
488.6901657107907
 31
0.0
  0
LINE
  5
AC45
330
AB2A
100
AcDbEntity
  8
11100_LEFT_DIM
  6
Continuous
370
    -2
100
AcDbLine
 10
60.75836099544107
 20
460.269999044124
 30
0.0
 11
60.75836099544107
 21
479.8568323774571
 31
0.0
  0
SOLID
  5
AC46
330
AB2A
100
AcDbEntity
  8
11100_LEFT_DIM
  6
Continuous
100
AcDbTrace
 10
60.17502766210775
 20
508.2769990441241
 30
0.0
 11
61.34169432877442
 21
508.2769990441241
 31
0.0
 12
60.75836099544107
 22
511.7769990441241
 32
0.0
 13
60.75836099544107
 23
511.7769990441241
 33
0.0
  0
SOLID
  5
AC47
330
AB2A
100
AcDbEntity
  8
11100_LEFT_DIM
  6
Continuous
100
AcDbTrace
 10
60.17502766210775
 20
460.269999044124
 30
0.0
 11
61.34169432877439
 21
460.269999044124
 31
0.0
 12
60.75836099544107
 22
456.769999044124
 32
0.0
 13
60.75836099544107
 23
456.769999044124
 33
0.0
  0
MTEXT
  5
AC48
330
AB2A
100
AcDbEntity
  8
11100_LEFT_DIM
  6
Continuous
 62
     7
370
    13
100
AcDbMText
 10
60.75836099544098
 20
484.2734990441242
 30
0.0
 40
3.5
 41
0.0
 71
     5
 72
     1
  1
\A1;55
 11
0.0000000000000001
 21
1.0
 31
0.0
 73
     1
 44
1.0
1001
ACAD
1000
MTEXTBEGIN
1070
    73
1070
     1
1070
    44
1040
1.0
1070
    74
1070
     0
1000
MTEXTEND
  0
POINT
  5
AC49
330
AB2A
100
AcDbEntity
  8
Defpoints
  6
Continuous
 62
     0
100
AcDbPoint
 10
94.22794394283206
 20
511.7769990441241
 30
0.0
  0
POINT
  5
AC4A
330
AB2A
100
AcDbEntity
  8
Defpoints
  6
Continuous
 62
     0
100
AcDbPoint
 10
94.58494394283199
 20
456.769999044124
 30
0.0
  0
POINT
  5
AC4B
330
AB2A
100
AcDbEntity
  8
Defpoints
  6
Continuous
 62
     0
100
AcDbPoint
 10
60.75836099544107
 20
456.769999044124
 30
0.0
  0
ENDBLK
  5
AB35
330
AB2A
100
AcDbEntity
  8
0
100
AcDbBlockEnd
  0
BLOCK
  5
ABB1
330
ABA7
100
AcDbEntity
  8
0
100
AcDbBlockBegin
  2
*D14
 70
     1
 10
0.0
 20
0.0
 30
0.0
  3
*D14
  1

  0
LINE
  5
AC38
330
ABA7
100
AcDbEntity
  8
10100_FRONT_DIM
  6
Continuous
 62
     7
370
    -2
100
AcDbLine
 10
22.33077989286483
 20
454.2699990441241
 30
0.0
 11
22.33077989286483
 21
437.2809814769214
 31
0.0
  0
LINE
  5
AC39
330
ABA7
100
AcDbEntity
  8
10100_FRONT_DIM
  6
Continuous
 62
     7
370
    -2
100
AcDbLine
 10
-43.66922010713517
 20
454.2699990441241
 30
0.0
 11
-43.66922010713517
 21
437.2809814769214
 31
0.0
  0
LINE
  5
AC3A
330
ABA7
100
AcDbEntity
  8
10100_FRONT_DIM
  6
Continuous
370
    -2
100
AcDbLine
 10
18.83077989286483
 20
439.2809814769214
 30
0.0
 11
-6.252553440468504
 21
439.2809814769214
 31
0.0
  0
LINE
  5
AC3B
330
ABA7
100
AcDbEntity
  8
10100_FRONT_DIM
  6
Continuous
370
    -2
100
AcDbLine
 10
-40.16922010713517
 20
439.2809814769214
 30
0.0
 11
-15.08588677380184
 21
439.2809814769214
 31
0.0
  0
SOLID
  5
AC3C
330
ABA7
100
AcDbEntity
  8
10100_FRONT_DIM
  6
Continuous
100
AcDbTrace
 10
18.83077989286483
 20
439.8643148102546
 30
0.0
 11
18.83077989286483
 21
438.6976481435881
 31
0.0
 12
22.33077989286483
 22
439.2809814769214
 32
0.0
 13
22.33077989286483
 23
439.2809814769214
 33
0.0
  0
SOLID
  5
AC3D
330
ABA7
100
AcDbEntity
  8
10100_FRONT_DIM
  6
Continuous
100
AcDbTrace
 10
-40.16922010713517
 20
439.8643148102546
 30
0.0
 11
-40.16922010713517
 21
438.6976481435881
 31
0.0
 12
-43.66922010713517
 22
439.2809814769214
 32
0.0
 13
-43.66922010713517
 23
439.2809814769214
 33
0.0
  0
MTEXT
  5
AC3E
330
ABA7
100
AcDbEntity
  8
10100_FRONT_DIM
  6
Continuous
 62
     7
370
    13
100
AcDbMText
 10
-10.66922010713517
 20
439.2809814769214
 30
0.0
 40
3.5
 41
0.0
 71
     5
 72
     1
  1
\A1;66
 73
     1
 44
1.0
1001
ACAD
1000
MTEXTBEGIN
1070
    73
1070
     1
1070
    44
1040
1.0
1070
    74
1070
     0
1000
MTEXTEND
  0
POINT
  5
AC3F
330
ABA7
100
AcDbEntity
  8
Defpoints
  6
Continuous
 62
     0
100
AcDbPoint
 10
22.33077989286483
 20
454.2699990441241
 30
0.0
  0
POINT
  5
AC40
330
ABA7
100
AcDbEntity
  8
Defpoints
  6
Continuous
 62
     0
100
AcDbPoint
 10
-43.66922010713517
 20
454.2699990441241
 30
0.0
  0
POINT
  5
AC41
330
ABA7
100
AcDbEntity
  8
Defpoints
  6
Continuous
 62
     0
100
AcDbPoint
 10
-43.66922010713517
 20
439.2809814769214
 30
0.0
  0
ENDBLK
  5
ABB2
330
ABA7
100
AcDbEntity
  8
0
100
AcDbBlockEnd
  0
BLOCK
  5
ABBE
330
ABB4
100
AcDbEntity
  8
0
100
AcDbBlockBegin
  2
*D15
 70
     1
 10
0.0
 20
0.0
 30
0.0
  3
*D15
  1

  0
LINE
  5
AC2E
330
ABB4
100
AcDbEntity
  8
10100_FRONT_DIM
  6
Continuous
 62
     7
370
    -2
100
AcDbLine
 10
-40.66922010713517
 20
451.2699990441241
 30
0.0
 11
-57.16946200328926
 21
451.2699990441241
 31
0.0
  0
LINE
  5
AC2F
330
ABB4
100
AcDbEntity
  8
10100_FRONT_DIM
  6
Continuous
 62
     7
370
    -2
100
AcDbLine
 10
-40.66922010713517
 20
517.2699990441241
 30
0.0
 11
-57.16946200328925
 21
517.2699990441241
 31
0.0
  0
LINE
  5
AC30
330
ABB4
100
AcDbEntity
  8
10100_FRONT_DIM
  6
Continuous
370
    -2
100
AcDbLine
 10
-55.16946200328927
 20
454.7699990441241
 30
0.0
 11
-55.16946200328926
 21
479.8533323774574
 31
0.0
  0
LINE
  5
AC31
330
ABB4
100
AcDbEntity
  8
10100_FRONT_DIM
  6
Continuous
370
    -2
100
AcDbLine
 10
-55.16946200328925
 20
513.7699990441241
 30
0.0
 11
-55.16946200328926
 21
488.6866657107908
 31
0.0
  0
SOLID
  5
AC32
330
ABB4
100
AcDbEntity
  8
10100_FRONT_DIM
  6
Continuous
100
AcDbTrace
 10
-55.75279533662261
 20
454.7699990441241
 30
0.0
 11
-54.58612866995594
 21
454.7699990441241
 31
0.0
 12
-55.16946200328927
 22
451.2699990441241
 32
0.0
 13
-55.16946200328927
 23
451.2699990441241
 33
0.0
  0
SOLID
  5
AC33
330
ABB4
100
AcDbEntity
  8
10100_FRONT_DIM
  6
Continuous
100
AcDbTrace
 10
-55.75279533662259
 20
513.7699990441241
 30
0.0
 11
-54.58612866995592
 21
513.7699990441241
 31
0.0
 12
-55.16946200328925
 22
517.2699990441241
 32
0.0
 13
-55.16946200328925
 23
517.2699990441241
 33
0.0
  0
MTEXT
  5
AC34
330
ABB4
100
AcDbEntity
  8
10100_FRONT_DIM
  6
Continuous
 62
     7
370
    13
100
AcDbMText
 10
-55.16946200328934
 20
484.2699990441241
 30
0.0
 40
3.5
 41
0.0
 71
     5
 72
     1
  1
\A1;66
 11
0.0000000000000001
 21
1.0
 31
0.0
 73
     1
 44
1.0
1001
ACAD
1000
MTEXTBEGIN
1070
    73
1070
     1
1070
    44
1040
1.0
1070
    74
1070
     0
1000
MTEXTEND
  0
POINT
  5
AC35
330
ABB4
100
AcDbEntity
  8
Defpoints
  6
Continuous
 62
     0
100
AcDbPoint
 10
-40.66922010713517
 20
451.2699990441241
 30
0.0
  0
POINT
  5
AC36
330
ABB4
100
AcDbEntity
  8
Defpoints
  6
Continuous
 62
     0
100
AcDbPoint
 10
-40.66922010713517
 20
517.2699990441241
 30
0.0
  0
POINT
  5
AC37
330
ABB4
100
AcDbEntity
  8
Defpoints
  6
Continuous
 62
     0
100
AcDbPoint
 10
-55.16946200328925
 20
517.2699990441241
 30
0.0
  0
ENDBLK
  5
ABBF
330
ABB4
100
AcDbEntity
  8
0
100
AcDbBlockEnd
  0
BLOCK
  5
AC03
330
ABF9
100
AcDbEntity
  8
0
100
AcDbBlockBegin
  2
*D16
 70
     1
 10
0.0
 20
0.0
 30
0.0
  3
*D16
  1

  0
LINE
  5
AC25
330
ABF9
100
AcDbEntity
  8
14100_Bottom_Dim
  6
Continuous
 62
     7
370
    -2
100
AcDbLine
 10
-33.47336159030067
 20
402.6951092577546
 30
0.0
 11
-33.47336159030067
 21
415.232596660304
 31
0.0
  0
LINE
  5
AC26
330
ABF9
100
AcDbEntity
  8
14100_Bottom_Dim
  6
Continuous
 62
     7
370
    -2
100
AcDbLine
 10
11.92663840969931
 20
402.6951092577546
 30
0.0
 11
11.92663840969931
 21
415.232596660304
 31
0.0
  0
LINE
  5
AC27
330
ABF9
100
AcDbEntity
  8
14100_Bottom_Dim
  6
Continuous
370
    -2
100
AcDbLine
 10
-29.97336159030067
 20
413.232596660304
 30
0.0
 11
8.426638409699313
 21
413.232596660304
 31
0.0
  0
SOLID
  5
AC28
330
ABF9
100
AcDbEntity
  8
14100_Bottom_Dim
  6
Continuous
100
AcDbTrace
 10
-29.97336159030067
 20
413.8159299936373
 30
0.0
 11
-29.97336159030067
 21
412.6492633269704
 31
0.0
 12
-33.47336159030067
 22
413.232596660304
 32
0.0
 13
-33.47336159030067
 23
413.232596660304
 33
0.0
  0
SOLID
  5
AC29
330
ABF9
100
AcDbEntity
  8
14100_Bottom_Dim
  6
Continuous
100
AcDbTrace
 10
8.426638409699313
 20
413.8159299936373
 30
0.0
 11
8.426638409699313
 21
412.6492633269704
 31
0.0
 12
11.92663840969931
 22
413.232596660304
 32
0.0
 13
11.92663840969931
 23
413.232596660304
 33
0.0
  0
MTEXT
  5
AC2A
330
ABF9
100
AcDbEntity
  8
14100_Bottom_Dim
  6
Continuous
 62
     7
370
    13
100
AcDbMText
 10
-10.77336159030068
 20
415.482596660304
 30
0.0
 40
3.5
 41
0.0
 71
     5
 72
     1
  1
\A1;45
 73
     1
 44
1.0
1001
ACAD
1000
MTEXTBEGIN
1070
    73
1070
     1
1070
    44
1040
1.0
1070
    74
1070
     0
1000
MTEXTEND
  0
POINT
  5
AC2B
330
ABF9
100
AcDbEntity
  8
Defpoints
  6
Continuous
 62
     0
100
AcDbPoint
 10
-33.47336159030067
 20
402.6951092577546
 30
0.0
  0
POINT
  5
AC2C
330
ABF9
100
AcDbEntity
  8
Defpoints
  6
Continuous
 62
     0
100
AcDbPoint
 10
11.92663840969931
 20
402.6951092577546
 30
0.0
  0
POINT
  5
AC2D
330
ABF9
100
AcDbEntity
  8
Defpoints
  6
Continuous
 62
     0
100
AcDbPoint
 10
11.92663840969931
 20
413.232596660304
 30
0.0
  0
ENDBLK
  5
AC04
330
ABF9
100
AcDbEntity
  8
0
100
AcDbBlockEnd
  0
ENDSEC
  0
SECTION
  2
ENTITIES
  0
TEXT
  5
8CAC
330
20
100
AcDbEntity
  8
91000_TIP
  6
Continuous
 62
     7
100
AcDbText
 10
-66.55123359502733
 20
297.5317263287093
 30
0.0
 40
2.5
  1
Alle Bemassungswerte sind in Millimeter (mm) angegeben.
 41
0.6056311217924565
 72
     5
 11
7.133886223054927
 21
297.5317263287093
 31
0.0
100
AcDbText
  0
TEXT
  5
8CAD
330
20
100
AcDbEntity
  8
91000_TIP
  6
Continuous
 62
     7
100
AcDbText
 10
-66.55123359502733
 20
292.2817263287094
 30
0.0
 40
2.5
  1
All dimensions are in millimeters (mm).
 41
0.7513350295680265
 72
     5
 11
-6.444431229585262
 21
292.2817263287094
 31
0.0
100
AcDbText
  0
LINE
  5
8CAE
330
20
100
AcDbEntity
  8
90000_FRAME
  6
Continuous
 62
     7
100
AcDbLine
 10
329.3954166223081
 20
298.7994897070328
 30
0.0
 11
329.3954166223081
 21
316.7994897070327
 31
0.0
  0
LINE
  5
8CB1
330
20
100
AcDbEntity
  8
90000_FRAME
  6
Continuous
 62
     7
100
AcDbLine
 10
-70.60458337769119
 20
288.7994897070327
 30
0.0
 11
339.3954166223088
 21
288.7994897070327
 31
0.0
  0
LINE
  5
8CB2
330
20
100
AcDbEntity
  8
90000_FRAME
  6
Continuous
 62
     7
100
AcDbLine
 10
339.3954166223088
 20
288.7994897070327
 30
0.0
 11
339.3954166223088
 21
558.7994897070326
 31
0.0
  0
TEXT
  5
8CB3
330
20
100
AcDbEntity
  8
90000_FRAME
  6
Continuous
 62
     7
100
AcDbText
 10
257.7013411462589
 20
309.0494897070328
 30
0.0
 40
3.5
  1
3LD2144_00000277_000_ALL.dxf
 41
0.6305884220208601
 72
     5
 11
313.6135145654419
 21
309.0494897070328
 31
0.0
100
AcDbText
  0
CIRCLE
  5
8CB4
330
20
100
AcDbEntity
  8
91000_TIP
  6
Continuous
 62
     7
100
AcDbCircle
 10
185.710086389334
 20
307.6232272805033
 30
0.0
 40
2.499999948899997
  0
CIRCLE
  5
8CB5
330
20
100
AcDbEntity
  8
91000_TIP
  6
Continuous
 62
     7
100
AcDbCircle
 10
185.710086389334
 20
307.6232272805033
 30
0.0
 40
4.9999998979
  0
LINE
  5
8CB6
330
20
100
AcDbEntity
  8
91000_TIP
  6
CENTER
 62
     7
100
AcDbLine
 10
185.710086389334
 20
301.9017460741033
 30
0.0
 11
185.710086389334
 21
313.1851320741033
 31
0.0
  0
LINE
  5
8CB7
330
20
100
AcDbEntity
  8
91000_TIP
  6
Continuous
 62
     7
100
AcDbLine
 10
179.2100865221341
 20
312.6232271784033
 30
0.0
 11
179.2100865221341
 21
302.6232273826032
 31
0.0
  0
LINE
  5
8CB8
330
20
100
AcDbEntity
  8
91000_TIP
  6
Continuous
 62
     7
100
AcDbLine
 10
169.210086726334
 20
310.1232272294034
 30
0.0
 11
169.210086726334
 21
305.1232273316033
 31
0.0
  0
LINE
  5
8CB9
330
20
100
AcDbEntity
  8
91000_TIP
  6
Continuous
 62
     7
100
AcDbLine
 10
169.210086726334
 20
305.1232273316033
 30
0.0
 11
179.2100865221341
 21
302.6232273826032
 31
0.0
  0
LINE
  5
8CBA
330
20
100
AcDbEntity
  8
91000_TIP
  6
CENTER
 62
     7
100
AcDbLine
 10
167.930576254333
 20
307.6232272805033
 30
0.0
 11
191.532565518433
 21
307.6232272805033
 31
0.0
  0
LINE
  5
8CBB
330
20
100
AcDbEntity
  8
91000_TIP
  6
Continuous
 62
     7
100
AcDbLine
 10
169.210086726334
 20
310.1232272294034
 30
0.0
 11
179.2100865221341
 21
312.6232271784033
 31
0.0
  0
TEXT
  5
8CBC
330
20
100
AcDbEntity
  8
90000_FRAME
  6
Continuous
 62
     7
100
AcDbText
 10
287.5554166223082
 20
300.6994897070327
 30
0.0
 40
2.2
  1
Massstab / Scale: 1:1
 41
0.7732634338148463
 72
     5
 11
318.4601785271082
 21
300.6994897070327
 31
0.0
100
AcDbText
  0
TEXT
  5
8CBD
330
20
100
AcDbEntity
  8
90000_FRAME
  6
Continuous
 62
     7
100
AcDbText
 10
245.0554166223081
 20
300.6994897070327
 30
0.0
 40
2.2
  1
Format / Size: DIN A3
 41
0.7994987468660263
 72
     5
 11
278.474464241308
 21
300.6994897070327
 31
0.0
100
AcDbText
  0
LINE
  5
8CBE
330
20
100
AcDbEntity
  8
90000_FRAME
  6
Continuous
 62
     7
100
AcDbLine
 10
329.3954166223081
 20
298.7994897070328
 30
0.0
 11
329.3954166223081
 21
316.7994897070327
 31
0.0
  0
LINE
  5
8CBF
330
20
100
AcDbEntity
  8
90000_FRAME
  6
Continuous
 62
     7
100
AcDbLine
 10
286.8954166223081
 20
298.7994897070328
 30
0.0
 11
286.8954166223081
 21
304.7994897070328
 31
0.0
  0
LINE
  5
8CC0
330
20
100
AcDbEntity
  8
90000_FRAME
  6
Continuous
 62
     7
100
AcDbLine
 10
244.3954166223081
 20
298.7994897070328
 30
0.0
 11
244.3954166223081
 21
316.7994897070327
 31
0.0
  0
LINE
  5
8CC1
330
20
100
AcDbEntity
  8
90000_FRAME
  6
Continuous
 62
     7
100
AcDbLine
 10
194.395416622308
 20
316.7994897070327
 30
0.0
 11
329.3954166223081
 21
316.7994897070327
 31
0.0
  0
LINE
  5
8CC2
330
20
100
AcDbEntity
  8
90000_FRAME
  6
Continuous
 62
     7
100
AcDbLine
 10
244.3954166223081
 20
304.7994897070328
 30
0.0
 11
329.3954166223081
 21
304.7994897070328
 31
0.0
  0
LINE
  5
8CC3
330
20
100
AcDbEntity
  8
90000_FRAME
  6
Continuous
 62
     7
100
AcDbLine
 10
194.395416622308
 20
298.7994897070328
 30
0.0
 11
194.395416622308
 21
316.7994897070327
 31
0.0
  0
LINE
  5
8CC4
330
20
100
AcDbEntity
  8
90000_FRAME
  6
Continuous
 62
     7
100
AcDbLine
 10
194.395416622308
 20
298.7994897070328
 30
0.0
 11
329.3954166223081
 21
298.7994897070328
 31
0.0
  0
INSERT
  5
8CC5
330
20
100
AcDbEntity
  8
90000_FRAME
  6
Continuous
 62
     7
100
AcDbBlockReference
  2
SIEMENS_OUTLINE_BL0
 10
-80.60458337769194
 20
288.7994897070327
 30
0.0
  0
LINE
  5
A24B
330
20
100
AcDbEntity
  8
90000_FRAME
  6
Continuous
 62
     7
100
AcDbLine
 10
-70.60458337769119
 20
288.7994897070327
 30
0.0
 11
-70.60458337769119
 21
558.7994897070326
 31
0.0
  0
LINE
  5
A24C
330
20
100
AcDbEntity
  8
90000_FRAME
  6
Continuous
 62
     7
100
AcDbLine
 10
-70.60458337769119
 20
558.7994897070326
 30
0.0
 11
339.3954166223088
 21
558.7994897070326
 31
0.0
  0
ARC
  5
A682
330
20
100
AcDbEntity
  8
30000_Drilling
 62
     7
370
    50
100
AcDbCircle
 39
0.25
 10
157.1453819170175
 20
328.6581092577546
 30
0.0
 40
2.25
100
AcDbArc
 50
0.0
 51
180.0
1001
AUSTER_FOLIE
1002
{
1000
ZENTRA_2144_BO_M_LB_DREH
1002
}
1001
AUSTER_ANSICHT
1002
{
1000
Det01
1002
}
  0
ARC
  5
A683
330
20
100
AcDbEntity
  8
30000_Drilling
 62
     7
370
    50
100
AcDbCircle
 39
0.25
 10
157.1453819170175
 20
328.6581092577546
 30
0.0
 40
2.25
100
AcDbArc
 50
180.0
 51
0.0
1001
AUSTER_FOLIE
1002
{
1000
ZENTRA_2144_BO_M_LB_DREH
1002
}
1001
AUSTER_ANSICHT
1002
{
1000
Det01
1002
}
  0
TEXT
  5
A684
330
20
100
AcDbEntity
  8
30000_Drilling
  6
Continuous
 62
     7
370
    13
100
AcDbText
 10
119.1223819170175
 20
415.6501092577546
 30
0.0
 40
5.0
  1
Bohrbild
100
AcDbText
1001
AUSTER_FOLIE
1002
{
1000
ZENTRA_2144_BO_M_LB_DREH
1002
}
1001
AUSTER_ANSICHT
1002
{
1000
Det01
1002
}
  0
TEXT
  5
A685
330
20
100
AcDbEntity
  8
30000_Drilling
  6
Continuous
 62
     7
370
    13
100
AcDbText
 10
119.1223819170175
 20
406.9781092577545
 30
0.0
 40
5.0
  1
Boden
100
AcDbText
1001
AUSTER_FOLIE
1002
{
1000
ZENTRA_2144_BO_M_LB_DREH
1002
}
1001
AUSTER_ANSICHT
1002
{
1000
Det01
1002
}
  0
ARC
  5
A688
330
20
100
AcDbEntity
  8
30000_Drilling
 62
     7
370
    50
100
AcDbCircle
 39
0.25
 10
135.1453819170175
 20
388.6581092577543
 30
0.0
 40
2.25
100
AcDbArc
 50
180.0
 51
0.0
1001
AUSTER_FOLIE
1002
{
1000
ZENTRA_2144_BO_M_LB_DREH
1002
}
1001
AUSTER_ANSICHT
1002
{
1000
Det01
1002
}
  0
ARC
  5
A689
330
20
100
AcDbEntity
  8
30000_Drilling
 62
     7
370
    50
100
AcDbCircle
 39
0.25
 10
135.1453819170175
 20
388.6581092577543
 30
0.0
 40
2.25
100
AcDbArc
 50
0.0
 51
180.0
1001
AUSTER_FOLIE
1002
{
1000
ZENTRA_2144_BO_M_LB_DREH
1002
}
1001
AUSTER_ANSICHT
1002
{
1000
Det01
1002
}
  0
LINE
  5
A69C
330
20
100
AcDbEntity
  8
30000_Drilling
 62
     7
370
    50
100
AcDbLine
 39
0.25
 10
77.37438191701745
 20
371.5211092577546
 30
0.0
 11
77.37838191701758
 21
369.8071092577546
 31
0.0
1001
AUSTER_FOLIE
1002
{
1000
ZENTRA_2144_BO_M_LB_DREH
1002
}
1001
AUSTER_ANSICHT
1002
{
1000
Det01
1002
}
  0
TEXT
  5
A69D
330
20
100
AcDbEntity
  8
30000_Drilling
  6
Continuous
 62
     7
370
    13
100
AcDbText
 10
60.43338191701753
 20
405.8181092577545
 30
0.0
 40
5.0
  1
Tuer
100
AcDbText
1001
AUSTER_FOLIE
1002
{
1000
ZENTRA_2144_BO_M_LB_DREH
1002
}
1001
AUSTER_ANSICHT
1002
{
1000
Det01
1002
}
  0
LINE
  5
A6A1
330
20
100
AcDbEntity
  8
30000_Drilling
 62
     7
370
    50
100
AcDbLine
 39
0.25
 10
75.77838191701754
 20
371.5211092577546
 30
0.0
 11
74.18338191701753
 21
371.5211092577546
 31
0.0
1001
AUSTER_FOLIE
1002
{
1000
ZENTRA_2144_BO_M_LB_DREH
1002
}
1001
AUSTER_ANSICHT
1002
{
1000
Det01
1002
}
  0
LINE
  5
A6A7
330
20
100
AcDbEntity
  8
30000_Drilling
 62
     7
370
    50
100
AcDbLine
 39
0.25
 10
74.18338191701753
 20
371.5211092577546
 30
0.0
 11
74.17838191701753
 21
369.8071092577546
 31
0.0
1001
AUSTER_FOLIE
1002
{
1000
ZENTRA_2144_BO_M_LB_DREH
1002
}
1001
AUSTER_ANSICHT
1002
{
1000
Det01
1002
}
  0
ARC
  5
A6AB
330
20
100
AcDbEntity
  8
30000_Drilling
 62
     7
370
    50
100
AcDbCircle
 39
0.25
 10
75.77838191701754
 20
358.6851092577546
 30
0.0
 40
11.236
100
AcDbArc
 50
98.18600000000003
 51
81.81399999999994
1001
AUSTER_FOLIE
1002
{
1000
ZENTRA_2144_BO_M_LB_DREH
1002
}
1001
AUSTER_ANSICHT
1002
{
1000
Det01
1002
}
  0
LINE
  5
A6AC
330
20
100
AcDbEntity
  8
30000_Drilling
 62
     7
370
    50
100
AcDbLine
 39
0.25
 10
75.77838191701754
 20
371.5211092577546
 30
0.0
 11
77.37438191701745
 21
371.5211092577546
 31
0.0
1001
AUSTER_FOLIE
1002
{
1000
ZENTRA_2144_BO_M_LB_DREH
1002
}
1001
AUSTER_ANSICHT
1002
{
1000
Det01
1002
}
  0
TEXT
  5
A6AD
330
20
100
AcDbEntity
  8
30000_Drilling
  6
Continuous
 62
     7
370
    13
100
AcDbText
 10
60.43338191701753
 20
414.1191092577545
 30
0.0
 40
5.0
  1
Bohrbild
100
AcDbText
1001
AUSTER_FOLIE
1002
{
1000
ZENTRA_2144_BO_M_LB_DREH
1002
}
1001
AUSTER_ANSICHT
1002
{
1000
Det01
1002
}
  0
LINE
  5
A6B9
330
20
100
AcDbEntity
  8
14000_Bottom
  6
Continuous
 62
     7
370
    50
100
AcDbLine
 39
0.7
 10
11.92663840969931
 20
402.6951092577546
 30
0.0
 11
9.426638409699306
 21
402.6951092577546
 31
0.0
1001
AUSTER_FOLIE
1002
{
1000
ZENTRA_2144_BO_M_LB_DREH
1002
}
1001
AUSTER_ANSICHT
1002
{
1000
R
1002
}
  0
LINE
  5
A6BA
330
20
100
AcDbEntity
  8
14000_Bottom
  6
Continuous
 62
     7
370
    13
100
AcDbLine
 39
0.7
 10
9.426638409699306
 20
400.6951092577543
 30
0.0
 11
9.926638409699306
 21
400.6951092577543
 31
0.0
1001
AUSTER_FOLIE
1002
{
1000
ZENTRA_2144_BO_M_LB_DREH
1002
}
1001
AUSTER_ANSICHT
1002
{
1000
R
1002
}
  0
LINE
  5
A6BB
330
20
100
AcDbEntity
  8
14000_Bottom
  6
Continuous
 62
     7
370
    13
100
AcDbLine
 39
0.7
 10
9.426638409699306
 20
402.6951092577546
 30
0.0
 11
9.426638409699306
 21
400.6951092577543
 31
0.0
1001
AUSTER_FOLIE
1002
{
1000
ZENTRA_2144_BO_M_LB_DREH
1002
}
1001
AUSTER_ANSICHT
1002
{
1000
R
1002
}
  0
ARC
  5
A6BC
330
20
100
AcDbEntity
  8
14000_Bottom
  6
Continuous
 62
     7
370
    50
100
AcDbCircle
 39
0.7
 10
19.23663840969925
 20
388.5001092577546
 30
0.0
 40
2.99
100
AcDbArc
 50
359.8100000000004
 51
90.18999999999953
1001
AUSTER_FOLIE
1002
{
1000
ZENTRA_2144_BO_M_LB_DREH
1002
}
1001
AUSTER_ANSICHT
1002
{
1000
R
1002
}
  0
LINE
  5
A6BD
330
20
100
AcDbEntity
  8
14000_Bottom
  6
Continuous
 62
     7
370
    13
100
AcDbLine
 39
0.7
 10
13.22663840969926
 20
388.4901092577546
 30
0.0
 11
11.89663840969933
 21
388.4901092577546
 31
0.0
1001
AUSTER_FOLIE
1002
{
1000
ZENTRA_2144_BO_M_LB_DREH
1002
}
1001
AUSTER_ANSICHT
1002
{
1000
R
1002
}
  0
LINE
  5
A6BE
330
20
100
AcDbEntity
  8
14000_Bottom
  6
Continuous
 62
     7
370
    50
100
AcDbLine
 39
0.7
 10
11.88963840969927
 20
391.4901092577543
 30
0.0
 11
19.22663840969926
 21
391.4901092577543
 31
0.0
1001
AUSTER_FOLIE
1002
{
1000
ZENTRA_2144_BO_M_LB_DREH
1002
}
1001
AUSTER_ANSICHT
1002
{
1000
R
1002
}
  0
LINE
  5
A6C0
330
20
100
AcDbEntity
  8
14000_Bottom
  6
Continuous
 62
     7
370
    20
100
AcDbLine
 39
0.7
 10
11.72663840969926
 20
381.6851092577546
 30
0.0
 11
11.72663840969926
 21
382.6851092577546
 31
0.0
1001
AUSTER_FOLIE
1002
{
1000
ZENTRA_2144_BO_M_LB_DREH
1002
}
1001
AUSTER_ANSICHT
1002
{
1000
R
1002
}
  0
LINE
  5
A6C2
330
20
100
AcDbEntity
  8
14000_Bottom
  6
Continuous
 62
     7
370
    20
100
AcDbLine
 39
0.7
 10
11.72663840969926
 20
376.1851092577546
 30
0.0
 11
11.72663840969926
 21
381.6851092577546
 31
0.0
1001
AUSTER_FOLIE
1002
{
1000
ZENTRA_2144_BO_M_LB_DREH
1002
}
1001
AUSTER_ANSICHT
1002
{
1000
R
1002
}
  0
ARC
  5
A6C3
330
20
100
AcDbEntity
  8
14000_Bottom
  6
Continuous
 62
     7
370
    13
100
AcDbCircle
 39
0.7
 10
13.22663840969926
 20
382.4901092577544
 30
0.0
 40
6.0
100
AcDbArc
 50
0.0
 51
90.0
1001
AUSTER_FOLIE
1002
{
1000
ZENTRA_2144_BO_M_LB_DREH
1002
}
1001
AUSTER_ANSICHT
1002
{
1000
R
1002
}
  0
LINE
  5
A6C4
330
20
100
AcDbEntity
  8
14000_Bottom
  6
Continuous
 62
     7
370
    13
100
AcDbLine
 39
0.7
 10
9.926638409699306
 20
400.6951092577543
 30
0.0
 11
9.925638409699217
 21
386.1851092577546
 31
0.0
1001
AUSTER_FOLIE
1002
{
1000
ZENTRA_2144_BO_M_LB_DREH
1002
}
1001
AUSTER_ANSICHT
1002
{
1000
R
1002
}
  0
LINE
  5
A6C5
330
20
100
AcDbEntity
  8
14000_Bottom
  6
Continuous
 62
     7
370
    50
100
AcDbLine
 39
0.7
 10
11.92663840969931
 20
402.6951092577546
 30
0.0
 11
11.92663840969931
 21
391.4901092577543
 31
0.0
1001
AUSTER_FOLIE
1002
{
1000
ZENTRA_2144_BO_M_LB_DREH
1002
}
1001
AUSTER_ANSICHT
1002
{
1000
R
1002
}
  0
LINE
  5
A6C7
330
20
100
AcDbEntity
  8
14000_Bottom
  6
Continuous
 62
     7
370
    13
100
AcDbLine
 39
0.7
 10
11.72663840969926
 20
333.6851092577546
 30
0.0
 11
5.453638409699236
 21
333.6851092577546
 31
0.0
1001
AUSTER_FOLIE
1002
{
1000
ZENTRA_2144_BO_M_LB_DREH
1002
}
1001
AUSTER_ANSICHT
1002
{
1000
R
1002
}
  0
LINE
  5
A6C9
330
20
100
AcDbEntity
  8
14000_Bottom
  6
Continuous
 62
     7
370
    13
100
AcDbLine
 39
0.7
 10
5.453638409699236
 20
333.6851092577546
 30
0.0
 11
5.453638409699236
 21
333.6851092577546
 31
0.0
1001
AUSTER_FOLIE
1002
{
1000
ZENTRA_2144_BO_M_LB_DREH
1002
}
1001
AUSTER_ANSICHT
1002
{
1000
R
1002
}
  0
LINE
  5
A6CA
330
20
100
AcDbEntity
  8
14000_Bottom
  6
Continuous
 62
     7
370
    20
100
AcDbLine
 39
0.7
 10
11.72663840969926
 20
331.1851092577545
 30
0.0
 11
11.72663840969926
 21
333.6851092577546
 31
0.0
1001
AUSTER_FOLIE
1002
{
1000
ZENTRA_2144_BO_M_LB_DREH
1002
}
1001
AUSTER_ANSICHT
1002
{
1000
R
1002
}
  0
LINE
  5
A6CB
330
20
100
AcDbEntity
  8
14000_Bottom
  6
Continuous
 62
     7
370
    20
100
AcDbLine
 39
0.7
 10
11.72663840969926
 20
333.6851092577546
 30
0.0
 11
11.72663840969926
 21
341.1851092577546
 31
0.0
1001
AUSTER_FOLIE
1002
{
1000
ZENTRA_2144_BO_M_LB_DREH
1002
}
1001
AUSTER_ANSICHT
1002
{
1000
R
1002
}
  0
ARC
  5
A6CC
330
20
100
AcDbEntity
  8
14000_Bottom
  6
Continuous
 62
     7
370
    13
100
AcDbCircle
 39
0.7
 10
13.22663840969926
 20
334.4901092577546
 30
0.0
 40
6.0
100
AcDbArc
 50
270.0
 51
0.0
1001
AUSTER_FOLIE
1002
{
1000
ZENTRA_2144_BO_M_LB_DREH
1002
}
1001
AUSTER_ANSICHT
1002
{
1000
R
1002
}
  0
ARC
  5
A6CD
330
20
100
AcDbEntity
  8
14000_Bottom
  6
Continuous
 62
     7
370
    50
100
AcDbCircle
 39
0.7
 10
18.97663840969926
 20
328.3401092577546
 30
0.0
 40
3.258999999999999
100
AcDbArc
 50
274.3950000000032
 51
355.6049999999968
1001
AUSTER_FOLIE
1002
{
1000
ZENTRA_2144_BO_M_LB_DREH
1002
}
1001
AUSTER_ANSICHT
1002
{
1000
R
1002
}
  0
LINE
  5
A6CE
330
20
100
AcDbEntity
  8
14000_Bottom
  6
Continuous
 62
     7
370
    20
100
AcDbLine
 39
0.7
 10
11.72663840969926
 20
341.1851092577546
 30
0.0
 11
11.72663840969926
 21
376.1851092577546
 31
0.0
1001
AUSTER_FOLIE
1002
{
1000
ZENTRA_2144_BO_M_LB_DREH
1002
}
1001
AUSTER_ANSICHT
1002
{
1000
R
1002
}
  0
LINE
  5
A6CF
330
20
100
AcDbEntity
  8
14000_Bottom
  6
Continuous
 62
     7
370
    50
100
AcDbLine
 39
0.7
 10
22.22663840969926
 20
388.4901092577546
 30
0.0
 11
22.22663840969926
 21
328.0901092577547
 31
0.0
1001
AUSTER_FOLIE
1002
{
1000
ZENTRA_2144_BO_M_LB_DREH
1002
}
1001
AUSTER_ANSICHT
1002
{
1000
R
1002
}
  0
LINE
  5
A6D0
330
20
100
AcDbEntity
  8
14000_Bottom
  6
Continuous
 62
     7
370
    13
100
AcDbLine
 39
0.7
 10
19.22663840969926
 20
334.4901092577546
 30
0.0
 11
19.22663840969926
 21
382.4901092577544
 31
0.0
1001
AUSTER_FOLIE
1002
{
1000
ZENTRA_2144_BO_M_LB_DREH
1002
}
1001
AUSTER_ANSICHT
1002
{
1000
R
1002
}
  0
LINE
  5
A6D1
330
20
100
AcDbEntity
  8
14000_Bottom
  6
Continuous
 62
     7
370
    13
100
AcDbLine
 39
0.7
 10
-0.5733615903006922
 20
400.6951092577543
 30
0.0
 11
-0.5733615903006922
 21
402.6951092577546
 31
0.0
1001
AUSTER_FOLIE
1002
{
1000
ZENTRA_2144_BO_M_LB_DREH
1002
}
1001
AUSTER_ANSICHT
1002
{
1000
R
1002
}
  0
LINE
  5
A6D2
330
20
100
AcDbEntity
  8
14000_Bottom
  6
Continuous
 62
     7
370
    13
100
AcDbLine
 39
0.7
 10
-5.573361590300691
 20
402.6951092577546
 30
0.0
 11
-5.573361590300691
 21
400.6951092577543
 31
0.0
1001
AUSTER_FOLIE
1002
{
1000
ZENTRA_2144_BO_M_LB_DREH
1002
}
1001
AUSTER_ANSICHT
1002
{
1000
R
1002
}
  0
LINE
  5
A6D3
330
20
100
AcDbEntity
  8
14000_Bottom
  6
Continuous
 62
     7
370
    50
100
AcDbLine
 39
0.7
 10
-0.5733615903006922
 20
402.6951092577546
 30
0.0
 11
-5.573361590300691
 21
402.6951092577546
 31
0.0
1001
AUSTER_FOLIE
1002
{
1000
ZENTRA_2144_BO_M_LB_DREH
1002
}
1001
AUSTER_ANSICHT
1002
{
1000
R
1002
}
  0
LINE
  5
A6D4
330
20
100
AcDbEntity
  8
14000_Bottom
  6
Continuous
 62
     7
370
    13
100
AcDbLine
 39
0.7
 10
-5.573361590300691
 20
400.6951092577543
 30
0.0
 11
-0.5733615903006922
 21
400.6951092577543
 31
0.0
1001
AUSTER_FOLIE
1002
{
1000
ZENTRA_2144_BO_M_LB_DREH
1002
}
1001
AUSTER_ANSICHT
1002
{
1000
R
1002
}
  0
POINT
  5
A6D5
330
20
100
AcDbEntity
  8
14000_Bottom
  6
Continuous
 62
     7
370
    13
100
AcDbPoint
 10
-20.57336159030069
 20
402.6951092577546
 30
0.0
 39
0.7
1001
AUSTER_FOLIE
1002
{
1000
ZENTRA_2144_BO_M_LB_DREH
1002
}
1001
AUSTER_ANSICHT
1002
{
1000
R
1002
}
  0
LINE
  5
A6D6
330
20
100
AcDbEntity
  8
14000_Bottom
  6
Continuous
 62
     7
370
    50
100
AcDbLine
 39
0.7
 10
-15.57336159030069
 20
402.6951092577546
 30
0.0
 11
-20.57336159030069
 21
402.6951092577546
 31
0.0
1001
AUSTER_FOLIE
1002
{
1000
ZENTRA_2144_BO_M_LB_DREH
1002
}
1001
AUSTER_ANSICHT
1002
{
1000
R
1002
}
  0
LINE
  5
A6D7
330
20
100
AcDbEntity
  8
14000_Bottom
  6
Continuous
 62
     7
370
    13
100
AcDbLine
 39
0.7
 10
-20.57336159030069
 20
400.6951092577543
 30
0.0
 11
-15.57336159030069
 21
400.6951092577543
 31
0.0
1001
AUSTER_FOLIE
1002
{
1000
ZENTRA_2144_BO_M_LB_DREH
1002
}
1001
AUSTER_ANSICHT
1002
{
1000
R
1002
}
  0
LINE
  5
A6D8
330
20
100
AcDbEntity
  8
14000_Bottom
  6
Continuous
 62
     7
370
    13
100
AcDbLine
 39
0.7
 10
-20.57336159030069
 20
402.6951092577546
 30
0.0
 11
-20.57336159030069
 21
400.6951092577543
 31
0.0
1001
AUSTER_FOLIE
1002
{
1000
ZENTRA_2144_BO_M_LB_DREH
1002
}
1001
AUSTER_ANSICHT
1002
{
1000
R
1002
}
  0
LINE
  5
A6D9
330
20
100
AcDbEntity
  8
14000_Bottom
  6
Continuous
 62
     7
370
    13
100
AcDbLine
 39
0.7
 10
-15.57336159030069
 20
400.6951092577543
 30
0.0
 11
-15.57336159030069
 21
402.6951092577546
 31
0.0
1001
AUSTER_FOLIE
1002
{
1000
ZENTRA_2144_BO_M_LB_DREH
1002
}
1001
AUSTER_ANSICHT
1002
{
1000
R
1002
}
  0
LINE
  5
A6DA
330
20
100
AcDbEntity
  8
14000_Bottom
  6
Continuous
 62
     7
370
    50
100
AcDbLine
 39
0.7
 10
-5.573361590300691
 20
402.6951092577546
 30
0.0
 11
-15.57336159030069
 21
402.6951092577546
 31
0.0
1001
AUSTER_FOLIE
1002
{
1000
ZENTRA_2144_BO_M_LB_DREH
1002
}
1001
AUSTER_ANSICHT
1002
{
1000
R
1002
}
  0
LINE
  5
A6DB
330
20
100
AcDbEntity
  8
14000_Bottom
  6
Continuous
 62
     7
370
    13
100
AcDbLine
 39
0.7
 10
-15.57336159030069
 20
400.6951092577543
 30
0.0
 11
-5.573361590300691
 21
400.6951092577543
 31
0.0
1001
AUSTER_FOLIE
1002
{
1000
ZENTRA_2144_BO_M_LB_DREH
1002
}
1001
AUSTER_ANSICHT
1002
{
1000
R
1002
}
  0
LINE
  5
A6DC
330
20
100
AcDbEntity
  8
14000_Bottom
  6
Continuous
 62
     7
370
    13
100
AcDbLine
 39
0.7
 10
-17.60936159030075
 20
391.4901092577543
 30
0.0
 11
-17.60536159030073
 21
391.4901092577543
 31
0.0
1001
AUSTER_FOLIE
1002
{
1000
ZENTRA_2144_BO_M_LB_DREH
1002
}
1001
AUSTER_ANSICHT
1002
{
1000
R
1002
}
  0
ARC
  5
A6DD
330
20
100
AcDbEntity
  8
14000_Bottom
  6
Continuous
 62
     7
370
    13
100
AcDbCircle
 39
0.7
 10
-20.39136159030079
 20
389.6851092577546
 30
0.0
 40
3.0
100
AcDbArc
 50
7.764999999999797
 51
90.0
1001
AUSTER_FOLIE
1002
{
1000
ZENTRA_2144_BO_M_LB_DREH
1002
}
1001
AUSTER_ANSICHT
1002
{
1000
R
1002
}
  0
ARC
  5
A6DE
330
20
100
AcDbEntity
  8
14000_Bottom
  6
Continuous
 62
     7
370
    13
100
AcDbCircle
 39
0.7
 10
-22.65336159030074
 20
389.1121092577546
 30
0.0
 40
3.608
100
AcDbArc
 50
97.97500000000306
 51
164.260000000002
1001
AUSTER_FOLIE
1002
{
1000
ZENTRA_2144_BO_M_LB_DREH
1002
}
1001
AUSTER_ANSICHT
1002
{
1000
R
1002
}
  0
LINE
  5
A6DF
330
20
100
AcDbEntity
  8
14000_Bottom
  6
Continuous
 62
     7
370
    13
100
AcDbLine
 39
0.7
 10
-23.15436159030071
 20
392.6851092577546
 30
0.0
 11
-20.39136159030079
 21
392.6851092577546
 31
0.0
1001
AUSTER_FOLIE
1002
{
1000
ZENTRA_2144_BO_M_LB_DREH
1002
}
1001
AUSTER_ANSICHT
1002
{
1000
R
1002
}
  0
ARC
  5
A6E0
330
20
100
AcDbEntity
  8
14000_Bottom
  6
Continuous
 62
     7
370
    20
100
AcDbCircle
 39
0.7
 10
-21.77336159030074
 20
388.6851092577546
 30
0.0
 40
2.25
100
AcDbArc
 50
180.0
 51
0.0
1001
AUSTER_FOLIE
1002
{
1000
ZENTRA_2144_BO_M_LB_DREH
1002
}
1001
AUSTER_ANSICHT
1002
{
1000
R
1002
}
  0
ARC
  5
A6E1
330
20
100
AcDbEntity
  8
14000_Bottom
  6
Continuous
 62
     7
370
    20
100
AcDbCircle
 39
0.7
 10
-21.77336159030074
 20
388.6851092577546
 30
0.0
 40
2.25
100
AcDbArc
 50
0.0
 51
180.0
1001
AUSTER_FOLIE
1002
{
1000
ZENTRA_2144_BO_M_LB_DREH
1002
}
1001
AUSTER_ANSICHT
1002
{
1000
R
1002
}
  0
LINE
  5
A6E2
330
20
100
AcDbEntity
  8
14000_Bottom
  6
Continuous
 62
     7
370
    13
100
AcDbLine
 39
0.7
 10
-27.27336159030074
 20
381.6851092577546
 30
0.0
 11
-26.12736159030067
 21
390.0911092577544
 31
0.0
1001
AUSTER_FOLIE
1002
{
1000
ZENTRA_2144_BO_M_LB_DREH
1002
}
1001
AUSTER_ANSICHT
1002
{
1000
R
1002
}
  0
LINE
  5
A6E3
330
20
100
AcDbEntity
  8
14000_Bottom
  6
Continuous
 62
     7
370
    13
100
AcDbLine
 39
0.7
 10
-17.41936159030081
 20
390.0911092577544
 30
0.0
 11
-16.27336159030074
 21
381.6851092577546
 31
0.0
1001
AUSTER_FOLIE
1002
{
1000
ZENTRA_2144_BO_M_LB_DREH
1002
}
1001
AUSTER_ANSICHT
1002
{
1000
R
1002
}
  0
LINE
  5
A6E4
330
20
100
AcDbEntity
  8
14000_Bottom
  6
Continuous
 62
     7
370
    13
100
AcDbLine
 39
0.7
 10
-2.573361590300692
 20
386.1861092577547
 30
0.0
 11
-2.573361590300692
 21
400.6951092577543
 31
0.0
1001
AUSTER_FOLIE
1002
{
1000
ZENTRA_2144_BO_M_LB_DREH
1002
}
1001
AUSTER_ANSICHT
1002
{
1000
R
1002
}
  0
LINE
  5
A6E5
330
20
100
AcDbEntity
  8
14000_Bottom
  6
Continuous
 62
     7
370
    13
100
AcDbLine
 39
0.7
 10
-3.573361590300691
 20
400.6951092577543
 30
0.0
 11
-3.573361590300691
 21
386.1861092577547
 31
0.0
1001
AUSTER_FOLIE
1002
{
1000
ZENTRA_2144_BO_M_LB_DREH
1002
}
1001
AUSTER_ANSICHT
1002
{
1000
R
1002
}
  0
LINE
  5
A6E6
330
20
100
AcDbEntity
  8
14000_Bottom
  6
Continuous
 62
     7
370
    13
100
AcDbLine
 39
0.7
 10
-17.57336159030069
 20
390.7051092577546
 30
0.0
 11
-17.57336159030069
 21
400.6951092577543
 31
0.0
1001
AUSTER_FOLIE
1002
{
1000
ZENTRA_2144_BO_M_LB_DREH
1002
}
1001
AUSTER_ANSICHT
1002
{
1000
R
1002
}
  0
LINE
  5
A6E7
330
20
100
AcDbEntity
  8
14000_Bottom
  6
Continuous
 62
     7
370
    13
100
AcDbLine
 39
0.7
 10
-18.57336159030069
 20
392.0711092577544
 30
0.0
 11
-18.57336159030069
 21
400.6951092577543
 31
0.0
1001
AUSTER_FOLIE
1002
{
1000
ZENTRA_2144_BO_M_LB_DREH
1002
}
1001
AUSTER_ANSICHT
1002
{
1000
R
1002
}
  0
LINE
  5
A6EB
330
20
100
AcDbEntity
  8
14000_Bottom
  6
Continuous
 62
     7
370
    50
100
AcDbLine
 39
0.7
 10
-30.57336159030069
 20
402.6951092577546
 30
0.0
 11
-33.47336159030067
 21
402.6951092577546
 31
0.0
1001
AUSTER_FOLIE
1002
{
1000
ZENTRA_2144_BO_M_LB_DREH
1002
}
1001
AUSTER_ANSICHT
1002
{
1000
R
1002
}
  0
LINE
  5
A6EC
330
20
100
AcDbEntity
  8
14000_Bottom
  6
Continuous
 62
     7
370
    13
100
AcDbLine
 39
0.7
 10
-31.47336159030067
 20
400.6951092577543
 30
0.0
 11
-30.57336159030069
 21
400.6951092577543
 31
0.0
1001
AUSTER_FOLIE
1002
{
1000
ZENTRA_2144_BO_M_LB_DREH
1002
}
1001
AUSTER_ANSICHT
1002
{
1000
R
1002
}
  0
LINE
  5
A6ED
330
20
100
AcDbEntity
  8
14000_Bottom
  6
Continuous
 62
     7
370
    13
100
AcDbLine
 39
0.7
 10
-30.57336159030069
 20
400.6951092577543
 30
0.0
 11
-30.57336159030069
 21
402.6951092577546
 31
0.0
1001
AUSTER_FOLIE
1002
{
1000
ZENTRA_2144_BO_M_LB_DREH
1002
}
1001
AUSTER_ANSICHT
1002
{
1000
R
1002
}
  0
LINE
  5
A6EE
330
20
100
AcDbEntity
  8
14000_Bottom
  6
Continuous
 62
     7
370
    13
100
AcDbLine
 39
0.7
 10
-33.50336159030077
 20
388.4901092577546
 30
0.0
 11
-34.77336159030074
 21
388.4901092577546
 31
0.0
1001
AUSTER_FOLIE
1002
{
1000
ZENTRA_2144_BO_M_LB_DREH
1002
}
1001
AUSTER_ANSICHT
1002
{
1000
R
1002
}
  0
ARC
  5
A6EF
330
20
100
AcDbEntity
  8
14000_Bottom
  6
Continuous
 62
     7
370
    50
100
AcDbCircle
 39
0.7
 10
-41.05036159030078
 20
388.3671092577546
 30
0.0
 40
3.126
100
AcDbArc
 50
92.26000000000073
 51
177.7399999999992
1001
AUSTER_FOLIE
1002
{
1000
ZENTRA_2144_BO_M_LB_DREH
1002
}
1001
AUSTER_ANSICHT
1002
{
1000
R
1002
}
  0
LINE
  5
A6F0
330
20
100
AcDbEntity
  8
14000_Bottom
  6
Continuous
 62
     7
370
    50
100
AcDbLine
 39
0.7
 10
-41.17336159030071
 20
391.4901092577543
 30
0.0
 11
-33.51036159030071
 21
391.4901092577543
 31
0.0
1001
AUSTER_FOLIE
1002
{
1000
ZENTRA_2144_BO_M_LB_DREH
1002
}
1001
AUSTER_ANSICHT
1002
{
1000
R
1002
}
  0
LINE
  5
A6F3
330
20
100
AcDbEntity
  8
14000_Bottom
  6
Continuous
 62
     7
370
    20
100
AcDbLine
 39
0.7
 10
-33.27336159030074
 20
382.6851092577546
 30
0.0
 11
-33.27336159030074
 21
381.6871092577546
 31
0.0
1001
AUSTER_FOLIE
1002
{
1000
ZENTRA_2144_BO_M_LB_DREH
1002
}
1001
AUSTER_ANSICHT
1002
{
1000
R
1002
}
  0
LINE
  5
A6F4
330
20
100
AcDbEntity
  8
14000_Bottom
  6
Continuous
 62
     7
370
    20
100
AcDbLine
 39
0.7
 10
-33.27336159030074
 20
381.6851092577546
 30
0.0
 11
-33.27336159030074
 21
376.1851092577546
 31
0.0
1001
AUSTER_FOLIE
1002
{
1000
ZENTRA_2144_BO_M_LB_DREH
1002
}
1001
AUSTER_ANSICHT
1002
{
1000
R
1002
}
  0
ARC
  5
A6F5
330
20
100
AcDbEntity
  8
14000_Bottom
  6
Continuous
 62
     7
370
    13
100
AcDbCircle
 39
0.7
 10
-34.77336159030074
 20
382.4901092577544
 30
0.0
 40
6.0
100
AcDbArc
 50
90.0
 51
180.0
1001
AUSTER_FOLIE
1002
{
1000
ZENTRA_2144_BO_M_LB_DREH
1002
}
1001
AUSTER_ANSICHT
1002
{
1000
R
1002
}
  0
LINE
  5
A6F6
330
20
100
AcDbEntity
  8
14000_Bottom
  6
Continuous
 62
     7
370
    13
100
AcDbLine
 39
0.7
 10
-31.47336159030067
 20
386.1851092577546
 30
0.0
 11
-31.47336159030067
 21
400.6951092577543
 31
0.0
1001
AUSTER_FOLIE
1002
{
1000
ZENTRA_2144_BO_M_LB_DREH
1002
}
1001
AUSTER_ANSICHT
1002
{
1000
R
1002
}
  0
LINE
  5
A6F7
330
20
100
AcDbEntity
  8
14000_Bottom
  6
Continuous
 62
     7
370
    50
100
AcDbLine
 39
0.7
 10
-33.47336159030067
 20
402.6951092577546
 30
0.0
 11
-33.47336159030067
 21
391.4901092577543
 31
0.0
1001
AUSTER_FOLIE
1002
{
1000
ZENTRA_2144_BO_M_LB_DREH
1002
}
1001
AUSTER_ANSICHT
1002
{
1000
R
1002
}
  0
LINE
  5
A6F8
330
20
100
AcDbEntity
  8
14000_Bottom
  6
Continuous
 62
     7
370
    13
100
AcDbLine
 39
0.7
 10
-26.66336159030072
 20
386.1851092577546
 30
0.0
 11
-31.47436159030076
 21
386.1851092577546
 31
0.0
1001
AUSTER_FOLIE
1002
{
1000
ZENTRA_2144_BO_M_LB_DREH
1002
}
1001
AUSTER_ANSICHT
1002
{
1000
R
1002
}
  0
LINE
  5
A6F9
330
20
100
AcDbEntity
  8
14000_Bottom
  6
Continuous
 62
     7
370
    13
100
AcDbLine
 39
0.7
 10
-27.27336159030074
 20
381.6851092577546
 30
0.0
 11
-33.27336159030074
 21
381.6851092577546
 31
0.0
1001
AUSTER_FOLIE
1002
{
1000
ZENTRA_2144_BO_M_LB_DREH
1002
}
1001
AUSTER_ANSICHT
1002
{
1000
R
1002
}
  0
LINE
  5
A6FA
330
20
100
AcDbEntity
  8
14000_Bottom
  6
Continuous
 62
     7
370
    50
100
AcDbLine
 39
0.7
 10
-20.57336159030069
 20
402.6951092577546
 30
0.0
 11
-30.57336159030069
 21
402.6951092577546
 31
0.0
1001
AUSTER_FOLIE
1002
{
1000
ZENTRA_2144_BO_M_LB_DREH
1002
}
1001
AUSTER_ANSICHT
1002
{
1000
R
1002
}
  0
LINE
  5
A6FB
330
20
100
AcDbEntity
  8
14000_Bottom
  6
Continuous
 62
     7
370
    13
100
AcDbLine
 39
0.7
 10
-30.57336159030069
 20
400.6951092577543
 30
0.0
 11
-20.57336159030069
 21
400.6951092577543
 31
0.0
1001
AUSTER_FOLIE
1002
{
1000
ZENTRA_2144_BO_M_LB_DREH
1002
}
1001
AUSTER_ANSICHT
1002
{
1000
R
1002
}
  0
ARC
  5
A6FC
330
20
100
AcDbEntity
  8
14000_Bottom
  6
Continuous
 62
     7
370
    20
100
AcDbCircle
 39
0.7
 10
0.2266384096992624
 20
328.6851092577546
 30
0.0
 40
2.25
100
AcDbArc
 50
0.0
 51
180.0
1001
AUSTER_FOLIE
1002
{
1000
ZENTRA_2144_BO_M_LB_DREH
1002
}
1001
AUSTER_ANSICHT
1002
{
1000
R
1002
}
  0
LINE
  5
A6FD
330
20
100
AcDbEntity
  8
14000_Bottom
  6
Continuous
 62
     7
370
    13
100
AcDbLine
 39
0.7
 10
-2.045361590300784
 20
328.4901092577546
 30
0.0
 11
2.433638409699256
 21
328.4901092577546
 31
0.0
1001
AUSTER_FOLIE
1002
{
1000
ZENTRA_2144_BO_M_LB_DREH
1002
}
1001
AUSTER_ANSICHT
1002
{
1000
R
1002
}
  0
LINE
  5
A6FF
330
20
100
AcDbEntity
  8
14000_Bottom
  6
Continuous
 62
     7
370
    13
100
AcDbLine
 39
0.7
 10
-4.127361590300663
 20
327.2801092577546
 30
0.0
 11
-5.000361590300713
 21
333.6851092577546
 31
0.0
1001
AUSTER_FOLIE
1002
{
1000
ZENTRA_2144_BO_M_LB_DREH
1002
}
1001
AUSTER_ANSICHT
1002
{
1000
R
1002
}
  0
LINE
  5
A700
330
20
100
AcDbEntity
  8
14000_Bottom
  6
Continuous
 62
     7
370
    50
100
AcDbLine
 39
0.7
 10
1.608638409699208
 20
324.6851092577546
 30
0.0
 11
-1.154361590300708
 21
324.6851092577546
 31
0.0
1001
AUSTER_FOLIE
1002
{
1000
ZENTRA_2144_BO_M_LB_DREH
1002
}
1001
AUSTER_ANSICHT
1002
{
1000
R
1002
}
  0
ARC
  5
A701
330
20
100
AcDbEntity
  8
14000_Bottom
  6
Continuous
 62
     7
370
    50
100
AcDbCircle
 39
0.7
 10
1.496638409699244
 20
327.8131092577546
 30
0.0
 40
3.129999999999999
100
AcDbArc
 50
272.0440000000012
 51
299.5450729533544
1001
AUSTER_FOLIE
1002
{
1000
ZENTRA_2144_BO_M_LB_DREH
1002
}
1001
AUSTER_ANSICHT
1002
{
1000
R
1002
}
  0
ARC
  5
A702
330
20
100
AcDbEntity
  8
14000_Bottom
  6
Continuous
 62
     7
370
    20
100
AcDbCircle
 39
0.7
 10
-1.164361590300813
 20
327.6741092577546
 30
0.0
 40
2.988999999999998
100
AcDbArc
 50
187.5820000000032
 51
239.8260230435829
1001
AUSTER_FOLIE
1002
{
1000
ZENTRA_2144_BO_M_LB_DREH
1002
}
1001
AUSTER_ANSICHT
1002
{
1000
R
1002
}
  0
ARC
  5
A703
330
20
100
AcDbEntity
  8
14000_Bottom
  6
Continuous
 62
     7
370
    20
100
AcDbCircle
 39
0.7
 10
0.2266384096992624
 20
328.6851092577546
 30
0.0
 40
2.25
100
AcDbArc
 50
180.0
 51
0.0
1001
AUSTER_FOLIE
1002
{
1000
ZENTRA_2144_BO_M_LB_DREH
1002
}
1001
AUSTER_ANSICHT
1002
{
1000
R
1002
}
  0
LINE
  5
A706
330
20
100
AcDbEntity
  8
14000_Bottom
  6
Continuous
 62
     7
370
    13
100
AcDbLine
 39
0.7
 10
-33.28236159030075
 20
365.4851092577544
 30
0.0
 11
-38.27336159030075
 21
365.4851092577544
 31
0.0
1001
AUSTER_FOLIE
1002
{
1000
ZENTRA_2144_BO_M_LB_DREH
1002
}
1001
AUSTER_ANSICHT
1002
{
1000
R
1002
}
  0
LINE
  5
A707
330
20
100
AcDbEntity
  8
14000_Bottom
  6
Continuous
 62
     7
370
    13
100
AcDbLine
 39
0.7
 10
-33.28236159030075
 20
351.8851092577546
 30
0.0
 11
-38.27336159030075
 21
351.8851092577546
 31
0.0
1001
AUSTER_FOLIE
1002
{
1000
ZENTRA_2144_BO_M_LB_DREH
1002
}
1001
AUSTER_ANSICHT
1002
{
1000
R
1002
}
  0
LINE
  5
A708
330
20
100
AcDbEntity
  8
14000_Bottom
  6
Continuous
 62
     7
370
    13
100
AcDbLine
 39
0.7
 10
-38.27336159030075
 20
365.4851092577544
 30
0.0
 11
-38.27336159030075
 21
351.8851092577546
 31
0.0
1001
AUSTER_FOLIE
1002
{
1000
ZENTRA_2144_BO_M_LB_DREH
1002
}
1001
AUSTER_ANSICHT
1002
{
1000
R
1002
}
  0
LINE
  5
A70A
330
20
100
AcDbEntity
  8
14000_Bottom
  6
Continuous
 62
     7
370
    20
100
AcDbLine
 39
0.7
 10
-33.27336159030074
 20
333.6851092577546
 30
0.0
 11
-33.27336159030074
 21
331.1851092577545
 31
0.0
1001
AUSTER_FOLIE
1002
{
1000
ZENTRA_2144_BO_M_LB_DREH
1002
}
1001
AUSTER_ANSICHT
1002
{
1000
R
1002
}
  0
LINE
  5
A70B
330
20
100
AcDbEntity
  8
14000_Bottom
  6
Continuous
 62
     7
370
    20
100
AcDbLine
 39
0.7
 10
-33.27336159030074
 20
341.1851092577546
 30
0.0
 11
-33.27336159030074
 21
333.6851092577546
 31
0.0
1001
AUSTER_FOLIE
1002
{
1000
ZENTRA_2144_BO_M_LB_DREH
1002
}
1001
AUSTER_ANSICHT
1002
{
1000
R
1002
}
  0
ARC
  5
A70C
330
20
100
AcDbEntity
  8
14000_Bottom
  6
Continuous
 62
     7
370
    13
100
AcDbCircle
 39
0.7
 10
-34.77336159030074
 20
334.4901092577546
 30
0.0
 40
6.0
100
AcDbArc
 50
180.0
 51
270.0
1001
AUSTER_FOLIE
1002
{
1000
ZENTRA_2144_BO_M_LB_DREH
1002
}
1001
AUSTER_ANSICHT
1002
{
1000
R
1002
}
  0
ARC
  5
A70D
330
20
100
AcDbEntity
  8
14000_Bottom
  6
Continuous
 62
     7
370
    50
100
AcDbCircle
 39
0.7
 10
-41.09436159030074
 20
328.1691092577546
 30
0.0
 40
3.08
100
AcDbArc
 50
181.4619999999968
 51
268.5380000000033
1001
AUSTER_FOLIE
1002
{
1000
ZENTRA_2144_BO_M_LB_DREH
1002
}
1001
AUSTER_ANSICHT
1002
{
1000
R
1002
}
  0
LINE
  5
A70E
330
20
100
AcDbEntity
  8
14000_Bottom
  6
Continuous
 62
     7
370
    13
100
AcDbLine
 39
0.7
 10
-34.77336159030074
 20
328.4901092577546
 30
0.0
 11
-4.322361590300713
 21
328.4901092577546
 31
0.0
1001
AUSTER_FOLIE
1002
{
1000
ZENTRA_2144_BO_M_LB_DREH
1002
}
1001
AUSTER_ANSICHT
1002
{
1000
R
1002
}
  0
LINE
  5
A70F
330
20
100
AcDbEntity
  8
14000_Bottom
  6
Continuous
 62
     7
370
    13
100
AcDbLine
 39
0.7
 10
-5.000361590300713
 20
333.6851092577546
 30
0.0
 11
-33.27336159030074
 21
333.6851092577546
 31
0.0
1001
AUSTER_FOLIE
1002
{
1000
ZENTRA_2144_BO_M_LB_DREH
1002
}
1001
AUSTER_ANSICHT
1002
{
1000
R
1002
}
  0
LINE
  5
A710
330
20
100
AcDbEntity
  8
14000_Bottom
  6
Continuous
 62
     7
370
    20
100
AcDbLine
 39
0.7
 10
-4.662361590300747
 20
331.1851092577545
 30
0.0
 11
-33.27336159030074
 21
331.1851092577545
 31
0.0
1001
AUSTER_FOLIE
1002
{
1000
ZENTRA_2144_BO_M_LB_DREH
1002
}
1001
AUSTER_ANSICHT
1002
{
1000
R
1002
}
  0
LINE
  5
A711
330
20
100
AcDbEntity
  8
14000_Bottom
  6
Continuous
 62
     7
370
    50
100
AcDbLine
 39
0.7
 10
-2.654361590300708
 20
325.0901092577544
 30
0.0
 11
-41.17336159030071
 21
325.0901092577544
 31
0.0
1001
AUSTER_FOLIE
1002
{
1000
ZENTRA_2144_BO_M_LB_DREH
1002
}
1001
AUSTER_ANSICHT
1002
{
1000
R
1002
}
  0
LINE
  5
A712
330
20
100
AcDbEntity
  8
14000_Bottom
  6
Continuous
 62
     7
370
    20
100
AcDbLine
 39
0.7
 10
-33.27336159030074
 20
376.1851092577546
 30
0.0
 11
-33.27336159030074
 21
341.1861092577546
 31
0.0
1001
AUSTER_FOLIE
1002
{
1000
ZENTRA_2144_BO_M_LB_DREH
1002
}
1001
AUSTER_ANSICHT
1002
{
1000
R
1002
}
  0
LINE
  5
A713
330
20
100
AcDbEntity
  8
14000_Bottom
  6
Continuous
 62
     7
370
    50
100
AcDbLine
 39
0.7
 10
-44.17336159030071
 20
328.0901092577547
 30
0.0
 11
-44.17336159030071
 21
388.4901092577546
 31
0.0
1001
AUSTER_FOLIE
1002
{
1000
ZENTRA_2144_BO_M_LB_DREH
1002
}
1001
AUSTER_ANSICHT
1002
{
1000
R
1002
}
  0
LINE
  5
A714
330
20
100
AcDbEntity
  8
14000_Bottom
  6
Continuous
 62
     7
370
    13
100
AcDbLine
 39
0.7
 10
-40.77336159030074
 20
382.4901092577544
 30
0.0
 11
-40.77336159030074
 21
334.4901092577546
 31
0.0
1001
AUSTER_FOLIE
1002
{
1000
ZENTRA_2144_BO_M_LB_DREH
1002
}
1001
AUSTER_ANSICHT
1002
{
1000
R
1002
}
  0
LINE
  5
A715
330
20
100
AcDbEntity
  8
14000_Bottom
  6
Continuous
 62
     7
370
    13
100
AcDbLine
 39
0.7
 10
9.925638409699217
 20
386.1851092577546
 30
0.0
 11
-16.88936159030072
 21
386.1851092577546
 31
0.0
1001
AUSTER_FOLIE
1002
{
1000
ZENTRA_2144_BO_M_LB_DREH
1002
}
1001
AUSTER_ANSICHT
1002
{
1000
R
1002
}
  0
LINE
  5
A716
330
20
100
AcDbEntity
  8
14000_Bottom
  6
Continuous
 62
     7
370
    13
100
AcDbLine
 39
0.7
 10
11.72663840969926
 20
381.6851092577546
 30
0.0
 11
-16.27336159030074
 21
381.6851092577546
 31
0.0
1001
AUSTER_FOLIE
1002
{
1000
ZENTRA_2144_BO_M_LB_DREH
1002
}
1001
AUSTER_ANSICHT
1002
{
1000
R
1002
}
  0
LINE
  5
A717
330
20
100
AcDbEntity
  8
14000_Bottom
  6
Continuous
 62
     7
370
    50
100
AcDbLine
 39
0.7
 10
9.426638409699306
 20
402.6951092577546
 30
0.0
 11
-0.5733615903006922
 21
402.6951092577546
 31
0.0
1001
AUSTER_FOLIE
1002
{
1000
ZENTRA_2144_BO_M_LB_DREH
1002
}
1001
AUSTER_ANSICHT
1002
{
1000
R
1002
}
  0
LINE
  5
A718
330
20
100
AcDbEntity
  8
14000_Bottom
  6
Continuous
 62
     7
370
    13
100
AcDbLine
 39
0.7
 10
-0.5733615903006922
 20
400.6951092577543
 30
0.0
 11
9.426638409699306
 21
400.6951092577543
 31
0.0
1001
AUSTER_FOLIE
1002
{
1000
ZENTRA_2144_BO_M_LB_DREH
1002
}
1001
AUSTER_ANSICHT
1002
{
1000
R
1002
}
  0
LINE
  5
A719
330
20
100
AcDbEntity
  8
14000_Bottom
  6
CENTER
 62
     7
370
     9
100
AcDbLine
 39
0.8
 10
31.72663840969927
 20
358.6851092577546
 30
0.0
 11
-53.27336159030075
 21
358.6851092577546
 31
0.0
1001
AUSTER_FOLIE
1002
{
1000
ZENTRA_2144_BO_M_LB_DREH
1002
}
1001
AUSTER_ANSICHT
1002
{
1000
R
1002
}
  0
LINE
  5
A71A
330
20
100
AcDbEntity
  8
14000_Bottom
  6
Continuous
 62
     7
370
    50
100
AcDbLine
 39
0.7
 10
19.22663840969926
 20
325.0901092577544
 30
0.0
 11
3.028638409699283
 21
325.0901092577544
 31
0.0
1001
AUSTER_FOLIE
1002
{
1000
ZENTRA_2144_BO_M_LB_DREH
1002
}
1001
AUSTER_ANSICHT
1002
{
1000
R
1002
}
  0
LINE
  5
A71B
330
20
100
AcDbEntity
  8
14000_Bottom
  6
Continuous
 62
     7
370
    13
100
AcDbLine
 39
0.7
 10
11.72663840969926
 20
341.1851092577546
 30
0.0
 11
-33.27336159030074
 21
341.1851092577546
 31
0.0
1001
AUSTER_FOLIE
1002
{
1000
ZENTRA_2144_BO_M_LB_DREH
1002
}
1001
AUSTER_ANSICHT
1002
{
1000
R
1002
}
  0
LINE
  5
A71C
330
20
100
AcDbEntity
  8
14000_Bottom
  6
Continuous
 62
     7
370
    13
100
AcDbLine
 39
0.7
 10
4.709638409699207
 20
328.4901092577546
 30
0.0
 11
13.22663840969926
 21
328.4901092577546
 31
0.0
1001
AUSTER_FOLIE
1002
{
1000
ZENTRA_2144_BO_M_LB_DREH
1002
}
1001
AUSTER_ANSICHT
1002
{
1000
R
1002
}
  0
LINE
  5
A71D
330
20
100
AcDbEntity
  8
14000_Bottom
  6
Continuous
 62
     7
370
    20
100
AcDbLine
 39
0.7
 10
11.72663840969926
 20
331.1851092577545
 30
0.0
 11
5.109638409699298
 21
331.1851092577545
 31
0.0
1001
AUSTER_FOLIE
1002
{
1000
ZENTRA_2144_BO_M_LB_DREH
1002
}
1001
AUSTER_ANSICHT
1002
{
1000
R
1002
}
  0
LINE
  5
A71E
330
20
100
AcDbEntity
  8
14000_Bottom
  6
Continuous
 62
     7
370
    13
100
AcDbLine
 39
0.7
 10
5.453638409699236
 20
333.6851092577546
 30
0.0
 11
4.58063840969919
 21
327.2801092577546
 31
0.0
1001
AUSTER_FOLIE
1002
{
1000
ZENTRA_2144_BO_M_LB_DREH
1002
}
1001
AUSTER_ANSICHT
1002
{
1000
R
1002
}
  0
LINE
  5
A71F
330
20
100
AcDbEntity
  8
14000_Bottom
  6
Continuous
 62
     7
370
    13
100
AcDbLine
 39
0.7
 10
11.72663840969926
 20
376.1851092577546
 30
0.0
 11
-33.27336159030074
 21
376.1851092577546
 31
0.0
1001
AUSTER_FOLIE
1002
{
1000
ZENTRA_2144_BO_M_LB_DREH
1002
}
1001
AUSTER_ANSICHT
1002
{
1000
R
1002
}
  0
TEXT
  5
A720
330
20
100
AcDbEntity
  8
10000_FRONT
  6
Continuous
 62
     7
370
    13
100
AcDbText
 10
-39.66922010713517
 20
455.2699990441241
 30
0.0
 40
2.0
  1
SIEMENS
  7
TAHOMA
100
AcDbText
1001
AUSTER_FOLIE
1002
{
1000
ZENTRA_2144_BO_M_LB_DREH
1002
}
1001
AUSTER_ANSICHT
1002
{
1000
V
1002
}
  0
ARC
  5
A733
330
20
100
AcDbEntity
  8
10000_FRONT
  6
Continuous
 62
     7
370
    50
100
AcDbCircle
 39
0.7
 10
19.33077989286482
 20
514.269999044124
 30
0.0
 40
3.0
100
AcDbArc
 50
0.0
 51
90.0
1001
AUSTER_FOLIE
1002
{
1000
ZENTRA_2144_BO_M_LB_DREH
1002
}
1001
AUSTER_ANSICHT
1002
{
1000
V
1002
}
  0
ARC
  5
A734
330
20
100
AcDbEntity
  8
10000_FRONT
  6
Continuous
 62
     7
370
    20
100
AcDbCircle
 39
0.7
 10
35.33177989286486
 20
530.2719990441238
 30
0.0
 40
35.055
100
AcDbArc
 50
214.4939999999997
 51
235.5060000000011
1001
AUSTER_FOLIE
1002
{
1000
ZENTRA_2144_BO_M_LB_DREH
1002
}
1001
AUSTER_ANSICHT
1002
{
1000
V
1002
}
  0
ARC
  5
A735
330
20
100
AcDbEntity
  8
10000_FRONT
  6
Continuous
 62
     7
370
    20
100
AcDbCircle
 39
0.7
 10
-10.66922010713517
 20
549.326999044124
 30
0.0
 40
35.055
100
AcDbArc
 50
259.4939999999998
 51
280.5060000000003
1001
AUSTER_FOLIE
1002
{
1000
ZENTRA_2144_BO_M_LB_DREH
1002
}
1001
AUSTER_ANSICHT
1002
{
1000
V
1002
}
  0
ARC
  5
A737
330
20
100
AcDbEntity
  8
10000_FRONT
  6
Continuous
 62
     7
370
    20
100
AcDbCircle
 39
0.7
 10
-14.00722010713517
 20
492.3289990441238
 30
0.0
 40
22.736
100
AcDbArc
 50
97.71899999999996
 51
127.280999999998
1001
AUSTER_FOLIE
1002
{
1000
ZENTRA_2144_BO_M_LB_DREH
1002
}
1001
AUSTER_ANSICHT
1002
{
1000
V
1002
}
  0
ARC
  5
A738
330
20
100
AcDbEntity
  8
10000_FRONT
  6
Continuous
 62
     7
370
    20
100
AcDbCircle
 39
0.7
 10
-7.331220107135152
 20
492.3289990441238
 30
0.0
 40
22.736
100
AcDbArc
 50
52.71900000000199
 51
82.28100000000003
1001
AUSTER_FOLIE
1002
{
1000
ZENTRA_2144_BO_M_LB_DREH
1002
}
1001
AUSTER_ANSICHT
1002
{
1000
V
1002
}
  0
ARC
  5
A739
330
20
100
AcDbEntity
  8
10000_FRONT
  6
Continuous
 62
     7
370
    20
100
AcDbCircle
 39
0.7
 10
-10.57522010713515
 20
484.1329990441241
 30
0.0
 40
29.88
100
AcDbArc
 50
348.6900000000026
 51
348.690999999997
1001
AUSTER_FOLIE
1002
{
1000
ZENTRA_2144_BO_M_LB_DREH
1002
}
1001
AUSTER_ANSICHT
1002
{
1000
V
1002
}
  0
ARC
  5
A73A
330
20
100
AcDbEntity
  8
10000_FRONT
  6
Continuous
 62
     7
370
    20
100
AcDbCircle
 39
0.7
 10
48.02477989286485
 20
472.4129990441241
 30
0.0
 40
29.88
100
AcDbArc
 50
168.6900000000025
 51
168.6909999999969
1001
AUSTER_FOLIE
1002
{
1000
ZENTRA_2144_BO_M_LB_DREH
1002
}
1001
AUSTER_ANSICHT
1002
{
1000
V
1002
}
  0
LINE
  5
A73B
330
20
100
AcDbEntity
  8
10000_FRONT
  6
Continuous
 62
     7
370
    50
100
AcDbLine
 39
0.7
 10
22.33077989286483
 20
490.269999044124
 30
0.0
 11
22.33077989286483
 21
478.269999044124
 31
0.0
1001
AUSTER_FOLIE
1002
{
1000
ZENTRA_2144_BO_M_LB_DREH
1002
}
1001
AUSTER_ANSICHT
1002
{
1000
V
1002
}
  0
ARC
  5
A73C
330
20
100
AcDbEntity
  8
10000_FRONT
  6
Continuous
 62
     7
370
    20
100
AcDbCircle
 39
0.7
 10
-2.611220107135181
 20
480.9319990441237
 30
0.0
 40
22.736
100
AcDbArc
 50
322.7190000000013
 51
352.2809999999982
1001
AUSTER_FOLIE
1002
{
1000
ZENTRA_2144_BO_M_LB_DREH
1002
}
1001
AUSTER_ANSICHT
1002
{
1000
V
1002
}
  0
ARC
  5
A740
330
20
100
AcDbEntity
  8
10000_FRONT
  6
Continuous
 62
     7
370
    50
100
AcDbCircle
 39
0.7
 10
19.33077989286482
 20
454.2699990441241
 30
0.0
 40
3.0
100
AcDbArc
 50
270.0
 51
0.0
1001
AUSTER_FOLIE
1002
{
1000
ZENTRA_2144_BO_M_LB_DREH
1002
}
1001
AUSTER_ANSICHT
1002
{
1000
V
1002
}
  0
ARC
  5
A741
330
20
100
AcDbEntity
  8
10000_FRONT
  6
Continuous
 62
     7
370
    20
100
AcDbCircle
 39
0.7
 10
35.33177989286486
 20
438.2689990441241
 30
0.0
 40
35.055
100
AcDbArc
 50
124.4939999999988
 51
145.5059999999993
1001
AUSTER_FOLIE
1002
{
1000
ZENTRA_2144_BO_M_LB_DREH
1002
}
1001
AUSTER_ANSICHT
1002
{
1000
V
1002
}
  0
LINE
  5
A742
330
20
100
AcDbEntity
  8
10000_FRONT
  6
Continuous
 62
     7
370
    50
100
AcDbLine
 39
0.7
 10
22.33077989286483
 20
478.269999044124
 30
0.0
 11
22.33077989286483
 21
454.2699990441241
 31
0.0
1001
AUSTER_FOLIE
1002
{
1000
ZENTRA_2144_BO_M_LB_DREH
1002
}
1001
AUSTER_ANSICHT
1002
{
1000
V
1002
}
  0
LINE
  5
A743
330
20
100
AcDbEntity
  8
10000_FRONT
  6
Continuous
 62
     7
370
    20
100
AcDbLine
 39
0.7
 10
-12.66922010713517
 20
490.269999044124
 30
0.0
 11
-18.66922010713517
 21
490.269999044124
 31
0.0
1001
AUSTER_FOLIE
1002
{
1000
ZENTRA_2144_BO_M_LB_DREH
1002
}
1001
AUSTER_ANSICHT
1002
{
1000
V
1002
}
  0
LINE
  5
A744
330
20
100
AcDbEntity
  8
10000_FRONT
  6
Continuous
 62
     7
370
    20
100
AcDbLine
 39
0.7
 10
-18.66922010713517
 20
478.269999044124
 30
0.0
 11
-12.66922010713517
 21
478.269999044124
 31
0.0
1001
AUSTER_FOLIE
1002
{
1000
ZENTRA_2144_BO_M_LB_DREH
1002
}
1001
AUSTER_ANSICHT
1002
{
1000
V
1002
}
  0
LINE
  5
A745
330
20
100
AcDbEntity
  8
10000_FRONT
  6
Continuous
 62
     7
370
    20
100
AcDbLine
 39
0.7
 10
-12.66922010713517
 20
478.269999044124
 30
0.0
 11
-12.66922010713517
 21
490.269999044124
 31
0.0
1001
AUSTER_FOLIE
1002
{
1000
ZENTRA_2144_BO_M_LB_DREH
1002
}
1001
AUSTER_ANSICHT
1002
{
1000
V
1002
}
  0
LINE
  5
A746
330
20
100
AcDbEntity
  8
10000_FRONT
  6
Continuous
 62
     7
370
    20
100
AcDbLine
 39
0.7
 10
-18.66922010713517
 20
490.269999044124
 30
0.0
 11
-18.66922010713517
 21
478.269999044124
 31
0.0
1001
AUSTER_FOLIE
1002
{
1000
ZENTRA_2144_BO_M_LB_DREH
1002
}
1001
AUSTER_ANSICHT
1002
{
1000
V
1002
}
  0
LINE
  5
A747
330
20
100
AcDbEntity
  8
10000_FRONT
  6
Continuous
 62
     7
370
    13
100
AcDbLine
 39
0.7
 10
-31.50622010713516
 20
489.1079990441238
 30
0.0
 11
-20.42622010713518
 21
489.1079990441238
 31
0.0
1001
AUSTER_FOLIE
1002
{
1000
ZENTRA_2144_BO_M_LB_DREH
1002
}
1001
AUSTER_ANSICHT
1002
{
1000
V
1002
}
  0
ARC
  5
A748
330
20
100
AcDbEntity
  8
10000_FRONT
  6
Continuous
 62
     7
370
    13
100
AcDbCircle
 39
0.7
 10
-26.11522010713514
 20
484.0869990441241
 30
0.0
 40
3.967999999999998
100
AcDbArc
 50
0.0
 51
180.0
1001
AUSTER_FOLIE
1002
{
1000
ZENTRA_2144_BO_M_LB_DREH
1002
}
1001
AUSTER_ANSICHT
1002
{
1000
V
1002
}
  0
LINE
  5
A749
330
20
100
AcDbEntity
  8
10000_FRONT
  6
Continuous
 62
     7
370
    13
100
AcDbLine
 39
0.7
 10
-31.50622010713516
 20
479.2329990441238
 30
0.0
 11
-20.42622010713518
 21
479.2329990441238
 31
0.0
1001
AUSTER_FOLIE
1002
{
1000
ZENTRA_2144_BO_M_LB_DREH
1002
}
1001
AUSTER_ANSICHT
1002
{
1000
V
1002
}
  0
LINE
  5
A74A
330
20
100
AcDbEntity
  8
10000_FRONT
  6
Continuous
 62
     7
370
    13
100
AcDbLine
 39
0.7
 10
-20.42622010713518
 20
479.2329990441238
 30
0.0
 11
-20.42622010713518
 21
489.1079990441238
 31
0.0
1001
AUSTER_FOLIE
1002
{
1000
ZENTRA_2144_BO_M_LB_DREH
1002
}
1001
AUSTER_ANSICHT
1002
{
1000
V
1002
}
  0
LINE
  5
A74B
330
20
100
AcDbEntity
  8
10000_FRONT
  6
Continuous
 62
     7
370
    13
100
AcDbLine
 39
0.7
 10
-31.50622010713516
 20
489.1079990441238
 30
0.0
 11
-31.50622010713516
 21
479.2329990441238
 31
0.0
1001
AUSTER_FOLIE
1002
{
1000
ZENTRA_2144_BO_M_LB_DREH
1002
}
1001
AUSTER_ANSICHT
1002
{
1000
V
1002
}
  0
ARC
  5
A74C
330
20
100
AcDbEntity
  8
10000_FRONT
  6
Continuous
 62
     7
370
    13
100
AcDbCircle
 39
0.7
 10
-26.11522010713514
 20
484.0869990441241
 30
0.0
 40
3.967999999999998
100
AcDbArc
 50
180.0
 51
0.0
1001
AUSTER_FOLIE
1002
{
1000
ZENTRA_2144_BO_M_LB_DREH
1002
}
1001
AUSTER_ANSICHT
1002
{
1000
V
1002
}
  0
ARC
  5
A74D
330
20
100
AcDbEntity
  8
10000_FRONT
  6
Continuous
 62
     7
370
    20
100
AcDbCircle
 39
0.7
 10
-10.66922010713517
 20
419.2139990441238
 30
0.0
 40
35.055
100
AcDbArc
 50
79.4939999999997
 51
100.5060000000003
1001
AUSTER_FOLIE
1002
{
1000
ZENTRA_2144_BO_M_LB_DREH
1002
}
1001
AUSTER_ANSICHT
1002
{
1000
V
1002
}
  0
ARC
  5
A74E
330
20
100
AcDbEntity
  8
10000_FRONT
  6
Continuous
 62
     7
370
    20
100
AcDbCircle
 39
0.7
 10
-14.00722010713517
 20
476.211999044124
 30
0.0
 40
22.736
100
AcDbArc
 50
232.719000000002
 51
262.2810000000001
1001
AUSTER_FOLIE
1002
{
1000
ZENTRA_2144_BO_M_LB_DREH
1002
}
1001
AUSTER_ANSICHT
1002
{
1000
V
1002
}
  0
LINE
  5
A74F
330
20
100
AcDbEntity
  8
10000_FRONT
  6
Continuous
 62
     7
370
    20
100
AcDbLine
 39
0.7
 10
-12.66922010713517
 20
490.269999044124
 30
0.0
 11
22.33077989286483
 21
490.269999044124
 31
0.0
1001
AUSTER_FOLIE
1002
{
1000
ZENTRA_2144_BO_M_LB_DREH
1002
}
1001
AUSTER_ANSICHT
1002
{
1000
V
1002
}
  0
LINE
  5
A750
330
20
100
AcDbEntity
  8
10000_FRONT
  6
Continuous
 62
     7
370
    20
100
AcDbLine
 39
0.7
 10
22.33077989286483
 20
478.269999044124
 30
0.0
 11
-12.66922010713517
 21
478.269999044124
 31
0.0
1001
AUSTER_FOLIE
1002
{
1000
ZENTRA_2144_BO_M_LB_DREH
1002
}
1001
AUSTER_ANSICHT
1002
{
1000
V
1002
}
  0
ARC
  5
A751
330
20
100
AcDbEntity
  8
10000_FRONT
  6
Continuous
 62
     7
370
    20
100
AcDbCircle
 39
0.7
 10
-7.331220107135152
 20
476.211999044124
 30
0.0
 40
22.736
100
AcDbArc
 50
277.719
 51
307.280999999998
1001
AUSTER_FOLIE
1002
{
1000
ZENTRA_2144_BO_M_LB_DREH
1002
}
1001
AUSTER_ANSICHT
1002
{
1000
V
1002
}
  0
ARC
  5
A752
330
20
100
AcDbEntity
  8
10000_FRONT
  6
Continuous
 62
     7
370
    20
100
AcDbCircle
 39
0.7
 10
-2.611220107135181
 20
487.6079990441239
 30
0.0
 40
22.736
100
AcDbArc
 50
7.719000000001797
 51
37.28099999999869
1001
AUSTER_FOLIE
1002
{
1000
ZENTRA_2144_BO_M_LB_DREH
1002
}
1001
AUSTER_ANSICHT
1002
{
1000
V
1002
}
  0
LINE
  5
A753
330
20
100
AcDbEntity
  8
10000_FRONT
  6
Continuous
 62
     7
370
    50
100
AcDbLine
 39
0.7
 10
22.33077989286483
 20
514.269999044124
 30
0.0
 11
22.33077989286483
 21
490.2739990441241
 31
0.0
1001
AUSTER_FOLIE
1002
{
1000
ZENTRA_2144_BO_M_LB_DREH
1002
}
1001
AUSTER_ANSICHT
1002
{
1000
V
1002
}
  0
ARC
  5
A754
330
20
100
AcDbEntity
  8
10000_FRONT
  6
Continuous
 62
     7
370
    13
100
AcDbCircle
 39
0.7
 10
-10.54922010713517
 20
484.2699990441241
 30
0.0
 40
23.541
100
AcDbArc
 50
14.76600000000239
 51
345.2339999999976
1001
AUSTER_FOLIE
1002
{
1000
ZENTRA_2144_BO_M_LB_DREH
1002
}
1001
AUSTER_ANSICHT
1002
{
1000
V
1002
}
  0
ARC
  5
A756
330
20
100
AcDbEntity
  8
10000_FRONT
  6
Continuous
 62
     7
370
    50
100
AcDbCircle
 39
0.7
 10
-40.66922010713517
 20
514.269999044124
 30
0.0
 40
3.0
100
AcDbArc
 50
90.0
 51
180.0
1001
AUSTER_FOLIE
1002
{
1000
ZENTRA_2144_BO_M_LB_DREH
1002
}
1001
AUSTER_ANSICHT
1002
{
1000
V
1002
}
  0
ARC
  5
A757
330
20
100
AcDbEntity
  8
10000_FRONT
  6
Continuous
 62
     7
370
    20
100
AcDbCircle
 39
0.7
 10
-18.72822010713514
 20
480.9319990441237
 30
0.0
 40
22.736
100
AcDbArc
 50
187.7190000000018
 51
217.2809999999987
1001
AUSTER_FOLIE
1002
{
1000
ZENTRA_2144_BO_M_LB_DREH
1002
}
1001
AUSTER_ANSICHT
1002
{
1000
V
1002
}
  0
ARC
  5
A758
330
20
100
AcDbEntity
  8
10000_FRONT
  6
Continuous
 62
     7
370
    20
100
AcDbCircle
 39
0.7
 10
-75.72622010713519
 20
484.2699990441241
 30
0.0
 40
35.055
100
AcDbArc
 50
349.4939999999997
 51
10.5060000000003
1001
AUSTER_FOLIE
1002
{
1000
ZENTRA_2144_BO_M_LB_DREH
1002
}
1001
AUSTER_ANSICHT
1002
{
1000
V
1002
}
  0
ARC
  5
A75B
330
20
100
AcDbEntity
  8
10000_FRONT
  6
Continuous
 62
     7
370
    50
100
AcDbCircle
 39
0.7
 10
-40.66922010713517
 20
454.2699990441241
 30
0.0
 40
3.0
100
AcDbArc
 50
180.0
 51
270.0
1001
AUSTER_FOLIE
1002
{
1000
ZENTRA_2144_BO_M_LB_DREH
1002
}
1001
AUSTER_ANSICHT
1002
{
1000
V
1002
}
  0
ARC
  5
A75C
330
20
100
AcDbEntity
  8
10000_FRONT
  6
Continuous
 62
     7
370
    20
100
AcDbCircle
 39
0.7
 10
-18.72822010713514
 20
487.6079990441239
 30
0.0
 40
22.736
100
AcDbArc
 50
142.7190000000013
 51
172.2809999999982
1001
AUSTER_FOLIE
1002
{
1000
ZENTRA_2144_BO_M_LB_DREH
1002
}
1001
AUSTER_ANSICHT
1002
{
1000
V
1002
}
  0
LINE
  5
A75D
330
20
100
AcDbEntity
  8
10000_FRONT
  6
Continuous
 62
     7
370
    50
100
AcDbLine
 39
0.7
 10
-43.66922010713517
 20
454.2699990441241
 30
0.0
 11
-43.66922010713517
 21
514.269999044124
 31
0.0
1001
AUSTER_FOLIE
1002
{
1000
ZENTRA_2144_BO_M_LB_DREH
1002
}
1001
AUSTER_ANSICHT
1002
{
1000
V
1002
}
  0
LINE
  5
A75E
330
20
100
AcDbEntity
  8
10000_FRONT
  6
Continuous
 62
     7
370
    50
100
AcDbLine
 39
0.7
 10
-40.66922010713517
 20
517.2699990441241
 30
0.0
 11
19.33077989286482
 21
517.2699990441241
 31
0.0
1001
AUSTER_FOLIE
1002
{
1000
ZENTRA_2144_BO_M_LB_DREH
1002
}
1001
AUSTER_ANSICHT
1002
{
1000
V
1002
}
  0
LINE
  5
A75F
330
20
100
AcDbEntity
  8
10000_FRONT
  6
CENTER
 62
     7
370
     9
100
AcDbLine
 39
0.8
 10
27.23677989286483
 20
484.2699990441241
 30
0.0
 11
-50.66922010713517
 21
484.2699990441241
 31
0.0
1001
AUSTER_FOLIE
1002
{
1000
ZENTRA_2144_BO_M_LB_DREH
1002
}
1001
AUSTER_ANSICHT
1002
{
1000
V
1002
}
  0
LINE
  5
A760
330
20
100
AcDbEntity
  8
10000_FRONT
  6
Continuous
 62
     7
370
    50
100
AcDbLine
 39
0.7
 10
19.33077989286482
 20
451.2699990441241
 30
0.0
 11
-40.66922010713517
 21
451.2699990441241
 31
0.0
1001
AUSTER_FOLIE
1002
{
1000
ZENTRA_2144_BO_M_LB_DREH
1002
}
1001
AUSTER_ANSICHT
1002
{
1000
V
1002
}
  0
ARC
  5
A761
330
20
100
AcDbEntity
  8
10000_FRONT
  6
Continuous
 62
     7
370
    20
100
AcDbCircle
 39
0.7
 10
-56.67122010713518
 20
438.2689990441241
 30
0.0
 40
35.055
100
AcDbArc
 50
34.49400000000068
 51
55.50600000000117
1001
AUSTER_FOLIE
1002
{
1000
ZENTRA_2144_BO_M_LB_DREH
1002
}
1001
AUSTER_ANSICHT
1002
{
1000
V
1002
}
  0
ARC
  5
A762
330
20
100
AcDbEntity
  8
10000_FRONT
  6
Continuous
 62
     7
370
    20
100
AcDbCircle
 39
0.7
 10
-56.67122010713518
 20
530.2719990441238
 30
0.0
 40
35.055
100
AcDbArc
 50
304.4939999999988
 51
325.5059999999993
1001
AUSTER_FOLIE
1002
{
1000
ZENTRA_2144_BO_M_LB_DREH
1002
}
1001
AUSTER_ANSICHT
1002
{
1000
V
1002
}
  0
LINE
  5
A764
330
20
100
AcDbEntity
  8
11000_Left
  6
Continuous
 62
     7
370
    50
100
AcDbLine
 39
0.7
 10
207.584943942832
 20
492.0749990441238
 30
0.0
 11
181.5849439428319
 21
492.0749990441238
 31
0.0
1001
AUSTER_FOLIE
1002
{
1000
ZENTRA_2144_BO_M_LB_DREH
1002
}
1001
AUSTER_ANSICHT
1002
{
1000
SL
1002
}
  0
LINE
  5
A765
330
20
100
AcDbEntity
  8
11000_Left
  6
Continuous
 62
     7
370
    50
100
AcDbLine
 39
0.7
 10
207.584943942832
 20
476.0749990441238
 30
0.0
 11
181.5849439428319
 21
476.0749990441238
 31
0.0
1001
AUSTER_FOLIE
1002
{
1000
ZENTRA_2144_BO_M_LB_DREH
1002
}
1001
AUSTER_ANSICHT
1002
{
1000
SL
1002
}
  0
LINE
  5
A766
330
20
100
AcDbEntity
  8
11000_Left
  6
CENTER
 62
     7
370
     9
100
AcDbLine
 39
0.8
 10
70.12194394283205
 20
484.2699990441241
 30
0.0
 11
332.154943942832
 21
484.2699990441241
 31
0.0
1001
AUSTER_FOLIE
1002
{
1000
ZENTRA_2144_BO_M_LB_DREH
1002
}
1001
AUSTER_ANSICHT
1002
{
1000
SL
1002
}
  0
LINE
  5
A768
330
20
100
AcDbEntity
  8
11000_Left
  6
Continuous
 62
     7
370
    50
100
AcDbLine
 39
0.7
 10
120.584943942832
 20
460.269999044124
 30
0.0
 11
108.084943942832
 21
460.269999044124
 31
0.0
1001
AUSTER_FOLIE
1002
{
1000
ZENTRA_2144_BO_M_LB_DREH
1002
}
1001
AUSTER_ANSICHT
1002
{
1000
SL
1002
}
  0
ARC
  5
A769
330
20
100
AcDbEntity
  8
11000_Left
  6
Continuous
 62
     7
370
    20
100
AcDbCircle
 39
0.3
 10
115.158943942832
 20
473.260999044124
 30
0.0
 40
0.9419999999999999
100
AcDbArc
 50
52.81400000000028
 51
77.1520000000002
1001
AUSTER_FOLIE
1002
{
1000
ZENTRA_2144_BO_M_LB_DREH
1002
}
1001
AUSTER_ANSICHT
1002
{
1000
SL
1002
}
  0
ARC
  5
A76A
330
20
100
AcDbEntity
  8
11000_Left
  6
Continuous
 62
     7
370
    20
100
AcDbCircle
 39
0.3
 10
115.158943942832
 20
496.4809990441241
 30
0.0
 40
0.9419999999999999
100
AcDbArc
 50
52.81400000000028
 51
77.1520000000002
1001
AUSTER_FOLIE
1002
{
1000
ZENTRA_2144_BO_M_LB_DREH
1002
}
1001
AUSTER_ANSICHT
1002
{
1000
SL
1002
}
  0
LINE
  5
A76B
330
20
100
AcDbEntity
  8
11000_Left
  6
Continuous
 62
     7
370
    20
100
AcDbLine
 39
0.3
 10
115.367943942832
 20
494.5999990441237
 30
0.0
 11
116.167943942832
 21
494.5999990441237
 31
0.0
1001
AUSTER_FOLIE
1002
{
1000
ZENTRA_2144_BO_M_LB_DREH
1002
}
1001
AUSTER_ANSICHT
1002
{
1000
SL
1002
}
  0
LINE
  5
A76C
330
20
100
AcDbEntity
  8
11000_Left
  6
Continuous
 62
     7
370
    20
100
AcDbLine
 39
0.3
 10
115.367943942832
 20
471.3799990441241
 30
0.0
 11
116.167943942832
 21
471.3799990441241
 31
0.0
1001
AUSTER_FOLIE
1002
{
1000
ZENTRA_2144_BO_M_LB_DREH
1002
}
1001
AUSTER_ANSICHT
1002
{
1000
SL
1002
}
  0
LINE
  5
A76D
330
20
100
AcDbEntity
  8
11000_Left
  6
Continuous
 62
     7
370
    20
100
AcDbLine
 39
0.3
 10
116.207943942832
 20
475.6599990441241
 30
0.0
 11
113.727943942832
 21
475.6599990441241
 31
0.0
1001
AUSTER_FOLIE
1002
{
1000
ZENTRA_2144_BO_M_LB_DREH
1002
}
1001
AUSTER_ANSICHT
1002
{
1000
SL
1002
}
  0
LINE
  5
A76E
330
20
100
AcDbEntity
  8
11000_Left
  6
Continuous
 62
     7
370
    20
100
AcDbLine
 39
0.3
 10
116.207943942832
 20
477.0799990441238
 30
0.0
 11
113.727943942832
 21
475.6599990441241
 31
0.0
1001
AUSTER_FOLIE
1002
{
1000
ZENTRA_2144_BO_M_LB_DREH
1002
}
1001
AUSTER_ANSICHT
1002
{
1000
SL
1002
}
  0
LINE
  5
A76F
330
20
100
AcDbEntity
  8
11000_Left
  6
Continuous
 62
     7
370
    20
100
AcDbLine
 39
0.3
 10
116.207943942832
 20
474.8599990441241
 30
0.0
 11
112.207943942832
 21
474.8599990441241
 31
0.0
1001
AUSTER_FOLIE
1002
{
1000
ZENTRA_2144_BO_M_LB_DREH
1002
}
1001
AUSTER_ANSICHT
1002
{
1000
SL
1002
}
  0
LINE
  5
A770
330
20
100
AcDbEntity
  8
11000_Left
  6
Continuous
 62
     7
370
    20
100
AcDbLine
 39
0.3
 10
112.207943942832
 20
478.379999044124
 30
0.0
 11
116.207943942832
 21
478.379999044124
 31
0.0
1001
AUSTER_FOLIE
1002
{
1000
ZENTRA_2144_BO_M_LB_DREH
1002
}
1001
AUSTER_ANSICHT
1002
{
1000
SL
1002
}
  0
LINE
  5
A771
330
20
100
AcDbEntity
  8
11000_Left
  6
Continuous
 62
     7
370
    20
100
AcDbLine
 39
0.3
 10
116.207943942832
 20
479.0799990441238
 30
0.0
 11
115.467943942832
 21
479.0799990441238
 31
0.0
1001
AUSTER_FOLIE
1002
{
1000
ZENTRA_2144_BO_M_LB_DREH
1002
}
1001
AUSTER_ANSICHT
1002
{
1000
SL
1002
}
  0
LINE
  5
A772
330
20
100
AcDbEntity
  8
11000_Left
  6
Continuous
 62
     7
370
    20
100
AcDbLine
 39
0.3
 10
116.207943942832
 20
482.039999044124
 30
0.0
 11
112.207943942832
 21
482.039999044124
 31
0.0
1001
AUSTER_FOLIE
1002
{
1000
ZENTRA_2144_BO_M_LB_DREH
1002
}
1001
AUSTER_ANSICHT
1002
{
1000
SL
1002
}
  0
LINE
  5
A773
330
20
100
AcDbEntity
  8
11000_Left
  6
Continuous
 62
     7
370
    20
100
AcDbLine
 39
0.3
 10
116.207943942832
 20
484.399999044124
 30
0.0
 11
113.767943942832
 21
485.399999044124
 31
0.0
1001
AUSTER_FOLIE
1002
{
1000
ZENTRA_2144_BO_M_LB_DREH
1002
}
1001
AUSTER_ANSICHT
1002
{
1000
SL
1002
}
  0
LINE
  5
A774
330
20
100
AcDbEntity
  8
11000_Left
  6
Continuous
 62
     7
370
    20
100
AcDbLine
 39
0.3
 10
116.207943942832
 20
486.4399990441238
 30
0.0
 11
113.767943942832
 21
485.399999044124
 31
0.0
1001
AUSTER_FOLIE
1002
{
1000
ZENTRA_2144_BO_M_LB_DREH
1002
}
1001
AUSTER_ANSICHT
1002
{
1000
SL
1002
}
  0
LINE
  5
A775
330
20
100
AcDbEntity
  8
11000_Left
  6
Continuous
 62
     7
370
    20
100
AcDbLine
 39
0.3
 10
116.207943942832
 20
482.959999044124
 30
0.0
 11
112.207943942832
 21
482.959999044124
 31
0.0
1001
AUSTER_FOLIE
1002
{
1000
ZENTRA_2144_BO_M_LB_DREH
1002
}
1001
AUSTER_ANSICHT
1002
{
1000
SL
1002
}
  0
LINE
  5
A776
330
20
100
AcDbEntity
  8
11000_Left
  6
Continuous
 62
     7
370
    20
100
AcDbLine
 39
0.3
 10
112.207943942832
 20
487.8799990441241
 30
0.0
 11
116.207943942832
 21
487.8799990441241
 31
0.0
1001
AUSTER_FOLIE
1002
{
1000
ZENTRA_2144_BO_M_LB_DREH
1002
}
1001
AUSTER_ANSICHT
1002
{
1000
SL
1002
}
  0
LINE
  5
A777
330
20
100
AcDbEntity
  8
11000_Left
  6
Continuous
 62
     7
370
    20
100
AcDbLine
 39
0.3
 10
116.207943942832
 20
488.5999990441241
 30
0.0
 11
115.467943942832
 21
488.5999990441241
 31
0.0
1001
AUSTER_FOLIE
1002
{
1000
ZENTRA_2144_BO_M_LB_DREH
1002
}
1001
AUSTER_ANSICHT
1002
{
1000
SL
1002
}
  0
LINE
  5
A778
330
20
100
AcDbEntity
  8
11000_Left
  6
Continuous
 62
     7
370
    20
100
AcDbLine
 39
0.3
 10
116.207943942832
 20
491.5599990441238
 30
0.0
 11
112.207943942832
 21
491.5599990441238
 31
0.0
1001
AUSTER_FOLIE
1002
{
1000
ZENTRA_2144_BO_M_LB_DREH
1002
}
1001
AUSTER_ANSICHT
1002
{
1000
SL
1002
}
  0
LINE
  5
A779
330
20
100
AcDbEntity
  8
11000_Left
  6
Continuous
 62
     7
370
    20
100
AcDbLine
 39
0.3
 10
116.207943942832
 20
492.4799990441242
 30
0.0
 11
112.207943942832
 21
492.4799990441242
 31
0.0
1001
AUSTER_FOLIE
1002
{
1000
ZENTRA_2144_BO_M_LB_DREH
1002
}
1001
AUSTER_ANSICHT
1002
{
1000
SL
1002
}
  0
LINE
  5
A77A
330
20
100
AcDbEntity
  8
11000_Left
  6
Continuous
 62
     7
370
    20
100
AcDbLine
 39
0.3
 10
116.207943942832
 20
493.6799990441238
 30
0.0
 11
112.207943942832
 21
493.6799990441238
 31
0.0
1001
AUSTER_FOLIE
1002
{
1000
ZENTRA_2144_BO_M_LB_DREH
1002
}
1001
AUSTER_ANSICHT
1002
{
1000
SL
1002
}
  0
LINE
  5
A77B
330
20
100
AcDbEntity
  8
11000_Left
  6
Continuous
 62
     7
370
    13
100
AcDbLine
 39
0.35
 10
120.432943942832
 20
450.486999044124
 30
0.0
 11
100.770943942832
 21
473.0479990441241
 31
0.0
1001
AUSTER_FOLIE
1002
{
1000
ZENTRA_2144_BO_M_LB_DREH
1002
}
1001
AUSTER_ANSICHT
1002
{
1000
SL
1002
}
  0
LINE
  5
A77C
330
20
100
AcDbEntity
  8
11000_Left
  6
Continuous
 62
     7
370
    20
100
AcDbLine
 39
0.7
 10
89.69994394283203
 20
462.130999044124
 30
0.0
 11
118.051943942832
 21
462.130999044124
 31
0.0
1001
AUSTER_FOLIE
1002
{
1000
ZENTRA_2144_BO_M_LB_DREH
1002
}
1001
AUSTER_ANSICHT
1002
{
1000
SL
1002
}
  0
LINE
  5
A77D
330
20
100
AcDbEntity
  8
11000_Left
  6
Continuous
 62
     7
370
    50
100
AcDbLine
 39
0.7
 10
108.084943942832
 20
508.2699990441238
 30
0.0
 11
120.584943942832
 21
508.2699990441238
 31
0.0
1001
AUSTER_FOLIE
1002
{
1000
ZENTRA_2144_BO_M_LB_DREH
1002
}
1001
AUSTER_ANSICHT
1002
{
1000
SL
1002
}
  0
LINE
  5
A77E
330
20
100
AcDbEntity
  8
11000_Left
  6
Continuous
 62
     7
370
    20
100
AcDbLine
 39
0.7
 10
124.594943942832
 20
514.279999044124
 30
0.0
 11
110.594943942832
 21
528.2799990441239
 31
0.0
1001
AUSTER_FOLIE
1002
{
1000
ZENTRA_2144_BO_M_LB_DREH
1002
}
1001
AUSTER_ANSICHT
1002
{
1000
SL
1002
}
  0
LINE
  5
A77F
330
20
100
AcDbEntity
  8
11000_Left
  6
Continuous
 62
     7
370
    50
100
AcDbLine
 39
0.7
 10
90.59494394283198
 20
508.2799990441241
 30
0.0
 11
120.594943942832
 21
508.2799990441241
 31
0.0
1001
AUSTER_FOLIE
1002
{
1000
ZENTRA_2144_BO_M_LB_DREH
1002
}
1001
AUSTER_ANSICHT
1002
{
1000
SL
1002
}
  0
LINE
  5
A780
330
20
100
AcDbEntity
  8
11000_Left
  6
Continuous
 62
     7
370
    20
100
AcDbLine
 39
0.7
 10
89.69994394283203
 20
506.164999044124
 30
0.0
 11
118.051943942832
 21
506.164999044124
 31
0.0
1001
AUSTER_FOLIE
1002
{
1000
ZENTRA_2144_BO_M_LB_DREH
1002
}
1001
AUSTER_ANSICHT
1002
{
1000
SL
1002
}
  0
TEXT
  5
A781
330
20
100
AcDbEntity
  8
11000_Left
  6
Continuous
 62
     7
370
    20
100
AcDbText
 10
107.030943942832
 20
504.587999044124
 30
0.0
 40
3.0
  1
3LD2
 50
270.0
 41
0.8
100
AcDbText
1001
AUSTER_FOLIE
1002
{
1000
ZENTRA_2144_BO_M_LB_DREH
1002
}
1001
AUSTER_ANSICHT
1002
{
1000
SL
1002
}
  0
LINE
  5
A782
330
20
100
AcDbEntity
  8
11000_Left
  6
Continuous
 62
     7
370
    20
100
AcDbLine
 39
0.7
 10
89.69994394283203
 20
506.164999044124
 30
0.0
 11
89.69994394283203
 21
462.130999044124
 31
0.0
1001
AUSTER_FOLIE
1002
{
1000
ZENTRA_2144_BO_M_LB_DREH
1002
}
1001
AUSTER_ANSICHT
1002
{
1000
SL
1002
}
  0
LINE
  5
A783
330
20
100
AcDbEntity
  8
11000_Left
  6
Continuous
 62
     7
370
    50
100
AcDbLine
 39
0.7
 10
83.58494394283201
 20
466.7699990441241
 30
0.0
 11
83.58494394283201
 21
501.769999044124
 31
0.0
1001
AUSTER_FOLIE
1002
{
1000
ZENTRA_2144_BO_M_LB_DREH
1002
}
1001
AUSTER_ANSICHT
1002
{
1000
SL
1002
}
  0
ARC
  5
A784
330
20
100
AcDbEntity
  8
11000_Left
  6
Continuous
 62
     7
370
    20
100
AcDbCircle
 39
0.3
 10
116.925943942832
 20
494.9459990441241
 30
0.0
 40
2.270999999999999
100
AcDbArc
 50
150.0479999999982
 51
161.3780000000025
1001
AUSTER_FOLIE
1002
{
1000
ZENTRA_2144_BO_M_LB_DREH
1002
}
1001
AUSTER_ANSICHT
1002
{
1000
SL
1002
}
  0
ARC
  5
A785
330
20
100
AcDbEntity
  8
11000_Left
  6
Continuous
 62
     7
370
    20
100
AcDbCircle
 39
0.3
 10
100.262943942832
 20
501.7249990441237
 30
0.0
 40
14.585
100
AcDbArc
 50
335.3409999999996
 51
337.4000000000001
1001
AUSTER_FOLIE
1002
{
1000
ZENTRA_2144_BO_M_LB_DREH
1002
}
1001
AUSTER_ANSICHT
1002
{
1000
SL
1002
}
  0
ARC
  5
A786
330
20
100
AcDbEntity
  8
11000_Left
  6
Continuous
 62
     7
370
    20
100
AcDbCircle
 39
0.3
 10
115.621943942832
 20
496.3519990441238
 30
0.0
 40
2.741999999999998
100
AcDbArc
 50
157.5300000000029
 51
190.757999999998
1001
AUSTER_FOLIE
1002
{
1000
ZENTRA_2144_BO_M_LB_DREH
1002
}
1001
AUSTER_ANSICHT
1002
{
1000
SL
1002
}
  0
ARC
  5
A787
330
20
100
AcDbEntity
  8
11000_Left
  6
Continuous
 62
     7
370
    20
100
AcDbCircle
 39
0.3
 10
113.724943942832
 20
495.6329990441242
 30
0.0
 40
1.853
100
AcDbArc
 50
354.0400000000015
 51
13.34300000000105
1001
AUSTER_FOLIE
1002
{
1000
ZENTRA_2144_BO_M_LB_DREH
1002
}
1001
AUSTER_ANSICHT
1002
{
1000
SL
1002
}
  0
ARC
  5
A788
330
20
100
AcDbEntity
  8
11000_Left
  6
Continuous
 62
     7
370
    20
100
AcDbCircle
 39
0.3
 10
116.107943942832
 20
496.202999044124
 30
0.0
 40
4.003
100
AcDbArc
 50
162.5940000000016
 51
190.9819999999984
1001
AUSTER_FOLIE
1002
{
1000
ZENTRA_2144_BO_M_LB_DREH
1002
}
1001
AUSTER_ANSICHT
1002
{
1000
SL
1002
}
  0
LINE
  5
A789
330
20
100
AcDbEntity
  8
11000_Left
  6
Continuous
 62
     7
370
    50
100
AcDbLine
 39
0.7
 10
78.58494394283201
 20
450.2699990441241
 30
0.0
 11
82.58494394283202
 21
450.2699990441241
 31
0.0
1001
AUSTER_FOLIE
1002
{
1000
ZENTRA_2144_BO_M_LB_DREH
1002
}
1001
AUSTER_ANSICHT
1002
{
1000
SL
1002
}
  0
LINE
  5
A78A
330
20
100
AcDbEntity
  8
11000_Left
  6
Continuous
 62
     7
370
    50
100
AcDbLine
 39
0.7
 10
78.58494394283201
 20
466.7699990441241
 30
0.0
 11
83.58494394283201
 21
466.7699990441241
 31
0.0
1001
AUSTER_FOLIE
1002
{
1000
ZENTRA_2144_BO_M_LB_DREH
1002
}
1001
AUSTER_ANSICHT
1002
{
1000
SL
1002
}
  0
LINE
  5
A78B
330
20
100
AcDbEntity
  8
11000_Left
  6
Continuous
 62
     7
370
    50
100
AcDbLine
 39
0.7
 10
88.58494394283201
 20
459.2699990441241
 30
0.0
 11
78.58494394283201
 21
459.2699990441241
 31
0.0
1001
AUSTER_FOLIE
1002
{
1000
ZENTRA_2144_BO_M_LB_DREH
1002
}
1001
AUSTER_ANSICHT
1002
{
1000
SL
1002
}
  0
LINE
  5
A78C
330
20
100
AcDbEntity
  8
11000_Left
  6
Continuous
 62
     7
370
    50
100
AcDbLine
 39
0.7
 10
78.58494394283201
 20
452.8649990441241
 30
0.0
 11
78.58494394283201
 21
450.2699990441241
 31
0.0
1001
AUSTER_FOLIE
1002
{
1000
ZENTRA_2144_BO_M_LB_DREH
1002
}
1001
AUSTER_ANSICHT
1002
{
1000
SL
1002
}
  0
LINE
  5
A78E
330
20
100
AcDbEntity
  8
11000_Left
  6
Continuous
 62
     7
370
    50
100
AcDbLine
 39
0.7
 10
78.58494394283201
 20
459.2699990441241
 30
0.0
 11
78.58494394283201
 21
452.8649990441241
 31
0.0
1001
AUSTER_FOLIE
1002
{
1000
ZENTRA_2144_BO_M_LB_DREH
1002
}
1001
AUSTER_ANSICHT
1002
{
1000
SL
1002
}
  0
LINE
  5
A78F
330
20
100
AcDbEntity
  8
11000_Left
  6
Continuous
 62
     7
370
    50
100
AcDbLine
 39
0.7
 10
78.58494394283201
 20
459.2699990441241
 30
0.0
 11
78.58494394283201
 21
466.7699990441241
 31
0.0
1001
AUSTER_FOLIE
1002
{
1000
ZENTRA_2144_BO_M_LB_DREH
1002
}
1001
AUSTER_ANSICHT
1002
{
1000
SL
1002
}
  0
LINE
  5
A792
330
20
100
AcDbEntity
  8
11000_Left
  6
Continuous
 62
     7
370
    50
100
AcDbLine
 39
0.7
 10
108.084943942832
 20
456.769999044124
 30
0.0
 11
94.58494394283199
 21
456.769999044124
 31
0.0
1001
AUSTER_FOLIE
1002
{
1000
ZENTRA_2144_BO_M_LB_DREH
1002
}
1001
AUSTER_ANSICHT
1002
{
1000
SL
1002
}
  0
LINE
  5
A793
330
20
100
AcDbEntity
  8
11000_Left
  6
Continuous
 62
     7
370
    50
100
AcDbLine
 39
0.7
 10
82.58494394283202
 20
450.2699990441241
 30
0.0
 11
82.58494394283202
 21
452.8649990441241
 31
0.0
1001
AUSTER_FOLIE
1002
{
1000
ZENTRA_2144_BO_M_LB_DREH
1002
}
1001
AUSTER_ANSICHT
1002
{
1000
SL
1002
}
  0
LINE
  5
A794
330
20
100
AcDbEntity
  8
11000_Left
  6
Continuous
 62
     7
370
    50
100
AcDbLine
 39
0.7
 10
94.58494394283199
 20
460.269999044124
 30
0.0
 11
88.58494394283201
 21
460.269999044124
 31
0.0
1001
AUSTER_FOLIE
1002
{
1000
ZENTRA_2144_BO_M_LB_DREH
1002
}
1001
AUSTER_ANSICHT
1002
{
1000
SL
1002
}
  0
LINE
  5
A795
330
20
100
AcDbEntity
  8
11000_Left
  6
Continuous
 62
     7
370
    50
100
AcDbLine
 39
0.7
 10
82.58494394283202
 20
452.8649990441241
 30
0.0
 11
82.58494394283202
 21
459.2699990441241
 31
0.0
1001
AUSTER_FOLIE
1002
{
1000
ZENTRA_2144_BO_M_LB_DREH
1002
}
1001
AUSTER_ANSICHT
1002
{
1000
SL
1002
}
  0
LINE
  5
A796
330
20
100
AcDbEntity
  8
11000_Left
  6
Continuous
 62
     7
370
    50
100
AcDbLine
 39
0.7
 10
88.58494394283201
 20
460.269999044124
 30
0.0
 11
88.58494394283201
 21
459.2699990441241
 31
0.0
1001
AUSTER_FOLIE
1002
{
1000
ZENTRA_2144_BO_M_LB_DREH
1002
}
1001
AUSTER_ANSICHT
1002
{
1000
SL
1002
}
  0
LINE
  5
A798
330
20
100
AcDbEntity
  8
11000_Left
  6
Continuous
 62
     7
370
    50
100
AcDbLine
 39
0.7
 10
94.58494394283199
 20
456.769999044124
 30
0.0
 11
94.58494394283199
 21
460.269999044124
 31
0.0
1001
AUSTER_FOLIE
1002
{
1000
ZENTRA_2144_BO_M_LB_DREH
1002
}
1001
AUSTER_ANSICHT
1002
{
1000
SL
1002
}
  0
LINE
  5
A79D
330
20
100
AcDbEntity
  8
11000_Left
  6
Continuous
 62
     7
370
    50
100
AcDbLine
 39
0.7
 10
108.084943942832
 20
460.269999044124
 30
0.0
 11
108.084943942832
 21
456.769999044124
 31
0.0
1001
AUSTER_FOLIE
1002
{
1000
ZENTRA_2144_BO_M_LB_DREH
1002
}
1001
AUSTER_ANSICHT
1002
{
1000
SL
1002
}
  0
LINE
  5
A79E
330
20
100
AcDbEntity
  8
11000_Left
  6
Continuous
 62
     7
370
    20
100
AcDbLine
 39
0.3
 10
112.207943942832
 20
482.039999044124
 30
0.0
 11
112.207943942832
 21
479.0399990441238
 31
0.0
1001
AUSTER_FOLIE
1002
{
1000
ZENTRA_2144_BO_M_LB_DREH
1002
}
1001
AUSTER_ANSICHT
1002
{
1000
SL
1002
}
  0
LINE
  5
A79F
330
20
100
AcDbEntity
  8
11000_Left
  6
Continuous
 62
     7
370
    20
100
AcDbLine
 39
0.3
 10
112.207943942832
 20
478.379999044124
 30
0.0
 11
112.207943942832
 21
477.5799990441238
 31
0.0
1001
AUSTER_FOLIE
1002
{
1000
ZENTRA_2144_BO_M_LB_DREH
1002
}
1001
AUSTER_ANSICHT
1002
{
1000
SL
1002
}
  0
ARC
  5
A7A0
330
20
100
AcDbEntity
  8
11000_Left
  6
Continuous
 62
     7
370
    20
100
AcDbCircle
 39
0.3
 10
113.316943942832
 20
472.3429990441238
 30
0.0
 40
1.266
100
AcDbArc
 50
295.9560000000006
 51
329.4829999999999
1001
AUSTER_FOLIE
1002
{
1000
ZENTRA_2144_BO_M_LB_DREH
1002
}
1001
AUSTER_ANSICHT
1002
{
1000
SL
1002
}
  0
ARC
  5
A7A1
330
20
100
AcDbEntity
  8
11000_Left
  6
Continuous
 62
     7
370
    20
100
AcDbCircle
 39
0.3
 10
113.3829439428321
 20
472.2819990441238
 30
0.0
 40
1.183
100
AcDbArc
 50
245.3869999999992
 51
294.3919999999986
1001
AUSTER_FOLIE
1002
{
1000
ZENTRA_2144_BO_M_LB_DREH
1002
}
1001
AUSTER_ANSICHT
1002
{
1000
SL
1002
}
  0
ARC
  5
A7A2
330
20
100
AcDbEntity
  8
11000_Left
  6
Continuous
 62
     7
370
    20
100
AcDbCircle
 39
0.3
 10
113.4279439428319
 20
472.2859990441242
 30
0.0
 40
1.205999999999997
100
AcDbArc
 50
225.8899999999989
 51
243.5230000000009
1001
AUSTER_FOLIE
1002
{
1000
ZENTRA_2144_BO_M_LB_DREH
1002
}
1001
AUSTER_ANSICHT
1002
{
1000
SL
1002
}
  0
ARC
  5
A7A3
330
20
100
AcDbEntity
  8
11000_Left
  6
Continuous
 62
     7
370
    20
100
AcDbCircle
 39
0.3
 10
116.925943942832
 20
471.7259990441238
 30
0.0
 40
2.270999999999999
100
AcDbArc
 50
150.0479999999982
 51
161.3780000000025
1001
AUSTER_FOLIE
1002
{
1000
ZENTRA_2144_BO_M_LB_DREH
1002
}
1001
AUSTER_ANSICHT
1002
{
1000
SL
1002
}
  0
ARC
  5
A7A4
330
20
100
AcDbEntity
  8
11000_Left
  6
Continuous
 62
     7
370
    20
100
AcDbCircle
 39
0.3
 10
109.414943942832
 20
474.5949990441241
 30
0.0
 40
5.772
100
AcDbArc
 50
329.9019999999976
 51
338.2040000000032
1001
AUSTER_FOLIE
1002
{
1000
ZENTRA_2144_BO_M_LB_DREH
1002
}
1001
AUSTER_ANSICHT
1002
{
1000
SL
1002
}
  0
ARC
  5
A7A5
330
20
100
AcDbEntity
  8
11000_Left
  6
Continuous
 62
     7
370
    20
100
AcDbCircle
 39
0.3
 10
115.582943942832
 20
472.4849990441241
 30
0.0
 40
0.7290000000000001
100
AcDbArc
 50
132.7759999999993
 51
149.0359999999991
1001
AUSTER_FOLIE
1002
{
1000
ZENTRA_2144_BO_M_LB_DREH
1002
}
1001
AUSTER_ANSICHT
1002
{
1000
SL
1002
}
  0
ARC
  5
A7A6
330
20
100
AcDbEntity
  8
11000_Left
  6
Continuous
 62
     7
370
    20
100
AcDbCircle
 39
0.3
 10
115.067943942832
 20
473.1199990441238
 30
0.0
 40
1.102
100
AcDbArc
 50
74.19700000000078
 51
105.8029999999992
1001
AUSTER_FOLIE
1002
{
1000
ZENTRA_2144_BO_M_LB_DREH
1002
}
1001
AUSTER_ANSICHT
1002
{
1000
SL
1002
}
  0
ARC
  5
A7A7
330
20
100
AcDbEntity
  8
11000_Left
  6
Continuous
 62
     7
370
    20
100
AcDbCircle
 39
0.3
 10
115.033943942832
 20
473.1719990441241
 30
0.0
 40
1.042
100
AcDbArc
 50
104.7949999999999
 51
135.7179999999998
1001
AUSTER_FOLIE
1002
{
1000
ZENTRA_2144_BO_M_LB_DREH
1002
}
1001
AUSTER_ANSICHT
1002
{
1000
SL
1002
}
  0
ARC
  5
A7A8
330
20
100
AcDbEntity
  8
11000_Left
  6
Continuous
 62
     7
370
    20
100
AcDbCircle
 39
0.3
 10
115.627943942832
 20
472.6639990441241
 30
0.0
 40
1.823
100
AcDbArc
 50
137.312000000001
 51
152.7040000000025
1001
AUSTER_FOLIE
1002
{
1000
ZENTRA_2144_BO_M_LB_DREH
1002
}
1001
AUSTER_ANSICHT
1002
{
1000
SL
1002
}
  0
ARC
  5
A7A9
330
20
100
AcDbEntity
  8
11000_Left
  6
Continuous
 62
     7
370
    20
100
AcDbCircle
 39
0.3
 10
121.967943942832
 20
469.419999044124
 30
0.0
 40
8.945
100
AcDbArc
 50
152.8620000000016
 51
157.1039999999993
1001
AUSTER_FOLIE
1002
{
1000
ZENTRA_2144_BO_M_LB_DREH
1002
}
1001
AUSTER_ANSICHT
1002
{
1000
SL
1002
}
  0
ARC
  5
A7AA
330
20
100
AcDbEntity
  8
11000_Left
  6
Continuous
 62
     7
370
    20
100
AcDbCircle
 39
0.3
 10
100.262943942832
 20
478.5049990441241
 30
0.0
 40
14.585
100
AcDbArc
 50
335.3409999999996
 51
337.4000000000001
1001
AUSTER_FOLIE
1002
{
1000
ZENTRA_2144_BO_M_LB_DREH
1002
}
1001
AUSTER_ANSICHT
1002
{
1000
SL
1002
}
  0
ARC
  5
A7AB
330
20
100
AcDbEntity
  8
11000_Left
  6
Continuous
 62
     7
370
    20
100
AcDbCircle
 39
0.3
 10
115.621943942832
 20
473.131999044124
 30
0.0
 40
2.741999999999998
100
AcDbArc
 50
157.5300000000029
 51
190.757999999998
1001
AUSTER_FOLIE
1002
{
1000
ZENTRA_2144_BO_M_LB_DREH
1002
}
1001
AUSTER_ANSICHT
1002
{
1000
SL
1002
}
  0
ARC
  5
A7AC
330
20
100
AcDbEntity
  8
11000_Left
  6
Continuous
 62
     7
370
    20
100
AcDbCircle
 39
0.3
 10
111.690943942832
 20
472.6989990441238
 30
0.0
 40
3.907
100
AcDbArc
 50
340.2630000000031
 51
352.9520000000029
1001
AUSTER_FOLIE
1002
{
1000
ZENTRA_2144_BO_M_LB_DREH
1002
}
1001
AUSTER_ANSICHT
1002
{
1000
SL
1002
}
  0
ARC
  5
A7AD
330
20
100
AcDbEntity
  8
11000_Left
  6
Continuous
 62
     7
370
    20
100
AcDbCircle
 39
0.3
 10
113.724943942832
 20
472.4129990441241
 30
0.0
 40
1.853
100
AcDbArc
 50
354.0400000000015
 51
13.34300000000105
1001
AUSTER_FOLIE
1002
{
1000
ZENTRA_2144_BO_M_LB_DREH
1002
}
1001
AUSTER_ANSICHT
1002
{
1000
SL
1002
}
  0
ARC
  5
A7AE
330
20
100
AcDbEntity
  8
11000_Left
  6
Continuous
 62
     7
370
    20
100
AcDbCircle
 39
0.3
 10
115.191943942832
 20
472.7629990441242
 30
0.0
 40
0.345
100
AcDbArc
 50
12.82900000000158
 51
59.22599999999848
1001
AUSTER_FOLIE
1002
{
1000
ZENTRA_2144_BO_M_LB_DREH
1002
}
1001
AUSTER_ANSICHT
1002
{
1000
SL
1002
}
  0
ARC
  5
A7AF
330
20
100
AcDbEntity
  8
11000_Left
  6
Continuous
 62
     7
370
    20
100
AcDbCircle
 39
0.3
 10
115.257943942832
 20
472.8299990441238
 30
0.0
 40
0.255
100
AcDbArc
 50
64.44000000000129
 51
131.8200000000006
1001
AUSTER_FOLIE
1002
{
1000
ZENTRA_2144_BO_M_LB_DREH
1002
}
1001
AUSTER_ANSICHT
1002
{
1000
SL
1002
}
  0
ARC
  5
A7B0
330
20
100
AcDbEntity
  8
11000_Left
  6
Continuous
 62
     7
370
    20
100
AcDbCircle
 39
0.3
 10
113.904943942832
 20
472.5999990441238
 30
0.0
 40
1.767999999999999
100
AcDbArc
 50
192.4060000000004
 51
221.8639999999994
1001
AUSTER_FOLIE
1002
{
1000
ZENTRA_2144_BO_M_LB_DREH
1002
}
1001
AUSTER_ANSICHT
1002
{
1000
SL
1002
}
  0
ARC
  5
A7B1
330
20
100
AcDbEntity
  8
11000_Left
  6
Continuous
 62
     7
370
    20
100
AcDbCircle
 39
0.3
 10
116.107943942832
 20
472.9829990441238
 30
0.0
 40
4.003
100
AcDbArc
 50
162.5940000000016
 51
190.9819999999984
1001
AUSTER_FOLIE
1002
{
1000
ZENTRA_2144_BO_M_LB_DREH
1002
}
1001
AUSTER_ANSICHT
1002
{
1000
SL
1002
}
  0
ARC
  5
A7B2
330
20
100
AcDbEntity
  8
11000_Left
  6
Continuous
 62
     7
370
    20
100
AcDbCircle
 39
0.3
 10
113.2449439428319
 20
472.505999044124
 30
0.0
 40
0.286
100
AcDbArc
 50
215.5030000000014
 51
342.4650000000022
1001
AUSTER_FOLIE
1002
{
1000
ZENTRA_2144_BO_M_LB_DREH
1002
}
1001
AUSTER_ANSICHT
1002
{
1000
SL
1002
}
  0
ARC
  5
A7B3
330
20
100
AcDbEntity
  8
11000_Left
  6
Continuous
 62
     7
370
    20
100
AcDbCircle
 39
0.3
 10
113.854943942832
 20
472.7459990441241
 30
0.0
 40
0.9350000000000001
100
AcDbArc
 50
187.7100000000004
 51
205.6879999999983
1001
AUSTER_FOLIE
1002
{
1000
ZENTRA_2144_BO_M_LB_DREH
1002
}
1001
AUSTER_ANSICHT
1002
{
1000
SL
1002
}
  0
LINE
  5
A7B4
330
20
100
AcDbEntity
  8
11000_Left
  6
Continuous
 62
     7
370
    20
100
AcDbLine
 39
0.3
 10
112.207943942832
 20
477.5799990441238
 30
0.0
 11
114.767943942832
 21
477.5799990441238
 31
0.0
1001
AUSTER_FOLIE
1002
{
1000
ZENTRA_2144_BO_M_LB_DREH
1002
}
1001
AUSTER_ANSICHT
1002
{
1000
SL
1002
}
  0
LINE
  5
A7B5
330
20
100
AcDbEntity
  8
11000_Left
  6
Continuous
 62
     7
370
    20
100
AcDbLine
 39
0.3
 10
112.207943942832
 20
476.139999044124
 30
0.0
 11
114.767943942832
 21
477.5799990441238
 31
0.0
1001
AUSTER_FOLIE
1002
{
1000
ZENTRA_2144_BO_M_LB_DREH
1002
}
1001
AUSTER_ANSICHT
1002
{
1000
SL
1002
}
  0
LINE
  5
A7B6
330
20
100
AcDbEntity
  8
11000_Left
  6
Continuous
 62
     7
370
    20
100
AcDbLine
 39
0.3
 10
112.207943942832
 20
474.8599990441241
 30
0.0
 11
112.207943942832
 21
476.139999044124
 31
0.0
1001
AUSTER_FOLIE
1002
{
1000
ZENTRA_2144_BO_M_LB_DREH
1002
}
1001
AUSTER_ANSICHT
1002
{
1000
SL
1002
}
  0
LINE
  5
A7B7
330
20
100
AcDbEntity
  8
11000_Left
  6
Continuous
 62
     7
370
    20
100
AcDbLine
 39
0.3
 10
112.287943942832
 20
474.1799990441238
 30
0.0
 11
113.087943942832
 21
474.1799990441238
 31
0.0
1001
AUSTER_FOLIE
1002
{
1000
ZENTRA_2144_BO_M_LB_DREH
1002
}
1001
AUSTER_ANSICHT
1002
{
1000
SL
1002
}
  0
POINT
  5
A7B8
330
20
100
AcDbEntity
  8
11000_Left
  6
Continuous
 62
     7
370
    20
100
AcDbPoint
 10
112.104943942832
 20
471.0989990441238
 30
0.0
 39
0.3
1001
AUSTER_FOLIE
1002
{
1000
ZENTRA_2144_BO_M_LB_DREH
1002
}
1001
AUSTER_ANSICHT
1002
{
1000
SL
1002
}
  0
POINT
  5
A7B9
330
20
100
AcDbEntity
  8
11000_Left
  6
Continuous
 62
     7
370
    20
100
AcDbPoint
 10
114.208943942832
 20
471.0989990441238
 30
0.0
 39
0.3
1001
AUSTER_FOLIE
1002
{
1000
ZENTRA_2144_BO_M_LB_DREH
1002
}
1001
AUSTER_ANSICHT
1002
{
1000
SL
1002
}
  0
LINE
  5
A7BA
330
20
100
AcDbEntity
  8
11000_Left
  6
Continuous
 62
     7
370
    20
100
AcDbLine
 39
0.3
 10
113.907943942832
 20
480.8799990441241
 30
0.0
 11
112.967943942832
 21
480.8799990441241
 31
0.0
1001
AUSTER_FOLIE
1002
{
1000
ZENTRA_2144_BO_M_LB_DREH
1002
}
1001
AUSTER_ANSICHT
1002
{
1000
SL
1002
}
  0
LINE
  5
A7BB
330
20
100
AcDbEntity
  8
11000_Left
  6
Continuous
 62
     7
370
    20
100
AcDbLine
 39
0.3
 10
115.467943942832
 20
480.8799990441241
 30
0.0
 11
114.567943942832
 21
480.8799990441241
 31
0.0
1001
AUSTER_FOLIE
1002
{
1000
ZENTRA_2144_BO_M_LB_DREH
1002
}
1001
AUSTER_ANSICHT
1002
{
1000
SL
1002
}
  0
LINE
  5
A7BC
330
20
100
AcDbEntity
  8
11000_Left
  6
Continuous
 62
     7
370
    20
100
AcDbLine
 39
0.3
 10
114.567943942832
 20
479.3199990441238
 30
0.0
 11
114.567943942832
 21
480.8799990441241
 31
0.0
1001
AUSTER_FOLIE
1002
{
1000
ZENTRA_2144_BO_M_LB_DREH
1002
}
1001
AUSTER_ANSICHT
1002
{
1000
SL
1002
}
  0
LINE
  5
A7BD
330
20
100
AcDbEntity
  8
11000_Left
  6
Continuous
 62
     7
370
    20
100
AcDbLine
 39
0.3
 10
114.567943942832
 20
479.3199990441238
 30
0.0
 11
113.907943942832
 21
479.3199990441238
 31
0.0
1001
AUSTER_FOLIE
1002
{
1000
ZENTRA_2144_BO_M_LB_DREH
1002
}
1001
AUSTER_ANSICHT
1002
{
1000
SL
1002
}
  0
LINE
  5
A7BE
330
20
100
AcDbEntity
  8
11000_Left
  6
Continuous
 62
     7
370
    20
100
AcDbLine
 39
0.3
 10
113.907943942832
 20
479.3199990441238
 30
0.0
 11
113.907943942832
 21
480.8799990441241
 31
0.0
1001
AUSTER_FOLIE
1002
{
1000
ZENTRA_2144_BO_M_LB_DREH
1002
}
1001
AUSTER_ANSICHT
1002
{
1000
SL
1002
}
  0
LINE
  5
A7BF
330
20
100
AcDbEntity
  8
11000_Left
  6
Continuous
 62
     7
370
    20
100
AcDbLine
 39
0.3
 10
115.467943942832
 20
479.0799990441238
 30
0.0
 11
115.467943942832
 21
480.8799990441241
 31
0.0
1001
AUSTER_FOLIE
1002
{
1000
ZENTRA_2144_BO_M_LB_DREH
1002
}
1001
AUSTER_ANSICHT
1002
{
1000
SL
1002
}
  0
LINE
  5
A7C0
330
20
100
AcDbEntity
  8
11000_Left
  6
Continuous
 62
     7
370
    20
100
AcDbLine
 39
0.3
 10
112.967943942832
 20
479.0399990441238
 30
0.0
 11
112.207943942832
 21
479.0399990441238
 31
0.0
1001
AUSTER_FOLIE
1002
{
1000
ZENTRA_2144_BO_M_LB_DREH
1002
}
1001
AUSTER_ANSICHT
1002
{
1000
SL
1002
}
  0
LINE
  5
A7C1
330
20
100
AcDbEntity
  8
11000_Left
  6
Continuous
 62
     7
370
    20
100
AcDbLine
 39
0.3
 10
112.967943942832
 20
479.0399990441238
 30
0.0
 11
112.967943942832
 21
480.8799990441241
 31
0.0
1001
AUSTER_FOLIE
1002
{
1000
ZENTRA_2144_BO_M_LB_DREH
1002
}
1001
AUSTER_ANSICHT
1002
{
1000
SL
1002
}
  0
LINE
  5
A7C2
330
20
100
AcDbEntity
  8
11000_Left
  6
Continuous
 62
     7
370
    20
100
AcDbLine
 39
0.3
 10
112.207943942832
 20
491.5599990441238
 30
0.0
 11
112.207943942832
 21
488.559999044124
 31
0.0
1001
AUSTER_FOLIE
1002
{
1000
ZENTRA_2144_BO_M_LB_DREH
1002
}
1001
AUSTER_ANSICHT
1002
{
1000
SL
1002
}
  0
LINE
  5
A7C3
330
20
100
AcDbEntity
  8
11000_Left
  6
Continuous
 62
     7
370
    20
100
AcDbLine
 39
0.3
 10
114.807943942832
 20
484.1199990441241
 30
0.0
 11
112.207943942832
 21
484.1199990441241
 31
0.0
1001
AUSTER_FOLIE
1002
{
1000
ZENTRA_2144_BO_M_LB_DREH
1002
}
1001
AUSTER_ANSICHT
1002
{
1000
SL
1002
}
  0
LINE
  5
A7C4
330
20
100
AcDbEntity
  8
11000_Left
  6
Continuous
 62
     7
370
    20
100
AcDbLine
 39
0.3
 10
114.807943942832
 20
484.1199990441241
 30
0.0
 11
112.167943942832
 21
485.239999044124
 31
0.0
1001
AUSTER_FOLIE
1002
{
1000
ZENTRA_2144_BO_M_LB_DREH
1002
}
1001
AUSTER_ANSICHT
1002
{
1000
SL
1002
}
  0
LINE
  5
A7C5
330
20
100
AcDbEntity
  8
11000_Left
  6
Continuous
 62
     7
370
    20
100
AcDbLine
 39
0.3
 10
112.207943942832
 20
487.079999044124
 30
0.0
 11
114.767943942832
 21
487.079999044124
 31
0.0
1001
AUSTER_FOLIE
1002
{
1000
ZENTRA_2144_BO_M_LB_DREH
1002
}
1001
AUSTER_ANSICHT
1002
{
1000
SL
1002
}
  0
LINE
  5
A7C6
330
20
100
AcDbEntity
  8
11000_Left
  6
Continuous
 62
     7
370
    20
100
AcDbLine
 39
0.3
 10
112.167943942832
 20
485.9599990441242
 30
0.0
 11
114.767943942832
 21
487.079999044124
 31
0.0
1001
AUSTER_FOLIE
1002
{
1000
ZENTRA_2144_BO_M_LB_DREH
1002
}
1001
AUSTER_ANSICHT
1002
{
1000
SL
1002
}
  0
LINE
  5
A7C7
330
20
100
AcDbEntity
  8
11000_Left
  6
Continuous
 62
     7
370
    20
100
AcDbLine
 39
0.3
 10
112.167943942832
 20
485.9599990441242
 30
0.0
 11
112.167943942832
 21
485.239999044124
 31
0.0
1001
AUSTER_FOLIE
1002
{
1000
ZENTRA_2144_BO_M_LB_DREH
1002
}
1001
AUSTER_ANSICHT
1002
{
1000
SL
1002
}
  0
LINE
  5
A7C8
330
20
100
AcDbEntity
  8
11000_Left
  6
Continuous
 62
     7
370
    20
100
AcDbLine
 39
0.3
 10
112.207943942832
 20
482.959999044124
 30
0.0
 11
112.207943942832
 21
484.1199990441241
 31
0.0
1001
AUSTER_FOLIE
1002
{
1000
ZENTRA_2144_BO_M_LB_DREH
1002
}
1001
AUSTER_ANSICHT
1002
{
1000
SL
1002
}
  0
LINE
  5
A7C9
330
20
100
AcDbEntity
  8
11000_Left
  6
Continuous
 62
     7
370
    20
100
AcDbLine
 39
0.3
 10
112.207943942832
 20
487.8799990441241
 30
0.0
 11
112.207943942832
 21
487.079999044124
 31
0.0
1001
AUSTER_FOLIE
1002
{
1000
ZENTRA_2144_BO_M_LB_DREH
1002
}
1001
AUSTER_ANSICHT
1002
{
1000
SL
1002
}
  0
LINE
  5
A7CA
330
20
100
AcDbEntity
  8
11000_Left
  6
Continuous
 62
     7
370
    20
100
AcDbLine
 39
0.3
 10
113.907943942832
 20
490.3999990441241
 30
0.0
 11
112.967943942832
 21
490.3999990441241
 31
0.0
1001
AUSTER_FOLIE
1002
{
1000
ZENTRA_2144_BO_M_LB_DREH
1002
}
1001
AUSTER_ANSICHT
1002
{
1000
SL
1002
}
  0
LINE
  5
A7CB
330
20
100
AcDbEntity
  8
11000_Left
  6
Continuous
 62
     7
370
    20
100
AcDbLine
 39
0.3
 10
115.467943942832
 20
490.3999990441241
 30
0.0
 11
114.567943942832
 21
490.3999990441241
 31
0.0
1001
AUSTER_FOLIE
1002
{
1000
ZENTRA_2144_BO_M_LB_DREH
1002
}
1001
AUSTER_ANSICHT
1002
{
1000
SL
1002
}
  0
LINE
  5
A7CC
330
20
100
AcDbEntity
  8
11000_Left
  6
Continuous
 62
     7
370
    20
100
AcDbLine
 39
0.3
 10
114.567943942832
 20
488.8399990441238
 30
0.0
 11
114.567943942832
 21
490.3999990441241
 31
0.0
1001
AUSTER_FOLIE
1002
{
1000
ZENTRA_2144_BO_M_LB_DREH
1002
}
1001
AUSTER_ANSICHT
1002
{
1000
SL
1002
}
  0
LINE
  5
A7CD
330
20
100
AcDbEntity
  8
11000_Left
  6
Continuous
 62
     7
370
    20
100
AcDbLine
 39
0.3
 10
114.567943942832
 20
488.8399990441238
 30
0.0
 11
113.907943942832
 21
488.8399990441238
 31
0.0
1001
AUSTER_FOLIE
1002
{
1000
ZENTRA_2144_BO_M_LB_DREH
1002
}
1001
AUSTER_ANSICHT
1002
{
1000
SL
1002
}
  0
LINE
  5
A7CE
330
20
100
AcDbEntity
  8
11000_Left
  6
Continuous
 62
     7
370
    20
100
AcDbLine
 39
0.3
 10
113.907943942832
 20
488.8399990441238
 30
0.0
 11
113.907943942832
 21
490.3999990441241
 31
0.0
1001
AUSTER_FOLIE
1002
{
1000
ZENTRA_2144_BO_M_LB_DREH
1002
}
1001
AUSTER_ANSICHT
1002
{
1000
SL
1002
}
  0
LINE
  5
A7CF
330
20
100
AcDbEntity
  8
11000_Left
  6
Continuous
 62
     7
370
    20
100
AcDbLine
 39
0.3
 10
115.467943942832
 20
488.5999990441241
 30
0.0
 11
115.467943942832
 21
490.3999990441241
 31
0.0
1001
AUSTER_FOLIE
1002
{
1000
ZENTRA_2144_BO_M_LB_DREH
1002
}
1001
AUSTER_ANSICHT
1002
{
1000
SL
1002
}
  0
LINE
  5
A7D0
330
20
100
AcDbEntity
  8
11000_Left
  6
Continuous
 62
     7
370
    20
100
AcDbLine
 39
0.3
 10
112.967943942832
 20
488.559999044124
 30
0.0
 11
112.207943942832
 21
488.559999044124
 31
0.0
1001
AUSTER_FOLIE
1002
{
1000
ZENTRA_2144_BO_M_LB_DREH
1002
}
1001
AUSTER_ANSICHT
1002
{
1000
SL
1002
}
  0
LINE
  5
A7D1
330
20
100
AcDbEntity
  8
11000_Left
  6
Continuous
 62
     7
370
    20
100
AcDbLine
 39
0.3
 10
112.967943942832
 20
488.559999044124
 30
0.0
 11
112.967943942832
 21
490.3999990441241
 31
0.0
1001
AUSTER_FOLIE
1002
{
1000
ZENTRA_2144_BO_M_LB_DREH
1002
}
1001
AUSTER_ANSICHT
1002
{
1000
SL
1002
}
  0
POINT
  5
A7D2
330
20
100
AcDbEntity
  8
11000_Left
  6
Continuous
 62
     7
370
    20
100
AcDbPoint
 10
112.104943942832
 20
484.2699990441241
 30
0.0
 39
0.3
1001
AUSTER_FOLIE
1002
{
1000
ZENTRA_2144_BO_M_LB_DREH
1002
}
1001
AUSTER_ANSICHT
1002
{
1000
SL
1002
}
  0
POINT
  5
A7D3
330
20
100
AcDbEntity
  8
11000_Left
  6
Continuous
 62
     7
370
    20
100
AcDbPoint
 10
114.208943942832
 20
484.2699990441241
 30
0.0
 39
0.3
1001
AUSTER_FOLIE
1002
{
1000
ZENTRA_2144_BO_M_LB_DREH
1002
}
1001
AUSTER_ANSICHT
1002
{
1000
SL
1002
}
  0
ARC
  5
A7D4
330
20
100
AcDbEntity
  8
11000_Left
  6
Continuous
 62
     7
370
    20
100
AcDbCircle
 39
0.3
 10
113.316943942832
 20
495.562999044124
 30
0.0
 40
1.266
100
AcDbArc
 50
295.9560000000006
 51
329.4829999999999
1001
AUSTER_FOLIE
1002
{
1000
ZENTRA_2144_BO_M_LB_DREH
1002
}
1001
AUSTER_ANSICHT
1002
{
1000
SL
1002
}
  0
ARC
  5
A7D5
330
20
100
AcDbEntity
  8
11000_Left
  6
Continuous
 62
     7
370
    20
100
AcDbCircle
 39
0.3
 10
113.3829439428321
 20
495.501999044124
 30
0.0
 40
1.183
100
AcDbArc
 50
245.3869999999992
 51
294.3919999999986
1001
AUSTER_FOLIE
1002
{
1000
ZENTRA_2144_BO_M_LB_DREH
1002
}
1001
AUSTER_ANSICHT
1002
{
1000
SL
1002
}
  0
ARC
  5
A7D6
330
20
100
AcDbEntity
  8
11000_Left
  6
Continuous
 62
     7
370
    20
100
AcDbCircle
 39
0.3
 10
113.4279439428319
 20
495.505999044124
 30
0.0
 40
1.205999999999997
100
AcDbArc
 50
225.8899999999989
 51
243.5230000000009
1001
AUSTER_FOLIE
1002
{
1000
ZENTRA_2144_BO_M_LB_DREH
1002
}
1001
AUSTER_ANSICHT
1002
{
1000
SL
1002
}
  0
ARC
  5
A7D7
330
20
100
AcDbEntity
  8
11000_Left
  6
Continuous
 62
     7
370
    20
100
AcDbCircle
 39
0.3
 10
109.414943942832
 20
497.8149990441238
 30
0.0
 40
5.772
100
AcDbArc
 50
329.9019999999976
 51
338.2040000000032
1001
AUSTER_FOLIE
1002
{
1000
ZENTRA_2144_BO_M_LB_DREH
1002
}
1001
AUSTER_ANSICHT
1002
{
1000
SL
1002
}
  0
ARC
  5
A7D8
330
20
100
AcDbEntity
  8
11000_Left
  6
Continuous
 62
     7
370
    20
100
AcDbCircle
 39
0.3
 10
111.690943942832
 20
495.918999044124
 30
0.0
 40
3.907
100
AcDbArc
 50
340.2630000000031
 51
352.9520000000029
1001
AUSTER_FOLIE
1002
{
1000
ZENTRA_2144_BO_M_LB_DREH
1002
}
1001
AUSTER_ANSICHT
1002
{
1000
SL
1002
}
  0
ARC
  5
A7D9
330
20
100
AcDbEntity
  8
11000_Left
  6
Continuous
 62
     7
370
    20
100
AcDbCircle
 39
0.3
 10
113.904943942832
 20
495.8199990441238
 30
0.0
 40
1.767999999999999
100
AcDbArc
 50
192.4060000000004
 51
221.8639999999994
1001
AUSTER_FOLIE
1002
{
1000
ZENTRA_2144_BO_M_LB_DREH
1002
}
1001
AUSTER_ANSICHT
1002
{
1000
SL
1002
}
  0
ARC
  5
A7DA
330
20
100
AcDbEntity
  8
11000_Left
  6
Continuous
 62
     7
370
    20
100
AcDbCircle
 39
0.3
 10
113.2449439428319
 20
495.7259990441241
 30
0.0
 40
0.286
100
AcDbArc
 50
215.5030000000014
 51
342.4650000000022
1001
AUSTER_FOLIE
1002
{
1000
ZENTRA_2144_BO_M_LB_DREH
1002
}
1001
AUSTER_ANSICHT
1002
{
1000
SL
1002
}
  0
ARC
  5
A7DB
330
20
100
AcDbEntity
  8
11000_Left
  6
Continuous
 62
     7
370
    20
100
AcDbCircle
 39
0.3
 10
113.854943942832
 20
495.9659990441238
 30
0.0
 40
0.9350000000000001
100
AcDbArc
 50
187.7100000000004
 51
205.6879999999983
1001
AUSTER_FOLIE
1002
{
1000
ZENTRA_2144_BO_M_LB_DREH
1002
}
1001
AUSTER_ANSICHT
1002
{
1000
SL
1002
}
  0
LINE
  5
A7DC
330
20
100
AcDbEntity
  8
11000_Left
  6
Continuous
 62
     7
370
    20
100
AcDbLine
 39
0.3
 10
112.207943942832
 20
493.6799990441238
 30
0.0
 11
112.207943942832
 21
492.4799990441242
 31
0.0
1001
AUSTER_FOLIE
1002
{
1000
ZENTRA_2144_BO_M_LB_DREH
1002
}
1001
AUSTER_ANSICHT
1002
{
1000
SL
1002
}
  0
LINE
  5
A7DD
330
20
100
AcDbEntity
  8
11000_Left
  6
Continuous
 62
     7
370
    50
100
AcDbLine
 39
0.7
 10
83.58494394283201
 20
501.769999044124
 30
0.0
 11
78.58494394283201
 21
501.769999044124
 31
0.0
1001
AUSTER_FOLIE
1002
{
1000
ZENTRA_2144_BO_M_LB_DREH
1002
}
1001
AUSTER_ANSICHT
1002
{
1000
SL
1002
}
  0
LINE
  5
A7DE
330
20
100
AcDbEntity
  8
11000_Left
  6
Continuous
 62
     7
370
    50
100
AcDbLine
 39
0.7
 10
82.58494394283202
 20
518.2699990441241
 30
0.0
 11
78.58494394283201
 21
518.2699990441241
 31
0.0
1001
AUSTER_FOLIE
1002
{
1000
ZENTRA_2144_BO_M_LB_DREH
1002
}
1001
AUSTER_ANSICHT
1002
{
1000
SL
1002
}
  0
LINE
  5
A7DF
330
20
100
AcDbEntity
  8
11000_Left
  6
Continuous
 62
     7
370
    50
100
AcDbLine
 39
0.7
 10
78.58494394283201
 20
507.269999044124
 30
0.0
 11
88.58494394283201
 21
507.269999044124
 31
0.0
1001
AUSTER_FOLIE
1002
{
1000
ZENTRA_2144_BO_M_LB_DREH
1002
}
1001
AUSTER_ANSICHT
1002
{
1000
SL
1002
}
  0
LINE
  5
A7E2
330
20
100
AcDbEntity
  8
11000_Left
  6
Continuous
 62
     7
370
    50
100
AcDbLine
 39
0.7
 10
78.58494394283201
 20
515.6759990441238
 30
0.0
 11
78.58494394283201
 21
507.269999044124
 31
0.0
1001
AUSTER_FOLIE
1002
{
1000
ZENTRA_2144_BO_M_LB_DREH
1002
}
1001
AUSTER_ANSICHT
1002
{
1000
SL
1002
}
  0
LINE
  5
A7E3
330
20
100
AcDbEntity
  8
11000_Left
  6
Continuous
 62
     7
370
    50
100
AcDbLine
 39
0.7
 10
78.58494394283201
 20
501.769999044124
 30
0.0
 11
78.58494394283201
 21
507.269999044124
 31
0.0
1001
AUSTER_FOLIE
1002
{
1000
ZENTRA_2144_BO_M_LB_DREH
1002
}
1001
AUSTER_ANSICHT
1002
{
1000
SL
1002
}
  0
LINE
  5
A7E6
330
20
100
AcDbEntity
  8
11000_Left
  6
Continuous
 62
     7
370
    50
100
AcDbLine
 39
0.7
 10
78.58494394283201
 20
518.2699990441241
 30
0.0
 11
78.58494394283201
 21
515.6759990441238
 31
0.0
1001
AUSTER_FOLIE
1002
{
1000
ZENTRA_2144_BO_M_LB_DREH
1002
}
1001
AUSTER_ANSICHT
1002
{
1000
SL
1002
}
  0
LINE
  5
A7E7
330
20
100
AcDbEntity
  8
11000_Left
  6
Continuous
 62
     7
370
    50
100
AcDbLine
 39
0.7
 10
78.58494394283201
 20
516.519999044124
 30
0.0
 11
78.58494394283201
 21
516.519999044124
 31
0.0
1001
AUSTER_FOLIE
1002
{
1000
ZENTRA_2144_BO_M_LB_DREH
1002
}
1001
AUSTER_ANSICHT
1002
{
1000
SL
1002
}
  0
LINE
  5
A7EC
330
20
100
AcDbEntity
  8
11000_Left
  6
Continuous
 62
     7
370
    20
100
AcDbLine
 39
0.7
 10
90.59494394283198
 20
528.2799990441239
 30
0.0
 11
90.59494394283198
 21
508.2799990441241
 31
0.0
1001
AUSTER_FOLIE
1002
{
1000
ZENTRA_2144_BO_M_LB_DREH
1002
}
1001
AUSTER_ANSICHT
1002
{
1000
SL
1002
}
  0
LINE
  5
A7EF
330
20
100
AcDbEntity
  8
11000_Left
  6
Continuous
 62
     7
370
    20
100
AcDbLine
 39
0.7
 10
94.22794394283206
 20
511.7769990441241
 30
0.0
 11
107.732943942832
 21
511.7769990441241
 31
0.0
1001
AUSTER_FOLIE
1002
{
1000
ZENTRA_2144_BO_M_LB_DREH
1002
}
1001
AUSTER_ANSICHT
1002
{
1000
SL
1002
}
  0
LINE
  5
A7F0
330
20
100
AcDbEntity
  8
11000_Left
  6
Continuous
 62
     7
370
    50
100
AcDbLine
 39
0.7
 10
82.58494394283202
 20
507.2739990441238
 30
0.0
 11
82.58494394283202
 21
515.6759990441238
 31
0.0
1001
AUSTER_FOLIE
1002
{
1000
ZENTRA_2144_BO_M_LB_DREH
1002
}
1001
AUSTER_ANSICHT
1002
{
1000
SL
1002
}
  0
LINE
  5
A7F1
330
20
100
AcDbEntity
  8
11000_Left
  6
Continuous
 62
     7
370
    20
100
AcDbLine
 39
0.7
 10
94.22794394283206
 20
508.1439990441241
 30
0.0
 11
94.22794394283206
 21
511.7769990441241
 31
0.0
1001
AUSTER_FOLIE
1002
{
1000
ZENTRA_2144_BO_M_LB_DREH
1002
}
1001
AUSTER_ANSICHT
1002
{
1000
SL
1002
}
  0
LINE
  5
A7F2
330
20
100
AcDbEntity
  8
11000_Left
  6
Continuous
 62
     7
370
    50
100
AcDbLine
 39
0.7
 10
88.58494394283201
 20
508.2699990441238
 30
0.0
 11
94.58494394283199
 21
508.2699990441238
 31
0.0
1001
AUSTER_FOLIE
1002
{
1000
ZENTRA_2144_BO_M_LB_DREH
1002
}
1001
AUSTER_ANSICHT
1002
{
1000
SL
1002
}
  0
LINE
  5
A7F6
330
20
100
AcDbEntity
  8
11000_Left
  6
Continuous
 62
     7
370
    50
100
AcDbLine
 39
0.7
 10
88.58494394283201
 20
507.269999044124
 30
0.0
 11
88.58494394283201
 21
508.2699990441238
 31
0.0
1001
AUSTER_FOLIE
1002
{
1000
ZENTRA_2144_BO_M_LB_DREH
1002
}
1001
AUSTER_ANSICHT
1002
{
1000
SL
1002
}
  0
LINE
  5
A7FA
330
20
100
AcDbEntity
  8
11000_Left
  6
Continuous
 62
     7
370
    50
100
AcDbLine
 39
0.7
 10
82.58494394283202
 20
515.6759990441238
 30
0.0
 11
82.58494394283202
 21
518.2699990441241
 31
0.0
1001
AUSTER_FOLIE
1002
{
1000
ZENTRA_2144_BO_M_LB_DREH
1002
}
1001
AUSTER_ANSICHT
1002
{
1000
SL
1002
}
  0
POINT
  5
A7FB
330
20
100
AcDbEntity
  8
11000_Left
  6
Continuous
 62
     7
370
    20
100
AcDbPoint
 10
94.22794394283206
 20
511.7769990441241
 30
0.0
 39
0.7
1001
AUSTER_FOLIE
1002
{
1000
ZENTRA_2144_BO_M_LB_DREH
1002
}
1001
AUSTER_ANSICHT
1002
{
1000
SL
1002
}
  0
POINT
  5
A7FC
330
20
100
AcDbEntity
  8
11000_Left
  6
Continuous
 62
     7
370
    20
100
AcDbPoint
 10
94.22794394283206
 20
511.7769990441241
 30
0.0
 39
0.25
1001
AUSTER_FOLIE
1002
{
1000
ZENTRA_2144_BO_M_LB_DREH
1002
}
1001
AUSTER_ANSICHT
1002
{
1000
SL
1002
}
  0
LINE
  5
A7FD
330
20
100
AcDbEntity
  8
11000_Left
  6
Continuous
 62
     7
370
    20
100
AcDbLine
 39
0.7
 10
107.732943942832
 20
511.7769990441241
 30
0.0
 11
107.732943942832
 21
508.1439990441241
 31
0.0
1001
AUSTER_FOLIE
1002
{
1000
ZENTRA_2144_BO_M_LB_DREH
1002
}
1001
AUSTER_ANSICHT
1002
{
1000
SL
1002
}
  0
ARC
  5
A7FE
330
20
100
AcDbEntity
  8
11000_Left
  6
Continuous
 62
     7
370
    20
100
AcDbCircle
 39
0.3
 10
115.582943942832
 20
495.7049990441238
 30
0.0
 40
0.7290000000000001
100
AcDbArc
 50
132.7759999999993
 51
149.0359999999991
1001
AUSTER_FOLIE
1002
{
1000
ZENTRA_2144_BO_M_LB_DREH
1002
}
1001
AUSTER_ANSICHT
1002
{
1000
SL
1002
}
  0
ARC
  5
A7FF
330
20
100
AcDbEntity
  8
11000_Left
  6
Continuous
 62
     7
370
    20
100
AcDbCircle
 39
0.3
 10
115.067943942832
 20
496.3399990441238
 30
0.0
 40
1.102
100
AcDbArc
 50
74.19700000000078
 51
105.8029999999992
1001
AUSTER_FOLIE
1002
{
1000
ZENTRA_2144_BO_M_LB_DREH
1002
}
1001
AUSTER_ANSICHT
1002
{
1000
SL
1002
}
  0
ARC
  5
A800
330
20
100
AcDbEntity
  8
11000_Left
  6
Continuous
 62
     7
370
    20
100
AcDbCircle
 39
0.3
 10
115.033943942832
 20
496.3919990441238
 30
0.0
 40
1.042
100
AcDbArc
 50
104.7949999999999
 51
135.7179999999998
1001
AUSTER_FOLIE
1002
{
1000
ZENTRA_2144_BO_M_LB_DREH
1002
}
1001
AUSTER_ANSICHT
1002
{
1000
SL
1002
}
  0
ARC
  5
A801
330
20
100
AcDbEntity
  8
11000_Left
  6
Continuous
 62
     7
370
    20
100
AcDbCircle
 39
0.3
 10
115.627943942832
 20
495.883999044124
 30
0.0
 40
1.823
100
AcDbArc
 50
137.312000000001
 51
152.7040000000025
1001
AUSTER_FOLIE
1002
{
1000
ZENTRA_2144_BO_M_LB_DREH
1002
}
1001
AUSTER_ANSICHT
1002
{
1000
SL
1002
}
  0
ARC
  5
A802
330
20
100
AcDbEntity
  8
11000_Left
  6
Continuous
 62
     7
370
    20
100
AcDbCircle
 39
0.3
 10
121.967943942832
 20
492.639999044124
 30
0.0
 40
8.945
100
AcDbArc
 50
152.8620000000016
 51
157.1039999999993
1001
AUSTER_FOLIE
1002
{
1000
ZENTRA_2144_BO_M_LB_DREH
1002
}
1001
AUSTER_ANSICHT
1002
{
1000
SL
1002
}
  0
ARC
  5
A803
330
20
100
AcDbEntity
  8
11000_Left
  6
Continuous
 62
     7
370
    20
100
AcDbCircle
 39
0.3
 10
115.191943942832
 20
495.982999044124
 30
0.0
 40
0.345
100
AcDbArc
 50
12.82900000000158
 51
59.22599999999848
1001
AUSTER_FOLIE
1002
{
1000
ZENTRA_2144_BO_M_LB_DREH
1002
}
1001
AUSTER_ANSICHT
1002
{
1000
SL
1002
}
  0
ARC
  5
A804
330
20
100
AcDbEntity
  8
11000_Left
  6
Continuous
 62
     7
370
    20
100
AcDbCircle
 39
0.3
 10
115.257943942832
 20
496.0499990441242
 30
0.0
 40
0.255
100
AcDbArc
 50
64.44000000000129
 51
131.8200000000006
1001
AUSTER_FOLIE
1002
{
1000
ZENTRA_2144_BO_M_LB_DREH
1002
}
1001
AUSTER_ANSICHT
1002
{
1000
SL
1002
}
  0
LINE
  5
A805
330
20
100
AcDbEntity
  8
11000_Left
  6
Continuous
 62
     7
370
    20
100
AcDbLine
 39
0.3
 10
112.287943942832
 20
497.399999044124
 30
0.0
 11
113.087943942832
 21
497.399999044124
 31
0.0
1001
AUSTER_FOLIE
1002
{
1000
ZENTRA_2144_BO_M_LB_DREH
1002
}
1001
AUSTER_ANSICHT
1002
{
1000
SL
1002
}
  0
POINT
  5
A806
330
20
100
AcDbEntity
  8
11000_Left
  6
Continuous
 62
     7
370
    20
100
AcDbPoint
 10
112.104943942832
 20
497.441999044124
 30
0.0
 39
0.3
1001
AUSTER_FOLIE
1002
{
1000
ZENTRA_2144_BO_M_LB_DREH
1002
}
1001
AUSTER_ANSICHT
1002
{
1000
SL
1002
}
  0
POINT
  5
A807
330
20
100
AcDbEntity
  8
11000_Left
  6
Continuous
 62
     7
370
    20
100
AcDbPoint
 10
114.208943942832
 20
497.441999044124
 30
0.0
 39
0.3
1001
AUSTER_FOLIE
1002
{
1000
ZENTRA_2144_BO_M_LB_DREH
1002
}
1001
AUSTER_ANSICHT
1002
{
1000
SL
1002
}
  0
LINE
  5
A809
330
20
100
AcDbEntity
  8
11000_Left
  6
Continuous
 62
     7
370
    20
100
AcDbLine
 39
0.7
 10
110.594943942832
 20
528.2799990441239
 30
0.0
 11
90.59494394283198
 21
528.2799990441239
 31
0.0
1001
AUSTER_FOLIE
1002
{
1000
ZENTRA_2144_BO_M_LB_DREH
1002
}
1001
AUSTER_ANSICHT
1002
{
1000
SL
1002
}
  0
LINE
  5
A80B
330
20
100
AcDbEntity
  8
11000_Left
  6
Continuous
 62
     7
370
    20
100
AcDbLine
 39
0.7
 10
90.59494394283198
 20
526.279999044124
 30
0.0
 11
90.59494394283198
 21
526.279999044124
 31
0.0
1001
AUSTER_FOLIE
1002
{
1000
ZENTRA_2144_BO_M_LB_DREH
1002
}
1001
AUSTER_ANSICHT
1002
{
1000
SL
1002
}
  0
POINT
  5
A80C
330
20
100
AcDbEntity
  8
11000_Left
  6
Continuous
 62
     7
370
    20
100
AcDbPoint
 10
90.59494394283198
 20
528.2799990441239
 30
0.0
 39
0.25
1001
AUSTER_FOLIE
1002
{
1000
ZENTRA_2144_BO_M_LB_DREH
1002
}
1001
AUSTER_ANSICHT
1002
{
1000
SL
1002
}
  0
LINE
  5
A80D
330
20
100
AcDbEntity
  8
11000_Left
  6
Continuous
 62
     7
370
    20
100
AcDbLine
 39
0.7
 10
118.051943942832
 20
462.130999044124
 30
0.0
 11
118.051943942832
 21
506.164999044124
 31
0.0
1001
AUSTER_FOLIE
1002
{
1000
ZENTRA_2144_BO_M_LB_DREH
1002
}
1001
AUSTER_ANSICHT
1002
{
1000
SL
1002
}
  0
LINE
  5
A80E
330
20
100
AcDbEntity
  8
11000_Left
  6
Continuous
 62
     7
370
    50
100
AcDbLine
 39
0.7
 10
141.5849439428319
 20
500.069999044124
 30
0.0
 11
141.5849439428319
 21
468.4699990441242
 31
0.0
1001
AUSTER_FOLIE
1002
{
1000
ZENTRA_2144_BO_M_LB_DREH
1002
}
1001
AUSTER_ANSICHT
1002
{
1000
SL
1002
}
  0
ARC
  5
A80F
330
20
100
AcDbEntity
  8
11000_Left
  6
Continuous
 62
     7
370
    20
100
AcDbCircle
 39
0.3
 10
114.320943942832
 20
495.8709990441241
 30
0.0
 40
1.991999999999999
100
AcDbArc
 50
356.2219999999992
 51
30.42700000000012
1001
AUSTER_FOLIE
1002
{
1000
ZENTRA_2144_BO_M_LB_DREH
1002
}
1001
AUSTER_ANSICHT
1002
{
1000
SL
1002
}
  0
LINE
  5
A811
330
20
100
AcDbEntity
  8
11000_Left
  6
Continuous
 62
     7
370
    50
100
AcDbLine
 39
0.7
 10
141.587943942832
 20
487.269999044124
 30
0.0
 11
181.5849439428319
 21
487.269999044124
 31
0.0
1001
AUSTER_FOLIE
1002
{
1000
ZENTRA_2144_BO_M_LB_DREH
1002
}
1001
AUSTER_ANSICHT
1002
{
1000
SL
1002
}
  0
LINE
  5
A812
330
20
100
AcDbEntity
  8
11000_Left
  6
Continuous
 62
     7
370
    50
100
AcDbLine
 39
0.7
 10
141.587943942832
 20
481.269999044124
 30
0.0
 11
181.5849439428319
 21
481.269999044124
 31
0.0
1001
AUSTER_FOLIE
1002
{
1000
ZENTRA_2144_BO_M_LB_DREH
1002
}
1001
AUSTER_ANSICHT
1002
{
1000
SL
1002
}
  0
TEXT
  5
A813
330
20
100
AcDbEntity
  8
11000_Left
  6
Continuous
 62
     7
370
    13
100
AcDbText
 10
125.799943942832
 20
459.6569990441238
 30
0.0
 40
5.0
  1
Welle 300mm lang
 41
0.8
 11
125.799943942832
 21
464.6569990441238
 31
0.0
100
AcDbText
 73
     3
1001
AUSTER_FOLIE
1002
{
1000
ZENTRA_2144_BO_M_LB_DREH
1002
}
1001
AUSTER_ANSICHT
1002
{
1000
SL
1002
}
  0
LINE
  5
A814
330
20
100
AcDbEntity
  8
11000_Left
  6
Continuous
 62
     7
370
    50
100
AcDbLine
 39
0.7
 10
120.584943942832
 20
468.4699990441242
 30
0.0
 11
120.584943942832
 21
460.269999044124
 31
0.0
1001
AUSTER_FOLIE
1002
{
1000
ZENTRA_2144_BO_M_LB_DREH
1002
}
1001
AUSTER_ANSICHT
1002
{
1000
SL
1002
}
  0
TEXT
  5
A815
330
20
100
AcDbEntity
  8
11000_Left
  6
Continuous
 62
     7
370
    13
100
AcDbText
 10
120.432943942832
 20
450.486999044124
 30
0.0
 40
5.0
  1
Typschild
 41
0.8
 11
120.432943942832
 21
455.486999044124
 31
0.0
100
AcDbText
 73
     3
1001
AUSTER_FOLIE
1002
{
1000
ZENTRA_2144_BO_M_LB_DREH
1002
}
1001
AUSTER_ANSICHT
1002
{
1000
SL
1002
}
  0
LINE
  5
A816
330
20
100
AcDbEntity
  8
11000_Left
  6
Continuous
 62
     7
370
    50
100
AcDbLine
 39
0.7
 10
141.5849439428319
 20
468.4699990441242
 30
0.0
 11
120.584943942832
 21
468.4699990441242
 31
0.0
1001
AUSTER_FOLIE
1002
{
1000
ZENTRA_2144_BO_M_LB_DREH
1002
}
1001
AUSTER_ANSICHT
1002
{
1000
SL
1002
}
  0
LINE
  5
A817
330
20
100
AcDbEntity
  8
11000_Left
  6
Continuous
 62
     7
370
    20
100
AcDbLine
 39
0.3
 10
116.207943942832
 20
479.0799990441238
 30
0.0
 11
116.207943942832
 21
482.039999044124
 31
0.0
1001
AUSTER_FOLIE
1002
{
1000
ZENTRA_2144_BO_M_LB_DREH
1002
}
1001
AUSTER_ANSICHT
1002
{
1000
SL
1002
}
  0
LINE
  5
A818
330
20
100
AcDbEntity
  8
11000_Left
  6
Continuous
 62
     7
370
    20
100
AcDbLine
 39
0.3
 10
116.207943942832
 20
477.0799990441238
 30
0.0
 11
116.207943942832
 21
478.379999044124
 31
0.0
1001
AUSTER_FOLIE
1002
{
1000
ZENTRA_2144_BO_M_LB_DREH
1002
}
1001
AUSTER_ANSICHT
1002
{
1000
SL
1002
}
  0
ARC
  5
A819
330
20
100
AcDbEntity
  8
11000_Left
  6
Continuous
 62
     7
370
    20
100
AcDbCircle
 39
0.3
 10
114.900943942832
 20
472.9709990441241
 30
0.0
 40
1.33
100
AcDbArc
 50
31.2140000000014
 51
51.52500000000063
1001
AUSTER_FOLIE
1002
{
1000
ZENTRA_2144_BO_M_LB_DREH
1002
}
1001
AUSTER_ANSICHT
1002
{
1000
SL
1002
}
  0
ARC
  5
A81A
330
20
100
AcDbEntity
  8
11000_Left
  6
Continuous
 62
     7
370
    20
100
AcDbCircle
 39
0.3
 10
108.685943942832
 20
472.8779990441242
 30
0.0
 40
7.631
100
AcDbArc
 50
348.6830000000033
 51
357.3149999999965
1001
AUSTER_FOLIE
1002
{
1000
ZENTRA_2144_BO_M_LB_DREH
1002
}
1001
AUSTER_ANSICHT
1002
{
1000
SL
1002
}
  0
ARC
  5
A81B
330
20
100
AcDbEntity
  8
11000_Left
  6
Continuous
 62
     7
370
    20
100
AcDbCircle
 39
0.3
 10
114.320943942832
 20
472.650999044124
 30
0.0
 40
1.991999999999999
100
AcDbArc
 50
356.2219999999992
 51
30.42700000000012
1001
AUSTER_FOLIE
1002
{
1000
ZENTRA_2144_BO_M_LB_DREH
1002
}
1001
AUSTER_ANSICHT
1002
{
1000
SL
1002
}
  0
LINE
  5
A81C
330
20
100
AcDbEntity
  8
11000_Left
  6
Continuous
 62
     7
370
    20
100
AcDbLine
 39
0.3
 10
116.207943942832
 20
474.8599990441241
 30
0.0
 11
116.207943942832
 21
475.6599990441241
 31
0.0
1001
AUSTER_FOLIE
1002
{
1000
ZENTRA_2144_BO_M_LB_DREH
1002
}
1001
AUSTER_ANSICHT
1002
{
1000
SL
1002
}
  0
POINT
  5
A81D
330
20
100
AcDbEntity
  8
11000_Left
  6
Continuous
 62
     7
370
    20
100
AcDbPoint
 10
116.312943942832
 20
471.0989990441238
 30
0.0
 39
0.3
1001
AUSTER_FOLIE
1002
{
1000
ZENTRA_2144_BO_M_LB_DREH
1002
}
1001
AUSTER_ANSICHT
1002
{
1000
SL
1002
}
  0
LINE
  5
A81E
330
20
100
AcDbEntity
  8
11000_Left
  6
Continuous
 62
     7
370
    20
100
AcDbLine
 39
0.3
 10
116.207943942832
 20
488.5999990441241
 30
0.0
 11
116.207943942832
 21
491.5599990441238
 31
0.0
1001
AUSTER_FOLIE
1002
{
1000
ZENTRA_2144_BO_M_LB_DREH
1002
}
1001
AUSTER_ANSICHT
1002
{
1000
SL
1002
}
  0
LINE
  5
A81F
330
20
100
AcDbEntity
  8
11000_Left
  6
Continuous
 62
     7
370
    20
100
AcDbLine
 39
0.3
 10
116.207943942832
 20
482.959999044124
 30
0.0
 11
116.207943942832
 21
484.399999044124
 31
0.0
1001
AUSTER_FOLIE
1002
{
1000
ZENTRA_2144_BO_M_LB_DREH
1002
}
1001
AUSTER_ANSICHT
1002
{
1000
SL
1002
}
  0
LINE
  5
A820
330
20
100
AcDbEntity
  8
11000_Left
  6
Continuous
 62
     7
370
    20
100
AcDbLine
 39
0.3
 10
116.207943942832
 20
486.4399990441238
 30
0.0
 11
116.207943942832
 21
487.8799990441241
 31
0.0
1001
AUSTER_FOLIE
1002
{
1000
ZENTRA_2144_BO_M_LB_DREH
1002
}
1001
AUSTER_ANSICHT
1002
{
1000
SL
1002
}
  0
POINT
  5
A821
330
20
100
AcDbEntity
  8
11000_Left
  6
Continuous
 62
     7
370
    20
100
AcDbPoint
 10
116.312943942832
 20
484.2699990441241
 30
0.0
 39
0.3
1001
AUSTER_FOLIE
1002
{
1000
ZENTRA_2144_BO_M_LB_DREH
1002
}
1001
AUSTER_ANSICHT
1002
{
1000
SL
1002
}
  0
ARC
  5
A822
330
20
100
AcDbEntity
  8
11000_Left
  6
Continuous
 62
     7
370
    20
100
AcDbCircle
 39
0.3
 10
108.685943942832
 20
496.097999044124
 30
0.0
 40
7.631
100
AcDbArc
 50
348.6830000000033
 51
357.3149999999965
1001
AUSTER_FOLIE
1002
{
1000
ZENTRA_2144_BO_M_LB_DREH
1002
}
1001
AUSTER_ANSICHT
1002
{
1000
SL
1002
}
  0
LINE
  5
A823
330
20
100
AcDbEntity
  8
11000_Left
  6
Continuous
 62
     7
370
    20
100
AcDbLine
 39
0.3
 10
116.207943942832
 20
493.6799990441238
 30
0.0
 11
116.207943942832
 21
492.4799990441242
 31
0.0
1001
AUSTER_FOLIE
1002
{
1000
ZENTRA_2144_BO_M_LB_DREH
1002
}
1001
AUSTER_ANSICHT
1002
{
1000
SL
1002
}
  0
LINE
  5
A824
330
20
100
AcDbEntity
  8
11000_Left
  6
Continuous
 62
     7
370
    13
100
AcDbLine
 39
0.35
 10
157.1989439428319
 20
466.4419990441241
 30
0.0
 11
165.2049439428319
 21
482.213999044124
 31
0.0
1001
AUSTER_FOLIE
1002
{
1000
ZENTRA_2144_BO_M_LB_DREH
1002
}
1001
AUSTER_ANSICHT
1002
{
1000
SL
1002
}
  0
LINE
  5
A825
330
20
100
AcDbEntity
  8
11000_Left
  6
Continuous
 62
     7
370
    50
100
AcDbLine
 39
0.7
 10
181.5849439428319
 20
492.0749990441238
 30
0.0
 11
181.5849439428319
 21
476.0749990441238
 31
0.0
1001
AUSTER_FOLIE
1002
{
1000
ZENTRA_2144_BO_M_LB_DREH
1002
}
1001
AUSTER_ANSICHT
1002
{
1000
SL
1002
}
  0
LINE
  5
A82A
330
20
100
AcDbEntity
  8
11000_Left
  6
Continuous
 62
     7
370
    50
100
AcDbLine
 39
0.7
 10
120.584943942832
 20
500.069999044124
 30
0.0
 11
141.5849439428319
 21
500.069999044124
 31
0.0
1001
AUSTER_FOLIE
1002
{
1000
ZENTRA_2144_BO_M_LB_DREH
1002
}
1001
AUSTER_ANSICHT
1002
{
1000
SL
1002
}
  0
LINE
  5
A82B
330
20
100
AcDbEntity
  8
11000_Left
  6
Continuous
 62
     7
370
    20
100
AcDbLine
 39
0.7
 10
124.594943942832
 20
500.2799990441241
 30
0.0
 11
124.594943942832
 21
514.279999044124
 31
0.0
1001
AUSTER_FOLIE
1002
{
1000
ZENTRA_2144_BO_M_LB_DREH
1002
}
1001
AUSTER_ANSICHT
1002
{
1000
SL
1002
}
  0
LINE
  5
A82C
330
20
100
AcDbEntity
  8
11000_Left
  6
Continuous
 62
     7
370
    20
100
AcDbLine
 39
0.7
 10
120.594943942832
 20
500.2799990441241
 30
0.0
 11
124.594943942832
 21
500.2799990441241
 31
0.0
1001
AUSTER_FOLIE
1002
{
1000
ZENTRA_2144_BO_M_LB_DREH
1002
}
1001
AUSTER_ANSICHT
1002
{
1000
SL
1002
}
  0
LINE
  5
A82D
330
20
100
AcDbEntity
  8
11000_Left
  6
Continuous
 62
     7
370
    50
100
AcDbLine
 39
0.7
 10
120.584943942832
 20
508.2699990441238
 30
0.0
 11
120.584943942832
 21
500.069999044124
 31
0.0
1001
AUSTER_FOLIE
1002
{
1000
ZENTRA_2144_BO_M_LB_DREH
1002
}
1001
AUSTER_ANSICHT
1002
{
1000
SL
1002
}
  0
LINE
  5
A82E
330
20
100
AcDbEntity
  8
11000_Left
  6
Continuous
 62
     7
370
    50
100
AcDbLine
 39
0.7
 10
120.594943942832
 20
508.2799990441241
 30
0.0
 11
120.594943942832
 21
500.2799990441241
 31
0.0
1001
AUSTER_FOLIE
1002
{
1000
ZENTRA_2144_BO_M_LB_DREH
1002
}
1001
AUSTER_ANSICHT
1002
{
1000
SL
1002
}
  0
ARC
  5
A82F
330
20
100
AcDbEntity
  8
11000_Left
  6
Continuous
 62
     7
370
    20
100
AcDbCircle
 39
0.3
 10
114.900943942832
 20
496.1909990441238
 30
0.0
 40
1.33
100
AcDbArc
 50
31.2140000000014
 51
51.52500000000063
1001
AUSTER_FOLIE
1002
{
1000
ZENTRA_2144_BO_M_LB_DREH
1002
}
1001
AUSTER_ANSICHT
1002
{
1000
SL
1002
}
  0
POINT
  5
A830
330
20
100
AcDbEntity
  8
11000_Left
  6
Continuous
 62
     7
370
    20
100
AcDbPoint
 10
116.312943942832
 20
497.441999044124
 30
0.0
 39
0.3
1001
AUSTER_FOLIE
1002
{
1000
ZENTRA_2144_BO_M_LB_DREH
1002
}
1001
AUSTER_ANSICHT
1002
{
1000
SL
1002
}
  0
LINE
  5
A835
330
20
100
AcDbEntity
  8
11000_Left
  6
Continuous
 62
     7
370
    20
100
AcDbLine
 39
0.7
 10
284.5849439428321
 20
431.455999044124
 30
0.0
 11
284.5849439428321
 21
536.2949990441241
 31
0.0
1001
AUSTER_FOLIE
1002
{
1000
ZENTRA_2144_BO_M_LB_DREH
1002
}
1001
AUSTER_ANSICHT
1002
{
1000
SL
1002
}
  0
LINE
  5
A836
330
20
100
AcDbEntity
  8
11000_Left
  6
Continuous
 62
     7
370
    20
100
AcDbLine
 39
0.7
 10
282.5849439428321
 20
431.6089990441238
 30
0.0
 11
282.5849439428321
 21
536.1419990441238
 31
0.0
1001
AUSTER_FOLIE
1002
{
1000
ZENTRA_2144_BO_M_LB_DREH
1002
}
1001
AUSTER_ANSICHT
1002
{
1000
SL
1002
}
  0
LINE
  5
A837
330
20
100
AcDbEntity
  8
11000_Left
  6
Continuous
 62
     7
370
     9
100
AcDbLine
 39
0.7
 10
282.5849439428321
 20
436.9609990441241
 30
0.0
 11
284.5849439428321
 21
438.9609990441242
 31
0.0
1001
AUSTER_FOLIE
1002
{
1000
ZENTRA_2144_BO_M_LB_DREH
1002
}
1001
AUSTER_ANSICHT
1002
{
1000
SL
1002
}
  0
LINE
  5
A838
330
20
100
AcDbEntity
  8
11000_Left
  6
Continuous
 62
     7
370
     9
100
AcDbLine
 39
0.7
 10
282.5849439428321
 20
432.4709990441238
 30
0.0
 11
284.5849439428321
 21
434.470999044124
 31
0.0
1001
AUSTER_FOLIE
1002
{
1000
ZENTRA_2144_BO_M_LB_DREH
1002
}
1001
AUSTER_ANSICHT
1002
{
1000
SL
1002
}
  0
LINE
  5
A839
330
20
100
AcDbEntity
  8
11000_Left
  6
Continuous
 62
     7
370
     9
100
AcDbLine
 39
0.7
 10
284.5849439428321
 20
431.455999044124
 30
0.0
 11
282.5849439428321
 21
431.6089990441238
 31
0.0
1001
AUSTER_FOLIE
1002
{
1000
ZENTRA_2144_BO_M_LB_DREH
1002
}
1001
AUSTER_ANSICHT
1002
{
1000
SL
1002
}
  0
LINE
  5
A83A
330
20
100
AcDbEntity
  8
11000_Left
  6
Continuous
 62
     7
370
    50
100
AcDbLine
 39
0.7
 10
247.584943942832
 20
454.074999044124
 30
0.0
 11
258.584943942832
 21
454.074999044124
 31
0.0
1001
AUSTER_FOLIE
1002
{
1000
ZENTRA_2144_BO_M_LB_DREH
1002
}
1001
AUSTER_ANSICHT
1002
{
1000
SL
1002
}
  0
LINE
  5
A83B
330
20
100
AcDbEntity
  8
11000_Left
  6
Continuous
 62
     7
370
    50
100
AcDbLine
 39
0.7
 10
258.584943942832
 20
514.0749990441238
 30
0.0
 11
247.584943942832
 21
514.0749990441238
 31
0.0
1001
AUSTER_FOLIE
1002
{
1000
ZENTRA_2144_BO_M_LB_DREH
1002
}
1001
AUSTER_ANSICHT
1002
{
1000
SL
1002
}
  0
LINE
  5
A83C
330
20
100
AcDbEntity
  8
11000_Left
  6
Continuous
 62
     7
370
    50
100
AcDbLine
 39
0.7
 10
225.5849439428319
 20
461.5749990441242
 30
0.0
 11
225.5849439428319
 21
464.0749990441242
 31
0.0
1001
AUSTER_FOLIE
1002
{
1000
ZENTRA_2144_BO_M_LB_DREH
1002
}
1001
AUSTER_ANSICHT
1002
{
1000
SL
1002
}
  0
LINE
  5
A83D
330
20
100
AcDbEntity
  8
11000_Left
  6
Continuous
 62
     7
370
    50
100
AcDbLine
 39
0.7
 10
229.5849439428319
 20
461.5749990441242
 30
0.0
 11
229.5849439428319
 21
475.074999044124
 31
0.0
1001
AUSTER_FOLIE
1002
{
1000
ZENTRA_2144_BO_M_LB_DREH
1002
}
1001
AUSTER_ANSICHT
1002
{
1000
SL
1002
}
  0
LINE
  5
A83E
330
20
100
AcDbEntity
  8
11000_Left
  6
Continuous
 62
     7
370
    50
100
AcDbLine
 39
0.7
 10
207.584943942832
 20
504.074999044124
 30
0.0
 11
207.584943942832
 21
492.0749990441238
 31
0.0
1001
AUSTER_FOLIE
1002
{
1000
ZENTRA_2144_BO_M_LB_DREH
1002
}
1001
AUSTER_ANSICHT
1002
{
1000
SL
1002
}
  0
LINE
  5
A83F
330
20
100
AcDbEntity
  8
11000_Left
  6
Continuous
 62
     7
370
    20
100
AcDbLine
 39
0.7
 10
247.584943942832
 20
460.0749990441242
 30
0.0
 11
247.584943942832
 21
508.074999044124
 31
0.0
1001
AUSTER_FOLIE
1002
{
1000
ZENTRA_2144_BO_M_LB_DREH
1002
}
1001
AUSTER_ANSICHT
1002
{
1000
SL
1002
}
  0
LINE
  5
A840
330
20
100
AcDbEntity
  8
11000_Left
  6
Continuous
 62
     7
370
    50
100
AcDbLine
 39
0.7
 10
231.584943942832
 20
508.074999044124
 30
0.0
 11
231.584943942832
 21
493.0749990441238
 31
0.0
1001
AUSTER_FOLIE
1002
{
1000
ZENTRA_2144_BO_M_LB_DREH
1002
}
1001
AUSTER_ANSICHT
1002
{
1000
SL
1002
}
  0
LINE
  5
A841
330
20
100
AcDbEntity
  8
11000_Left
  6
Continuous
 62
     7
370
    50
100
AcDbLine
 39
0.7
 10
207.584943942832
 20
464.0749990441242
 30
0.0
 11
225.5849439428319
 21
464.0749990441242
 31
0.0
1001
AUSTER_FOLIE
1002
{
1000
ZENTRA_2144_BO_M_LB_DREH
1002
}
1001
AUSTER_ANSICHT
1002
{
1000
SL
1002
}
  0
LINE
  5
A843
330
20
100
AcDbEntity
  8
11000_Left
  6
Continuous
 62
     7
370
    50
100
AcDbLine
 39
0.7
 10
231.584943942832
 20
460.0749990441242
 30
0.0
 11
247.584943942832
 21
460.0749990441242
 31
0.0
1001
AUSTER_FOLIE
1002
{
1000
ZENTRA_2144_BO_M_LB_DREH
1002
}
1001
AUSTER_ANSICHT
1002
{
1000
SL
1002
}
  0
LINE
  5
A844
330
20
100
AcDbEntity
  8
11000_Left
  6
Continuous
 62
     7
370
    50
100
AcDbLine
 39
0.7
 10
225.5849439428319
 20
461.5749990441242
 30
0.0
 11
229.5849439428319
 21
461.5749990441242
 31
0.0
1001
AUSTER_FOLIE
1002
{
1000
ZENTRA_2144_BO_M_LB_DREH
1002
}
1001
AUSTER_ANSICHT
1002
{
1000
SL
1002
}
  0
LINE
  5
A845
330
20
100
AcDbEntity
  8
11000_Left
  6
Continuous
 62
     7
370
    50
100
AcDbLine
 39
0.7
 10
247.584943942832
 20
460.0749990441242
 30
0.0
 11
247.584943942832
 21
454.074999044124
 31
0.0
1001
AUSTER_FOLIE
1002
{
1000
ZENTRA_2144_BO_M_LB_DREH
1002
}
1001
AUSTER_ANSICHT
1002
{
1000
SL
1002
}
  0
LINE
  5
A846
330
20
100
AcDbEntity
  8
11000_Left
  6
Continuous
 62
     7
370
    20
100
AcDbLine
 39
0.7
 10
247.585943942832
 20
462.1749990441238
 30
0.0
 11
247.584943942832
 21
462.1749990441238
 31
0.0
1001
AUSTER_FOLIE
1002
{
1000
ZENTRA_2144_BO_M_LB_DREH
1002
}
1001
AUSTER_ANSICHT
1002
{
1000
SL
1002
}
  0
LINE
  5
A847
330
20
100
AcDbEntity
  8
11000_Left
  6
Continuous
 62
     7
370
    50
100
AcDbLine
 39
0.7
 10
229.5849439428319
 20
475.074999044124
 30
0.0
 11
231.584943942832
 21
475.074999044124
 31
0.0
1001
AUSTER_FOLIE
1002
{
1000
ZENTRA_2144_BO_M_LB_DREH
1002
}
1001
AUSTER_ANSICHT
1002
{
1000
SL
1002
}
  0
LINE
  5
A848
330
20
100
AcDbEntity
  8
11000_Left
  6
Continuous
 62
     7
370
    50
100
AcDbLine
 39
0.7
 10
229.5849439428319
 20
493.0749990441238
 30
0.0
 11
231.584943942832
 21
493.0749990441238
 31
0.0
1001
AUSTER_FOLIE
1002
{
1000
ZENTRA_2144_BO_M_LB_DREH
1002
}
1001
AUSTER_ANSICHT
1002
{
1000
SL
1002
}
  0
LINE
  5
A849
330
20
100
AcDbEntity
  8
11000_Left
  6
Continuous
 62
     7
370
    20
100
AcDbLine
 39
0.7
 10
247.5879439428321
 20
472.0749990441238
 30
0.0
 11
247.588943942832
 21
472.0749990441238
 31
0.0
1001
AUSTER_FOLIE
1002
{
1000
ZENTRA_2144_BO_M_LB_DREH
1002
}
1001
AUSTER_ANSICHT
1002
{
1000
SL
1002
}
  0
LINE
  5
A84A
330
20
100
AcDbEntity
  8
11000_Left
  6
Continuous
 62
     7
370
    50
100
AcDbLine
 39
0.7
 10
225.5849439428319
 20
504.074999044124
 30
0.0
 11
207.584943942832
 21
504.074999044124
 31
0.0
1001
AUSTER_FOLIE
1002
{
1000
ZENTRA_2144_BO_M_LB_DREH
1002
}
1001
AUSTER_ANSICHT
1002
{
1000
SL
1002
}
  0
LINE
  5
A84B
330
20
100
AcDbEntity
  8
11000_Left
  6
Continuous
 62
     7
370
    50
100
AcDbLine
 39
0.7
 10
247.584943942832
 20
508.074999044124
 30
0.0
 11
231.584943942832
 21
508.074999044124
 31
0.0
1001
AUSTER_FOLIE
1002
{
1000
ZENTRA_2144_BO_M_LB_DREH
1002
}
1001
AUSTER_ANSICHT
1002
{
1000
SL
1002
}
  0
LINE
  5
A84C
330
20
100
AcDbEntity
  8
11000_Left
  6
Continuous
 62
     7
370
    50
100
AcDbLine
 39
0.7
 10
229.5849439428319
 20
506.5749990441238
 30
0.0
 11
225.5849439428319
 21
506.5749990441238
 31
0.0
1001
AUSTER_FOLIE
1002
{
1000
ZENTRA_2144_BO_M_LB_DREH
1002
}
1001
AUSTER_ANSICHT
1002
{
1000
SL
1002
}
  0
LINE
  5
A84D
330
20
100
AcDbEntity
  8
11000_Left
  6
Continuous
 62
     7
370
    50
100
AcDbLine
 39
0.7
 10
247.584943942832
 20
514.0749990441238
 30
0.0
 11
247.584943942832
 21
508.074999044124
 31
0.0
1001
AUSTER_FOLIE
1002
{
1000
ZENTRA_2144_BO_M_LB_DREH
1002
}
1001
AUSTER_ANSICHT
1002
{
1000
SL
1002
}
  0
LINE
  5
A84E
330
20
100
AcDbEntity
  8
11000_Left
  6
Continuous
 62
     7
370
    20
100
AcDbLine
 39
0.7
 10
247.588943942832
 20
496.0749990441238
 30
0.0
 11
247.5879439428321
 21
496.0749990441238
 31
0.0
1001
AUSTER_FOLIE
1002
{
1000
ZENTRA_2144_BO_M_LB_DREH
1002
}
1001
AUSTER_ANSICHT
1002
{
1000
SL
1002
}
  0
LINE
  5
A84F
330
20
100
AcDbEntity
  8
11000_Left
  6
Continuous
 62
     7
370
    20
100
AcDbLine
 39
0.7
 10
247.584943942832
 20
505.9749990441238
 30
0.0
 11
247.585943942832
 21
505.9749990441238
 31
0.0
1001
AUSTER_FOLIE
1002
{
1000
ZENTRA_2144_BO_M_LB_DREH
1002
}
1001
AUSTER_ANSICHT
1002
{
1000
SL
1002
}
  0
LINE
  5
A851
330
20
100
AcDbEntity
  8
11000_Left
  6
Continuous
 62
     7
370
    50
100
AcDbLine
 39
0.7
 10
266.584943942832
 20
464.0749990441242
 30
0.0
 11
266.584943942832
 21
473.3749990441241
 31
0.0
1001
AUSTER_FOLIE
1002
{
1000
ZENTRA_2144_BO_M_LB_DREH
1002
}
1001
AUSTER_ANSICHT
1002
{
1000
SL
1002
}
  0
LINE
  5
A852
330
20
100
AcDbEntity
  8
11000_Left
  6
Continuous
 62
     7
370
    50
100
AcDbLine
 39
0.7
 10
278.5849439428321
 20
463.8749990441241
 30
0.0
 11
278.5849439428321
 21
466.874999044124
 31
0.0
1001
AUSTER_FOLIE
1002
{
1000
ZENTRA_2144_BO_M_LB_DREH
1002
}
1001
AUSTER_ANSICHT
1002
{
1000
SL
1002
}
  0
LINE
  5
A853
330
20
100
AcDbEntity
  8
11000_Left
  6
Continuous
 62
     7
370
    20
100
AcDbLine
 39
0.7
 10
284.5849439428321
 20
514.0749990441238
 30
0.0
 11
284.5849439428321
 21
453.6749990441238
 31
0.0
1001
AUSTER_FOLIE
1002
{
1000
ZENTRA_2144_BO_M_LB_DREH
1002
}
1001
AUSTER_ANSICHT
1002
{
1000
SL
1002
}
  0
LINE
  5
A854
330
20
100
AcDbEntity
  8
11000_Left
  6
Continuous
 62
     7
370
    50
100
AcDbLine
 39
0.7
 10
312.0849439428321
 20
484.0319990441238
 30
0.0
 11
312.0849439428321
 21
504.9789990441241
 31
0.0
1001
AUSTER_FOLIE
1002
{
1000
ZENTRA_2144_BO_M_LB_DREH
1002
}
1001
AUSTER_ANSICHT
1002
{
1000
SL
1002
}
  0
LINE
  5
A855
330
20
100
AcDbEntity
  8
11000_Left
  6
Continuous
 62
     7
370
    20
100
AcDbLine
 39
0.7
 10
291.5856900810371
 20
452.7709147071184
 30
0.0
 11
291.5893897215942
 21
515.7427198255653
 31
0.0
1001
AUSTER_FOLIE
1002
{
1000
ZENTRA_2144_BO_M_LB_DREH
1002
}
1001
AUSTER_ANSICHT
1002
{
1000
SL
1002
}
  0
LINE
  5
A856
330
20
100
AcDbEntity
  8
11000_Left
  6
Continuous
 62
     7
370
    20
100
AcDbLine
 39
0.7
 10
258.588943942832
 20
464.0749990441242
 30
0.0
 11
258.588943942832
 21
504.074999044124
 31
0.0
1001
AUSTER_FOLIE
1002
{
1000
ZENTRA_2144_BO_M_LB_DREH
1002
}
1001
AUSTER_ANSICHT
1002
{
1000
SL
1002
}
  0
LINE
  5
A857
330
20
100
AcDbEntity
  8
11000_Left
  6
Continuous
 62
     7
370
    50
100
AcDbLine
 39
0.7
 10
276.5849439428321
 20
466.874999044124
 30
0.0
 11
276.5849439428321
 21
470.874999044124
 31
0.0
1001
AUSTER_FOLIE
1002
{
1000
ZENTRA_2144_BO_M_LB_DREH
1002
}
1001
AUSTER_ANSICHT
1002
{
1000
SL
1002
}
  0
LINE
  5
A858
330
20
100
AcDbEntity
  8
11000_Left
  6
Continuous
 62
     7
370
    50
100
AcDbLine
 39
0.7
 10
272.5849439428321
 20
470.874999044124
 30
0.0
 11
272.5849439428321
 21
473.3749990441241
 31
0.0
1001
AUSTER_FOLIE
1002
{
1000
ZENTRA_2144_BO_M_LB_DREH
1002
}
1001
AUSTER_ANSICHT
1002
{
1000
SL
1002
}
  0
LINE
  5
A859
330
20
100
AcDbEntity
  8
11000_Left
  6
Continuous
 62
     7
370
    20
100
AcDbLine
 39
0.7
 10
301.5849439428321
 20
500.6319990441238
 30
0.0
 11
301.5849439428321
 21
490.8879990441241
 31
0.0
1001
AUSTER_FOLIE
1002
{
1000
ZENTRA_2144_BO_M_LB_DREH
1002
}
1001
AUSTER_ANSICHT
1002
{
1000
SL
1002
}
  0
ARC
  5
A85B
330
20
100
AcDbEntity
  8
11000_Left
  6
Continuous
 62
     7
370
    50
100
AcDbCircle
 39
0.7
 10
293.5213644959519
 20
451.6279807904418
 30
0.0
 40
2.24791756486866
100
AcDbArc
 50
88.37924668868351
 51
149.4399450991138
1001
AUSTER_FOLIE
1002
{
1000
ZENTRA_2144_BO_M_LB_DREH
1002
}
1001
AUSTER_ANSICHT
1002
{
1000
SL
1002
}
  0
LINE
  5
A85C
330
20
100
AcDbEntity
  8
11000_Left
  6
Continuous
 62
     7
370
    50
100
AcDbLine
 39
0.7
 10
258.588943942832
 20
464.0749990441242
 30
0.0
 11
266.584943942832
 21
464.0749990441242
 31
0.0
1001
AUSTER_FOLIE
1002
{
1000
ZENTRA_2144_BO_M_LB_DREH
1002
}
1001
AUSTER_ANSICHT
1002
{
1000
SL
1002
}
  0
LINE
  5
A85D
330
20
100
AcDbEntity
  8
11000_Left
  6
Continuous
 62
     7
370
    50
100
AcDbLine
 39
0.7
 10
258.584943942832
 20
454.074999044124
 30
0.0
 11
258.588943942832
 21
464.0749990441242
 31
0.0
1001
AUSTER_FOLIE
1002
{
1000
ZENTRA_2144_BO_M_LB_DREH
1002
}
1001
AUSTER_ANSICHT
1002
{
1000
SL
1002
}
  0
LINE
  5
A85E
330
20
100
AcDbEntity
  8
11000_Left
  6
Continuous
 62
     7
370
    50
100
AcDbLine
 39
0.7
 10
291.584943942832
 20
450.674999044124
 30
0.0
 11
291.5856900810371
 21
452.7709147071184
 31
0.0
1001
AUSTER_FOLIE
1002
{
1000
ZENTRA_2144_BO_M_LB_DREH
1002
}
1001
AUSTER_ANSICHT
1002
{
1000
SL
1002
}
  0
LINE
  5
A860
330
20
100
AcDbEntity
  8
11000_Left
  6
Continuous
 62
     7
370
     9
100
AcDbLine
 39
0.7
 10
282.5849439428321
 20
450.4319990441241
 30
0.0
 11
284.5849439428321
 21
452.431999044124
 31
0.0
1001
AUSTER_FOLIE
1002
{
1000
ZENTRA_2144_BO_M_LB_DREH
1002
}
1001
AUSTER_ANSICHT
1002
{
1000
SL
1002
}
  0
LINE
  5
A861
330
20
100
AcDbEntity
  8
11000_Left
  6
Continuous
 62
     7
370
     9
100
AcDbLine
 39
0.7
 10
282.5849439428321
 20
445.9419990441241
 30
0.0
 11
284.5849439428321
 21
447.9419990441241
 31
0.0
1001
AUSTER_FOLIE
1002
{
1000
ZENTRA_2144_BO_M_LB_DREH
1002
}
1001
AUSTER_ANSICHT
1002
{
1000
SL
1002
}
  0
LINE
  5
A862
330
20
100
AcDbEntity
  8
11000_Left
  6
Continuous
 62
     7
370
    50
100
AcDbLine
 39
0.7
 10
284.5849439428321
 20
450.674999044124
 30
0.0
 11
291.584943942832
 21
450.674999044124
 31
0.0
1001
AUSTER_FOLIE
1002
{
1000
ZENTRA_2144_BO_M_LB_DREH
1002
}
1001
AUSTER_ANSICHT
1002
{
1000
SL
1002
}
  0
LINE
  5
A863
330
20
100
AcDbEntity
  8
11000_Left
  6
Continuous
 62
     7
370
     9
100
AcDbLine
 39
0.7
 10
282.5849439428321
 20
463.9019990441242
 30
0.0
 11
284.5849439428321
 21
465.9019990441241
 31
0.0
1001
AUSTER_FOLIE
1002
{
1000
ZENTRA_2144_BO_M_LB_DREH
1002
}
1001
AUSTER_ANSICHT
1002
{
1000
SL
1002
}
  0
LINE
  5
A864
330
20
100
AcDbEntity
  8
11000_Left
  6
Continuous
 62
     7
370
     9
100
AcDbLine
 39
0.7
 10
282.5849439428321
 20
459.4119990441241
 30
0.0
 11
284.5849439428321
 21
461.4119990441241
 31
0.0
1001
AUSTER_FOLIE
1002
{
1000
ZENTRA_2144_BO_M_LB_DREH
1002
}
1001
AUSTER_ANSICHT
1002
{
1000
SL
1002
}
  0
LINE
  5
A865
330
20
100
AcDbEntity
  8
11000_Left
  6
Continuous
 62
     7
370
    50
100
AcDbLine
 39
0.7
 10
278.5849439428321
 20
463.8749990441241
 30
0.0
 11
282.5849439428321
 21
463.8749990441241
 31
0.0
1001
AUSTER_FOLIE
1002
{
1000
ZENTRA_2144_BO_M_LB_DREH
1002
}
1001
AUSTER_ANSICHT
1002
{
1000
SL
1002
}
  0
LINE
  5
A866
330
20
100
AcDbEntity
  8
11000_Left
  6
Continuous
 62
     7
370
    50
100
AcDbLine
 39
0.7
 10
272.5849439428321
 20
470.874999044124
 30
0.0
 11
276.5849439428321
 21
470.874999044124
 31
0.0
1001
AUSTER_FOLIE
1002
{
1000
ZENTRA_2144_BO_M_LB_DREH
1002
}
1001
AUSTER_ANSICHT
1002
{
1000
SL
1002
}
  0
LINE
  5
A867
330
20
100
AcDbEntity
  8
11000_Left
  6
Continuous
 62
     7
370
    50
100
AcDbLine
 39
0.7
 10
266.584943942832
 20
473.3749990441241
 30
0.0
 11
272.5849439428321
 21
473.3749990441241
 31
0.0
1001
AUSTER_FOLIE
1002
{
1000
ZENTRA_2144_BO_M_LB_DREH
1002
}
1001
AUSTER_ANSICHT
1002
{
1000
SL
1002
}
  0
LINE
  5
A868
330
20
100
AcDbEntity
  8
11000_Left
  6
Continuous
 62
     7
370
    50
100
AcDbLine
 39
0.7
 10
272.5849439428321
 20
494.3749990441241
 30
0.0
 11
266.584943942832
 21
494.3749990441241
 31
0.0
1001
AUSTER_FOLIE
1002
{
1000
ZENTRA_2144_BO_M_LB_DREH
1002
}
1001
AUSTER_ANSICHT
1002
{
1000
SL
1002
}
  0
LINE
  5
A869
330
20
100
AcDbEntity
  8
11000_Left
  6
Continuous
 62
     7
370
     9
100
AcDbLine
 39
0.7
 10
282.5849439428321
 20
477.3729990441242
 30
0.0
 11
284.5849439428321
 21
479.3729990441241
 31
0.0
1001
AUSTER_FOLIE
1002
{
1000
ZENTRA_2144_BO_M_LB_DREH
1002
}
1001
AUSTER_ANSICHT
1002
{
1000
SL
1002
}
  0
LINE
  5
A86A
330
20
100
AcDbEntity
  8
11000_Left
  6
Continuous
 62
     7
370
     9
100
AcDbLine
 39
0.7
 10
282.5849439428321
 20
472.8819990441238
 30
0.0
 11
284.5849439428321
 21
474.881999044124
 31
0.0
1001
AUSTER_FOLIE
1002
{
1000
ZENTRA_2144_BO_M_LB_DREH
1002
}
1001
AUSTER_ANSICHT
1002
{
1000
SL
1002
}
  0
LINE
  5
A86B
330
20
100
AcDbEntity
  8
11000_Left
  6
Continuous
 62
     7
370
    50
100
AcDbLine
 39
0.7
 10
276.5849439428321
 20
466.874999044124
 30
0.0
 11
278.5849439428321
 21
466.874999044124
 31
0.0
1001
AUSTER_FOLIE
1002
{
1000
ZENTRA_2144_BO_M_LB_DREH
1002
}
1001
AUSTER_ANSICHT
1002
{
1000
SL
1002
}
  0
LINE
  5
A86C
330
20
100
AcDbEntity
  8
11000_Left
  6
Continuous
 62
     7
370
     9
100
AcDbLine
 39
0.7
 10
282.5849439428321
 20
486.3529990441242
 30
0.0
 11
284.5849439428321
 21
488.3529990441242
 31
0.0
1001
AUSTER_FOLIE
1002
{
1000
ZENTRA_2144_BO_M_LB_DREH
1002
}
1001
AUSTER_ANSICHT
1002
{
1000
SL
1002
}
  0
LINE
  5
A86D
330
20
100
AcDbEntity
  8
11000_Left
  6
Continuous
 62
     7
370
     9
100
AcDbLine
 39
0.7
 10
282.5849439428321
 20
490.842999044124
 30
0.0
 11
284.5849439428321
 21
492.8429990441241
 31
0.0
1001
AUSTER_FOLIE
1002
{
1000
ZENTRA_2144_BO_M_LB_DREH
1002
}
1001
AUSTER_ANSICHT
1002
{
1000
SL
1002
}
  0
LINE
  5
A86E
330
20
100
AcDbEntity
  8
11000_Left
  6
Continuous
 62
     7
370
    50
100
AcDbLine
 39
0.7
 10
312.0849439428321
 20
462.771999044124
 30
0.0
 11
312.0849439428321
 21
483.7189990441242
 31
0.0
1001
AUSTER_FOLIE
1002
{
1000
ZENTRA_2144_BO_M_LB_DREH
1002
}
1001
AUSTER_ANSICHT
1002
{
1000
SL
1002
}
  0
LINE
  5
A86F
330
20
100
AcDbEntity
  8
11000_Left
  6
Continuous
 62
     7
370
    20
100
AcDbLine
 39
0.7
 10
301.5849439428321
 20
467.1189990441241
 30
0.0
 11
301.5849439428321
 21
462.6619990441241
 31
0.0
1001
AUSTER_FOLIE
1002
{
1000
ZENTRA_2144_BO_M_LB_DREH
1002
}
1001
AUSTER_ANSICHT
1002
{
1000
SL
1002
}
  0
LINE
  5
A870
330
20
100
AcDbEntity
  8
11000_Left
  6
Continuous
 62
     7
370
    20
100
AcDbLine
 39
0.7
 10
301.5849439428321
 20
467.1189990441241
 30
0.0
 11
306.3679439428321
 21
466.7659990441241
 31
0.0
1001
AUSTER_FOLIE
1002
{
1000
ZENTRA_2144_BO_M_LB_DREH
1002
}
1001
AUSTER_ANSICHT
1002
{
1000
SL
1002
}
  0
LINE
  5
A871
330
20
100
AcDbEntity
  8
11000_Left
  6
Continuous
 62
     7
370
    20
100
AcDbLine
 39
0.7
 10
306.3679439428321
 20
466.7659990441241
 30
0.0
 11
311.136943942832
 21
466.3679990441238
 31
0.0
1001
AUSTER_FOLIE
1002
{
1000
ZENTRA_2144_BO_M_LB_DREH
1002
}
1001
AUSTER_ANSICHT
1002
{
1000
SL
1002
}
  0
LINE
  5
A872
330
20
100
AcDbEntity
  8
11000_Left
  6
Continuous
 62
     7
370
    20
100
AcDbLine
 39
0.7
 10
311.136943942832
 20
453.4069990441238
 30
0.0
 11
301.5849439428321
 21
453.1659990441238
 31
0.0
1001
AUSTER_FOLIE
1002
{
1000
ZENTRA_2144_BO_M_LB_DREH
1002
}
1001
AUSTER_ANSICHT
1002
{
1000
SL
1002
}
  0
LINE
  5
A873
330
20
100
AcDbEntity
  8
11000_Left
  6
Continuous
 62
     7
370
    50
100
AcDbLine
 39
0.7
 10
306.3679439428321
 20
453.2869990441241
 30
0.0
 11
311.136943942832
 21
453.4069990441238
 31
0.0
1001
AUSTER_FOLIE
1002
{
1000
ZENTRA_2144_BO_M_LB_DREH
1002
}
1001
AUSTER_ANSICHT
1002
{
1000
SL
1002
}
  0
LINE
  5
A874
330
20
100
AcDbEntity
  8
11000_Left
  6
Continuous
 62
     7
370
    20
100
AcDbLine
 39
0.7
 10
311.136943942832
 20
458.2929990441241
 30
0.0
 11
306.3679439428321
 21
457.7259990441241
 31
0.0
1001
AUSTER_FOLIE
1002
{
1000
ZENTRA_2144_BO_M_LB_DREH
1002
}
1001
AUSTER_ANSICHT
1002
{
1000
SL
1002
}
  0
LINE
  5
A875
330
20
100
AcDbEntity
  8
11000_Left
  6
Continuous
 62
     7
370
    50
100
AcDbLine
 39
0.7
 10
301.5849439428321
 20
453.1659990441238
 30
0.0
 11
306.3679439428321
 21
453.2869990441241
 31
0.0
1001
AUSTER_FOLIE
1002
{
1000
ZENTRA_2144_BO_M_LB_DREH
1002
}
1001
AUSTER_ANSICHT
1002
{
1000
SL
1002
}
  0
LINE
  5
A876
330
20
100
AcDbEntity
  8
11000_Left
  6
Continuous
 62
     7
370
    20
100
AcDbLine
 39
0.7
 10
306.3679439428321
 20
457.7259990441241
 30
0.0
 11
301.5849439428321
 21
457.201999044124
 31
0.0
1001
AUSTER_FOLIE
1002
{
1000
ZENTRA_2144_BO_M_LB_DREH
1002
}
1001
AUSTER_ANSICHT
1002
{
1000
SL
1002
}
  0
LINE
  5
A877
330
20
100
AcDbEntity
  8
11000_Left
  6
Continuous
 62
     7
370
    50
100
AcDbLine
 39
0.7
 10
301.5849439428321
 20
453.8749990441238
 30
0.0
 11
301.5849439428321
 21
453.1659990441238
 31
0.0
1001
AUSTER_FOLIE
1002
{
1000
ZENTRA_2144_BO_M_LB_DREH
1002
}
1001
AUSTER_ANSICHT
1002
{
1000
SL
1002
}
  0
LINE
  5
A879
330
20
100
AcDbEntity
  8
11000_Left
  6
Continuous
 62
     7
370
    20
100
AcDbLine
 39
0.7
 10
301.5849439428321
 20
462.6619990441241
 30
0.0
 11
301.5849439428321
 21
453.8749990441238
 31
0.0
1001
AUSTER_FOLIE
1002
{
1000
ZENTRA_2144_BO_M_LB_DREH
1002
}
1001
AUSTER_ANSICHT
1002
{
1000
SL
1002
}
  0
LINE
  5
A87A
330
20
100
AcDbEntity
  8
11000_Left
  6
Continuous
 62
     7
370
    50
100
AcDbLine
 39
0.7
 10
293.584943942832
 20
453.8749990441238
 30
0.0
 11
301.5849439428321
 21
453.8749990441238
 31
0.0
1001
AUSTER_FOLIE
1002
{
1000
ZENTRA_2144_BO_M_LB_DREH
1002
}
1001
AUSTER_ANSICHT
1002
{
1000
SL
1002
}
  0
LINE
  5
A87B
330
20
100
AcDbEntity
  8
11000_Left
  6
Continuous
 62
     7
370
    20
100
AcDbLine
 39
0.7
 10
311.918943942832
 20
465.4759990441238
 30
0.0
 11
311.996943942832
 21
465.1079990441238
 31
0.0
1001
AUSTER_FOLIE
1002
{
1000
ZENTRA_2144_BO_M_LB_DREH
1002
}
1001
AUSTER_ANSICHT
1002
{
1000
SL
1002
}
  0
LINE
  5
A87C
330
20
100
AcDbEntity
  8
11000_Left
  6
Continuous
 62
     7
370
    50
100
AcDbLine
 39
0.7
 10
312.0849439428321
 20
462.5519990441241
 30
0.0
 11
312.0849439428321
 21
462.771999044124
 31
0.0
1001
AUSTER_FOLIE
1002
{
1000
ZENTRA_2144_BO_M_LB_DREH
1002
}
1001
AUSTER_ANSICHT
1002
{
1000
SL
1002
}
  0
LINE
  5
A87D
330
20
100
AcDbEntity
  8
11000_Left
  6
Continuous
 62
     7
370
    20
100
AcDbLine
 39
0.7
 10
311.996943942832
 20
465.1079990441238
 30
0.0
 11
312.067943942832
 21
464.317999044124
 31
0.0
1001
AUSTER_FOLIE
1002
{
1000
ZENTRA_2144_BO_M_LB_DREH
1002
}
1001
AUSTER_ANSICHT
1002
{
1000
SL
1002
}
  0
LINE
  5
A87E
330
20
100
AcDbEntity
  8
11000_Left
  6
Continuous
 62
     7
370
    20
100
AcDbLine
 39
0.7
 10
312.067943942832
 20
464.317999044124
 30
0.0
 11
312.083943942832
 21
463.4889990441242
 31
0.0
1001
AUSTER_FOLIE
1002
{
1000
ZENTRA_2144_BO_M_LB_DREH
1002
}
1001
AUSTER_ANSICHT
1002
{
1000
SL
1002
}
  0
LINE
  5
A881
330
20
100
AcDbEntity
  8
11000_Left
  6
Continuous
 62
     7
370
    20
100
AcDbLine
 39
0.7
 10
311.918943942832
 20
453.6179990441238
 30
0.0
 11
311.791943942832
 21
453.5449990441238
 31
0.0
1001
AUSTER_FOLIE
1002
{
1000
ZENTRA_2144_BO_M_LB_DREH
1002
}
1001
AUSTER_ANSICHT
1002
{
1000
SL
1002
}
  0
LINE
  5
A882
330
20
100
AcDbEntity
  8
11000_Left
  6
Continuous
 62
     7
370
    20
100
AcDbLine
 39
0.7
 10
311.791943942832
 20
453.5449990441238
 30
0.0
 11
311.7149439428321
 21
453.511999044124
 31
0.0
1001
AUSTER_FOLIE
1002
{
1000
ZENTRA_2144_BO_M_LB_DREH
1002
}
1001
AUSTER_ANSICHT
1002
{
1000
SL
1002
}
  0
LINE
  5
A883
330
20
100
AcDbEntity
  8
11000_Left
  6
Continuous
 62
     7
370
    20
100
AcDbLine
 39
0.7
 10
311.7149439428321
 20
453.511999044124
 30
0.0
 11
311.6179439428321
 21
453.478999044124
 31
0.0
1001
AUSTER_FOLIE
1002
{
1000
ZENTRA_2144_BO_M_LB_DREH
1002
}
1001
AUSTER_ANSICHT
1002
{
1000
SL
1002
}
  0
LINE
  5
A884
330
20
100
AcDbEntity
  8
11000_Left
  6
Continuous
 62
     7
370
    20
100
AcDbLine
 39
0.7
 10
311.6179439428321
 20
453.478999044124
 30
0.0
 11
311.505943942832
 21
453.4499990441242
 31
0.0
1001
AUSTER_FOLIE
1002
{
1000
ZENTRA_2144_BO_M_LB_DREH
1002
}
1001
AUSTER_ANSICHT
1002
{
1000
SL
1002
}
  0
LINE
  5
A885
330
20
100
AcDbEntity
  8
11000_Left
  6
Continuous
 62
     7
370
    20
100
AcDbLine
 39
0.7
 10
311.505943942832
 20
453.4499990441242
 30
0.0
 11
311.361943942832
 21
453.424999044124
 31
0.0
1001
AUSTER_FOLIE
1002
{
1000
ZENTRA_2144_BO_M_LB_DREH
1002
}
1001
AUSTER_ANSICHT
1002
{
1000
SL
1002
}
  0
LINE
  5
A886
330
20
100
AcDbEntity
  8
11000_Left
  6
Continuous
 62
     7
370
    20
100
AcDbLine
 39
0.7
 10
311.361943942832
 20
453.424999044124
 30
0.0
 11
311.2819439428319
 21
453.414999044124
 31
0.0
1001
AUSTER_FOLIE
1002
{
1000
ZENTRA_2144_BO_M_LB_DREH
1002
}
1001
AUSTER_ANSICHT
1002
{
1000
SL
1002
}
  0
LINE
  5
A887
330
20
100
AcDbEntity
  8
11000_Left
  6
Continuous
 62
     7
370
    20
100
AcDbLine
 39
0.7
 10
311.2819439428319
 20
453.414999044124
 30
0.0
 11
311.183943942832
 21
453.407999044124
 31
0.0
1001
AUSTER_FOLIE
1002
{
1000
ZENTRA_2144_BO_M_LB_DREH
1002
}
1001
AUSTER_ANSICHT
1002
{
1000
SL
1002
}
  0
LINE
  5
A888
330
20
100
AcDbEntity
  8
11000_Left
  6
Continuous
 62
     7
370
    20
100
AcDbLine
 39
0.7
 10
311.183943942832
 20
453.407999044124
 30
0.0
 11
311.136943942832
 21
453.4069990441238
 31
0.0
1001
AUSTER_FOLIE
1002
{
1000
ZENTRA_2144_BO_M_LB_DREH
1002
}
1001
AUSTER_ANSICHT
1002
{
1000
SL
1002
}
  0
LINE
  5
A889
330
20
100
AcDbEntity
  8
11000_Left
  6
Continuous
 62
     7
370
    50
100
AcDbLine
 39
0.7
 10
311.136943942832
 20
453.4069990441238
 30
0.0
 11
311.183943942832
 21
453.407999044124
 31
0.0
1001
AUSTER_FOLIE
1002
{
1000
ZENTRA_2144_BO_M_LB_DREH
1002
}
1001
AUSTER_ANSICHT
1002
{
1000
SL
1002
}
  0
LINE
  5
A88A
330
20
100
AcDbEntity
  8
11000_Left
  6
Continuous
 62
     7
370
    50
100
AcDbLine
 39
0.7
 10
311.183943942832
 20
453.407999044124
 30
0.0
 11
311.2819439428319
 21
453.414999044124
 31
0.0
1001
AUSTER_FOLIE
1002
{
1000
ZENTRA_2144_BO_M_LB_DREH
1002
}
1001
AUSTER_ANSICHT
1002
{
1000
SL
1002
}
  0
LINE
  5
A88B
330
20
100
AcDbEntity
  8
11000_Left
  6
Continuous
 62
     7
370
    50
100
AcDbLine
 39
0.7
 10
311.2819439428319
 20
453.414999044124
 30
0.0
 11
311.361943942832
 21
453.424999044124
 31
0.0
1001
AUSTER_FOLIE
1002
{
1000
ZENTRA_2144_BO_M_LB_DREH
1002
}
1001
AUSTER_ANSICHT
1002
{
1000
SL
1002
}
  0
LINE
  5
A88C
330
20
100
AcDbEntity
  8
11000_Left
  6
Continuous
 62
     7
370
    50
100
AcDbLine
 39
0.7
 10
311.361943942832
 20
453.424999044124
 30
0.0
 11
311.505943942832
 21
453.4499990441242
 31
0.0
1001
AUSTER_FOLIE
1002
{
1000
ZENTRA_2144_BO_M_LB_DREH
1002
}
1001
AUSTER_ANSICHT
1002
{
1000
SL
1002
}
  0
LINE
  5
A88D
330
20
100
AcDbEntity
  8
11000_Left
  6
Continuous
 62
     7
370
    50
100
AcDbLine
 39
0.7
 10
311.505943942832
 20
453.4499990441242
 30
0.0
 11
311.6179439428321
 21
453.478999044124
 31
0.0
1001
AUSTER_FOLIE
1002
{
1000
ZENTRA_2144_BO_M_LB_DREH
1002
}
1001
AUSTER_ANSICHT
1002
{
1000
SL
1002
}
  0
LINE
  5
A88E
330
20
100
AcDbEntity
  8
11000_Left
  6
Continuous
 62
     7
370
    50
100
AcDbLine
 39
0.7
 10
311.6179439428321
 20
453.478999044124
 30
0.0
 11
311.7149439428321
 21
453.511999044124
 31
0.0
1001
AUSTER_FOLIE
1002
{
1000
ZENTRA_2144_BO_M_LB_DREH
1002
}
1001
AUSTER_ANSICHT
1002
{
1000
SL
1002
}
  0
LINE
  5
A88F
330
20
100
AcDbEntity
  8
11000_Left
  6
Continuous
 62
     7
370
    50
100
AcDbLine
 39
0.7
 10
311.7149439428321
 20
453.511999044124
 30
0.0
 11
311.791943942832
 21
453.5449990441238
 31
0.0
1001
AUSTER_FOLIE
1002
{
1000
ZENTRA_2144_BO_M_LB_DREH
1002
}
1001
AUSTER_ANSICHT
1002
{
1000
SL
1002
}
  0
LINE
  5
A890
330
20
100
AcDbEntity
  8
11000_Left
  6
Continuous
 62
     7
370
    50
100
AcDbLine
 39
0.7
 10
311.791943942832
 20
453.5449990441238
 30
0.0
 11
311.918943942832
 21
453.6179990441238
 31
0.0
1001
AUSTER_FOLIE
1002
{
1000
ZENTRA_2144_BO_M_LB_DREH
1002
}
1001
AUSTER_ANSICHT
1002
{
1000
SL
1002
}
  0
LINE
  5
A891
330
20
100
AcDbEntity
  8
11000_Left
  6
Continuous
 62
     7
370
    50
100
AcDbLine
 39
0.7
 10
311.918943942832
 20
453.6179990441238
 30
0.0
 11
311.996943942832
 21
453.6849990441238
 31
0.0
1001
AUSTER_FOLIE
1002
{
1000
ZENTRA_2144_BO_M_LB_DREH
1002
}
1001
AUSTER_ANSICHT
1002
{
1000
SL
1002
}
  0
LINE
  5
A892
330
20
100
AcDbEntity
  8
11000_Left
  6
Continuous
 62
     7
370
    50
100
AcDbLine
 39
0.7
 10
311.996943942832
 20
453.6849990441238
 30
0.0
 11
312.067943942832
 21
453.790999044124
 31
0.0
1001
AUSTER_FOLIE
1002
{
1000
ZENTRA_2144_BO_M_LB_DREH
1002
}
1001
AUSTER_ANSICHT
1002
{
1000
SL
1002
}
  0
LINE
  5
A893
330
20
100
AcDbEntity
  8
11000_Left
  6
Continuous
 62
     7
370
    50
100
AcDbLine
 39
0.7
 10
312.067943942832
 20
453.790999044124
 30
0.0
 11
312.083943942832
 21
453.8549990441241
 31
0.0
1001
AUSTER_FOLIE
1002
{
1000
ZENTRA_2144_BO_M_LB_DREH
1002
}
1001
AUSTER_ANSICHT
1002
{
1000
SL
1002
}
  0
LINE
  5
A894
330
20
100
AcDbEntity
  8
11000_Left
  6
Continuous
 62
     7
370
    50
100
AcDbLine
 39
0.7
 10
312.083943942832
 20
453.8549990441241
 30
0.0
 11
312.0849439428321
 21
453.8749990441238
 31
0.0
1001
AUSTER_FOLIE
1002
{
1000
ZENTRA_2144_BO_M_LB_DREH
1002
}
1001
AUSTER_ANSICHT
1002
{
1000
SL
1002
}
  0
LINE
  5
A896
330
20
100
AcDbEntity
  8
11000_Left
  6
Continuous
 62
     7
370
    20
100
AcDbLine
 39
0.7
 10
312.067943942832
 20
460.8869990441238
 30
0.0
 11
311.996943942832
 21
459.9459990441241
 31
0.0
1001
AUSTER_FOLIE
1002
{
1000
ZENTRA_2144_BO_M_LB_DREH
1002
}
1001
AUSTER_ANSICHT
1002
{
1000
SL
1002
}
  0
LINE
  5
A897
330
20
100
AcDbEntity
  8
11000_Left
  6
Continuous
 62
     7
370
    20
100
AcDbLine
 39
0.7
 10
311.996943942832
 20
459.9459990441241
 30
0.0
 11
311.918943942832
 21
459.4839990441238
 31
0.0
1001
AUSTER_FOLIE
1002
{
1000
ZENTRA_2144_BO_M_LB_DREH
1002
}
1001
AUSTER_ANSICHT
1002
{
1000
SL
1002
}
  0
LINE
  5
A898
330
20
100
AcDbEntity
  8
11000_Left
  6
Continuous
 62
     7
370
    20
100
AcDbLine
 39
0.7
 10
311.918943942832
 20
459.4839990441238
 30
0.0
 11
311.791943942832
 21
459.0359990441242
 31
0.0
1001
AUSTER_FOLIE
1002
{
1000
ZENTRA_2144_BO_M_LB_DREH
1002
}
1001
AUSTER_ANSICHT
1002
{
1000
SL
1002
}
  0
LINE
  5
A899
330
20
100
AcDbEntity
  8
11000_Left
  6
Continuous
 62
     7
370
    20
100
AcDbLine
 39
0.7
 10
311.791943942832
 20
459.0359990441242
 30
0.0
 11
311.7149439428321
 21
458.8489990441238
 31
0.0
1001
AUSTER_FOLIE
1002
{
1000
ZENTRA_2144_BO_M_LB_DREH
1002
}
1001
AUSTER_ANSICHT
1002
{
1000
SL
1002
}
  0
LINE
  5
A89A
330
20
100
AcDbEntity
  8
11000_Left
  6
Continuous
 62
     7
370
    20
100
AcDbLine
 39
0.7
 10
311.7149439428321
 20
458.8489990441238
 30
0.0
 11
311.6179439428321
 21
458.6669990441238
 31
0.0
1001
AUSTER_FOLIE
1002
{
1000
ZENTRA_2144_BO_M_LB_DREH
1002
}
1001
AUSTER_ANSICHT
1002
{
1000
SL
1002
}
  0
LINE
  5
A89B
330
20
100
AcDbEntity
  8
11000_Left
  6
Continuous
 62
     7
370
    20
100
AcDbLine
 39
0.7
 10
311.6179439428321
 20
458.6669990441238
 30
0.0
 11
311.505943942832
 21
458.514999044124
 31
0.0
1001
AUSTER_FOLIE
1002
{
1000
ZENTRA_2144_BO_M_LB_DREH
1002
}
1001
AUSTER_ANSICHT
1002
{
1000
SL
1002
}
  0
LINE
  5
A89C
330
20
100
AcDbEntity
  8
11000_Left
  6
Continuous
 62
     7
370
    20
100
AcDbLine
 39
0.7
 10
311.505943942832
 20
458.514999044124
 30
0.0
 11
311.361943942832
 21
458.383999044124
 31
0.0
1001
AUSTER_FOLIE
1002
{
1000
ZENTRA_2144_BO_M_LB_DREH
1002
}
1001
AUSTER_ANSICHT
1002
{
1000
SL
1002
}
  0
LINE
  5
A89D
330
20
100
AcDbEntity
  8
11000_Left
  6
Continuous
 62
     7
370
    20
100
AcDbLine
 39
0.7
 10
311.361943942832
 20
458.383999044124
 30
0.0
 11
311.2819439428319
 21
458.336999044124
 31
0.0
1001
AUSTER_FOLIE
1002
{
1000
ZENTRA_2144_BO_M_LB_DREH
1002
}
1001
AUSTER_ANSICHT
1002
{
1000
SL
1002
}
  0
LINE
  5
A89E
330
20
100
AcDbEntity
  8
11000_Left
  6
Continuous
 62
     7
370
    20
100
AcDbLine
 39
0.7
 10
311.2819439428319
 20
458.336999044124
 30
0.0
 11
311.183943942832
 21
458.3009990441238
 31
0.0
1001
AUSTER_FOLIE
1002
{
1000
ZENTRA_2144_BO_M_LB_DREH
1002
}
1001
AUSTER_ANSICHT
1002
{
1000
SL
1002
}
  0
LINE
  5
A89F
330
20
100
AcDbEntity
  8
11000_Left
  6
Continuous
 62
     7
370
    20
100
AcDbLine
 39
0.7
 10
311.183943942832
 20
458.3009990441238
 30
0.0
 11
311.136943942832
 21
458.2929990441241
 31
0.0
1001
AUSTER_FOLIE
1002
{
1000
ZENTRA_2144_BO_M_LB_DREH
1002
}
1001
AUSTER_ANSICHT
1002
{
1000
SL
1002
}
  0
LINE
  5
A8A0
330
20
100
AcDbEntity
  8
11000_Left
  6
Continuous
 62
     7
370
    50
100
AcDbLine
 39
0.7
 10
312.0849439428321
 20
453.8749990441238
 30
0.0
 11
312.0849439428321
 21
462.5519990441241
 31
0.0
1001
AUSTER_FOLIE
1002
{
1000
ZENTRA_2144_BO_M_LB_DREH
1002
}
1001
AUSTER_ANSICHT
1002
{
1000
SL
1002
}
  0
LINE
  5
A8A1
330
20
100
AcDbEntity
  8
11000_Left
  6
Continuous
 62
     7
370
    50
100
AcDbLine
 39
0.7
 10
312.0849439428321
 20
462.5519990441241
 30
0.0
 11
312.083943942832
 21
461.806999044124
 31
0.0
1001
AUSTER_FOLIE
1002
{
1000
ZENTRA_2144_BO_M_LB_DREH
1002
}
1001
AUSTER_ANSICHT
1002
{
1000
SL
1002
}
  0
LINE
  5
A8A2
330
20
100
AcDbEntity
  8
11000_Left
  6
Continuous
 62
     7
370
    20
100
AcDbLine
 39
0.7
 10
311.136943942832
 20
466.3679990441238
 30
0.0
 11
311.183943942832
 21
466.3619990441238
 31
0.0
1001
AUSTER_FOLIE
1002
{
1000
ZENTRA_2144_BO_M_LB_DREH
1002
}
1001
AUSTER_ANSICHT
1002
{
1000
SL
1002
}
  0
LINE
  5
A8A3
330
20
100
AcDbEntity
  8
11000_Left
  6
Continuous
 62
     7
370
    20
100
AcDbLine
 39
0.7
 10
311.183943942832
 20
466.3619990441238
 30
0.0
 11
311.2819439428319
 21
466.336999044124
 31
0.0
1001
AUSTER_FOLIE
1002
{
1000
ZENTRA_2144_BO_M_LB_DREH
1002
}
1001
AUSTER_ANSICHT
1002
{
1000
SL
1002
}
  0
LINE
  5
A8A4
330
20
100
AcDbEntity
  8
11000_Left
  6
Continuous
 62
     7
370
    20
100
AcDbLine
 39
0.7
 10
311.2819439428319
 20
466.336999044124
 30
0.0
 11
311.361943942832
 21
466.3029990441241
 31
0.0
1001
AUSTER_FOLIE
1002
{
1000
ZENTRA_2144_BO_M_LB_DREH
1002
}
1001
AUSTER_ANSICHT
1002
{
1000
SL
1002
}
  0
LINE
  5
A8A5
330
20
100
AcDbEntity
  8
11000_Left
  6
Continuous
 62
     7
370
    20
100
AcDbLine
 39
0.7
 10
311.361943942832
 20
466.3029990441241
 30
0.0
 11
311.505943942832
 21
466.207999044124
 31
0.0
1001
AUSTER_FOLIE
1002
{
1000
ZENTRA_2144_BO_M_LB_DREH
1002
}
1001
AUSTER_ANSICHT
1002
{
1000
SL
1002
}
  0
LINE
  5
A8A6
330
20
100
AcDbEntity
  8
11000_Left
  6
Continuous
 62
     7
370
    20
100
AcDbLine
 39
0.7
 10
311.505943942832
 20
466.207999044124
 30
0.0
 11
311.6179439428321
 21
466.0969990441241
 31
0.0
1001
AUSTER_FOLIE
1002
{
1000
ZENTRA_2144_BO_M_LB_DREH
1002
}
1001
AUSTER_ANSICHT
1002
{
1000
SL
1002
}
  0
LINE
  5
A8A7
330
20
100
AcDbEntity
  8
11000_Left
  6
Continuous
 62
     7
370
    20
100
AcDbLine
 39
0.7
 10
311.6179439428321
 20
466.0969990441241
 30
0.0
 11
311.7149439428321
 21
465.961999044124
 31
0.0
1001
AUSTER_FOLIE
1002
{
1000
ZENTRA_2144_BO_M_LB_DREH
1002
}
1001
AUSTER_ANSICHT
1002
{
1000
SL
1002
}
  0
LINE
  5
A8A8
330
20
100
AcDbEntity
  8
11000_Left
  6
Continuous
 62
     7
370
    20
100
AcDbLine
 39
0.7
 10
311.7149439428321
 20
465.961999044124
 30
0.0
 11
311.791943942832
 21
465.8209990441242
 31
0.0
1001
AUSTER_FOLIE
1002
{
1000
ZENTRA_2144_BO_M_LB_DREH
1002
}
1001
AUSTER_ANSICHT
1002
{
1000
SL
1002
}
  0
LINE
  5
A8A9
330
20
100
AcDbEntity
  8
11000_Left
  6
Continuous
 62
     7
370
    20
100
AcDbLine
 39
0.7
 10
311.791943942832
 20
465.8209990441242
 30
0.0
 11
311.918943942832
 21
465.4759990441238
 31
0.0
1001
AUSTER_FOLIE
1002
{
1000
ZENTRA_2144_BO_M_LB_DREH
1002
}
1001
AUSTER_ANSICHT
1002
{
1000
SL
1002
}
  0
LINE
  5
A8AA
330
20
100
AcDbEntity
  8
11000_Left
  6
Continuous
 62
     7
370
    20
100
AcDbLine
 39
0.7
 10
311.136943942832
 20
478.1649990441238
 30
0.0
 11
306.366943942832
 21
477.4829990441238
 31
0.0
1001
AUSTER_FOLIE
1002
{
1000
ZENTRA_2144_BO_M_LB_DREH
1002
}
1001
AUSTER_ANSICHT
1002
{
1000
SL
1002
}
  0
LINE
  5
A8AB
330
20
100
AcDbEntity
  8
11000_Left
  6
Continuous
 62
     7
370
    20
100
AcDbLine
 39
0.7
 10
306.366943942832
 20
490.2669990441238
 30
0.0
 11
311.136943942832
 21
489.5859990441241
 31
0.0
1001
AUSTER_FOLIE
1002
{
1000
ZENTRA_2144_BO_M_LB_DREH
1002
}
1001
AUSTER_ANSICHT
1002
{
1000
SL
1002
}
  0
LINE
  5
A8AC
330
20
100
AcDbEntity
  8
11000_Left
  6
Continuous
 62
     7
370
    20
100
AcDbLine
 39
0.7
 10
296.284943942832
 20
479.1249990441241
 30
0.0
 11
296.284943942832
 21
488.6249990441238
 31
0.0
1001
AUSTER_FOLIE
1002
{
1000
ZENTRA_2144_BO_M_LB_DREH
1002
}
1001
AUSTER_ANSICHT
1002
{
1000
SL
1002
}
  0
LINE
  5
A8AD
330
20
100
AcDbEntity
  8
11000_Left
  6
Continuous
 62
     7
370
    20
100
AcDbLine
 39
0.7
 10
307.5769439428321
 20
481.1969990441241
 30
0.0
 11
308.027943942832
 21
482.0379990441241
 31
0.0
1001
AUSTER_FOLIE
1002
{
1000
ZENTRA_2144_BO_M_LB_DREH
1002
}
1001
AUSTER_ANSICHT
1002
{
1000
SL
1002
}
  0
LINE
  5
A8AE
330
20
100
AcDbEntity
  8
11000_Left
  6
Continuous
 62
     7
370
    20
100
AcDbLine
 39
0.7
 10
306.366943942832
 20
477.4829990441238
 30
0.0
 11
301.5849439428321
 21
476.8629990441241
 31
0.0
1001
AUSTER_FOLIE
1002
{
1000
ZENTRA_2144_BO_M_LB_DREH
1002
}
1001
AUSTER_ANSICHT
1002
{
1000
SL
1002
}
  0
LINE
  5
A8AF
330
20
100
AcDbEntity
  8
11000_Left
  6
Continuous
 62
     7
370
    20
100
AcDbLine
 39
0.7
 10
301.5849439428321
 20
479.1249990441241
 30
0.0
 11
304.284943942832
 21
479.1249990441241
 31
0.0
1001
AUSTER_FOLIE
1002
{
1000
ZENTRA_2144_BO_M_LB_DREH
1002
}
1001
AUSTER_ANSICHT
1002
{
1000
SL
1002
}
  0
LINE
  5
A8B0
330
20
100
AcDbEntity
  8
11000_Left
  6
Continuous
 62
     7
370
    20
100
AcDbLine
 39
0.7
 10
301.5849439428321
 20
479.1249990441241
 30
0.0
 11
301.5849439428321
 21
476.8629990441241
 31
0.0
1001
AUSTER_FOLIE
1002
{
1000
ZENTRA_2144_BO_M_LB_DREH
1002
}
1001
AUSTER_ANSICHT
1002
{
1000
SL
1002
}
  0
LINE
  5
A8B1
330
20
100
AcDbEntity
  8
11000_Left
  6
Continuous
 62
     7
370
    20
100
AcDbLine
 39
0.7
 10
301.5849439428321
 20
476.8629990441241
 30
0.0
 11
301.5849439428321
 21
467.1189990441241
 31
0.0
1001
AUSTER_FOLIE
1002
{
1000
ZENTRA_2144_BO_M_LB_DREH
1002
}
1001
AUSTER_ANSICHT
1002
{
1000
SL
1002
}
  0
LINE
  5
A8B4
330
20
100
AcDbEntity
  8
11000_Left
  6
Continuous
 62
     7
370
    20
100
AcDbLine
 39
0.7
 10
301.5849439428321
 20
479.1249990441241
 30
0.0
 11
296.284943942832
 21
479.1249990441241
 31
0.0
1001
AUSTER_FOLIE
1002
{
1000
ZENTRA_2144_BO_M_LB_DREH
1002
}
1001
AUSTER_ANSICHT
1002
{
1000
SL
1002
}
  0
LINE
  5
A8B5
330
20
100
AcDbEntity
  8
11000_Left
  6
Continuous
 62
     7
370
    20
100
AcDbLine
 39
0.7
 10
304.284943942832
 20
479.1249990441241
 30
0.0
 11
304.517943942832
 21
479.1649990441241
 31
0.0
1001
AUSTER_FOLIE
1002
{
1000
ZENTRA_2144_BO_M_LB_DREH
1002
}
1001
AUSTER_ANSICHT
1002
{
1000
SL
1002
}
  0
LINE
  5
A8B6
330
20
100
AcDbEntity
  8
11000_Left
  6
Continuous
 62
     7
370
    20
100
AcDbLine
 39
0.7
 10
304.517943942832
 20
479.1649990441241
 30
0.0
 11
305.4319439428319
 21
479.4409990441241
 31
0.0
1001
AUSTER_FOLIE
1002
{
1000
ZENTRA_2144_BO_M_LB_DREH
1002
}
1001
AUSTER_ANSICHT
1002
{
1000
SL
1002
}
  0
LINE
  5
A8B7
330
20
100
AcDbEntity
  8
11000_Left
  6
Continuous
 62
     7
370
    20
100
AcDbLine
 39
0.7
 10
305.4319439428319
 20
479.4409990441241
 30
0.0
 11
306.272943942832
 21
479.8919990441238
 31
0.0
1001
AUSTER_FOLIE
1002
{
1000
ZENTRA_2144_BO_M_LB_DREH
1002
}
1001
AUSTER_ANSICHT
1002
{
1000
SL
1002
}
  0
LINE
  5
A8B8
330
20
100
AcDbEntity
  8
11000_Left
  6
Continuous
 62
     7
370
    20
100
AcDbLine
 39
0.7
 10
306.272943942832
 20
479.8919990441238
 30
0.0
 11
306.9879439428321
 21
480.4809990441241
 31
0.0
1001
AUSTER_FOLIE
1002
{
1000
ZENTRA_2144_BO_M_LB_DREH
1002
}
1001
AUSTER_ANSICHT
1002
{
1000
SL
1002
}
  0
LINE
  5
A8B9
330
20
100
AcDbEntity
  8
11000_Left
  6
Continuous
 62
     7
370
    20
100
AcDbLine
 39
0.7
 10
306.9879439428321
 20
480.4809990441241
 30
0.0
 11
307.5769439428321
 21
481.1969990441241
 31
0.0
1001
AUSTER_FOLIE
1002
{
1000
ZENTRA_2144_BO_M_LB_DREH
1002
}
1001
AUSTER_ANSICHT
1002
{
1000
SL
1002
}
  0
LINE
  5
A8BA
330
20
100
AcDbEntity
  8
11000_Left
  6
Continuous
 62
     7
370
    20
100
AcDbLine
 39
0.7
 10
301.5849439428321
 20
490.8879990441241
 30
0.0
 11
306.366943942832
 21
490.2669990441238
 31
0.0
1001
AUSTER_FOLIE
1002
{
1000
ZENTRA_2144_BO_M_LB_DREH
1002
}
1001
AUSTER_ANSICHT
1002
{
1000
SL
1002
}
  0
LINE
  5
A8BB
330
20
100
AcDbEntity
  8
11000_Left
  6
Continuous
 62
     7
370
    20
100
AcDbLine
 39
0.7
 10
304.284943942832
 20
488.6249990441238
 30
0.0
 11
301.5849439428321
 21
488.6249990441238
 31
0.0
1001
AUSTER_FOLIE
1002
{
1000
ZENTRA_2144_BO_M_LB_DREH
1002
}
1001
AUSTER_ANSICHT
1002
{
1000
SL
1002
}
  0
LINE
  5
A8BC
330
20
100
AcDbEntity
  8
11000_Left
  6
Continuous
 62
     7
370
    20
100
AcDbLine
 39
0.7
 10
301.5849439428321
 20
490.8879990441241
 30
0.0
 11
301.5849439428321
 21
488.6249990441238
 31
0.0
1001
AUSTER_FOLIE
1002
{
1000
ZENTRA_2144_BO_M_LB_DREH
1002
}
1001
AUSTER_ANSICHT
1002
{
1000
SL
1002
}
  0
LINE
  5
A8BD
330
20
100
AcDbEntity
  8
11000_Left
  6
Continuous
 62
     7
370
    20
100
AcDbLine
 39
0.7
 10
296.284943942832
 20
488.6249990441238
 30
0.0
 11
301.5849439428321
 21
488.6249990441238
 31
0.0
1001
AUSTER_FOLIE
1002
{
1000
ZENTRA_2144_BO_M_LB_DREH
1002
}
1001
AUSTER_ANSICHT
1002
{
1000
SL
1002
}
  0
LINE
  5
A8BE
330
20
100
AcDbEntity
  8
11000_Left
  6
Continuous
 62
     7
370
    20
100
AcDbLine
 39
0.7
 10
301.5849439428321
 20
489.8749990441241
 30
0.0
 11
301.587943942832
 21
489.8749990441241
 31
0.0
1001
AUSTER_FOLIE
1002
{
1000
ZENTRA_2144_BO_M_LB_DREH
1002
}
1001
AUSTER_ANSICHT
1002
{
1000
SL
1002
}
  0
LINE
  5
A8BF
330
20
100
AcDbEntity
  8
11000_Left
  6
Continuous
 62
     7
370
    20
100
AcDbLine
 39
0.7
 10
308.027943942832
 20
482.0379990441241
 30
0.0
 11
308.303943942832
 21
482.9519990441238
 31
0.0
1001
AUSTER_FOLIE
1002
{
1000
ZENTRA_2144_BO_M_LB_DREH
1002
}
1001
AUSTER_ANSICHT
1002
{
1000
SL
1002
}
  0
LINE
  5
A8C0
330
20
100
AcDbEntity
  8
11000_Left
  6
Continuous
 62
     7
370
    20
100
AcDbLine
 39
0.7
 10
308.303943942832
 20
482.9519990441238
 30
0.0
 11
308.393943942832
 21
483.8749990441241
 31
0.0
1001
AUSTER_FOLIE
1002
{
1000
ZENTRA_2144_BO_M_LB_DREH
1002
}
1001
AUSTER_ANSICHT
1002
{
1000
SL
1002
}
  0
LINE
  5
A8C1
330
20
100
AcDbEntity
  8
11000_Left
  6
Continuous
 62
     7
370
    20
100
AcDbLine
 39
0.7
 10
308.393943942832
 20
483.8749990441241
 30
0.0
 11
308.303943942832
 21
484.798999044124
 31
0.0
1001
AUSTER_FOLIE
1002
{
1000
ZENTRA_2144_BO_M_LB_DREH
1002
}
1001
AUSTER_ANSICHT
1002
{
1000
SL
1002
}
  0
LINE
  5
A8C2
330
20
100
AcDbEntity
  8
11000_Left
  6
Continuous
 62
     7
370
    20
100
AcDbLine
 39
0.7
 10
308.303943942832
 20
484.798999044124
 30
0.0
 11
308.027943942832
 21
485.7129990441241
 31
0.0
1001
AUSTER_FOLIE
1002
{
1000
ZENTRA_2144_BO_M_LB_DREH
1002
}
1001
AUSTER_ANSICHT
1002
{
1000
SL
1002
}
  0
LINE
  5
A8C3
330
20
100
AcDbEntity
  8
11000_Left
  6
Continuous
 62
     7
370
    20
100
AcDbLine
 39
0.7
 10
308.027943942832
 20
485.7129990441241
 30
0.0
 11
307.5769439428321
 21
486.553999044124
 31
0.0
1001
AUSTER_FOLIE
1002
{
1000
ZENTRA_2144_BO_M_LB_DREH
1002
}
1001
AUSTER_ANSICHT
1002
{
1000
SL
1002
}
  0
LINE
  5
A8C4
330
20
100
AcDbEntity
  8
11000_Left
  6
Continuous
 62
     7
370
    20
100
AcDbLine
 39
0.7
 10
307.5769439428321
 20
486.553999044124
 30
0.0
 11
306.9879439428321
 21
487.269999044124
 31
0.0
1001
AUSTER_FOLIE
1002
{
1000
ZENTRA_2144_BO_M_LB_DREH
1002
}
1001
AUSTER_ANSICHT
1002
{
1000
SL
1002
}
  0
LINE
  5
A8C5
330
20
100
AcDbEntity
  8
11000_Left
  6
Continuous
 62
     7
370
    20
100
AcDbLine
 39
0.7
 10
306.9879439428321
 20
487.269999044124
 30
0.0
 11
306.272943942832
 21
487.8579990441238
 31
0.0
1001
AUSTER_FOLIE
1002
{
1000
ZENTRA_2144_BO_M_LB_DREH
1002
}
1001
AUSTER_ANSICHT
1002
{
1000
SL
1002
}
  0
LINE
  5
A8C6
330
20
100
AcDbEntity
  8
11000_Left
  6
Continuous
 62
     7
370
    20
100
AcDbLine
 39
0.7
 10
306.272943942832
 20
487.8579990441238
 30
0.0
 11
305.4319439428319
 21
488.3099990441238
 31
0.0
1001
AUSTER_FOLIE
1002
{
1000
ZENTRA_2144_BO_M_LB_DREH
1002
}
1001
AUSTER_ANSICHT
1002
{
1000
SL
1002
}
  0
LINE
  5
A8C7
330
20
100
AcDbEntity
  8
11000_Left
  6
Continuous
 62
     7
370
    20
100
AcDbLine
 39
0.7
 10
305.4319439428319
 20
488.3099990441238
 30
0.0
 11
304.517943942832
 21
488.5859990441241
 31
0.0
1001
AUSTER_FOLIE
1002
{
1000
ZENTRA_2144_BO_M_LB_DREH
1002
}
1001
AUSTER_ANSICHT
1002
{
1000
SL
1002
}
  0
LINE
  5
A8C8
330
20
100
AcDbEntity
  8
11000_Left
  6
Continuous
 62
     7
370
    20
100
AcDbLine
 39
0.7
 10
304.517943942832
 20
488.5859990441241
 30
0.0
 11
304.284943942832
 21
488.6249990441238
 31
0.0
1001
AUSTER_FOLIE
1002
{
1000
ZENTRA_2144_BO_M_LB_DREH
1002
}
1001
AUSTER_ANSICHT
1002
{
1000
SL
1002
}
  0
LINE
  5
A8C9
330
20
100
AcDbEntity
  8
11000_Left
  6
Continuous
 62
     7
370
    50
100
AcDbLine
 39
0.7
 10
320.784943942832
 20
477.8749990441238
 30
0.0
 11
320.784943942832
 21
489.8749990441241
 31
0.0
1001
AUSTER_FOLIE
1002
{
1000
ZENTRA_2144_BO_M_LB_DREH
1002
}
1001
AUSTER_ANSICHT
1002
{
1000
SL
1002
}
  0
LINE
  5
A8CA
330
20
100
AcDbEntity
  8
11000_Left
  6
Continuous
 62
     7
370
    20
100
AcDbLine
 39
0.7
 10
314.784943942832
 20
489.8749990441241
 30
0.0
 11
314.784943942832
 21
477.8749990441238
 31
0.0
1001
AUSTER_FOLIE
1002
{
1000
ZENTRA_2144_BO_M_LB_DREH
1002
}
1001
AUSTER_ANSICHT
1002
{
1000
SL
1002
}
  0
LINE
  5
A8CB
330
20
100
AcDbEntity
  8
11000_Left
  6
Continuous
 62
     7
370
    20
100
AcDbLine
 39
0.7
 10
312.067943942832
 20
481.448999044124
 30
0.0
 11
311.996943942832
 21
480.2259990441238
 31
0.0
1001
AUSTER_FOLIE
1002
{
1000
ZENTRA_2144_BO_M_LB_DREH
1002
}
1001
AUSTER_ANSICHT
1002
{
1000
SL
1002
}
  0
LINE
  5
A8CC
330
20
100
AcDbEntity
  8
11000_Left
  6
Continuous
 62
     7
370
    50
100
AcDbLine
 39
0.7
 10
314.784943942832
 20
477.8749990441238
 30
0.0
 11
320.784943942832
 21
477.8749990441238
 31
0.0
1001
AUSTER_FOLIE
1002
{
1000
ZENTRA_2144_BO_M_LB_DREH
1002
}
1001
AUSTER_ANSICHT
1002
{
1000
SL
1002
}
  0
LINE
  5
A8CD
330
20
100
AcDbEntity
  8
11000_Left
  6
Continuous
 62
     7
370
    50
100
AcDbLine
 39
0.7
 10
312.0849439428321
 20
477.8749990441238
 30
0.0
 11
314.784943942832
 21
477.8749990441238
 31
0.0
1001
AUSTER_FOLIE
1002
{
1000
ZENTRA_2144_BO_M_LB_DREH
1002
}
1001
AUSTER_ANSICHT
1002
{
1000
SL
1002
}
  0
LINE
  5
A8CE
330
20
100
AcDbEntity
  8
11000_Left
  6
Continuous
 62
     7
370
    20
100
AcDbLine
 39
0.7
 10
311.996943942832
 20
480.2259990441238
 30
0.0
 11
311.918943942832
 21
479.6379990441241
 31
0.0
1001
AUSTER_FOLIE
1002
{
1000
ZENTRA_2144_BO_M_LB_DREH
1002
}
1001
AUSTER_ANSICHT
1002
{
1000
SL
1002
}
  0
LINE
  5
A8CF
330
20
100
AcDbEntity
  8
11000_Left
  6
Continuous
 62
     7
370
    20
100
AcDbLine
 39
0.7
 10
311.918943942832
 20
479.6379990441241
 30
0.0
 11
311.791943942832
 21
479.076999044124
 31
0.0
1001
AUSTER_FOLIE
1002
{
1000
ZENTRA_2144_BO_M_LB_DREH
1002
}
1001
AUSTER_ANSICHT
1002
{
1000
SL
1002
}
  0
LINE
  5
A8D0
330
20
100
AcDbEntity
  8
11000_Left
  6
Continuous
 62
     7
370
    20
100
AcDbLine
 39
0.7
 10
311.791943942832
 20
479.076999044124
 30
0.0
 11
311.7149439428321
 21
478.8459990441241
 31
0.0
1001
AUSTER_FOLIE
1002
{
1000
ZENTRA_2144_BO_M_LB_DREH
1002
}
1001
AUSTER_ANSICHT
1002
{
1000
SL
1002
}
  0
LINE
  5
A8D1
330
20
100
AcDbEntity
  8
11000_Left
  6
Continuous
 62
     7
370
    20
100
AcDbLine
 39
0.7
 10
311.7149439428321
 20
478.8459990441241
 30
0.0
 11
311.6179439428321
 21
478.621999044124
 31
0.0
1001
AUSTER_FOLIE
1002
{
1000
ZENTRA_2144_BO_M_LB_DREH
1002
}
1001
AUSTER_ANSICHT
1002
{
1000
SL
1002
}
  0
LINE
  5
A8D2
330
20
100
AcDbEntity
  8
11000_Left
  6
Continuous
 62
     7
370
    20
100
AcDbLine
 39
0.7
 10
311.6179439428321
 20
478.621999044124
 30
0.0
 11
311.505943942832
 21
478.4359990441242
 31
0.0
1001
AUSTER_FOLIE
1002
{
1000
ZENTRA_2144_BO_M_LB_DREH
1002
}
1001
AUSTER_ANSICHT
1002
{
1000
SL
1002
}
  0
LINE
  5
A8D3
330
20
100
AcDbEntity
  8
11000_Left
  6
Continuous
 62
     7
370
    20
100
AcDbLine
 39
0.7
 10
311.505943942832
 20
478.4359990441242
 30
0.0
 11
311.361943942832
 21
478.274999044124
 31
0.0
1001
AUSTER_FOLIE
1002
{
1000
ZENTRA_2144_BO_M_LB_DREH
1002
}
1001
AUSTER_ANSICHT
1002
{
1000
SL
1002
}
  0
LINE
  5
A8D4
330
20
100
AcDbEntity
  8
11000_Left
  6
Continuous
 62
     7
370
    20
100
AcDbLine
 39
0.7
 10
311.361943942832
 20
478.274999044124
 30
0.0
 11
311.2819439428319
 21
478.217999044124
 31
0.0
1001
AUSTER_FOLIE
1002
{
1000
ZENTRA_2144_BO_M_LB_DREH
1002
}
1001
AUSTER_ANSICHT
1002
{
1000
SL
1002
}
  0
LINE
  5
A8D5
330
20
100
AcDbEntity
  8
11000_Left
  6
Continuous
 62
     7
370
    20
100
AcDbLine
 39
0.7
 10
311.2819439428319
 20
478.217999044124
 30
0.0
 11
311.183943942832
 21
478.1759990441238
 31
0.0
1001
AUSTER_FOLIE
1002
{
1000
ZENTRA_2144_BO_M_LB_DREH
1002
}
1001
AUSTER_ANSICHT
1002
{
1000
SL
1002
}
  0
LINE
  5
A8D6
330
20
100
AcDbEntity
  8
11000_Left
  6
Continuous
 62
     7
370
    20
100
AcDbLine
 39
0.7
 10
311.183943942832
 20
478.1759990441238
 30
0.0
 11
311.136943942832
 21
478.1649990441238
 31
0.0
1001
AUSTER_FOLIE
1002
{
1000
ZENTRA_2144_BO_M_LB_DREH
1002
}
1001
AUSTER_ANSICHT
1002
{
1000
SL
1002
}
  0
LINE
  5
A8D7
330
20
100
AcDbEntity
  8
11000_Left
  6
Continuous
 62
     7
370
    50
100
AcDbLine
 39
0.7
 10
320.784943942832
 20
489.8749990441241
 30
0.0
 11
314.784943942832
 21
489.8749990441241
 31
0.0
1001
AUSTER_FOLIE
1002
{
1000
ZENTRA_2144_BO_M_LB_DREH
1002
}
1001
AUSTER_ANSICHT
1002
{
1000
SL
1002
}
  0
LINE
  5
A8D9
330
20
100
AcDbEntity
  8
11000_Left
  6
Continuous
 62
     7
370
    20
100
AcDbLine
 39
0.7
 10
311.361943942832
 20
489.4759990441241
 30
0.0
 11
311.505943942832
 21
489.3149990441238
 31
0.0
1001
AUSTER_FOLIE
1002
{
1000
ZENTRA_2144_BO_M_LB_DREH
1002
}
1001
AUSTER_ANSICHT
1002
{
1000
SL
1002
}
  0
LINE
  5
A8DA
330
20
100
AcDbEntity
  8
11000_Left
  6
Continuous
 62
     7
370
    20
100
AcDbLine
 39
0.7
 10
311.505943942832
 20
489.3149990441238
 30
0.0
 11
311.6179439428321
 21
489.1289990441241
 31
0.0
1001
AUSTER_FOLIE
1002
{
1000
ZENTRA_2144_BO_M_LB_DREH
1002
}
1001
AUSTER_ANSICHT
1002
{
1000
SL
1002
}
  0
LINE
  5
A8DB
330
20
100
AcDbEntity
  8
11000_Left
  6
Continuous
 62
     7
370
    20
100
AcDbLine
 39
0.7
 10
311.6179439428321
 20
489.1289990441241
 30
0.0
 11
311.7149439428321
 21
488.904999044124
 31
0.0
1001
AUSTER_FOLIE
1002
{
1000
ZENTRA_2144_BO_M_LB_DREH
1002
}
1001
AUSTER_ANSICHT
1002
{
1000
SL
1002
}
  0
LINE
  5
A8DC
330
20
100
AcDbEntity
  8
11000_Left
  6
Continuous
 62
     7
370
    20
100
AcDbLine
 39
0.7
 10
311.7149439428321
 20
488.904999044124
 30
0.0
 11
311.791943942832
 21
488.6739990441241
 31
0.0
1001
AUSTER_FOLIE
1002
{
1000
ZENTRA_2144_BO_M_LB_DREH
1002
}
1001
AUSTER_ANSICHT
1002
{
1000
SL
1002
}
  0
LINE
  5
A8DD
330
20
100
AcDbEntity
  8
11000_Left
  6
Continuous
 62
     7
370
    20
100
AcDbLine
 39
0.7
 10
311.791943942832
 20
488.6739990441241
 30
0.0
 11
311.918943942832
 21
488.1129990441242
 31
0.0
1001
AUSTER_FOLIE
1002
{
1000
ZENTRA_2144_BO_M_LB_DREH
1002
}
1001
AUSTER_ANSICHT
1002
{
1000
SL
1002
}
  0
LINE
  5
A8DE
330
20
100
AcDbEntity
  8
11000_Left
  6
Continuous
 62
     7
370
    20
100
AcDbLine
 39
0.7
 10
311.918943942832
 20
488.1129990441242
 30
0.0
 11
311.996943942832
 21
487.524999044124
 31
0.0
1001
AUSTER_FOLIE
1002
{
1000
ZENTRA_2144_BO_M_LB_DREH
1002
}
1001
AUSTER_ANSICHT
1002
{
1000
SL
1002
}
  0
LINE
  5
A8DF
330
20
100
AcDbEntity
  8
11000_Left
  6
Continuous
 62
     7
370
    20
100
AcDbLine
 39
0.7
 10
311.996943942832
 20
487.524999044124
 30
0.0
 11
312.067943942832
 21
486.3019990441241
 31
0.0
1001
AUSTER_FOLIE
1002
{
1000
ZENTRA_2144_BO_M_LB_DREH
1002
}
1001
AUSTER_ANSICHT
1002
{
1000
SL
1002
}
  0
LINE
  5
A8E4
330
20
100
AcDbEntity
  8
11000_Left
  6
Continuous
 62
     7
370
    50
100
AcDbLine
 39
0.7
 10
312.0849439428321
 20
489.8749990441241
 30
0.0
 11
314.784943942832
 21
489.8749990441241
 31
0.0
1001
AUSTER_FOLIE
1002
{
1000
ZENTRA_2144_BO_M_LB_DREH
1002
}
1001
AUSTER_ANSICHT
1002
{
1000
SL
1002
}
  0
LINE
  5
A8E5
330
20
100
AcDbEntity
  8
11000_Left
  6
Continuous
 62
     7
370
    20
100
AcDbLine
 39
0.7
 10
311.136943942832
 20
489.5859990441241
 30
0.0
 11
311.183943942832
 21
489.5749990441238
 31
0.0
1001
AUSTER_FOLIE
1002
{
1000
ZENTRA_2144_BO_M_LB_DREH
1002
}
1001
AUSTER_ANSICHT
1002
{
1000
SL
1002
}
  0
LINE
  5
A8E6
330
20
100
AcDbEntity
  8
11000_Left
  6
Continuous
 62
     7
370
    20
100
AcDbLine
 39
0.7
 10
311.183943942832
 20
489.5749990441238
 30
0.0
 11
311.2819439428319
 21
489.5329990441238
 31
0.0
1001
AUSTER_FOLIE
1002
{
1000
ZENTRA_2144_BO_M_LB_DREH
1002
}
1001
AUSTER_ANSICHT
1002
{
1000
SL
1002
}
  0
LINE
  5
A8E7
330
20
100
AcDbEntity
  8
11000_Left
  6
Continuous
 62
     7
370
    20
100
AcDbLine
 39
0.7
 10
311.2819439428319
 20
489.5329990441238
 30
0.0
 11
311.361943942832
 21
489.4759990441241
 31
0.0
1001
AUSTER_FOLIE
1002
{
1000
ZENTRA_2144_BO_M_LB_DREH
1002
}
1001
AUSTER_ANSICHT
1002
{
1000
SL
1002
}
  0
LINE
  5
A8EA
330
20
100
AcDbEntity
  8
11000_Left
  6
Continuous
 62
     7
370
    50
100
AcDbLine
 39
0.7
 10
276.5849439428321
 20
496.8749990441241
 30
0.0
 11
272.5849439428321
 21
496.8749990441241
 31
0.0
1001
AUSTER_FOLIE
1002
{
1000
ZENTRA_2144_BO_M_LB_DREH
1002
}
1001
AUSTER_ANSICHT
1002
{
1000
SL
1002
}
  0
LINE
  5
A8EB
330
20
100
AcDbEntity
  8
11000_Left
  6
Continuous
 62
     7
370
    50
100
AcDbLine
 39
0.7
 10
258.588943942832
 20
504.074999044124
 30
0.0
 11
258.584943942832
 21
514.0749990441238
 31
0.0
1001
AUSTER_FOLIE
1002
{
1000
ZENTRA_2144_BO_M_LB_DREH
1002
}
1001
AUSTER_ANSICHT
1002
{
1000
SL
1002
}
  0
LINE
  5
A8EC
330
20
100
AcDbEntity
  8
11000_Left
  6
Continuous
 62
     7
370
    50
100
AcDbLine
 39
0.7
 10
266.584943942832
 20
504.074999044124
 30
0.0
 11
258.588943942832
 21
504.074999044124
 31
0.0
1001
AUSTER_FOLIE
1002
{
1000
ZENTRA_2144_BO_M_LB_DREH
1002
}
1001
AUSTER_ANSICHT
1002
{
1000
SL
1002
}
  0
LINE
  5
A8ED
330
20
100
AcDbEntity
  8
11000_Left
  6
Continuous
 62
     7
370
     9
100
AcDbLine
 39
0.7
 10
282.5849439428321
 20
499.822999044124
 30
0.0
 11
284.5849439428321
 21
501.8229990441238
 31
0.0
1001
AUSTER_FOLIE
1002
{
1000
ZENTRA_2144_BO_M_LB_DREH
1002
}
1001
AUSTER_ANSICHT
1002
{
1000
SL
1002
}
  0
LINE
  5
A8EE
330
20
100
AcDbEntity
  8
11000_Left
  6
Continuous
 62
     7
370
     9
100
AcDbLine
 39
0.7
 10
282.5849439428321
 20
504.3129990441241
 30
0.0
 11
284.5849439428321
 21
506.312999044124
 31
0.0
1001
AUSTER_FOLIE
1002
{
1000
ZENTRA_2144_BO_M_LB_DREH
1002
}
1001
AUSTER_ANSICHT
1002
{
1000
SL
1002
}
  0
LINE
  5
A8EF
330
20
100
AcDbEntity
  8
11000_Left
  6
Continuous
 62
     7
370
    50
100
AcDbLine
 39
0.7
 10
278.5849439428321
 20
500.8749990441241
 30
0.0
 11
276.5849439428321
 21
500.8749990441241
 31
0.0
1001
AUSTER_FOLIE
1002
{
1000
ZENTRA_2144_BO_M_LB_DREH
1002
}
1001
AUSTER_ANSICHT
1002
{
1000
SL
1002
}
  0
LINE
  5
A8F0
330
20
100
AcDbEntity
  8
11000_Left
  6
Continuous
 62
     7
370
    50
100
AcDbLine
 39
0.7
 10
282.5849439428321
 20
503.8749990441238
 30
0.0
 11
278.5849439428321
 21
503.8749990441238
 31
0.0
1001
AUSTER_FOLIE
1002
{
1000
ZENTRA_2144_BO_M_LB_DREH
1002
}
1001
AUSTER_ANSICHT
1002
{
1000
SL
1002
}
  0
LINE
  5
A8F1
330
20
100
AcDbEntity
  8
11000_Left
  6
Continuous
 62
     7
370
     9
100
AcDbLine
 39
0.7
 10
282.5849439428321
 20
513.293999044124
 30
0.0
 11
284.5849439428321
 21
515.293999044124
 31
0.0
1001
AUSTER_FOLIE
1002
{
1000
ZENTRA_2144_BO_M_LB_DREH
1002
}
1001
AUSTER_ANSICHT
1002
{
1000
SL
1002
}
  0
LINE
  5
A8F2
330
20
100
AcDbEntity
  8
11000_Left
  6
Continuous
 62
     7
370
     9
100
AcDbLine
 39
0.7
 10
282.5849439428321
 20
517.7839990441241
 30
0.0
 11
284.5849439428321
 21
519.783999044124
 31
0.0
1001
AUSTER_FOLIE
1002
{
1000
ZENTRA_2144_BO_M_LB_DREH
1002
}
1001
AUSTER_ANSICHT
1002
{
1000
SL
1002
}
  0
LINE
  5
A8F3
330
20
100
AcDbEntity
  8
11000_Left
  6
Continuous
 62
     7
370
    50
100
AcDbLine
 39
0.7
 10
291.5893897215942
 20
515.7427198255653
 30
0.0
 11
291.584943942832
 21
517.0749990441238
 31
0.0
1001
AUSTER_FOLIE
1002
{
1000
ZENTRA_2144_BO_M_LB_DREH
1002
}
1001
AUSTER_ANSICHT
1002
{
1000
SL
1002
}
  0
ARC
  5
A8F4
330
20
100
AcDbEntity
  8
11000_Left
  6
Continuous
 62
     7
370
    50
100
AcDbCircle
 39
0.7
 10
293.584943942832
 20
515.875999044124
 30
0.0
 40
2.0
100
AcDbArc
 50
183.8209999999991
 51
269.9990000000003
1001
AUSTER_FOLIE
1002
{
1000
ZENTRA_2144_BO_M_LB_DREH
1002
}
1001
AUSTER_ANSICHT
1002
{
1000
SL
1002
}
  0
LINE
  5
A8F9
330
20
100
AcDbEntity
  8
11000_Left
  6
Continuous
 62
     7
370
    50
100
AcDbLine
 39
0.7
 10
291.584943942832
 20
517.0749990441238
 30
0.0
 11
284.5849439428321
 21
517.0749990441238
 31
0.0
1001
AUSTER_FOLIE
1002
{
1000
ZENTRA_2144_BO_M_LB_DREH
1002
}
1001
AUSTER_ANSICHT
1002
{
1000
SL
1002
}
  0
LINE
  5
A8FC
330
20
100
AcDbEntity
  8
11000_Left
  6
Continuous
 62
     7
370
     9
100
AcDbLine
 39
0.7
 10
282.5849439428321
 20
526.7639990441241
 30
0.0
 11
284.5849439428321
 21
528.7639990441241
 31
0.0
1001
AUSTER_FOLIE
1002
{
1000
ZENTRA_2144_BO_M_LB_DREH
1002
}
1001
AUSTER_ANSICHT
1002
{
1000
SL
1002
}
  0
LINE
  5
A8FD
330
20
100
AcDbEntity
  8
11000_Left
  6
Continuous
 62
     7
370
     9
100
AcDbLine
 39
0.7
 10
282.5849439428321
 20
531.2539990441242
 30
0.0
 11
284.5849439428321
 21
533.2539990441241
 31
0.0
1001
AUSTER_FOLIE
1002
{
1000
ZENTRA_2144_BO_M_LB_DREH
1002
}
1001
AUSTER_ANSICHT
1002
{
1000
SL
1002
}
  0
LINE
  5
A8FE
330
20
100
AcDbEntity
  8
11000_Left
  6
Continuous
 62
     7
370
     9
100
AcDbLine
 39
0.7
 10
282.5849439428321
 20
536.1419990441238
 30
0.0
 11
284.5849439428321
 21
536.2949990441241
 31
0.0
1001
AUSTER_FOLIE
1002
{
1000
ZENTRA_2144_BO_M_LB_DREH
1002
}
1001
AUSTER_ANSICHT
1002
{
1000
SL
1002
}
  0
POINT
  5
A8FF
330
20
100
AcDbEntity
  8
11000_Left
  6
Continuous
 62
     7
370
     9
100
AcDbPoint
 10
282.5849439428321
 20
536.1419990441238
 30
0.0
 39
0.25
1001
AUSTER_FOLIE
1002
{
1000
ZENTRA_2144_BO_M_LB_DREH
1002
}
1001
AUSTER_ANSICHT
1002
{
1000
SL
1002
}
  0
LINE
  5
A901
330
20
100
AcDbEntity
  8
11000_Left
  6
Continuous
 62
     7
370
    20
100
AcDbLine
 39
0.7
 10
311.136943942832
 20
501.3829990441242
 30
0.0
 11
306.3679439428321
 21
500.9849990441241
 31
0.0
1001
AUSTER_FOLIE
1002
{
1000
ZENTRA_2144_BO_M_LB_DREH
1002
}
1001
AUSTER_ANSICHT
1002
{
1000
SL
1002
}
  0
LINE
  5
A902
330
20
100
AcDbEntity
  8
11000_Left
  6
Continuous
 62
     7
370
    50
100
AcDbLine
 39
0.7
 10
311.136943942832
 20
514.3439990441241
 30
0.0
 11
301.5849439428321
 21
514.5849990441242
 31
0.0
1001
AUSTER_FOLIE
1002
{
1000
ZENTRA_2144_BO_M_LB_DREH
1002
}
1001
AUSTER_ANSICHT
1002
{
1000
SL
1002
}
  0
LINE
  5
A903
330
20
100
AcDbEntity
  8
11000_Left
  6
Continuous
 62
     7
370
    20
100
AcDbLine
 39
0.7
 10
306.3679439428321
 20
510.0249990441238
 30
0.0
 11
311.136943942832
 21
509.4579990441241
 31
0.0
1001
AUSTER_FOLIE
1002
{
1000
ZENTRA_2144_BO_M_LB_DREH
1002
}
1001
AUSTER_ANSICHT
1002
{
1000
SL
1002
}
  0
LINE
  5
A904
330
20
100
AcDbEntity
  8
11000_Left
  6
Continuous
 62
     7
370
    50
100
AcDbLine
 39
0.7
 10
301.5849439428321
 20
514.5849990441242
 30
0.0
 11
301.5849439428321
 21
513.8749990441241
 31
0.0
1001
AUSTER_FOLIE
1002
{
1000
ZENTRA_2144_BO_M_LB_DREH
1002
}
1001
AUSTER_ANSICHT
1002
{
1000
SL
1002
}
  0
LINE
  5
A905
330
20
100
AcDbEntity
  8
11000_Left
  6
Continuous
 62
     7
370
    20
100
AcDbLine
 39
0.7
 10
306.3679439428321
 20
500.9849990441241
 30
0.0
 11
301.5849439428321
 21
500.6319990441238
 31
0.0
1001
AUSTER_FOLIE
1002
{
1000
ZENTRA_2144_BO_M_LB_DREH
1002
}
1001
AUSTER_ANSICHT
1002
{
1000
SL
1002
}
  0
LINE
  5
A906
330
20
100
AcDbEntity
  8
11000_Left
  6
Continuous
 62
     7
370
    20
100
AcDbLine
 39
0.7
 10
301.5849439428321
 20
510.5489990441241
 30
0.0
 11
306.3679439428321
 21
510.0249990441238
 31
0.0
1001
AUSTER_FOLIE
1002
{
1000
ZENTRA_2144_BO_M_LB_DREH
1002
}
1001
AUSTER_ANSICHT
1002
{
1000
SL
1002
}
  0
LINE
  5
A907
330
20
100
AcDbEntity
  8
11000_Left
  6
Continuous
 62
     7
370
    20
100
AcDbLine
 39
0.7
 10
301.5849439428321
 20
505.0889990441238
 30
0.0
 11
301.5849439428321
 21
500.6319990441238
 31
0.0
1001
AUSTER_FOLIE
1002
{
1000
ZENTRA_2144_BO_M_LB_DREH
1002
}
1001
AUSTER_ANSICHT
1002
{
1000
SL
1002
}
  0
LINE
  5
A90A
330
20
100
AcDbEntity
  8
11000_Left
  6
Continuous
 62
     7
370
    20
100
AcDbLine
 39
0.7
 10
301.5849439428321
 20
513.8749990441241
 30
0.0
 11
301.5849439428321
 21
505.0889990441238
 31
0.0
1001
AUSTER_FOLIE
1002
{
1000
ZENTRA_2144_BO_M_LB_DREH
1002
}
1001
AUSTER_ANSICHT
1002
{
1000
SL
1002
}
  0
LINE
  5
A90B
330
20
100
AcDbEntity
  8
11000_Left
  6
Continuous
 62
     7
370
    20
100
AcDbLine
 39
0.7
 10
301.5849439428321
 20
514.5849990441242
 30
0.0
 11
301.586943942832
 21
514.5849990441242
 31
0.0
1001
AUSTER_FOLIE
1002
{
1000
ZENTRA_2144_BO_M_LB_DREH
1002
}
1001
AUSTER_ANSICHT
1002
{
1000
SL
1002
}
  0
LINE
  5
A90C
330
20
100
AcDbEntity
  8
11000_Left
  6
Continuous
 62
     7
370
    50
100
AcDbLine
 39
0.7
 10
301.5849439428321
 20
513.8749990441241
 30
0.0
 11
293.584943942832
 21
513.8749990441241
 31
0.0
1001
AUSTER_FOLIE
1002
{
1000
ZENTRA_2144_BO_M_LB_DREH
1002
}
1001
AUSTER_ANSICHT
1002
{
1000
SL
1002
}
  0
LINE
  5
A90D
330
20
100
AcDbEntity
  8
11000_Left
  6
Continuous
 62
     7
370
    50
100
AcDbLine
 39
0.7
 10
312.0849439428321
 20
505.1989990441239
 30
0.0
 11
312.0849439428321
 21
513.875999044124
 31
0.0
1001
AUSTER_FOLIE
1002
{
1000
ZENTRA_2144_BO_M_LB_DREH
1002
}
1001
AUSTER_ANSICHT
1002
{
1000
SL
1002
}
  0
LINE
  5
A90E
330
20
100
AcDbEntity
  8
11000_Left
  6
Continuous
 62
     7
370
    20
100
AcDbLine
 39
0.7
 10
312.067943942832
 20
503.4319990441241
 30
0.0
 11
311.996943942832
 21
502.6429990441242
 31
0.0
1001
AUSTER_FOLIE
1002
{
1000
ZENTRA_2144_BO_M_LB_DREH
1002
}
1001
AUSTER_ANSICHT
1002
{
1000
SL
1002
}
  0
LINE
  5
A90F
330
20
100
AcDbEntity
  8
11000_Left
  6
Continuous
 62
     7
370
    20
100
AcDbLine
 39
0.7
 10
311.996943942832
 20
502.6429990441242
 30
0.0
 11
311.918943942832
 21
502.2739990441241
 31
0.0
1001
AUSTER_FOLIE
1002
{
1000
ZENTRA_2144_BO_M_LB_DREH
1002
}
1001
AUSTER_ANSICHT
1002
{
1000
SL
1002
}
  0
LINE
  5
A910
330
20
100
AcDbEntity
  8
11000_Left
  6
Continuous
 62
     7
370
    20
100
AcDbLine
 39
0.7
 10
311.918943942832
 20
502.2739990441241
 30
0.0
 11
311.791943942832
 21
501.9299990441238
 31
0.0
1001
AUSTER_FOLIE
1002
{
1000
ZENTRA_2144_BO_M_LB_DREH
1002
}
1001
AUSTER_ANSICHT
1002
{
1000
SL
1002
}
  0
LINE
  5
A911
330
20
100
AcDbEntity
  8
11000_Left
  6
Continuous
 62
     7
370
    20
100
AcDbLine
 39
0.7
 10
311.791943942832
 20
501.9299990441238
 30
0.0
 11
311.7149439428321
 21
501.788999044124
 31
0.0
1001
AUSTER_FOLIE
1002
{
1000
ZENTRA_2144_BO_M_LB_DREH
1002
}
1001
AUSTER_ANSICHT
1002
{
1000
SL
1002
}
  0
LINE
  5
A912
330
20
100
AcDbEntity
  8
11000_Left
  6
Continuous
 62
     7
370
    20
100
AcDbLine
 39
0.7
 10
311.7149439428321
 20
501.788999044124
 30
0.0
 11
311.6179439428321
 21
501.6539990441241
 31
0.0
1001
AUSTER_FOLIE
1002
{
1000
ZENTRA_2144_BO_M_LB_DREH
1002
}
1001
AUSTER_ANSICHT
1002
{
1000
SL
1002
}
  0
LINE
  5
A913
330
20
100
AcDbEntity
  8
11000_Left
  6
Continuous
 62
     7
370
    20
100
AcDbLine
 39
0.7
 10
311.6179439428321
 20
501.6539990441241
 30
0.0
 11
311.505943942832
 21
501.542999044124
 31
0.0
1001
AUSTER_FOLIE
1002
{
1000
ZENTRA_2144_BO_M_LB_DREH
1002
}
1001
AUSTER_ANSICHT
1002
{
1000
SL
1002
}
  0
LINE
  5
A914
330
20
100
AcDbEntity
  8
11000_Left
  6
Continuous
 62
     7
370
    20
100
AcDbLine
 39
0.7
 10
311.505943942832
 20
501.542999044124
 30
0.0
 11
311.361943942832
 21
501.4479990441241
 31
0.0
1001
AUSTER_FOLIE
1002
{
1000
ZENTRA_2144_BO_M_LB_DREH
1002
}
1001
AUSTER_ANSICHT
1002
{
1000
SL
1002
}
  0
LINE
  5
A915
330
20
100
AcDbEntity
  8
11000_Left
  6
Continuous
 62
     7
370
    20
100
AcDbLine
 39
0.7
 10
311.361943942832
 20
501.4479990441241
 30
0.0
 11
311.2819439428319
 21
501.413999044124
 31
0.0
1001
AUSTER_FOLIE
1002
{
1000
ZENTRA_2144_BO_M_LB_DREH
1002
}
1001
AUSTER_ANSICHT
1002
{
1000
SL
1002
}
  0
LINE
  5
A916
330
20
100
AcDbEntity
  8
11000_Left
  6
Continuous
 62
     7
370
    20
100
AcDbLine
 39
0.7
 10
311.2819439428319
 20
501.413999044124
 30
0.0
 11
311.183943942832
 21
501.3889990441241
 31
0.0
1001
AUSTER_FOLIE
1002
{
1000
ZENTRA_2144_BO_M_LB_DREH
1002
}
1001
AUSTER_ANSICHT
1002
{
1000
SL
1002
}
  0
LINE
  5
A917
330
20
100
AcDbEntity
  8
11000_Left
  6
Continuous
 62
     7
370
    20
100
AcDbLine
 39
0.7
 10
311.183943942832
 20
501.3889990441241
 30
0.0
 11
311.136943942832
 21
501.3829990441242
 31
0.0
1001
AUSTER_FOLIE
1002
{
1000
ZENTRA_2144_BO_M_LB_DREH
1002
}
1001
AUSTER_ANSICHT
1002
{
1000
SL
1002
}
  0
LINE
  5
A918
330
20
100
AcDbEntity
  8
11000_Left
  6
Continuous
 62
     7
370
    50
100
AcDbLine
 39
0.7
 10
312.0849439428321
 20
504.9789990441241
 30
0.0
 11
312.0849439428321
 21
505.1989990441239
 31
0.0
1001
AUSTER_FOLIE
1002
{
1000
ZENTRA_2144_BO_M_LB_DREH
1002
}
1001
AUSTER_ANSICHT
1002
{
1000
SL
1002
}
  0
LINE
  5
A919
330
20
100
AcDbEntity
  8
11000_Left
  6
Continuous
 62
     7
370
    20
100
AcDbLine
 39
0.7
 10
311.6179439428321
 20
509.083999044124
 30
0.0
 11
311.7149439428321
 21
508.9019990441242
 31
0.0
1001
AUSTER_FOLIE
1002
{
1000
ZENTRA_2144_BO_M_LB_DREH
1002
}
1001
AUSTER_ANSICHT
1002
{
1000
SL
1002
}
  0
LINE
  5
A91A
330
20
100
AcDbEntity
  8
11000_Left
  6
Continuous
 62
     7
370
    20
100
AcDbLine
 39
0.7
 10
311.7149439428321
 20
508.9019990441242
 30
0.0
 11
311.791943942832
 21
508.7149990441238
 31
0.0
1001
AUSTER_FOLIE
1002
{
1000
ZENTRA_2144_BO_M_LB_DREH
1002
}
1001
AUSTER_ANSICHT
1002
{
1000
SL
1002
}
  0
LINE
  5
A91B
330
20
100
AcDbEntity
  8
11000_Left
  6
Continuous
 62
     7
370
    20
100
AcDbLine
 39
0.7
 10
311.791943942832
 20
508.7149990441238
 30
0.0
 11
311.918943942832
 21
508.2669990441238
 31
0.0
1001
AUSTER_FOLIE
1002
{
1000
ZENTRA_2144_BO_M_LB_DREH
1002
}
1001
AUSTER_ANSICHT
1002
{
1000
SL
1002
}
  0
LINE
  5
A91C
330
20
100
AcDbEntity
  8
11000_Left
  6
Continuous
 62
     7
370
    20
100
AcDbLine
 39
0.7
 10
311.918943942832
 20
508.2669990441238
 30
0.0
 11
311.996943942832
 21
507.804999044124
 31
0.0
1001
AUSTER_FOLIE
1002
{
1000
ZENTRA_2144_BO_M_LB_DREH
1002
}
1001
AUSTER_ANSICHT
1002
{
1000
SL
1002
}
  0
LINE
  5
A91D
330
20
100
AcDbEntity
  8
11000_Left
  6
Continuous
 62
     7
370
    20
100
AcDbLine
 39
0.7
 10
311.996943942832
 20
507.804999044124
 30
0.0
 11
312.067943942832
 21
506.8639990441242
 31
0.0
1001
AUSTER_FOLIE
1002
{
1000
ZENTRA_2144_BO_M_LB_DREH
1002
}
1001
AUSTER_ANSICHT
1002
{
1000
SL
1002
}
  0
LINE
  5
A920
330
20
100
AcDbEntity
  8
11000_Left
  6
Continuous
 62
     7
370
    50
100
AcDbLine
 39
0.7
 10
312.0849439428321
 20
504.9789990441241
 30
0.0
 11
312.083943942832
 21
504.2619990441238
 31
0.0
1001
AUSTER_FOLIE
1002
{
1000
ZENTRA_2144_BO_M_LB_DREH
1002
}
1001
AUSTER_ANSICHT
1002
{
1000
SL
1002
}
  0
LINE
  5
A921
330
20
100
AcDbEntity
  8
11000_Left
  6
Continuous
 62
     7
370
    50
100
AcDbLine
 39
0.7
 10
312.083943942832
 20
504.2619990441238
 30
0.0
 11
312.067943942832
 21
503.4319990441241
 31
0.0
1001
AUSTER_FOLIE
1002
{
1000
ZENTRA_2144_BO_M_LB_DREH
1002
}
1001
AUSTER_ANSICHT
1002
{
1000
SL
1002
}
  0
LINE
  5
A922
330
20
100
AcDbEntity
  8
11000_Left
  6
Continuous
 62
     7
370
    20
100
AcDbLine
 39
0.7
 10
311.2819439428319
 20
509.413999044124
 30
0.0
 11
311.361943942832
 21
509.366999044124
 31
0.0
1001
AUSTER_FOLIE
1002
{
1000
ZENTRA_2144_BO_M_LB_DREH
1002
}
1001
AUSTER_ANSICHT
1002
{
1000
SL
1002
}
  0
LINE
  5
A923
330
20
100
AcDbEntity
  8
11000_Left
  6
Continuous
 62
     7
370
    20
100
AcDbLine
 39
0.7
 10
311.361943942832
 20
509.366999044124
 30
0.0
 11
311.505943942832
 21
509.235999044124
 31
0.0
1001
AUSTER_FOLIE
1002
{
1000
ZENTRA_2144_BO_M_LB_DREH
1002
}
1001
AUSTER_ANSICHT
1002
{
1000
SL
1002
}
  0
LINE
  5
A924
330
20
100
AcDbEntity
  8
11000_Left
  6
Continuous
 62
     7
370
    20
100
AcDbLine
 39
0.7
 10
311.505943942832
 20
509.235999044124
 30
0.0
 11
311.6179439428321
 21
509.083999044124
 31
0.0
1001
AUSTER_FOLIE
1002
{
1000
ZENTRA_2144_BO_M_LB_DREH
1002
}
1001
AUSTER_ANSICHT
1002
{
1000
SL
1002
}
  0
LINE
  5
A925
330
20
100
AcDbEntity
  8
11000_Left
  6
Continuous
 62
     7
370
    20
100
AcDbLine
 39
0.7
 10
311.136943942832
 20
509.4579990441241
 30
0.0
 11
311.183943942832
 21
509.4489990441238
 31
0.0
1001
AUSTER_FOLIE
1002
{
1000
ZENTRA_2144_BO_M_LB_DREH
1002
}
1001
AUSTER_ANSICHT
1002
{
1000
SL
1002
}
  0
LINE
  5
A926
330
20
100
AcDbEntity
  8
11000_Left
  6
Continuous
 62
     7
370
    20
100
AcDbLine
 39
0.7
 10
311.183943942832
 20
509.4489990441238
 30
0.0
 11
311.2819439428319
 21
509.413999044124
 31
0.0
1001
AUSTER_FOLIE
1002
{
1000
ZENTRA_2144_BO_M_LB_DREH
1002
}
1001
AUSTER_ANSICHT
1002
{
1000
SL
1002
}
  0
LINE
  5
A927
330
20
100
AcDbEntity
  8
11000_Left
  6
Continuous
 62
     7
370
    50
100
AcDbLine
 39
0.7
 10
312.0849439428321
 20
513.875999044124
 30
0.0
 11
312.083943942832
 21
513.8959990441239
 31
0.0
1001
AUSTER_FOLIE
1002
{
1000
ZENTRA_2144_BO_M_LB_DREH
1002
}
1001
AUSTER_ANSICHT
1002
{
1000
SL
1002
}
  0
LINE
  5
A928
330
20
100
AcDbEntity
  8
11000_Left
  6
Continuous
 62
     7
370
    50
100
AcDbLine
 39
0.7
 10
312.083943942832
 20
513.8959990441239
 30
0.0
 11
312.067943942832
 21
513.9599990441241
 31
0.0
1001
AUSTER_FOLIE
1002
{
1000
ZENTRA_2144_BO_M_LB_DREH
1002
}
1001
AUSTER_ANSICHT
1002
{
1000
SL
1002
}
  0
LINE
  5
A929
330
20
100
AcDbEntity
  8
11000_Left
  6
Continuous
 62
     7
370
    50
100
AcDbLine
 39
0.7
 10
312.067943942832
 20
513.9599990441241
 30
0.0
 11
311.996943942832
 21
514.0659990441242
 31
0.0
1001
AUSTER_FOLIE
1002
{
1000
ZENTRA_2144_BO_M_LB_DREH
1002
}
1001
AUSTER_ANSICHT
1002
{
1000
SL
1002
}
  0
LINE
  5
A92A
330
20
100
AcDbEntity
  8
11000_Left
  6
Continuous
 62
     7
370
    50
100
AcDbLine
 39
0.7
 10
311.996943942832
 20
514.0659990441242
 30
0.0
 11
311.918943942832
 21
514.1329990441241
 31
0.0
1001
AUSTER_FOLIE
1002
{
1000
ZENTRA_2144_BO_M_LB_DREH
1002
}
1001
AUSTER_ANSICHT
1002
{
1000
SL
1002
}
  0
LINE
  5
A92B
330
20
100
AcDbEntity
  8
11000_Left
  6
Continuous
 62
     7
370
    50
100
AcDbLine
 39
0.7
 10
311.918943942832
 20
514.1329990441241
 30
0.0
 11
311.791943942832
 21
514.2059990441241
 31
0.0
1001
AUSTER_FOLIE
1002
{
1000
ZENTRA_2144_BO_M_LB_DREH
1002
}
1001
AUSTER_ANSICHT
1002
{
1000
SL
1002
}
  0
LINE
  5
A92C
330
20
100
AcDbEntity
  8
11000_Left
  6
Continuous
 62
     7
370
    50
100
AcDbLine
 39
0.7
 10
311.791943942832
 20
514.2059990441241
 30
0.0
 11
311.7149439428321
 21
514.2389990441241
 31
0.0
1001
AUSTER_FOLIE
1002
{
1000
ZENTRA_2144_BO_M_LB_DREH
1002
}
1001
AUSTER_ANSICHT
1002
{
1000
SL
1002
}
  0
LINE
  5
A92D
330
20
100
AcDbEntity
  8
11000_Left
  6
Continuous
 62
     7
370
    50
100
AcDbLine
 39
0.7
 10
311.7149439428321
 20
514.2389990441241
 30
0.0
 11
311.6179439428321
 21
514.2719990441238
 31
0.0
1001
AUSTER_FOLIE
1002
{
1000
ZENTRA_2144_BO_M_LB_DREH
1002
}
1001
AUSTER_ANSICHT
1002
{
1000
SL
1002
}
  0
LINE
  5
A92E
330
20
100
AcDbEntity
  8
11000_Left
  6
Continuous
 62
     7
370
    50
100
AcDbLine
 39
0.7
 10
311.6179439428321
 20
514.2719990441238
 30
0.0
 11
311.505943942832
 21
514.3009990441238
 31
0.0
1001
AUSTER_FOLIE
1002
{
1000
ZENTRA_2144_BO_M_LB_DREH
1002
}
1001
AUSTER_ANSICHT
1002
{
1000
SL
1002
}
  0
LINE
  5
A92F
330
20
100
AcDbEntity
  8
11000_Left
  6
Continuous
 62
     7
370
    50
100
AcDbLine
 39
0.7
 10
311.505943942832
 20
514.3009990441238
 30
0.0
 11
311.361943942832
 21
514.3259990441241
 31
0.0
1001
AUSTER_FOLIE
1002
{
1000
ZENTRA_2144_BO_M_LB_DREH
1002
}
1001
AUSTER_ANSICHT
1002
{
1000
SL
1002
}
  0
LINE
  5
A930
330
20
100
AcDbEntity
  8
11000_Left
  6
Continuous
 62
     7
370
    50
100
AcDbLine
 39
0.7
 10
311.361943942832
 20
514.3259990441241
 30
0.0
 11
311.2819439428319
 21
514.335999044124
 31
0.0
1001
AUSTER_FOLIE
1002
{
1000
ZENTRA_2144_BO_M_LB_DREH
1002
}
1001
AUSTER_ANSICHT
1002
{
1000
SL
1002
}
  0
LINE
  5
A931
330
20
100
AcDbEntity
  8
11000_Left
  6
Continuous
 62
     7
370
    50
100
AcDbLine
 39
0.7
 10
311.2819439428319
 20
514.335999044124
 30
0.0
 11
311.183943942832
 21
514.342999044124
 31
0.0
1001
AUSTER_FOLIE
1002
{
1000
ZENTRA_2144_BO_M_LB_DREH
1002
}
1001
AUSTER_ANSICHT
1002
{
1000
SL
1002
}
  0
LINE
  5
A932
330
20
100
AcDbEntity
  8
11000_Left
  6
Continuous
 62
     7
370
    50
100
AcDbLine
 39
0.7
 10
311.183943942832
 20
514.342999044124
 30
0.0
 11
311.136943942832
 21
514.3439990441241
 31
0.0
1001
AUSTER_FOLIE
1002
{
1000
ZENTRA_2144_BO_M_LB_DREH
1002
}
1001
AUSTER_ANSICHT
1002
{
1000
SL
1002
}
  0
POINT
  5
A939
330
20
100
AcDbEntity
  8
11000_Left
  6
Continuous
 62
     7
370
     9
100
AcDbPoint
 10
282.5849439428321
 20
445.9419990441241
 30
0.0
 39
0.25
1001
AUSTER_FOLIE
1002
{
1000
ZENTRA_2144_BO_M_LB_DREH
1002
}
1001
AUSTER_ANSICHT
1002
{
1000
SL
1002
}
  0
POINT
  5
A940
330
20
100
AcDbEntity
  8
11000_Left
  6
Continuous
 62
     7
370
    20
100
AcDbPoint
 10
94.22794394283206
 20
511.7769990441241
 30
0.0
 39
0.7
1001
AUSTER_FOLIE
1002
{
1000
ZENTRA_2144_BO_M_LB_DREH
1002
}
1001
AUSTER_ANSICHT
1002
{
1000
SL
1002
}
  0
POINT
  5
A948
330
20
100
AcDbEntity
  8
11000_Left
  6
Continuous
 62
     7
370
    20
100
AcDbPoint
 10
90.59494394283198
 20
528.2799990441239
 30
0.0
 39
0.7
1001
AUSTER_FOLIE
1002
{
1000
ZENTRA_2144_BO_M_LB_DREH
1002
}
1001
AUSTER_ANSICHT
1002
{
1000
SL
1002
}
  0
POINT
  5
A958
330
20
100
AcDbEntity
  8
11000_Left
  6
Continuous
 62
     7
370
     9
100
AcDbPoint
 10
284.5849439428321
 20
528.7639990441241
 30
0.0
 39
0.7
1001
AUSTER_FOLIE
1002
{
1000
ZENTRA_2144_BO_M_LB_DREH
1002
}
1001
AUSTER_ANSICHT
1002
{
1000
SL
1002
}
  0
LINE
  5
A960
330
20
100
AcDbEntity
  8
30000_Drilling
  6
CENTER
 62
     7
370
     9
100
AcDbLine
 39
0.8
 10
168.9812591706584
 20
358.6851092577546
 30
0.0
 11
58.96543285810842
 21
358.6851092577546
 31
0.0
1001
AUSTER_FOLIE
1002
{
1000
ZENTRA_2144_BO_M_LB_DREH
1002
}
1001
AUSTER_ANSICHT
1002
{
1000
V
1002
}
  0
DIMENSION
  5
A961
330
20
100
AcDbEntity
  8
30100_Drilling_DIM
  6
Continuous
 62
     7
370
    13
100
AcDbDimension
  2
*D1
 10
157.1453819170175
 20
394.8990011541008
 30
0.0
 11
146.1453819170175
 21
394.8990011541008
 31
0.0
 70
    32
 71
     5
 42
22.0
  3
DSTYLE1
100
AcDbAlignedDimension
 13
135.1453819170175
 23
390.9081092577543
 33
0.0
 14
157.1453819170175
 24
330.9081092577546
 34
0.0
100
AcDbRotatedDimension
1001
ACAD
1000
DSTYLE
1002
{
1070
    41
1040
3.5
1070
    42
1040
1.0
1070
    43
1040
1.0
1070
    47
1040
0.005
1070
    48
1040
-0.005
1070
    77
1070
     0
1070
    78
1070
     0
1070
   140
1040
3.5
1070
   143
1040
25.4
1070
   171
1070
     0
1070
   172
1070
     1
1070
   271
1070
     0
1070
   272
1070
     1
1070
   277
1070
     6
1070
   279
1070
     0
1002
}
  0
DIMENSION
  5
A96E
330
20
100
AcDbEntity
  8
30100_Drilling_DIM
  6
Continuous
 62
     7
370
    13
100
AcDbDimension
  2
*D2
 10
126.5888274939149
 20
328.6581092577547
 30
0.0
 11
126.5888274939149
 21
358.6581092577544
 31
0.0
 70
   160
 71
     5
 42
59.99999999999977
  3
DSTYLE1
100
AcDbAlignedDimension
 13
132.8953819170175
 23
388.6581092577543
 33
0.0
 14
154.8953819170175
 24
328.6581092577546
 34
0.0
 50
90.0
100
AcDbRotatedDimension
1001
ACAD
1000
DSTYLE
1002
{
1070
    41
1040
3.5
1070
    42
1040
1.0
1070
    43
1040
1.0
1070
    47
1040
0.005
1070
    48
1040
-0.005
1070
    77
1070
     0
1070
    78
1070
     0
1070
   140
1040
3.5
1070
   143
1040
25.4
1070
   171
1070
     0
1070
   172
1070
     1
1070
   271
1070
     0
1070
   272
1070
     1
1070
   277
1070
     6
1070
   279
1070
     0
1002
}
  0
DIMENSION
  5
A99F
330
20
100
AcDbEntity
  8
30100_Drilling_DIM
  6
Continuous
 62
     7
370
    13
100
AcDbDimension
  2
*D3
 10
154.9694879357686
 20
328.0854091771141
 30
0.0
 11
169.8783911406209
 21
332.0094652852062
 31
0.0
 70
    35
 71
     5
 42
4.499999999999971
  3
DSTYLE1
100
AcDbDiametricDimension
 15
159.3212758982661
 25
329.2308093383951
 35
0.0
 40
0.0
1001
ACAD
1000
DSTYLE
1002
{
1070
    41
1040
3.5
1070
    42
1040
1.0
1070
    43
1040
1.0
1070
    47
1040
0.005
1070
    48
1040
-0.005
1070
    77
1070
     0
1070
    78
1070
     0
1070
   140
1040
3.5
1070
   143
1040
25.4
1070
   171
1070
     0
1070
   172
1070
     1
1070
   271
1070
     0
1070
   272
1070
     1
1070
   277
1070
     6
1070
   279
1070
     0
1002
}
  0
DIMENSION
  5
A9B3
330
20
100
AcDbEntity
  8
30100_Drilling_DIM
  6
Continuous
 62
     7
370
    13
100
AcDbDimension
  2
*D4
 10
98.29693817878981
 20
371.5211092577546
 30
0.0
 11
98.29693817878977
 21
359.4851092577546
 31
0.0
 70
    32
 71
     5
 42
24.072
  3
DSTYLE1
100
AcDbAlignedDimension
 13
75.77838191701754
 23
347.4491092577546
 33
0.0
 14
77.37438191701745
 24
371.5211092577546
 34
0.0
 50
90.0
100
AcDbRotatedDimension
1001
ACAD
1000
DSTYLE
1002
{
1070
    41
1040
3.5
1070
    42
1040
1.0
1070
    43
1040
1.0
1070
    47
1040
0.005
1070
    48
1040
-0.005
1070
    77
1070
     0
1070
    78
1070
     0
1070
   140
1040
3.5
1070
   143
1040
25.4
1070
   171
1070
     0
1070
   172
1070
     1
1070
   271
1070
     1
1070
   272
1070
     1
1070
   277
1070
     6
1070
   279
1070
     0
1002
}
  0
DIMENSION
  5
A9DB
330
20
100
AcDbEntity
  8
30100_Drilling_DIM
  6
Continuous
 62
     7
370
    13
100
AcDbDimension
  2
*D5
 10
87.01438191701756
 20
337.1178790282812
 30
0.0
 11
75.77838191701754
 21
337.1178790282812
 31
0.0
 70
    32
 71
     5
 42
22.47200000000001
  3
DSTYLE1
100
AcDbAlignedDimension
 13
64.54238191701755
 23
358.6851092577546
 33
0.0
 14
87.01438191701756
 24
358.6851092577546
 34
0.0
100
AcDbRotatedDimension
1001
ACAD
1000
DSTYLE
1002
{
1070
    41
1040
3.5
1070
    42
1040
1.0
1070
    43
1040
1.0
1070
    47
1040
0.005
1070
    48
1040
-0.005
1070
    77
1070
     0
1070
    78
1070
     0
1070
   140
1040
3.5
1070
   143
1040
25.4
1070
   171
1070
     0
1070
   172
1070
     1
1070
   271
1070
     1
1070
   272
1070
     1
1070
   277
1070
     6
1070
   279
1070
     0
1002
}
  0
DIMENSION
  5
A9FA
330
20
100
AcDbEntity
  8
30100_Drilling_DIM
  6
Continuous
 62
     7
370
    13
100
AcDbDimension
  2
*D6
 10
77.37436453809734
 20
379.4806566016404
 30
0.0
 11
89.166031204764
 21
379.4806566016404
 31
0.0
 70
    32
 71
     5
 42
3.19098262107981
  3
DSTYLE1
100
AcDbAlignedDimension
 13
74.18338191701753
 23
371.5211092577546
 33
0.0
 14
77.37436453809734
 24
371.5285561250151
 34
0.0
100
AcDbRotatedDimension
1001
ACAD
1000
DSTYLE
1002
{
1070
    41
1040
3.5
1070
    42
1040
1.0
1070
    43
1040
1.0
1070
    47
1040
0.005
1070
    48
1040
-0.005
1070
    77
1070
     0
1070
    78
1070
     0
1070
   140
1040
3.5
1070
   143
1040
25.4
1070
   171
1070
     0
1070
   172
1070
     1
1070
   271
1070
     1
1070
   272
1070
     1
1070
   277
1070
     6
1070
   279
1070
     0
1002
}
  0
DIMENSION
  5
AA6D
330
20
100
AcDbEntity
  8
11100_LEFT_DIM
  6
Continuous
 62
     7
370
    13
100
AcDbDimension
  2
*D7
 10
282.5849439428321
 20
426.1624852837203
 30
0.0
 11
183.0849439428321
 21
426.1624852837203
 31
0.0
 70
    32
  1
max. 403
 71
     5
 42
199.0000000000001
  3
H035
100
AcDbAlignedDimension
 13
83.58494394283201
 23
465.769999044124
 33
0.0
 14
282.5849439428321
 24
431.6089990441238
 34
0.0
100
AcDbRotatedDimension
1001
ACAD
1000
DSTYLE
1002
{
1070
    40
1040
1.0
1070
    77
1070
     0
1070
   147
1040
1.5
1070
   272
1070
     0
1070
   279
1070
     1
1070
   288
1070
     1
1002
}
  0
DIMENSION
  5
AA9E
330
20
100
AcDbEntity
  8
11100_LEFT_DIM
  6
Continuous
 62
     7
370
    13
100
AcDbDimension
  2
*D8
 10
320.784943942832
 20
541.8448696318205
 30
0.0
 11
302.6849439428321
 21
541.8448696318205
 31
0.0
 70
    32
 71
     5
 42
36.19999999999989
  3
H035
100
AcDbAlignedDimension
 13
284.5849439428321
 23
536.2949990441241
 33
0.0
 14
320.784943942832
 24
490.8749990441238
 34
0.0
100
AcDbRotatedDimension
1001
ACAD
1000
DSTYLE
1002
{
1070
    40
1040
1.0
1070
    77
1070
     0
1070
   147
1040
1.5
1070
   272
1070
     0
1070
   279
1070
     1
1070
   288
1070
     1
1002
}
  0
DIMENSION
  5
AAB4
330
20
100
AcDbEntity
  8
11100_LEFT_DIM
  6
Continuous
 62
     7
370
    13
100
AcDbDimension
  2
*D9
 10
282.5849439428321
 20
541.6691833233109
 30
0.0
 11
232.0849439428321
 21
541.6691833233109
 31
0.0
 70
    32
 71
     5
 42
101.0000000000001
  3
H035
100
AcDbAlignedDimension
 13
181.5849439428319
 23
492.0749990441238
 33
0.0
 14
282.5849439428321
 24
536.1419990441238
 34
0.0
100
AcDbRotatedDimension
1001
ACAD
1000
DSTYLE
1002
{
1070
    40
1040
1.0
1070
    77
1070
     0
1070
   147
1040
1.5
1070
   272
1070
     0
1070
   279
1070
     1
1070
   288
1070
     1
1002
}
  0
DIMENSION
  5
AAF7
330
20
100
AcDbEntity
  8
11100_LEFT_DIM
  6
Continuous
 62
     7
370
    13
100
AcDbDimension
  2
*D10
 10
141.584943942832
 20
536.6863004857854
 30
0.0
 11
112.584943942832
 21
536.6863004857854
 31
0.0
 70
    32
 71
     5
 42
57.99999999999997
  3
H035
100
AcDbAlignedDimension
 13
83.58494394283201
 23
501.769999044124
 33
0.0
 14
141.584943942832
 24
500.069999044124
 34
0.0
100
AcDbRotatedDimension
1001
ACAD
1000
DSTYLE
1002
{
1070
    40
1040
1.0
1070
    77
1070
     0
1070
   147
1040
1.5
1070
   272
1070
     0
1070
   279
1070
     1
1070
   288
1070
     1
1002
}
  0
DIMENSION
  5
AB04
330
20
100
AcDbEntity
  8
11100_LEFT_DIM
  6
Continuous
 62
     7
370
    13
100
AcDbDimension
  2
*D11
 10
78.58494394283201
 20
536.6863004857854
 30
0.0
 11
81.08494394283201
 21
536.6863004857854
 31
0.0
 70
   160
 71
     5
 42
5.0
  3
H035
100
AcDbAlignedDimension
 13
83.58494394283201
 23
501.769999044124
 33
0.0
 14
78.58494394283201
 24
518.2699990441241
 34
0.0
100
AcDbRotatedDimension
1001
ACAD
1000
DSTYLE
1002
{
1070
   281
1070
     1
1070
    40
1040
1.0
1070
    77
1070
     0
1070
   147
1040
1.5
1070
   272
1070
     0
1070
   279
1070
     1
1070
   288
1070
     1
1002
}
  0
DIMENSION
  5
AB1C
330
20
100
AcDbEntity
  8
11100_LEFT_DIM
  6
Continuous
 62
     7
370
    13
100
AcDbDimension
  2
*D12
 10
68.9682535563038
 20
484.2699990441241
 30
0.0
 11
68.96825355630371
 21
506.274999044124
 31
0.0
 70
    32
 71
     5
 42
44.00999999999988
  3
H035
100
AcDbAlignedDimension
 13
90.59494394283198
 23
528.2799990441239
 33
0.0
 14
66.46388997901635
 24
484.2699990441241
 34
0.0
 50
90.0
100
AcDbRotatedDimension
1001
ACAD
1000
DSTYLE
1002
{
1070
    40
1040
1.0
1070
    77
1070
     0
1070
   147
1040
1.5
1070
   272
1070
     0
1070
   279
1070
     1
1070
   288
1070
     1
1002
}
  0
DIMENSION
  5
AB29
330
20
100
AcDbEntity
  8
11100_LEFT_DIM
  6
Continuous
 62
     7
370
    13
100
AcDbDimension
  2
*D13
 10
60.75836099544107
 20
456.769999044124
 30
0.0
 11
60.75836099544098
 21
484.2734990441242
 31
0.0
 70
    32
 71
     5
 42
55.00700000000017
  3
H035
100
AcDbAlignedDimension
 13
94.22794394283206
 23
511.7769990441241
 33
0.0
 14
94.58494394283199
 24
456.769999044124
 34
0.0
 50
90.0
100
AcDbRotatedDimension
1001
ACAD
1000
DSTYLE
1002
{
1070
    40
1040
1.0
1070
    77
1070
     0
1070
   147
1040
1.5
1070
   272
1070
     0
1070
   279
1070
     1
1070
   288
1070
     1
1002
}
  0
DIMENSION
  5
ABA6
330
20
100
AcDbEntity
  8
10100_FRONT_DIM
  6
Continuous
 62
     7
370
    13
100
AcDbDimension
  2
*D14
 10
-43.66922010713517
 20
439.2809814769214
 30
0.0
 11
-10.66922010713517
 21
439.2809814769214
 31
0.0
 70
    32
 71
     5
 42
66.0
  3
H035
100
AcDbAlignedDimension
 13
22.33077989286483
 23
454.2699990441241
 33
0.0
 14
-43.66922010713517
 24
454.2699990441241
 34
0.0
100
AcDbRotatedDimension
1001
ACAD
1000
DSTYLE
1002
{
1070
    40
1040
1.0
1070
    77
1070
     0
1070
   147
1040
1.5
1070
   272
1070
     0
1070
   279
1070
     1
1070
   288
1070
     1
1002
}
  0
DIMENSION
  5
ABB3
330
20
100
AcDbEntity
  8
10100_FRONT_DIM
  6
Continuous
 62
     7
370
    13
100
AcDbDimension
  2
*D15
 10
-55.16946200328925
 20
517.2699990441241
 30
0.0
 11
-55.16946200328934
 21
484.2699990441241
 31
0.0
 70
    32
 71
     5
 42
66.0
  3
H035
100
AcDbAlignedDimension
 13
-40.66922010713517
 23
451.2699990441241
 33
0.0
 14
-40.66922010713517
 24
517.2699990441241
 34
0.0
 50
90.0
100
AcDbRotatedDimension
1001
ACAD
1000
DSTYLE
1002
{
1070
    40
1040
1.0
1070
    77
1070
     0
1070
   147
1040
1.5
1070
   272
1070
     0
1070
   279
1070
     1
1070
   288
1070
     1
1002
}
  0
LINE
  5
ABD6
330
20
100
AcDbEntity
  8
11000_Left
  6
Continuous
 62
     7
370
    50
100
AcDbLine
 39
0.7
 10
278.5849439428321
 20
500.8749990441241
 30
0.0
 11
278.5849439428321
 21
503.8749990441238
 31
0.0
1001
AUSTER_FOLIE
1002
{
1000
ZENTRA_2144_BO_M_LB_DREH
1002
}
1001
AUSTER_ANSICHT
1002
{
1000
SL
1002
}
  0
LINE
  5
ABD7
330
20
100
AcDbEntity
  8
11000_Left
  6
Continuous
 62
     7
370
    20
100
AcDbLine
 39
0.7
 10
278.5849439428321
 20
466.874999044124
 30
0.0
 11
278.5849439428321
 21
500.8749990441241
 31
0.0
1001
AUSTER_FOLIE
1002
{
1000
ZENTRA_2144_BO_M_LB_DREH
1002
}
1001
AUSTER_ANSICHT
1002
{
1000
SL
1002
}
  0
LINE
  5
ABD8
330
20
100
AcDbEntity
  8
11000_Left
  6
Continuous
 62
     7
370
    50
100
AcDbLine
 39
0.7
 10
276.5849439428321
 20
496.8749990441241
 30
0.0
 11
276.5849439428321
 21
500.8749990441241
 31
0.0
1001
AUSTER_FOLIE
1002
{
1000
ZENTRA_2144_BO_M_LB_DREH
1002
}
1001
AUSTER_ANSICHT
1002
{
1000
SL
1002
}
  0
LINE
  5
ABD9
330
20
100
AcDbEntity
  8
11000_Left
  6
Continuous
 62
     7
370
    50
100
AcDbLine
 39
0.7
 10
276.5849439428321
 20
470.874999044124
 30
0.0
 11
276.5849439428321
 21
496.8749990441241
 31
0.0
1001
AUSTER_FOLIE
1002
{
1000
ZENTRA_2144_BO_M_LB_DREH
1002
}
1001
AUSTER_ANSICHT
1002
{
1000
SL
1002
}
  0
LINE
  5
ABDA
330
20
100
AcDbEntity
  8
11000_Left
  6
Continuous
 62
     7
370
    50
100
AcDbLine
 39
0.7
 10
272.5849439428321
 20
494.3749990441241
 30
0.0
 11
272.5849439428321
 21
496.8749990441241
 31
0.0
1001
AUSTER_FOLIE
1002
{
1000
ZENTRA_2144_BO_M_LB_DREH
1002
}
1001
AUSTER_ANSICHT
1002
{
1000
SL
1002
}
  0
LINE
  5
ABDB
330
20
100
AcDbEntity
  8
11000_Left
  6
Continuous
 62
     7
370
    50
100
AcDbLine
 39
0.7
 10
272.5849439428321
 20
473.3749990441241
 30
0.0
 11
272.5849439428321
 21
494.3749990441241
 31
0.0
1001
AUSTER_FOLIE
1002
{
1000
ZENTRA_2144_BO_M_LB_DREH
1002
}
1001
AUSTER_ANSICHT
1002
{
1000
SL
1002
}
  0
LINE
  5
ABDC
330
20
100
AcDbEntity
  8
11000_Left
  6
Continuous
 62
     7
370
    50
100
AcDbLine
 39
0.7
 10
266.584943942832
 20
473.3749990441241
 30
0.0
 11
266.584943942832
 21
494.3749990441241
 31
0.0
1001
AUSTER_FOLIE
1002
{
1000
ZENTRA_2144_BO_M_LB_DREH
1002
}
1001
AUSTER_ANSICHT
1002
{
1000
SL
1002
}
  0
LINE
  5
ABDD
330
20
100
AcDbEntity
  8
11000_Left
  6
Continuous
 62
     7
370
    50
100
AcDbLine
 39
0.7
 10
266.584943942832
 20
494.3749990441241
 30
0.0
 11
266.584943942832
 21
504.074999044124
 31
0.0
1001
AUSTER_FOLIE
1002
{
1000
ZENTRA_2144_BO_M_LB_DREH
1002
}
1001
AUSTER_ANSICHT
1002
{
1000
SL
1002
}
  0
LINE
  5
ABDE
330
20
100
AcDbEntity
  8
11000_Left
  6
Continuous
 62
     7
370
    50
100
AcDbLine
 39
0.7
 10
231.584943942832
 20
493.0749990441238
 30
0.0
 11
231.584943942832
 21
475.0749990441238
 31
0.0
1001
AUSTER_FOLIE
1002
{
1000
ZENTRA_2144_BO_M_LB_DREH
1002
}
1001
AUSTER_ANSICHT
1002
{
1000
SL
1002
}
  0
LINE
  5
ABDF
330
20
100
AcDbEntity
  8
11000_Left
  6
Continuous
 62
     7
370
    50
100
AcDbLine
 39
0.7
 10
231.584943942832
 20
475.0749990441238
 30
0.0
 11
231.584943942832
 21
460.0749990441242
 31
0.0
1001
AUSTER_FOLIE
1002
{
1000
ZENTRA_2144_BO_M_LB_DREH
1002
}
1001
AUSTER_ANSICHT
1002
{
1000
SL
1002
}
  0
LINE
  5
ABE0
330
20
100
AcDbEntity
  8
11000_Left
  6
Continuous
 62
     7
370
    50
100
AcDbLine
 39
0.7
 10
229.5849439428319
 20
475.074999044124
 30
0.0
 11
229.5849439428319
 21
493.0749990441241
 31
0.0
1001
AUSTER_FOLIE
1002
{
1000
ZENTRA_2144_BO_M_LB_DREH
1002
}
1001
AUSTER_ANSICHT
1002
{
1000
SL
1002
}
  0
LINE
  5
ABE1
330
20
100
AcDbEntity
  8
11000_Left
  6
Continuous
 62
     7
370
    50
100
AcDbLine
 39
0.7
 10
229.5849439428319
 20
493.0749990441241
 30
0.0
 11
229.5849439428319
 21
506.5749990441238
 31
0.0
1001
AUSTER_FOLIE
1002
{
1000
ZENTRA_2144_BO_M_LB_DREH
1002
}
1001
AUSTER_ANSICHT
1002
{
1000
SL
1002
}
  0
LINE
  5
ABE2
330
20
100
AcDbEntity
  8
11000_Left
  6
Continuous
 62
     7
370
    50
100
AcDbLine
 39
0.7
 10
225.5849439428319
 20
504.074999044124
 30
0.0
 11
225.5849439428319
 21
506.5749990441238
 31
0.0
1001
AUSTER_FOLIE
1002
{
1000
ZENTRA_2144_BO_M_LB_DREH
1002
}
1001
AUSTER_ANSICHT
1002
{
1000
SL
1002
}
  0
LINE
  5
ABE3
330
20
100
AcDbEntity
  8
11000_Left
  6
Continuous
 62
     7
370
    20
100
AcDbLine
 39
0.7
 10
225.5849439428319
 20
464.0749990441242
 30
0.0
 11
225.5849439428319
 21
504.074999044124
 31
0.0
1001
AUSTER_FOLIE
1002
{
1000
ZENTRA_2144_BO_M_LB_DREH
1002
}
1001
AUSTER_ANSICHT
1002
{
1000
SL
1002
}
  0
LINE
  5
ABE4
330
20
100
AcDbEntity
  8
11000_Left
  6
Continuous
 62
     7
370
    20
100
AcDbLine
 39
0.7
 10
207.584943942832
 20
492.0749990441238
 30
0.0
 11
207.584943942832
 21
476.0749990441238
 31
0.0
1001
AUSTER_FOLIE
1002
{
1000
ZENTRA_2144_BO_M_LB_DREH
1002
}
1001
AUSTER_ANSICHT
1002
{
1000
SL
1002
}
  0
LINE
  5
ABE5
330
20
100
AcDbEntity
  8
11000_Left
  6
Continuous
 62
     7
370
    50
100
AcDbLine
 39
0.7
 10
207.584943942832
 20
476.0749990441238
 30
0.0
 11
207.584943942832
 21
464.0749990441242
 31
0.0
1001
AUSTER_FOLIE
1002
{
1000
ZENTRA_2144_BO_M_LB_DREH
1002
}
1001
AUSTER_ANSICHT
1002
{
1000
SL
1002
}
  0
DIMENSION
  5
ABF8
330
20
100
AcDbEntity
  8
14100_Bottom_Dim
  6
Continuous
 62
     7
370
    13
100
AcDbDimension
  2
*D16
 10
11.92663840969931
 20
413.232596660304
 30
0.0
 11
-10.77336159030068
 21
415.482596660304
 31
0.0
 70
    32
 71
     5
 42
45.39999999999998
  3
H035
100
AcDbAlignedDimension
 13
-33.47336159030067
 23
402.6951092577546
 33
0.0
 14
11.92663840969931
 24
402.6951092577546
 34
0.0
100
AcDbRotatedDimension
1001
ACAD
1000
DSTYLE
1002
{
1070
    40
1040
1.0
1002
}
  0
LINE
  5
AC20
330
20
100
AcDbEntity
  8
14000_Bottom
  6
Continuous
 62
     7
370
    20
100
AcDbLine
 39
0.7
 10
-33.47336159030067
 20
391.4901092577543
 30
0.0
 11
-33.47336159030067
 21
382.6951092577545
 31
0.0
1001
AUSTER_FOLIE
1002
{
1000
ZENTRA_2144_BO_M_LB_DREH
1002
}
1001
AUSTER_ANSICHT
1002
{
1000
R
1002
}
  0
LINE
  5
AC21
330
20
100
AcDbEntity
  8
14000_Bottom
  6
Continuous
 62
     7
370
    20
100
AcDbLine
 39
0.7
 10
11.92663840969931
 20
391.4901092577543
 30
0.0
 11
11.92663840969931
 21
382.6951092577545
 31
0.0
1001
AUSTER_FOLIE
1002
{
1000
ZENTRA_2144_BO_M_LB_DREH
1002
}
1001
AUSTER_ANSICHT
1002
{
1000
R
1002
}
  0
ARC
  5
AC22
330
20
100
AcDbEntity
  8
14000_Bottom
  6
Continuous
 62
     7
370
    20
100
AcDbCircle
 39
0.7
 10
1.496638409699244
 20
327.8131092577546
 30
0.0
 40
3.129999999999999
100
AcDbArc
 50
299.5450729533544
 51
350.1899999999976
1001
AUSTER_FOLIE
1002
{
1000
ZENTRA_2144_BO_M_LB_DREH
1002
}
1001
AUSTER_ANSICHT
1002
{
1000
R
1002
}
  0
ARC
  5
AC23
330
20
100
AcDbEntity
  8
14000_Bottom
  6
Continuous
 62
     7
370
    50
100
AcDbCircle
 39
0.7
 10
-1.164361590300813
 20
327.6741092577546
 30
0.0
 40
2.988999999999998
100
AcDbArc
 50
239.8260230435829
 51
270.1839999999988
1001
AUSTER_FOLIE
1002
{
1000
ZENTRA_2144_BO_M_LB_DREH
1002
}
1001
AUSTER_ANSICHT
1002
{
1000
R
1002
}
  0
LINE
  5
ACE2
330
20
100
AcDbEntity
  8
10000_FRONT
  6
Continuous
 62
     7
370
    20
100
AcDbLine
 39
0.7
 10
11.92663840969931
 20
517.2699990441241
 30
0.0
 11
11.92663840969931
 21
528.2799990441239
 31
0.0
  0
LINE
  5
ACE3
330
20
100
AcDbEntity
  8
10000_FRONT
  6
Continuous
 62
     7
370
    20
100
AcDbLine
 39
0.7
 10
-33.47336159030067
 20
517.2699990441241
 30
0.0
 11
-33.47336159030067
 21
528.2799990441239
 31
0.0
  0
LINE
  5
ACE4
330
20
100
AcDbEntity
  8
10000_FRONT
  6
Continuous
 62
     7
370
    20
100
AcDbLine
 39
0.7
 10
11.92663840969931
 20
528.2799990441239
 30
0.0
 11
-33.47336159030067
 21
528.2799990441239
 31
0.0
  0
ENDSEC
  0
SECTION
  2
OBJECTS
  0
DICTIONARY
  5
C
330
0
100
AcDbDictionary
281
     1
  3
ACAD_COLOR
350
1B
  3
ACAD_GROUP
350
D
  3
ACAD_LAYOUT
350
19
  3
ACAD_MATERIAL
350
1A
  3
ACAD_MLINESTYLE
350
16
  3
ACAD_PLOTSETTINGS
350
18
  3
ACAD_PLOTSTYLENAME
350
E
  3
ACDBHEADERROUNDTRIPXREC
350
ACF4
  3
AcDbVariableDictionary
350
687E
  3
DWGPROPS
350
ACF3
  0
DICTIONARY
  5
1B
102
{ACAD_REACTORS
330
C
102
}
330
C
100
AcDbDictionary
281
     1
  0
DICTIONARY
  5
D
102
{ACAD_REACTORS
330
C
102
}
330
C
100
AcDbDictionary
281
     1
  0
DICTIONARY
  5
19
102
{ACAD_REACTORS
330
C
102
}
330
C
100
AcDbDictionary
281
     1
  3
Layout1
350
1F
  3
Model
350
23
  0
DICTIONARY
  5
1A
102
{ACAD_REACTORS
330
C
102
}
330
C
100
AcDbDictionary
281
     1
  0
DICTIONARY
  5
16
102
{ACAD_REACTORS
330
C
102
}
330
C
100
AcDbDictionary
281
     1
  3
Standard
350
17
  0
DICTIONARY
  5
18
102
{ACAD_REACTORS
330
C
102
}
330
C
100
AcDbDictionary
281
     1
  0
ACDBDICTIONARYWDFLT
  5
E
102
{ACAD_REACTORS
330
C
102
}
330
C
100
AcDbDictionary
281
     1
  3
Normal
350
F
100
AcDbDictionaryWithDefault
340
F
  0
DICTIONARY
  5
ACF4
102
{ACAD_REACTORS
330
C
102
}
330
C
100
AcDbDictionary
281
     1
  3
COLORDICT
350
ACF6
  3
MATERIALDICT
350
ACF5
  0
DICTIONARY
  5
687E
102
{ACAD_REACTORS
330
C
102
}
330
C
100
AcDbDictionary
281
     1
  3
DIMASSOC
350
687F
  3
PROJECTNAME
350
6880
  0
XRECORD
  5
ACF3
102
{ACAD_REACTORS
330
C
102
}
330
C
100
AcDbXrecord
280
     1
  1
DWGPROPS COOKIE
  2

  3

  4

  6

  7

  8

  9

300
=
301
=
302
=
303
=
304
=
305
=
306
=
307
=
308
=
309
=
 40
2.161471215277777
 41
2452829.417613079
 42
2453423.620274803
  1

 90
        0
  0
LAYOUT
  5
1F
102
{ACAD_XDICTIONARY
360
ACF7
102
}
102
{ACAD_REACTORS
330
19
102
}
330
19
100
AcDbPlotSettings
  1

  2
HP LaserJet 5000 Series PS
  4

  6

 40
0.0
 41
0.0
 42
0.0
 43
0.0
 44
0.0
 45
0.0
 46
0.0
 47
0.0
 48
0.0
 49
0.0
140
0.0
141
0.0
142
1.0
143
1.0
 70
   688
 72
     0
 73
     0
 74
     5
  7
monochrome.ctb
 75
    16
147
1.0
148
0.0
149
0.0
100
AcDbLayout
  1
Layout1
 70
     1
 71
     1
 10
0.0
 20
0.0
 11
12.0
 21
9.0
 12
0.0
 22
0.0
 32
0.0
 14
1.000000000000000E+20
 24
1.000000000000000E+20
 34
1.000000000000000E+20
 15
-1.000000000000000E+20
 25
-1.000000000000000E+20
 35
-1.000000000000000E+20
146
0.0
 13
0.0
 23
0.0
 33
0.0
 16
1.0
 26
0.0
 36
0.0
 17
0.0
 27
1.0
 37
0.0
 76
     0
330
1C
  0
LAYOUT
  5
23
102
{ACAD_XDICTIONARY
360
ACF9
102
}
102
{ACAD_REACTORS
330
19
102
}
330
19
100
AcDbPlotSettings
  1

  2
\\AMBW779A\A_P00873 (Canon iR2200-3300 PCL6)
  4
A3
  6

 40
4.815416812896728
 41
4.815412044525146
 42
4.815399169921875
 43
4.8154296875
 44
296.9259948730469
 45
419.9466552734373
 46
0.0
 47
0.0
 48
0.0
 49
0.0
140
0.0
141
0.0
142
1.0
143
1.0
 70
 11952
 72
     1
 73
     1
 74
     1
  7
monochrome.ctb
 75
    16
147
1.0
148
70.6185002988052
149
-288.7698385295912
100
AcDbLayout
  1
Model
 70
     1
 71
     0
 10
0.0
 20
0.0
 11
12.0
 21
9.0
 12
0.0
 22
0.0
 32
0.0
 14
0.0
 24
0.0
 34
0.0
 15
0.0
 25
0.0
 35
0.0
146
0.0
 13
0.0
 23
0.0
 33
0.0
 16
1.0
 26
0.0
 36
0.0
 17
0.0
 27
1.0
 37
0.0
 76
     0
330
20
  0
MLINESTYLE
  5
17
102
{ACAD_REACTORS
330
16
102
}
330
16
100
AcDbMlineStyle
  2
STANDARD
 70
     0
  3

 62
   256
 51
90.0
 52
90.0
 71
     2
 49
0.5
 62
   256
  6
BYLAYER
 49
-0.5
 62
   256
  6
BYLAYER
  0
ACDBPLACEHOLDER
  5
F
102
{ACAD_REACTORS
330
E
102
}
330
E
  0
XRECORD
  5
ACF6
102
{ACAD_REACTORS
330
ACF4
102
}
330
ACF4
100
AcDbXrecord
280
     1
340
1B
  0
XRECORD
  5
ACF5
102
{ACAD_REACTORS
330
ACF4
102
}
330
ACF4
100
AcDbXrecord
280
     1
340
1A
  0
DICTIONARYVAR
  5
687F
102
{ACAD_REACTORS
330
687E
102
}
330
687E
100
DictionaryVariables
280
     0
  1
1
  0
DICTIONARYVAR
  5
6880
102
{ACAD_REACTORS
330
687E
102
}
330
687E
100
DictionaryVariables
280
     0
  1

  0
DICTIONARY
  5
ACF7
330
1F
100
AcDbDictionary
280
     1
281
     1
  3
ACAD_XREC_ROUNDTRIP
360
ACF8
  0
DICTIONARY
  5
ACF9
330
23
100
AcDbDictionary
280
     1
281
     1
  3
ACAD_XREC_ROUNDTRIP
360
ACFA
  0
XRECORD
  5
ACF8
102
{ACAD_REACTORS
330
ACF7
102
}
330
ACF7
100
AcDbXrecord
280
     1
102
SHADEPLOT
 70
     0
102
SHADEPLOTRESLEVEL
 70
     2
102
SHADEPLOTCUSTOMDPI
 70
   300
  0
XRECORD
  5
ACFA
102
{ACAD_REACTORS
330
ACF9
102
}
330
ACF9
100
AcDbXrecord
280
     1
102
SHADEPLOT
 70
     1
102
SHADEPLOTRESLEVEL
 70
     2
102
SHADEPLOTCUSTOMDPI
 70
   300
  0
ENDSEC
  0
EOF
