  0
SECTION
  2
HEADER
  9
$ACADVER
  1
AC1015
  9
$ACADMAINTVER
 70
    20
  9
$DWGCODEPAGE
  3
ANSI_1252
  9
$INSBASE
 10
0.0
 20
0.0
 30
0.0
  9
$EXTMIN
 10
-70.60458337769119
 20
494.279881970476
 30
0.0
  9
$EXTMAX
 10
339.3954166223088
 20
764.279881970476
 30
0.7
  9
$LIMMIN
 10
0.0
 20
0.0
  9
$LIMMAX
 10
420.0
 20
297.0
  9
$ORTHOMODE
 70
     1
  9
$REGENMODE
 70
     1
  9
$FILLMODE
 70
     1
  9
$QTEXTMODE
 70
     0
  9
$MIRRTEXT
 70
     0
  9
$LTSCALE
 40
23.1
  9
$ATTMODE
 70
     1
  9
$TEXTSIZE
 40
0.2
  9
$TRACEWID
 40
0.05
  9
$TEXTSTYLE
  7
Standard
  9
$CLAYER
  8
14100_Bottom_Dim
  9
$CELTYPE
  6
ByLayer
  9
$CECOLOR
 62
   256
  9
$CELTSCALE
 40
1.0
  9
$DISPSILH
 70
     0
  9
$DIMSCALE
 40
0.0
  9
$DIMASZ
 40
3.5
  9
$DIMEXO
 40
0.0
  9
$DIMDLI
 40
3.75
  9
$DIMRND
 40
0.0
  9
$DIMDLE
 40
0.0
  9
$DIMEXE
 40
2.0
  9
$DIMTP
 40
0.0
  9
$DIMTM
 40
0.0
  9
$DIMTXT
 40
3.5
  9
$DIMCEN
 40
2.5
  9
$DIMTSZ
 40
0.0
  9
$DIMTOL
 70
     0
  9
$DIMLIM
 70
     0
  9
$DIMTIH
 70
     0
  9
$DIMTOH
 70
     0
  9
$DIMSE1
 70
     0
  9
$DIMSE2
 70
     0
  9
$DIMTAD
 70
     1
  9
$DIMZIN
 70
     8
  9
$DIMBLK
  1

  9
$DIMASO
 70
     1
  9
$DIMSHO
 70
     1
  9
$DIMPOST
  1

  9
$DIMAPOST
  1

  9
$DIMALT
 70
     0
  9
$DIMALTD
 70
     4
  9
$DIMALTF
 40
0.039
  9
$DIMLFAC
 40
1.0
  9
$DIMTOFL
 70
     1
  9
$DIMTVP
 40
0.0
  9
$DIMTIX
 70
     0
  9
$DIMSOXD
 70
     0
  9
$DIMSAH
 70
     0
  9
$DIMBLK1
  1

  9
$DIMBLK2
  1

  9
$DIMSTYLE
  2
H035
  9
$DIMCLRD
 70
   256
  9
$DIMCLRE
 70
     7
  9
$DIMCLRT
 70
     7
  9
$DIMTFAC
 40
1.0
  9
$DIMGAP
 40
0.5
  9
$DIMJUST
 70
     0
  9
$DIMSD1
 70
     0
  9
$DIMSD2
 70
     0
  9
$DIMTOLJ
 70
     1
  9
$DIMTZIN
 70
     0
  9
$DIMALTZ
 70
     0
  9
$DIMALTTZ
 70
     0
  9
$DIMUPT
 70
     0
  9
$DIMDEC
 70
     0
  9
$DIMTDEC
 70
     2
  9
$DIMALTU
 70
     8
  9
$DIMALTTD
 70
     4
  9
$DIMTXSTY
  7
Standard
  9
$DIMAUNIT
 70
     0
  9
$DIMADEC
 70
     0
  9
$DIMALTRND
 40
0.0
  9
$DIMAZIN
 70
     0
  9
$DIMDSEP
 70
    46
  9
$DIMATFIT
 70
     3
  9
$DIMFRAC
 70
     0
  9
$DIMLDRBLK
  1

  9
$DIMLUNIT
 70
     2
  9
$DIMLWD
 70
    -2
  9
$DIMLWE
 70
    -2
  9
$DIMTMOVE
 70
     0
  9
$LUNITS
 70
     2
  9
$LUPREC
 70
     4
  9
$SKETCHINC
 40
0.1
  9
$FILLETRAD
 40
0.5
  9
$AUNITS
 70
     0
  9
$AUPREC
 70
     0
  9
$MENU
  1
.
  9
$ELEVATION
 40
0.0
  9
$PELEVATION
 40
0.0
  9
$THICKNESS
 40
0.0
  9
$LIMCHECK
 70
     0
  9
$CHAMFERA
 40
0.0
  9
$CHAMFERB
 40
0.0
  9
$CHAMFERC
 40
0.0
  9
$CHAMFERD
 40
0.0
  9
$SKPOLY
 70
     0
  9
$TDCREATE
 40
2452829.417613079
  9
$TDUCREATE
 40
2452829.375946412
  9
$TDUPDATE
 40
2453423.640117627
  9
$TDUUPDATE
 40
2453423.598450961
  9
$TDINDWG
 40
2.3959830208
  9
$TDUSRTIMER
 40
2.3959747106
  9
$USRTIMER
 70
     1
  9
$ANGBASE
 50
0.0
  9
$ANGDIR
 70
     0
  9
$PDMODE
 70
     0
  9
$PDSIZE
 40
0.0
  9
$PLINEWID
 40
0.0
  9
$SPLFRAME
 70
     0
  9
$SPLINETYPE
 70
     6
  9
$SPLINESEGS
 70
     8
  9
$HANDSEED
  5
C5D1
  9
$SURFTAB1
 70
     6
  9
$SURFTAB2
 70
     6
  9
$SURFTYPE
 70
     6
  9
$SURFU
 70
     6
  9
$SURFV
 70
     6
  9
$UCSBASE
  2

  9
$UCSNAME
  2

  9
$UCSORG
 10
0.0
 20
0.0
 30
0.0
  9
$UCSXDIR
 10
1.0
 20
0.0
 30
0.0
  9
$UCSYDIR
 10
0.0
 20
1.0
 30
0.0
  9
$UCSORTHOREF
  2

  9
$UCSORTHOVIEW
 70
     0
  9
$UCSORGTOP
 10
0.0
 20
0.0
 30
0.0
  9
$UCSORGBOTTOM
 10
0.0
 20
0.0
 30
0.0
  9
$UCSORGLEFT
 10
0.0
 20
0.0
 30
0.0
  9
$UCSORGRIGHT
 10
0.0
 20
0.0
 30
0.0
  9
$UCSORGFRONT
 10
0.0
 20
0.0
 30
0.0
  9
$UCSORGBACK
 10
0.0
 20
0.0
 30
0.0
  9
$PUCSBASE
  2

  9
$PUCSNAME
  2

  9
$PUCSORG
 10
0.0
 20
0.0
 30
0.0
  9
$PUCSXDIR
 10
1.0
 20
0.0
 30
0.0
  9
$PUCSYDIR
 10
0.0
 20
1.0
 30
0.0
  9
$PUCSORTHOREF
  2

  9
$PUCSORTHOVIEW
 70
     0
  9
$PUCSORGTOP
 10
0.0
 20
0.0
 30
0.0
  9
$PUCSORGBOTTOM
 10
0.0
 20
0.0
 30
0.0
  9
$PUCSORGLEFT
 10
0.0
 20
0.0
 30
0.0
  9
$PUCSORGRIGHT
 10
0.0
 20
0.0
 30
0.0
  9
$PUCSORGFRONT
 10
0.0
 20
0.0
 30
0.0
  9
$PUCSORGBACK
 10
0.0
 20
0.0
 30
0.0
  9
$USERI1
 70
     0
  9
$USERI2
 70
     0
  9
$USERI3
 70
     0
  9
$USERI4
 70
     0
  9
$USERI5
 70
     0
  9
$USERR1
 40
0.0
  9
$USERR2
 40
0.0
  9
$USERR3
 40
0.0
  9
$USERR4
 40
0.0
  9
$USERR5
 40
0.0
  9
$WORLDVIEW
 70
     1
  9
$SHADEDGE
 70
     3
  9
$SHADEDIF
 70
    70
  9
$TILEMODE
 70
     1
  9
$MAXACTVP
 70
    64
  9
$PINSBASE
 10
0.0
 20
0.0
 30
0.0
  9
$PLIMCHECK
 70
     0
  9
$PEXTMIN
 10
1.000000000000000E+20
 20
1.000000000000000E+20
 30
1.000000000000000E+20
  9
$PEXTMAX
 10
-1.000000000000000E+20
 20
-1.000000000000000E+20
 30
-1.000000000000000E+20
  9
$PLIMMIN
 10
0.0
 20
0.0
  9
$PLIMMAX
 10
12.0
 20
9.0
  9
$UNITMODE
 70
     0
  9
$VISRETAIN
 70
     1
  9
$PLINEGEN
 70
     0
  9
$PSLTSCALE
 70
     1
  9
$TREEDEPTH
 70
  3020
  9
$CMLSTYLE
  2
Standard
  9
$CMLJUST
 70
     0
  9
$CMLSCALE
 40
1.0
  9
$PROXYGRAPHICS
 70
     1
  9
$MEASUREMENT
 70
     0
  9
$CELWEIGHT
370
    -1
  9
$ENDCAPS
280
     0
  9
$JOINSTYLE
280
     0
  9
$LWDISPLAY
290
     0
  9
$INSUNITS
 70
     0
  9
$HYPERLINKBASE
  1

  9
$STYLESHEET
  1
MONOCHROME.CTB
  9
$XEDIT
290
     1
  9
$CEPSNTYPE
380
     0
  9
$PSTYLEMODE
290
     1
  9
$FINGERPRINTGUID
  2
{D88032C4-1185-41D3-97DD-7638FCF99E3F}
  9
$VERSIONGUID
  2
{8182FAAB-F4CF-4EDF-A8E2-BDB271E738FC}
  9
$EXTNAMES
290
     1
  9
$PSVPSCALE
 40
0.0
  9
$OLESTARTUP
290
     0
  0
ENDSEC
  0
SECTION
  2
CLASSES
  0
CLASS
  1
ACDBDICTIONARYWDFLT
  2
AcDbDictionaryWithDefault
  3
ObjectDBX Classes
 90
        0
280
     0
281
     0
  0
CLASS
  1
DICTIONARYVAR
  2
AcDbDictionaryVar
  3
ObjectDBX Classes
 90
        0
280
     0
281
     0
  0
CLASS
  1
ACDBPLACEHOLDER
  2
AcDbPlaceHolder
  3
ObjectDBX Classes
 90
        0
280
     0
281
     0
  0
CLASS
  1
LAYOUT
  2
AcDbLayout
  3
ObjectDBX Classes
 90
        0
280
     0
281
     0
  0
ENDSEC
  0
SECTION
  2
TABLES
  0
TABLE
  2
VPORT
  5
8
330
0
100
AcDbSymbolTable
 70
     2
  0
VPORT
  5
C5C8
330
8
100
AcDbSymbolTableRecord
100
AcDbViewportTableRecord
  2
*Active
 70
     0
 10
0.0
 20
0.0
 11
1.0
 21
1.0
 12
135.8504102560277
 22
629.2821744602003
 13
0.0
 23
0.0
 14
1.0
 24
1.0
 15
0.0
 25
0.0
 16
0.0
 26
0.0
 36
1.0
 17
0.0
 27
0.0
 37
0.0
 40
272.1719593779958
 41
1.571994715984147
 42
50.0
 43
0.0
 44
0.0
 50
0.0
 51
0.0
 71
     0
 72
   100
 73
     1
 74
     1
 75
     0
 76
     0
 77
     0
 78
     0
281
     0
 65
     1
110
0.0
120
0.0
130
0.0
111
1.0
121
0.0
131
0.0
112
0.0
122
1.0
132
0.0
 79
     0
146
0.0
  0
ENDTAB
  0
TABLE
  2
LTYPE
  5
5
330
0
100
AcDbSymbolTable
 70
     3
  0
LTYPE
  5
13
330
5
100
AcDbSymbolTableRecord
100
AcDbLinetypeTableRecord
  2
ByBlock
 70
     0
  3

 72
    65
 73
     0
 40
0.0
  0
LTYPE
  5
14
330
5
100
AcDbSymbolTableRecord
100
AcDbLinetypeTableRecord
  2
ByLayer
 70
     0
  3

 72
    65
 73
     0
 40
0.0
  0
LTYPE
  5
15
330
5
100
AcDbSymbolTableRecord
100
AcDbLinetypeTableRecord
  2
CONTINUOUS
 70
     0
  3
Solid line
 72
    65
 73
     0
 40
0.0
  0
LTYPE
  5
26
330
5
100
AcDbSymbolTableRecord
100
AcDbLinetypeTableRecord
  2
CENTER
 70
     0
  3
____ _ ____ _ ____ _ ____ _ ____ _ ____ _ ____
 72
    65
 73
     4
 40
0.6
 49
0.375
 74
     0
 49
-0.075
 74
     0
 49
0.075
 74
     0
 49
-0.075
 74
     0
  0
LTYPE
  5
B72A
330
5
100
AcDbSymbolTableRecord
100
AcDbLinetypeTableRecord
  2
ACAD_ISO02W100
 70
     0
  3
ISO Strichlinie __ __ __ __ __ __ __ __ __ __ _
 72
    65
 73
     2
 40
15.0
 49
12.0
 74
     0
 49
-3.0
 74
     0
  0
ENDTAB
  0
TABLE
  2
LAYER
  5
2
330
0
100
AcDbSymbolTable
 70
    12
  0
LAYER
  5
10
330
2
100
AcDbSymbolTableRecord
100
AcDbLayerTableRecord
  2
0
 70
     0
 62
     7
  6
CONTINUOUS
370
    -3
390
F
  0
LAYER
  5
1D8
330
2
100
AcDbSymbolTableRecord
100
AcDbLayerTableRecord
  2
Defpoints
 70
     0
 62
     7
  6
CONTINUOUS
290
     0
370
    -3
390
F
  0
LAYER
  5
1D9
330
2
100
AcDbSymbolTableRecord
100
AcDbLayerTableRecord
  2
91000_TIP
 70
     0
 62
     7
  6
CONTINUOUS
370
    -3
390
F
  0
LAYER
  5
1DA
330
2
100
AcDbSymbolTableRecord
100
AcDbLayerTableRecord
  2
11000_Left
 70
     0
 62
     7
  6
CONTINUOUS
370
    -3
390
F
  0
LAYER
  5
1DB
330
2
100
AcDbSymbolTableRecord
100
AcDbLayerTableRecord
  2
10000_FRONT
 70
     0
 62
     7
  6
CONTINUOUS
370
    -3
390
F
  0
LAYER
  5
1DC
330
2
100
AcDbSymbolTableRecord
100
AcDbLayerTableRecord
  2
10100_FRONT_DIM
 70
     0
 62
     7
  6
CONTINUOUS
370
    -3
390
F
  0
LAYER
  5
1DD
330
2
100
AcDbSymbolTableRecord
100
AcDbLayerTableRecord
  2
90000_FRAME
 70
     0
 62
     7
  6
CONTINUOUS
370
    -3
390
F
  0
LAYER
  5
1DE
330
2
100
AcDbSymbolTableRecord
100
AcDbLayerTableRecord
  2
11100_LEFT_DIM
 70
     0
 62
     7
  6
CONTINUOUS
370
    -3
390
F
  0
LAYER
  5
8E71
330
2
100
AcDbSymbolTableRecord
100
AcDbLayerTableRecord
  2
30000_Drilling
 70
     0
 62
     7
  6
CONTINUOUS
370
    -3
390
F
  0
LAYER
  5
8E72
330
2
100
AcDbSymbolTableRecord
100
AcDbLayerTableRecord
  2
30100_Drilling_DIM
 70
     0
 62
     7
  6
CONTINUOUS
370
    -3
390
F
  0
LAYER
  5
ABF6
330
2
100
AcDbSymbolTableRecord
100
AcDbLayerTableRecord
  2
14000_Bottom
 70
     0
 62
     7
  6
CONTINUOUS
370
    -3
390
F
  0
LAYER
  5
ABF7
330
2
100
AcDbSymbolTableRecord
100
AcDbLayerTableRecord
  2
14100_Bottom_Dim
 70
     0
 62
     7
  6
CONTINUOUS
370
    -3
390
F
  0
ENDTAB
  0
TABLE
  2
STYLE
  5
3
330
0
100
AcDbSymbolTable
 70
     1
  0
STYLE
  5
11
330
3
100
AcDbSymbolTableRecord
100
AcDbTextStyleTableRecord
  2
Standard
 70
     0
 40
0.0
 41
1.0
 50
0.0
 71
     0
 42
0.2
  3
txt
  4

  0
ENDTAB
  0
TABLE
  2
VIEW
  5
6
330
0
100
AcDbSymbolTable
 70
     0
  0
ENDTAB
  0
TABLE
  2
UCS
  5
7
330
0
100
AcDbSymbolTable
 70
     0
  0
ENDTAB
  0
TABLE
  2
APPID
  5
9
330
0
100
AcDbSymbolTable
 70
     3
  0
APPID
  5
12
330
9
100
AcDbSymbolTableRecord
100
AcDbRegAppTableRecord
  2
ACAD
 70
     0
  0
APPID
  5
1E8
330
9
100
AcDbSymbolTableRecord
100
AcDbRegAppTableRecord
  2
AUSTER_ANSICHT
 70
     0
  0
APPID
  5
1E9
330
9
100
AcDbSymbolTableRecord
100
AcDbRegAppTableRecord
  2
AUSTER_FOLIE
 70
     0
  0
ENDTAB
  0
TABLE
  2
DIMSTYLE
  5
A
330
0
100
AcDbSymbolTable
 70
     3
100
AcDbDimStyleTable
 71
     3
340
1E7
340
3A1A
340
BA
  0
DIMSTYLE
105
BA
330
A
100
AcDbSymbolTableRecord
100
AcDbDimStyleTableRecord
  2
Standard
 70
     0
340
11
  0
DIMSTYLE
105
1E7
102
{ACAD_REACTORS
330
C0FF
330
C0FE
330
C101
330
C100
330
C0FC
330
C0FD
102
}
330
A
100
AcDbSymbolTableRecord
100
AcDbDimStyleTableRecord
  2
DSTYLE1
 70
     0
 41
3.0
 42
0.0
 44
1.0
 73
     0
 74
     0
 77
     1
 78
     3
140
2.5
143
0.039370079
147
1.0
271
     3
272
     3
274
     0
279
     2
340
11
  0
DIMSTYLE
105
3A1A
102
{ACAD_REACTORS
330
BDAA
330
BDAB
330
C00C
330
BF56
330
BF55
330
BF54
330
BF53
330
BF52
330
BF51
330
C22F
102
}
330
A
100
AcDbSymbolTableRecord
100
AcDbDimStyleTableRecord
  2
H035
 70
     0
 40
0.0
 41
3.5
 42
0.0
 43
3.75
 44
2.0
 73
     0
 74
     0
 77
     1
 78
     8
140
3.5
141
2.5
143
0.039
147
0.5
171
     4
172
     1
176
   256
177
     7
178
     7
271
     0
272
     2
273
     8
274
     4
340
11
  0
ENDTAB
  0
TABLE
  2
BLOCK_RECORD
  5
1
330
0
100
AcDbSymbolTable
 70
    17
  0
BLOCK_RECORD
  5
20
330
1
100
AcDbSymbolTableRecord
100
AcDbBlockTableRecord
  2
*Model_Space
340
23
  0
BLOCK_RECORD
  5
1C
330
1
100
AcDbSymbolTableRecord
100
AcDbBlockTableRecord
  2
*Paper_Space
340
1F
  0
BLOCK_RECORD
  5
3A
330
1
100
AcDbSymbolTableRecord
100
AcDbBlockTableRecord
  2
SIEMENS_OUTLINE_BL0
340
0
102
{BLKREFS
331
BBA3
102
}
  0
BLOCK_RECORD
  5
BECB
330
1
100
AcDbSymbolTableRecord
100
AcDbBlockTableRecord
  2
*D1
340
0
  0
BLOCK_RECORD
  5
BED8
330
1
100
AcDbSymbolTableRecord
100
AcDbBlockTableRecord
  2
*D2
340
0
  0
BLOCK_RECORD
  5
C061
330
1
100
AcDbSymbolTableRecord
100
AcDbBlockTableRecord
  2
*D3
340
0
  0
BLOCK_RECORD
  5
C06E
330
1
100
AcDbSymbolTableRecord
100
AcDbBlockTableRecord
  2
*D4
340
0
  0
BLOCK_RECORD
  5
C07A
330
1
100
AcDbSymbolTableRecord
100
AcDbBlockTableRecord
  2
*D5
340
0
  0
BLOCK_RECORD
  5
C086
330
1
100
AcDbSymbolTableRecord
100
AcDbBlockTableRecord
  2
*D6
340
0
  0
BLOCK_RECORD
  5
C092
330
1
100
AcDbSymbolTableRecord
100
AcDbBlockTableRecord
  2
*D7
340
0
  0
BLOCK_RECORD
  5
C09E
330
1
100
AcDbSymbolTableRecord
100
AcDbBlockTableRecord
  2
*D8
340
0
  0
BLOCK_RECORD
  5
C0AC
330
1
100
AcDbSymbolTableRecord
100
AcDbBlockTableRecord
  2
*D9
340
0
  0
BLOCK_RECORD
  5
C114
330
1
100
AcDbSymbolTableRecord
100
AcDbBlockTableRecord
  2
*D10
340
0
  0
BLOCK_RECORD
  5
C121
330
1
100
AcDbSymbolTableRecord
100
AcDbBlockTableRecord
  2
*D11
340
0
  0
BLOCK_RECORD
  5
C12E
330
1
100
AcDbSymbolTableRecord
100
AcDbBlockTableRecord
  2
*D12
340
0
  0
BLOCK_RECORD
  5
C148
330
1
100
AcDbSymbolTableRecord
100
AcDbBlockTableRecord
  2
*D13
340
0
  0
BLOCK_RECORD
  5
C155
330
1
100
AcDbSymbolTableRecord
100
AcDbBlockTableRecord
  2
*D14
340
0
  0
BLOCK_RECORD
  5
C160
330
1
100
AcDbSymbolTableRecord
100
AcDbBlockTableRecord
  2
*D15
340
0
  0
BLOCK_RECORD
  5
C289
330
1
100
AcDbSymbolTableRecord
100
AcDbBlockTableRecord
  2
*D16
340
0
  0
ENDTAB
  0
ENDSEC
  0
SECTION
  2
BLOCKS
  0
BLOCK
  5
21
330
20
100
AcDbEntity
  8
0
100
AcDbBlockBegin
  2
*Model_Space
 70
     0
 10
0.0
 20
0.0
 30
0.0
  3
*Model_Space
  1

  0
ENDBLK
  5
22
330
20
100
AcDbEntity
  8
0
100
AcDbBlockEnd
  0
BLOCK
  5
1D
330
1C
100
AcDbEntity
 67
     1
  8
0
100
AcDbBlockBegin
  2
*Paper_Space
 70
     0
 10
0.0
 20
0.0
 30
0.0
  3
*Paper_Space
  1

  0
ENDBLK
  5
1E
330
1C
100
AcDbEntity
 67
     1
  8
0
100
AcDbBlockEnd
  0
BLOCK
  5
3B
330
3A
100
AcDbEntity
  8
0
  6
Continuous
 62
     7
100
AcDbBlockBegin
  2
SIEMENS_OUTLINE_BL0
 70
     0
 10
0.0
 20
0.0
 30
0.0
  3
SIEMENS_OUTLINE_BL0
  1

  0
LINE
  5
3C
330
3A
100
AcDbEntity
  8
0
  6
Continuous
 62
     7
100
AcDbLine
 10
289.1235341257
 20
21.4969115175
 30
0.0
 11
289.1235341257
 21
16.7436424342
 31
0.0
  0
LINE
  5
3D
330
3A
100
AcDbEntity
  8
0
  6
Continuous
 62
     7
100
AcDbLine
 10
290.5495148507
 20
21.4969115175
 30
0.0
 11
290.5495148507
 21
16.7436424342
 31
0.0
  0
LINE
  5
3E
330
3A
100
AcDbEntity
  8
0
  6
Continuous
 62
     7
100
AcDbLine
 10
289.1235341257
 20
16.7436424342
 30
0.0
 11
290.5495148507
 21
16.7436424342
 31
0.0
  0
LINE
  5
3F
330
3A
100
AcDbEntity
  8
0
  6
Continuous
 62
     7
100
AcDbLine
 10
289.1235341257
 20
21.4969115175
 30
0.0
 11
290.5495148507
 21
21.4969115175
 31
0.0
  0
LINE
  5
40
330
3A
100
AcDbEntity
  8
0
  6
Continuous
 62
     7
100
AcDbLine
 10
291.6427667399
 20
21.4969115175
 30
0.0
 11
291.6427667399
 21
16.7436424342
 31
0.0
  0
LINE
  5
41
330
3A
100
AcDbEntity
  8
0
  6
Continuous
 62
     7
100
AcDbLine
 10
291.6427667399
 20
16.7436424342
 30
0.0
 11
295.2077185523
 21
16.7436424342
 31
0.0
  0
LINE
  5
42
330
3A
100
AcDbEntity
  8
0
  6
Continuous
 62
     7
100
AcDbLine
 10
295.2077185523
 20
17.64676356
 30
0.0
 11
293.021214774
 21
17.64676356
 31
0.0
  0
LINE
  5
43
330
3A
100
AcDbEntity
  8
0
  6
Continuous
 62
     7
100
AcDbLine
 10
295.2077185523
 20
17.64676356
 30
0.0
 11
295.2077185523
 21
16.7436424342
 31
0.0
  0
LINE
  5
44
330
3A
100
AcDbEntity
  8
0
  6
Continuous
 62
     7
100
AcDbLine
 10
295.1601858615
 20
21.4969115175
 30
0.0
 11
291.6427667399
 21
21.4969115175
 31
0.0
  0
LINE
  5
45
330
3A
100
AcDbEntity
  8
0
  6
Continuous
 62
     7
100
AcDbLine
 10
295.1601858615
 20
20.6175567371
 30
0.0
 11
293.021214774
 21
20.6175567371
 31
0.0
  0
LINE
  5
46
330
3A
100
AcDbEntity
  8
0
  6
Continuous
 62
     7
100
AcDbLine
 10
295.1601858615
 20
21.4969115175
 30
0.0
 11
295.1601858615
 21
20.6175567371
 31
0.0
  0
LINE
  5
47
330
3A
100
AcDbEntity
  8
0
  6
Continuous
 62
     7
100
AcDbLine
 10
294.8749897165
 20
18.7637817946
 30
0.0
 11
293.021214774
 21
18.7637817946
 31
0.0
  0
LINE
  5
48
330
3A
100
AcDbEntity
  8
0
  6
Continuous
 62
     7
100
AcDbLine
 10
294.8749897165
 20
19.5480711933
 30
0.0
 11
294.8749897165
 21
18.7637817946
 31
0.0
  0
LINE
  5
49
330
3A
100
AcDbEntity
  8
0
  6
Continuous
 62
     7
100
AcDbLine
 10
294.8749897165
 20
19.5480711933
 30
0.0
 11
293.021214774
 21
19.5480711933
 31
0.0
  0
LINE
  5
4A
330
3A
100
AcDbEntity
  8
0
  6
Continuous
 62
     7
100
AcDbLine
 10
293.021214774
 20
20.6175567371
 30
0.0
 11
293.021214774
 21
19.5480711933
 31
0.0
  0
LINE
  5
4B
330
3A
100
AcDbEntity
  8
0
  6
Continuous
 62
     7
100
AcDbLine
 10
293.021214774
 20
18.7637817946
 30
0.0
 11
293.021214774
 21
17.64676356
 31
0.0
  0
LINE
  5
4C
330
3A
100
AcDbEntity
  8
0
  6
Continuous
 62
     7
100
AcDbLine
 10
296.0157742965
 20
16.7436424342
 30
0.0
 11
296.0157742965
 21
21.4969115175
 31
0.0
  0
LINE
  5
4D
330
3A
100
AcDbEntity
  8
0
  6
Continuous
 62
     7
100
AcDbLine
 10
296.0157742965
 20
16.7436424342
 30
0.0
 11
296.9664281131
 21
16.7436424342
 31
0.0
  0
LINE
  5
4E
330
3A
100
AcDbEntity
  8
0
  6
Continuous
 62
     7
100
AcDbLine
 10
301.8622952689
 20
21.4969115175
 30
0.0
 11
301.8622952689
 21
16.7436424342
 31
0.0
  0
LINE
  5
4F
330
3A
100
AcDbEntity
  8
0
  6
Continuous
 62
     7
100
AcDbLine
 10
301.8622952689
 20
16.7436424342
 30
0.0
 11
300.4838472348
 21
16.7436424342
 31
0.0
  0
LINE
  5
50
330
3A
100
AcDbEntity
  8
0
  6
Continuous
 62
     7
100
AcDbLine
 10
298.2973434565
 20
16.6961097434
 30
0.0
 11
299.1529318914
 21
16.6961097434
 31
0.0
  0
LINE
  5
51
330
3A
100
AcDbEntity
  8
0
  6
Continuous
 62
     7
100
AcDbLine
 10
298.2973434565
 20
16.6961097434
 30
0.0
 11
296.9664281131
 21
19.7857346475
 31
0.0
  0
LINE
  5
52
330
3A
100
AcDbEntity
  8
0
  6
Continuous
 62
     7
100
AcDbLine
 10
296.9664281131
 20
16.7436424342
 30
0.0
 11
296.9664281131
 21
19.7857346475
 31
0.0
  0
LINE
  5
53
330
3A
100
AcDbEntity
  8
0
  6
Continuous
 62
     7
100
AcDbLine
 10
300.4838472348
 20
19.8332673383
 30
0.0
 11
299.1529318914
 21
16.6961097434
 31
0.0
  0
LINE
  5
54
330
3A
100
AcDbEntity
  8
0
  6
Continuous
 62
     7
100
AcDbLine
 10
297.7269511665
 20
21.4969115175
 30
0.0
 11
296.0157742965
 21
21.4969115175
 31
0.0
  0
LINE
  5
55
330
3A
100
AcDbEntity
  8
0
  6
Continuous
 62
     7
100
AcDbLine
 10
301.8622952689
 20
21.4969115175
 30
0.0
 11
300.1511183989
 21
21.4969115175
 31
0.0
  0
LINE
  5
56
330
3A
100
AcDbEntity
  8
0
  6
Continuous
 62
     7
100
AcDbLine
 10
297.7269511665
 20
21.4969115175
 30
0.0
 11
298.9628011281
 21
18.5974173767
 31
0.0
  0
LINE
  5
57
330
3A
100
AcDbEntity
  8
0
  6
Continuous
 62
     7
100
AcDbLine
 10
300.1511183989
 20
21.4969115175
 30
0.0
 11
298.9628011281
 21
18.5974173767
 31
0.0
  0
LINE
  5
58
330
3A
100
AcDbEntity
  8
0
  6
Continuous
 62
     7
100
AcDbLine
 10
300.4838472348
 20
19.8332673383
 30
0.0
 11
300.4838472348
 21
16.7436424342
 31
0.0
  0
LINE
  5
59
330
3A
100
AcDbEntity
  8
0
  6
Continuous
 62
     7
100
AcDbLine
 10
302.9555471581
 20
21.4969115175
 30
0.0
 11
302.9555471581
 21
16.7436424342
 31
0.0
  0
LINE
  5
5A
330
3A
100
AcDbEntity
  8
0
  6
Continuous
 62
     7
100
AcDbLine
 10
302.9555471581
 20
16.7436424342
 30
0.0
 11
306.5204989705
 21
16.7436424342
 31
0.0
  0
LINE
  5
5B
330
3A
100
AcDbEntity
  8
0
  6
Continuous
 62
     7
100
AcDbLine
 10
306.5204989705
 20
17.64676356
 30
0.0
 11
304.3339951922
 21
17.64676356
 31
0.0
  0
LINE
  5
5C
330
3A
100
AcDbEntity
  8
0
  6
Continuous
 62
     7
100
AcDbLine
 10
306.5204989705
 20
17.64676356
 30
0.0
 11
306.5204989705
 21
16.7436424342
 31
0.0
  0
LINE
  5
5D
330
3A
100
AcDbEntity
  8
0
  6
Continuous
 62
     7
100
AcDbLine
 10
306.4729662797
 20
21.4969115175
 30
0.0
 11
302.9555471581
 21
21.4969115175
 31
0.0
  0
LINE
  5
5E
330
3A
100
AcDbEntity
  8
0
  6
Continuous
 62
     7
100
AcDbLine
 10
306.4729662797
 20
20.6175567371
 30
0.0
 11
304.3339951922
 21
20.6175567371
 31
0.0
  0
LINE
  5
5F
330
3A
100
AcDbEntity
  8
0
  6
Continuous
 62
     7
100
AcDbLine
 10
306.4729662797
 20
21.4969115175
 30
0.0
 11
306.4729662797
 21
20.6175567371
 31
0.0
  0
LINE
  5
60
330
3A
100
AcDbEntity
  8
0
  6
Continuous
 62
     7
100
AcDbLine
 10
306.1877701347
 20
18.7637817946
 30
0.0
 11
304.3339951922
 21
18.7637817946
 31
0.0
  0
LINE
  5
61
330
3A
100
AcDbEntity
  8
0
  6
Continuous
 62
     7
100
AcDbLine
 10
306.1877701347
 20
19.5480711933
 30
0.0
 11
306.1877701347
 21
18.7637817946
 31
0.0
  0
LINE
  5
62
330
3A
100
AcDbEntity
  8
0
  6
Continuous
 62
     7
100
AcDbLine
 10
306.1877701347
 20
19.5480711933
 30
0.0
 11
304.3339951922
 21
19.5480711933
 31
0.0
  0
LINE
  5
63
330
3A
100
AcDbEntity
  8
0
  6
Continuous
 62
     7
100
AcDbLine
 10
304.3339951922
 20
20.6175567371
 30
0.0
 11
304.3339951922
 21
19.5480711933
 31
0.0
  0
LINE
  5
64
330
3A
100
AcDbEntity
  8
0
  6
Continuous
 62
     7
100
AcDbLine
 10
304.3339951922
 20
18.7637817946
 30
0.0
 11
304.3339951922
 21
17.64676356
 31
0.0
  0
LINE
  5
65
330
3A
100
AcDbEntity
  8
0
  6
Continuous
 62
     7
100
AcDbLine
 10
307.3047883693
 20
16.7436424342
 30
0.0
 11
307.3047883693
 21
21.4969115175
 31
0.0
  0
LINE
  5
66
330
3A
100
AcDbEntity
  8
0
  6
Continuous
 62
     7
100
AcDbLine
 10
311.4876651625
 20
21.4969115175
 30
0.0
 11
311.4876651625
 21
16.7436424342
 31
0.0
  0
LINE
  5
67
330
3A
100
AcDbEntity
  8
0
  6
Continuous
 62
     7
100
AcDbLine
 10
307.3047883693
 20
16.7436424342
 30
0.0
 11
308.2554421859
 21
16.7436424342
 31
0.0
  0
LINE
  5
68
330
3A
100
AcDbEntity
  8
0
  6
Continuous
 62
     7
100
AcDbLine
 10
311.4876651625
 20
21.4969115175
 30
0.0
 11
310.5370113459
 21
21.4969115175
 31
0.0
  0
LINE
  5
69
330
3A
100
AcDbEntity
  8
0
  6
Continuous
 62
     7
100
AcDbLine
 10
308.8496008213
 20
21.4969115175
 30
0.0
 11
307.3047883693
 21
21.4969115175
 31
0.0
  0
LINE
  5
6A
330
3A
100
AcDbEntity
  8
0
  6
Continuous
 62
     7
100
AcDbLine
 10
311.4876651625
 20
16.7436424342
 30
0.0
 11
309.9666190559
 21
16.7436424342
 31
0.0
  0
LINE
  5
6B
330
3A
100
AcDbEntity
  8
0
  6
Continuous
 62
     7
100
AcDbLine
 10
309.9666190559
 20
16.7436424342
 30
0.0
 11
308.2554421859
 21
19.7857346475
 31
0.0
  0
LINE
  5
6C
330
3A
100
AcDbEntity
  8
0
  6
Continuous
 62
     7
100
AcDbLine
 10
308.8496008213
 20
21.4969115175
 30
0.0
 11
310.5370113459
 21
18.5498846858
 31
0.0
  0
LINE
  5
6D
330
3A
100
AcDbEntity
  8
0
  6
Continuous
 62
     7
100
AcDbLine
 10
310.5370113459
 20
21.4969115175
 30
0.0
 11
310.5370113459
 21
18.5498846858
 31
0.0
  0
LINE
  5
6E
330
3A
100
AcDbEntity
  8
0
  6
Continuous
 62
     7
100
AcDbLine
 10
308.2554421859
 20
16.7436424342
 30
0.0
 11
308.2554421859
 21
19.7857346475
 31
0.0
  0
LINE
  5
6F
330
3A
100
AcDbEntity
  8
0
  6
Continuous
 62
     7
100
AcDbLine
 10
312.2957209067
 20
16.8387078159
 30
0.0
 11
312.2957209067
 21
17.7893616325
 31
0.0
  0
LINE
  5
70
330
3A
100
AcDbEntity
  8
0
  6
Continuous
 62
     7
100
AcDbLine
 10
315.623009265
 20
20.49872501
 30
0.0
 11
315.623009265
 21
21.4493788266
 31
0.0
  0
ARC
  5
71
330
3A
100
AcDbEntity
  8
0
  6
Continuous
 62
     7
100
AcDbCircle
 10
314.0003620317
 20
18.7008009792
 30
0.0
 40
1.111619360599997
100
AcDbArc
 50
277.7099956934
 51
295.6884927746
  0
ARC
  5
72
330
3A
100
AcDbEntity
  8
0
  6
Continuous
 62
     7
100
AcDbCircle
 10
314.2846720145
 20
17.9759752156
 30
0.0
 40
0.3401689265
100
AcDbArc
 50
305.503221255
 51
72.46528985229999
  0
ARC
  5
73
330
3A
100
AcDbEntity
  8
0
  6
Continuous
 62
     7
100
AcDbCircle
 10
313.7186782063
 20
21.3776821252
 30
0.0
 40
4.756794641099999
100
AcDbArc
 50
252.5939200548001
 51
280.9816604256
  0
ARC
  5
74
330
3A
100
AcDbEntity
  8
0
  6
Continuous
 62
     7
100
AcDbCircle
 10
314.1735135694
 20
18.7596683887
 30
0.0
 40
2.100726595299998
100
AcDbArc
 50
282.405835852
 51
311.8644433928
  0
ARC
  5
75
330
3A
100
AcDbEntity
  8
0
  6
Continuous
 62
     7
100
AcDbCircle
 10
313.8999492223
 20
20.3680101102
 30
0.0
 40
0.3029626476
100
AcDbArc
 50
154.4400348282
 51
221.8201698801
  0
ARC
  5
76
330
3A
100
AcDbEntity
  8
0
  6
Continuous
 62
     7
100
AcDbCircle
 10
313.9791703737
 20
20.2887889588
 30
0.0
 40
0.4103089737
100
AcDbArc
 50
102.8287828681
 51
149.2259639003
  0
ARC
  5
77
330
3A
100
AcDbEntity
  8
0
  6
Continuous
 62
     7
100
AcDbCircle
 10
314.3961972093
 20
18.546453629
 30
0.0
 40
2.201836557
100
AcDbArc
 50
84.0400061857
 51
103.3427657870999
  0
ARC
  5
78
330
3A
100
AcDbEntity
  8
0
  6
Continuous
 62
     7
100
AcDbCircle
 10
314.0552333846
 20
16.1290897051
 30
0.0
 40
4.642373736499997
100
AcDbArc
 50
70.2625858546
 51
82.95241863799999
  0
ARC
  5
79
330
3A
100
AcDbEntity
  8
0
  6
Continuous
 62
     7
100
AcDbCircle
 10
313.5412151824001
 20
20.8007125947
 30
0.0
 40
3.258755990899997
100
AcDbArc
 50
247.5300206145
 51
280.7579522143
  0
ARC
  5
7A
330
3A
100
AcDbEntity
  8
0
  6
Continuous
 62
     7
100
AcDbCircle
 10
307.1562487104
 20
2.5491926343
 30
0.0
 40
17.3316084133
100
AcDbArc
 50
65.34146746500001
 51
67.39977707359999
  0
ARC
  5
7B
330
3A
100
AcDbEntity
  8
0
  6
Continuous
 62
     7
100
AcDbCircle
 10
317.9521111158
 20
28.3416189974
 30
0.0
 40
10.6291642039
100
AcDbArc
 50
242.8620101252001
 51
247.1042029186
  0
ARC
  5
7C
330
3A
100
AcDbEntity
  8
0
  6
Continuous
 62
     7
100
AcDbCircle
 10
314.0972098893
 20
20.8076875004
 30
0.0
 40
2.166291629199998
100
AcDbArc
 50
227.3119280794
 51
242.7040315235
  0
ARC
  5
7D
330
3A
100
AcDbEntity
  8
0
  6
Continuous
 62
     7
100
AcDbCircle
 10
313.4931790796
 20
20.1020098596
 30
0.0
 40
1.238521734
100
AcDbArc
 50
194.7952194236
 51
225.7176549047
  0
ARC
  5
7E
330
3A
100
AcDbEntity
  8
0
  6
Continuous
 62
     7
100
AcDbCircle
 10
313.5553372138
 20
20.1422298287
 30
0.0
 40
1.309092072899999
100
AcDbArc
 50
164.1974860461
 51
195.8025139539
  0
ARC
  5
7F
330
3A
100
AcDbEntity
  8
0
  6
Continuous
 62
     7
100
AcDbCircle
 10
314.1123609345001
 20
19.2539626688
 30
0.0
 40
2.366924815299999
100
AcDbArc
 50
86.22180229280001
 51
120.4272602309
  0
ARC
  5
80
330
3A
100
AcDbEntity
  8
0
  6
Continuous
 62
     7
100
AcDbCircle
 10
313.8435041519
 20
12.5577948477
 30
0.0
 40
9.0679051661
100
AcDbArc
 50
78.68270492259998
 51
87.3147599624
  0
ARC
  5
81
330
3A
100
AcDbEntity
  8
0
  6
Continuous
 62
     7
100
AcDbCircle
 10
313.3874349735
 20
20.2497375912
 30
0.0
 40
1.119747444
100
AcDbArc
 50
142.813917903
 51
167.1522951417
  0
ARC
  5
82
330
3A
100
AcDbEntity
  8
0
  6
Continuous
 62
     7
100
AcDbCircle
 10
313.7327443151
 20
19.9431558946
 30
0.0
 40
1.580546684499998
100
AcDbArc
 50
121.2140948535
 51
141.5254768286
  0
ARC
  5
83
330
3A
100
AcDbEntity
  8
0
  6
Continuous
 62
     7
100
AcDbCircle
 10
314.3099186807
 20
20.7542132232
 30
0.0
 40
0.8661276051999998
100
AcDbArc
 50
222.7760387596
 51
239.0362434679
  0
ARC
  5
84
330
3A
100
AcDbEntity
  8
0
  6
Continuous
 62
     7
100
AcDbCircle
 10
311.8032091024
 20
13.4239410246
 30
0.0
 40
6.858773576299999
100
AcDbArc
 50
59.90202725600001
 51
68.2036481279
  0
ARC
  5
85
330
3A
100
AcDbEntity
  8
0
  6
Continuous
 62
     7
100
AcDbCircle
 10
315.2117035963
 20
22.3498275319
 30
0.0
 40
2.698741017099999
100
AcDbArc
 50
240.0481997804
 51
251.3779673736999
  0
ARC
  5
86
330
3A
100
AcDbEntity
  8
0
  6
Continuous
 62
     7
100
AcDbCircle
 10
314.5462464295
 20
18.1929289165
 30
0.0
 40
1.4334474881
100
AcDbArc
 50
315.8904553224
 51
333.5229264373
  0
ARC
  5
87
330
3A
100
AcDbEntity
  8
0
  6
Continuous
 62
     7
100
AcDbCircle
 10
314.5508846732
 20
18.1395217664
 30
0.0
 40
1.406228711899998
100
AcDbArc
 50
335.3867972702
 51
24.3915119402
  0
ARC
  5
88
330
3A
100
AcDbEntity
  8
0
  6
Continuous
 62
     7
100
AcDbCircle
 10
314.4786797697
 20
18.0616650746
 30
0.0
 40
1.504702514799999
100
AcDbArc
 50
25.95629166050001
 51
59.4834829668
  0
LINE
  5
89
330
3A
100
AcDbEntity
  8
0
  6
Continuous
 62
     7
100
AcDbLine
 10
284.7029938783
 20
16.8387078159
 30
0.0
 11
284.7029938783
 21
17.7893616325
 31
0.0
  0
LINE
  5
8A
330
3A
100
AcDbEntity
  8
0
  6
Continuous
 62
     7
100
AcDbLine
 10
288.0302822366
 20
20.49872501
 30
0.0
 11
288.0302822366
 21
21.4493788266
 31
0.0
  0
ARC
  5
8B
330
3A
100
AcDbEntity
  8
0
  6
Continuous
 62
     7
100
AcDbCircle
 10
286.4076350033
 20
18.7008009792
 30
0.0
 40
1.111619360599997
100
AcDbArc
 50
277.7099956934
 51
295.6884927746
  0
ARC
  5
8C
330
3A
100
AcDbEntity
  8
0
  6
Continuous
 62
     7
100
AcDbCircle
 10
286.691944986
 20
17.9759752156
 30
0.0
 40
0.3401689265
100
AcDbArc
 50
305.5032212556
 51
72.4652898515
  0
ARC
  5
8D
330
3A
100
AcDbEntity
  8
0
  6
Continuous
 62
     7
100
AcDbCircle
 10
286.1259511779
 20
21.3776821252
 30
0.0
 40
4.756794641099999
100
AcDbArc
 50
252.5939200545
 51
280.9816604253
  0
ARC
  5
8E
330
3A
100
AcDbEntity
  8
0
  6
Continuous
 62
     7
100
AcDbCircle
 10
286.580786541
 20
18.7596683887
 30
0.0
 40
2.100726595299998
100
AcDbArc
 50
282.4058358513
 51
311.8644433923
  0
ARC
  5
8F
330
3A
100
AcDbEntity
  8
0
  6
Continuous
 62
     7
100
AcDbCircle
 10
286.3072221939
 20
20.3680101102
 30
0.0
 40
0.3029626476
100
AcDbArc
 50
154.4400348282
 51
221.8201698801
  0
ARC
  5
90
330
3A
100
AcDbEntity
  8
0
  6
Continuous
 62
     7
100
AcDbCircle
 10
286.3864433453
 20
20.2887889588
 30
0.0
 40
0.4103089737
100
AcDbArc
 50
102.8287828727
 51
149.2259639027
  0
ARC
  5
91
330
3A
100
AcDbEntity
  8
0
  6
Continuous
 62
     7
100
AcDbCircle
 10
286.8034701809
 20
18.546453629
 30
0.0
 40
2.201836557
100
AcDbArc
 50
84.0400061859
 51
103.3427657872
  0
ARC
  5
92
330
3A
100
AcDbEntity
  8
0
  6
Continuous
 62
     7
100
AcDbCircle
 10
286.4625063562
 20
16.1290897051
 30
0.0
 40
4.642373736499997
100
AcDbArc
 50
70.2625858546
 51
82.9524186379
  0
ARC
  5
93
330
3A
100
AcDbEntity
  8
0
  6
Continuous
 62
     7
100
AcDbCircle
 10
285.948488154
 20
20.8007125947
 30
0.0
 40
3.258755990899997
100
AcDbArc
 50
247.5300206148
 51
280.7579522145
  0
ARC
  5
94
330
3A
100
AcDbEntity
  8
0
  6
Continuous
 62
     7
100
AcDbCircle
 10
279.563521682
 20
2.5491926343
 30
0.0
 40
17.3316084133
100
AcDbArc
 50
65.34146746500001
 51
67.39977707359999
  0
ARC
  5
95
330
3A
100
AcDbEntity
  8
0
  6
Continuous
 62
     7
100
AcDbCircle
 10
290.3593840874
 20
28.3416189974
 30
0.0
 40
10.6291642039
100
AcDbArc
 50
242.8620101252001
 51
247.1042029185
  0
ARC
  5
96
330
3A
100
AcDbEntity
  8
0
  6
Continuous
 62
     7
100
AcDbCircle
 10
286.5044828608
 20
20.8076875004
 30
0.0
 40
2.166291629199998
100
AcDbArc
 50
227.3119280794
 51
242.7040315235
  0
ARC
  5
97
330
3A
100
AcDbEntity
  8
0
  6
Continuous
 62
     7
100
AcDbCircle
 10
285.9004520512
 20
20.1020098596
 30
0.0
 40
1.238521734
100
AcDbArc
 50
194.7952194234
 51
225.7176549042
  0
ARC
  5
98
330
3A
100
AcDbEntity
  8
0
  6
Continuous
 62
     7
100
AcDbCircle
 10
286.519633906
 20
19.2539626688
 30
0.0
 40
2.366924815299999
100
AcDbArc
 50
86.22180229280001
 51
120.4272602309
  0
ARC
  5
99
330
3A
100
AcDbEntity
  8
0
  6
Continuous
 62
     7
100
AcDbCircle
 10
286.2507771235
 20
12.5577948477
 30
0.0
 40
9.0679051661
100
AcDbArc
 50
78.68270492259998
 51
87.3147599624
  0
ARC
  5
9A
330
3A
100
AcDbEntity
  8
0
  6
Continuous
 62
     7
100
AcDbCircle
 10
286.1400172867
 20
19.9431558946
 30
0.0
 40
1.580546684599998
100
AcDbArc
 50
121.2140948541
 51
141.525476829
  0
ARC
  5
9B
330
3A
100
AcDbEntity
  8
0
  6
Continuous
 62
     7
100
AcDbCircle
 10
286.7171916523
 20
20.7542132232
 30
0.0
 40
0.8661276051999998
100
AcDbArc
 50
222.7760387596
 51
239.0362434679
  0
ARC
  5
9C
330
3A
100
AcDbEntity
  8
0
  6
Continuous
 62
     7
100
AcDbCircle
 10
284.210482074
 20
13.4239410246
 30
0.0
 40
6.858773576299999
100
AcDbArc
 50
59.90202725620001
 51
68.20364812820002
  0
ARC
  5
9D
330
3A
100
AcDbEntity
  8
0
  6
Continuous
 62
     7
100
AcDbCircle
 10
287.6189765678
 20
22.3498275319
 30
0.0
 40
2.698741017099999
100
AcDbArc
 50
240.0481997804
 51
251.3779673734
  0
ARC
  5
9E
330
3A
100
AcDbEntity
  8
0
  6
Continuous
 62
     7
100
AcDbCircle
 10
286.953519401
 20
18.1929289165
 30
0.0
 40
1.4334474881
100
AcDbArc
 50
315.8904553226
 51
333.5229264375
  0
ARC
  5
9F
330
3A
100
AcDbEntity
  8
0
  6
Continuous
 62
     7
100
AcDbCircle
 10
286.9581576447
 20
18.1395217664
 30
0.0
 40
1.406228711899998
100
AcDbArc
 50
335.3867972703
 51
24.3915119403
  0
ARC
  5
A0
330
3A
100
AcDbEntity
  8
0
  6
Continuous
 62
     7
100
AcDbCircle
 10
286.8859527412
 20
18.0616650746
 30
0.0
 40
1.504702514699999
100
AcDbArc
 50
25.9562916611
 51
59.4834829676
  0
LINE
  5
A1
330
3A
100
AcDbEntity
  8
0
  6
Continuous
 62
     7
100
AcDbLine
 10
284.8948224676
 20
20.9161059766
 30
0.0
 11
285.1688882922
 21
21.1901790542
 31
0.0
  0
ARC
  5
A2
330
3A
100
AcDbEntity
  8
0
  6
Continuous
 62
     7
100
AcDbCircle
 10
285.9626101853
 20
20.1422298287
 30
0.0
 40
1.309092072899999
100
AcDbArc
 50
164.1974860461
 51
195.8025139539
  0
ARC
  5
A3
330
3A
100
AcDbEntity
  8
0
  6
Continuous
 62
     7
100
AcDbCircle
 10
285.7947079451
 20
20.2497375912
 30
0.0
 40
1.119747444
100
AcDbArc
 50
142.813917903
 51
167.1522951417
  0
ENDBLK
  5
A4
330
3A
100
AcDbEntity
  8
0
100
AcDbBlockEnd
  0
BLOCK
  5
BED6
330
BECB
100
AcDbEntity
  8
0
100
AcDbBlockBegin
  2
*D1
 70
     1
 10
0.0
 20
0.0
 30
0.0
  3
*D1
  1

  0
LINE
  5
C5AF
330
BECB
100
AcDbEntity
  8
10100_FRONT_DIM
  6
Continuous
 62
     7
370
    -2
100
AcDbLine
 10
28.9047825023237
 20
720.7330449272181
 30
0.0
 11
28.9047825023237
 21
747.1318549272183
 31
0.0
  0
LINE
  5
C5B0
330
BECB
100
AcDbEntity
  8
10100_FRONT_DIM
  6
Continuous
 62
     7
370
    -2
100
AcDbLine
 10
-37.0952144976763
 20
720.7330449272181
 30
0.0
 11
-37.0952144976763
 21
747.1318549272183
 31
0.0
  0
LINE
  5
C5B1
330
BECB
100
AcDbEntity
  8
10100_FRONT_DIM
  6
Continuous
370
    -2
100
AcDbLine
 10
25.4047825023237
 20
745.1318549272183
 30
0.0
 11
0.3214521689903709
 21
745.1318549272183
 31
0.0
  0
LINE
  5
C5B2
330
BECB
100
AcDbEntity
  8
10100_FRONT_DIM
  6
Continuous
370
    -2
100
AcDbLine
 10
-33.5952144976763
 20
745.1318549272183
 30
0.0
 11
-8.511881164342961
 21
745.1318549272183
 31
0.0
  0
MTEXT
  5
C5B3
330
BECB
100
AcDbEntity
  8
10100_FRONT_DIM
  6
Continuous
 62
     7
370
    13
100
AcDbMText
 10
-4.095214497676295
 20
745.0313134056626
 30
0.0
 40
3.5
 41
0.0
 71
     5
 72
     1
  1
\A1;66
 73
     1
 44
1.0
1001
ACAD
1000
MTEXTBEGIN
1070
    73
1070
     1
1070
    44
1040
1.0
1070
    74
1070
     0
1000
MTEXTEND
  0
SOLID
  5
C5B4
330
BECB
100
AcDbEntity
  8
10100_FRONT_DIM
  6
Continuous
100
AcDbTrace
 10
25.4047825023237
 20
745.7151882605517
 30
0.0
 11
25.4047825023237
 21
744.5485215938848
 31
0.0
 12
28.9047825023237
 22
745.1318549272183
 32
0.0
 13
28.9047825023237
 23
745.1318549272183
 33
0.0
  0
SOLID
  5
C5B5
330
BECB
100
AcDbEntity
  8
10100_FRONT_DIM
  6
Continuous
100
AcDbTrace
 10
-33.5952144976763
 20
745.7151882605517
 30
0.0
 11
-33.5952144976763
 21
744.5485215938848
 31
0.0
 12
-37.0952144976763
 22
745.1318549272183
 32
0.0
 13
-37.0952144976763
 23
745.1318549272183
 33
0.0
  0
POINT
  5
C5B6
330
BECB
100
AcDbEntity
  8
Defpoints
  6
Continuous
 62
     0
100
AcDbPoint
 10
28.9047825023237
 20
720.7330449272181
 30
0.0
  0
POINT
  5
C5B7
330
BECB
100
AcDbEntity
  8
Defpoints
  6
Continuous
 62
     0
100
AcDbPoint
 10
-37.0952144976763
 20
720.7330449272181
 30
0.0
  0
POINT
  5
C5B8
330
BECB
100
AcDbEntity
  8
Defpoints
  6
Continuous
 62
     0
100
AcDbPoint
 10
-37.0952144976763
 20
745.1318549272183
 30
0.0
  0
ENDBLK
  5
BED7
330
BECB
100
AcDbEntity
  8
0
100
AcDbBlockEnd
  0
BLOCK
  5
BEE3
330
BED8
100
AcDbEntity
  8
0
100
AcDbBlockBegin
  2
*D2
 70
     1
 10
0.0
 20
0.0
 30
0.0
  3
*D2
  1

  0
LINE
  5
C5A5
330
BED8
100
AcDbEntity
  8
10100_FRONT_DIM
  6
Continuous
 62
     7
370
    -2
100
AcDbLine
 10
-34.0952144976763
 20
657.7330449272184
 30
0.0
 11
-55.28238749767631
 21
657.7330449272184
 31
0.0
  0
LINE
  5
C5A6
330
BED8
100
AcDbEntity
  8
10100_FRONT_DIM
  6
Continuous
 62
     7
370
    -2
100
AcDbLine
 10
-34.0952144976763
 20
723.7330449272183
 30
0.0
 11
-55.28238749767629
 21
723.7330449272183
 31
0.0
  0
LINE
  5
C5A7
330
BED8
100
AcDbEntity
  8
10100_FRONT_DIM
  6
Continuous
370
    -2
100
AcDbLine
 10
-53.2823874976763
 20
661.2330449272184
 30
0.0
 11
-53.2823874976763
 21
686.3163782605518
 31
0.0
  0
LINE
  5
C5A8
330
BED8
100
AcDbEntity
  8
10100_FRONT_DIM
  6
Continuous
370
    -2
100
AcDbLine
 10
-53.28238749767629
 20
720.2330449272182
 30
0.0
 11
-53.2823874976763
 21
695.149711593885
 31
0.0
  0
MTEXT
  5
C5A9
330
BED8
100
AcDbEntity
  8
10100_FRONT_DIM
  6
Continuous
 62
     7
370
    13
100
AcDbMText
 10
-53.14426960605203
 20
690.7330449272182
 30
0.0
 40
3.5
 41
0.0
 71
     5
 72
     1
  1
\A1;66
 11
0.0000000000000001
 21
1.0
 31
0.0
 73
     1
 44
1.0
1001
ACAD
1000
MTEXTBEGIN
1070
    73
1070
     1
1070
    44
1040
1.0
1070
    74
1070
     0
1000
MTEXTEND
  0
SOLID
  5
C5AA
330
BED8
100
AcDbEntity
  8
10100_FRONT_DIM
  6
Continuous
100
AcDbTrace
 10
-53.86572083100964
 20
661.2330449272184
 30
0.0
 11
-52.69905416434297
 21
661.2330449272184
 31
0.0
 12
-53.2823874976763
 22
657.7330449272184
 32
0.0
 13
-53.2823874976763
 23
657.7330449272184
 33
0.0
  0
SOLID
  5
C5AB
330
BED8
100
AcDbEntity
  8
10100_FRONT_DIM
  6
Continuous
100
AcDbTrace
 10
-53.86572083100961
 20
720.2330449272182
 30
0.0
 11
-52.69905416434295
 21
720.2330449272182
 31
0.0
 12
-53.28238749767629
 22
723.7330449272183
 32
0.0
 13
-53.28238749767629
 23
723.7330449272183
 33
0.0
  0
POINT
  5
C5AC
330
BED8
100
AcDbEntity
  8
Defpoints
  6
Continuous
 62
     0
100
AcDbPoint
 10
-34.0952144976763
 20
657.7330449272184
 30
0.0
  0
POINT
  5
C5AD
330
BED8
100
AcDbEntity
  8
Defpoints
  6
Continuous
 62
     0
100
AcDbPoint
 10
-34.0952144976763
 20
723.7330449272183
 30
0.0
  0
POINT
  5
C5AE
330
BED8
100
AcDbEntity
  8
Defpoints
  6
Continuous
 62
     0
100
AcDbPoint
 10
-53.28238749767629
 20
723.7330449272183
 30
0.0
  0
ENDBLK
  5
BEE4
330
BED8
100
AcDbEntity
  8
0
100
AcDbBlockEnd
  0
BLOCK
  5
C06C
330
C061
100
AcDbEntity
  8
0
100
AcDbBlockBegin
  2
*D3
 70
     1
 10
0.0
 20
0.0
 30
0.0
  3
*D3
  1

  0
LINE
  5
C563
330
C061
100
AcDbEntity
  8
11100_LEFT_DIM
  6
Continuous
 62
     7
370
    -2
100
AcDbLine
 10
273.192505882299
 20
742.5867173629527
 30
0.0
 11
273.192505882299
 21
750.1365879506493
 31
0.0
  0
LINE
  5
C564
330
C061
100
AcDbEntity
  8
11100_LEFT_DIM
  6
Continuous
 62
     7
370
    -2
100
AcDbLine
 10
309.392505882299
 20
697.1667173629525
 30
0.0
 11
309.392505882299
 21
750.1365879506493
 31
0.0
  0
LINE
  5
C565
330
C061
100
AcDbEntity
  8
11100_LEFT_DIM
  6
Continuous
370
    -2
100
AcDbLine
 10
276.6925058822991
 20
748.1365879506491
 30
0.0
 11
286.8758392156323
 21
748.1365879506491
 31
0.0
  0
LINE
  5
C566
330
C061
100
AcDbEntity
  8
11100_LEFT_DIM
  6
Continuous
370
    -2
100
AcDbLine
 10
305.8925058822989
 20
748.1365879506491
 30
0.0
 11
295.7091725489657
 21
748.1365879506491
 31
0.0
  0
SOLID
  5
C567
330
C061
100
AcDbEntity
  8
11100_LEFT_DIM
  6
Continuous
100
AcDbTrace
 10
276.6925058822991
 20
748.7199212839827
 30
0.0
 11
276.6925058822991
 21
747.5532546173156
 31
0.0
 12
273.192505882299
 22
748.1365879506491
 32
0.0
 13
273.192505882299
 23
748.1365879506491
 33
0.0
  0
SOLID
  5
C568
330
C061
100
AcDbEntity
  8
11100_LEFT_DIM
  6
Continuous
100
AcDbTrace
 10
305.8925058822989
 20
748.7199212839827
 30
0.0
 11
305.8925058822989
 21
747.5532546173156
 31
0.0
 12
309.392505882299
 22
748.1365879506491
 32
0.0
 13
309.392505882299
 23
748.1365879506491
 33
0.0
  0
MTEXT
  5
C569
330
C061
100
AcDbEntity
  8
11100_LEFT_DIM
  6
Continuous
 62
     7
370
    13
100
AcDbMText
 10
291.292505882299
 20
748.1365879506491
 30
0.0
 40
3.5
 41
0.0
 71
     5
 72
     1
  1
\A1;36
 73
     1
 44
1.0
1001
ACAD
1000
MTEXTBEGIN
1070
    73
1070
     1
1070
    44
1040
1.0
1070
    74
1070
     0
1000
MTEXTEND
  0
POINT
  5
C56A
330
C061
100
AcDbEntity
  8
Defpoints
  6
Continuous
 62
     0
100
AcDbPoint
 10
273.192505882299
 20
742.5867173629527
 30
0.0
  0
POINT
  5
C56B
330
C061
100
AcDbEntity
  8
Defpoints
  6
Continuous
 62
     0
100
AcDbPoint
 10
309.392505882299
 20
697.1667173629525
 30
0.0
  0
POINT
  5
C56C
330
C061
100
AcDbEntity
  8
Defpoints
  6
Continuous
 62
     0
100
AcDbPoint
 10
309.392505882299
 20
748.1365879506491
 30
0.0
  0
ENDBLK
  5
C06D
330
C061
100
AcDbEntity
  8
0
100
AcDbBlockEnd
  0
BLOCK
  5
C078
330
C06E
100
AcDbEntity
  8
0
100
AcDbBlockBegin
  2
*D4
 70
     1
 10
0.0
 20
0.0
 30
0.0
  3
*D4
  1

  0
LINE
  5
C56D
330
C06E
100
AcDbEntity
  8
11100_LEFT_DIM
  6
Continuous
 62
     7
370
    -2
100
AcDbLine
 10
104.9996859722988
 20
673.083515082791
 30
0.0
 11
104.9996859722988
 21
631.7941980610078
 31
0.0
  0
LINE
  5
C56E
330
C06E
100
AcDbEntity
  8
11100_LEFT_DIM
  6
Continuous
 62
     7
370
    -2
100
AcDbLine
 10
271.1838749722988
 20
638.3170634057409
 30
0.0
 11
271.1838749722988
 21
631.7941980610078
 31
0.0
  0
LINE
  5
C56F
330
C06E
100
AcDbEntity
  8
11100_LEFT_DIM
  6
Continuous
370
    -2
100
AcDbLine
 10
108.4996859722989
 20
633.7941980610078
 30
0.0
 11
267.6838749722989
 21
633.7941980610078
 31
0.0
  0
SOLID
  5
C570
330
C06E
100
AcDbEntity
  8
11100_LEFT_DIM
  6
Continuous
100
AcDbTrace
 10
108.4996859722989
 20
634.3775313943413
 30
0.0
 11
108.4996859722989
 21
633.2108647276744
 31
0.0
 12
104.9996859722988
 22
633.7941980610078
 32
0.0
 13
104.9996859722988
 23
633.7941980610078
 33
0.0
  0
SOLID
  5
C571
330
C06E
100
AcDbEntity
  8
11100_LEFT_DIM
  6
Continuous
100
AcDbTrace
 10
267.6838749722989
 20
634.3775313943413
 30
0.0
 11
267.6838749722989
 21
633.2108647276744
 31
0.0
 12
271.1838749722988
 22
633.7941980610078
 32
0.0
 13
271.1838749722988
 23
633.7941980610078
 33
0.0
  0
MTEXT
  5
C572
330
C06E
100
AcDbEntity
  8
11100_LEFT_DIM
  6
Continuous
 62
     7
370
    13
100
AcDbMText
 10
188.0917804722988
 20
636.0441980610078
 30
0.0
 40
3.5
 41
0.0
 71
     5
 72
     1
  1
\A1;max. 380
 73
     1
 44
1.0
1001
ACAD
1000
MTEXTBEGIN
1070
    73
1070
     1
1070
    44
1040
1.0
1070
    74
1070
     0
1000
MTEXTEND
  0
POINT
  5
C573
330
C06E
100
AcDbEntity
  8
Defpoints
  6
Continuous
 62
     0
100
AcDbPoint
 10
104.9996859722988
 20
673.083515082791
 30
0.0
  0
POINT
  5
C574
330
C06E
100
AcDbEntity
  8
Defpoints
  6
Continuous
 62
     0
100
AcDbPoint
 10
271.1838749722988
 20
638.3170634057409
 30
0.0
  0
POINT
  5
C575
330
C06E
100
AcDbEntity
  8
Defpoints
  6
Continuous
 62
     0
100
AcDbPoint
 10
271.1838749722988
 20
633.7941980610078
 30
0.0
  0
ENDBLK
  5
C079
330
C06E
100
AcDbEntity
  8
0
100
AcDbBlockEnd
  0
BLOCK
  5
C084
330
C07A
100
AcDbEntity
  8
0
100
AcDbBlockBegin
  2
*D5
 70
     1
 10
0.0
 20
0.0
 30
0.0
  3
*D5
  1

  0
LINE
  5
C576
330
C07A
100
AcDbEntity
  8
11100_LEFT_DIM
  6
Continuous
 62
     7
370
    -2
100
AcDbLine
 10
192.3520499722988
 20
697.4063357468907
 30
0.0
 11
192.3520499722988
 21
750.1365879506493
 31
0.0
  0
LINE
  5
C577
330
C07A
100
AcDbEntity
  8
11100_LEFT_DIM
  6
Continuous
 62
     7
370
    -2
100
AcDbLine
 10
271.183874972299
 20
742.8499655418585
 30
0.0
 11
271.183874972299
 21
750.1365879506493
 31
0.0
  0
LINE
  5
C578
330
C07A
100
AcDbEntity
  8
11100_LEFT_DIM
  6
Continuous
370
    -2
100
AcDbLine
 10
195.8520499722988
 20
748.1365879506491
 30
0.0
 11
267.6838749722989
 21
748.1365879506491
 31
0.0
  0
SOLID
  5
C579
330
C07A
100
AcDbEntity
  8
11100_LEFT_DIM
  6
Continuous
100
AcDbTrace
 10
195.8520499722988
 20
748.7199212839827
 30
0.0
 11
195.8520499722988
 21
747.5532546173156
 31
0.0
 12
192.3520499722988
 22
748.1365879506491
 32
0.0
 13
192.3520499722988
 23
748.1365879506491
 33
0.0
  0
SOLID
  5
C57A
330
C07A
100
AcDbEntity
  8
11100_LEFT_DIM
  6
Continuous
100
AcDbTrace
 10
267.6838749722989
 20
748.7199212839827
 30
0.0
 11
267.6838749722989
 21
747.5532546173156
 31
0.0
 12
271.183874972299
 22
748.1365879506491
 32
0.0
 13
271.183874972299
 23
748.1365879506491
 33
0.0
  0
MTEXT
  5
C57B
330
C07A
100
AcDbEntity
  8
11100_LEFT_DIM
  6
Continuous
 62
     7
370
    13
100
AcDbMText
 10
231.7679624722989
 20
750.386587950649
 30
0.0
 40
3.5
 41
0.0
 71
     5
 72
     1
  1
\A1;79
 73
     1
 44
1.0
1001
ACAD
1000
MTEXTBEGIN
1070
    73
1070
     1
1070
    44
1040
1.0
1070
    74
1070
     0
1000
MTEXTEND
  0
POINT
  5
C57C
330
C07A
100
AcDbEntity
  8
Defpoints
  6
Continuous
 62
     0
100
AcDbPoint
 10
192.3520499722988
 20
697.4063357468907
 30
0.0
  0
POINT
  5
C57D
330
C07A
100
AcDbEntity
  8
Defpoints
  6
Continuous
 62
     0
100
AcDbPoint
 10
271.183874972299
 20
742.8499655418585
 30
0.0
  0
POINT
  5
C57E
330
C07A
100
AcDbEntity
  8
Defpoints
  6
Continuous
 62
     0
100
AcDbPoint
 10
271.183874972299
 20
748.1365879506491
 30
0.0
  0
ENDBLK
  5
C085
330
C07A
100
AcDbEntity
  8
0
100
AcDbBlockEnd
  0
BLOCK
  5
C090
330
C086
100
AcDbEntity
  8
0
100
AcDbBlockBegin
  2
*D6
 70
     1
 10
0.0
 20
0.0
 30
0.0
  3
*D6
  1

  0
LINE
  5
C57F
330
C086
100
AcDbEntity
  8
11100_LEFT_DIM
  6
Continuous
 62
     7
370
    -2
100
AcDbLine
 10
115.6424859722988
 20
718.0905750827911
 30
0.0
 11
78.96848567351629
 21
718.0905750827911
 31
0.0
  0
LINE
  5
C580
330
C086
100
AcDbEntity
  8
11100_LEFT_DIM
  6
Continuous
 62
     7
370
    -2
100
AcDbLine
 10
115.9996859722988
 20
663.0835150827912
 30
0.0
 11
78.96848567351629
 21
663.0835150827912
 31
0.0
  0
LINE
  5
C581
330
C086
100
AcDbEntity
  8
11100_LEFT_DIM
  6
Continuous
370
    -2
100
AcDbLine
 10
80.9684856735163
 20
714.5905750827911
 30
0.0
 11
80.96848567351628
 21
666.5835150827912
 31
0.0
  0
SOLID
  5
C582
330
C086
100
AcDbEntity
  8
11100_LEFT_DIM
  6
Continuous
100
AcDbTrace
 10
80.38515234018296
 20
714.5905750827911
 30
0.0
 11
81.55181900684963
 21
714.5905750827911
 31
0.0
 12
80.9684856735163
 22
718.0905750827911
 32
0.0
 13
80.9684856735163
 23
718.0905750827911
 33
0.0
  0
SOLID
  5
C583
330
C086
100
AcDbEntity
  8
11100_LEFT_DIM
  6
Continuous
100
AcDbTrace
 10
80.38515234018296
 20
666.5835150827912
 30
0.0
 11
81.55181900684961
 21
666.5835150827912
 31
0.0
 12
80.96848567351628
 22
663.0835150827912
 32
0.0
 13
80.96848567351628
 23
663.0835150827912
 33
0.0
  0
MTEXT
  5
C584
330
C086
100
AcDbEntity
  8
11100_LEFT_DIM
  6
Continuous
 62
     7
370
    13
100
AcDbMText
 10
78.71848567351618
 20
690.5870450827912
 30
0.0
 40
3.5
 41
0.0
 71
     5
 72
     1
  1
\A1;55
 11
0.0000000000000001
 21
1.0
 31
0.0
 73
     1
 44
1.0
1001
ACAD
1000
MTEXTBEGIN
1070
    73
1070
     1
1070
    44
1040
1.0
1070
    74
1070
     0
1000
MTEXTEND
  0
POINT
  5
C585
330
C086
100
AcDbEntity
  8
Defpoints
  6
Continuous
 62
     0
100
AcDbPoint
 10
115.6424859722988
 20
718.0905750827911
 30
0.0
  0
POINT
  5
C586
330
C086
100
AcDbEntity
  8
Defpoints
  6
Continuous
 62
     0
100
AcDbPoint
 10
115.9996859722988
 20
663.0835150827912
 30
0.0
  0
POINT
  5
C587
330
C086
100
AcDbEntity
  8
Defpoints
  6
Continuous
 62
     0
100
AcDbPoint
 10
80.96848567351628
 20
663.0835150827912
 30
0.0
  0
ENDBLK
  5
C091
330
C086
100
AcDbEntity
  8
0
100
AcDbBlockEnd
  0
BLOCK
  5
C09C
330
C092
100
AcDbEntity
  8
0
100
AcDbBlockBegin
  2
*D7
 70
     1
 10
0.0
 20
0.0
 30
0.0
  3
*D7
  1

  0
LINE
  5
C588
330
C092
100
AcDbEntity
  8
11100_LEFT_DIM
  6
Continuous
 62
     7
370
    -2
100
AcDbLine
 10
103.9996859722988
 20
690.5835150827908
 30
0.0
 11
88.12688045875333
 21
690.5835150827908
 31
0.0
  0
LINE
  5
C589
330
C092
100
AcDbEntity
  8
11100_LEFT_DIM
  6
Continuous
 62
     7
370
    -2
100
AcDbLine
 10
112.0096859722988
 20
734.593515082791
 30
0.0
 11
88.12688045875333
 21
734.593515082791
 31
0.0
  0
LINE
  5
C58A
330
C092
100
AcDbEntity
  8
11100_LEFT_DIM
  6
Continuous
370
    -2
100
AcDbLine
 10
90.12688045875334
 20
694.083515082791
 30
0.0
 11
90.12688045875334
 21
731.0935150827909
 31
0.0
  0
SOLID
  5
C58B
330
C092
100
AcDbEntity
  8
11100_LEFT_DIM
  6
Continuous
100
AcDbTrace
 10
89.54354712542002
 20
694.083515082791
 30
0.0
 11
90.71021379208669
 21
694.083515082791
 31
0.0
 12
90.12688045875334
 22
690.5835150827908
 32
0.0
 13
90.12688045875334
 23
690.5835150827908
 33
0.0
  0
SOLID
  5
C58C
330
C092
100
AcDbEntity
  8
11100_LEFT_DIM
  6
Continuous
100
AcDbTrace
 10
89.54354712542002
 20
731.0935150827909
 30
0.0
 11
90.71021379208669
 21
731.0935150827909
 31
0.0
 12
90.12688045875334
 22
734.593515082791
 32
0.0
 13
90.12688045875334
 23
734.593515082791
 33
0.0
  0
MTEXT
  5
C58D
330
C092
100
AcDbEntity
  8
11100_LEFT_DIM
  6
Continuous
 62
     7
370
    13
100
AcDbMText
 10
87.87688045875325
 20
712.588515082791
 30
0.0
 40
3.5
 41
0.0
 71
     5
 72
     1
  1
\A1;44
 11
0.0000000000000001
 21
1.0
 31
0.0
 73
     1
 44
1.0
1001
ACAD
1000
MTEXTBEGIN
1070
    73
1070
     1
1070
    44
1040
1.0
1070
    74
1070
     0
1000
MTEXTEND
  0
POINT
  5
C58E
330
C092
100
AcDbEntity
  8
Defpoints
  6
Continuous
 62
     0
100
AcDbPoint
 10
103.9996859722988
 20
690.5835150827908
 30
0.0
  0
POINT
  5
C58F
330
C092
100
AcDbEntity
  8
Defpoints
  6
Continuous
 62
     0
100
AcDbPoint
 10
112.0096859722988
 20
734.593515082791
 30
0.0
  0
POINT
  5
C590
330
C092
100
AcDbEntity
  8
Defpoints
  6
Continuous
 62
     0
100
AcDbPoint
 10
90.12688045875334
 20
734.593515082791
 30
0.0
  0
ENDBLK
  5
C09D
330
C092
100
AcDbEntity
  8
0
100
AcDbBlockEnd
  0
BLOCK
  5
C0AA
330
C09E
100
AcDbEntity
  8
0
100
AcDbBlockBegin
  2
*D8
 70
     1
 10
0.0
 20
0.0
 30
0.0
  3
*D8
  1

  0
LINE
  5
C591
330
C09E
100
AcDbEntity
  8
11100_LEFT_DIM
  6
Continuous
 62
     7
370
    -2
100
AcDbLine
 10
99.99968597229887
 20
724.5835150827908
 30
0.0
 11
99.99968597229887
 21
750.1365879506493
 31
0.0
  0
LINE
  5
C592
330
C09E
100
AcDbEntity
  8
11100_LEFT_DIM
  6
Continuous
 62
     7
370
    -2
100
AcDbLine
 10
104.9996859722988
 20
708.0835150827908
 30
0.0
 11
104.9996859722988
 21
750.1365879506493
 31
0.0
  0
LINE
  5
C593
330
C09E
100
AcDbEntity
  8
11100_LEFT_DIM
  6
Continuous
370
    -2
100
AcDbLine
 10
96.49968597229886
 20
748.1365879506491
 30
0.0
 11
92.99968597229886
 21
748.1365879506491
 31
0.0
  0
LINE
  5
C594
330
C09E
100
AcDbEntity
  8
11100_LEFT_DIM
  6
Continuous
370
    -2
100
AcDbLine
 10
108.4996859722989
 20
748.1365879506491
 30
0.0
 11
111.9996859722989
 21
748.1365879506491
 31
0.0
  0
LINE
  5
C595
330
C09E
100
AcDbEntity
  8
11100_LEFT_DIM
  6
Continuous
370
    -2
100
AcDbLine
 10
99.99968597229887
 20
748.1365879506491
 30
0.0
 11
104.9996859722988
 21
748.1365879506491
 31
0.0
  0
SOLID
  5
C596
330
C09E
100
AcDbEntity
  8
11100_LEFT_DIM
  6
Continuous
100
AcDbTrace
 10
96.49968597229886
 20
748.7199212839827
 30
0.0
 11
96.49968597229886
 21
747.5532546173156
 31
0.0
 12
99.99968597229887
 22
748.1365879506491
 32
0.0
 13
99.99968597229887
 23
748.1365879506491
 33
0.0
  0
SOLID
  5
C597
330
C09E
100
AcDbEntity
  8
11100_LEFT_DIM
  6
Continuous
100
AcDbTrace
 10
108.4996859722989
 20
748.7199212839827
 30
0.0
 11
108.4996859722989
 21
747.5532546173156
 31
0.0
 12
104.9996859722988
 22
748.1365879506491
 32
0.0
 13
104.9996859722988
 23
748.1365879506491
 33
0.0
  0
MTEXT
  5
C598
330
C09E
100
AcDbEntity
  8
11100_LEFT_DIM
  6
Continuous
 62
     7
370
    13
100
AcDbMText
 10
102.4996859722989
 20
750.386587950649
 30
0.0
 40
3.5
 41
0.0
 71
     5
 72
     1
  1
\A1;5
 73
     1
 44
1.0
1001
ACAD
1000
MTEXTBEGIN
1070
    73
1070
     1
1070
    44
1040
1.0
1070
    74
1070
     0
1000
MTEXTEND
  0
POINT
  5
C599
330
C09E
100
AcDbEntity
  8
Defpoints
  6
Continuous
 62
     0
100
AcDbPoint
 10
99.99968597229887
 20
724.5835150827908
 30
0.0
  0
POINT
  5
C59A
330
C09E
100
AcDbEntity
  8
Defpoints
  6
Continuous
 62
     0
100
AcDbPoint
 10
104.9996859722988
 20
708.0835150827908
 30
0.0
  0
POINT
  5
C59B
330
C09E
100
AcDbEntity
  8
Defpoints
  6
Continuous
 62
     0
100
AcDbPoint
 10
104.9996859722988
 20
748.1365879506491
 30
0.0
  0
ENDBLK
  5
C0AB
330
C09E
100
AcDbEntity
  8
0
100
AcDbBlockEnd
  0
BLOCK
  5
C0B6
330
C0AC
100
AcDbEntity
  8
0
100
AcDbBlockBegin
  2
*D9
 70
     1
 10
0.0
 20
0.0
 30
0.0
  3
*D9
  1

  0
LINE
  5
C59C
330
C0AC
100
AcDbEntity
  8
11100_LEFT_DIM
  6
Continuous
 62
     7
370
    -2
100
AcDbLine
 10
104.9996859722988
 20
713.5835150827911
 30
0.0
 11
104.9996859722988
 21
750.1365879506493
 31
0.0
  0
LINE
  5
C59D
330
C0AC
100
AcDbEntity
  8
11100_LEFT_DIM
  6
Continuous
 62
     7
370
    -2
100
AcDbLine
 10
162.9996859722988
 20
706.3835150827912
 30
0.0
 11
162.9996859722988
 21
750.1365879506493
 31
0.0
  0
LINE
  5
C59E
330
C0AC
100
AcDbEntity
  8
11100_LEFT_DIM
  6
Continuous
370
    -2
100
AcDbLine
 10
108.4996859722989
 20
748.1365879506491
 30
0.0
 11
159.4996859722988
 21
748.1365879506491
 31
0.0
  0
SOLID
  5
C59F
330
C0AC
100
AcDbEntity
  8
11100_LEFT_DIM
  6
Continuous
100
AcDbTrace
 10
108.4996859722989
 20
748.7199212839827
 30
0.0
 11
108.4996859722989
 21
747.5532546173156
 31
0.0
 12
104.9996859722988
 22
748.1365879506491
 32
0.0
 13
104.9996859722988
 23
748.1365879506491
 33
0.0
  0
SOLID
  5
C5A0
330
C0AC
100
AcDbEntity
  8
11100_LEFT_DIM
  6
Continuous
100
AcDbTrace
 10
159.4996859722988
 20
748.7199212839827
 30
0.0
 11
159.4996859722988
 21
747.5532546173156
 31
0.0
 12
162.9996859722988
 22
748.1365879506491
 32
0.0
 13
162.9996859722988
 23
748.1365879506491
 33
0.0
  0
MTEXT
  5
C5A1
330
C0AC
100
AcDbEntity
  8
11100_LEFT_DIM
  6
Continuous
 62
     7
370
    13
100
AcDbMText
 10
133.9996859722988
 20
750.386587950649
 30
0.0
 40
3.5
 41
0.0
 71
     5
 72
     1
  1
\A1;58
 73
     1
 44
1.0
1001
ACAD
1000
MTEXTBEGIN
1070
    73
1070
     1
1070
    44
1040
1.0
1070
    74
1070
     0
1000
MTEXTEND
  0
POINT
  5
C5A2
330
C0AC
100
AcDbEntity
  8
Defpoints
  6
Continuous
 62
     0
100
AcDbPoint
 10
104.9996859722988
 20
713.5835150827911
 30
0.0
  0
POINT
  5
C5A3
330
C0AC
100
AcDbEntity
  8
Defpoints
  6
Continuous
 62
     0
100
AcDbPoint
 10
162.9996859722988
 20
706.3835150827912
 30
0.0
  0
POINT
  5
C5A4
330
C0AC
100
AcDbEntity
  8
Defpoints
  6
Continuous
 62
     0
100
AcDbPoint
 10
162.9996859722988
 20
748.1365879506491
 30
0.0
  0
ENDBLK
  5
C0B7
330
C0AC
100
AcDbEntity
  8
0
100
AcDbBlockEnd
  0
BLOCK
  5
C11F
330
C114
100
AcDbEntity
  8
0
100
AcDbBlockBegin
  2
*D10
 70
     1
 10
0.0
 20
0.0
 30
0.0
  3
*D10
  1

  0
LINE
  5
C53F
330
C114
100
AcDbEntity
  8
30100_Drilling_DIM
  6
Continuous
 62
     0
370
    -2
100
AcDbLine
 10
68.87219960449403
 20
596.7098552005173
 30
0.0
 11
68.87219960449403
 21
602.6240012665754
 31
0.0
  0
LINE
  5
C540
330
C114
100
AcDbEntity
  8
30100_Drilling_DIM
  6
Continuous
 62
     0
370
    -2
100
AcDbLine
 10
116.872199604494
 20
596.7098552005173
 30
0.0
 11
116.872199604494
 21
602.6240012665754
 31
0.0
  0
LINE
  5
C541
330
C114
100
AcDbEntity
  8
30100_Drilling_DIM
  6
Continuous
 62
     0
370
    -2
100
AcDbLine
 10
72.37219960449403
 20
601.6240012665754
 30
0.0
 11
88.95553293782736
 21
601.6240012665754
 31
0.0
  0
LINE
  5
C542
330
C114
100
AcDbEntity
  8
30100_Drilling_DIM
  6
Continuous
 62
     0
370
    -2
100
AcDbLine
 10
113.372199604494
 20
601.6240012665754
 30
0.0
 11
96.78886627116071
 21
601.6240012665754
 31
0.0
  0
SOLID
  5
C543
330
C114
100
AcDbEntity
  8
30100_Drilling_DIM
  6
Continuous
 62
     0
100
AcDbTrace
 10
72.37219960449403
 20
602.2073345999087
 30
0.0
 11
72.37219960449403
 21
601.040667933242
 31
0.0
 12
68.87219960449403
 22
601.6240012665754
 32
0.0
 13
68.87219960449403
 23
601.6240012665754
 33
0.0
  0
SOLID
  5
C544
330
C114
100
AcDbEntity
  8
30100_Drilling_DIM
  6
Continuous
 62
     0
100
AcDbTrace
 10
113.372199604494
 20
602.2073345999087
 30
0.0
 11
113.372199604494
 21
601.040667933242
 31
0.0
 12
116.872199604494
 22
601.6240012665754
 32
0.0
 13
116.872199604494
 23
601.6240012665754
 33
0.0
  0
MTEXT
  5
C545
330
C114
100
AcDbEntity
  8
30100_Drilling_DIM
  6
Continuous
 62
     0
370
    13
100
AcDbMText
 10
92.87219960449403
 20
601.6240012665754
 30
0.0
 40
3.5
 41
0.0
 71
     5
 72
     1
  1
\A1;48
 73
     1
 44
1.0
1001
ACAD
1000
MTEXTBEGIN
1070
    73
1070
     1
1070
    44
1040
1.0
1070
    74
1070
     0
1000
MTEXTEND
  0
POINT
  5
C546
330
C114
100
AcDbEntity
  8
Defpoints
  6
Continuous
 62
     0
100
AcDbPoint
 10
68.87219960449403
 20
595.7098552005172
 30
0.0
  0
POINT
  5
C547
330
C114
100
AcDbEntity
  8
Defpoints
  6
Continuous
 62
     0
100
AcDbPoint
 10
116.872199604494
 20
595.7098552005172
 30
0.0
  0
POINT
  5
C548
330
C114
100
AcDbEntity
  8
Defpoints
  6
Continuous
 62
     0
100
AcDbPoint
 10
116.872199604494
 20
601.6240012665754
 30
0.0
  0
ENDBLK
  5
C120
330
C114
100
AcDbEntity
  8
0
100
AcDbBlockEnd
  0
BLOCK
  5
C12C
330
C121
100
AcDbEntity
  8
0
100
AcDbBlockBegin
  2
*D11
 70
     1
 10
0.0
 20
0.0
 30
0.0
  3
*D11
  1

  0
LINE
  5
C549
330
C121
100
AcDbEntity
  8
30100_Drilling_DIM
  6
Continuous
 62
     0
370
    -2
100
AcDbLine
 10
65.62219960449403
 20
593.4598552005172
 30
0.0
 11
58.48495922935736
 21
593.4598552005172
 31
0.0
  0
LINE
  5
C54A
330
C121
100
AcDbEntity
  8
30100_Drilling_DIM
  6
Continuous
 62
     0
370
    -2
100
AcDbLine
 10
65.62219960449403
 20
545.4598552005173
 30
0.0
 11
58.48495922935735
 21
545.4598552005173
 31
0.0
  0
LINE
  5
C54B
330
C121
100
AcDbEntity
  8
30100_Drilling_DIM
  6
Continuous
 62
     0
370
    -2
100
AcDbLine
 10
59.48495922935735
 20
589.9598552005172
 30
0.0
 11
59.48495922935735
 21
573.3765218671837
 31
0.0
  0
LINE
  5
C54C
330
C121
100
AcDbEntity
  8
30100_Drilling_DIM
  6
Continuous
 62
     0
370
    -2
100
AcDbLine
 10
59.48495922935735
 20
548.9598552005173
 30
0.0
 11
59.48495922935735
 21
565.5431885338506
 31
0.0
  0
SOLID
  5
C54D
330
C121
100
AcDbEntity
  8
30100_Drilling_DIM
  6
Continuous
 62
     0
100
AcDbTrace
 10
58.901625896024
 20
589.9598552005172
 30
0.0
 11
60.06829256269067
 21
589.9598552005172
 31
0.0
 12
59.48495922935736
 22
593.4598552005172
 32
0.0
 13
59.48495922935736
 23
593.4598552005172
 33
0.0
  0
SOLID
  5
C54E
330
C121
100
AcDbEntity
  8
30100_Drilling_DIM
  6
Continuous
 62
     0
100
AcDbTrace
 10
58.901625896024
 20
548.9598552005173
 30
0.0
 11
60.06829256269067
 21
548.9598552005173
 31
0.0
 12
59.48495922935735
 22
545.4598552005173
 32
0.0
 13
59.48495922935735
 23
545.4598552005173
 33
0.0
  0
MTEXT
  5
C54F
330
C121
100
AcDbEntity
  8
30100_Drilling_DIM
  6
Continuous
 62
     0
370
    13
100
AcDbMText
 10
59.48495922935726
 20
569.4598552005173
 30
0.0
 40
3.5
 41
0.0
 71
     5
 72
     1
  1
\A1;48
 11
0.0000000000000001
 21
1.0
 31
0.0
 73
     1
 44
1.0
1001
ACAD
1000
MTEXTBEGIN
1070
    73
1070
     1
1070
    44
1040
1.0
1070
    74
1070
     0
1000
MTEXTEND
  0
POINT
  5
C550
330
C121
100
AcDbEntity
  8
Defpoints
  6
Continuous
 62
     0
100
AcDbPoint
 10
66.62219960449403
 20
593.4598552005172
 30
0.0
  0
POINT
  5
C551
330
C121
100
AcDbEntity
  8
Defpoints
  6
Continuous
 62
     0
100
AcDbPoint
 10
66.62219960449403
 20
545.4598552005173
 30
0.0
  0
POINT
  5
C552
330
C121
100
AcDbEntity
  8
Defpoints
  6
Continuous
 62
     0
100
AcDbPoint
 10
59.48495922935735
 20
545.4598552005173
 30
0.0
  0
ENDBLK
  5
C12D
330
C121
100
AcDbEntity
  8
0
100
AcDbBlockEnd
  0
BLOCK
  5
C139
330
C12E
100
AcDbEntity
  8
0
100
AcDbBlockBegin
  2
*D12
 70
     1
 10
0.0
 20
0.0
 30
0.0
  3
*D12
  1

  0
LINE
  5
C52B
330
C12E
100
AcDbEntity
  8
30100_Drilling_DIM
  6
Continuous
 62
     0
370
    -2
100
AcDbLine
 10
149.3839172169701
 20
599.0505429313798
 30
0.0
 11
142.6392397672115
 21
599.0505429313798
 31
0.0
  0
LINE
  5
C52C
330
C12E
100
AcDbEntity
  8
30100_Drilling_DIM
  6
Continuous
 62
     0
370
    -2
100
AcDbLine
 10
171.3839172169701
 20
539.05054293138
 30
0.0
 11
142.6392397672115
 21
539.05054293138
 31
0.0
  0
LINE
  5
C52D
330
C12E
100
AcDbEntity
  8
30100_Drilling_DIM
  6
Continuous
 62
     0
370
    -2
100
AcDbLine
 10
143.6392397672115
 20
595.5505429313798
 30
0.0
 11
143.6392397672115
 21
572.6755429313798
 31
0.0
  0
LINE
  5
C52E
330
C12E
100
AcDbEntity
  8
30100_Drilling_DIM
  6
Continuous
 62
     0
370
    -2
100
AcDbLine
 10
143.6392397672115
 20
542.55054293138
 30
0.0
 11
143.6392397672115
 21
565.4255429313798
 31
0.0
  0
SOLID
  5
C52F
330
C12E
100
AcDbEntity
  8
30100_Drilling_DIM
  6
Continuous
 62
     0
100
AcDbTrace
 10
143.0559064338782
 20
595.5505429313798
 30
0.0
 11
144.2225731005448
 21
595.5505429313798
 31
0.0
 12
143.6392397672115
 22
599.0505429313798
 32
0.0
 13
143.6392397672115
 23
599.0505429313798
 33
0.0
  0
SOLID
  5
C530
330
C12E
100
AcDbEntity
  8
30100_Drilling_DIM
  6
Continuous
 62
     0
100
AcDbTrace
 10
143.0559064338781
 20
542.55054293138
 30
0.0
 11
144.2225731005448
 21
542.55054293138
 31
0.0
 12
143.6392397672115
 22
539.05054293138
 32
0.0
 13
143.6392397672115
 23
539.05054293138
 33
0.0
  0
MTEXT
  5
C531
330
C12E
100
AcDbEntity
  8
30100_Drilling_DIM
  6
Continuous
 62
     0
370
    13
100
AcDbMText
 10
143.6392397672114
 20
569.0505429313798
 30
0.0
 40
3.5
 41
0.0
 71
     5
 72
     1
  1
\A1;60
 11
0.0000000000000001
 21
1.0
 31
0.0
 73
     1
 44
1.0
1001
ACAD
1000
MTEXTBEGIN
1070
    73
1070
     1
1070
    44
1040
1.0
1070
    74
1070
     0
1000
MTEXTEND
  0
POINT
  5
C532
330
C12E
100
AcDbEntity
  8
Defpoints
  6
Continuous
 62
     0
100
AcDbPoint
 10
150.3839172169701
 20
599.0505429313798
 30
0.0
  0
POINT
  5
C533
330
C12E
100
AcDbEntity
  8
Defpoints
  6
Continuous
 62
     0
100
AcDbPoint
 10
172.3839172169701
 20
539.05054293138
 30
0.0
  0
POINT
  5
C534
330
C12E
100
AcDbEntity
  8
Defpoints
  6
Continuous
 62
     0
100
AcDbPoint
 10
143.6392397672115
 20
539.05054293138
 30
0.0
  0
ENDBLK
  5
C13A
330
C12E
100
AcDbEntity
  8
0
100
AcDbBlockEnd
  0
BLOCK
  5
C153
330
C148
100
AcDbEntity
  8
0
100
AcDbBlockBegin
  2
*D13
 70
     1
 10
0.0
 20
0.0
 30
0.0
  3
*D13
  1

  0
LINE
  5
C535
330
C148
100
AcDbEntity
  8
30100_Drilling_DIM
  6
Continuous
 62
     0
370
    -2
100
AcDbLine
 10
152.6339172169701
 20
602.3005429313798
 30
0.0
 11
152.6339172169701
 21
609.1956056829282
 31
0.0
  0
LINE
  5
C536
330
C148
100
AcDbEntity
  8
30100_Drilling_DIM
  6
Continuous
 62
     0
370
    -2
100
AcDbLine
 10
174.6339172169701
 20
542.30054293138
 30
0.0
 11
174.6339172169701
 21
609.1956056829282
 31
0.0
  0
LINE
  5
C537
330
C148
100
AcDbEntity
  8
30100_Drilling_DIM
  6
Continuous
 62
     0
370
    -2
100
AcDbLine
 10
156.1339172169701
 20
608.1956056829282
 30
0.0
 11
159.7172505503035
 21
608.1956056829282
 31
0.0
  0
LINE
  5
C538
330
C148
100
AcDbEntity
  8
30100_Drilling_DIM
  6
Continuous
 62
     0
370
    -2
100
AcDbLine
 10
171.1339172169701
 20
608.1956056829282
 30
0.0
 11
167.5505838836368
 21
608.1956056829282
 31
0.0
  0
SOLID
  5
C539
330
C148
100
AcDbEntity
  8
30100_Drilling_DIM
  6
Continuous
 62
     0
100
AcDbTrace
 10
156.1339172169701
 20
608.7789390162615
 30
0.0
 11
156.1339172169701
 21
607.6122723495947
 31
0.0
 12
152.6339172169701
 22
608.1956056829282
 32
0.0
 13
152.6339172169701
 23
608.1956056829282
 33
0.0
  0
SOLID
  5
C53A
330
C148
100
AcDbEntity
  8
30100_Drilling_DIM
  6
Continuous
 62
     0
100
AcDbTrace
 10
171.1339172169701
 20
608.7789390162615
 30
0.0
 11
171.1339172169701
 21
607.6122723495947
 31
0.0
 12
174.6339172169701
 22
608.1956056829282
 32
0.0
 13
174.6339172169701
 23
608.1956056829282
 33
0.0
  0
MTEXT
  5
C53B
330
C148
100
AcDbEntity
  8
30100_Drilling_DIM
  6
Continuous
 62
     0
370
    13
100
AcDbMText
 10
163.6339172169701
 20
608.1956056829282
 30
0.0
 40
3.5
 41
0.0
 71
     5
 72
     1
  1
\A1;22
 73
     1
 44
1.0
1001
ACAD
1000
MTEXTBEGIN
1070
    73
1070
     1
1070
    44
1040
1.0
1070
    74
1070
     0
1000
MTEXTEND
  0
POINT
  5
C53C
330
C148
100
AcDbEntity
  8
Defpoints
  6
Continuous
 62
     0
100
AcDbPoint
 10
152.6339172169701
 20
601.3005429313798
 30
0.0
  0
POINT
  5
C53D
330
C148
100
AcDbEntity
  8
Defpoints
  6
Continuous
 62
     0
100
AcDbPoint
 10
174.6339172169701
 20
541.30054293138
 30
0.0
  0
POINT
  5
C53E
330
C148
100
AcDbEntity
  8
Defpoints
  6
Continuous
 62
     0
100
AcDbPoint
 10
174.6339172169701
 20
608.1956056829282
 30
0.0
  0
ENDBLK
  5
C154
330
C148
100
AcDbEntity
  8
0
100
AcDbBlockEnd
  0
BLOCK
  5
C15E
330
C155
100
AcDbEntity
  8
0
100
AcDbBlockBegin
  2
*D14
 70
     1
 10
0.0
 20
0.0
 30
0.0
  3
*D14
  1

  0
LINE
  5
C55B
330
C155
100
AcDbEntity
  8
30100_Drilling_DIM
  6
Continuous
 62
     0
370
    -2
100
AcDbLine
 10
108.4309488992894
 20
549.2424186873448
 30
0.0
 11
111.62493565261
 21
547.8111784490856
 31
0.0
  0
LINE
  5
C55C
330
C155
100
AcDbEntity
  8
30100_Drilling_DIM
  6
Continuous
 62
     0
370
    -2
100
AcDbLine
 10
122.1194635563779
 20
543.108531951948
 30
0.0
 11
125.3134503096986
 21
541.6772917136888
 31
0.0
  0
MTEXT
  5
C55D
330
C155
100
AcDbEntity
  8
30100_Drilling_DIM
  6
Continuous
 62
     0
370
    13
100
AcDbMText
 10
102.4612355627258
 20
551.9174748469485
 30
0.0
 40
3.5
 41
0.0
 71
     5
 72
     1
  1
\A1;\U+22054,5
 11
0.9125676438058924
 21
-0.4089257823597846
 31
0.0
 73
     1
 44
1.0
1001
ACAD
1000
MTEXTBEGIN
1070
    73
1070
     1
1070
    44
1040
1.0
1070
    74
1070
     0
1000
MTEXTEND
  0
LINE
  5
C55E
330
C155
100
AcDbEntity
  8
30100_Drilling_DIM
  6
Continuous
 62
     0
370
    -2
100
AcDbLine
 10
118.9254768030573
 20
544.5397721902073
 30
0.0
 11
114.8189224059306
 21
546.3799382108263
 31
0.0
  0
SOLID
  5
C55F
330
C155
100
AcDbEntity
  8
30100_Drilling_DIM
  6
Continuous
 62
     0
100
AcDbTrace
 10
122.3580035960878
 20
543.6408630775015
 30
0.0
 11
121.8809235166681
 21
542.5762008263944
 31
0.0
 12
118.9254768030573
 22
544.5397721902073
 32
0.0
 13
118.9254768030573
 23
544.5397721902073
 33
0.0
  0
SOLID
  5
C560
330
C155
100
AcDbEntity
  8
30100_Drilling_DIM
  6
Continuous
 62
     0
100
AcDbTrace
 10
111.8634756923199
 20
548.3435095746391
 30
0.0
 11
111.3863956129001
 21
547.2788473235322
 31
0.0
 12
114.8189224059306
 22
546.3799382108263
 32
0.0
 13
114.8189224059306
 23
546.3799382108263
 33
0.0
  0
POINT
  5
C561
330
C155
100
AcDbEntity
  8
Defpoints
  6
Continuous
 62
     0
100
AcDbPoint
 10
114.8189224059306
 20
546.3799382108263
 30
0.0
  0
POINT
  5
C562
330
C155
100
AcDbEntity
  8
Defpoints
  6
Continuous
 62
     0
100
AcDbPoint
 10
118.9254768030573
 20
544.5397721902073
 30
0.0
  0
ENDBLK
  5
C15F
330
C155
100
AcDbEntity
  8
0
100
AcDbBlockEnd
  0
BLOCK
  5
C169
330
C160
100
AcDbEntity
  8
0
100
AcDbBlockBegin
  2
*D15
 70
     1
 10
0.0
 20
0.0
 30
0.0
  3
*D15
  1

  0
LINE
  5
C553
330
C160
100
AcDbEntity
  8
30100_Drilling_DIM
  6
Continuous
 62
     0
370
    -2
100
AcDbLine
 10
104.5739393432839
 20
573.0854538531055
 30
0.0
 11
101.2762919194702
 21
571.9126275794337
 31
0.0
  0
LINE
  5
C554
330
C160
100
AcDbEntity
  8
30100_Drilling_DIM
  6
Continuous
 62
     0
370
    -2
100
AcDbLine
 10
85.25914728951761
 20
566.216042821601
 30
0.0
 11
81.96149986570381
 21
565.0432165479294
 31
0.0
  0
MTEXT
  5
C555
330
C160
100
AcDbEntity
  8
30100_Drilling_DIM
  6
Continuous
 62
     0
370
    13
100
AcDbMText
 10
109.0885756973148
 20
574.6911088706318
 30
0.0
 40
3.5
 41
0.0
 71
     5
 72
     1
  1
\A1;\U+220510
 11
0.9421849782325136
 21
0.3350932210490062
 31
0.0
 73
     1
 44
1.0
1001
ACAD
1000
MTEXTBEGIN
1070
    73
1070
     1
1070
    44
1040
1.0
1070
    74
1070
     0
1000
MTEXTEND
  0
LINE
  5
C556
330
C160
100
AcDbEntity
  8
30100_Drilling_DIM
  6
Continuous
 62
     0
370
    -2
100
AcDbLine
 10
88.55679471333141
 20
567.3888690952725
 30
0.0
 11
97.97864449565636
 21
570.7398013057622
 31
0.0
  0
SOLID
  5
C557
330
C160
100
AcDbEntity
  8
30100_Drilling_DIM
  6
Continuous
 62
     0
100
AcDbTrace
 10
85.06367624390572
 20
566.76565072557
 30
0.0
 11
85.45461833512955
 21
565.6664349176319
 31
0.0
 12
88.55679471333141
 22
567.3888690952725
 32
0.0
 13
88.55679471333141
 23
567.3888690952725
 33
0.0
  0
SOLID
  5
C558
330
C160
100
AcDbEntity
  8
30100_Drilling_DIM
  6
Continuous
 62
     0
100
AcDbTrace
 10
101.0808208738583
 20
572.4622354834028
 30
0.0
 11
101.4717629650821
 21
571.363019675465
 31
0.0
 12
97.97864449565636
 22
570.7398013057622
 32
0.0
 13
97.97864449565636
 23
570.7398013057622
 33
0.0
  0
POINT
  5
C559
330
C160
100
AcDbEntity
  8
Defpoints
  6
Continuous
 62
     0
100
AcDbPoint
 10
97.97864449565636
 20
570.7398013057622
 30
0.0
  0
POINT
  5
C55A
330
C160
100
AcDbEntity
  8
Defpoints
  6
Continuous
 62
     0
100
AcDbPoint
 10
88.55679471333141
 20
567.3888690952725
 30
0.0
  0
ENDBLK
  5
C16A
330
C160
100
AcDbEntity
  8
0
100
AcDbBlockEnd
  0
BLOCK
  5
C293
330
C289
100
AcDbEntity
  8
0
100
AcDbBlockBegin
  2
*D16
 70
     1
 10
0.0
 20
0.0
 30
0.0
  3
*D16
  1

  0
LINE
  5
C522
330
C289
100
AcDbEntity
  8
14100_Bottom_Dim
  6
Continuous
 62
     7
370
    -2
100
AcDbLine
 10
-26.79521449767624
 20
613.5073693431835
 30
0.0
 11
-26.79521449767624
 21
626.0448567457331
 31
0.0
  0
LINE
  5
C523
330
C289
100
AcDbEntity
  8
14100_Bottom_Dim
  6
Continuous
 62
     7
370
    -2
100
AcDbLine
 10
18.60478550232373
 20
613.5073693431835
 30
0.0
 11
18.60478550232373
 21
626.0448567457331
 31
0.0
  0
LINE
  5
C524
330
C289
100
AcDbEntity
  8
14100_Bottom_Dim
  6
Continuous
370
    -2
100
AcDbLine
 10
-23.29521449767624
 20
624.0448567457331
 30
0.0
 11
15.10478550232374
 21
624.0448567457331
 31
0.0
  0
SOLID
  5
C525
330
C289
100
AcDbEntity
  8
14100_Bottom_Dim
  6
Continuous
100
AcDbTrace
 10
-23.29521449767624
 20
624.6281900790664
 30
0.0
 11
-23.29521449767624
 21
623.4615234123997
 31
0.0
 12
-26.79521449767624
 22
624.0448567457331
 32
0.0
 13
-26.79521449767624
 23
624.0448567457331
 33
0.0
  0
SOLID
  5
C526
330
C289
100
AcDbEntity
  8
14100_Bottom_Dim
  6
Continuous
100
AcDbTrace
 10
15.10478550232374
 20
624.6281900790664
 30
0.0
 11
15.10478550232374
 21
623.4615234123997
 31
0.0
 12
18.60478550232373
 22
624.0448567457331
 32
0.0
 13
18.60478550232373
 23
624.0448567457331
 33
0.0
  0
MTEXT
  5
C527
330
C289
100
AcDbEntity
  8
14100_Bottom_Dim
  6
Continuous
 62
     7
370
    13
100
AcDbMText
 10
-4.095214497676249
 20
626.2948567457331
 30
0.0
 40
3.5
 41
0.0
 71
     5
 72
     1
  1
\A1;45
 73
     1
 44
1.0
1001
ACAD
1000
MTEXTBEGIN
1070
    73
1070
     1
1070
    44
1040
1.0
1070
    74
1070
     0
1000
MTEXTEND
  0
POINT
  5
C528
330
C289
100
AcDbEntity
  8
Defpoints
  6
Continuous
 62
     0
100
AcDbPoint
 10
-26.79521449767624
 20
613.5073693431835
 30
0.0
  0
POINT
  5
C529
330
C289
100
AcDbEntity
  8
Defpoints
  6
Continuous
 62
     0
100
AcDbPoint
 10
18.60478550232373
 20
613.5073693431835
 30
0.0
  0
POINT
  5
C52A
330
C289
100
AcDbEntity
  8
Defpoints
  6
Continuous
 62
     0
100
AcDbPoint
 10
18.60478550232373
 20
624.0448567457331
 30
0.0
  0
ENDBLK
  5
C294
330
C289
100
AcDbEntity
  8
0
100
AcDbBlockEnd
  0
ENDSEC
  0
SECTION
  2
ENTITIES
  0
LINE
  5
BBA0
330
20
100
AcDbEntity
  8
90000_FRAME
  6
Continuous
 62
     7
100
AcDbLine
 10
-70.60458337769119
 20
764.279881970476
 30
0.0
 11
339.3954166223088
 21
764.279881970476
 31
0.0
  0
LINE
  5
BBA1
330
20
100
AcDbEntity
  8
90000_FRAME
  6
Continuous
 62
     7
100
AcDbLine
 10
-70.60458337769119
 20
494.279881970476
 30
0.0
 11
-70.60458337769119
 21
764.279881970476
 31
0.0
  0
LINE
  5
BBA2
330
20
100
AcDbEntity
  8
90000_FRAME
  6
Continuous
 62
     7
100
AcDbLine
 10
339.3954166223088
 20
494.279881970476
 30
0.0
 11
339.3954166223088
 21
764.279881970476
 31
0.0
  0
INSERT
  5
BBA3
330
20
100
AcDbEntity
  8
90000_FRAME
  6
Continuous
 62
     7
100
AcDbBlockReference
  2
SIEMENS_OUTLINE_BL0
 10
-80.60458337769194
 20
494.279881970476
 30
0.0
  0
LINE
  5
BBA4
330
20
100
AcDbEntity
  8
90000_FRAME
  6
Continuous
 62
     7
100
AcDbLine
 10
194.395416622308
 20
504.2798819704761
 30
0.0
 11
329.3954166223082
 21
504.2798819704761
 31
0.0
  0
LINE
  5
BBA5
330
20
100
AcDbEntity
  8
90000_FRAME
  6
Continuous
 62
     7
100
AcDbLine
 10
194.395416622308
 20
504.2798819704761
 30
0.0
 11
194.395416622308
 21
522.279881970476
 31
0.0
  0
LINE
  5
BBA6
330
20
100
AcDbEntity
  8
90000_FRAME
  6
Continuous
 62
     7
100
AcDbLine
 10
244.3954166223081
 20
510.2798819704761
 30
0.0
 11
329.3954166223082
 21
510.2798819704761
 31
0.0
  0
LINE
  5
BBA7
330
20
100
AcDbEntity
  8
90000_FRAME
  6
Continuous
 62
     7
100
AcDbLine
 10
194.395416622308
 20
522.279881970476
 30
0.0
 11
329.3954166223082
 21
522.279881970476
 31
0.0
  0
LINE
  5
BBA8
330
20
100
AcDbEntity
  8
90000_FRAME
  6
Continuous
 62
     7
100
AcDbLine
 10
244.3954166223081
 20
504.2798819704761
 30
0.0
 11
244.3954166223081
 21
522.279881970476
 31
0.0
  0
LINE
  5
BBA9
330
20
100
AcDbEntity
  8
90000_FRAME
  6
Continuous
 62
     7
100
AcDbLine
 10
286.8954166223081
 20
504.2798819704761
 30
0.0
 11
286.8954166223081
 21
510.2798819704761
 31
0.0
  0
LINE
  5
BBAA
330
20
100
AcDbEntity
  8
90000_FRAME
  6
Continuous
 62
     7
100
AcDbLine
 10
329.3954166223082
 20
504.2798819704761
 30
0.0
 11
329.3954166223082
 21
522.279881970476
 31
0.0
  0
TEXT
  5
BBAB
330
20
100
AcDbEntity
  8
90000_FRAME
  6
Continuous
 62
     7
100
AcDbText
 10
245.0554166223081
 20
506.179881970476
 30
0.0
 40
2.2
  1
Format / Size: DIN A3
 41
0.7994987468660263
 72
     5
 11
278.474464241308
 21
506.179881970476
 31
0.0
100
AcDbText
  0
TEXT
  5
BBAC
330
20
100
AcDbEntity
  8
90000_FRAME
  6
Continuous
 62
     7
100
AcDbText
 10
287.5554166223082
 20
506.179881970476
 30
0.0
 40
2.2
  1
Massstab / Scale: 1:1
 41
0.7732634338148453
 72
     5
 11
318.4601785271082
 21
506.179881970476
 31
0.0
100
AcDbText
  0
LINE
  5
BBAD
330
20
100
AcDbEntity
  8
91000_TIP
  6
Continuous
 62
     7
100
AcDbLine
 10
169.210086726334
 20
515.6036194928466
 30
0.0
 11
179.2100865221341
 21
518.1036194418465
 31
0.0
  0
LINE
  5
BBAE
330
20
100
AcDbEntity
  8
91000_TIP
  6
CENTER
 62
     7
100
AcDbLine
 10
167.930576254333
 20
513.1036195439467
 30
0.0
 11
191.532565518433
 21
513.1036195439467
 31
0.0
  0
LINE
  5
BBAF
330
20
100
AcDbEntity
  8
91000_TIP
  6
Continuous
 62
     7
100
AcDbLine
 10
169.210086726334
 20
510.6036195950466
 30
0.0
 11
179.2100865221341
 21
508.1036196460465
 31
0.0
  0
LINE
  5
BBB0
330
20
100
AcDbEntity
  8
91000_TIP
  6
Continuous
 62
     7
100
AcDbLine
 10
169.210086726334
 20
515.6036194928466
 30
0.0
 11
169.210086726334
 21
510.6036195950466
 31
0.0
  0
LINE
  5
BBB1
330
20
100
AcDbEntity
  8
91000_TIP
  6
Continuous
 62
     7
100
AcDbLine
 10
179.2100865221341
 20
518.1036194418465
 30
0.0
 11
179.2100865221341
 21
508.1036196460465
 31
0.0
  0
LINE
  5
BBB2
330
20
100
AcDbEntity
  8
91000_TIP
  6
CENTER
 62
     7
100
AcDbLine
 10
185.710086389334
 20
507.3821383375467
 30
0.0
 11
185.710086389334
 21
518.6655243375467
 31
0.0
  0
CIRCLE
  5
BBB3
330
20
100
AcDbEntity
  8
91000_TIP
  6
Continuous
 62
     7
100
AcDbCircle
 10
185.710086389334
 20
513.1036195439467
 30
0.0
 40
4.9999998979
  0
CIRCLE
  5
BBB4
330
20
100
AcDbEntity
  8
91000_TIP
  6
Continuous
 62
     7
100
AcDbCircle
 10
185.710086389334
 20
513.1036195439467
 30
0.0
 40
2.499999948899997
  0
TEXT
  5
BBB5
330
20
100
AcDbEntity
  8
90000_FRAME
  6
Continuous
 62
     7
100
AcDbText
 10
257.7013411462589
 20
514.5298819704761
 30
0.0
 40
3.5
  1
3LD2213_00000305_000_ALL
 41
0.7316751156272582
 72
     5
 11
313.6135145654419
 21
514.5298819704761
 31
0.0
100
AcDbText
  0
LINE
  5
BBB6
330
20
100
AcDbEntity
  8
90000_FRAME
  6
Continuous
 62
     7
100
AcDbLine
 10
-70.60458337769119
 20
494.279881970476
 30
0.0
 11
339.3954166223088
 21
494.279881970476
 31
0.0
  0
LINE
  5
BBB7
330
20
100
AcDbEntity
  8
90000_FRAME
  6
Continuous
 62
     7
100
AcDbLine
 10
329.3954166223082
 20
504.2798819704761
 30
0.0
 11
329.3954166223082
 21
522.279881970476
 31
0.0
  0
TEXT
  5
BBB8
330
20
100
AcDbEntity
  8
91000_TIP
  6
Continuous
 62
     7
100
AcDbText
 10
-66.55123359502733
 20
497.7621185921528
 30
0.0
 40
2.5
  1
All dimensions are in millimeters (mm).
 41
0.7513350295680265
 72
     5
 11
-6.444431229585262
 21
497.7621185921528
 31
0.0
100
AcDbText
  0
TEXT
  5
BBB9
330
20
100
AcDbEntity
  8
91000_TIP
  6
Continuous
 62
     7
100
AcDbText
 10
-66.55123359502733
 20
503.0121185921526
 30
0.0
 40
2.5
  1
Alle Bemassungswerte sind in Millimeter (mm) angegeben.
 41
0.6056311217924567
 72
     5
 11
7.133886223054927
 21
503.0121185921526
 31
0.0
100
AcDbText
  0
LINE
  5
BDA8
330
20
100
AcDbEntity
  8
10000_FRONT
  6
CENTER
 62
     7
370
     9
100
AcDbLine
 39
0.8
 10
-44.0952144976763
 20
690.7330449272182
 30
0.0
 11
44.38762250232372
 21
690.7330449272182
 31
0.0
  0
LINE
  5
BDA9
330
20
100
AcDbEntity
  8
10000_FRONT
  6
CENTER
 62
     7
370
     9
100
AcDbLine
 39
0.8
 10
-4.095214497676295
 20
741.1637049272184
 30
0.0
 11
-4.095214497676295
 21
650.7330449272184
 31
0.0
  0
DIMENSION
  5
BDAA
330
20
100
AcDbEntity
  8
10100_FRONT_DIM
  6
Continuous
 62
     7
370
    13
100
AcDbDimension
  2
*D1
 10
-37.0952144976763
 20
745.1318549272183
 30
0.0
 11
-4.095214497676295
 21
745.0313134056626
 31
0.0
 70
   160
 71
     5
 42
65.99999699999999
  3
H035
100
AcDbAlignedDimension
 13
28.9047825023237
 23
720.7330449272181
 33
0.0
 14
-37.0952144976763
 24
720.7330449272181
 34
0.0
100
AcDbRotatedDimension
1001
ACAD
1000
DSTYLE
1002
{
1070
    40
1040
1.0
1070
    77
1070
     0
1070
   147
1040
1.5
1070
   272
1070
     0
1070
   279
1070
     1
1070
   288
1070
     1
1002
}
  0
DIMENSION
  5
BDAB
330
20
100
AcDbEntity
  8
10100_FRONT_DIM
  6
Continuous
 62
     7
370
    13
100
AcDbDimension
  2
*D2
 10
-53.28238749767629
 20
723.7330449272183
 30
0.0
 11
-53.14426960605203
 21
690.7330449272182
 31
0.0
 70
   160
 71
     5
 42
65.99999999999988
  3
H035
100
AcDbAlignedDimension
 13
-34.0952144976763
 23
657.7330449272184
 33
0.0
 14
-34.0952144976763
 24
723.7330449272183
 34
0.0
 50
90.0
100
AcDbRotatedDimension
1001
ACAD
1000
DSTYLE
1002
{
1070
    40
1040
1.0
1070
    77
1070
     0
1070
   147
1040
1.5
1070
   272
1070
     0
1070
   279
1070
     1
1070
   288
1070
     1
1002
}
  0
CIRCLE
  5
BDAC
330
20
100
AcDbEntity
  8
10000_FRONT
  6
Continuous
 62
     7
370
    20
100
AcDbCircle
 39
0.7
 10
-19.80853249767631
 20
690.6549049272183
 30
0.0
 40
3.967900999999999
  0
LINE
  5
BDAD
330
20
100
AcDbEntity
  8
10000_FRONT
  6
Continuous
 62
     7
370
    20
100
AcDbLine
 39
0.7
 10
-25.19888949767632
 20
695.6757249272182
 30
0.0
 11
-25.19888949767632
 21
685.8009049272184
 31
0.0
  0
LINE
  5
BDAE
330
20
100
AcDbEntity
  8
10000_FRONT
  6
Continuous
 62
     7
370
    20
100
AcDbLine
 39
0.7
 10
-25.19888949767632
 20
685.8009049272184
 30
0.0
 11
-14.11871249767628
 21
685.8009049272184
 31
0.0
  0
LINE
  5
BDAF
330
20
100
AcDbEntity
  8
10000_FRONT
  6
Continuous
 62
     7
370
    20
100
AcDbLine
 39
0.7
 10
-14.11871249767628
 20
685.8009049272184
 30
0.0
 11
-14.11871249767628
 21
695.6757249272182
 31
0.0
  0
LINE
  5
BDB0
330
20
100
AcDbEntity
  8
10000_FRONT
  6
Continuous
 62
     7
370
    20
100
AcDbLine
 39
0.7
 10
-25.19888949767632
 20
695.6757249272182
 30
0.0
 11
-14.11871249767628
 21
695.6757249272182
 31
0.0
  0
LINE
  5
BDB1
330
20
100
AcDbEntity
  8
10000_FRONT
  6
Continuous
 62
     7
370
    20
100
AcDbLine
 39
0.7
 10
21.48725250232371
 20
708.2401549272184
 30
0.0
 11
21.47877250232369
 21
708.2462349272184
 31
0.0
  0
LINE
  5
BDB2
330
20
100
AcDbEntity
  8
10000_FRONT
  6
Continuous
 62
     7
370
    20
100
AcDbLine
 39
0.7
 10
21.47877250232369
 20
708.2462349272184
 30
0.0
 11
21.4435225023237
 21
708.2715249272183
 31
0.0
  0
LINE
  5
BDB3
330
20
100
AcDbEntity
  8
10000_FRONT
  6
Continuous
 62
     7
370
    20
100
AcDbLine
 39
0.7
 10
21.4435225023237
 20
708.2715249272183
 30
0.0
 11
21.3966925023237
 21
708.3052349272183
 31
0.0
  0
LINE
  5
BDB4
330
20
100
AcDbEntity
  8
10000_FRONT
  6
Continuous
 62
     7
370
    20
100
AcDbLine
 39
0.7
 10
21.3966925023237
 20
708.3052349272183
 30
0.0
 11
21.2649525023237
 21
708.4006949272183
 31
0.0
  0
LINE
  5
BDB5
330
20
100
AcDbEntity
  8
10000_FRONT
  6
Continuous
 62
     7
370
    20
100
AcDbLine
 39
0.7
 10
21.2649525023237
 20
708.4006949272183
 30
0.0
 11
21.1130225023237
 21
708.5119449272184
 31
0.0
  0
LINE
  5
BDB6
330
20
100
AcDbEntity
  8
10000_FRONT
  6
Continuous
 62
     7
370
    20
100
AcDbLine
 39
0.7
 10
21.1130225023237
 20
708.5119449272184
 30
0.0
 11
20.93148250232372
 21
708.6465249272183
 31
0.0
  0
LINE
  5
BDB7
330
20
100
AcDbEntity
  8
10000_FRONT
  6
Continuous
 62
     7
370
    20
100
AcDbLine
 39
0.7
 10
20.93148250232372
 20
708.6465249272183
 30
0.0
 11
20.74436250232372
 21
708.7871749272182
 31
0.0
  0
LINE
  5
BDB8
330
20
100
AcDbEntity
  8
10000_FRONT
  6
Continuous
 62
     7
370
    20
100
AcDbLine
 39
0.7
 10
20.74436250232372
 20
708.7871749272182
 30
0.0
 11
20.29629250232369
 21
709.1320349272185
 31
0.0
  0
LINE
  5
BDB9
330
20
100
AcDbEntity
  8
10000_FRONT
  6
Continuous
 62
     7
370
    20
100
AcDbLine
 39
0.7
 10
20.29629250232369
 20
709.1320349272185
 30
0.0
 11
19.83383250232373
 21
709.5002849272184
 31
0.0
  0
LINE
  5
BDBA
330
20
100
AcDbEntity
  8
10000_FRONT
  6
Continuous
 62
     7
370
    20
100
AcDbLine
 39
0.7
 10
19.83383250232373
 20
709.5002849272184
 30
0.0
 11
18.89327250232372
 21
710.2900549272184
 31
0.0
  0
LINE
  5
BDBB
330
20
100
AcDbEntity
  8
10000_FRONT
  6
Continuous
 62
     7
370
    20
100
AcDbLine
 39
0.7
 10
18.89327250232372
 20
710.2900549272184
 30
0.0
 11
17.97302250232371
 21
711.1197849272183
 31
0.0
  0
LINE
  5
BDBC
330
20
100
AcDbEntity
  8
10000_FRONT
  6
Continuous
 62
     7
370
    20
100
AcDbLine
 39
0.7
 10
17.97302250232371
 20
711.1197849272183
 30
0.0
 11
17.22858250232372
 21
711.8361449272184
 31
0.0
  0
LINE
  5
BDBD
330
20
100
AcDbEntity
  8
10000_FRONT
  6
Continuous
 62
     7
370
    20
100
AcDbLine
 39
0.7
 10
22.57806250232372
 20
707.4897149272183
 30
0.0
 11
22.05400250232373
 21
707.8426649272183
 31
0.0
  0
LINE
  5
BDBE
330
20
100
AcDbEntity
  8
10000_FRONT
  6
Continuous
 62
     7
370
    20
100
AcDbLine
 39
0.7
 10
22.05400250232373
 20
707.8426649272183
 30
0.0
 11
21.48725250232371
 21
708.2401549272184
 31
0.0
  0
LINE
  5
BDBF
330
20
100
AcDbEntity
  8
10000_FRONT
  6
Continuous
 62
     7
370
    20
100
AcDbLine
 39
0.7
 10
13.4119025023237
 20
716.3155049272186
 30
0.0
 11
13.17236250232372
 21
716.6541849272183
 31
0.0
  0
LINE
  5
BDC0
330
20
100
AcDbEntity
  8
10000_FRONT
  6
Continuous
 62
     7
370
    20
100
AcDbLine
 39
0.7
 10
17.00789250232373
 20
712.0568349272183
 30
0.0
 11
16.29152250232371
 21
712.8012749272182
 31
0.0
  0
LINE
  5
BDC1
330
20
100
AcDbEntity
  8
10000_FRONT
  6
Continuous
 62
     7
370
    20
100
AcDbLine
 39
0.7
 10
16.29152250232371
 20
712.8012749272182
 30
0.0
 11
15.4618025023237
 21
713.7215249272182
 31
0.0
  0
LINE
  5
BDC2
330
20
100
AcDbEntity
  8
10000_FRONT
  6
Continuous
 62
     7
370
    20
100
AcDbLine
 39
0.7
 10
15.4618025023237
 20
713.7215249272182
 30
0.0
 11
14.67202250232373
 21
714.6620949272183
 31
0.0
  0
LINE
  5
BDC3
330
20
100
AcDbEntity
  8
10000_FRONT
  6
Continuous
 62
     7
370
    20
100
AcDbLine
 39
0.7
 10
14.67202250232373
 20
714.6620949272183
 30
0.0
 11
14.30377250232371
 21
715.1245449272185
 31
0.0
  0
LINE
  5
BDC4
330
20
100
AcDbEntity
  8
10000_FRONT
  6
Continuous
 62
     7
370
    20
100
AcDbLine
 39
0.7
 10
14.30377250232371
 20
715.1245449272185
 30
0.0
 11
13.95892250232373
 21
715.5726149272186
 31
0.0
  0
LINE
  5
BDC5
330
20
100
AcDbEntity
  8
10000_FRONT
  6
Continuous
 62
     7
370
    20
100
AcDbLine
 39
0.7
 10
13.95892250232373
 20
715.5726149272186
 30
0.0
 11
13.81827250232371
 21
715.7597449272182
 31
0.0
  0
LINE
  5
BDC6
330
20
100
AcDbEntity
  8
10000_FRONT
  6
Continuous
 62
     7
370
    20
100
AcDbLine
 39
0.7
 10
13.81827250232371
 20
715.7597449272182
 30
0.0
 11
13.6836825023237
 21
715.9412749272182
 31
0.0
  0
LINE
  5
BDC7
330
20
100
AcDbEntity
  8
10000_FRONT
  6
Continuous
 62
     7
370
    20
100
AcDbLine
 39
0.7
 10
13.6836825023237
 20
715.9412749272182
 30
0.0
 11
13.57243250232369
 21
716.0932049272182
 31
0.0
  0
LINE
  5
BDC8
330
20
100
AcDbEntity
  8
10000_FRONT
  6
Continuous
 62
     7
370
    20
100
AcDbLine
 39
0.7
 10
13.57243250232369
 20
716.0932049272182
 30
0.0
 11
13.47698250232372
 21
716.2249449272183
 31
0.0
  0
LINE
  5
BDC9
330
20
100
AcDbEntity
  8
10000_FRONT
  6
Continuous
 62
     7
370
    20
100
AcDbLine
 39
0.7
 10
13.47698250232372
 20
716.2249449272183
 30
0.0
 11
13.44327250232371
 21
716.2717849272183
 31
0.0
  0
LINE
  5
BDCA
330
20
100
AcDbEntity
  8
10000_FRONT
  6
Continuous
 62
     7
370
    20
100
AcDbLine
 39
0.7
 10
13.44327250232371
 20
716.2717849272183
 30
0.0
 11
13.4119025023237
 21
716.3155049272186
 31
0.0
  0
ARC
  5
BDCB
330
20
100
AcDbEntity
  8
10000_FRONT
  6
Continuous
 62
     7
370
    20
100
AcDbCircle
 39
0.7
 10
41.86672250232371
 20
736.6949849272183
 30
0.0
 40
35.0
100
AcDbArc
 50
224.7445399999972
 51
225.255460000001
  0
ARC
  5
BDCC
330
20
100
AcDbEntity
  8
10000_FRONT
  6
Continuous
 62
     7
370
    20
100
AcDbCircle
 39
0.7
 10
-50.05715549767629
 20
736.6949849272183
 30
0.0
 40
35.0
100
AcDbArc
 50
314.7445399999991
 51
315.2554600000028
  0
ARC
  5
BDCD
330
20
100
AcDbEntity
  8
10000_FRONT
  6
Continuous
 62
     7
370
    20
100
AcDbCircle
 39
0.7
 10
-50.05715549767629
 20
644.7711049272184
 30
0.0
 40
35.0
100
AcDbArc
 50
44.74453900000134
 51
45.25546099999694
  0
ARC
  5
BDCE
330
20
100
AcDbEntity
  8
10000_FRONT
  6
Continuous
 62
     7
370
    20
100
AcDbCircle
 39
0.7
 10
41.86672250232371
 20
644.7711049272184
 30
0.0
 40
35.0
100
AcDbArc
 50
134.7445399999989
 51
135.2554600000027
  0
LINE
  5
BDCF
330
20
100
AcDbEntity
  8
10000_FRONT
  6
Continuous
 62
     7
370
    20
100
AcDbLine
 39
0.7
 10
1.614922502323706
 20
721.2019749272184
 30
0.0
 11
1.604627502323694
 21
721.2002749272182
 31
0.0
  0
LINE
  5
BDD0
330
20
100
AcDbEntity
  8
10000_FRONT
  6
Continuous
 62
     7
370
    20
100
AcDbLine
 39
0.7
 10
1.604627502323694
 20
721.2002749272182
 30
0.0
 11
1.561823502323704
 21
721.1932349272184
 31
0.0
  0
LINE
  5
BDD1
330
20
100
AcDbEntity
  8
10000_FRONT
  6
Continuous
 62
     7
370
    20
100
AcDbLine
 39
0.7
 10
1.561823502323704
 20
721.1932349272184
 30
0.0
 11
1.5048635023237
 21
721.1839549272184
 31
0.0
  0
LINE
  5
BDD2
330
20
100
AcDbEntity
  8
10000_FRONT
  6
Continuous
 62
     7
370
    20
100
AcDbLine
 39
0.7
 10
1.5048635023237
 20
721.1839549272184
 30
0.0
 11
1.344213502323725
 21
721.1583049272182
 31
0.0
  0
LINE
  5
BDD3
330
20
100
AcDbEntity
  8
10000_FRONT
  6
Continuous
 62
     7
370
    20
100
AcDbLine
 39
0.7
 10
1.344213502323725
 20
721.1583049272182
 30
0.0
 11
1.158120502323697
 21
721.1295349272186
 31
0.0
  0
LINE
  5
BDD4
330
20
100
AcDbEntity
  8
10000_FRONT
  6
Continuous
 62
     7
370
    20
100
AcDbLine
 39
0.7
 10
1.158120502323697
 20
721.1295349272186
 30
0.0
 11
0.9345855023236991
 21
721.0963349272184
 31
0.0
  0
LINE
  5
BDD5
330
20
100
AcDbEntity
  8
10000_FRONT
  6
Continuous
 62
     7
370
    20
100
AcDbLine
 39
0.7
 10
0.9345855023236991
 20
721.0963349272184
 30
0.0
 11
0.7028215023237295
 21
721.0634749272182
 31
0.0
  0
LINE
  5
BDD6
330
20
100
AcDbEntity
  8
10000_FRONT
  6
Continuous
 62
     7
370
    20
100
AcDbLine
 39
0.7
 10
0.7028215023237295
 20
721.0634749272182
 30
0.0
 11
0.1421345023236995
 21
720.9904849272183
 31
0.0
  0
LINE
  5
BDD7
330
20
100
AcDbEntity
  8
10000_FRONT
  6
Continuous
 62
     7
370
    20
100
AcDbLine
 39
0.7
 10
0.1421345023236995
 20
720.9904849272183
 30
0.0
 11
-0.4452614976762847
 21
720.9238749272183
 31
0.0
  0
LINE
  5
BDD8
330
20
100
AcDbEntity
  8
10000_FRONT
  6
Continuous
 62
     7
370
    20
100
AcDbLine
 39
0.7
 10
-0.4452614976762847
 20
720.9238749272183
 30
0.0
 11
-1.668798497676276
 21
720.8172449272184
 31
0.0
  0
LINE
  5
BDD9
330
20
100
AcDbEntity
  8
10000_FRONT
  6
Continuous
 62
     7
370
    20
100
AcDbLine
 39
0.7
 10
-1.668798497676276
 20
720.8172449272184
 30
0.0
 11
-2.906218497676292
 21
720.7532449272183
 31
0.0
  0
LINE
  5
BDDA
330
20
100
AcDbEntity
  8
10000_FRONT
  6
Continuous
 62
     7
370
    20
100
AcDbLine
 39
0.7
 10
-2.906218497676292
 20
720.7532449272183
 30
0.0
 11
-3.939162497676306
 21
720.7333849272183
 31
0.0
  0
LINE
  5
BDDB
330
20
100
AcDbEntity
  8
10000_FRONT
  6
Continuous
 62
     7
370
    20
100
AcDbLine
 39
0.7
 10
13.17236250232372
 20
716.6541849272183
 30
0.0
 11
13.0096825023237
 21
716.7639649272183
 31
0.0
  0
LINE
  5
BDDC
330
20
100
AcDbEntity
  8
10000_FRONT
  6
Continuous
 62
     7
370
    20
100
AcDbLine
 39
0.7
 10
13.0096825023237
 20
716.7639649272183
 30
0.0
 11
12.24915250232371
 21
717.2649249272184
 31
0.0
  0
LINE
  5
BDDD
330
20
100
AcDbEntity
  8
10000_FRONT
  6
Continuous
 62
     7
370
    20
100
AcDbLine
 39
0.7
 10
12.24915250232371
 20
717.2649249272184
 30
0.0
 11
11.54109250232369
 21
717.7153849272184
 31
0.0
  0
LINE
  5
BDDE
330
20
100
AcDbEntity
  8
10000_FRONT
  6
Continuous
 62
     7
370
    20
100
AcDbLine
 39
0.7
 10
11.54109250232369
 20
717.7153849272184
 30
0.0
 11
10.9336725023237
 21
718.0933149272184
 31
0.0
  0
LINE
  5
BDDF
330
20
100
AcDbEntity
  8
10000_FRONT
  6
Continuous
 62
     7
370
    20
100
AcDbLine
 39
0.7
 10
10.9336725023237
 20
718.0933149272184
 30
0.0
 11
10.43285250232372
 21
718.4045149272184
 31
0.0
  0
LINE
  5
BDE0
330
20
100
AcDbEntity
  8
10000_FRONT
  6
Continuous
 62
     7
370
    20
100
AcDbLine
 39
0.7
 10
10.43285250232372
 20
718.4045149272184
 30
0.0
 11
10.05184250232372
 21
718.6502549272183
 31
0.0
  0
LINE
  5
BDE1
330
20
100
AcDbEntity
  8
10000_FRONT
  6
Continuous
 62
     7
370
    20
100
AcDbLine
 39
0.7
 10
10.05184250232372
 20
718.6502549272183
 30
0.0
 11
9.826422502323707
 21
718.8164149272183
 31
0.0
  0
LINE
  5
BDE2
330
20
100
AcDbEntity
  8
10000_FRONT
  6
Continuous
 62
     7
370
    20
100
AcDbLine
 39
0.7
 10
9.826422502323707
 20
718.8164149272183
 30
0.0
 11
9.792772502323712
 21
718.8485049272182
 31
0.0
  0
LINE
  5
BDE3
330
20
100
AcDbEntity
  8
10000_FRONT
  6
Continuous
 62
     7
370
    20
100
AcDbLine
 39
0.7
 10
9.792772502323712
 20
718.8485049272182
 30
0.0
 11
9.874872502323713
 21
718.9657649272183
 31
0.0
  0
ARC
  5
BDE4
330
20
100
AcDbEntity
  8
10000_FRONT
  6
Continuous
 62
     7
370
    20
100
AcDbCircle
 39
0.7
 10
-4.095214497676295
 20
690.7330449272182
 30
0.0
 40
31.5
100
AcDbArc
 50
63.67292299999751
 51
77.13783999999998
  0
LINE
  5
BDE5
330
20
100
AcDbEntity
  8
10000_FRONT
  6
Continuous
 62
     7
370
    20
100
AcDbLine
 39
0.7
 10
2.916883502323712
 20
721.4426549272181
 30
0.0
 11
2.296738502323704
 21
721.3216649272181
 31
0.0
  0
LINE
  5
BDE6
330
20
100
AcDbEntity
  8
10000_FRONT
  6
Continuous
 62
     7
370
    20
100
AcDbLine
 39
0.7
 10
2.296738502323704
 20
721.3216649272181
 30
0.0
 11
1.614922502323706
 21
721.2019749272184
 31
0.0
  0
LINE
  5
BDE7
330
20
100
AcDbEntity
  8
10000_FRONT
  6
Continuous
 62
     7
370
    20
100
AcDbLine
 39
0.7
 10
-9.805351497676268
 20
721.2019749272184
 30
0.0
 11
-10.4871664976763
 21
721.3216649272181
 31
0.0
  0
LINE
  5
BDE8
330
20
100
AcDbEntity
  8
10000_FRONT
  6
Continuous
 62
     7
370
    20
100
AcDbLine
 39
0.7
 10
-10.4871664976763
 20
721.3216649272181
 30
0.0
 11
-11.10731249767627
 21
721.4426549272181
 31
0.0
  0
LINE
  5
BDE9
330
20
100
AcDbEntity
  8
10000_FRONT
  6
Continuous
 62
     7
370
    20
100
AcDbLine
 39
0.7
 10
-4.251266497676283
 20
720.7333849272183
 30
0.0
 11
-5.284210497676268
 21
720.7532449272183
 31
0.0
  0
LINE
  5
BDEA
330
20
100
AcDbEntity
  8
10000_FRONT
  6
Continuous
 62
     7
370
    20
100
AcDbLine
 39
0.7
 10
-5.284210497676268
 20
720.7532449272183
 30
0.0
 11
-6.521630497676284
 21
720.8172449272184
 31
0.0
  0
LINE
  5
BDEB
330
20
100
AcDbEntity
  8
10000_FRONT
  6
Continuous
 62
     7
370
    20
100
AcDbLine
 39
0.7
 10
-6.521630497676284
 20
720.8172449272184
 30
0.0
 11
-7.745167497676277
 21
720.9238749272183
 31
0.0
  0
LINE
  5
BDEC
330
20
100
AcDbEntity
  8
10000_FRONT
  6
Continuous
 62
     7
370
    20
100
AcDbLine
 39
0.7
 10
-7.745167497676277
 20
720.9238749272183
 30
0.0
 11
-8.332563497676289
 21
720.9904849272183
 31
0.0
  0
LINE
  5
BDED
330
20
100
AcDbEntity
  8
10000_FRONT
  6
Continuous
 62
     7
370
    20
100
AcDbLine
 39
0.7
 10
-8.332563497676289
 20
720.9904849272183
 30
0.0
 11
-8.893249497676292
 21
721.0634749272182
 31
0.0
  0
LINE
  5
BDEE
330
20
100
AcDbEntity
  8
10000_FRONT
  6
Continuous
 62
     7
370
    20
100
AcDbLine
 39
0.7
 10
-8.893249497676292
 20
721.0634749272182
 30
0.0
 11
-9.125014497676286
 21
721.0963349272184
 31
0.0
  0
LINE
  5
BDEF
330
20
100
AcDbEntity
  8
10000_FRONT
  6
Continuous
 62
     7
370
    20
100
AcDbLine
 39
0.7
 10
-9.125014497676286
 20
721.0963349272184
 30
0.0
 11
-9.348549497676286
 21
721.1295349272186
 31
0.0
  0
LINE
  5
BDF0
330
20
100
AcDbEntity
  8
10000_FRONT
  6
Continuous
 62
     7
370
    20
100
AcDbLine
 39
0.7
 10
-9.348549497676286
 20
721.1295349272186
 30
0.0
 11
-9.534642497676287
 21
721.1583049272182
 31
0.0
  0
LINE
  5
BDF1
330
20
100
AcDbEntity
  8
10000_FRONT
  6
Continuous
 62
     7
370
    20
100
AcDbLine
 39
0.7
 10
-9.534642497676287
 20
721.1583049272182
 30
0.0
 11
-9.695292497676293
 21
721.1839549272184
 31
0.0
  0
LINE
  5
BDF2
330
20
100
AcDbEntity
  8
10000_FRONT
  6
Continuous
 62
     7
370
    20
100
AcDbLine
 39
0.7
 10
-9.695292497676293
 20
721.1839549272184
 30
0.0
 11
-9.752252497676296
 21
721.1932349272184
 31
0.0
  0
LINE
  5
BDF3
330
20
100
AcDbEntity
  8
10000_FRONT
  6
Continuous
 62
     7
370
    20
100
AcDbLine
 39
0.7
 10
-9.752252497676296
 20
721.1932349272184
 30
0.0
 11
-9.805351497676268
 21
721.2019749272184
 31
0.0
  0
LINE
  5
BDF4
330
20
100
AcDbEntity
  8
10000_FRONT
  6
Continuous
 62
     7
370
    20
100
AcDbLine
 39
0.7
 10
-21.6023294976763
 20
716.3155049272186
 30
0.0
 11
-21.6084064976763
 21
716.3070249272184
 31
0.0
  0
LINE
  5
BDF5
330
20
100
AcDbEntity
  8
10000_FRONT
  6
Continuous
 62
     7
370
    20
100
AcDbLine
 39
0.7
 10
-21.6084064976763
 20
716.3070249272184
 30
0.0
 11
-21.63369749767628
 21
716.2717849272183
 31
0.0
  0
LINE
  5
BDF6
330
20
100
AcDbEntity
  8
10000_FRONT
  6
Continuous
 62
     7
370
    20
100
AcDbLine
 39
0.7
 10
-21.63369749767628
 20
716.2717849272183
 30
0.0
 11
-21.66741149767628
 21
716.2249449272183
 31
0.0
  0
LINE
  5
BDF7
330
20
100
AcDbEntity
  8
10000_FRONT
  6
Continuous
 62
     7
370
    20
100
AcDbLine
 39
0.7
 10
-21.66741149767628
 20
716.2249449272183
 30
0.0
 11
-21.76286549767628
 21
716.0932049272182
 31
0.0
  0
LINE
  5
BDF8
330
20
100
AcDbEntity
  8
10000_FRONT
  6
Continuous
 62
     7
370
    20
100
AcDbLine
 39
0.7
 10
-21.76286549767628
 20
716.0932049272182
 30
0.0
 11
-21.87411449767629
 21
715.9412749272182
 31
0.0
  0
LINE
  5
BDF9
330
20
100
AcDbEntity
  8
10000_FRONT
  6
Continuous
 62
     7
370
    20
100
AcDbLine
 39
0.7
 10
-21.87411449767629
 20
715.9412749272182
 30
0.0
 11
-22.0087024976763
 21
715.7597449272182
 31
0.0
  0
LINE
  5
BDFA
330
20
100
AcDbEntity
  8
10000_FRONT
  6
Continuous
 62
     7
370
    20
100
AcDbLine
 39
0.7
 10
-22.0087024976763
 20
715.7597449272182
 30
0.0
 11
-22.14934649767628
 21
715.5726149272186
 31
0.0
  0
LINE
  5
BDFB
330
20
100
AcDbEntity
  8
10000_FRONT
  6
Continuous
 62
     7
370
    20
100
AcDbLine
 39
0.7
 10
-22.14934649767628
 20
715.5726149272186
 30
0.0
 11
-22.4942034976763
 21
715.1245449272185
 31
0.0
  0
LINE
  5
BDFC
330
20
100
AcDbEntity
  8
10000_FRONT
  6
Continuous
 62
     7
370
    20
100
AcDbLine
 39
0.7
 10
-22.4942034976763
 20
715.1245449272185
 30
0.0
 11
-22.86245349767629
 21
714.6620949272183
 31
0.0
  0
LINE
  5
BDFD
330
20
100
AcDbEntity
  8
10000_FRONT
  6
Continuous
 62
     7
370
    20
100
AcDbLine
 39
0.7
 10
-22.86245349767629
 20
714.6620949272183
 30
0.0
 11
-23.65222749767628
 21
713.7215249272182
 31
0.0
  0
LINE
  5
BDFE
330
20
100
AcDbEntity
  8
10000_FRONT
  6
Continuous
 62
     7
370
    20
100
AcDbLine
 39
0.7
 10
-23.65222749767628
 20
713.7215249272182
 30
0.0
 11
-24.4819554976763
 21
712.8012749272182
 31
0.0
  0
LINE
  5
BDFF
330
20
100
AcDbEntity
  8
10000_FRONT
  6
Continuous
 62
     7
370
    20
100
AcDbLine
 39
0.7
 10
-24.4819554976763
 20
712.8012749272182
 30
0.0
 11
-25.1983184976763
 21
712.0568349272183
 31
0.0
  0
ARC
  5
BE00
330
20
100
AcDbEntity
  8
10000_FRONT
  6
Continuous
 62
     7
370
    20
100
AcDbCircle
 39
0.7
 10
-4.095214497676295
 20
690.7330449272182
 30
0.0
 40
31.5
100
AcDbArc
 50
102.86216
 51
122.1378399999983
  0
LINE
  5
BE01
330
20
100
AcDbEntity
  8
10000_FRONT
  6
Continuous
 62
     7
370
    20
100
AcDbLine
 39
0.7
 10
-20.8518894976763
 20
717.4063249272182
 30
0.0
 11
-21.20484349767628
 21
716.8822549272183
 31
0.0
  0
LINE
  5
BE02
330
20
100
AcDbEntity
  8
10000_FRONT
  6
Continuous
 62
     7
370
    20
100
AcDbLine
 39
0.7
 10
-21.20484349767628
 20
716.8822549272183
 30
0.0
 11
-21.6023294976763
 21
716.3155049272186
 31
0.0
  0
ARC
  5
BE03
330
20
100
AcDbEntity
  8
10000_FRONT
  6
Continuous
 62
     7
370
    20
100
AcDbCircle
 39
0.7
 10
-4.095214497676295
 20
690.7330449272182
 30
0.0
 40
30.0
100
AcDbArc
 50
134.7541099999998
 51
134.9999999999994
  0
LINE
  5
BE04
330
20
100
AcDbEntity
  8
10000_FRONT
  6
Continuous
 62
     7
370
    20
100
AcDbLine
 39
0.7
 10
-29.6776824976763
 20
708.2401549272184
 30
0.0
 11
-30.24442949767627
 21
707.8426649272183
 31
0.0
  0
LINE
  5
BE05
330
20
100
AcDbEntity
  8
10000_FRONT
  6
Continuous
 62
     7
370
    20
100
AcDbLine
 39
0.7
 10
-30.24442949767627
 20
707.8426649272183
 30
0.0
 11
-30.76849349767627
 21
707.4897149272183
 31
0.0
  0
LINE
  5
BE06
330
20
100
AcDbEntity
  8
10000_FRONT
  6
Continuous
 62
     7
370
    20
100
AcDbLine
 39
0.7
 10
-25.41900949767629
 20
711.8361449272184
 30
0.0
 11
-26.16344949767628
 21
711.1197849272183
 31
0.0
  0
LINE
  5
BE07
330
20
100
AcDbEntity
  8
10000_FRONT
  6
Continuous
 62
     7
370
    20
100
AcDbLine
 39
0.7
 10
-26.16344949767628
 20
711.1197849272183
 30
0.0
 11
-27.0836974976763
 21
710.2900549272184
 31
0.0
  0
LINE
  5
BE08
330
20
100
AcDbEntity
  8
10000_FRONT
  6
Continuous
 62
     7
370
    20
100
AcDbLine
 39
0.7
 10
-27.0836974976763
 20
710.2900549272184
 30
0.0
 11
-28.02426649767631
 21
709.5002849272184
 31
0.0
  0
LINE
  5
BE09
330
20
100
AcDbEntity
  8
10000_FRONT
  6
Continuous
 62
     7
370
    20
100
AcDbLine
 39
0.7
 10
-28.02426649767631
 20
709.5002849272184
 30
0.0
 11
-28.48672049767629
 21
709.1320349272185
 31
0.0
  0
LINE
  5
BE0A
330
20
100
AcDbEntity
  8
10000_FRONT
  6
Continuous
 62
     7
370
    20
100
AcDbLine
 39
0.7
 10
-28.48672049767629
 20
709.1320349272185
 30
0.0
 11
-28.93479249767628
 21
708.7871749272182
 31
0.0
  0
LINE
  5
BE0B
330
20
100
AcDbEntity
  8
10000_FRONT
  6
Continuous
 62
     7
370
    20
100
AcDbLine
 39
0.7
 10
-28.93479249767628
 20
708.7871749272182
 30
0.0
 11
-29.1219144976763
 21
708.6465249272183
 31
0.0
  0
LINE
  5
BE0C
330
20
100
AcDbEntity
  8
10000_FRONT
  6
Continuous
 62
     7
370
    20
100
AcDbLine
 39
0.7
 10
-29.1219144976763
 20
708.6465249272183
 30
0.0
 11
-29.30345249767629
 21
708.5119449272184
 31
0.0
  0
LINE
  5
BE0D
330
20
100
AcDbEntity
  8
10000_FRONT
  6
Continuous
 62
     7
370
    20
100
AcDbLine
 39
0.7
 10
-29.30345249767629
 20
708.5119449272184
 30
0.0
 11
-29.45537849767628
 21
708.4006949272183
 31
0.0
  0
LINE
  5
BE0E
330
20
100
AcDbEntity
  8
10000_FRONT
  6
Continuous
 62
     7
370
    20
100
AcDbLine
 39
0.7
 10
-29.45537849767628
 20
708.4006949272183
 30
0.0
 11
-29.58711749767628
 21
708.3052349272183
 31
0.0
  0
LINE
  5
BE0F
330
20
100
AcDbEntity
  8
10000_FRONT
  6
Continuous
 62
     7
370
    20
100
AcDbLine
 39
0.7
 10
-29.58711749767628
 20
708.3052349272183
 30
0.0
 11
-29.63395649767631
 21
708.2715249272183
 31
0.0
  0
LINE
  5
BE10
330
20
100
AcDbEntity
  8
10000_FRONT
  6
Continuous
 62
     7
370
    20
100
AcDbLine
 39
0.7
 10
-29.63395649767631
 20
708.2715249272183
 30
0.0
 11
-29.6776824976763
 21
708.2401549272184
 31
0.0
  0
LINE
  5
BE11
330
20
100
AcDbEntity
  8
10000_FRONT
  6
Continuous
 62
     7
370
    20
100
AcDbLine
 39
0.7
 10
-34.56415149767629
 20
696.4431749272185
 30
0.0
 11
-34.56245049767628
 21
696.4328849272184
 31
0.0
  0
LINE
  5
BE12
330
20
100
AcDbEntity
  8
10000_FRONT
  6
Continuous
 62
     7
370
    20
100
AcDbLine
 39
0.7
 10
-34.56245049767628
 20
696.4328849272184
 30
0.0
 11
-34.55541249767629
 21
696.3900749272182
 31
0.0
  0
LINE
  5
BE13
330
20
100
AcDbEntity
  8
10000_FRONT
  6
Continuous
 62
     7
370
    20
100
AcDbLine
 39
0.7
 10
-34.55541249767629
 20
696.3900749272182
 30
0.0
 11
-34.5461314976763
 21
696.3331149272183
 31
0.0
  0
LINE
  5
BE14
330
20
100
AcDbEntity
  8
10000_FRONT
  6
Continuous
 62
     7
370
    20
100
AcDbLine
 39
0.7
 10
-34.5461314976763
 20
696.3331149272183
 30
0.0
 11
-34.52047449767628
 21
696.1724649272183
 31
0.0
  0
LINE
  5
BE15
330
20
100
AcDbEntity
  8
10000_FRONT
  6
Continuous
 62
     7
370
    20
100
AcDbLine
 39
0.7
 10
-34.52047449767628
 20
696.1724649272183
 30
0.0
 11
-34.49171049767628
 21
695.9863749272184
 31
0.0
  0
LINE
  5
BE16
330
20
100
AcDbEntity
  8
10000_FRONT
  6
Continuous
 62
     7
370
    20
100
AcDbLine
 39
0.7
 10
-34.49171049767628
 20
695.9863749272184
 30
0.0
 11
-34.45851249767628
 21
695.7628449272184
 31
0.0
  0
LINE
  5
BE17
330
20
100
AcDbEntity
  8
10000_FRONT
  6
Continuous
 62
     7
370
    20
100
AcDbLine
 39
0.7
 10
-34.45851249767628
 20
695.7628449272184
 30
0.0
 11
-34.4256474976763
 21
695.5310749272183
 31
0.0
  0
LINE
  5
BE18
330
20
100
AcDbEntity
  8
10000_FRONT
  6
Continuous
 62
     7
370
    20
100
AcDbLine
 39
0.7
 10
-34.4256474976763
 20
695.5310749272183
 30
0.0
 11
-34.3526634976763
 21
694.9703949272183
 31
0.0
  0
LINE
  5
BE19
330
20
100
AcDbEntity
  8
10000_FRONT
  6
Continuous
 62
     7
370
    20
100
AcDbLine
 39
0.7
 10
-34.3526634976763
 20
694.9703949272183
 30
0.0
 11
-34.28605149767629
 21
694.3829949272183
 31
0.0
  0
LINE
  5
BE1A
330
20
100
AcDbEntity
  8
10000_FRONT
  6
Continuous
 62
     7
370
    20
100
AcDbLine
 39
0.7
 10
-34.28605149767629
 20
694.3829949272183
 30
0.0
 11
-34.17942249767629
 21
693.1594549272183
 31
0.0
  0
LINE
  5
BE1B
330
20
100
AcDbEntity
  8
10000_FRONT
  6
Continuous
 62
     7
370
    20
100
AcDbLine
 39
0.7
 10
-34.17942249767629
 20
693.1594549272183
 30
0.0
 11
-34.11541649767628
 21
691.9220349272182
 31
0.0
  0
LINE
  5
BE1C
330
20
100
AcDbEntity
  8
10000_FRONT
  6
Continuous
 62
     7
370
    20
100
AcDbLine
 39
0.7
 10
-34.11541649767628
 20
691.9220349272182
 30
0.0
 11
-34.09556249767633
 21
690.8890949272183
 31
0.0
  0
ARC
  5
BE1D
330
20
100
AcDbEntity
  8
10000_FRONT
  6
Continuous
 62
     7
370
    20
100
AcDbCircle
 39
0.7
 10
-4.095214497676295
 20
690.7330449272182
 30
0.0
 40
31.5
100
AcDbArc
 50
147.8621599999976
 51
167.1378399999974
  0
LINE
  5
BE1E
330
20
100
AcDbEntity
  8
10000_FRONT
  6
Continuous
 62
     7
370
    20
100
AcDbLine
 39
0.7
 10
-34.80482949767628
 20
697.7451349272183
 30
0.0
 11
-34.68384849767631
 21
697.1250649272183
 31
0.0
  0
LINE
  5
BE1F
330
20
100
AcDbEntity
  8
10000_FRONT
  6
Continuous
 62
     7
370
    20
100
AcDbLine
 39
0.7
 10
-34.68384849767631
 20
697.1250649272183
 30
0.0
 11
-34.56415149767629
 21
696.4431749272185
 31
0.0
  0
ARC
  5
BE20
330
20
100
AcDbEntity
  8
10000_FRONT
  6
Continuous
 62
     7
370
    20
100
AcDbCircle
 39
0.7
 10
-4.095214497676295
 20
690.7330449272182
 30
0.0
 40
30.0
100
AcDbArc
 50
134.9999999999994
 51
135.2416799999973
  0
LINE
  5
BE21
330
20
100
AcDbEntity
  8
10000_FRONT
  6
Continuous
 62
     7
370
    20
100
AcDbLine
 39
0.7
 10
17.22858250232372
 20
669.6299349272185
 30
0.0
 11
17.97302250232371
 21
670.3463049272182
 31
0.0
  0
LINE
  5
BE22
330
20
100
AcDbEntity
  8
10000_FRONT
  6
Continuous
 62
     7
370
    20
100
AcDbLine
 39
0.7
 10
17.97302250232371
 20
670.3463049272182
 30
0.0
 11
18.89327250232372
 21
671.1760249272185
 31
0.0
  0
LINE
  5
BE23
330
20
100
AcDbEntity
  8
10000_FRONT
  6
Continuous
 62
     7
370
    20
100
AcDbLine
 39
0.7
 10
18.89327250232372
 20
671.1760249272185
 30
0.0
 11
19.83383250232373
 21
671.9658049272186
 31
0.0
  0
LINE
  5
BE24
330
20
100
AcDbEntity
  8
10000_FRONT
  6
Continuous
 62
     7
370
    20
100
AcDbLine
 39
0.7
 10
19.83383250232373
 20
671.9658049272186
 30
0.0
 11
20.29629250232369
 21
672.3340549272184
 31
0.0
  0
LINE
  5
BE25
330
20
100
AcDbEntity
  8
10000_FRONT
  6
Continuous
 62
     7
370
    20
100
AcDbLine
 39
0.7
 10
20.29629250232369
 20
672.3340549272184
 30
0.0
 11
20.74436250232372
 21
672.6789049272183
 31
0.0
  0
LINE
  5
BE26
330
20
100
AcDbEntity
  8
10000_FRONT
  6
Continuous
 62
     7
370
    20
100
AcDbLine
 39
0.7
 10
20.74436250232372
 20
672.6789049272183
 30
0.0
 11
20.93148250232372
 21
672.8195549272184
 31
0.0
  0
LINE
  5
BE27
330
20
100
AcDbEntity
  8
10000_FRONT
  6
Continuous
 62
     7
370
    20
100
AcDbLine
 39
0.7
 10
20.93148250232372
 20
672.8195549272184
 30
0.0
 11
21.1130225023237
 21
672.9541449272185
 31
0.0
  0
LINE
  5
BE28
330
20
100
AcDbEntity
  8
10000_FRONT
  6
Continuous
 62
     7
370
    20
100
AcDbLine
 39
0.7
 10
21.1130225023237
 20
672.9541449272185
 30
0.0
 11
21.2649525023237
 21
673.0653949272184
 31
0.0
  0
LINE
  5
BE29
330
20
100
AcDbEntity
  8
10000_FRONT
  6
Continuous
 62
     7
370
    20
100
AcDbLine
 39
0.7
 10
21.2649525023237
 20
673.0653949272184
 30
0.0
 11
21.3966925023237
 21
673.1608449272185
 31
0.0
  0
LINE
  5
BE2A
330
20
100
AcDbEntity
  8
10000_FRONT
  6
Continuous
 62
     7
370
    20
100
AcDbLine
 39
0.7
 10
21.3966925023237
 20
673.1608449272185
 30
0.0
 11
21.4435225023237
 21
673.1945549272182
 31
0.0
  0
LINE
  5
BE2B
330
20
100
AcDbEntity
  8
10000_FRONT
  6
Continuous
 62
     7
370
    20
100
AcDbLine
 39
0.7
 10
21.4435225023237
 20
673.1945549272182
 30
0.0
 11
21.47877250232369
 21
673.2198449272186
 31
0.0
  0
LINE
  5
BE2C
330
20
100
AcDbEntity
  8
10000_FRONT
  6
Continuous
 62
     7
370
    20
100
AcDbLine
 39
0.7
 10
21.47877250232369
 20
673.2198449272186
 30
0.0
 11
21.48725250232371
 21
673.2259249272184
 31
0.0
  0
LINE
  5
BE2D
330
20
100
AcDbEntity
  8
10000_FRONT
  6
Continuous
 62
     7
370
    20
100
AcDbLine
 39
0.7
 10
13.4119025023237
 20
665.1505749272184
 30
0.0
 11
13.41798250232369
 21
665.1590549272184
 31
0.0
  0
LINE
  5
BE2E
330
20
100
AcDbEntity
  8
10000_FRONT
  6
Continuous
 62
     7
370
    20
100
AcDbLine
 39
0.7
 10
13.41798250232369
 20
665.1590549272184
 30
0.0
 11
13.44327250232371
 21
665.1942949272182
 31
0.0
  0
LINE
  5
BE2F
330
20
100
AcDbEntity
  8
10000_FRONT
  6
Continuous
 62
     7
370
    20
100
AcDbLine
 39
0.7
 10
13.44327250232371
 20
665.1942949272182
 30
0.0
 11
13.47698250232372
 21
665.2411349272185
 31
0.0
  0
LINE
  5
BE30
330
20
100
AcDbEntity
  8
10000_FRONT
  6
Continuous
 62
     7
370
    20
100
AcDbLine
 39
0.7
 10
13.47698250232372
 20
665.2411349272185
 30
0.0
 11
13.57243250232369
 21
665.3728749272183
 31
0.0
  0
LINE
  5
BE31
330
20
100
AcDbEntity
  8
10000_FRONT
  6
Continuous
 62
     7
370
    20
100
AcDbLine
 39
0.7
 10
13.57243250232369
 20
665.3728749272183
 30
0.0
 11
13.6836825023237
 21
665.5248049272183
 31
0.0
  0
LINE
  5
BE32
330
20
100
AcDbEntity
  8
10000_FRONT
  6
Continuous
 62
     7
370
    20
100
AcDbLine
 39
0.7
 10
13.6836825023237
 20
665.5248049272183
 30
0.0
 11
13.81827250232371
 21
665.7063449272184
 31
0.0
  0
LINE
  5
BE33
330
20
100
AcDbEntity
  8
10000_FRONT
  6
Continuous
 62
     7
370
    20
100
AcDbLine
 39
0.7
 10
13.81827250232371
 20
665.7063449272184
 30
0.0
 11
13.95892250232373
 21
665.8934649272183
 31
0.0
  0
LINE
  5
BE34
330
20
100
AcDbEntity
  8
10000_FRONT
  6
Continuous
 62
     7
370
    20
100
AcDbLine
 39
0.7
 10
13.95892250232373
 20
665.8934649272183
 30
0.0
 11
14.30377250232371
 21
666.3415349272185
 31
0.0
  0
LINE
  5
BE35
330
20
100
AcDbEntity
  8
10000_FRONT
  6
Continuous
 62
     7
370
    20
100
AcDbLine
 39
0.7
 10
14.30377250232371
 20
666.3415349272185
 30
0.0
 11
14.67202250232373
 21
666.8039849272182
 31
0.0
  0
LINE
  5
BE36
330
20
100
AcDbEntity
  8
10000_FRONT
  6
Continuous
 62
     7
370
    20
100
AcDbLine
 39
0.7
 10
14.67202250232373
 20
666.8039849272182
 30
0.0
 11
15.4618025023237
 21
667.7445549272183
 31
0.0
  0
LINE
  5
BE37
330
20
100
AcDbEntity
  8
10000_FRONT
  6
Continuous
 62
     7
370
    20
100
AcDbLine
 39
0.7
 10
15.4618025023237
 20
667.7445549272183
 30
0.0
 11
16.29152250232371
 21
668.6648049272185
 31
0.0
  0
LINE
  5
BE38
330
20
100
AcDbEntity
  8
10000_FRONT
  6
Continuous
 62
     7
370
    20
100
AcDbLine
 39
0.7
 10
16.29152250232371
 20
668.6648049272185
 30
0.0
 11
17.00789250232373
 21
669.4092449272184
 31
0.0
  0
LINE
  5
BE39
330
20
100
AcDbEntity
  8
10000_FRONT
  6
Continuous
 62
     7
370
    20
100
AcDbLine
 39
0.7
 10
13.17236250232372
 20
664.8118949272184
 30
0.0
 11
13.4119025023237
 21
665.1505749272184
 31
0.0
  0
LINE
  5
BE3A
330
20
100
AcDbEntity
  8
10000_FRONT
  6
Continuous
 62
     7
370
    20
100
AcDbLine
 39
0.7
 10
21.48725250232371
 20
673.2259249272184
 30
0.0
 11
22.05400250232373
 21
673.6234149272184
 31
0.0
  0
LINE
  5
BE3B
330
20
100
AcDbEntity
  8
10000_FRONT
  6
Continuous
 62
     7
370
    20
100
AcDbLine
 39
0.7
 10
22.05400250232373
 20
673.6234149272184
 30
0.0
 11
22.57806250232372
 21
673.9763649272183
 31
0.0
  0
LINE
  5
BE3C
330
20
100
AcDbEntity
  8
10000_FRONT
  6
Continuous
 62
     7
370
    20
100
AcDbLine
 39
0.7
 10
-3.939162497676306
 20
660.7326949272184
 30
0.0
 11
-2.906218497676292
 21
660.7128349272183
 31
0.0
  0
LINE
  5
BE3D
330
20
100
AcDbEntity
  8
10000_FRONT
  6
Continuous
 62
     7
370
    20
100
AcDbLine
 39
0.7
 10
-2.906218497676292
 20
660.7128349272183
 30
0.0
 11
-1.668798497676276
 21
660.6488349272184
 31
0.0
  0
LINE
  5
BE3E
330
20
100
AcDbEntity
  8
10000_FRONT
  6
Continuous
 62
     7
370
    20
100
AcDbLine
 39
0.7
 10
-1.668798497676276
 20
660.6488349272184
 30
0.0
 11
-0.4452614976762847
 21
660.5422049272184
 31
0.0
  0
LINE
  5
BE3F
330
20
100
AcDbEntity
  8
10000_FRONT
  6
Continuous
 62
     7
370
    20
100
AcDbLine
 39
0.7
 10
-0.4452614976762847
 20
660.5422049272184
 30
0.0
 11
0.1421345023236995
 21
660.4755949272185
 31
0.0
  0
LINE
  5
BE40
330
20
100
AcDbEntity
  8
10000_FRONT
  6
Continuous
 62
     7
370
    20
100
AcDbLine
 39
0.7
 10
0.1421345023236995
 20
660.4755949272185
 30
0.0
 11
0.7028215023237295
 21
660.4026049272183
 31
0.0
  0
LINE
  5
BE41
330
20
100
AcDbEntity
  8
10000_FRONT
  6
Continuous
 62
     7
370
    20
100
AcDbLine
 39
0.7
 10
0.7028215023237295
 20
660.4026049272183
 30
0.0
 11
0.9345855023236991
 21
660.3697449272186
 31
0.0
  0
LINE
  5
BE42
330
20
100
AcDbEntity
  8
10000_FRONT
  6
Continuous
 62
     7
370
    20
100
AcDbLine
 39
0.7
 10
0.9345855023236991
 20
660.3697449272186
 30
0.0
 11
1.158120502323697
 21
660.3365449272184
 31
0.0
  0
LINE
  5
BE43
330
20
100
AcDbEntity
  8
10000_FRONT
  6
Continuous
 62
     7
370
    20
100
AcDbLine
 39
0.7
 10
1.158120502323697
 20
660.3365449272184
 30
0.0
 11
1.344213502323725
 21
660.3077849272184
 31
0.0
  0
LINE
  5
BE44
330
20
100
AcDbEntity
  8
10000_FRONT
  6
Continuous
 62
     7
370
    20
100
AcDbLine
 39
0.7
 10
1.344213502323725
 20
660.3077849272184
 30
0.0
 11
1.5048635023237
 21
660.2821249272184
 31
0.0
  0
LINE
  5
BE45
330
20
100
AcDbEntity
  8
10000_FRONT
  6
Continuous
 62
     7
370
    20
100
AcDbLine
 39
0.7
 10
1.5048635023237
 20
660.2821249272184
 30
0.0
 11
1.561823502323704
 21
660.2728449272184
 31
0.0
  0
LINE
  5
BE46
330
20
100
AcDbEntity
  8
10000_FRONT
  6
Continuous
 62
     7
370
    20
100
AcDbLine
 39
0.7
 10
1.561823502323704
 20
660.2728449272184
 30
0.0
 11
1.614922502323706
 21
660.2641049272184
 31
0.0
  0
LINE
  5
BE47
330
20
100
AcDbEntity
  8
10000_FRONT
  6
Continuous
 62
     7
370
    20
100
AcDbLine
 39
0.7
 10
1.614922502323706
 20
660.2641049272184
 30
0.0
 11
2.296738502323704
 21
660.1444149272183
 31
0.0
  0
LINE
  5
BE48
330
20
100
AcDbEntity
  8
10000_FRONT
  6
Continuous
 62
     7
370
    20
100
AcDbLine
 39
0.7
 10
2.296738502323704
 20
660.1444149272183
 30
0.0
 11
2.916883502323712
 21
660.0234249272183
 31
0.0
  0
ARC
  5
BE49
330
20
100
AcDbEntity
  8
10000_FRONT
  6
Continuous
 62
     7
370
    20
100
AcDbCircle
 39
0.7
 10
-4.095214497676295
 20
690.7330449272182
 30
0.0
 40
31.5
100
AcDbArc
 50
282.86216
 51
296.3270800000022
  0
LINE
  5
BE4A
330
20
100
AcDbEntity
  8
10000_FRONT
  6
Continuous
 62
     7
370
    20
100
AcDbLine
 39
0.7
 10
9.874872502323713
 20
662.5003149272185
 30
0.0
 11
9.792772502323712
 21
662.6175749272183
 31
0.0
  0
LINE
  5
BE4B
330
20
100
AcDbEntity
  8
10000_FRONT
  6
Continuous
 62
     7
370
    20
100
AcDbLine
 39
0.7
 10
9.792772502323712
 20
662.6175749272183
 30
0.0
 11
9.826422502323707
 21
662.6496649272183
 31
0.0
  0
LINE
  5
BE4C
330
20
100
AcDbEntity
  8
10000_FRONT
  6
Continuous
 62
     7
370
    20
100
AcDbLine
 39
0.7
 10
9.826422502323707
 20
662.6496649272183
 30
0.0
 11
10.05184250232372
 21
662.8158349272183
 31
0.0
  0
LINE
  5
BE4D
330
20
100
AcDbEntity
  8
10000_FRONT
  6
Continuous
 62
     7
370
    20
100
AcDbLine
 39
0.7
 10
10.05184250232372
 20
662.8158349272183
 30
0.0
 11
10.43285250232372
 21
663.0615749272184
 31
0.0
  0
LINE
  5
BE4E
330
20
100
AcDbEntity
  8
10000_FRONT
  6
Continuous
 62
     7
370
    20
100
AcDbLine
 39
0.7
 10
10.43285250232372
 20
663.0615749272184
 30
0.0
 11
10.9336725023237
 21
663.3727649272184
 31
0.0
  0
LINE
  5
BE4F
330
20
100
AcDbEntity
  8
10000_FRONT
  6
Continuous
 62
     7
370
    20
100
AcDbLine
 39
0.7
 10
10.9336725023237
 20
663.3727649272184
 30
0.0
 11
11.54109250232369
 21
663.7506949272184
 31
0.0
  0
LINE
  5
BE50
330
20
100
AcDbEntity
  8
10000_FRONT
  6
Continuous
 62
     7
370
    20
100
AcDbLine
 39
0.7
 10
11.54109250232369
 20
663.7506949272184
 30
0.0
 11
12.24915250232371
 21
664.2011549272184
 31
0.0
  0
LINE
  5
BE51
330
20
100
AcDbEntity
  8
10000_FRONT
  6
Continuous
 62
     7
370
    20
100
AcDbLine
 39
0.7
 10
12.24915250232371
 20
664.2011549272184
 30
0.0
 11
13.0096825023237
 21
664.7021249272182
 31
0.0
  0
LINE
  5
BE52
330
20
100
AcDbEntity
  8
10000_FRONT
  6
Continuous
 62
     7
370
    20
100
AcDbLine
 39
0.7
 10
13.0096825023237
 20
664.7021249272182
 30
0.0
 11
13.17236250232372
 21
664.8118949272184
 31
0.0
  0
ARC
  5
BE53
330
20
100
AcDbEntity
  8
10000_FRONT
  6
Continuous
 62
     7
370
    20
100
AcDbCircle
 39
0.7
 10
-4.095214497676295
 20
690.7330449272182
 30
0.0
 40
31.5
100
AcDbArc
 50
327.8621599999977
 51
349.0194299999962
  0
LINE
  5
BE54
330
20
100
AcDbEntity
  8
10000_FRONT
  6
Continuous
 62
     7
370
    20
100
AcDbLine
 39
0.7
 10
-11.10731249767627
 20
660.0234249272183
 30
0.0
 11
-10.4871664976763
 21
660.1444149272183
 31
0.0
  0
LINE
  5
BE55
330
20
100
AcDbEntity
  8
10000_FRONT
  6
Continuous
 62
     7
370
    20
100
AcDbLine
 39
0.7
 10
-10.4871664976763
 20
660.1444149272183
 30
0.0
 11
-9.805351497676268
 21
660.2641049272184
 31
0.0
  0
LINE
  5
BE56
330
20
100
AcDbEntity
  8
10000_FRONT
  6
Continuous
 62
     7
370
    20
100
AcDbLine
 39
0.7
 10
-9.805351497676268
 20
660.2641049272184
 30
0.0
 11
-9.795056497676283
 21
660.2658049272185
 31
0.0
  0
LINE
  5
BE57
330
20
100
AcDbEntity
  8
10000_FRONT
  6
Continuous
 62
     7
370
    20
100
AcDbLine
 39
0.7
 10
-9.795056497676283
 20
660.2658049272185
 30
0.0
 11
-9.752252497676296
 21
660.2728449272184
 31
0.0
  0
LINE
  5
BE58
330
20
100
AcDbEntity
  8
10000_FRONT
  6
Continuous
 62
     7
370
    20
100
AcDbLine
 39
0.7
 10
-9.752252497676296
 20
660.2728449272184
 30
0.0
 11
-9.695292497676293
 21
660.2821249272184
 31
0.0
  0
LINE
  5
BE59
330
20
100
AcDbEntity
  8
10000_FRONT
  6
Continuous
 62
     7
370
    20
100
AcDbLine
 39
0.7
 10
-9.695292497676293
 20
660.2821249272184
 30
0.0
 11
-9.534642497676287
 21
660.3077849272184
 31
0.0
  0
LINE
  5
BE5A
330
20
100
AcDbEntity
  8
10000_FRONT
  6
Continuous
 62
     7
370
    20
100
AcDbLine
 39
0.7
 10
-9.534642497676287
 20
660.3077849272184
 30
0.0
 11
-9.348549497676286
 21
660.3365449272184
 31
0.0
  0
LINE
  5
BE5B
330
20
100
AcDbEntity
  8
10000_FRONT
  6
Continuous
 62
     7
370
    20
100
AcDbLine
 39
0.7
 10
-9.348549497676286
 20
660.3365449272184
 30
0.0
 11
-9.125014497676286
 21
660.3697449272186
 31
0.0
  0
LINE
  5
BE5C
330
20
100
AcDbEntity
  8
10000_FRONT
  6
Continuous
 62
     7
370
    20
100
AcDbLine
 39
0.7
 10
-9.125014497676286
 20
660.3697449272186
 30
0.0
 11
-8.893249497676292
 21
660.4026049272183
 31
0.0
  0
LINE
  5
BE5D
330
20
100
AcDbEntity
  8
10000_FRONT
  6
Continuous
 62
     7
370
    20
100
AcDbLine
 39
0.7
 10
-8.893249497676292
 20
660.4026049272183
 30
0.0
 11
-8.332563497676289
 21
660.4755949272185
 31
0.0
  0
LINE
  5
BE5E
330
20
100
AcDbEntity
  8
10000_FRONT
  6
Continuous
 62
     7
370
    20
100
AcDbLine
 39
0.7
 10
-8.332563497676289
 20
660.4755949272185
 30
0.0
 11
-7.745167497676277
 21
660.5422049272184
 31
0.0
  0
LINE
  5
BE5F
330
20
100
AcDbEntity
  8
10000_FRONT
  6
Continuous
 62
     7
370
    20
100
AcDbLine
 39
0.7
 10
-7.745167497676277
 20
660.5422049272184
 30
0.0
 11
-6.521630497676284
 21
660.6488349272184
 31
0.0
  0
LINE
  5
BE60
330
20
100
AcDbEntity
  8
10000_FRONT
  6
Continuous
 62
     7
370
    20
100
AcDbLine
 39
0.7
 10
-6.521630497676284
 20
660.6488349272184
 30
0.0
 11
-5.284210497676268
 21
660.7128349272183
 31
0.0
  0
LINE
  5
BE61
330
20
100
AcDbEntity
  8
10000_FRONT
  6
Continuous
 62
     7
370
    20
100
AcDbLine
 39
0.7
 10
-5.284210497676268
 20
660.7128349272183
 30
0.0
 11
-4.251266497676283
 21
660.7326949272184
 31
0.0
  0
ARC
  5
BE62
330
20
100
AcDbEntity
  8
10000_FRONT
  6
Continuous
 62
     7
370
    20
100
AcDbCircle
 39
0.7
 10
-4.095214497676295
 20
690.7330449272182
 30
0.0
 40
31.5
100
AcDbArc
 50
237.8621600000017
 51
257.13784
  0
ARC
  5
BE63
330
20
100
AcDbEntity
  8
10000_FRONT
  6
Continuous
 62
     7
370
    20
100
AcDbCircle
 39
0.7
 10
-4.095214497676295
 20
690.7330449272182
 30
0.0
 40
30.0
100
AcDbArc
 50
225.0000000000006
 51
225.5308799999983
  0
LINE
  5
BE64
330
20
100
AcDbEntity
  8
10000_FRONT
  6
Continuous
 62
     7
370
    20
100
AcDbLine
 39
0.7
 10
-21.6023294976763
 20
665.1505749272184
 30
0.0
 11
-21.20484349767628
 21
664.5838249272184
 31
0.0
  0
LINE
  5
BE65
330
20
100
AcDbEntity
  8
10000_FRONT
  6
Continuous
 62
     7
370
    20
100
AcDbLine
 39
0.7
 10
-21.20484349767628
 20
664.5838249272184
 30
0.0
 11
-20.8518894976763
 21
664.0597649272184
 31
0.0
  0
LINE
  5
BE66
330
20
100
AcDbEntity
  8
10000_FRONT
  6
Continuous
 62
     7
370
    20
100
AcDbLine
 39
0.7
 10
-25.1983184976763
 20
669.4092449272184
 30
0.0
 11
-24.4819554976763
 21
668.6648049272185
 31
0.0
  0
LINE
  5
BE67
330
20
100
AcDbEntity
  8
10000_FRONT
  6
Continuous
 62
     7
370
    20
100
AcDbLine
 39
0.7
 10
-24.4819554976763
 20
668.6648049272185
 30
0.0
 11
-23.65222749767628
 21
667.7445549272183
 31
0.0
  0
LINE
  5
BE68
330
20
100
AcDbEntity
  8
10000_FRONT
  6
Continuous
 62
     7
370
    20
100
AcDbLine
 39
0.7
 10
-23.65222749767628
 20
667.7445549272183
 30
0.0
 11
-22.86245349767629
 21
666.8039849272182
 31
0.0
  0
LINE
  5
BE69
330
20
100
AcDbEntity
  8
10000_FRONT
  6
Continuous
 62
     7
370
    20
100
AcDbLine
 39
0.7
 10
-22.86245349767629
 20
666.8039849272182
 30
0.0
 11
-22.4942034976763
 21
666.3415349272185
 31
0.0
  0
LINE
  5
BE6A
330
20
100
AcDbEntity
  8
10000_FRONT
  6
Continuous
 62
     7
370
    20
100
AcDbLine
 39
0.7
 10
-22.4942034976763
 20
666.3415349272185
 30
0.0
 11
-22.14934649767628
 21
665.8934649272183
 31
0.0
  0
LINE
  5
BE6B
330
20
100
AcDbEntity
  8
10000_FRONT
  6
Continuous
 62
     7
370
    20
100
AcDbLine
 39
0.7
 10
-22.14934649767628
 20
665.8934649272183
 30
0.0
 11
-22.0087024976763
 21
665.7063449272184
 31
0.0
  0
LINE
  5
BE6C
330
20
100
AcDbEntity
  8
10000_FRONT
  6
Continuous
 62
     7
370
    20
100
AcDbLine
 39
0.7
 10
-22.0087024976763
 20
665.7063449272184
 30
0.0
 11
-21.87411449767629
 21
665.5248049272183
 31
0.0
  0
LINE
  5
BE6D
330
20
100
AcDbEntity
  8
10000_FRONT
  6
Continuous
 62
     7
370
    20
100
AcDbLine
 39
0.7
 10
-21.87411449767629
 20
665.5248049272183
 30
0.0
 11
-21.76286549767628
 21
665.3728749272183
 31
0.0
  0
LINE
  5
BE6E
330
20
100
AcDbEntity
  8
10000_FRONT
  6
Continuous
 62
     7
370
    20
100
AcDbLine
 39
0.7
 10
-21.76286549767628
 20
665.3728749272183
 30
0.0
 11
-21.66741149767628
 21
665.2411349272185
 31
0.0
  0
LINE
  5
BE6F
330
20
100
AcDbEntity
  8
10000_FRONT
  6
Continuous
 62
     7
370
    20
100
AcDbLine
 39
0.7
 10
-21.66741149767628
 20
665.2411349272185
 30
0.0
 11
-21.63369749767628
 21
665.1942949272182
 31
0.0
  0
LINE
  5
BE70
330
20
100
AcDbEntity
  8
10000_FRONT
  6
Continuous
 62
     7
370
    20
100
AcDbLine
 39
0.7
 10
-21.63369749767628
 20
665.1942949272182
 30
0.0
 11
-21.6023294976763
 21
665.1505749272184
 31
0.0
  0
LINE
  5
BE71
330
20
100
AcDbEntity
  8
10000_FRONT
  6
Continuous
 62
     7
370
    20
100
AcDbLine
 39
0.7
 10
-29.6776824976763
 20
673.2259249272184
 30
0.0
 11
-29.66920049767629
 21
673.2198449272186
 31
0.0
  0
LINE
  5
BE72
330
20
100
AcDbEntity
  8
10000_FRONT
  6
Continuous
 62
     7
370
    20
100
AcDbLine
 39
0.7
 10
-29.66920049767629
 20
673.2198449272186
 30
0.0
 11
-29.63395649767631
 21
673.1945549272182
 31
0.0
  0
LINE
  5
BE73
330
20
100
AcDbEntity
  8
10000_FRONT
  6
Continuous
 62
     7
370
    20
100
AcDbLine
 39
0.7
 10
-29.63395649767631
 20
673.1945549272182
 30
0.0
 11
-29.58711749767628
 21
673.1608449272185
 31
0.0
  0
LINE
  5
BE74
330
20
100
AcDbEntity
  8
10000_FRONT
  6
Continuous
 62
     7
370
    20
100
AcDbLine
 39
0.7
 10
-29.58711749767628
 20
673.1608449272185
 30
0.0
 11
-29.45537849767628
 21
673.0653949272184
 31
0.0
  0
LINE
  5
BE75
330
20
100
AcDbEntity
  8
10000_FRONT
  6
Continuous
 62
     7
370
    20
100
AcDbLine
 39
0.7
 10
-29.45537849767628
 20
673.0653949272184
 30
0.0
 11
-29.30345249767629
 21
672.9541449272185
 31
0.0
  0
LINE
  5
BE76
330
20
100
AcDbEntity
  8
10000_FRONT
  6
Continuous
 62
     7
370
    20
100
AcDbLine
 39
0.7
 10
-29.30345249767629
 20
672.9541449272185
 30
0.0
 11
-29.1219144976763
 21
672.8195549272184
 31
0.0
  0
LINE
  5
BE77
330
20
100
AcDbEntity
  8
10000_FRONT
  6
Continuous
 62
     7
370
    20
100
AcDbLine
 39
0.7
 10
-29.1219144976763
 20
672.8195549272184
 30
0.0
 11
-28.93479249767628
 21
672.6789049272183
 31
0.0
  0
LINE
  5
BE78
330
20
100
AcDbEntity
  8
10000_FRONT
  6
Continuous
 62
     7
370
    20
100
AcDbLine
 39
0.7
 10
-28.93479249767628
 20
672.6789049272183
 30
0.0
 11
-28.48672049767629
 21
672.3340549272184
 31
0.0
  0
LINE
  5
BE79
330
20
100
AcDbEntity
  8
10000_FRONT
  6
Continuous
 62
     7
370
    20
100
AcDbLine
 39
0.7
 10
-28.48672049767629
 20
672.3340549272184
 30
0.0
 11
-28.02426649767631
 21
671.9658049272186
 31
0.0
  0
LINE
  5
BE7A
330
20
100
AcDbEntity
  8
10000_FRONT
  6
Continuous
 62
     7
370
    20
100
AcDbLine
 39
0.7
 10
-28.02426649767631
 20
671.9658049272186
 30
0.0
 11
-27.0836974976763
 21
671.1760249272185
 31
0.0
  0
LINE
  5
BE7B
330
20
100
AcDbEntity
  8
10000_FRONT
  6
Continuous
 62
     7
370
    20
100
AcDbLine
 39
0.7
 10
-27.0836974976763
 20
671.1760249272185
 30
0.0
 11
-26.16344949767628
 21
670.3463049272182
 31
0.0
  0
LINE
  5
BE7C
330
20
100
AcDbEntity
  8
10000_FRONT
  6
Continuous
 62
     7
370
    20
100
AcDbLine
 39
0.7
 10
-26.16344949767628
 20
670.3463049272182
 30
0.0
 11
-25.41900949767629
 21
669.6299349272185
 31
0.0
  0
LINE
  5
BE7D
330
20
100
AcDbEntity
  8
10000_FRONT
  6
Continuous
 62
     7
370
    20
100
AcDbLine
 39
0.7
 10
-30.76849349767627
 20
673.9763649272183
 30
0.0
 11
-30.24442949767627
 21
673.6234149272184
 31
0.0
  0
LINE
  5
BE7E
330
20
100
AcDbEntity
  8
10000_FRONT
  6
Continuous
 62
     7
370
    20
100
AcDbLine
 39
0.7
 10
-30.24442949767627
 20
673.6234149272184
 30
0.0
 11
-29.6776824976763
 21
673.2259249272184
 31
0.0
  0
LINE
  5
BE7F
330
20
100
AcDbEntity
  8
10000_FRONT
  6
Continuous
 62
     7
370
    20
100
AcDbLine
 39
0.7
 10
-34.09556249767633
 20
690.5769849272182
 30
0.0
 11
-34.11541649767628
 21
689.5440449272183
 31
0.0
  0
LINE
  5
BE80
330
20
100
AcDbEntity
  8
10000_FRONT
  6
Continuous
 62
     7
370
    20
100
AcDbLine
 39
0.7
 10
-34.11541649767628
 20
689.5440449272183
 30
0.0
 11
-34.17942249767629
 21
688.3066249272182
 31
0.0
  0
LINE
  5
BE81
330
20
100
AcDbEntity
  8
10000_FRONT
  6
Continuous
 62
     7
370
    20
100
AcDbLine
 39
0.7
 10
-34.17942249767629
 20
688.3066249272182
 30
0.0
 11
-34.28605149767629
 21
687.0830849272183
 31
0.0
  0
LINE
  5
BE82
330
20
100
AcDbEntity
  8
10000_FRONT
  6
Continuous
 62
     7
370
    20
100
AcDbLine
 39
0.7
 10
-34.28605149767629
 20
687.0830849272183
 30
0.0
 11
-34.3526634976763
 21
686.4956949272184
 31
0.0
  0
LINE
  5
BE83
330
20
100
AcDbEntity
  8
10000_FRONT
  6
Continuous
 62
     7
370
    20
100
AcDbLine
 39
0.7
 10
-34.3526634976763
 20
686.4956949272184
 30
0.0
 11
-34.4256474976763
 21
685.9350049272184
 31
0.0
  0
LINE
  5
BE84
330
20
100
AcDbEntity
  8
10000_FRONT
  6
Continuous
 62
     7
370
    20
100
AcDbLine
 39
0.7
 10
-34.4256474976763
 20
685.9350049272184
 30
0.0
 11
-34.45851249767628
 21
685.7032449272185
 31
0.0
  0
LINE
  5
BE85
330
20
100
AcDbEntity
  8
10000_FRONT
  6
Continuous
 62
     7
370
    20
100
AcDbLine
 39
0.7
 10
-34.45851249767628
 20
685.7032449272185
 30
0.0
 11
-34.49171049767628
 21
685.4797049272185
 31
0.0
  0
LINE
  5
BE86
330
20
100
AcDbEntity
  8
10000_FRONT
  6
Continuous
 62
     7
370
    20
100
AcDbLine
 39
0.7
 10
-34.49171049767628
 20
685.4797049272185
 30
0.0
 11
-34.52047449767628
 21
685.2936149272186
 31
0.0
  0
LINE
  5
BE87
330
20
100
AcDbEntity
  8
10000_FRONT
  6
Continuous
 62
     7
370
    20
100
AcDbLine
 39
0.7
 10
-34.52047449767628
 20
685.2936149272186
 30
0.0
 11
-34.5461314976763
 21
685.1329649272186
 31
0.0
  0
LINE
  5
BE88
330
20
100
AcDbEntity
  8
10000_FRONT
  6
Continuous
 62
     7
370
    20
100
AcDbLine
 39
0.7
 10
-34.5461314976763
 20
685.1329649272186
 30
0.0
 11
-34.55541249767629
 21
685.0760049272182
 31
0.0
  0
LINE
  5
BE89
330
20
100
AcDbEntity
  8
10000_FRONT
  6
Continuous
 62
     7
370
    20
100
AcDbLine
 39
0.7
 10
-34.55541249767629
 20
685.0760049272182
 30
0.0
 11
-34.56415149767629
 21
685.0229049272186
 31
0.0
  0
ARC
  5
BE8A
330
20
100
AcDbEntity
  8
10000_FRONT
  6
Continuous
 62
     7
370
    20
100
AcDbCircle
 39
0.7
 10
-4.095214497676295
 20
690.7330449272182
 30
0.0
 40
31.5
100
AcDbArc
 50
192.8621600000026
 51
212.1378400000023
  0
ARC
  5
BE8B
330
20
100
AcDbEntity
  8
10000_FRONT
  6
Continuous
 62
     7
370
    20
100
AcDbCircle
 39
0.7
 10
-4.095214497676295
 20
690.7330449272182
 30
0.0
 40
30.0
100
AcDbArc
 50
224.4699999999999
 51
225.0000000000006
  0
LINE
  5
BE8C
330
20
100
AcDbEntity
  8
10000_FRONT
  6
Continuous
 62
     7
370
    20
100
AcDbLine
 39
0.7
 10
-34.56415149767629
 20
685.0229049272186
 30
0.0
 11
-34.68384849767631
 21
684.3410249272184
 31
0.0
  0
LINE
  5
BE8D
330
20
100
AcDbEntity
  8
10000_FRONT
  6
Continuous
 62
     7
370
    20
100
AcDbLine
 39
0.7
 10
-34.68384849767631
 20
684.3410249272184
 30
0.0
 11
-34.80482949767628
 21
683.7209449272184
 31
0.0
  0
LINE
  5
BE8E
330
20
100
AcDbEntity
  8
10000_FRONT
  6
Continuous
 62
     7
370
    20
100
AcDbLine
 39
0.7
 10
-34.41903349767628
 20
695.4830449272184
 30
0.0
 11
-34.4174384976763
 21
695.4830449272184
 31
0.0
  0
ARC
  5
BE8F
330
20
100
AcDbEntity
  8
10000_FRONT
  6
Continuous
 62
     7
370
    20
100
AcDbCircle
 39
0.7
 10
-4.095214497676295
 20
690.7330449272182
 30
0.0
 40
31.5
100
AcDbArc
 50
10.98508699999997
 51
32.13784000000234
  0
ARC
  5
BE90
330
20
100
AcDbEntity
  8
10000_FRONT
  6
Continuous
 62
     7
370
    20
100
AcDbCircle
 39
0.7
 10
-4.095214497676295
 20
690.7330449272182
 30
0.0
 40
30.0
100
AcDbArc
 50
348.4670700000012
 51
348.4692199999994
  0
LINE
  5
BE91
330
20
100
AcDbEntity
  8
10000_FRONT
  6
Continuous
 62
     7
370
    20
100
AcDbLine
 39
0.7
 10
-34.41903349767628
 20
685.9830449272184
 30
0.0
 11
-34.41769949767631
 21
685.9830449272184
 31
0.0
  0
ARC
  5
BE92
330
20
100
AcDbEntity
  8
10000_FRONT
  6
Continuous
 62
     7
370
    50
100
AcDbCircle
 39
0.7
 10
25.90478250232371
 20
660.7330449272184
 30
0.0
 40
3.0
100
AcDbArc
 50
270.0
 51
0.0
  0
LINE
  5
BE93
330
20
100
AcDbEntity
  8
10000_FRONT
  6
Continuous
 62
     7
370
    50
100
AcDbLine
 39
0.7
 10
28.90478250232371
 20
684.7330449272184
 30
0.0
 11
28.90478250232371
 21
660.7330449272184
 31
0.0
  0
LINE
  5
BE94
330
20
100
AcDbEntity
  8
10000_FRONT
  6
Continuous
 62
     7
370
    50
100
AcDbLine
 10
28.90478250232371
 20
720.7330449272181
 30
0.0
 11
28.90478250232371
 21
696.7367449272185
 31
0.0
  0
ARC
  5
BE95
330
20
100
AcDbEntity
  8
10000_FRONT
  6
Continuous
 62
     7
370
    50
100
AcDbCircle
 39
0.7
 10
25.90478250232371
 20
720.7330449272181
 30
0.0
 40
3.0
100
AcDbArc
 50
0.0
 51
90.0
  0
LINE
  5
BE96
330
20
100
AcDbEntity
  8
10000_FRONT
  6
Continuous
 62
     7
370
    50
100
AcDbLine
 39
0.7
 10
-34.0952144976763
 20
723.7330449272183
 30
0.0
 11
25.90478250232371
 21
723.7330449272183
 31
0.0
  0
ARC
  5
BE97
330
20
100
AcDbEntity
  8
10000_FRONT
  6
Continuous
 62
     7
370
    50
100
AcDbCircle
 39
0.7
 10
-34.0952144976763
 20
720.7330449272181
 30
0.0
 40
3.0
100
AcDbArc
 50
90.0
 51
180.0
  0
LINE
  5
BE98
330
20
100
AcDbEntity
  8
10000_FRONT
  6
Continuous
 62
     7
370
    50
100
AcDbLine
 39
0.7
 10
-37.0952144976763
 20
660.7330449272184
 30
0.0
 11
-37.0952144976763
 21
720.7330449272181
 31
0.0
  0
ARC
  5
BE99
330
20
100
AcDbEntity
  8
10000_FRONT
  6
Continuous
 62
     7
370
    50
100
AcDbCircle
 39
0.7
 10
-34.0952144976763
 20
660.7330449272184
 30
0.0
 40
3.0
100
AcDbArc
 50
180.0
 51
270.0
  0
LINE
  5
BE9A
330
20
100
AcDbEntity
  8
10000_FRONT
  6
Continuous
 62
     7
370
    50
100
AcDbLine
 39
0.7
 10
25.90478250232371
 20
657.7330449272184
 30
0.0
 11
-34.0952144976763
 21
657.7330449272184
 31
0.0
  0
LINE
  5
BE9B
330
20
100
AcDbEntity
  8
10000_FRONT
  6
Continuous
 62
     7
370
    20
100
AcDbLine
 39
0.7
 10
-12.09521449767629
 20
696.7330449272184
 30
0.0
 11
-12.09521449767629
 21
684.7330449272184
 31
0.0
  0
LINE
  5
BE9C
330
20
100
AcDbEntity
  8
10000_FRONT
  6
Continuous
 62
     7
370
    20
100
AcDbLine
 39
0.7
 10
-12.09521449767629
 20
684.7330449272184
 30
0.0
 11
-6.095214497676295
 21
684.7330449272184
 31
0.0
  0
LINE
  5
BE9D
330
20
100
AcDbEntity
  8
10000_FRONT
  6
Continuous
 62
     7
370
    20
100
AcDbLine
 39
0.7
 10
-6.095214497676295
 20
684.7330449272184
 30
0.0
 11
-6.095214497676295
 21
696.7330449272184
 31
0.0
  0
LINE
  5
BE9E
330
20
100
AcDbEntity
  8
10000_FRONT
  6
Continuous
 62
     7
370
    20
100
AcDbLine
 39
0.7
 10
-6.095214497676295
 20
696.7330449272184
 30
0.0
 11
-12.09521449767629
 21
696.7330449272184
 31
0.0
  0
LINE
  5
BE9F
330
20
100
AcDbEntity
  8
10000_FRONT
  6
Continuous
 62
     7
370
    20
100
AcDbLine
 39
0.7
 10
28.90478250232371
 20
684.7330449272184
 30
0.0
 11
-6.095214497676295
 21
684.7330449272184
 31
0.0
  0
LINE
  5
BEA0
330
20
100
AcDbEntity
  8
10000_FRONT
  6
Continuous
 62
     7
370
    50
100
AcDbLine
 10
28.90478250232371
 20
696.7330449272184
 30
0.0
 11
28.90478250232371
 21
684.7330449272184
 31
0.0
  0
LINE
  5
BEA1
330
20
100
AcDbEntity
  8
10000_FRONT
  6
Continuous
 62
     7
370
    20
100
AcDbLine
 39
0.7
 10
-6.095214497676295
 20
696.7330449272184
 30
0.0
 11
28.90478250232371
 21
696.7330449272184
 31
0.0
  0
ARC
  5
BEA2
330
20
100
AcDbEntity
  8
10000_FRONT
  6
Continuous
 62
     7
370
    20
100
AcDbCircle
 39
0.7
 10
-4.095214497676295
 20
690.7330449272182
 30
0.0
 40
23.095472
100
AcDbArc
 50
15.06581799999798
 51
344.9423299999978
  0
LINE
  5
BEB1
330
20
100
AcDbEntity
  8
10000_FRONT
  6
Continuous
 62
     7
370
    20
100
AcDbLine
 39
0.7
 10
-8.895214497676306
 20
734.7330449272184
 30
0.0
 11
-13.8952144976763
 21
734.7330449272184
 31
0.0
  0
LINE
  5
BEB4
330
20
100
AcDbEntity
  8
10000_FRONT
  6
Continuous
 62
     7
370
    20
100
AcDbLine
 39
0.7
 10
6.104782502323701
 20
734.7330449272184
 30
0.0
 11
1.104785502323692
 21
734.7330449272184
 31
0.0
  0
LINE
  5
BEB6
330
20
100
AcDbEntity
  8
10000_FRONT
  6
Continuous
 62
     7
370
    20
100
AcDbLine
 39
0.7
 10
18.6047825023237
 20
734.7330449272184
 30
0.0
 11
18.6047825023237
 21
723.7358349272184
 31
0.0
  0
LINE
  5
BEB7
330
20
100
AcDbEntity
  8
10000_FRONT
  6
Continuous
 62
     7
370
    20
100
AcDbLine
 39
0.7
 10
18.6047825023237
 20
734.7330449272184
 30
0.0
 11
16.1047825023237
 21
734.7330449272184
 31
0.0
  0
LINE
  5
BEB9
330
20
100
AcDbEntity
  8
10000_FRONT
  6
Continuous
 62
     7
370
    20
100
AcDbLine
 39
0.7
 10
-13.8952144976763
 20
734.7330449272184
 30
0.0
 11
-23.89518749767629
 21
734.7330449272184
 31
0.0
  0
LINE
  5
BEBB
330
20
100
AcDbEntity
  8
10000_FRONT
  6
Continuous
 62
     7
370
    20
100
AcDbLine
 39
0.7
 10
-23.89521449767631
 20
734.7330449272184
 30
0.0
 11
-26.79521449767629
 21
734.7330449272184
 31
0.0
  0
LINE
  5
BEBC
330
20
100
AcDbEntity
  8
10000_FRONT
  6
Continuous
 62
     7
370
    20
100
AcDbLine
 39
0.7
 10
-26.79521449767629
 20
734.7330449272184
 30
0.0
 11
-26.79521449767629
 21
723.7358349272184
 31
0.0
  0
LINE
  5
BEBD
330
20
100
AcDbEntity
  8
10000_FRONT
  6
Continuous
 62
     7
370
    20
100
AcDbLine
 39
0.7
 10
1.104785502323692
 20
734.7330449272184
 30
0.0
 11
-8.895187497676289
 21
734.7330449272184
 31
0.0
  0
LINE
  5
BEBE
330
20
100
AcDbEntity
  8
10000_FRONT
  6
Continuous
 62
     7
370
    20
100
AcDbLine
 39
0.7
 10
16.1047825023237
 20
734.7330449272184
 30
0.0
 11
6.104812502323709
 21
734.7330449272184
 31
0.0
  0
LINE
  5
BEBF
330
20
100
AcDbEntity
  8
10000_FRONT
  6
Continuous
 62
     7
370
    20
100
AcDbLine
 39
0.7
 10
-26.5952144976763
 20
734.7430449272184
 30
0.0
 11
-26.5952144976763
 21
734.7330449272184
 31
0.0
  0
LINE
  5
BF4D
330
20
100
AcDbEntity
  8
11000_Left
  6
ACAD_ISO02W100
 62
     7
 48
0.03
370
     9
100
AcDbLine
 39
0.7
 10
192.3520499722988
 20
693.583515082791
 30
0.0
 11
220.3520499722988
 21
693.5835150827911
 31
0.0
1001
AUSTER_FOLIE
1002
{
1000
VIERLOCH_2113_BO_M_LB_DREH
1002
}
1001
AUSTER_ANSICHT
1002
{
1000
SL
1002
}
  0
LINE
  5
BF4E
330
20
100
AcDbEntity
  8
11000_Left
  6
ACAD_ISO02W100
 62
     7
 48
0.03
370
     9
100
AcDbLine
 39
0.7
 10
220.3520499722988
 20
693.5835150827911
 30
0.0
 11
220.352049972299
 21
687.5835150827913
 31
0.0
1001
AUSTER_FOLIE
1002
{
1000
VIERLOCH_2113_BO_M_LB_DREH
1002
}
1001
AUSTER_ANSICHT
1002
{
1000
SL
1002
}
  0
LINE
  5
BF4F
330
20
100
AcDbEntity
  8
11000_Left
  6
Continuous
 62
     7
370
    20
100
AcDbLine
 39
0.7
 10
192.3520499722988
 20
693.5835150827911
 30
0.0
 11
192.3520499722988
 21
687.583515082791
 31
0.0
1001
AUSTER_FOLIE
1002
{
1000
VIERLOCH_2113_BO_M_LB_DREH
1002
}
1001
AUSTER_ANSICHT
1002
{
1000
SL
1002
}
  0
LINE
  5
BF50
330
20
100
AcDbEntity
  8
11000_Left
  6
Continuous
 62
     7
370
    20
100
AcDbLine
 39
0.7
 10
237.9280539722989
 20
682.7337887468911
 30
0.0
 11
237.9280539722989
 21
698.2694267468912
 31
0.0
1001
AUSTER_FOLIE
1002
{
1000
VIERLOCH_2113_BO_M_LB_DREH
1002
}
1001
AUSTER_ANSICHT
1002
{
1000
SL
1002
}
  0
DIMENSION
  5
BF51
330
20
100
AcDbEntity
  8
11100_LEFT_DIM
  6
Continuous
 62
     7
370
    13
100
AcDbDimension
  2
*D9
 10
162.9996859722988
 20
748.1365879506491
 30
0.0
 11
133.9996859722988
 21
750.386587950649
 31
0.0
 70
    32
 71
     5
 42
57.99999999999997
  3
H035
100
AcDbAlignedDimension
 13
104.9996859722988
 23
713.5835150827911
 33
0.0
 14
162.9996859722988
 24
706.3835150827912
 34
0.0
100
AcDbRotatedDimension
1001
ACAD
1000
DSTYLE
1002
{
1070
    40
1040
1.0
1002
}
  0
DIMENSION
  5
BF52
330
20
100
AcDbEntity
  8
11100_LEFT_DIM
  6
Continuous
 62
     7
370
    13
100
AcDbDimension
  2
*D8
 10
104.9996859722988
 20
748.1365879506491
 30
0.0
 11
102.4996859722989
 21
750.386587950649
 31
0.0
 70
    32
 71
     5
 42
5.0
  3
H035
100
AcDbAlignedDimension
 13
99.99968597229887
 23
724.5835150827908
 33
0.0
 14
104.9996859722988
 24
708.0835150827908
 34
0.0
100
AcDbRotatedDimension
1001
ACAD
1000
DSTYLE
1002
{
1070
    40
1040
1.0
1002
}
  0
DIMENSION
  5
BF53
330
20
100
AcDbEntity
  8
11100_LEFT_DIM
  6
Continuous
 62
     7
370
    13
100
AcDbDimension
  2
*D7
 10
90.12688045875334
 20
734.593515082791
 30
0.0
 11
87.87688045875325
 21
712.588515082791
 31
0.0
 70
    32
 71
     5
 42
44.0100000000001
  3
H035
100
AcDbAlignedDimension
 13
103.9996859722988
 23
690.5835150827908
 33
0.0
 14
112.0096859722988
 24
734.593515082791
 34
0.0
 50
90.0
100
AcDbRotatedDimension
1001
ACAD
1000
DSTYLE
1002
{
1070
    40
1040
1.0
1002
}
  0
DIMENSION
  5
BF54
330
20
100
AcDbEntity
  8
11100_LEFT_DIM
  6
Continuous
 62
     7
370
    13
100
AcDbDimension
  2
*D6
 10
80.96848567351628
 20
663.0835150827912
 30
0.0
 11
78.71848567351618
 21
690.5870450827912
 31
0.0
 70
    32
 71
     5
 42
55.0070599999999
  3
H035
100
AcDbAlignedDimension
 13
115.6424859722988
 23
718.0905750827911
 33
0.0
 14
115.9996859722988
 24
663.0835150827912
 34
0.0
 50
90.0
100
AcDbRotatedDimension
1001
ACAD
1000
DSTYLE
1002
{
1070
    40
1040
1.0
1002
}
  0
DIMENSION
  5
BF55
330
20
100
AcDbEntity
  8
11100_LEFT_DIM
  6
Continuous
 62
     7
370
    13
100
AcDbDimension
  2
*D5
 10
271.183874972299
 20
748.1365879506491
 30
0.0
 11
231.7679624722989
 21
750.386587950649
 31
0.0
 70
    32
 71
     5
 42
78.83182500000009
  3
H035
100
AcDbAlignedDimension
 13
192.3520499722988
 23
697.4063357468907
 33
0.0
 14
271.183874972299
 24
742.8499655418585
 34
0.0
100
AcDbRotatedDimension
1001
ACAD
1000
DSTYLE
1002
{
1070
   271
1070
     0
1070
    40
1040
1.0
1002
}
  0
DIMENSION
  5
BF56
330
20
100
AcDbEntity
  8
11100_LEFT_DIM
  6
Continuous
 62
     7
370
    13
100
AcDbDimension
  2
*D4
 10
271.1838749722988
 20
633.7941980610078
 30
0.0
 11
188.0917804722988
 21
636.0441980610078
 31
0.0
 70
    32
  1
max. 380
 71
     5
 42
166.1841889999999
  3
H035
100
AcDbAlignedDimension
 13
104.9996859722988
 23
673.083515082791
 33
0.0
 14
271.1838749722988
 24
638.3170634057409
 34
0.0
100
AcDbRotatedDimension
1001
ACAD
1000
DSTYLE
1002
{
1070
    40
1040
1.0
1002
}
  0
LINE
  5
BF57
330
20
100
AcDbEntity
  8
11000_Left
  6
Continuous
 62
     7
370
    50
100
AcDbLine
 39
0.7
 10
146.0096859722988
 20
706.3835150827912
 30
0.0
 11
162.9996859722988
 21
706.3835150827912
 31
0.0
1001
AUSTER_FOLIE
1002
{
1000
VIERLOCH_2113_BO_M_LB_DREH
1002
}
1001
AUSTER_ANSICHT
1002
{
1000
SL
1002
}
  0
LINE
  5
BF58
330
20
100
AcDbEntity
  8
11000_Left
  6
Continuous
 62
     7
370
    20
100
AcDbLine
 39
0.7
 10
103.9996859722989
 20
665.5835150827908
 30
0.0
 11
99.99968597229887
 21
665.5835150827908
 31
0.0
1001
AUSTER_FOLIE
1002
{
1000
VIERLOCH_2113_BO_M_LB_DREH
1002
}
1001
AUSTER_ANSICHT
1002
{
1000
SL
1002
}
  0
LINE
  5
BF59
330
20
100
AcDbEntity
  8
11000_Left
  6
Continuous
 62
     7
370
    50
100
AcDbLine
 39
0.7
 10
103.9996859722989
 20
713.5835150827911
 30
0.0
 11
109.9996859722989
 21
713.583515082791
 31
0.0
1001
AUSTER_FOLIE
1002
{
1000
VIERLOCH_2113_BO_M_LB_DREH
1002
}
1001
AUSTER_ANSICHT
1002
{
1000
SL
1002
}
  0
LINE
  5
BF5A
330
20
100
AcDbEntity
  8
11000_Left
  6
Continuous
 62
     7
370
    50
100
AcDbLine
 39
0.7
 10
162.9996859722988
 20
687.583515082791
 30
0.0
 11
162.9996859722988
 21
674.7835150827909
 31
0.0
1001
AUSTER_FOLIE
1002
{
1000
VIERLOCH_2113_BO_M_LB_DREH
1002
}
1001
AUSTER_ANSICHT
1002
{
1000
SL
1002
}
  0
LINE
  5
BF5B
330
20
100
AcDbEntity
  8
11000_Left
  6
Continuous
 62
     7
370
    20
100
AcDbLine
 39
0.7
 10
162.9996859722988
 20
693.583515082791
 30
0.0
 11
162.9996859722988
 21
687.583515082791
 31
0.0
1001
AUSTER_FOLIE
1002
{
1000
VIERLOCH_2113_BO_M_LB_DREH
1002
}
1001
AUSTER_ANSICHT
1002
{
1000
SL
1002
}
  0
LINE
  5
BF5C
330
20
100
AcDbEntity
  8
11000_Left
  6
Continuous
 62
     7
370
    50
100
AcDbLine
 39
0.7
 10
192.3520499722988
 20
687.583515082791
 30
0.0
 11
192.3520499722988
 21
683.5968797468908
 31
0.0
1001
AUSTER_FOLIE
1002
{
1000
VIERLOCH_2113_BO_M_LB_DREH
1002
}
1001
AUSTER_ANSICHT
1002
{
1000
SL
1002
}
  0
LINE
  5
BF5D
330
20
100
AcDbEntity
  8
11000_Left
  6
Continuous
 62
     7
370
    50
100
AcDbLine
 39
0.7
 10
218.3924159722989
 20
683.5968797468908
 30
0.0
 11
218.3924159722989
 21
673.239787746891
 31
0.0
1001
AUSTER_FOLIE
1002
{
1000
VIERLOCH_2113_BO_M_LB_DREH
1002
}
1001
AUSTER_ANSICHT
1002
{
1000
SL
1002
}
  0
LINE
  5
BF5E
330
20
100
AcDbEntity
  8
11000_Left
  6
Continuous
 62
     7
370
    20
100
AcDbLine
 39
0.7
 10
218.3924159722989
 20
697.4063357468907
 30
0.0
 11
218.3924159722989
 21
683.5968797468908
 31
0.0
1001
AUSTER_FOLIE
1002
{
1000
VIERLOCH_2113_BO_M_LB_DREH
1002
}
1001
AUSTER_ANSICHT
1002
{
1000
SL
1002
}
  0
LINE
  5
BF5F
330
20
100
AcDbEntity
  8
11000_Left
  6
Continuous
 62
     7
370
    20
100
AcDbLine
 39
0.7
 10
237.9280539722989
 20
673.239787746891
 30
0.0
 11
237.9280539722989
 21
707.7634277468908
 31
0.0
1001
AUSTER_FOLIE
1002
{
1000
VIERLOCH_2113_BO_M_LB_DREH
1002
}
1001
AUSTER_ANSICHT
1002
{
1000
SL
1002
}
  0
LINE
  5
BF60
330
20
100
AcDbEntity
  8
11000_Left
  6
Continuous
 62
     7
370
    50
100
AcDbLine
 39
0.7
 10
237.9280539722989
 20
707.7634277468908
 30
0.0
 11
237.9280539722989
 21
709.9211552468911
 31
0.0
1001
AUSTER_FOLIE
1002
{
1000
VIERLOCH_2113_BO_M_LB_DREH
1002
}
1001
AUSTER_ANSICHT
1002
{
1000
SL
1002
}
  0
LINE
  5
BF61
330
20
100
AcDbEntity
  8
11000_Left
  6
Continuous
 62
     7
370
    20
100
AcDbLine
 39
0.7
 10
241.9280539722989
 20
682.7337887468911
 30
0.0
 11
241.9280539722989
 21
698.2694267468912
 31
0.0
1001
AUSTER_FOLIE
1002
{
1000
VIERLOCH_2113_BO_M_LB_DREH
1002
}
1001
AUSTER_ANSICHT
1002
{
1000
SL
1002
}
  0
LINE
  5
BF62
330
20
100
AcDbEntity
  8
11000_Left
  6
Continuous
 62
     7
370
    50
100
AcDbLine
 39
0.7
 10
241.9280539722989
 20
698.2694267468912
 30
0.0
 11
241.9280539722989
 21
709.9211552468911
 31
0.0
1001
AUSTER_FOLIE
1002
{
1000
VIERLOCH_2113_BO_M_LB_DREH
1002
}
1001
AUSTER_ANSICHT
1002
{
1000
SL
1002
}
  0
LINE
  5
BF63
330
20
100
AcDbEntity
  8
11000_Left
  6
Continuous
 62
     7
370
    50
100
AcDbLine
 39
0.7
 10
245.380417972299
 20
682.733788746891
 30
0.0
 11
245.380417972299
 21
669.7874237468909
 31
0.0
1001
AUSTER_FOLIE
1002
{
1000
VIERLOCH_2113_BO_M_LB_DREH
1002
}
1001
AUSTER_ANSICHT
1002
{
1000
SL
1002
}
  0
LINE
  5
BF64
330
20
100
AcDbEntity
  8
11000_Left
  6
Continuous
 62
     7
370
    20
100
AcDbLine
 39
0.7
 10
245.380417972299
 20
698.2694267468908
 30
0.0
 11
245.380417972299
 21
682.733788746891
 31
0.0
1001
AUSTER_FOLIE
1002
{
1000
VIERLOCH_2113_BO_M_LB_DREH
1002
}
1001
AUSTER_ANSICHT
1002
{
1000
SL
1002
}
  0
LINE
  5
BF65
330
20
100
AcDbEntity
  8
11000_Left
  6
CENTER
 62
     7
370
     9
100
AcDbLine
 39
0.8
 10
103.9996859722989
 20
690.5835150827908
 30
0.0
 11
320.762505882299
 21
690.5617173629527
 31
0.0
1001
AUSTER_FOLIE
1002
{
1000
ZENTRA_2144_BO_M_LB_DREH
1002
}
1001
AUSTER_ANSICHT
1002
{
1000
SL
1002
}
  0
LINE
  5
BF66
330
20
100
AcDbEntity
  8
11000_Left
  6
Continuous
 62
     7
370
    50
100
AcDbLine
 39
0.7
 10
300.6925058822992
 20
690.3237173629523
 30
0.0
 11
300.6925058822992
 21
711.2707173629527
 31
0.0
1001
AUSTER_FOLIE
1002
{
1000
ZENTRA_2144_BO_M_LB_DREH
1002
}
1001
AUSTER_ANSICHT
1002
{
1000
SL
1002
}
  0
LINE
  5
BF67
330
20
100
AcDbEntity
  8
11000_Left
  6
Continuous
 62
     7
370
    20
100
AcDbLine
 39
0.7
 10
280.193252020504
 20
659.0626330259468
 30
0.0
 11
280.1969516610611
 21
722.0344381443941
 31
0.0
1001
AUSTER_FOLIE
1002
{
1000
ZENTRA_2144_BO_M_LB_DREH
1002
}
1001
AUSTER_ANSICHT
1002
{
1000
SL
1002
}
  0
LINE
  5
BF68
330
20
100
AcDbEntity
  8
11000_Left
  6
Continuous
 62
     7
370
    20
100
AcDbLine
 39
0.7
 10
290.192505882299
 20
706.9237173629526
 30
0.0
 11
290.192505882299
 21
697.179717362953
 31
0.0
1001
AUSTER_FOLIE
1002
{
1000
ZENTRA_2144_BO_M_LB_DREH
1002
}
1001
AUSTER_ANSICHT
1002
{
1000
SL
1002
}
  0
ARC
  5
BF69
330
20
100
AcDbEntity
  8
11000_Left
  6
Continuous
 62
     7
370
    50
100
AcDbCircle
 39
0.7
 10
282.1289264354188
 20
657.9196991092707
 30
0.0
 40
2.24791756486866
100
AcDbArc
 50
88.37924668868351
 51
149.4399450991138
1001
AUSTER_FOLIE
1002
{
1000
ZENTRA_2144_BO_M_LB_DREH
1002
}
1001
AUSTER_ANSICHT
1002
{
1000
SL
1002
}
  0
LINE
  5
BF6A
330
20
100
AcDbEntity
  8
11000_Left
  6
Continuous
 62
     7
370
    50
100
AcDbLine
 39
0.7
 10
280.192505882299
 20
656.9667173629527
 30
0.0
 11
280.193252020504
 21
659.0626330259468
 31
0.0
1001
AUSTER_FOLIE
1002
{
1000
ZENTRA_2144_BO_M_LB_DREH
1002
}
1001
AUSTER_ANSICHT
1002
{
1000
SL
1002
}
  0
LINE
  5
BF6B
330
20
100
AcDbEntity
  8
11000_Left
  6
Continuous
 62
     7
370
    50
100
AcDbLine
 39
0.7
 10
273.192505882299
 20
656.9667173629527
 30
0.0
 11
280.192505882299
 21
656.9667173629527
 31
0.0
1001
AUSTER_FOLIE
1002
{
1000
ZENTRA_2144_BO_M_LB_DREH
1002
}
1001
AUSTER_ANSICHT
1002
{
1000
SL
1002
}
  0
LINE
  5
BF6C
330
20
100
AcDbEntity
  8
11000_Left
  6
Continuous
 62
     7
370
    50
100
AcDbLine
 39
0.7
 10
300.6925058822992
 20
669.0637173629527
 30
0.0
 11
300.6925058822992
 21
690.0107173629528
 31
0.0
1001
AUSTER_FOLIE
1002
{
1000
ZENTRA_2144_BO_M_LB_DREH
1002
}
1001
AUSTER_ANSICHT
1002
{
1000
SL
1002
}
  0
LINE
  5
BF6D
330
20
100
AcDbEntity
  8
11000_Left
  6
Continuous
 62
     7
370
    20
100
AcDbLine
 39
0.7
 10
290.192505882299
 20
673.4107173629531
 30
0.0
 11
290.192505882299
 21
668.953717362953
 31
0.0
1001
AUSTER_FOLIE
1002
{
1000
ZENTRA_2144_BO_M_LB_DREH
1002
}
1001
AUSTER_ANSICHT
1002
{
1000
SL
1002
}
  0
LINE
  5
BF6E
330
20
100
AcDbEntity
  8
11000_Left
  6
Continuous
 62
     7
370
    20
100
AcDbLine
 39
0.7
 10
290.192505882299
 20
673.4107173629531
 30
0.0
 11
294.975505882299
 21
673.0577173629528
 31
0.0
1001
AUSTER_FOLIE
1002
{
1000
ZENTRA_2144_BO_M_LB_DREH
1002
}
1001
AUSTER_ANSICHT
1002
{
1000
SL
1002
}
  0
LINE
  5
BF6F
330
20
100
AcDbEntity
  8
11000_Left
  6
Continuous
 62
     7
370
    20
100
AcDbLine
 39
0.7
 10
294.975505882299
 20
673.0577173629528
 30
0.0
 11
299.744505882299
 21
672.6597173629524
 31
0.0
1001
AUSTER_FOLIE
1002
{
1000
ZENTRA_2144_BO_M_LB_DREH
1002
}
1001
AUSTER_ANSICHT
1002
{
1000
SL
1002
}
  0
LINE
  5
BF70
330
20
100
AcDbEntity
  8
11000_Left
  6
Continuous
 62
     7
370
    20
100
AcDbLine
 39
0.7
 10
299.744505882299
 20
659.6987173629526
 30
0.0
 11
290.192505882299
 21
659.4577173629526
 31
0.0
1001
AUSTER_FOLIE
1002
{
1000
ZENTRA_2144_BO_M_LB_DREH
1002
}
1001
AUSTER_ANSICHT
1002
{
1000
SL
1002
}
  0
LINE
  5
BF71
330
20
100
AcDbEntity
  8
11000_Left
  6
Continuous
 62
     7
370
    50
100
AcDbLine
 39
0.7
 10
294.975505882299
 20
659.578717362953
 30
0.0
 11
299.744505882299
 21
659.6987173629526
 31
0.0
1001
AUSTER_FOLIE
1002
{
1000
ZENTRA_2144_BO_M_LB_DREH
1002
}
1001
AUSTER_ANSICHT
1002
{
1000
SL
1002
}
  0
LINE
  5
BF72
330
20
100
AcDbEntity
  8
11000_Left
  6
Continuous
 62
     7
370
    20
100
AcDbLine
 39
0.7
 10
299.744505882299
 20
664.584717362953
 30
0.0
 11
294.975505882299
 21
664.0177173629527
 31
0.0
1001
AUSTER_FOLIE
1002
{
1000
ZENTRA_2144_BO_M_LB_DREH
1002
}
1001
AUSTER_ANSICHT
1002
{
1000
SL
1002
}
  0
LINE
  5
BF73
330
20
100
AcDbEntity
  8
11000_Left
  6
Continuous
 62
     7
370
    50
100
AcDbLine
 39
0.7
 10
290.192505882299
 20
659.4577173629526
 30
0.0
 11
294.975505882299
 21
659.578717362953
 31
0.0
1001
AUSTER_FOLIE
1002
{
1000
ZENTRA_2144_BO_M_LB_DREH
1002
}
1001
AUSTER_ANSICHT
1002
{
1000
SL
1002
}
  0
LINE
  5
BF74
330
20
100
AcDbEntity
  8
11000_Left
  6
Continuous
 62
     7
370
    20
100
AcDbLine
 39
0.7
 10
294.975505882299
 20
664.0177173629527
 30
0.0
 11
290.192505882299
 21
663.4937173629526
 31
0.0
1001
AUSTER_FOLIE
1002
{
1000
ZENTRA_2144_BO_M_LB_DREH
1002
}
1001
AUSTER_ANSICHT
1002
{
1000
SL
1002
}
  0
LINE
  5
BF75
330
20
100
AcDbEntity
  8
11000_Left
  6
Continuous
 62
     7
370
    50
100
AcDbLine
 39
0.7
 10
290.192505882299
 20
660.1667173629526
 30
0.0
 11
290.192505882299
 21
659.4577173629526
 31
0.0
1001
AUSTER_FOLIE
1002
{
1000
ZENTRA_2144_BO_M_LB_DREH
1002
}
1001
AUSTER_ANSICHT
1002
{
1000
SL
1002
}
  0
LINE
  5
BF76
330
20
100
AcDbEntity
  8
11000_Left
  6
Continuous
 62
     7
370
    20
100
AcDbLine
 39
0.7
 10
290.192505882299
 20
668.953717362953
 30
0.0
 11
290.192505882299
 21
660.1667173629526
 31
0.0
1001
AUSTER_FOLIE
1002
{
1000
ZENTRA_2144_BO_M_LB_DREH
1002
}
1001
AUSTER_ANSICHT
1002
{
1000
SL
1002
}
  0
LINE
  5
BF77
330
20
100
AcDbEntity
  8
11000_Left
  6
Continuous
 62
     7
370
    50
100
AcDbLine
 39
0.7
 10
282.192505882299
 20
660.1667173629526
 30
0.0
 11
290.192505882299
 21
660.1667173629526
 31
0.0
1001
AUSTER_FOLIE
1002
{
1000
ZENTRA_2144_BO_M_LB_DREH
1002
}
1001
AUSTER_ANSICHT
1002
{
1000
SL
1002
}
  0
LINE
  5
BF78
330
20
100
AcDbEntity
  8
11000_Left
  6
Continuous
 62
     7
370
    20
100
AcDbLine
 39
0.7
 10
300.526505882299
 20
671.7677173629526
 30
0.0
 11
300.6045058822989
 21
671.3997173629524
 31
0.0
1001
AUSTER_FOLIE
1002
{
1000
ZENTRA_2144_BO_M_LB_DREH
1002
}
1001
AUSTER_ANSICHT
1002
{
1000
SL
1002
}
  0
LINE
  5
BF79
330
20
100
AcDbEntity
  8
11000_Left
  6
Continuous
 62
     7
370
    50
100
AcDbLine
 39
0.7
 10
300.6925058822992
 20
668.8437173629527
 30
0.0
 11
300.6925058822992
 21
669.0637173629527
 31
0.0
1001
AUSTER_FOLIE
1002
{
1000
ZENTRA_2144_BO_M_LB_DREH
1002
}
1001
AUSTER_ANSICHT
1002
{
1000
SL
1002
}
  0
LINE
  5
BF7A
330
20
100
AcDbEntity
  8
11000_Left
  6
Continuous
 62
     7
370
    20
100
AcDbLine
 39
0.7
 10
300.6045058822989
 20
671.3997173629524
 30
0.0
 11
300.675505882299
 21
670.6097173629526
 31
0.0
1001
AUSTER_FOLIE
1002
{
1000
ZENTRA_2144_BO_M_LB_DREH
1002
}
1001
AUSTER_ANSICHT
1002
{
1000
SL
1002
}
  0
LINE
  5
BF7B
330
20
100
AcDbEntity
  8
11000_Left
  6
Continuous
 62
     7
370
    20
100
AcDbLine
 39
0.7
 10
300.675505882299
 20
670.6097173629526
 30
0.0
 11
300.691505882299
 21
669.780717362953
 31
0.0
1001
AUSTER_FOLIE
1002
{
1000
ZENTRA_2144_BO_M_LB_DREH
1002
}
1001
AUSTER_ANSICHT
1002
{
1000
SL
1002
}
  0
LINE
  5
BF7C
330
20
100
AcDbEntity
  8
11000_Left
  6
Continuous
 62
     7
370
    20
100
AcDbLine
 39
0.7
 10
300.526505882299
 20
659.9097173629526
 30
0.0
 11
300.399505882299
 21
659.8367173629525
 31
0.0
1001
AUSTER_FOLIE
1002
{
1000
ZENTRA_2144_BO_M_LB_DREH
1002
}
1001
AUSTER_ANSICHT
1002
{
1000
SL
1002
}
  0
LINE
  5
BF7D
330
20
100
AcDbEntity
  8
11000_Left
  6
Continuous
 62
     7
370
    20
100
AcDbLine
 39
0.7
 10
300.399505882299
 20
659.8367173629525
 30
0.0
 11
300.322505882299
 21
659.8037173629527
 31
0.0
1001
AUSTER_FOLIE
1002
{
1000
ZENTRA_2144_BO_M_LB_DREH
1002
}
1001
AUSTER_ANSICHT
1002
{
1000
SL
1002
}
  0
LINE
  5
BF7E
330
20
100
AcDbEntity
  8
11000_Left
  6
Continuous
 62
     7
370
    20
100
AcDbLine
 39
0.7
 10
300.322505882299
 20
659.8037173629527
 30
0.0
 11
300.225505882299
 21
659.770717362953
 31
0.0
1001
AUSTER_FOLIE
1002
{
1000
ZENTRA_2144_BO_M_LB_DREH
1002
}
1001
AUSTER_ANSICHT
1002
{
1000
SL
1002
}
  0
LINE
  5
BF7F
330
20
100
AcDbEntity
  8
11000_Left
  6
Continuous
 62
     7
370
    20
100
AcDbLine
 39
0.7
 10
300.225505882299
 20
659.770717362953
 30
0.0
 11
300.113505882299
 21
659.7417173629528
 31
0.0
1001
AUSTER_FOLIE
1002
{
1000
ZENTRA_2144_BO_M_LB_DREH
1002
}
1001
AUSTER_ANSICHT
1002
{
1000
SL
1002
}
  0
LINE
  5
BF80
330
20
100
AcDbEntity
  8
11000_Left
  6
Continuous
 62
     7
370
    20
100
AcDbLine
 39
0.7
 10
300.113505882299
 20
659.7417173629528
 30
0.0
 11
299.969505882299
 21
659.7167173629527
 31
0.0
1001
AUSTER_FOLIE
1002
{
1000
ZENTRA_2144_BO_M_LB_DREH
1002
}
1001
AUSTER_ANSICHT
1002
{
1000
SL
1002
}
  0
LINE
  5
BF81
330
20
100
AcDbEntity
  8
11000_Left
  6
Continuous
 62
     7
370
    20
100
AcDbLine
 39
0.7
 10
299.969505882299
 20
659.7167173629527
 30
0.0
 11
299.8895058822989
 21
659.7067173629527
 31
0.0
1001
AUSTER_FOLIE
1002
{
1000
ZENTRA_2144_BO_M_LB_DREH
1002
}
1001
AUSTER_ANSICHT
1002
{
1000
SL
1002
}
  0
LINE
  5
BF82
330
20
100
AcDbEntity
  8
11000_Left
  6
Continuous
 62
     7
370
    20
100
AcDbLine
 39
0.7
 10
299.8895058822989
 20
659.7067173629527
 30
0.0
 11
299.791505882299
 21
659.6997173629526
 31
0.0
1001
AUSTER_FOLIE
1002
{
1000
ZENTRA_2144_BO_M_LB_DREH
1002
}
1001
AUSTER_ANSICHT
1002
{
1000
SL
1002
}
  0
LINE
  5
BF83
330
20
100
AcDbEntity
  8
11000_Left
  6
Continuous
 62
     7
370
    20
100
AcDbLine
 39
0.7
 10
299.791505882299
 20
659.6997173629526
 30
0.0
 11
299.744505882299
 21
659.6987173629526
 31
0.0
1001
AUSTER_FOLIE
1002
{
1000
ZENTRA_2144_BO_M_LB_DREH
1002
}
1001
AUSTER_ANSICHT
1002
{
1000
SL
1002
}
  0
LINE
  5
BF84
330
20
100
AcDbEntity
  8
11000_Left
  6
Continuous
 62
     7
370
    50
100
AcDbLine
 39
0.7
 10
299.744505882299
 20
659.6987173629526
 30
0.0
 11
299.791505882299
 21
659.6997173629526
 31
0.0
1001
AUSTER_FOLIE
1002
{
1000
ZENTRA_2144_BO_M_LB_DREH
1002
}
1001
AUSTER_ANSICHT
1002
{
1000
SL
1002
}
  0
LINE
  5
BF85
330
20
100
AcDbEntity
  8
11000_Left
  6
Continuous
 62
     7
370
    50
100
AcDbLine
 39
0.7
 10
299.791505882299
 20
659.6997173629526
 30
0.0
 11
299.8895058822989
 21
659.7067173629527
 31
0.0
1001
AUSTER_FOLIE
1002
{
1000
ZENTRA_2144_BO_M_LB_DREH
1002
}
1001
AUSTER_ANSICHT
1002
{
1000
SL
1002
}
  0
LINE
  5
BF86
330
20
100
AcDbEntity
  8
11000_Left
  6
Continuous
 62
     7
370
    50
100
AcDbLine
 39
0.7
 10
299.8895058822989
 20
659.7067173629527
 30
0.0
 11
299.969505882299
 21
659.7167173629527
 31
0.0
1001
AUSTER_FOLIE
1002
{
1000
ZENTRA_2144_BO_M_LB_DREH
1002
}
1001
AUSTER_ANSICHT
1002
{
1000
SL
1002
}
  0
LINE
  5
BF87
330
20
100
AcDbEntity
  8
11000_Left
  6
Continuous
 62
     7
370
    50
100
AcDbLine
 39
0.7
 10
299.969505882299
 20
659.7167173629527
 30
0.0
 11
300.113505882299
 21
659.7417173629528
 31
0.0
1001
AUSTER_FOLIE
1002
{
1000
ZENTRA_2144_BO_M_LB_DREH
1002
}
1001
AUSTER_ANSICHT
1002
{
1000
SL
1002
}
  0
LINE
  5
BF88
330
20
100
AcDbEntity
  8
11000_Left
  6
Continuous
 62
     7
370
    50
100
AcDbLine
 39
0.7
 10
300.113505882299
 20
659.7417173629528
 30
0.0
 11
300.225505882299
 21
659.770717362953
 31
0.0
1001
AUSTER_FOLIE
1002
{
1000
ZENTRA_2144_BO_M_LB_DREH
1002
}
1001
AUSTER_ANSICHT
1002
{
1000
SL
1002
}
  0
LINE
  5
BF89
330
20
100
AcDbEntity
  8
11000_Left
  6
Continuous
 62
     7
370
    50
100
AcDbLine
 39
0.7
 10
300.225505882299
 20
659.770717362953
 30
0.0
 11
300.322505882299
 21
659.8037173629527
 31
0.0
1001
AUSTER_FOLIE
1002
{
1000
ZENTRA_2144_BO_M_LB_DREH
1002
}
1001
AUSTER_ANSICHT
1002
{
1000
SL
1002
}
  0
LINE
  5
BF8A
330
20
100
AcDbEntity
  8
11000_Left
  6
Continuous
 62
     7
370
    50
100
AcDbLine
 39
0.7
 10
300.322505882299
 20
659.8037173629527
 30
0.0
 11
300.399505882299
 21
659.8367173629525
 31
0.0
1001
AUSTER_FOLIE
1002
{
1000
ZENTRA_2144_BO_M_LB_DREH
1002
}
1001
AUSTER_ANSICHT
1002
{
1000
SL
1002
}
  0
LINE
  5
BF8B
330
20
100
AcDbEntity
  8
11000_Left
  6
Continuous
 62
     7
370
    50
100
AcDbLine
 39
0.7
 10
300.399505882299
 20
659.8367173629525
 30
0.0
 11
300.526505882299
 21
659.9097173629526
 31
0.0
1001
AUSTER_FOLIE
1002
{
1000
ZENTRA_2144_BO_M_LB_DREH
1002
}
1001
AUSTER_ANSICHT
1002
{
1000
SL
1002
}
  0
LINE
  5
BF8C
330
20
100
AcDbEntity
  8
11000_Left
  6
Continuous
 62
     7
370
    50
100
AcDbLine
 39
0.7
 10
300.526505882299
 20
659.9097173629526
 30
0.0
 11
300.6045058822989
 21
659.9767173629524
 31
0.0
1001
AUSTER_FOLIE
1002
{
1000
ZENTRA_2144_BO_M_LB_DREH
1002
}
1001
AUSTER_ANSICHT
1002
{
1000
SL
1002
}
  0
LINE
  5
BF8D
330
20
100
AcDbEntity
  8
11000_Left
  6
Continuous
 62
     7
370
    50
100
AcDbLine
 39
0.7
 10
300.6045058822989
 20
659.9767173629524
 30
0.0
 11
300.675505882299
 21
660.0827173629527
 31
0.0
1001
AUSTER_FOLIE
1002
{
1000
ZENTRA_2144_BO_M_LB_DREH
1002
}
1001
AUSTER_ANSICHT
1002
{
1000
SL
1002
}
  0
LINE
  5
BF8E
330
20
100
AcDbEntity
  8
11000_Left
  6
Continuous
 62
     7
370
    50
100
AcDbLine
 39
0.7
 10
300.675505882299
 20
660.0827173629527
 30
0.0
 11
300.691505882299
 21
660.1467173629527
 31
0.0
1001
AUSTER_FOLIE
1002
{
1000
ZENTRA_2144_BO_M_LB_DREH
1002
}
1001
AUSTER_ANSICHT
1002
{
1000
SL
1002
}
  0
LINE
  5
BF8F
330
20
100
AcDbEntity
  8
11000_Left
  6
Continuous
 62
     7
370
    50
100
AcDbLine
 39
0.7
 10
300.691505882299
 20
660.1467173629527
 30
0.0
 11
300.6925058822992
 21
660.1667173629526
 31
0.0
1001
AUSTER_FOLIE
1002
{
1000
ZENTRA_2144_BO_M_LB_DREH
1002
}
1001
AUSTER_ANSICHT
1002
{
1000
SL
1002
}
  0
LINE
  5
BF90
330
20
100
AcDbEntity
  8
11000_Left
  6
Continuous
 62
     7
370
    20
100
AcDbLine
 39
0.7
 10
300.675505882299
 20
667.1787173629526
 30
0.0
 11
300.6045058822989
 21
666.2377173629526
 31
0.0
1001
AUSTER_FOLIE
1002
{
1000
ZENTRA_2144_BO_M_LB_DREH
1002
}
1001
AUSTER_ANSICHT
1002
{
1000
SL
1002
}
  0
LINE
  5
BF91
330
20
100
AcDbEntity
  8
11000_Left
  6
Continuous
 62
     7
370
    20
100
AcDbLine
 39
0.7
 10
300.6045058822989
 20
666.2377173629526
 30
0.0
 11
300.526505882299
 21
665.7757173629526
 31
0.0
1001
AUSTER_FOLIE
1002
{
1000
ZENTRA_2144_BO_M_LB_DREH
1002
}
1001
AUSTER_ANSICHT
1002
{
1000
SL
1002
}
  0
LINE
  5
BF92
330
20
100
AcDbEntity
  8
11000_Left
  6
Continuous
 62
     7
370
    20
100
AcDbLine
 39
0.7
 10
300.526505882299
 20
665.7757173629526
 30
0.0
 11
300.399505882299
 21
665.3277173629528
 31
0.0
1001
AUSTER_FOLIE
1002
{
1000
ZENTRA_2144_BO_M_LB_DREH
1002
}
1001
AUSTER_ANSICHT
1002
{
1000
SL
1002
}
  0
LINE
  5
BF93
330
20
100
AcDbEntity
  8
11000_Left
  6
Continuous
 62
     7
370
    20
100
AcDbLine
 39
0.7
 10
300.399505882299
 20
665.3277173629528
 30
0.0
 11
300.322505882299
 21
665.1407173629523
 31
0.0
1001
AUSTER_FOLIE
1002
{
1000
ZENTRA_2144_BO_M_LB_DREH
1002
}
1001
AUSTER_ANSICHT
1002
{
1000
SL
1002
}
  0
LINE
  5
BF94
330
20
100
AcDbEntity
  8
11000_Left
  6
Continuous
 62
     7
370
    20
100
AcDbLine
 39
0.7
 10
300.322505882299
 20
665.1407173629523
 30
0.0
 11
300.225505882299
 21
664.9587173629527
 31
0.0
1001
AUSTER_FOLIE
1002
{
1000
ZENTRA_2144_BO_M_LB_DREH
1002
}
1001
AUSTER_ANSICHT
1002
{
1000
SL
1002
}
  0
LINE
  5
BF95
330
20
100
AcDbEntity
  8
11000_Left
  6
Continuous
 62
     7
370
    20
100
AcDbLine
 39
0.7
 10
300.225505882299
 20
664.9587173629527
 30
0.0
 11
300.113505882299
 21
664.8067173629526
 31
0.0
1001
AUSTER_FOLIE
1002
{
1000
ZENTRA_2144_BO_M_LB_DREH
1002
}
1001
AUSTER_ANSICHT
1002
{
1000
SL
1002
}
  0
LINE
  5
BF96
330
20
100
AcDbEntity
  8
11000_Left
  6
Continuous
 62
     7
370
    20
100
AcDbLine
 39
0.7
 10
300.113505882299
 20
664.8067173629526
 30
0.0
 11
299.969505882299
 21
664.6757173629525
 31
0.0
1001
AUSTER_FOLIE
1002
{
1000
ZENTRA_2144_BO_M_LB_DREH
1002
}
1001
AUSTER_ANSICHT
1002
{
1000
SL
1002
}
  0
LINE
  5
BF97
330
20
100
AcDbEntity
  8
11000_Left
  6
Continuous
 62
     7
370
    20
100
AcDbLine
 39
0.7
 10
299.969505882299
 20
664.6757173629525
 30
0.0
 11
299.8895058822989
 21
664.6287173629526
 31
0.0
1001
AUSTER_FOLIE
1002
{
1000
ZENTRA_2144_BO_M_LB_DREH
1002
}
1001
AUSTER_ANSICHT
1002
{
1000
SL
1002
}
  0
LINE
  5
BF98
330
20
100
AcDbEntity
  8
11000_Left
  6
Continuous
 62
     7
370
    20
100
AcDbLine
 39
0.7
 10
299.8895058822989
 20
664.6287173629526
 30
0.0
 11
299.791505882299
 21
664.5927173629526
 31
0.0
1001
AUSTER_FOLIE
1002
{
1000
ZENTRA_2144_BO_M_LB_DREH
1002
}
1001
AUSTER_ANSICHT
1002
{
1000
SL
1002
}
  0
LINE
  5
BF99
330
20
100
AcDbEntity
  8
11000_Left
  6
Continuous
 62
     7
370
    20
100
AcDbLine
 39
0.7
 10
299.791505882299
 20
664.5927173629526
 30
0.0
 11
299.744505882299
 21
664.584717362953
 31
0.0
1001
AUSTER_FOLIE
1002
{
1000
ZENTRA_2144_BO_M_LB_DREH
1002
}
1001
AUSTER_ANSICHT
1002
{
1000
SL
1002
}
  0
LINE
  5
BF9A
330
20
100
AcDbEntity
  8
11000_Left
  6
Continuous
 62
     7
370
    50
100
AcDbLine
 39
0.7
 10
300.6925058822992
 20
660.1667173629526
 30
0.0
 11
300.6925058822992
 21
668.8437173629527
 31
0.0
1001
AUSTER_FOLIE
1002
{
1000
ZENTRA_2144_BO_M_LB_DREH
1002
}
1001
AUSTER_ANSICHT
1002
{
1000
SL
1002
}
  0
LINE
  5
BF9B
330
20
100
AcDbEntity
  8
11000_Left
  6
Continuous
 62
     7
370
    50
100
AcDbLine
 39
0.7
 10
300.6925058822992
 20
668.8437173629527
 30
0.0
 11
300.691505882299
 21
668.0987173629524
 31
0.0
1001
AUSTER_FOLIE
1002
{
1000
ZENTRA_2144_BO_M_LB_DREH
1002
}
1001
AUSTER_ANSICHT
1002
{
1000
SL
1002
}
  0
LINE
  5
BF9C
330
20
100
AcDbEntity
  8
11000_Left
  6
Continuous
 62
     7
370
    20
100
AcDbLine
 39
0.7
 10
299.744505882299
 20
672.6597173629524
 30
0.0
 11
299.791505882299
 21
672.6537173629523
 31
0.0
1001
AUSTER_FOLIE
1002
{
1000
ZENTRA_2144_BO_M_LB_DREH
1002
}
1001
AUSTER_ANSICHT
1002
{
1000
SL
1002
}
  0
LINE
  5
BF9D
330
20
100
AcDbEntity
  8
11000_Left
  6
Continuous
 62
     7
370
    20
100
AcDbLine
 39
0.7
 10
299.791505882299
 20
672.6537173629523
 30
0.0
 11
299.8895058822989
 21
672.6287173629526
 31
0.0
1001
AUSTER_FOLIE
1002
{
1000
ZENTRA_2144_BO_M_LB_DREH
1002
}
1001
AUSTER_ANSICHT
1002
{
1000
SL
1002
}
  0
LINE
  5
BF9E
330
20
100
AcDbEntity
  8
11000_Left
  6
Continuous
 62
     7
370
    20
100
AcDbLine
 39
0.7
 10
299.8895058822989
 20
672.6287173629526
 30
0.0
 11
299.969505882299
 21
672.5947173629529
 31
0.0
1001
AUSTER_FOLIE
1002
{
1000
ZENTRA_2144_BO_M_LB_DREH
1002
}
1001
AUSTER_ANSICHT
1002
{
1000
SL
1002
}
  0
LINE
  5
BF9F
330
20
100
AcDbEntity
  8
11000_Left
  6
Continuous
 62
     7
370
    20
100
AcDbLine
 39
0.7
 10
299.969505882299
 20
672.5947173629529
 30
0.0
 11
300.113505882299
 21
672.4997173629526
 31
0.0
1001
AUSTER_FOLIE
1002
{
1000
ZENTRA_2144_BO_M_LB_DREH
1002
}
1001
AUSTER_ANSICHT
1002
{
1000
SL
1002
}
  0
LINE
  5
BFA0
330
20
100
AcDbEntity
  8
11000_Left
  6
Continuous
 62
     7
370
    20
100
AcDbLine
 39
0.7
 10
300.113505882299
 20
672.4997173629526
 30
0.0
 11
300.225505882299
 21
672.3887173629528
 31
0.0
1001
AUSTER_FOLIE
1002
{
1000
ZENTRA_2144_BO_M_LB_DREH
1002
}
1001
AUSTER_ANSICHT
1002
{
1000
SL
1002
}
  0
LINE
  5
BFA1
330
20
100
AcDbEntity
  8
11000_Left
  6
Continuous
 62
     7
370
    20
100
AcDbLine
 39
0.7
 10
300.225505882299
 20
672.3887173629528
 30
0.0
 11
300.322505882299
 21
672.2537173629526
 31
0.0
1001
AUSTER_FOLIE
1002
{
1000
ZENTRA_2144_BO_M_LB_DREH
1002
}
1001
AUSTER_ANSICHT
1002
{
1000
SL
1002
}
  0
LINE
  5
BFA2
330
20
100
AcDbEntity
  8
11000_Left
  6
Continuous
 62
     7
370
    20
100
AcDbLine
 39
0.7
 10
300.322505882299
 20
672.2537173629526
 30
0.0
 11
300.399505882299
 21
672.112717362953
 31
0.0
1001
AUSTER_FOLIE
1002
{
1000
ZENTRA_2144_BO_M_LB_DREH
1002
}
1001
AUSTER_ANSICHT
1002
{
1000
SL
1002
}
  0
LINE
  5
BFA3
330
20
100
AcDbEntity
  8
11000_Left
  6
Continuous
 62
     7
370
    20
100
AcDbLine
 39
0.7
 10
300.399505882299
 20
672.112717362953
 30
0.0
 11
300.526505882299
 21
671.7677173629526
 31
0.0
1001
AUSTER_FOLIE
1002
{
1000
ZENTRA_2144_BO_M_LB_DREH
1002
}
1001
AUSTER_ANSICHT
1002
{
1000
SL
1002
}
  0
LINE
  5
BFA4
330
20
100
AcDbEntity
  8
11000_Left
  6
Continuous
 62
     7
370
    20
100
AcDbLine
 39
0.7
 10
299.744505882299
 20
684.4567173629525
 30
0.0
 11
294.974505882299
 21
683.7747173629525
 31
0.0
1001
AUSTER_FOLIE
1002
{
1000
ZENTRA_2144_BO_M_LB_DREH
1002
}
1001
AUSTER_ANSICHT
1002
{
1000
SL
1002
}
  0
LINE
  5
BFA5
330
20
100
AcDbEntity
  8
11000_Left
  6
Continuous
 62
     7
370
    20
100
AcDbLine
 39
0.7
 10
294.974505882299
 20
696.5587173629526
 30
0.0
 11
299.744505882299
 21
695.8777173629527
 31
0.0
1001
AUSTER_FOLIE
1002
{
1000
ZENTRA_2144_BO_M_LB_DREH
1002
}
1001
AUSTER_ANSICHT
1002
{
1000
SL
1002
}
  0
LINE
  5
BFA6
330
20
100
AcDbEntity
  8
11000_Left
  6
Continuous
 62
     7
370
    20
100
AcDbLine
 39
0.7
 10
284.892505882299
 20
685.4167173629527
 30
0.0
 11
284.892505882299
 21
694.9167173629525
 31
0.0
1001
AUSTER_FOLIE
1002
{
1000
ZENTRA_2144_BO_M_LB_DREH
1002
}
1001
AUSTER_ANSICHT
1002
{
1000
SL
1002
}
  0
LINE
  5
BFA7
330
20
100
AcDbEntity
  8
11000_Left
  6
Continuous
 62
     7
370
    20
100
AcDbLine
 39
0.7
 10
296.184505882299
 20
687.4887173629529
 30
0.0
 11
296.635505882299
 21
688.329717362953
 31
0.0
1001
AUSTER_FOLIE
1002
{
1000
ZENTRA_2144_BO_M_LB_DREH
1002
}
1001
AUSTER_ANSICHT
1002
{
1000
SL
1002
}
  0
LINE
  5
BFA8
330
20
100
AcDbEntity
  8
11000_Left
  6
Continuous
 62
     7
370
    20
100
AcDbLine
 39
0.7
 10
294.974505882299
 20
683.7747173629525
 30
0.0
 11
290.192505882299
 21
683.1547173629529
 31
0.0
1001
AUSTER_FOLIE
1002
{
1000
ZENTRA_2144_BO_M_LB_DREH
1002
}
1001
AUSTER_ANSICHT
1002
{
1000
SL
1002
}
  0
LINE
  5
BFA9
330
20
100
AcDbEntity
  8
11000_Left
  6
Continuous
 62
     7
370
    20
100
AcDbLine
 39
0.7
 10
290.192505882299
 20
685.4167173629527
 30
0.0
 11
292.892505882299
 21
685.4167173629527
 31
0.0
1001
AUSTER_FOLIE
1002
{
1000
ZENTRA_2144_BO_M_LB_DREH
1002
}
1001
AUSTER_ANSICHT
1002
{
1000
SL
1002
}
  0
LINE
  5
BFAA
330
20
100
AcDbEntity
  8
11000_Left
  6
Continuous
 62
     7
370
    20
100
AcDbLine
 39
0.7
 10
290.192505882299
 20
685.4167173629527
 30
0.0
 11
290.192505882299
 21
683.1547173629529
 31
0.0
1001
AUSTER_FOLIE
1002
{
1000
ZENTRA_2144_BO_M_LB_DREH
1002
}
1001
AUSTER_ANSICHT
1002
{
1000
SL
1002
}
  0
LINE
  5
BFAB
330
20
100
AcDbEntity
  8
11000_Left
  6
Continuous
 62
     7
370
    20
100
AcDbLine
 39
0.7
 10
290.192505882299
 20
683.1547173629529
 30
0.0
 11
290.192505882299
 21
673.4107173629531
 31
0.0
1001
AUSTER_FOLIE
1002
{
1000
ZENTRA_2144_BO_M_LB_DREH
1002
}
1001
AUSTER_ANSICHT
1002
{
1000
SL
1002
}
  0
LINE
  5
BFAC
330
20
100
AcDbEntity
  8
11000_Left
  6
Continuous
 62
     7
370
    20
100
AcDbLine
 39
0.7
 10
290.192505882299
 20
685.4167173629527
 30
0.0
 11
284.892505882299
 21
685.4167173629527
 31
0.0
1001
AUSTER_FOLIE
1002
{
1000
ZENTRA_2144_BO_M_LB_DREH
1002
}
1001
AUSTER_ANSICHT
1002
{
1000
SL
1002
}
  0
LINE
  5
BFAD
330
20
100
AcDbEntity
  8
11000_Left
  6
Continuous
 62
     7
370
    20
100
AcDbLine
 39
0.7
 10
292.892505882299
 20
685.4167173629527
 30
0.0
 11
293.125505882299
 21
685.4567173629527
 31
0.0
1001
AUSTER_FOLIE
1002
{
1000
ZENTRA_2144_BO_M_LB_DREH
1002
}
1001
AUSTER_ANSICHT
1002
{
1000
SL
1002
}
  0
LINE
  5
BFAE
330
20
100
AcDbEntity
  8
11000_Left
  6
Continuous
 62
     7
370
    20
100
AcDbLine
 39
0.7
 10
293.125505882299
 20
685.4567173629527
 30
0.0
 11
294.0395058822988
 21
685.732717362953
 31
0.0
1001
AUSTER_FOLIE
1002
{
1000
ZENTRA_2144_BO_M_LB_DREH
1002
}
1001
AUSTER_ANSICHT
1002
{
1000
SL
1002
}
  0
LINE
  5
BFAF
330
20
100
AcDbEntity
  8
11000_Left
  6
Continuous
 62
     7
370
    20
100
AcDbLine
 39
0.7
 10
294.0395058822988
 20
685.732717362953
 30
0.0
 11
294.880505882299
 21
686.1837173629525
 31
0.0
1001
AUSTER_FOLIE
1002
{
1000
ZENTRA_2144_BO_M_LB_DREH
1002
}
1001
AUSTER_ANSICHT
1002
{
1000
SL
1002
}
  0
LINE
  5
BFB0
330
20
100
AcDbEntity
  8
11000_Left
  6
Continuous
 62
     7
370
    20
100
AcDbLine
 39
0.7
 10
294.880505882299
 20
686.1837173629525
 30
0.0
 11
295.595505882299
 21
686.7727173629527
 31
0.0
1001
AUSTER_FOLIE
1002
{
1000
ZENTRA_2144_BO_M_LB_DREH
1002
}
1001
AUSTER_ANSICHT
1002
{
1000
SL
1002
}
  0
LINE
  5
BFB1
330
20
100
AcDbEntity
  8
11000_Left
  6
Continuous
 62
     7
370
    20
100
AcDbLine
 39
0.7
 10
295.595505882299
 20
686.7727173629527
 30
0.0
 11
296.184505882299
 21
687.4887173629529
 31
0.0
1001
AUSTER_FOLIE
1002
{
1000
ZENTRA_2144_BO_M_LB_DREH
1002
}
1001
AUSTER_ANSICHT
1002
{
1000
SL
1002
}
  0
LINE
  5
BFB2
330
20
100
AcDbEntity
  8
11000_Left
  6
Continuous
 62
     7
370
    20
100
AcDbLine
 39
0.7
 10
290.192505882299
 20
697.179717362953
 30
0.0
 11
294.974505882299
 21
696.5587173629526
 31
0.0
1001
AUSTER_FOLIE
1002
{
1000
ZENTRA_2144_BO_M_LB_DREH
1002
}
1001
AUSTER_ANSICHT
1002
{
1000
SL
1002
}
  0
LINE
  5
BFB3
330
20
100
AcDbEntity
  8
11000_Left
  6
Continuous
 62
     7
370
    20
100
AcDbLine
 39
0.7
 10
292.892505882299
 20
694.9167173629525
 30
0.0
 11
290.192505882299
 21
694.9167173629525
 31
0.0
1001
AUSTER_FOLIE
1002
{
1000
ZENTRA_2144_BO_M_LB_DREH
1002
}
1001
AUSTER_ANSICHT
1002
{
1000
SL
1002
}
  0
LINE
  5
BFB4
330
20
100
AcDbEntity
  8
11000_Left
  6
Continuous
 62
     7
370
    20
100
AcDbLine
 39
0.7
 10
290.192505882299
 20
697.179717362953
 30
0.0
 11
290.192505882299
 21
694.9167173629525
 31
0.0
1001
AUSTER_FOLIE
1002
{
1000
ZENTRA_2144_BO_M_LB_DREH
1002
}
1001
AUSTER_ANSICHT
1002
{
1000
SL
1002
}
  0
LINE
  5
BFB5
330
20
100
AcDbEntity
  8
11000_Left
  6
Continuous
 62
     7
370
    20
100
AcDbLine
 39
0.7
 10
284.892505882299
 20
694.9167173629525
 30
0.0
 11
290.192505882299
 21
694.9167173629525
 31
0.0
1001
AUSTER_FOLIE
1002
{
1000
ZENTRA_2144_BO_M_LB_DREH
1002
}
1001
AUSTER_ANSICHT
1002
{
1000
SL
1002
}
  0
LINE
  5
BFB6
330
20
100
AcDbEntity
  8
11000_Left
  6
Continuous
 62
     7
370
    20
100
AcDbLine
 39
0.7
 10
290.192505882299
 20
696.1667173629527
 30
0.0
 11
290.195505882299
 21
696.1667173629527
 31
0.0
1001
AUSTER_FOLIE
1002
{
1000
ZENTRA_2144_BO_M_LB_DREH
1002
}
1001
AUSTER_ANSICHT
1002
{
1000
SL
1002
}
  0
LINE
  5
BFB7
330
20
100
AcDbEntity
  8
11000_Left
  6
Continuous
 62
     7
370
    20
100
AcDbLine
 39
0.7
 10
296.635505882299
 20
688.329717362953
 30
0.0
 11
296.9115058822989
 21
689.2437173629526
 31
0.0
1001
AUSTER_FOLIE
1002
{
1000
ZENTRA_2144_BO_M_LB_DREH
1002
}
1001
AUSTER_ANSICHT
1002
{
1000
SL
1002
}
  0
LINE
  5
BFB8
330
20
100
AcDbEntity
  8
11000_Left
  6
Continuous
 62
     7
370
    20
100
AcDbLine
 39
0.7
 10
296.9115058822989
 20
689.2437173629526
 30
0.0
 11
297.001505882299
 21
690.166717362953
 31
0.0
1001
AUSTER_FOLIE
1002
{
1000
ZENTRA_2144_BO_M_LB_DREH
1002
}
1001
AUSTER_ANSICHT
1002
{
1000
SL
1002
}
  0
LINE
  5
BFB9
330
20
100
AcDbEntity
  8
11000_Left
  6
Continuous
 62
     7
370
    20
100
AcDbLine
 39
0.7
 10
297.001505882299
 20
690.166717362953
 30
0.0
 11
296.9115058822989
 21
691.0907173629525
 31
0.0
1001
AUSTER_FOLIE
1002
{
1000
ZENTRA_2144_BO_M_LB_DREH
1002
}
1001
AUSTER_ANSICHT
1002
{
1000
SL
1002
}
  0
LINE
  5
BFBA
330
20
100
AcDbEntity
  8
11000_Left
  6
Continuous
 62
     7
370
    20
100
AcDbLine
 39
0.7
 10
296.9115058822989
 20
691.0907173629525
 30
0.0
 11
296.635505882299
 21
692.0047173629527
 31
0.0
1001
AUSTER_FOLIE
1002
{
1000
ZENTRA_2144_BO_M_LB_DREH
1002
}
1001
AUSTER_ANSICHT
1002
{
1000
SL
1002
}
  0
LINE
  5
BFBB
330
20
100
AcDbEntity
  8
11000_Left
  6
Continuous
 62
     7
370
    20
100
AcDbLine
 39
0.7
 10
296.635505882299
 20
692.0047173629527
 30
0.0
 11
296.184505882299
 21
692.8457173629525
 31
0.0
1001
AUSTER_FOLIE
1002
{
1000
ZENTRA_2144_BO_M_LB_DREH
1002
}
1001
AUSTER_ANSICHT
1002
{
1000
SL
1002
}
  0
LINE
  5
BFBC
330
20
100
AcDbEntity
  8
11000_Left
  6
Continuous
 62
     7
370
    20
100
AcDbLine
 39
0.7
 10
296.184505882299
 20
692.8457173629525
 30
0.0
 11
295.595505882299
 21
693.5617173629525
 31
0.0
1001
AUSTER_FOLIE
1002
{
1000
ZENTRA_2144_BO_M_LB_DREH
1002
}
1001
AUSTER_ANSICHT
1002
{
1000
SL
1002
}
  0
LINE
  5
BFBD
330
20
100
AcDbEntity
  8
11000_Left
  6
Continuous
 62
     7
370
    20
100
AcDbLine
 39
0.7
 10
295.595505882299
 20
693.5617173629525
 30
0.0
 11
294.880505882299
 21
694.1497173629526
 31
0.0
1001
AUSTER_FOLIE
1002
{
1000
ZENTRA_2144_BO_M_LB_DREH
1002
}
1001
AUSTER_ANSICHT
1002
{
1000
SL
1002
}
  0
LINE
  5
BFBE
330
20
100
AcDbEntity
  8
11000_Left
  6
Continuous
 62
     7
370
    20
100
AcDbLine
 39
0.7
 10
294.880505882299
 20
694.1497173629526
 30
0.0
 11
294.0395058822988
 21
694.6017173629526
 31
0.0
1001
AUSTER_FOLIE
1002
{
1000
ZENTRA_2144_BO_M_LB_DREH
1002
}
1001
AUSTER_ANSICHT
1002
{
1000
SL
1002
}
  0
LINE
  5
BFBF
330
20
100
AcDbEntity
  8
11000_Left
  6
Continuous
 62
     7
370
    20
100
AcDbLine
 39
0.7
 10
294.0395058822988
 20
694.6017173629526
 30
0.0
 11
293.125505882299
 21
694.877717362953
 31
0.0
1001
AUSTER_FOLIE
1002
{
1000
ZENTRA_2144_BO_M_LB_DREH
1002
}
1001
AUSTER_ANSICHT
1002
{
1000
SL
1002
}
  0
LINE
  5
BFC0
330
20
100
AcDbEntity
  8
11000_Left
  6
Continuous
 62
     7
370
    20
100
AcDbLine
 39
0.7
 10
293.125505882299
 20
694.877717362953
 30
0.0
 11
292.892505882299
 21
694.9167173629525
 31
0.0
1001
AUSTER_FOLIE
1002
{
1000
ZENTRA_2144_BO_M_LB_DREH
1002
}
1001
AUSTER_ANSICHT
1002
{
1000
SL
1002
}
  0
LINE
  5
BFC1
330
20
100
AcDbEntity
  8
11000_Left
  6
Continuous
 62
     7
370
    50
100
AcDbLine
 39
0.7
 10
309.392505882299
 20
684.1667173629526
 30
0.0
 11
309.392505882299
 21
696.1667173629527
 31
0.0
1001
AUSTER_FOLIE
1002
{
1000
ZENTRA_2144_BO_M_LB_DREH
1002
}
1001
AUSTER_ANSICHT
1002
{
1000
SL
1002
}
  0
LINE
  5
BFC2
330
20
100
AcDbEntity
  8
11000_Left
  6
Continuous
 62
     7
370
    20
100
AcDbLine
 39
0.7
 10
303.392505882299
 20
696.1667173629527
 30
0.0
 11
303.392505882299
 21
684.1667173629526
 31
0.0
1001
AUSTER_FOLIE
1002
{
1000
ZENTRA_2144_BO_M_LB_DREH
1002
}
1001
AUSTER_ANSICHT
1002
{
1000
SL
1002
}
  0
LINE
  5
BFC3
330
20
100
AcDbEntity
  8
11000_Left
  6
Continuous
 62
     7
370
    20
100
AcDbLine
 39
0.7
 10
300.675505882299
 20
687.7407173629527
 30
0.0
 11
300.6045058822989
 21
686.5177173629526
 31
0.0
1001
AUSTER_FOLIE
1002
{
1000
ZENTRA_2144_BO_M_LB_DREH
1002
}
1001
AUSTER_ANSICHT
1002
{
1000
SL
1002
}
  0
LINE
  5
BFC4
330
20
100
AcDbEntity
  8
11000_Left
  6
Continuous
 62
     7
370
    50
100
AcDbLine
 39
0.7
 10
303.392505882299
 20
684.1667173629526
 30
0.0
 11
309.392505882299
 21
684.1667173629526
 31
0.0
1001
AUSTER_FOLIE
1002
{
1000
ZENTRA_2144_BO_M_LB_DREH
1002
}
1001
AUSTER_ANSICHT
1002
{
1000
SL
1002
}
  0
LINE
  5
BFC5
330
20
100
AcDbEntity
  8
11000_Left
  6
Continuous
 62
     7
370
    50
100
AcDbLine
 39
0.7
 10
300.6925058822992
 20
684.1667173629526
 30
0.0
 11
303.392505882299
 21
684.1667173629526
 31
0.0
1001
AUSTER_FOLIE
1002
{
1000
ZENTRA_2144_BO_M_LB_DREH
1002
}
1001
AUSTER_ANSICHT
1002
{
1000
SL
1002
}
  0
LINE
  5
BFC6
330
20
100
AcDbEntity
  8
11000_Left
  6
Continuous
 62
     7
370
    20
100
AcDbLine
 39
0.7
 10
300.6045058822989
 20
686.5177173629526
 30
0.0
 11
300.526505882299
 21
685.929717362953
 31
0.0
1001
AUSTER_FOLIE
1002
{
1000
ZENTRA_2144_BO_M_LB_DREH
1002
}
1001
AUSTER_ANSICHT
1002
{
1000
SL
1002
}
  0
LINE
  5
BFC7
330
20
100
AcDbEntity
  8
11000_Left
  6
Continuous
 62
     7
370
    20
100
AcDbLine
 39
0.7
 10
300.526505882299
 20
685.929717362953
 30
0.0
 11
300.399505882299
 21
685.3687173629524
 31
0.0
1001
AUSTER_FOLIE
1002
{
1000
ZENTRA_2144_BO_M_LB_DREH
1002
}
1001
AUSTER_ANSICHT
1002
{
1000
SL
1002
}
  0
LINE
  5
BFC8
330
20
100
AcDbEntity
  8
11000_Left
  6
Continuous
 62
     7
370
    20
100
AcDbLine
 39
0.7
 10
300.399505882299
 20
685.3687173629524
 30
0.0
 11
300.322505882299
 21
685.1377173629527
 31
0.0
1001
AUSTER_FOLIE
1002
{
1000
ZENTRA_2144_BO_M_LB_DREH
1002
}
1001
AUSTER_ANSICHT
1002
{
1000
SL
1002
}
  0
LINE
  5
BFC9
330
20
100
AcDbEntity
  8
11000_Left
  6
Continuous
 62
     7
370
    20
100
AcDbLine
 39
0.7
 10
300.322505882299
 20
685.1377173629527
 30
0.0
 11
300.225505882299
 21
684.9137173629527
 31
0.0
1001
AUSTER_FOLIE
1002
{
1000
ZENTRA_2144_BO_M_LB_DREH
1002
}
1001
AUSTER_ANSICHT
1002
{
1000
SL
1002
}
  0
LINE
  5
BFCA
330
20
100
AcDbEntity
  8
11000_Left
  6
Continuous
 62
     7
370
    20
100
AcDbLine
 39
0.7
 10
300.225505882299
 20
684.9137173629527
 30
0.0
 11
300.113505882299
 21
684.727717362953
 31
0.0
1001
AUSTER_FOLIE
1002
{
1000
ZENTRA_2144_BO_M_LB_DREH
1002
}
1001
AUSTER_ANSICHT
1002
{
1000
SL
1002
}
  0
LINE
  5
BFCB
330
20
100
AcDbEntity
  8
11000_Left
  6
Continuous
 62
     7
370
    20
100
AcDbLine
 39
0.7
 10
300.113505882299
 20
684.727717362953
 30
0.0
 11
299.969505882299
 21
684.5667173629526
 31
0.0
1001
AUSTER_FOLIE
1002
{
1000
ZENTRA_2144_BO_M_LB_DREH
1002
}
1001
AUSTER_ANSICHT
1002
{
1000
SL
1002
}
  0
LINE
  5
BFCC
330
20
100
AcDbEntity
  8
11000_Left
  6
Continuous
 62
     7
370
    20
100
AcDbLine
 39
0.7
 10
299.969505882299
 20
684.5667173629526
 30
0.0
 11
299.8895058822989
 21
684.5097173629527
 31
0.0
1001
AUSTER_FOLIE
1002
{
1000
ZENTRA_2144_BO_M_LB_DREH
1002
}
1001
AUSTER_ANSICHT
1002
{
1000
SL
1002
}
  0
LINE
  5
BFCD
330
20
100
AcDbEntity
  8
11000_Left
  6
Continuous
 62
     7
370
    20
100
AcDbLine
 39
0.7
 10
299.8895058822989
 20
684.5097173629527
 30
0.0
 11
299.791505882299
 21
684.4677173629523
 31
0.0
1001
AUSTER_FOLIE
1002
{
1000
ZENTRA_2144_BO_M_LB_DREH
1002
}
1001
AUSTER_ANSICHT
1002
{
1000
SL
1002
}
  0
LINE
  5
BFCE
330
20
100
AcDbEntity
  8
11000_Left
  6
Continuous
 62
     7
370
    20
100
AcDbLine
 39
0.7
 10
299.791505882299
 20
684.4677173629523
 30
0.0
 11
299.744505882299
 21
684.4567173629525
 31
0.0
1001
AUSTER_FOLIE
1002
{
1000
ZENTRA_2144_BO_M_LB_DREH
1002
}
1001
AUSTER_ANSICHT
1002
{
1000
SL
1002
}
  0
LINE
  5
BFCF
330
20
100
AcDbEntity
  8
11000_Left
  6
Continuous
 62
     7
370
    50
100
AcDbLine
 39
0.7
 10
309.392505882299
 20
696.1667173629527
 30
0.0
 11
303.392505882299
 21
696.1667173629527
 31
0.0
1001
AUSTER_FOLIE
1002
{
1000
ZENTRA_2144_BO_M_LB_DREH
1002
}
1001
AUSTER_ANSICHT
1002
{
1000
SL
1002
}
  0
LINE
  5
BFD0
330
20
100
AcDbEntity
  8
11000_Left
  6
Continuous
 62
     7
370
    20
100
AcDbLine
 39
0.7
 10
299.969505882299
 20
695.7677173629527
 30
0.0
 11
300.113505882299
 21
695.6067173629524
 31
0.0
1001
AUSTER_FOLIE
1002
{
1000
ZENTRA_2144_BO_M_LB_DREH
1002
}
1001
AUSTER_ANSICHT
1002
{
1000
SL
1002
}
  0
LINE
  5
BFD1
330
20
100
AcDbEntity
  8
11000_Left
  6
Continuous
 62
     7
370
    20
100
AcDbLine
 39
0.7
 10
300.113505882299
 20
695.6067173629524
 30
0.0
 11
300.225505882299
 21
695.4207173629527
 31
0.0
1001
AUSTER_FOLIE
1002
{
1000
ZENTRA_2144_BO_M_LB_DREH
1002
}
1001
AUSTER_ANSICHT
1002
{
1000
SL
1002
}
  0
LINE
  5
BFD2
330
20
100
AcDbEntity
  8
11000_Left
  6
Continuous
 62
     7
370
    20
100
AcDbLine
 39
0.7
 10
300.225505882299
 20
695.4207173629527
 30
0.0
 11
300.322505882299
 21
695.1967173629525
 31
0.0
1001
AUSTER_FOLIE
1002
{
1000
ZENTRA_2144_BO_M_LB_DREH
1002
}
1001
AUSTER_ANSICHT
1002
{
1000
SL
1002
}
  0
LINE
  5
BFD3
330
20
100
AcDbEntity
  8
11000_Left
  6
Continuous
 62
     7
370
    20
100
AcDbLine
 39
0.7
 10
300.322505882299
 20
695.1967173629525
 30
0.0
 11
300.399505882299
 21
694.9657173629527
 31
0.0
1001
AUSTER_FOLIE
1002
{
1000
ZENTRA_2144_BO_M_LB_DREH
1002
}
1001
AUSTER_ANSICHT
1002
{
1000
SL
1002
}
  0
LINE
  5
BFD4
330
20
100
AcDbEntity
  8
11000_Left
  6
Continuous
 62
     7
370
    20
100
AcDbLine
 39
0.7
 10
300.399505882299
 20
694.9657173629527
 30
0.0
 11
300.526505882299
 21
694.4047173629528
 31
0.0
1001
AUSTER_FOLIE
1002
{
1000
ZENTRA_2144_BO_M_LB_DREH
1002
}
1001
AUSTER_ANSICHT
1002
{
1000
SL
1002
}
  0
LINE
  5
BFD5
330
20
100
AcDbEntity
  8
11000_Left
  6
Continuous
 62
     7
370
    20
100
AcDbLine
 39
0.7
 10
300.526505882299
 20
694.4047173629528
 30
0.0
 11
300.6045058822989
 21
693.8167173629525
 31
0.0
1001
AUSTER_FOLIE
1002
{
1000
ZENTRA_2144_BO_M_LB_DREH
1002
}
1001
AUSTER_ANSICHT
1002
{
1000
SL
1002
}
  0
LINE
  5
BFD6
330
20
100
AcDbEntity
  8
11000_Left
  6
Continuous
 62
     7
370
    20
100
AcDbLine
 39
0.7
 10
300.6045058822989
 20
693.8167173629525
 30
0.0
 11
300.675505882299
 21
692.5937173629526
 31
0.0
1001
AUSTER_FOLIE
1002
{
1000
ZENTRA_2144_BO_M_LB_DREH
1002
}
1001
AUSTER_ANSICHT
1002
{
1000
SL
1002
}
  0
LINE
  5
BFD7
330
20
100
AcDbEntity
  8
11000_Left
  6
Continuous
 62
     7
370
    50
100
AcDbLine
 39
0.7
 10
300.6925058822992
 20
696.1667173629527
 30
0.0
 11
303.392505882299
 21
696.1667173629527
 31
0.0
1001
AUSTER_FOLIE
1002
{
1000
ZENTRA_2144_BO_M_LB_DREH
1002
}
1001
AUSTER_ANSICHT
1002
{
1000
SL
1002
}
  0
LINE
  5
BFD8
330
20
100
AcDbEntity
  8
11000_Left
  6
Continuous
 62
     7
370
    20
100
AcDbLine
 39
0.7
 10
299.744505882299
 20
695.8777173629527
 30
0.0
 11
299.791505882299
 21
695.8667173629526
 31
0.0
1001
AUSTER_FOLIE
1002
{
1000
ZENTRA_2144_BO_M_LB_DREH
1002
}
1001
AUSTER_ANSICHT
1002
{
1000
SL
1002
}
  0
LINE
  5
BFD9
330
20
100
AcDbEntity
  8
11000_Left
  6
Continuous
 62
     7
370
    20
100
AcDbLine
 39
0.7
 10
299.791505882299
 20
695.8667173629526
 30
0.0
 11
299.8895058822989
 21
695.8247173629525
 31
0.0
1001
AUSTER_FOLIE
1002
{
1000
ZENTRA_2144_BO_M_LB_DREH
1002
}
1001
AUSTER_ANSICHT
1002
{
1000
SL
1002
}
  0
LINE
  5
BFDA
330
20
100
AcDbEntity
  8
11000_Left
  6
Continuous
 62
     7
370
    20
100
AcDbLine
 39
0.7
 10
299.8895058822989
 20
695.8247173629525
 30
0.0
 11
299.969505882299
 21
695.7677173629527
 31
0.0
1001
AUSTER_FOLIE
1002
{
1000
ZENTRA_2144_BO_M_LB_DREH
1002
}
1001
AUSTER_ANSICHT
1002
{
1000
SL
1002
}
  0
LINE
  5
BFDB
330
20
100
AcDbEntity
  8
11000_Left
  6
Continuous
 62
     7
370
    50
100
AcDbLine
 39
0.7
 10
280.1969516610611
 20
722.0344381443941
 30
0.0
 11
280.192505882299
 21
723.3667173629526
 31
0.0
1001
AUSTER_FOLIE
1002
{
1000
ZENTRA_2144_BO_M_LB_DREH
1002
}
1001
AUSTER_ANSICHT
1002
{
1000
SL
1002
}
  0
ARC
  5
BFDC
330
20
100
AcDbEntity
  8
11000_Left
  6
Continuous
 62
     7
370
    50
100
AcDbCircle
 39
0.7
 10
282.192505882299
 20
722.1677173629525
 30
0.0
 40
2.0
100
AcDbArc
 50
183.8209999999991
 51
269.9990000000003
1001
AUSTER_FOLIE
1002
{
1000
ZENTRA_2144_BO_M_LB_DREH
1002
}
1001
AUSTER_ANSICHT
1002
{
1000
SL
1002
}
  0
LINE
  5
BFDD
330
20
100
AcDbEntity
  8
11000_Left
  6
Continuous
 62
     7
370
    50
100
AcDbLine
 39
0.7
 10
280.192505882299
 20
723.3667173629526
 30
0.0
 11
273.192505882299
 21
723.3667173629526
 31
0.0
1001
AUSTER_FOLIE
1002
{
1000
ZENTRA_2144_BO_M_LB_DREH
1002
}
1001
AUSTER_ANSICHT
1002
{
1000
SL
1002
}
  0
LINE
  5
BFDE
330
20
100
AcDbEntity
  8
11000_Left
  6
Continuous
 62
     7
370
    20
100
AcDbLine
 39
0.7
 10
299.744505882299
 20
707.674717362953
 30
0.0
 11
294.975505882299
 21
707.276717362953
 31
0.0
1001
AUSTER_FOLIE
1002
{
1000
ZENTRA_2144_BO_M_LB_DREH
1002
}
1001
AUSTER_ANSICHT
1002
{
1000
SL
1002
}
  0
LINE
  5
BFDF
330
20
100
AcDbEntity
  8
11000_Left
  6
Continuous
 62
     7
370
    50
100
AcDbLine
 39
0.7
 10
299.744505882299
 20
720.6357173629528
 30
0.0
 11
290.192505882299
 21
720.8767173629532
 31
0.0
1001
AUSTER_FOLIE
1002
{
1000
ZENTRA_2144_BO_M_LB_DREH
1002
}
1001
AUSTER_ANSICHT
1002
{
1000
SL
1002
}
  0
LINE
  5
BFE0
330
20
100
AcDbEntity
  8
11000_Left
  6
Continuous
 62
     7
370
    20
100
AcDbLine
 39
0.7
 10
294.975505882299
 20
716.3167173629525
 30
0.0
 11
299.744505882299
 21
715.7497173629528
 31
0.0
1001
AUSTER_FOLIE
1002
{
1000
ZENTRA_2144_BO_M_LB_DREH
1002
}
1001
AUSTER_ANSICHT
1002
{
1000
SL
1002
}
  0
LINE
  5
BFE1
330
20
100
AcDbEntity
  8
11000_Left
  6
Continuous
 62
     7
370
    50
100
AcDbLine
 39
0.7
 10
290.192505882299
 20
720.8767173629532
 30
0.0
 11
290.192505882299
 21
720.166717362953
 31
0.0
1001
AUSTER_FOLIE
1002
{
1000
ZENTRA_2144_BO_M_LB_DREH
1002
}
1001
AUSTER_ANSICHT
1002
{
1000
SL
1002
}
  0
LINE
  5
BFE2
330
20
100
AcDbEntity
  8
11000_Left
  6
Continuous
 62
     7
370
    20
100
AcDbLine
 39
0.7
 10
294.975505882299
 20
707.276717362953
 30
0.0
 11
290.192505882299
 21
706.9237173629526
 31
0.0
1001
AUSTER_FOLIE
1002
{
1000
ZENTRA_2144_BO_M_LB_DREH
1002
}
1001
AUSTER_ANSICHT
1002
{
1000
SL
1002
}
  0
LINE
  5
BFE3
330
20
100
AcDbEntity
  8
11000_Left
  6
Continuous
 62
     7
370
    20
100
AcDbLine
 39
0.7
 10
290.192505882299
 20
716.8407173629527
 30
0.0
 11
294.975505882299
 21
716.3167173629525
 31
0.0
1001
AUSTER_FOLIE
1002
{
1000
ZENTRA_2144_BO_M_LB_DREH
1002
}
1001
AUSTER_ANSICHT
1002
{
1000
SL
1002
}
  0
LINE
  5
BFE4
330
20
100
AcDbEntity
  8
11000_Left
  6
Continuous
 62
     7
370
    20
100
AcDbLine
 39
0.7
 10
290.192505882299
 20
711.3807173629526
 30
0.0
 11
290.192505882299
 21
706.9237173629526
 31
0.0
1001
AUSTER_FOLIE
1002
{
1000
ZENTRA_2144_BO_M_LB_DREH
1002
}
1001
AUSTER_ANSICHT
1002
{
1000
SL
1002
}
  0
LINE
  5
BFE5
330
20
100
AcDbEntity
  8
11000_Left
  6
Continuous
 62
     7
370
    20
100
AcDbLine
 39
0.7
 10
290.192505882299
 20
720.166717362953
 30
0.0
 11
290.192505882299
 21
711.3807173629526
 31
0.0
1001
AUSTER_FOLIE
1002
{
1000
ZENTRA_2144_BO_M_LB_DREH
1002
}
1001
AUSTER_ANSICHT
1002
{
1000
SL
1002
}
  0
LINE
  5
BFE6
330
20
100
AcDbEntity
  8
11000_Left
  6
Continuous
 62
     7
370
    20
100
AcDbLine
 39
0.7
 10
290.192505882299
 20
720.8767173629532
 30
0.0
 11
290.194505882299
 21
720.8767173629532
 31
0.0
1001
AUSTER_FOLIE
1002
{
1000
ZENTRA_2144_BO_M_LB_DREH
1002
}
1001
AUSTER_ANSICHT
1002
{
1000
SL
1002
}
  0
LINE
  5
BFE7
330
20
100
AcDbEntity
  8
11000_Left
  6
Continuous
 62
     7
370
    50
100
AcDbLine
 39
0.7
 10
290.192505882299
 20
720.166717362953
 30
0.0
 11
282.192505882299
 21
720.166717362953
 31
0.0
1001
AUSTER_FOLIE
1002
{
1000
ZENTRA_2144_BO_M_LB_DREH
1002
}
1001
AUSTER_ANSICHT
1002
{
1000
SL
1002
}
  0
LINE
  5
BFE8
330
20
100
AcDbEntity
  8
11000_Left
  6
Continuous
 62
     7
370
    50
100
AcDbLine
 39
0.7
 10
300.6925058822992
 20
711.4907173629525
 30
0.0
 11
300.6925058822992
 21
720.1677173629525
 31
0.0
1001
AUSTER_FOLIE
1002
{
1000
ZENTRA_2144_BO_M_LB_DREH
1002
}
1001
AUSTER_ANSICHT
1002
{
1000
SL
1002
}
  0
LINE
  5
BFE9
330
20
100
AcDbEntity
  8
11000_Left
  6
Continuous
 62
     7
370
    20
100
AcDbLine
 39
0.7
 10
300.675505882299
 20
709.723717362953
 30
0.0
 11
300.6045058822989
 21
708.934717362953
 31
0.0
1001
AUSTER_FOLIE
1002
{
1000
ZENTRA_2144_BO_M_LB_DREH
1002
}
1001
AUSTER_ANSICHT
1002
{
1000
SL
1002
}
  0
LINE
  5
BFEA
330
20
100
AcDbEntity
  8
11000_Left
  6
Continuous
 62
     7
370
    20
100
AcDbLine
 39
0.7
 10
300.6045058822989
 20
708.934717362953
 30
0.0
 11
300.526505882299
 21
708.5657173629527
 31
0.0
1001
AUSTER_FOLIE
1002
{
1000
ZENTRA_2144_BO_M_LB_DREH
1002
}
1001
AUSTER_ANSICHT
1002
{
1000
SL
1002
}
  0
LINE
  5
BFEB
330
20
100
AcDbEntity
  8
11000_Left
  6
Continuous
 62
     7
370
    20
100
AcDbLine
 39
0.7
 10
300.526505882299
 20
708.5657173629527
 30
0.0
 11
300.399505882299
 21
708.2217173629524
 31
0.0
1001
AUSTER_FOLIE
1002
{
1000
ZENTRA_2144_BO_M_LB_DREH
1002
}
1001
AUSTER_ANSICHT
1002
{
1000
SL
1002
}
  0
LINE
  5
BFEC
330
20
100
AcDbEntity
  8
11000_Left
  6
Continuous
 62
     7
370
    20
100
AcDbLine
 39
0.7
 10
300.399505882299
 20
708.2217173629524
 30
0.0
 11
300.322505882299
 21
708.0807173629525
 31
0.0
1001
AUSTER_FOLIE
1002
{
1000
ZENTRA_2144_BO_M_LB_DREH
1002
}
1001
AUSTER_ANSICHT
1002
{
1000
SL
1002
}
  0
LINE
  5
BFED
330
20
100
AcDbEntity
  8
11000_Left
  6
Continuous
 62
     7
370
    20
100
AcDbLine
 39
0.7
 10
300.322505882299
 20
708.0807173629525
 30
0.0
 11
300.225505882299
 21
707.9457173629529
 31
0.0
1001
AUSTER_FOLIE
1002
{
1000
ZENTRA_2144_BO_M_LB_DREH
1002
}
1001
AUSTER_ANSICHT
1002
{
1000
SL
1002
}
  0
LINE
  5
BFEE
330
20
100
AcDbEntity
  8
11000_Left
  6
Continuous
 62
     7
370
    20
100
AcDbLine
 39
0.7
 10
300.225505882299
 20
707.9457173629529
 30
0.0
 11
300.113505882299
 21
707.8347173629525
 31
0.0
1001
AUSTER_FOLIE
1002
{
1000
ZENTRA_2144_BO_M_LB_DREH
1002
}
1001
AUSTER_ANSICHT
1002
{
1000
SL
1002
}
  0
LINE
  5
BFEF
330
20
100
AcDbEntity
  8
11000_Left
  6
Continuous
 62
     7
370
    20
100
AcDbLine
 39
0.7
 10
300.113505882299
 20
707.8347173629525
 30
0.0
 11
299.969505882299
 21
707.7397173629528
 31
0.0
1001
AUSTER_FOLIE
1002
{
1000
ZENTRA_2144_BO_M_LB_DREH
1002
}
1001
AUSTER_ANSICHT
1002
{
1000
SL
1002
}
  0
LINE
  5
BFF0
330
20
100
AcDbEntity
  8
11000_Left
  6
Continuous
 62
     7
370
    20
100
AcDbLine
 39
0.7
 10
299.969505882299
 20
707.7397173629528
 30
0.0
 11
299.8895058822989
 21
707.7057173629525
 31
0.0
1001
AUSTER_FOLIE
1002
{
1000
ZENTRA_2144_BO_M_LB_DREH
1002
}
1001
AUSTER_ANSICHT
1002
{
1000
SL
1002
}
  0
LINE
  5
BFF1
330
20
100
AcDbEntity
  8
11000_Left
  6
Continuous
 62
     7
370
    20
100
AcDbLine
 39
0.7
 10
299.8895058822989
 20
707.7057173629525
 30
0.0
 11
299.791505882299
 21
707.680717362953
 31
0.0
1001
AUSTER_FOLIE
1002
{
1000
ZENTRA_2144_BO_M_LB_DREH
1002
}
1001
AUSTER_ANSICHT
1002
{
1000
SL
1002
}
  0
LINE
  5
BFF2
330
20
100
AcDbEntity
  8
11000_Left
  6
Continuous
 62
     7
370
    20
100
AcDbLine
 39
0.7
 10
299.791505882299
 20
707.680717362953
 30
0.0
 11
299.744505882299
 21
707.674717362953
 31
0.0
1001
AUSTER_FOLIE
1002
{
1000
ZENTRA_2144_BO_M_LB_DREH
1002
}
1001
AUSTER_ANSICHT
1002
{
1000
SL
1002
}
  0
LINE
  5
BFF3
330
20
100
AcDbEntity
  8
11000_Left
  6
Continuous
 62
     7
370
    50
100
AcDbLine
 39
0.7
 10
300.6925058822992
 20
711.2707173629527
 30
0.0
 11
300.6925058822992
 21
711.4907173629525
 31
0.0
1001
AUSTER_FOLIE
1002
{
1000
ZENTRA_2144_BO_M_LB_DREH
1002
}
1001
AUSTER_ANSICHT
1002
{
1000
SL
1002
}
  0
LINE
  5
BFF4
330
20
100
AcDbEntity
  8
11000_Left
  6
Continuous
 62
     7
370
    20
100
AcDbLine
 39
0.7
 10
300.225505882299
 20
715.3757173629527
 30
0.0
 11
300.322505882299
 21
715.1937173629528
 31
0.0
1001
AUSTER_FOLIE
1002
{
1000
ZENTRA_2144_BO_M_LB_DREH
1002
}
1001
AUSTER_ANSICHT
1002
{
1000
SL
1002
}
  0
LINE
  5
BFF5
330
20
100
AcDbEntity
  8
11000_Left
  6
Continuous
 62
     7
370
    20
100
AcDbLine
 39
0.7
 10
300.322505882299
 20
715.1937173629528
 30
0.0
 11
300.399505882299
 21
715.0067173629525
 31
0.0
1001
AUSTER_FOLIE
1002
{
1000
ZENTRA_2144_BO_M_LB_DREH
1002
}
1001
AUSTER_ANSICHT
1002
{
1000
SL
1002
}
  0
LINE
  5
BFF6
330
20
100
AcDbEntity
  8
11000_Left
  6
Continuous
 62
     7
370
    20
100
AcDbLine
 39
0.7
 10
300.399505882299
 20
715.0067173629525
 30
0.0
 11
300.526505882299
 21
714.5587173629524
 31
0.0
1001
AUSTER_FOLIE
1002
{
1000
ZENTRA_2144_BO_M_LB_DREH
1002
}
1001
AUSTER_ANSICHT
1002
{
1000
SL
1002
}
  0
LINE
  5
BFF7
330
20
100
AcDbEntity
  8
11000_Left
  6
Continuous
 62
     7
370
    20
100
AcDbLine
 39
0.7
 10
300.526505882299
 20
714.5587173629524
 30
0.0
 11
300.6045058822989
 21
714.0967173629527
 31
0.0
1001
AUSTER_FOLIE
1002
{
1000
ZENTRA_2144_BO_M_LB_DREH
1002
}
1001
AUSTER_ANSICHT
1002
{
1000
SL
1002
}
  0
LINE
  5
BFF8
330
20
100
AcDbEntity
  8
11000_Left
  6
Continuous
 62
     7
370
    20
100
AcDbLine
 39
0.7
 10
300.6045058822989
 20
714.0967173629527
 30
0.0
 11
300.675505882299
 21
713.1557173629532
 31
0.0
1001
AUSTER_FOLIE
1002
{
1000
ZENTRA_2144_BO_M_LB_DREH
1002
}
1001
AUSTER_ANSICHT
1002
{
1000
SL
1002
}
  0
LINE
  5
BFF9
330
20
100
AcDbEntity
  8
11000_Left
  6
Continuous
 62
     7
370
    50
100
AcDbLine
 39
0.7
 10
300.6925058822992
 20
711.2707173629527
 30
0.0
 11
300.691505882299
 21
710.5537173629524
 31
0.0
1001
AUSTER_FOLIE
1002
{
1000
ZENTRA_2144_BO_M_LB_DREH
1002
}
1001
AUSTER_ANSICHT
1002
{
1000
SL
1002
}
  0
LINE
  5
BFFA
330
20
100
AcDbEntity
  8
11000_Left
  6
Continuous
 62
     7
370
    50
100
AcDbLine
 39
0.7
 10
300.691505882299
 20
710.5537173629524
 30
0.0
 11
300.675505882299
 21
709.723717362953
 31
0.0
1001
AUSTER_FOLIE
1002
{
1000
ZENTRA_2144_BO_M_LB_DREH
1002
}
1001
AUSTER_ANSICHT
1002
{
1000
SL
1002
}
  0
LINE
  5
BFFB
330
20
100
AcDbEntity
  8
11000_Left
  6
Continuous
 62
     7
370
    20
100
AcDbLine
 39
0.7
 10
299.8895058822989
 20
715.7057173629525
 30
0.0
 11
299.969505882299
 21
715.6587173629527
 31
0.0
1001
AUSTER_FOLIE
1002
{
1000
ZENTRA_2144_BO_M_LB_DREH
1002
}
1001
AUSTER_ANSICHT
1002
{
1000
SL
1002
}
  0
LINE
  5
BFFC
330
20
100
AcDbEntity
  8
11000_Left
  6
Continuous
 62
     7
370
    20
100
AcDbLine
 39
0.7
 10
299.969505882299
 20
715.6587173629527
 30
0.0
 11
300.113505882299
 21
715.5277173629525
 31
0.0
1001
AUSTER_FOLIE
1002
{
1000
ZENTRA_2144_BO_M_LB_DREH
1002
}
1001
AUSTER_ANSICHT
1002
{
1000
SL
1002
}
  0
LINE
  5
BFFD
330
20
100
AcDbEntity
  8
11000_Left
  6
Continuous
 62
     7
370
    20
100
AcDbLine
 39
0.7
 10
300.113505882299
 20
715.5277173629525
 30
0.0
 11
300.225505882299
 21
715.3757173629527
 31
0.0
1001
AUSTER_FOLIE
1002
{
1000
ZENTRA_2144_BO_M_LB_DREH
1002
}
1001
AUSTER_ANSICHT
1002
{
1000
SL
1002
}
  0
LINE
  5
BFFE
330
20
100
AcDbEntity
  8
11000_Left
  6
Continuous
 62
     7
370
    20
100
AcDbLine
 39
0.7
 10
299.744505882299
 20
715.7497173629528
 30
0.0
 11
299.791505882299
 21
715.7407173629525
 31
0.0
1001
AUSTER_FOLIE
1002
{
1000
ZENTRA_2144_BO_M_LB_DREH
1002
}
1001
AUSTER_ANSICHT
1002
{
1000
SL
1002
}
  0
LINE
  5
BFFF
330
20
100
AcDbEntity
  8
11000_Left
  6
Continuous
 62
     7
370
    20
100
AcDbLine
 39
0.7
 10
299.791505882299
 20
715.7407173629525
 30
0.0
 11
299.8895058822989
 21
715.7057173629525
 31
0.0
1001
AUSTER_FOLIE
1002
{
1000
ZENTRA_2144_BO_M_LB_DREH
1002
}
1001
AUSTER_ANSICHT
1002
{
1000
SL
1002
}
  0
LINE
  5
C000
330
20
100
AcDbEntity
  8
11000_Left
  6
Continuous
 62
     7
370
    50
100
AcDbLine
 39
0.7
 10
300.6925058822992
 20
720.1677173629525
 30
0.0
 11
300.691505882299
 21
720.1877173629525
 31
0.0
1001
AUSTER_FOLIE
1002
{
1000
ZENTRA_2144_BO_M_LB_DREH
1002
}
1001
AUSTER_ANSICHT
1002
{
1000
SL
1002
}
  0
LINE
  5
C001
330
20
100
AcDbEntity
  8
11000_Left
  6
Continuous
 62
     7
370
    50
100
AcDbLine
 39
0.7
 10
300.691505882299
 20
720.1877173629525
 30
0.0
 11
300.675505882299
 21
720.2517173629527
 31
0.0
1001
AUSTER_FOLIE
1002
{
1000
ZENTRA_2144_BO_M_LB_DREH
1002
}
1001
AUSTER_ANSICHT
1002
{
1000
SL
1002
}
  0
LINE
  5
C002
330
20
100
AcDbEntity
  8
11000_Left
  6
Continuous
 62
     7
370
    50
100
AcDbLine
 39
0.7
 10
300.675505882299
 20
720.2517173629527
 30
0.0
 11
300.6045058822989
 21
720.357717362953
 31
0.0
1001
AUSTER_FOLIE
1002
{
1000
ZENTRA_2144_BO_M_LB_DREH
1002
}
1001
AUSTER_ANSICHT
1002
{
1000
SL
1002
}
  0
LINE
  5
C003
330
20
100
AcDbEntity
  8
11000_Left
  6
Continuous
 62
     7
370
    50
100
AcDbLine
 39
0.7
 10
300.6045058822989
 20
720.357717362953
 30
0.0
 11
300.526505882299
 21
720.424717362953
 31
0.0
1001
AUSTER_FOLIE
1002
{
1000
ZENTRA_2144_BO_M_LB_DREH
1002
}
1001
AUSTER_ANSICHT
1002
{
1000
SL
1002
}
  0
LINE
  5
C004
330
20
100
AcDbEntity
  8
11000_Left
  6
Continuous
 62
     7
370
    50
100
AcDbLine
 39
0.7
 10
300.526505882299
 20
720.424717362953
 30
0.0
 11
300.399505882299
 21
720.4977173629527
 31
0.0
1001
AUSTER_FOLIE
1002
{
1000
ZENTRA_2144_BO_M_LB_DREH
1002
}
1001
AUSTER_ANSICHT
1002
{
1000
SL
1002
}
  0
LINE
  5
C005
330
20
100
AcDbEntity
  8
11000_Left
  6
Continuous
 62
     7
370
    50
100
AcDbLine
 39
0.7
 10
300.399505882299
 20
720.4977173629527
 30
0.0
 11
300.322505882299
 21
720.5307173629527
 31
0.0
1001
AUSTER_FOLIE
1002
{
1000
ZENTRA_2144_BO_M_LB_DREH
1002
}
1001
AUSTER_ANSICHT
1002
{
1000
SL
1002
}
  0
LINE
  5
C006
330
20
100
AcDbEntity
  8
11000_Left
  6
Continuous
 62
     7
370
    50
100
AcDbLine
 39
0.7
 10
300.322505882299
 20
720.5307173629527
 30
0.0
 11
300.225505882299
 21
720.5637173629526
 31
0.0
1001
AUSTER_FOLIE
1002
{
1000
ZENTRA_2144_BO_M_LB_DREH
1002
}
1001
AUSTER_ANSICHT
1002
{
1000
SL
1002
}
  0
LINE
  5
C007
330
20
100
AcDbEntity
  8
11000_Left
  6
Continuous
 62
     7
370
    50
100
AcDbLine
 39
0.7
 10
300.225505882299
 20
720.5637173629526
 30
0.0
 11
300.113505882299
 21
720.5927173629524
 31
0.0
1001
AUSTER_FOLIE
1002
{
1000
ZENTRA_2144_BO_M_LB_DREH
1002
}
1001
AUSTER_ANSICHT
1002
{
1000
SL
1002
}
  0
LINE
  5
C008
330
20
100
AcDbEntity
  8
11000_Left
  6
Continuous
 62
     7
370
    50
100
AcDbLine
 39
0.7
 10
300.113505882299
 20
720.5927173629524
 30
0.0
 11
299.969505882299
 21
720.6177173629527
 31
0.0
1001
AUSTER_FOLIE
1002
{
1000
ZENTRA_2144_BO_M_LB_DREH
1002
}
1001
AUSTER_ANSICHT
1002
{
1000
SL
1002
}
  0
LINE
  5
C009
330
20
100
AcDbEntity
  8
11000_Left
  6
Continuous
 62
     7
370
    50
100
AcDbLine
 39
0.7
 10
299.969505882299
 20
720.6177173629527
 30
0.0
 11
299.8895058822989
 21
720.6277173629525
 31
0.0
1001
AUSTER_FOLIE
1002
{
1000
ZENTRA_2144_BO_M_LB_DREH
1002
}
1001
AUSTER_ANSICHT
1002
{
1000
SL
1002
}
  0
LINE
  5
C00A
330
20
100
AcDbEntity
  8
11000_Left
  6
Continuous
 62
     7
370
    50
100
AcDbLine
 39
0.7
 10
299.8895058822989
 20
720.6277173629525
 30
0.0
 11
299.791505882299
 21
720.6347173629527
 31
0.0
1001
AUSTER_FOLIE
1002
{
1000
ZENTRA_2144_BO_M_LB_DREH
1002
}
1001
AUSTER_ANSICHT
1002
{
1000
SL
1002
}
  0
LINE
  5
C00B
330
20
100
AcDbEntity
  8
11000_Left
  6
Continuous
 62
     7
370
    50
100
AcDbLine
 39
0.7
 10
299.791505882299
 20
720.6347173629527
 30
0.0
 11
299.744505882299
 21
720.6357173629528
 31
0.0
1001
AUSTER_FOLIE
1002
{
1000
ZENTRA_2144_BO_M_LB_DREH
1002
}
1001
AUSTER_ANSICHT
1002
{
1000
SL
1002
}
  0
DIMENSION
  5
C00C
330
20
100
AcDbEntity
  8
11100_LEFT_DIM
  6
Continuous
 62
     7
370
    13
100
AcDbDimension
  2
*D3
 10
309.392505882299
 20
748.1365879506491
 30
0.0
 11
291.292505882299
 21
748.1365879506491
 31
0.0
 70
    32
 71
     5
 42
36.19999999999993
  3
H035
100
AcDbAlignedDimension
 13
273.192505882299
 23
742.5867173629527
 33
0.0
 14
309.392505882299
 24
697.1667173629525
 34
0.0
100
AcDbRotatedDimension
1001
ACAD
1000
DSTYLE
1002
{
1070
    40
1040
1.0
1070
    77
1070
     0
1070
   147
1040
1.5
1070
   272
1070
     0
1070
   279
1070
     1
1070
   288
1070
     1
1002
}
  0
LINE
  5
C00D
330
20
100
AcDbEntity
  8
11000_Left
  6
Continuous
 62
     7
370
     9
100
AcDbLine
 39
0.7
 10
271.1838749722988
 20
643.6694773092974
 30
0.0
 11
273.1838749722988
 21
645.6694773092975
 31
0.0
1001
AUSTER_FOLIE
1002
{
1000
VIERLOCH_2113_BO_M_LB_DREH
1002
}
1001
AUSTER_ANSICHT
1002
{
1000
SL
1002
}
  0
LINE
  5
C00E
330
20
100
AcDbEntity
  8
11000_Left
  6
Continuous
 62
     7
370
     9
100
AcDbLine
 39
0.7
 10
273.183874972299
 20
638.1637900914777
 30
0.0
 11
273.183874972299
 21
743.0032400741038
 31
0.0
1001
AUSTER_FOLIE
1002
{
1000
VIERLOCH_2113_BO_M_LB_DREH
1002
}
1001
AUSTER_ANSICHT
1002
{
1000
SL
1002
}
  0
LINE
  5
C00F
330
20
100
AcDbEntity
  8
11000_Left
  6
Continuous
 62
     7
370
     9
100
AcDbLine
 39
0.7
 10
271.183874972299
 20
638.3170634057409
 30
0.0
 11
271.183874972299
 21
742.8499655418585
 31
0.0
1001
AUSTER_FOLIE
1002
{
1000
VIERLOCH_2113_BO_M_LB_DREH
1002
}
1001
AUSTER_ANSICHT
1002
{
1000
SL
1002
}
  0
LINE
  5
C010
330
20
100
AcDbEntity
  8
11000_Left
  6
Continuous
 62
     7
370
     9
100
AcDbLine
 39
0.7
 10
271.183874972299
 20
639.1793473092977
 30
0.0
 11
273.183874972299
 21
641.1793473092976
 31
0.0
1001
AUSTER_FOLIE
1002
{
1000
VIERLOCH_2113_BO_M_LB_DREH
1002
}
1001
AUSTER_ANSICHT
1002
{
1000
SL
1002
}
  0
LINE
  5
C011
330
20
100
AcDbEntity
  8
11000_Left
  6
Continuous
 62
     7
370
     9
100
AcDbLine
 39
0.7
 10
273.183874972299
 20
638.1637900914777
 30
0.0
 11
271.183874972299
 21
638.3170634057409
 31
0.0
1001
AUSTER_FOLIE
1002
{
1000
VIERLOCH_2113_BO_M_LB_DREH
1002
}
1001
AUSTER_ANSICHT
1002
{
1000
SL
1002
}
  0
LINE
  5
C012
330
20
100
AcDbEntity
  8
11000_Left
  6
Continuous
 62
     7
370
    50
100
AcDbLine
 39
0.7
 10
218.3924159722989
 20
707.7634277468907
 30
0.0
 11
218.3924159722989
 21
697.4063357468907
 31
0.0
1001
AUSTER_FOLIE
1002
{
1000
VIERLOCH_2113_BO_M_LB_DREH
1002
}
1001
AUSTER_ANSICHT
1002
{
1000
SL
1002
}
  0
LINE
  5
C013
330
20
100
AcDbEntity
  8
11000_Left
  6
Continuous
 62
     7
370
    50
100
AcDbLine
 39
0.7
 10
245.380417972299
 20
711.2157917468907
 30
0.0
 11
245.380417972299
 21
698.2694267468908
 31
0.0
1001
AUSTER_FOLIE
1002
{
1000
VIERLOCH_2113_BO_M_LB_DREH
1002
}
1001
AUSTER_ANSICHT
1002
{
1000
SL
1002
}
  0
LINE
  5
C014
330
20
100
AcDbEntity
  8
11000_Left
  6
Continuous
 62
     7
370
    50
100
AcDbLine
 39
0.7
 10
241.9280539722989
 20
671.082060246891
 30
0.0
 11
241.9280539722989
 21
682.7337887468911
 31
0.0
1001
AUSTER_FOLIE
1002
{
1000
VIERLOCH_2113_BO_M_LB_DREH
1002
}
1001
AUSTER_ANSICHT
1002
{
1000
SL
1002
}
  0
LINE
  5
C015
330
20
100
AcDbEntity
  8
11000_Left
  6
Continuous
 62
     7
370
    50
100
AcDbLine
 39
0.7
 10
237.9280539722989
 20
671.082060246891
 30
0.0
 11
237.9280539722989
 21
673.239787746891
 31
0.0
1001
AUSTER_FOLIE
1002
{
1000
VIERLOCH_2113_BO_M_LB_DREH
1002
}
1001
AUSTER_ANSICHT
1002
{
1000
SL
1002
}
  0
LINE
  5
C016
330
20
100
AcDbEntity
  8
11000_Left
  6
Continuous
 62
     7
370
    20
100
AcDbLine
 39
0.7
 10
259.1898739722989
 20
669.7874237468909
 30
0.0
 11
259.1898739722989
 21
711.2157917468907
 31
0.0
1001
AUSTER_FOLIE
1002
{
1000
VIERLOCH_2113_BO_M_LB_DREH
1002
}
1001
AUSTER_ANSICHT
1002
{
1000
SL
1002
}
  0
LINE
  5
C017
330
20
100
AcDbEntity
  8
11000_Left
  6
Continuous
 62
     7
370
    50
100
AcDbLine
 39
0.7
 10
237.9280539722989
 20
671.082060246891
 30
0.0
 11
241.9280539722989
 21
671.082060246891
 31
0.0
1001
AUSTER_FOLIE
1002
{
1000
VIERLOCH_2113_BO_M_LB_DREH
1002
}
1001
AUSTER_ANSICHT
1002
{
1000
SL
1002
}
  0
LINE
  5
C018
330
20
100
AcDbEntity
  8
11000_Left
  6
Continuous
 62
     7
370
    50
100
AcDbLine
 39
0.7
 10
218.3924159722989
 20
673.239787746891
 30
0.0
 11
237.9280539722989
 21
673.239787746891
 31
0.0
1001
AUSTER_FOLIE
1002
{
1000
VIERLOCH_2113_BO_M_LB_DREH
1002
}
1001
AUSTER_ANSICHT
1002
{
1000
SL
1002
}
  0
LINE
  5
C019
330
20
100
AcDbEntity
  8
11000_Left
  6
Continuous
 62
     7
370
    50
100
AcDbLine
 39
0.7
 10
245.380417972299
 20
669.7874237468909
 30
0.0
 11
259.1898739722989
 21
669.7874237468909
 31
0.0
1001
AUSTER_FOLIE
1002
{
1000
VIERLOCH_2113_BO_M_LB_DREH
1002
}
1001
AUSTER_ANSICHT
1002
{
1000
SL
1002
}
  0
LINE
  5
C01A
330
20
100
AcDbEntity
  8
11000_Left
  6
Continuous
 62
     7
370
     9
100
AcDbLine
 39
0.7
 10
271.183874972299
 20
657.1398614909011
 30
0.0
 11
273.1838749722988
 21
659.1398614909012
 31
0.0
1001
AUSTER_FOLIE
1002
{
1000
VIERLOCH_2113_BO_M_LB_DREH
1002
}
1001
AUSTER_ANSICHT
1002
{
1000
SL
1002
}
  0
LINE
  5
C01B
330
20
100
AcDbEntity
  8
11000_Left
  6
Continuous
 62
     7
370
     9
100
AcDbLine
 39
0.7
 10
271.1838749722988
 20
652.6497314909014
 30
0.0
 11
273.1838749722988
 21
654.6497314909014
 31
0.0
1001
AUSTER_FOLIE
1002
{
1000
VIERLOCH_2113_BO_M_LB_DREH
1002
}
1001
AUSTER_ANSICHT
1002
{
1000
SL
1002
}
  0
LINE
  5
C01C
330
20
100
AcDbEntity
  8
11000_Left
  6
Continuous
 62
     7
370
    50
100
AcDbLine
 39
0.7
 10
259.1894676115382
 20
660.5679090103884
 30
0.0
 11
271.183874972299
 21
660.5679090103887
 31
0.0
1001
AUSTER_FOLIE
1002
{
1000
VIERLOCH_2113_BO_M_LB_DREH
1002
}
1001
AUSTER_ANSICHT
1002
{
1000
SL
1002
}
  0
LINE
  5
C01D
330
20
100
AcDbEntity
  8
11000_Left
  6
Continuous
 62
     7
370
    50
100
AcDbLine
 39
0.7
 10
259.1898739722989
 20
669.7874237468909
 30
0.0
 11
259.1894676115382
 21
660.5679090103884
 31
0.0
1001
AUSTER_FOLIE
1002
{
1000
VIERLOCH_2113_BO_M_LB_DREH
1002
}
1001
AUSTER_ANSICHT
1002
{
1000
SL
1002
}
  0
LINE
  5
C01E
330
20
100
AcDbEntity
  8
11000_Left
  6
Continuous
 62
     7
370
     9
100
AcDbLine
 39
0.7
 10
271.183874972299
 20
666.1201156725049
 30
0.0
 11
273.183874972299
 21
668.1201156725052
 31
0.0
1001
AUSTER_FOLIE
1002
{
1000
VIERLOCH_2113_BO_M_LB_DREH
1002
}
1001
AUSTER_ANSICHT
1002
{
1000
SL
1002
}
  0
LINE
  5
C01F
330
20
100
AcDbEntity
  8
11000_Left
  6
Continuous
 62
     7
370
     9
100
AcDbLine
 39
0.7
 10
271.1838749722988
 20
670.6102456725051
 30
0.0
 11
273.183874972299
 21
672.610245672505
 31
0.0
1001
AUSTER_FOLIE
1002
{
1000
VIERLOCH_2113_BO_M_LB_DREH
1002
}
1001
AUSTER_ANSICHT
1002
{
1000
SL
1002
}
  0
LINE
  5
C020
330
20
100
AcDbEntity
  8
11000_Left
  6
Continuous
 62
     7
370
    50
100
AcDbLine
 39
0.7
 10
241.9280539722989
 20
682.733788746891
 30
0.0
 11
245.380417972299
 21
682.733788746891
 31
0.0
1001
AUSTER_FOLIE
1002
{
1000
VIERLOCH_2113_BO_M_LB_DREH
1002
}
1001
AUSTER_ANSICHT
1002
{
1000
SL
1002
}
  0
LINE
  5
C021
330
20
100
AcDbEntity
  8
11000_Left
  6
Continuous
 62
     7
370
    50
100
AcDbLine
 39
0.7
 10
241.9280539722989
 20
698.2694267468908
 30
0.0
 11
245.380417972299
 21
698.2694267468908
 31
0.0
1001
AUSTER_FOLIE
1002
{
1000
VIERLOCH_2113_BO_M_LB_DREH
1002
}
1001
AUSTER_ANSICHT
1002
{
1000
SL
1002
}
  0
LINE
  5
C022
330
20
100
AcDbEntity
  8
11000_Left
  6
Continuous
 62
     7
370
     9
100
AcDbLine
 39
0.7
 10
271.1838749722988
 20
679.5904998541086
 30
0.0
 11
273.1838749722988
 21
681.5904998541086
 31
0.0
1001
AUSTER_FOLIE
1002
{
1000
VIERLOCH_2113_BO_M_LB_DREH
1002
}
1001
AUSTER_ANSICHT
1002
{
1000
SL
1002
}
  0
LINE
  5
C023
330
20
100
AcDbEntity
  8
11000_Left
  6
Continuous
 62
     7
370
     9
100
AcDbLine
 39
0.7
 10
271.183874972299
 20
684.0806298541089
 30
0.0
 11
273.183874972299
 21
686.0806298541087
 31
0.0
1001
AUSTER_FOLIE
1002
{
1000
VIERLOCH_2113_BO_M_LB_DREH
1002
}
1001
AUSTER_ANSICHT
1002
{
1000
SL
1002
}
  0
LINE
  5
C024
330
20
100
AcDbEntity
  8
11000_Left
  6
Continuous
 62
     7
370
     9
100
AcDbLine
 39
0.7
 10
271.1838749722988
 20
697.5510140357124
 30
0.0
 11
273.1838749722988
 21
699.5510140357126
 31
0.0
1001
AUSTER_FOLIE
1002
{
1000
VIERLOCH_2113_BO_M_LB_DREH
1002
}
1001
AUSTER_ANSICHT
1002
{
1000
SL
1002
}
  0
LINE
  5
C025
330
20
100
AcDbEntity
  8
11000_Left
  6
Continuous
 62
     7
370
     9
100
AcDbLine
 39
0.7
 10
271.183874972299
 20
693.0608840357124
 30
0.0
 11
273.1838749722988
 21
695.0608840357126
 31
0.0
1001
AUSTER_FOLIE
1002
{
1000
VIERLOCH_2113_BO_M_LB_DREH
1002
}
1001
AUSTER_ANSICHT
1002
{
1000
SL
1002
}
  0
LINE
  5
C026
330
20
100
AcDbEntity
  8
11000_Left
  6
Continuous
 62
     7
370
    50
100
AcDbLine
 39
0.7
 10
241.9280539722989
 20
709.9211552468911
 30
0.0
 11
237.9280539722989
 21
709.9211552468911
 31
0.0
1001
AUSTER_FOLIE
1002
{
1000
VIERLOCH_2113_BO_M_LB_DREH
1002
}
1001
AUSTER_ANSICHT
1002
{
1000
SL
1002
}
  0
LINE
  5
C027
330
20
100
AcDbEntity
  8
11000_Left
  6
Continuous
 62
     7
370
    50
100
AcDbLine
 39
0.7
 10
237.9280539722989
 20
707.7634277468907
 30
0.0
 11
218.3924159722989
 21
707.7634277468907
 31
0.0
1001
AUSTER_FOLIE
1002
{
1000
VIERLOCH_2113_BO_M_LB_DREH
1002
}
1001
AUSTER_ANSICHT
1002
{
1000
SL
1002
}
  0
LINE
  5
C028
330
20
100
AcDbEntity
  8
11000_Left
  6
Continuous
 62
     7
370
    50
100
AcDbLine
 39
0.7
 10
259.1898739722989
 20
711.2157917468907
 30
0.0
 11
245.380417972299
 21
711.2157917468907
 31
0.0
1001
AUSTER_FOLIE
1002
{
1000
VIERLOCH_2113_BO_M_LB_DREH
1002
}
1001
AUSTER_ANSICHT
1002
{
1000
SL
1002
}
  0
LINE
  5
C029
330
20
100
AcDbEntity
  8
11000_Left
  6
Continuous
 62
     7
370
    50
100
AcDbLine
 39
0.7
 10
271.183874972299
 20
720.567909230691
 30
0.0
 11
259.1902936676229
 21
720.567909230691
 31
0.0
1001
AUSTER_FOLIE
1002
{
1000
VIERLOCH_2113_BO_M_LB_DREH
1002
}
1001
AUSTER_ANSICHT
1002
{
1000
SL
1002
}
  0
LINE
  5
C02A
330
20
100
AcDbEntity
  8
11000_Left
  6
Continuous
 62
     7
370
    50
100
AcDbLine
 39
0.7
 10
259.1902936676229
 20
720.567909230691
 30
0.0
 11
259.1898739722989
 21
711.2157917468907
 31
0.0
1001
AUSTER_FOLIE
1002
{
1000
VIERLOCH_2113_BO_M_LB_DREH
1002
}
1001
AUSTER_ANSICHT
1002
{
1000
SL
1002
}
  0
LINE
  5
C02B
330
20
100
AcDbEntity
  8
11000_Left
  6
Continuous
 62
     7
370
     9
100
AcDbLine
 39
0.7
 10
271.183874972299
 20
711.0213982173162
 30
0.0
 11
273.183874972299
 21
713.021398217316
 31
0.0
1001
AUSTER_FOLIE
1002
{
1000
VIERLOCH_2113_BO_M_LB_DREH
1002
}
1001
AUSTER_ANSICHT
1002
{
1000
SL
1002
}
  0
LINE
  5
C02C
330
20
100
AcDbEntity
  8
11000_Left
  6
Continuous
 62
     7
370
     9
100
AcDbLine
 39
0.7
 10
271.183874972299
 20
706.5312682173161
 30
0.0
 11
273.183874972299
 21
708.5312682173164
 31
0.0
1001
AUSTER_FOLIE
1002
{
1000
VIERLOCH_2113_BO_M_LB_DREH
1002
}
1001
AUSTER_ANSICHT
1002
{
1000
SL
1002
}
  0
LINE
  5
C02D
330
20
100
AcDbEntity
  8
11000_Left
  6
Continuous
 62
     7
370
     9
100
AcDbLine
 39
0.7
 10
271.183874972299
 20
724.49178239892
 30
0.0
 11
273.1838749722988
 21
726.49178239892
 31
0.0
1001
AUSTER_FOLIE
1002
{
1000
VIERLOCH_2113_BO_M_LB_DREH
1002
}
1001
AUSTER_ANSICHT
1002
{
1000
SL
1002
}
  0
LINE
  5
C02E
330
20
100
AcDbEntity
  8
11000_Left
  6
Continuous
 62
     7
370
     9
100
AcDbLine
 39
0.7
 10
271.1838749722988
 20
720.0016523989201
 30
0.0
 11
273.1838749722988
 21
722.0016523989196
 31
0.0
1001
AUSTER_FOLIE
1002
{
1000
VIERLOCH_2113_BO_M_LB_DREH
1002
}
1001
AUSTER_ANSICHT
1002
{
1000
SL
1002
}
  0
LINE
  5
C02F
330
20
100
AcDbEntity
  8
11000_Left
  6
Continuous
 62
     7
370
     9
100
AcDbLine
 39
0.7
 10
271.1838749722988
 20
737.9621665805236
 30
0.0
 11
273.1838749722988
 21
739.9621665805235
 31
0.0
1001
AUSTER_FOLIE
1002
{
1000
VIERLOCH_2113_BO_M_LB_DREH
1002
}
1001
AUSTER_ANSICHT
1002
{
1000
SL
1002
}
  0
LINE
  5
C030
330
20
100
AcDbEntity
  8
11000_Left
  6
Continuous
 62
     7
370
     9
100
AcDbLine
 39
0.7
 10
271.183874972299
 20
742.8499655418585
 30
0.0
 11
273.183874972299
 21
743.0032400741038
 31
0.0
1001
AUSTER_FOLIE
1002
{
1000
VIERLOCH_2113_BO_M_LB_DREH
1002
}
1001
AUSTER_ANSICHT
1002
{
1000
SL
1002
}
  0
LINE
  5
C031
330
20
100
AcDbEntity
  8
11000_Left
  6
Continuous
 62
     7
370
     9
100
AcDbLine
 39
0.7
 10
271.183874972299
 20
733.4720365805236
 30
0.0
 11
273.183874972299
 21
735.4720365805236
 31
0.0
1001
AUSTER_FOLIE
1002
{
1000
VIERLOCH_2113_BO_M_LB_DREH
1002
}
1001
AUSTER_ANSICHT
1002
{
1000
SL
1002
}
  0
LINE
  5
C032
330
20
100
AcDbEntity
  8
11000_Left
  6
ACAD_ISO02W100
 62
     7
 48
0.03
370
     9
100
AcDbLine
 39
0.7
 10
192.3520499722989
 20
687.583515082791
 30
0.0
 11
220.352049972299
 21
687.5835150827913
 31
0.0
1001
AUSTER_FOLIE
1002
{
1000
VIERLOCH_2113_BO_M_LB_DREH
1002
}
1001
AUSTER_ANSICHT
1002
{
1000
SL
1002
}
  0
LINE
  5
C033
330
20
100
AcDbEntity
  8
11000_Left
  6
Continuous
 62
     7
370
    50
100
AcDbLine
 39
0.7
 10
146.0096859722988
 20
720.5935150827913
 30
0.0
 11
132.0096859722988
 21
734.593515082791
 31
0.0
1001
AUSTER_FOLIE
1002
{
1000
VIERLOCH_2113_BO_M_LB_DREH
1002
}
1001
AUSTER_ANSICHT
1002
{
1000
SL
1002
}
  0
LINE
  5
C034
330
20
100
AcDbEntity
  8
11000_Left
  6
Continuous
 62
     7
370
    20
100
AcDbLine
 39
0.7
 10
112.0096859722988
 20
714.583515082791
 30
0.0
 11
141.9996859722988
 21
714.583515082791
 31
0.0
1001
AUSTER_FOLIE
1002
{
1000
VIERLOCH_2113_BO_M_LB_DREH
1002
}
1001
AUSTER_ANSICHT
1002
{
1000
SL
1002
}
  0
LINE
  5
C035
330
20
100
AcDbEntity
  8
11000_Left
  6
Continuous
 62
     7
370
    50
100
AcDbLine
 39
0.7
 10
141.9996859722988
 20
666.5835150827908
 30
0.0
 11
129.4996859722988
 21
666.5835150827908
 31
0.0
1001
AUSTER_FOLIE
1002
{
1000
VIERLOCH_2113_BO_M_LB_DREH
1002
}
1001
AUSTER_ANSICHT
1002
{
1000
SL
1002
}
  0
LINE
  5
C036
330
20
100
AcDbEntity
  8
11000_Left
  6
Continuous
 62
     7
370
    50
100
AcDbLine
 39
0.7
 10
104.9996859722989
 20
673.083515082791
 30
0.0
 11
104.9996859722989
 21
708.0835150827908
 31
0.0
1001
AUSTER_FOLIE
1002
{
1000
VIERLOCH_2113_BO_M_LB_DREH
1002
}
1001
AUSTER_ANSICHT
1002
{
1000
SL
1002
}
  0
LINE
  5
C037
330
20
100
AcDbEntity
  8
11000_Left
  6
Continuous
 62
     7
370
    50
100
AcDbLine
 39
0.7
 10
109.9996859722989
 20
665.5835150827908
 30
0.0
 11
103.9996859722989
 21
665.5835150827908
 31
0.0
1001
AUSTER_FOLIE
1002
{
1000
VIERLOCH_2113_BO_M_LB_DREH
1002
}
1001
AUSTER_ANSICHT
1002
{
1000
SL
1002
}
  0
LINE
  5
C038
330
20
100
AcDbEntity
  8
11000_Left
  6
Continuous
 62
     7
370
    50
100
AcDbLine
 39
0.7
 10
99.99968597229887
 20
673.083515082791
 30
0.0
 11
104.9996859722989
 21
673.083515082791
 31
0.0
1001
AUSTER_FOLIE
1002
{
1000
VIERLOCH_2113_BO_M_LB_DREH
1002
}
1001
AUSTER_ANSICHT
1002
{
1000
SL
1002
}
  0
LINE
  5
C039
330
20
100
AcDbEntity
  8
11000_Left
  6
Continuous
 62
     7
370
    50
100
AcDbLine
 39
0.7
 10
99.99968597229887
 20
656.583515082791
 30
0.0
 11
103.9996859722989
 21
656.583515082791
 31
0.0
1001
AUSTER_FOLIE
1002
{
1000
VIERLOCH_2113_BO_M_LB_DREH
1002
}
1001
AUSTER_ANSICHT
1002
{
1000
SL
1002
}
  0
LINE
  5
C03A
330
20
100
AcDbEntity
  8
11000_Left
  6
Continuous
 62
     7
370
    50
100
AcDbLine
 39
0.7
 10
99.99968597229887
 20
659.1781750827911
 30
0.0
 11
99.99968597229887
 21
656.583515082791
 31
0.0
1001
AUSTER_FOLIE
1002
{
1000
VIERLOCH_2113_BO_M_LB_DREH
1002
}
1001
AUSTER_ANSICHT
1002
{
1000
SL
1002
}
  0
LINE
  5
C03B
330
20
100
AcDbEntity
  8
11000_Left
  6
Continuous
 62
     7
370
    50
100
AcDbLine
 39
0.7
 10
99.99968597229887
 20
665.5835150827908
 30
0.0
 11
99.99968597229887
 21
673.083515082791
 31
0.0
1001
AUSTER_FOLIE
1002
{
1000
VIERLOCH_2113_BO_M_LB_DREH
1002
}
1001
AUSTER_ANSICHT
1002
{
1000
SL
1002
}
  0
LINE
  5
C03C
330
20
100
AcDbEntity
  8
11000_Left
  6
Continuous
 62
     7
370
    50
100
AcDbLine
 39
0.7
 10
99.99968597229887
 20
665.5835150827908
 30
0.0
 11
99.99968597229887
 21
659.1781750827911
 31
0.0
1001
AUSTER_FOLIE
1002
{
1000
VIERLOCH_2113_BO_M_LB_DREH
1002
}
1001
AUSTER_ANSICHT
1002
{
1000
SL
1002
}
  0
LINE
  5
C03D
330
20
100
AcDbEntity
  8
11000_Left
  6
Continuous
 62
     7
370
    50
100
AcDbLine
 39
0.7
 10
129.4996859722988
 20
663.0835150827912
 30
0.0
 11
115.9996859722988
 21
663.0835150827912
 31
0.0
1001
AUSTER_FOLIE
1002
{
1000
VIERLOCH_2113_BO_M_LB_DREH
1002
}
1001
AUSTER_ANSICHT
1002
{
1000
SL
1002
}
  0
LINE
  5
C03E
330
20
100
AcDbEntity
  8
11000_Left
  6
Continuous
 62
     7
370
    50
100
AcDbLine
 39
0.7
 10
103.9996859722989
 20
656.583515082791
 30
0.0
 11
103.9996859722989
 21
659.1781750827911
 31
0.0
1001
AUSTER_FOLIE
1002
{
1000
VIERLOCH_2113_BO_M_LB_DREH
1002
}
1001
AUSTER_ANSICHT
1002
{
1000
SL
1002
}
  0
LINE
  5
C03F
330
20
100
AcDbEntity
  8
11000_Left
  6
Continuous
 62
     7
370
    50
100
AcDbLine
 39
0.7
 10
115.9996859722988
 20
666.5835150827908
 30
0.0
 11
109.9996859722989
 21
666.5835150827908
 31
0.0
1001
AUSTER_FOLIE
1002
{
1000
VIERLOCH_2113_BO_M_LB_DREH
1002
}
1001
AUSTER_ANSICHT
1002
{
1000
SL
1002
}
  0
LINE
  5
C040
330
20
100
AcDbEntity
  8
11000_Left
  6
Continuous
 62
     7
370
    50
100
AcDbLine
 39
0.7
 10
109.9996859722989
 20
666.5835150827908
 30
0.0
 11
109.9996859722989
 21
665.5835150827908
 31
0.0
1001
AUSTER_FOLIE
1002
{
1000
VIERLOCH_2113_BO_M_LB_DREH
1002
}
1001
AUSTER_ANSICHT
1002
{
1000
SL
1002
}
  0
LINE
  5
C041
330
20
100
AcDbEntity
  8
11000_Left
  6
Continuous
 62
     7
370
    50
100
AcDbLine
 39
0.7
 10
103.9996859722989
 20
659.1781750827911
 30
0.0
 11
103.9996859722989
 21
665.5835150827908
 31
0.0
1001
AUSTER_FOLIE
1002
{
1000
VIERLOCH_2113_BO_M_LB_DREH
1002
}
1001
AUSTER_ANSICHT
1002
{
1000
SL
1002
}
  0
LINE
  5
C042
330
20
100
AcDbEntity
  8
11000_Left
  6
Continuous
 62
     7
370
    50
100
AcDbLine
 39
0.7
 10
115.9996859722988
 20
663.0835150827912
 30
0.0
 11
115.9996859722988
 21
666.5835150827908
 31
0.0
1001
AUSTER_FOLIE
1002
{
1000
VIERLOCH_2113_BO_M_LB_DREH
1002
}
1001
AUSTER_ANSICHT
1002
{
1000
SL
1002
}
  0
LINE
  5
C043
330
20
100
AcDbEntity
  8
11000_Left
  6
Continuous
 62
     7
370
    50
100
AcDbLine
 39
0.7
 10
129.4996859722988
 20
666.5835150827908
 30
0.0
 11
129.4996859722988
 21
663.0835150827912
 31
0.0
1001
AUSTER_FOLIE
1002
{
1000
VIERLOCH_2113_BO_M_LB_DREH
1002
}
1001
AUSTER_ANSICHT
1002
{
1000
SL
1002
}
  0
LINE
  5
C044
330
20
100
AcDbEntity
  8
11000_Left
  6
Continuous
 62
     7
370
    20
100
AcDbLine
 39
0.7
 10
99.99968597229887
 20
713.583515082791
 30
0.0
 11
103.9996859722989
 21
713.5835150827911
 31
0.0
1001
AUSTER_FOLIE
1002
{
1000
VIERLOCH_2113_BO_M_LB_DREH
1002
}
1001
AUSTER_ANSICHT
1002
{
1000
SL
1002
}
  0
LINE
  5
C045
330
20
100
AcDbEntity
  8
11000_Left
  6
Continuous
 62
     7
370
    50
100
AcDbLine
 39
0.7
 10
103.9996859722989
 20
724.5835150827908
 30
0.0
 11
99.99968597229887
 21
724.5835150827908
 31
0.0
1001
AUSTER_FOLIE
1002
{
1000
VIERLOCH_2113_BO_M_LB_DREH
1002
}
1001
AUSTER_ANSICHT
1002
{
1000
SL
1002
}
  0
LINE
  5
C046
330
20
100
AcDbEntity
  8
11000_Left
  6
Continuous
 62
     7
370
    50
100
AcDbLine
 39
0.7
 10
104.9996859722989
 20
708.0835150827908
 30
0.0
 11
99.99968597229887
 21
708.0835150827908
 31
0.0
1001
AUSTER_FOLIE
1002
{
1000
VIERLOCH_2113_BO_M_LB_DREH
1002
}
1001
AUSTER_ANSICHT
1002
{
1000
SL
1002
}
  0
LINE
  5
C047
330
20
100
AcDbEntity
  8
11000_Left
  6
Continuous
 62
     7
370
    50
100
AcDbLine
 39
0.7
 10
99.99968597229887
 20
721.9888550827912
 30
0.0
 11
99.99968597229887
 21
713.583515082791
 31
0.0
1001
AUSTER_FOLIE
1002
{
1000
VIERLOCH_2113_BO_M_LB_DREH
1002
}
1001
AUSTER_ANSICHT
1002
{
1000
SL
1002
}
  0
LINE
  5
C048
330
20
100
AcDbEntity
  8
11000_Left
  6
Continuous
 62
     7
370
    50
100
AcDbLine
 39
0.7
 10
99.99968597229887
 20
708.0835150827908
 30
0.0
 11
99.99968597229887
 21
713.583515082791
 31
0.0
1001
AUSTER_FOLIE
1002
{
1000
VIERLOCH_2113_BO_M_LB_DREH
1002
}
1001
AUSTER_ANSICHT
1002
{
1000
SL
1002
}
  0
LINE
  5
C049
330
20
100
AcDbEntity
  8
11000_Left
  6
Continuous
 62
     7
370
    50
100
AcDbLine
 39
0.7
 10
100.0002459722988
 20
722.8335150827908
 30
0.0
 11
99.99968597229887
 21
722.8335150827908
 31
0.0
1001
AUSTER_FOLIE
1002
{
1000
VIERLOCH_2113_BO_M_LB_DREH
1002
}
1001
AUSTER_ANSICHT
1002
{
1000
SL
1002
}
  0
LINE
  5
C04A
330
20
100
AcDbEntity
  8
11000_Left
  6
Continuous
 62
     7
370
    50
100
AcDbLine
 39
0.7
 10
99.99968597229887
 20
724.5835150827908
 30
0.0
 11
99.99968597229887
 21
721.9888550827912
 31
0.0
1001
AUSTER_FOLIE
1002
{
1000
VIERLOCH_2113_BO_M_LB_DREH
1002
}
1001
AUSTER_ANSICHT
1002
{
1000
SL
1002
}
  0
LINE
  5
C04B
330
20
100
AcDbEntity
  8
11000_Left
  6
Continuous
 62
     7
370
    50
100
AcDbLine
 39
0.7
 10
112.0096859722988
 20
734.593515082791
 30
0.0
 11
112.0096859722988
 21
714.5935150827909
 31
0.0
1001
AUSTER_FOLIE
1002
{
1000
VIERLOCH_2113_BO_M_LB_DREH
1002
}
1001
AUSTER_ANSICHT
1002
{
1000
SL
1002
}
  0
LINE
  5
C04C
330
20
100
AcDbEntity
  8
11000_Left
  6
Continuous
 62
     7
370
    20
100
AcDbLine
 39
0.7
 10
115.6424859722988
 20
718.0905750827911
 30
0.0
 11
129.1475059722988
 21
718.0905750827911
 31
0.0
1001
AUSTER_FOLIE
1002
{
1000
VIERLOCH_2113_BO_M_LB_DREH
1002
}
1001
AUSTER_ANSICHT
1002
{
1000
SL
1002
}
  0
LINE
  5
C04D
330
20
100
AcDbEntity
  8
11000_Left
  6
Continuous
 62
     7
370
    20
100
AcDbLine
 39
0.7
 10
115.6424859722988
 20
714.5935150827909
 30
0.0
 11
115.6424859722988
 21
718.0905750827911
 31
0.0
1001
AUSTER_FOLIE
1002
{
1000
VIERLOCH_2113_BO_M_LB_DREH
1002
}
1001
AUSTER_ANSICHT
1002
{
1000
SL
1002
}
  0
LINE
  5
C04E
330
20
100
AcDbEntity
  8
11000_Left
  6
Continuous
 62
     7
370
    50
100
AcDbLine
 39
0.7
 10
103.9996859722989
 20
713.5870750827908
 30
0.0
 11
103.9996859722989
 21
721.9888550827912
 31
0.0
1001
AUSTER_FOLIE
1002
{
1000
VIERLOCH_2113_BO_M_LB_DREH
1002
}
1001
AUSTER_ANSICHT
1002
{
1000
SL
1002
}
  0
LINE
  5
C04F
330
20
100
AcDbEntity
  8
11000_Left
  6
Continuous
 62
     7
370
    50
100
AcDbLine
 39
0.7
 10
109.9996859722989
 20
714.583515082791
 30
0.0
 11
112.0096859722988
 21
714.583515082791
 31
0.0
1001
AUSTER_FOLIE
1002
{
1000
VIERLOCH_2113_BO_M_LB_DREH
1002
}
1001
AUSTER_ANSICHT
1002
{
1000
SL
1002
}
  0
LINE
  5
C050
330
20
100
AcDbEntity
  8
11000_Left
  6
Continuous
 62
     7
370
    50
100
AcDbLine
 39
0.7
 10
109.9996859722989
 20
713.583515082791
 30
0.0
 11
109.9996859722989
 21
714.583515082791
 31
0.0
1001
AUSTER_FOLIE
1002
{
1000
VIERLOCH_2113_BO_M_LB_DREH
1002
}
1001
AUSTER_ANSICHT
1002
{
1000
SL
1002
}
  0
LINE
  5
C051
330
20
100
AcDbEntity
  8
11000_Left
  6
Continuous
 62
     7
370
    20
100
AcDbLine
 39
0.7
 10
115.9996859722988
 20
714.583515082791
 30
0.0
 11
115.9996859722988
 21
714.5935350827913
 31
0.0
1001
AUSTER_FOLIE
1002
{
1000
VIERLOCH_2113_BO_M_LB_DREH
1002
}
1001
AUSTER_ANSICHT
1002
{
1000
SL
1002
}
  0
LINE
  5
C052
330
20
100
AcDbEntity
  8
11000_Left
  6
Continuous
 62
     7
370
    50
100
AcDbLine
 39
0.7
 10
103.9996859722989
 20
721.9888550827912
 30
0.0
 11
103.9996859722989
 21
724.5835150827908
 31
0.0
1001
AUSTER_FOLIE
1002
{
1000
VIERLOCH_2113_BO_M_LB_DREH
1002
}
1001
AUSTER_ANSICHT
1002
{
1000
SL
1002
}
  0
LINE
  5
C053
330
20
100
AcDbEntity
  8
11000_Left
  6
Continuous
 62
     7
370
    20
100
AcDbLine
 39
0.7
 10
129.1475059722988
 20
718.0905750827911
 30
0.0
 11
129.1475565551907
 21
714.5884680957432
 31
0.0
1001
AUSTER_FOLIE
1002
{
1000
VIERLOCH_2113_BO_M_LB_DREH
1002
}
1001
AUSTER_ANSICHT
1002
{
1000
SL
1002
}
  0
LINE
  5
C054
330
20
100
AcDbEntity
  8
11000_Left
  6
Continuous
 62
     7
370
    50
100
AcDbLine
 39
0.7
 10
132.0096859722988
 20
734.593515082791
 30
0.0
 11
112.0096859722988
 21
734.593515082791
 31
0.0
1001
AUSTER_FOLIE
1002
{
1000
VIERLOCH_2113_BO_M_LB_DREH
1002
}
1001
AUSTER_ANSICHT
1002
{
1000
SL
1002
}
  0
LINE
  5
C055
330
20
100
AcDbEntity
  8
11000_Left
  6
Continuous
 62
     7
370
    50
100
AcDbLine
 39
0.7
 10
162.9996859722988
 20
706.3835150827912
 30
0.0
 11
162.9996859722988
 21
693.583515082791
 31
0.0
1001
AUSTER_FOLIE
1002
{
1000
VIERLOCH_2113_BO_M_LB_DREH
1002
}
1001
AUSTER_ANSICHT
1002
{
1000
SL
1002
}
  0
LINE
  5
C056
330
20
100
AcDbEntity
  8
11000_Left
  6
Continuous
 62
     7
370
    50
100
AcDbLine
 39
0.7
 10
163.0023459722987
 20
687.583515082791
 30
0.0
 11
192.3520499722989
 21
687.583515082791
 31
0.0
1001
AUSTER_FOLIE
1002
{
1000
VIERLOCH_2113_BO_M_LB_DREH
1002
}
1001
AUSTER_ANSICHT
1002
{
1000
SL
1002
}
  0
LINE
  5
C057
330
20
100
AcDbEntity
  8
11000_Left
  6
Continuous
 62
     7
370
    50
100
AcDbLine
 39
0.7
 10
163.0023459722987
 20
693.583515082791
 30
0.0
 11
192.3520499722988
 21
693.5835150827906
 31
0.0
1001
AUSTER_FOLIE
1002
{
1000
VIERLOCH_2113_BO_M_LB_DREH
1002
}
1001
AUSTER_ANSICHT
1002
{
1000
SL
1002
}
  0
LINE
  5
C058
330
20
100
AcDbEntity
  8
11000_Left
  6
Continuous
 62
     7
370
    50
100
AcDbLine
 39
0.7
 10
141.9996859722988
 20
674.7835150827909
 30
0.0
 11
141.9996859722988
 21
666.5835150827908
 31
0.0
1001
AUSTER_FOLIE
1002
{
1000
VIERLOCH_2113_BO_M_LB_DREH
1002
}
1001
AUSTER_ANSICHT
1002
{
1000
SL
1002
}
  0
LINE
  5
C059
330
20
100
AcDbEntity
  8
11000_Left
  6
Continuous
 62
     7
370
    50
100
AcDbLine
 39
0.7
 10
162.9996859722988
 20
674.7835150827909
 30
0.0
 11
141.9996859722988
 21
674.7835150827909
 31
0.0
1001
AUSTER_FOLIE
1002
{
1000
VIERLOCH_2113_BO_M_LB_DREH
1002
}
1001
AUSTER_ANSICHT
1002
{
1000
SL
1002
}
  0
LINE
  5
C05A
330
20
100
AcDbEntity
  8
11000_Left
  6
Continuous
 62
     7
370
    50
100
AcDbLine
 39
0.7
 10
192.3520499722988
 20
697.4063357468907
 30
0.0
 11
192.3520499722988
 21
693.583515082791
 31
0.0
1001
AUSTER_FOLIE
1002
{
1000
VIERLOCH_2113_BO_M_LB_DREH
1002
}
1001
AUSTER_ANSICHT
1002
{
1000
SL
1002
}
  0
LINE
  5
C05B
330
20
100
AcDbEntity
  8
11000_Left
  6
Continuous
 62
     7
370
    20
100
AcDbLine
 39
0.7
 10
141.9996859722988
 20
706.3835150827912
 30
0.0
 11
146.0096859722988
 21
706.3835150827912
 31
0.0
1001
AUSTER_FOLIE
1002
{
1000
VIERLOCH_2113_BO_M_LB_DREH
1002
}
1001
AUSTER_ANSICHT
1002
{
1000
SL
1002
}
  0
LINE
  5
C05C
330
20
100
AcDbEntity
  8
11000_Left
  6
Continuous
 62
     7
370
    50
100
AcDbLine
 39
0.7
 10
146.0096859722988
 20
706.3835150827912
 30
0.0
 11
146.0096859722988
 21
720.5935150827913
 31
0.0
1001
AUSTER_FOLIE
1002
{
1000
VIERLOCH_2113_BO_M_LB_DREH
1002
}
1001
AUSTER_ANSICHT
1002
{
1000
SL
1002
}
  0
LINE
  5
C05D
330
20
100
AcDbEntity
  8
11000_Left
  6
Continuous
 62
     7
370
    20
100
AcDbLine
 39
0.7
 10
142.0096859722988
 20
714.5935150827909
 30
0.0
 11
142.0096859722988
 21
714.593775082791
 31
0.0
1001
AUSTER_FOLIE
1002
{
1000
VIERLOCH_2113_BO_M_LB_DREH
1002
}
1001
AUSTER_ANSICHT
1002
{
1000
SL
1002
}
  0
LINE
  5
C05E
330
20
100
AcDbEntity
  8
11000_Left
  6
Continuous
 62
     7
370
    20
100
AcDbLine
 39
0.7
 10
141.9996859722988
 20
714.583515082791
 30
0.0
 11
141.9996859722988
 21
706.3835150827912
 31
0.0
1001
AUSTER_FOLIE
1002
{
1000
VIERLOCH_2113_BO_M_LB_DREH
1002
}
1001
AUSTER_ANSICHT
1002
{
1000
SL
1002
}
  0
LINE
  5
C05F
330
20
100
AcDbEntity
  8
11000_Left
  6
Continuous
 62
     7
370
    50
100
AcDbLine
 39
0.7
 10
218.3924159722989
 20
683.5968797468908
 30
0.0
 11
192.3520499722988
 21
683.5968797468908
 31
0.0
1001
AUSTER_FOLIE
1002
{
1000
VIERLOCH_2113_BO_M_LB_DREH
1002
}
1001
AUSTER_ANSICHT
1002
{
1000
SL
1002
}
  0
LINE
  5
C060
330
20
100
AcDbEntity
  8
11000_Left
  6
Continuous
 62
     7
370
    50
100
AcDbLine
 39
0.7
 10
218.3924159722989
 20
697.4063357468907
 30
0.0
 11
192.3520499722988
 21
697.4063357468907
 31
0.0
1001
AUSTER_FOLIE
1002
{
1000
VIERLOCH_2113_BO_M_LB_DREH
1002
}
1001
AUSTER_ANSICHT
1002
{
1000
SL
1002
}
  0
DIMENSION
  5
C0FC
330
20
100
AcDbEntity
  8
30100_Drilling_DIM
  6
Continuous
 62
     7
370
    13
100
AcDbDimension
  2
*D14
 10
118.9254768030573
 20
544.5397721902073
 30
0.0
 11
102.4612355627258
 21
551.9174748469485
 31
0.0
 70
    35
 71
     5
 42
4.500000000000198
  3
DSTYLE1
100
AcDbDiametricDimension
 15
114.8189224059306
 25
546.3799382108263
 35
0.0
 40
0.0
1001
ACAD
1000
DSTYLE
1002
{
1070
    41
1040
3.5
1070
    42
1040
1.0
1070
    43
1040
1.0
1070
    47
1040
0.005
1070
    48
1040
-0.005
1070
    77
1070
     0
1070
    78
1070
     0
1070
   140
1040
3.5
1070
   143
1040
25.4
1070
   171
1070
     0
1070
   172
1070
     1
1070
   271
1070
     1
1070
   272
1070
     1
1070
   277
1070
     6
1070
   279
1070
     0
1002
}
  0
DIMENSION
  5
C0FD
330
20
100
AcDbEntity
  8
30100_Drilling_DIM
  6
Continuous
 62
     7
370
    13
100
AcDbDimension
  2
*D15
 10
88.55679471333141
 20
567.3888690952725
 30
0.0
 11
109.0885756973148
 21
574.6911088706318
 31
0.0
 70
    35
 71
     5
 42
9.999999999999772
  3
DSTYLE1
100
AcDbDiametricDimension
 15
97.97864449565636
 25
570.7398013057622
 35
0.0
 40
0.0
1001
ACAD
1000
DSTYLE
1002
{
1070
    41
1040
3.5
1070
    42
1040
1.0
1070
    43
1040
1.0
1070
    47
1040
0.005
1070
    48
1040
-0.005
1070
    77
1070
     0
1070
    78
1070
     0
1070
   140
1040
3.5
1070
   143
1040
25.4
1070
   171
1070
     0
1070
   172
1070
     1
1070
   271
1070
     0
1070
   272
1070
     1
1070
   277
1070
     6
1070
   279
1070
     0
1002
}
  0
DIMENSION
  5
C0FE
330
20
100
AcDbEntity
  8
30100_Drilling_DIM
  6
Continuous
 62
     7
370
    13
100
AcDbDimension
  2
*D11
 10
59.48495922935735
 20
545.4598552005173
 30
0.0
 11
59.48495922935726
 21
569.4598552005173
 31
0.0
 70
    32
 71
     5
 42
47.99999999999989
  3
DSTYLE1
100
AcDbAlignedDimension
 13
66.62219960449403
 23
593.4598552005172
 33
0.0
 14
66.62219960449403
 24
545.4598552005173
 34
0.0
 50
90.0
100
AcDbRotatedDimension
1001
ACAD
1000
DSTYLE
1002
{
1070
    41
1040
3.5
1070
    42
1040
1.0
1070
    43
1040
1.0
1070
    47
1040
0.005
1070
    48
1040
-0.005
1070
    77
1070
     0
1070
    78
1070
     0
1070
   140
1040
3.5
1070
   143
1040
25.4
1070
   171
1070
     0
1070
   172
1070
     1
1070
   271
1070
     0
1070
   272
1070
     1
1070
   277
1070
     6
1070
   279
1070
     0
1002
}
  0
DIMENSION
  5
C0FF
330
20
100
AcDbEntity
  8
30100_Drilling_DIM
  6
Continuous
 62
     7
370
    13
100
AcDbDimension
  2
*D10
 10
116.872199604494
 20
601.6240012665754
 30
0.0
 11
92.87219960449403
 21
601.6240012665754
 31
0.0
 70
    32
 71
     5
 42
48.0
  3
DSTYLE1
100
AcDbAlignedDimension
 13
68.87219960449403
 23
595.7098552005172
 33
0.0
 14
116.872199604494
 24
595.7098552005172
 34
0.0
100
AcDbRotatedDimension
1001
ACAD
1000
DSTYLE
1002
{
1070
    41
1040
3.5
1070
    42
1040
1.0
1070
    43
1040
1.0
1070
    47
1040
0.005
1070
    48
1040
-0.005
1070
    77
1070
     0
1070
    78
1070
     0
1070
   140
1040
3.5
1070
   143
1040
25.4
1070
   171
1070
     0
1070
   172
1070
     1
1070
   271
1070
     0
1070
   272
1070
     1
1070
   277
1070
     6
1070
   279
1070
     0
1002
}
  0
DIMENSION
  5
C100
330
20
100
AcDbEntity
  8
30100_Drilling_DIM
  6
Continuous
 62
     7
370
    13
100
AcDbDimension
  2
*D13
 10
174.6339172169701
 20
608.1956056829282
 30
0.0
 11
163.6339172169701
 21
608.1956056829282
 31
0.0
 70
    32
 71
     5
 42
22.0
  3
DSTYLE1
100
AcDbAlignedDimension
 13
152.6339172169701
 23
601.3005429313798
 33
0.0
 14
174.6339172169701
 24
541.30054293138
 34
0.0
100
AcDbRotatedDimension
1001
ACAD
1000
DSTYLE
1002
{
1070
    41
1040
3.5
1070
    42
1040
1.0
1070
    43
1040
1.0
1070
    47
1040
0.005
1070
    48
1040
-0.005
1070
    77
1070
     0
1070
    78
1070
     0
1070
   140
1040
3.5
1070
   143
1040
25.4
1070
   171
1070
     0
1070
   172
1070
     1
1070
   271
1070
     0
1070
   272
1070
     1
1070
   277
1070
     6
1070
   279
1070
     0
1002
}
  0
DIMENSION
  5
C101
330
20
100
AcDbEntity
  8
30100_Drilling_DIM
  6
Continuous
 62
     7
370
    13
100
AcDbDimension
  2
*D12
 10
143.6392397672115
 20
539.05054293138
 30
0.0
 11
143.6392397672114
 21
569.0505429313798
 31
0.0
 70
    32
 71
     5
 42
59.99999999999977
  3
DSTYLE1
100
AcDbAlignedDimension
 13
150.3839172169701
 23
599.0505429313798
 33
0.0
 14
172.3839172169701
 24
539.05054293138
 34
0.0
 50
90.0
100
AcDbRotatedDimension
1001
ACAD
1000
DSTYLE
1002
{
1070
    41
1040
3.5
1070
    42
1040
1.0
1070
    43
1040
1.0
1070
    47
1040
0.005
1070
    48
1040
-0.005
1070
    77
1070
     0
1070
    78
1070
     0
1070
   140
1040
3.5
1070
   143
1040
25.4
1070
   171
1070
     0
1070
   172
1070
     1
1070
   271
1070
     0
1070
   272
1070
     1
1070
   277
1070
     6
1070
   279
1070
     0
1002
}
  0
TEXT
  5
C107
330
20
100
AcDbEntity
  8
30000_Drilling
 62
     7
370
    13
100
AcDbText
 39
0.25
 10
144.0237557623147
 20
614.6680559998388
 30
0.0
 40
3.0
  1
Boden
100
AcDbText
1001
AUSTER_FOLIE
1002
{
1000
VIERLOCH_2113_BO_M_LB_DREH
1002
}
1001
AUSTER_ANSICHT
1002
{
1000
Det01
1002
}
  0
TEXT
  5
C108
330
20
100
AcDbEntity
  8
30000_Drilling
 62
     7
370
    13
100
AcDbText
 39
0.25
 10
144.0237557623147
 20
620.4659076612456
 30
0.0
 40
3.0
  1
Bohrbild
100
AcDbText
1001
AUSTER_FOLIE
1002
{
1000
VIERLOCH_2113_BO_M_LB_DREH
1002
}
1001
AUSTER_ANSICHT
1002
{
1000
Det01
1002
}
  0
TEXT
  5
C109
330
20
100
AcDbEntity
  8
30000_Drilling
 62
     7
370
    13
100
AcDbText
 39
0.25
 10
77.92276317167858
 20
613.5083752079394
 30
0.0
 40
3.0
  1
Tuer
100
AcDbText
1001
AUSTER_FOLIE
1002
{
1000
VIERLOCH_2113_BO_M_LB_DREH
1002
}
1001
AUSTER_ANSICHT
1002
{
1000
Det01
1002
}
  0
TEXT
  5
C10A
330
20
100
AcDbEntity
  8
30000_Drilling
 62
     7
370
    13
100
AcDbText
 39
0.25
 10
77.92276317167858
 20
618.9356511835261
 30
0.0
 40
3.0
  1
Bohrbild
100
AcDbText
1001
AUSTER_FOLIE
1002
{
1000
VIERLOCH_2113_BO_M_LB_DREH
1002
}
1001
AUSTER_ANSICHT
1002
{
1000
Det01
1002
}
  0
CIRCLE
  5
C10B
330
20
100
AcDbEntity
  8
30000_Drilling
 62
     7
370
    50
100
AcDbCircle
 39
0.25
 10
93.26771960449384
 20
569.0643352005174
 30
0.0
 40
5.0
1001
AUSTER_FOLIE
1002
{
1000
VIERLOCH_2113_BO_M_LB_DREH
1002
}
1001
AUSTER_ANSICHT
1002
{
1000
Det01
1002
}
  0
CIRCLE
  5
C10C
330
20
100
AcDbEntity
  8
30000_Drilling
 62
     7
370
    50
100
AcDbCircle
 39
0.25
 10
68.87219960449403
 20
545.4598552005173
 30
0.0
 40
2.25
1001
AUSTER_FOLIE
1002
{
1000
VIERLOCH_2113_BO_M_LB_DREH
1002
}
1001
AUSTER_ANSICHT
1002
{
1000
Det01
1002
}
  0
CIRCLE
  5
C10D
330
20
100
AcDbEntity
  8
30000_Drilling
 62
     7
370
    50
100
AcDbCircle
 39
0.25
 10
68.87219960449403
 20
593.4598552005172
 30
0.0
 40
2.25
1001
AUSTER_FOLIE
1002
{
1000
VIERLOCH_2113_BO_M_LB_DREH
1002
}
1001
AUSTER_ANSICHT
1002
{
1000
Det01
1002
}
  0
CIRCLE
  5
C10E
330
20
100
AcDbEntity
  8
30000_Drilling
 62
     7
370
    50
100
AcDbCircle
 39
0.25
 10
116.872199604494
 20
545.4598552005169
 30
0.0
 40
2.25
1001
AUSTER_FOLIE
1002
{
1000
VIERLOCH_2113_BO_M_LB_DREH
1002
}
1001
AUSTER_ANSICHT
1002
{
1000
Det01
1002
}
  0
CIRCLE
  5
C10F
330
20
100
AcDbEntity
  8
30000_Drilling
 62
     7
370
    50
100
AcDbCircle
 39
0.25
 10
116.872199604494
 20
593.4598552005172
 30
0.0
 40
2.25
1001
AUSTER_FOLIE
1002
{
1000
VIERLOCH_2113_BO_M_LB_DREH
1002
}
1001
AUSTER_ANSICHT
1002
{
1000
Det01
1002
}
  0
ARC
  5
C110
330
20
100
AcDbEntity
  8
30000_Drilling
 62
     7
370
    50
100
AcDbCircle
 39
0.25
 10
152.6339172169701
 20
599.0505429313798
 30
0.0
 40
2.25
100
AcDbArc
 50
180.0
 51
0.0
1001
AUSTER_FOLIE
1002
{
1000
VIERLOCH_2113_BO_M_LB_DREH
1002
}
1001
AUSTER_ANSICHT
1002
{
1000
Det01
1002
}
  0
ARC
  5
C111
330
20
100
AcDbEntity
  8
30000_Drilling
 62
     7
370
    50
100
AcDbCircle
 39
0.25
 10
152.6339172169701
 20
599.0505429313798
 30
0.0
 40
2.25
100
AcDbArc
 50
0.0
 51
180.0
1001
AUSTER_FOLIE
1002
{
1000
VIERLOCH_2113_BO_M_LB_DREH
1002
}
1001
AUSTER_ANSICHT
1002
{
1000
Det01
1002
}
  0
ARC
  5
C112
330
20
100
AcDbEntity
  8
30000_Drilling
 62
     7
370
    50
100
AcDbCircle
 39
0.25
 10
174.6339172169701
 20
539.05054293138
 30
0.0
 40
2.25
100
AcDbArc
 50
180.0
 51
0.0
1001
AUSTER_FOLIE
1002
{
1000
VIERLOCH_2113_BO_M_LB_DREH
1002
}
1001
AUSTER_ANSICHT
1002
{
1000
Det01
1002
}
  0
ARC
  5
C113
330
20
100
AcDbEntity
  8
30000_Drilling
 62
     7
370
    50
100
AcDbCircle
 39
0.25
 10
174.6339172169701
 20
539.05054293138
 30
0.0
 40
2.25
100
AcDbArc
 50
0.0
 51
180.0
1001
AUSTER_FOLIE
1002
{
1000
VIERLOCH_2113_BO_M_LB_DREH
1002
}
1001
AUSTER_ANSICHT
1002
{
1000
Det01
1002
}
  0
ARC
  5
C22B
330
20
100
AcDbEntity
  8
14000_Bottom
  6
Continuous
 62
     7
370
    50
100
AcDbCircle
 39
0.7
 10
5.513785502323627
 20
538.4863693431837
 30
0.0
 40
2.988999999999998
100
AcDbArc
 50
239.826023043581
 51
270.1839999999988
1001
AUSTER_FOLIE
1002
{
1000
ZENTRA_2144_BO_M_LB_DREH
1002
}
1001
AUSTER_ANSICHT
1002
{
1000
R
1002
}
  0
ARC
  5
C22C
330
20
100
AcDbEntity
  8
14000_Bottom
  6
Continuous
 62
     7
370
    20
100
AcDbCircle
 39
0.7
 10
8.174785502323686
 20
538.6253693431836
 30
0.0
 40
3.129999999999999
100
AcDbArc
 50
299.5450729533542
 51
350.1899999999976
1001
AUSTER_FOLIE
1002
{
1000
ZENTRA_2144_BO_M_LB_DREH
1002
}
1001
AUSTER_ANSICHT
1002
{
1000
R
1002
}
  0
LINE
  5
C22D
330
20
100
AcDbEntity
  8
14000_Bottom
  6
Continuous
 62
     7
370
    20
100
AcDbLine
 39
0.7
 10
18.60478550232375
 20
602.3023693431831
 30
0.0
 11
18.60478550232375
 21
593.5073693431835
 31
0.0
1001
AUSTER_FOLIE
1002
{
1000
ZENTRA_2144_BO_M_LB_DREH
1002
}
1001
AUSTER_ANSICHT
1002
{
1000
R
1002
}
  0
LINE
  5
C22E
330
20
100
AcDbEntity
  8
14000_Bottom
  6
Continuous
 62
     7
370
    20
100
AcDbLine
 39
0.7
 10
-26.79521449767623
 20
602.3023693431831
 30
0.0
 11
-26.79521449767623
 21
593.5073693431835
 31
0.0
1001
AUSTER_FOLIE
1002
{
1000
ZENTRA_2144_BO_M_LB_DREH
1002
}
1001
AUSTER_ANSICHT
1002
{
1000
R
1002
}
  0
DIMENSION
  5
C22F
330
20
100
AcDbEntity
  8
14100_Bottom_Dim
  6
Continuous
 62
     7
370
    13
100
AcDbDimension
  2
*D16
 10
18.60478550232373
 20
624.0448567457331
 30
0.0
 11
-4.095214497676249
 21
626.2948567457331
 31
0.0
 70
    32
 71
     5
 42
45.39999999999998
  3
H035
100
AcDbAlignedDimension
 13
-26.79521449767624
 23
613.5073693431835
 33
0.0
 14
18.60478550232373
 24
613.5073693431835
 34
0.0
100
AcDbRotatedDimension
1001
ACAD
1000
DSTYLE
1002
{
1070
    40
1040
1.0
1002
}
  0
LINE
  5
C230
330
20
100
AcDbEntity
  8
14000_Bottom
  6
Continuous
 62
     7
370
    13
100
AcDbLine
 39
0.7
 10
18.4047855023237
 20
586.9973693431838
 30
0.0
 11
-26.5952144976763
 21
586.9973693431838
 31
0.0
1001
AUSTER_FOLIE
1002
{
1000
ZENTRA_2144_BO_M_LB_DREH
1002
}
1001
AUSTER_ANSICHT
1002
{
1000
R
1002
}
  0
LINE
  5
C231
330
20
100
AcDbEntity
  8
14000_Bottom
  6
Continuous
 62
     7
370
    13
100
AcDbLine
 39
0.7
 10
12.13178550232368
 20
544.4973693431835
 30
0.0
 11
11.25878550232363
 21
538.0923693431837
 31
0.0
1001
AUSTER_FOLIE
1002
{
1000
ZENTRA_2144_BO_M_LB_DREH
1002
}
1001
AUSTER_ANSICHT
1002
{
1000
R
1002
}
  0
LINE
  5
C232
330
20
100
AcDbEntity
  8
14000_Bottom
  6
Continuous
 62
     7
370
    20
100
AcDbLine
 39
0.7
 10
18.4047855023237
 20
541.9973693431835
 30
0.0
 11
11.78778550232374
 21
541.9973693431835
 31
0.0
1001
AUSTER_FOLIE
1002
{
1000
ZENTRA_2144_BO_M_LB_DREH
1002
}
1001
AUSTER_ANSICHT
1002
{
1000
R
1002
}
  0
LINE
  5
C233
330
20
100
AcDbEntity
  8
14000_Bottom
  6
Continuous
 62
     7
370
    13
100
AcDbLine
 39
0.7
 10
11.38778550232365
 20
539.3023693431835
 30
0.0
 11
19.9047855023237
 21
539.3023693431835
 31
0.0
1001
AUSTER_FOLIE
1002
{
1000
ZENTRA_2144_BO_M_LB_DREH
1002
}
1001
AUSTER_ANSICHT
1002
{
1000
R
1002
}
  0
LINE
  5
C234
330
20
100
AcDbEntity
  8
14000_Bottom
  6
Continuous
 62
     7
370
    13
100
AcDbLine
 39
0.7
 10
18.4047855023237
 20
551.9973693431835
 30
0.0
 11
-26.5952144976763
 21
551.9973693431835
 31
0.0
1001
AUSTER_FOLIE
1002
{
1000
ZENTRA_2144_BO_M_LB_DREH
1002
}
1001
AUSTER_ANSICHT
1002
{
1000
R
1002
}
  0
LINE
  5
C235
330
20
100
AcDbEntity
  8
14000_Bottom
  6
Continuous
 62
     7
370
    50
100
AcDbLine
 39
0.7
 10
25.90478550232371
 20
535.9023693431834
 30
0.0
 11
9.706785502323723
 21
535.9023693431834
 31
0.0
1001
AUSTER_FOLIE
1002
{
1000
ZENTRA_2144_BO_M_LB_DREH
1002
}
1001
AUSTER_ANSICHT
1002
{
1000
R
1002
}
  0
LINE
  5
C236
330
20
100
AcDbEntity
  8
14000_Bottom
  6
CENTER
 62
     7
370
     9
100
AcDbLine
 39
0.8
 10
38.40478550232371
 20
569.4973693431835
 30
0.0
 11
-46.5952144976763
 21
569.4973693431835
 31
0.0
1001
AUSTER_FOLIE
1002
{
1000
ZENTRA_2144_BO_M_LB_DREH
1002
}
1001
AUSTER_ANSICHT
1002
{
1000
R
1002
}
  0
LINE
  5
C237
330
20
100
AcDbEntity
  8
14000_Bottom
  6
Continuous
 62
     7
370
    13
100
AcDbLine
 39
0.7
 10
6.10478550232375
 20
611.5073693431831
 30
0.0
 11
16.10478550232375
 21
611.5073693431831
 31
0.0
1001
AUSTER_FOLIE
1002
{
1000
ZENTRA_2144_BO_M_LB_DREH
1002
}
1001
AUSTER_ANSICHT
1002
{
1000
R
1002
}
  0
LINE
  5
C238
330
20
100
AcDbEntity
  8
14000_Bottom
  6
Continuous
 62
     7
370
    50
100
AcDbLine
 39
0.7
 10
16.10478550232375
 20
613.5073693431835
 30
0.0
 11
6.10478550232375
 21
613.5073693431835
 31
0.0
1001
AUSTER_FOLIE
1002
{
1000
ZENTRA_2144_BO_M_LB_DREH
1002
}
1001
AUSTER_ANSICHT
1002
{
1000
R
1002
}
  0
LINE
  5
C239
330
20
100
AcDbEntity
  8
14000_Bottom
  6
Continuous
 62
     7
370
    13
100
AcDbLine
 39
0.7
 10
18.4047855023237
 20
592.4973693431835
 30
0.0
 11
-9.595214497676296
 21
592.4973693431835
 31
0.0
1001
AUSTER_FOLIE
1002
{
1000
ZENTRA_2144_BO_M_LB_DREH
1002
}
1001
AUSTER_ANSICHT
1002
{
1000
R
1002
}
  0
LINE
  5
C23A
330
20
100
AcDbEntity
  8
14000_Bottom
  6
Continuous
 62
     7
370
    13
100
AcDbLine
 39
0.7
 10
16.60378550232366
 20
596.9973693431835
 30
0.0
 11
-10.21121449767628
 21
596.9973693431835
 31
0.0
1001
AUSTER_FOLIE
1002
{
1000
ZENTRA_2144_BO_M_LB_DREH
1002
}
1001
AUSTER_ANSICHT
1002
{
1000
R
1002
}
  0
LINE
  5
C23B
330
20
100
AcDbEntity
  8
14000_Bottom
  6
Continuous
 62
     7
370
    13
100
AcDbLine
 39
0.7
 10
-34.0952144976763
 20
593.3023693431834
 30
0.0
 11
-34.0952144976763
 21
545.3023693431836
 31
0.0
1001
AUSTER_FOLIE
1002
{
1000
ZENTRA_2144_BO_M_LB_DREH
1002
}
1001
AUSTER_ANSICHT
1002
{
1000
R
1002
}
  0
LINE
  5
C23C
330
20
100
AcDbEntity
  8
14000_Bottom
  6
Continuous
 62
     7
370
    50
100
AcDbLine
 39
0.7
 10
-37.49521449767627
 20
538.9023693431836
 30
0.0
 11
-37.49521449767627
 21
599.3023693431836
 31
0.0
1001
AUSTER_FOLIE
1002
{
1000
ZENTRA_2144_BO_M_LB_DREH
1002
}
1001
AUSTER_ANSICHT
1002
{
1000
R
1002
}
  0
LINE
  5
C23D
330
20
100
AcDbEntity
  8
14000_Bottom
  6
Continuous
 62
     7
370
    20
100
AcDbLine
 39
0.7
 10
-26.5952144976763
 20
586.9973693431838
 30
0.0
 11
-26.5952144976763
 21
551.9983693431836
 31
0.0
1001
AUSTER_FOLIE
1002
{
1000
ZENTRA_2144_BO_M_LB_DREH
1002
}
1001
AUSTER_ANSICHT
1002
{
1000
R
1002
}
  0
LINE
  5
C23E
330
20
100
AcDbEntity
  8
14000_Bottom
  6
Continuous
 62
     7
370
    50
100
AcDbLine
 39
0.7
 10
4.023785502323732
 20
535.9023693431834
 30
0.0
 11
-34.49521449767626
 21
535.9023693431834
 31
0.0
1001
AUSTER_FOLIE
1002
{
1000
ZENTRA_2144_BO_M_LB_DREH
1002
}
1001
AUSTER_ANSICHT
1002
{
1000
R
1002
}
  0
LINE
  5
C23F
330
20
100
AcDbEntity
  8
14000_Bottom
  6
Continuous
 62
     7
370
    20
100
AcDbLine
 39
0.7
 10
2.015785502323694
 20
541.9973693431835
 30
0.0
 11
-26.5952144976763
 21
541.9973693431835
 31
0.0
1001
AUSTER_FOLIE
1002
{
1000
ZENTRA_2144_BO_M_LB_DREH
1002
}
1001
AUSTER_ANSICHT
1002
{
1000
R
1002
}
  0
LINE
  5
C240
330
20
100
AcDbEntity
  8
14000_Bottom
  6
Continuous
 62
     7
370
    13
100
AcDbLine
 39
0.7
 10
1.677785502323729
 20
544.4973693431835
 30
0.0
 11
-26.5952144976763
 21
544.4973693431835
 31
0.0
1001
AUSTER_FOLIE
1002
{
1000
ZENTRA_2144_BO_M_LB_DREH
1002
}
1001
AUSTER_ANSICHT
1002
{
1000
R
1002
}
  0
LINE
  5
C241
330
20
100
AcDbEntity
  8
14000_Bottom
  6
Continuous
 62
     7
370
    13
100
AcDbLine
 39
0.7
 10
-28.09521449767629
 20
539.3023693431835
 30
0.0
 11
2.355785502323726
 21
539.3023693431835
 31
0.0
1001
AUSTER_FOLIE
1002
{
1000
ZENTRA_2144_BO_M_LB_DREH
1002
}
1001
AUSTER_ANSICHT
1002
{
1000
R
1002
}
  0
ARC
  5
C242
330
20
100
AcDbEntity
  8
14000_Bottom
  6
Continuous
 62
     7
370
    50
100
AcDbCircle
 39
0.7
 10
-34.41621449767632
 20
538.9813693431837
 30
0.0
 40
3.08
100
AcDbArc
 50
181.4619999999968
 51
268.5380000000033
1001
AUSTER_FOLIE
1002
{
1000
ZENTRA_2144_BO_M_LB_DREH
1002
}
1001
AUSTER_ANSICHT
1002
{
1000
R
1002
}
  0
ARC
  5
C243
330
20
100
AcDbEntity
  8
14000_Bottom
  6
Continuous
 62
     7
370
    13
100
AcDbCircle
 39
0.7
 10
-28.09521449767629
 20
545.3023693431836
 30
0.0
 40
6.0
100
AcDbArc
 50
180.0
 51
270.0
1001
AUSTER_FOLIE
1002
{
1000
ZENTRA_2144_BO_M_LB_DREH
1002
}
1001
AUSTER_ANSICHT
1002
{
1000
R
1002
}
  0
LINE
  5
C244
330
20
100
AcDbEntity
  8
14000_Bottom
  6
Continuous
 62
     7
370
    20
100
AcDbLine
 39
0.7
 10
-26.5952144976763
 20
551.9973693431835
 30
0.0
 11
-26.5952144976763
 21
544.4973693431835
 31
0.0
1001
AUSTER_FOLIE
1002
{
1000
ZENTRA_2144_BO_M_LB_DREH
1002
}
1001
AUSTER_ANSICHT
1002
{
1000
R
1002
}
  0
LINE
  5
C245
330
20
100
AcDbEntity
  8
14000_Bottom
  6
Continuous
 62
     7
370
    20
100
AcDbLine
 39
0.7
 10
-26.5952144976763
 20
544.4973693431835
 30
0.0
 11
-26.5952144976763
 21
541.9973693431835
 31
0.0
1001
AUSTER_FOLIE
1002
{
1000
ZENTRA_2144_BO_M_LB_DREH
1002
}
1001
AUSTER_ANSICHT
1002
{
1000
R
1002
}
  0
LINE
  5
C246
330
20
100
AcDbEntity
  8
14000_Bottom
  6
Continuous
 62
     7
370
    13
100
AcDbLine
 39
0.7
 10
-31.5952144976763
 20
576.2973693431834
 30
0.0
 11
-31.5952144976763
 21
562.6973693431835
 31
0.0
1001
AUSTER_FOLIE
1002
{
1000
ZENTRA_2144_BO_M_LB_DREH
1002
}
1001
AUSTER_ANSICHT
1002
{
1000
R
1002
}
  0
LINE
  5
C247
330
20
100
AcDbEntity
  8
14000_Bottom
  6
Continuous
 62
     7
370
    13
100
AcDbLine
 39
0.7
 10
-26.60421449767631
 20
562.6973693431835
 30
0.0
 11
-31.5952144976763
 21
562.6973693431835
 31
0.0
1001
AUSTER_FOLIE
1002
{
1000
ZENTRA_2144_BO_M_LB_DREH
1002
}
1001
AUSTER_ANSICHT
1002
{
1000
R
1002
}
  0
LINE
  5
C248
330
20
100
AcDbEntity
  8
14000_Bottom
  6
Continuous
 62
     7
370
    13
100
AcDbLine
 39
0.7
 10
-26.60421449767631
 20
576.2973693431834
 30
0.0
 11
-31.5952144976763
 21
576.2973693431834
 31
0.0
1001
AUSTER_FOLIE
1002
{
1000
ZENTRA_2144_BO_M_LB_DREH
1002
}
1001
AUSTER_ANSICHT
1002
{
1000
R
1002
}
  0
ARC
  5
C249
330
20
100
AcDbEntity
  8
14000_Bottom
  6
Continuous
 62
     7
370
    20
100
AcDbCircle
 39
0.7
 10
6.904785502323703
 20
539.4973693431835
 30
0.0
 40
2.25
100
AcDbArc
 50
180.0
 51
0.0
1001
AUSTER_FOLIE
1002
{
1000
ZENTRA_2144_BO_M_LB_DREH
1002
}
1001
AUSTER_ANSICHT
1002
{
1000
R
1002
}
  0
ARC
  5
C24A
330
20
100
AcDbEntity
  8
14000_Bottom
  6
Continuous
 62
     7
370
    20
100
AcDbCircle
 39
0.7
 10
5.513785502323627
 20
538.4863693431837
 30
0.0
 40
2.988999999999998
100
AcDbArc
 50
187.5820000000034
 51
239.826023043581
1001
AUSTER_FOLIE
1002
{
1000
ZENTRA_2144_BO_M_LB_DREH
1002
}
1001
AUSTER_ANSICHT
1002
{
1000
R
1002
}
  0
ARC
  5
C24B
330
20
100
AcDbEntity
  8
14000_Bottom
  6
Continuous
 62
     7
370
    50
100
AcDbCircle
 39
0.7
 10
8.174785502323686
 20
538.6253693431836
 30
0.0
 40
3.129999999999999
100
AcDbArc
 50
272.0440000000012
 51
299.5450729533542
1001
AUSTER_FOLIE
1002
{
1000
ZENTRA_2144_BO_M_LB_DREH
1002
}
1001
AUSTER_ANSICHT
1002
{
1000
R
1002
}
  0
LINE
  5
C24C
330
20
100
AcDbEntity
  8
14000_Bottom
  6
Continuous
 62
     7
370
    50
100
AcDbLine
 39
0.7
 10
8.286785502323652
 20
535.4973693431835
 30
0.0
 11
5.523785502323731
 21
535.4973693431835
 31
0.0
1001
AUSTER_FOLIE
1002
{
1000
ZENTRA_2144_BO_M_LB_DREH
1002
}
1001
AUSTER_ANSICHT
1002
{
1000
R
1002
}
  0
LINE
  5
C24D
330
20
100
AcDbEntity
  8
14000_Bottom
  6
Continuous
 62
     7
370
    13
100
AcDbLine
 39
0.7
 10
2.550785502323775
 20
538.0923693431837
 30
0.0
 11
1.677785502323729
 21
544.4973693431835
 31
0.0
1001
AUSTER_FOLIE
1002
{
1000
ZENTRA_2144_BO_M_LB_DREH
1002
}
1001
AUSTER_ANSICHT
1002
{
1000
R
1002
}
  0
LINE
  5
C24E
330
20
100
AcDbEntity
  8
14000_Bottom
  6
Continuous
 62
     7
370
    13
100
AcDbLine
 39
0.7
 10
4.632785502323655
 20
539.3023693431835
 30
0.0
 11
9.111785502323698
 21
539.3023693431835
 31
0.0
1001
AUSTER_FOLIE
1002
{
1000
ZENTRA_2144_BO_M_LB_DREH
1002
}
1001
AUSTER_ANSICHT
1002
{
1000
R
1002
}
  0
ARC
  5
C24F
330
20
100
AcDbEntity
  8
14000_Bottom
  6
Continuous
 62
     7
370
    20
100
AcDbCircle
 39
0.7
 10
6.904785502323703
 20
539.4973693431835
 30
0.0
 40
2.25
100
AcDbArc
 50
0.0
 51
180.0
1001
AUSTER_FOLIE
1002
{
1000
ZENTRA_2144_BO_M_LB_DREH
1002
}
1001
AUSTER_ANSICHT
1002
{
1000
R
1002
}
  0
LINE
  5
C250
330
20
100
AcDbEntity
  8
14000_Bottom
  6
Continuous
 62
     7
370
    13
100
AcDbLine
 39
0.7
 10
-23.89521449767625
 20
611.5073693431831
 30
0.0
 11
-13.89521449767625
 21
611.5073693431831
 31
0.0
1001
AUSTER_FOLIE
1002
{
1000
ZENTRA_2144_BO_M_LB_DREH
1002
}
1001
AUSTER_ANSICHT
1002
{
1000
R
1002
}
  0
LINE
  5
C251
330
20
100
AcDbEntity
  8
14000_Bottom
  6
Continuous
 62
     7
370
    50
100
AcDbLine
 39
0.7
 10
-13.89521449767625
 20
613.5073693431835
 30
0.0
 11
-23.89521449767625
 21
613.5073693431835
 31
0.0
1001
AUSTER_FOLIE
1002
{
1000
ZENTRA_2144_BO_M_LB_DREH
1002
}
1001
AUSTER_ANSICHT
1002
{
1000
R
1002
}
  0
LINE
  5
C252
330
20
100
AcDbEntity
  8
14000_Bottom
  6
Continuous
 62
     7
370
    13
100
AcDbLine
 39
0.7
 10
-20.59521449767629
 20
592.4973693431835
 30
0.0
 11
-26.5952144976763
 21
592.4973693431835
 31
0.0
1001
AUSTER_FOLIE
1002
{
1000
ZENTRA_2144_BO_M_LB_DREH
1002
}
1001
AUSTER_ANSICHT
1002
{
1000
R
1002
}
  0
LINE
  5
C253
330
20
100
AcDbEntity
  8
14000_Bottom
  6
Continuous
 62
     7
370
    13
100
AcDbLine
 39
0.7
 10
-19.98521449767628
 20
596.9973693431835
 30
0.0
 11
-24.79621449767632
 21
596.9973693431835
 31
0.0
1001
AUSTER_FOLIE
1002
{
1000
ZENTRA_2144_BO_M_LB_DREH
1002
}
1001
AUSTER_ANSICHT
1002
{
1000
R
1002
}
  0
LINE
  5
C254
330
20
100
AcDbEntity
  8
14000_Bottom
  6
Continuous
 62
     7
370
    50
100
AcDbLine
 39
0.7
 10
-26.79521449767623
 20
613.5073693431835
 30
0.0
 11
-26.79521449767623
 21
602.3023693431831
 31
0.0
1001
AUSTER_FOLIE
1002
{
1000
ZENTRA_2144_BO_M_LB_DREH
1002
}
1001
AUSTER_ANSICHT
1002
{
1000
R
1002
}
  0
LINE
  5
C255
330
20
100
AcDbEntity
  8
14000_Bottom
  6
Continuous
 62
     7
370
    13
100
AcDbLine
 39
0.7
 10
-24.79521449767623
 20
596.9973693431835
 30
0.0
 11
-24.79521449767623
 21
611.5073693431831
 31
0.0
1001
AUSTER_FOLIE
1002
{
1000
ZENTRA_2144_BO_M_LB_DREH
1002
}
1001
AUSTER_ANSICHT
1002
{
1000
R
1002
}
  0
ARC
  5
C256
330
20
100
AcDbEntity
  8
14000_Bottom
  6
Continuous
 62
     7
370
    13
100
AcDbCircle
 39
0.7
 10
-28.09521449767629
 20
593.3023693431834
 30
0.0
 40
6.0
100
AcDbArc
 50
90.0
 51
180.0
1001
AUSTER_FOLIE
1002
{
1000
ZENTRA_2144_BO_M_LB_DREH
1002
}
1001
AUSTER_ANSICHT
1002
{
1000
R
1002
}
  0
LINE
  5
C257
330
20
100
AcDbEntity
  8
14000_Bottom
  6
Continuous
 62
     7
370
    20
100
AcDbLine
 39
0.7
 10
-26.5952144976763
 20
592.4973693431835
 30
0.0
 11
-26.5952144976763
 21
586.9973693431838
 31
0.0
1001
AUSTER_FOLIE
1002
{
1000
ZENTRA_2144_BO_M_LB_DREH
1002
}
1001
AUSTER_ANSICHT
1002
{
1000
R
1002
}
  0
LINE
  5
C258
330
20
100
AcDbEntity
  8
14000_Bottom
  6
Continuous
 62
     7
370
    20
100
AcDbLine
 39
0.7
 10
-26.5952144976763
 20
593.4973693431835
 30
0.0
 11
-26.5952144976763
 21
592.4993693431836
 31
0.0
1001
AUSTER_FOLIE
1002
{
1000
ZENTRA_2144_BO_M_LB_DREH
1002
}
1001
AUSTER_ANSICHT
1002
{
1000
R
1002
}
  0
LINE
  5
C259
330
20
100
AcDbEntity
  8
14000_Bottom
  6
Continuous
 62
     7
370
    50
100
AcDbLine
 39
0.7
 10
-34.49521449767626
 20
602.3023693431831
 30
0.0
 11
-26.83221449767626
 21
602.3023693431831
 31
0.0
1001
AUSTER_FOLIE
1002
{
1000
ZENTRA_2144_BO_M_LB_DREH
1002
}
1001
AUSTER_ANSICHT
1002
{
1000
R
1002
}
  0
ARC
  5
C25A
330
20
100
AcDbEntity
  8
14000_Bottom
  6
Continuous
 62
     7
370
    50
100
AcDbCircle
 39
0.7
 10
-34.37221449767634
 20
599.1793693431835
 30
0.0
 40
3.126
100
AcDbArc
 50
92.26000000000073
 51
177.7399999999992
1001
AUSTER_FOLIE
1002
{
1000
ZENTRA_2144_BO_M_LB_DREH
1002
}
1001
AUSTER_ANSICHT
1002
{
1000
R
1002
}
  0
LINE
  5
C25B
330
20
100
AcDbEntity
  8
14000_Bottom
  6
Continuous
 62
     7
370
    13
100
AcDbLine
 39
0.7
 10
-26.82521449767631
 20
599.3023693431836
 30
0.0
 11
-28.09521449767629
 21
599.3023693431836
 31
0.0
1001
AUSTER_FOLIE
1002
{
1000
ZENTRA_2144_BO_M_LB_DREH
1002
}
1001
AUSTER_ANSICHT
1002
{
1000
R
1002
}
  0
LINE
  5
C25C
330
20
100
AcDbEntity
  8
14000_Bottom
  6
Continuous
 62
     7
370
    13
100
AcDbLine
 39
0.7
 10
-23.89521449767625
 20
611.5073693431831
 30
0.0
 11
-23.89521449767625
 21
613.5073693431835
 31
0.0
1001
AUSTER_FOLIE
1002
{
1000
ZENTRA_2144_BO_M_LB_DREH
1002
}
1001
AUSTER_ANSICHT
1002
{
1000
R
1002
}
  0
LINE
  5
C25D
330
20
100
AcDbEntity
  8
14000_Bottom
  6
Continuous
 62
     7
370
    13
100
AcDbLine
 39
0.7
 10
-24.79521449767623
 20
611.5073693431831
 30
0.0
 11
-23.89521449767625
 21
611.5073693431831
 31
0.0
1001
AUSTER_FOLIE
1002
{
1000
ZENTRA_2144_BO_M_LB_DREH
1002
}
1001
AUSTER_ANSICHT
1002
{
1000
R
1002
}
  0
LINE
  5
C25E
330
20
100
AcDbEntity
  8
14000_Bottom
  6
Continuous
 62
     7
370
    50
100
AcDbLine
 39
0.7
 10
-23.89521449767625
 20
613.5073693431835
 30
0.0
 11
-26.79521449767623
 21
613.5073693431835
 31
0.0
1001
AUSTER_FOLIE
1002
{
1000
ZENTRA_2144_BO_M_LB_DREH
1002
}
1001
AUSTER_ANSICHT
1002
{
1000
R
1002
}
  0
LINE
  5
C25F
330
20
100
AcDbEntity
  8
14000_Bottom
  6
Continuous
 62
     7
370
    13
100
AcDbLine
 39
0.7
 10
-11.89521449767625
 20
602.8833693431834
 30
0.0
 11
-11.89521449767625
 21
611.5073693431831
 31
0.0
1001
AUSTER_FOLIE
1002
{
1000
ZENTRA_2144_BO_M_LB_DREH
1002
}
1001
AUSTER_ANSICHT
1002
{
1000
R
1002
}
  0
LINE
  5
C260
330
20
100
AcDbEntity
  8
14000_Bottom
  6
Continuous
 62
     7
370
    13
100
AcDbLine
 39
0.7
 10
-10.89521449767625
 20
601.5173693431836
 30
0.0
 11
-10.89521449767625
 21
611.5073693431831
 31
0.0
1001
AUSTER_FOLIE
1002
{
1000
ZENTRA_2144_BO_M_LB_DREH
1002
}
1001
AUSTER_ANSICHT
1002
{
1000
R
1002
}
  0
LINE
  5
C261
330
20
100
AcDbEntity
  8
14000_Bottom
  6
Continuous
 62
     7
370
    13
100
AcDbLine
 39
0.7
 10
3.10478550232375
 20
611.5073693431831
 30
0.0
 11
3.10478550232375
 21
596.9983693431836
 31
0.0
1001
AUSTER_FOLIE
1002
{
1000
ZENTRA_2144_BO_M_LB_DREH
1002
}
1001
AUSTER_ANSICHT
1002
{
1000
R
1002
}
  0
LINE
  5
C262
330
20
100
AcDbEntity
  8
14000_Bottom
  6
Continuous
 62
     7
370
    13
100
AcDbLine
 39
0.7
 10
4.10478550232375
 20
596.9983693431836
 30
0.0
 11
4.10478550232375
 21
611.5073693431831
 31
0.0
1001
AUSTER_FOLIE
1002
{
1000
ZENTRA_2144_BO_M_LB_DREH
1002
}
1001
AUSTER_ANSICHT
1002
{
1000
R
1002
}
  0
LINE
  5
C263
330
20
100
AcDbEntity
  8
14000_Bottom
  6
Continuous
 62
     7
370
    13
100
AcDbLine
 39
0.7
 10
-10.74121449767637
 20
600.9033693431834
 30
0.0
 11
-9.595214497676296
 21
592.4973693431835
 31
0.0
1001
AUSTER_FOLIE
1002
{
1000
ZENTRA_2144_BO_M_LB_DREH
1002
}
1001
AUSTER_ANSICHT
1002
{
1000
R
1002
}
  0
LINE
  5
C264
330
20
100
AcDbEntity
  8
14000_Bottom
  6
Continuous
 62
     7
370
    13
100
AcDbLine
 39
0.7
 10
-20.59521449767629
 20
592.4973693431835
 30
0.0
 11
-19.44921449767622
 21
600.9033693431834
 31
0.0
1001
AUSTER_FOLIE
1002
{
1000
ZENTRA_2144_BO_M_LB_DREH
1002
}
1001
AUSTER_ANSICHT
1002
{
1000
R
1002
}
  0
ARC
  5
C265
330
20
100
AcDbEntity
  8
14000_Bottom
  6
Continuous
 62
     7
370
    20
100
AcDbCircle
 39
0.7
 10
-15.09521449767629
 20
599.4973693431838
 30
0.0
 40
2.25
100
AcDbArc
 50
0.0
 51
180.0
1001
AUSTER_FOLIE
1002
{
1000
ZENTRA_2144_BO_M_LB_DREH
1002
}
1001
AUSTER_ANSICHT
1002
{
1000
R
1002
}
  0
ARC
  5
C266
330
20
100
AcDbEntity
  8
14000_Bottom
  6
Continuous
 62
     7
370
    20
100
AcDbCircle
 39
0.7
 10
-15.09521449767629
 20
599.4973693431838
 30
0.0
 40
2.25
100
AcDbArc
 50
180.0
 51
0.0
1001
AUSTER_FOLIE
1002
{
1000
ZENTRA_2144_BO_M_LB_DREH
1002
}
1001
AUSTER_ANSICHT
1002
{
1000
R
1002
}
  0
LINE
  5
C267
330
20
100
AcDbEntity
  8
14000_Bottom
  6
Continuous
 62
     7
370
    13
100
AcDbLine
 39
0.7
 10
-16.47621449767626
 20
603.4973693431838
 30
0.0
 11
-13.71321449767634
 21
603.4973693431838
 31
0.0
1001
AUSTER_FOLIE
1002
{
1000
ZENTRA_2144_BO_M_LB_DREH
1002
}
1001
AUSTER_ANSICHT
1002
{
1000
R
1002
}
  0
ARC
  5
C268
330
20
100
AcDbEntity
  8
14000_Bottom
  6
Continuous
 62
     7
370
    13
100
AcDbCircle
 39
0.7
 10
-15.97521449767629
 20
599.9243693431836
 30
0.0
 40
3.608
100
AcDbArc
 50
97.97500000000306
 51
164.260000000002
1001
AUSTER_FOLIE
1002
{
1000
ZENTRA_2144_BO_M_LB_DREH
1002
}
1001
AUSTER_ANSICHT
1002
{
1000
R
1002
}
  0
ARC
  5
C269
330
20
100
AcDbEntity
  8
14000_Bottom
  6
Continuous
 62
     7
370
    13
100
AcDbCircle
 39
0.7
 10
-13.71321449767634
 20
600.4973693431836
 30
0.0
 40
3.0
100
AcDbArc
 50
7.764999999999799
 51
90.0
1001
AUSTER_FOLIE
1002
{
1000
ZENTRA_2144_BO_M_LB_DREH
1002
}
1001
AUSTER_ANSICHT
1002
{
1000
R
1002
}
  0
LINE
  5
C26A
330
20
100
AcDbEntity
  8
14000_Bottom
  6
Continuous
 62
     7
370
    13
100
AcDbLine
 39
0.7
 10
-10.93121449767631
 20
602.3023693431831
 30
0.0
 11
-10.92721449767629
 21
602.3023693431831
 31
0.0
1001
AUSTER_FOLIE
1002
{
1000
ZENTRA_2144_BO_M_LB_DREH
1002
}
1001
AUSTER_ANSICHT
1002
{
1000
R
1002
}
  0
LINE
  5
C26B
330
20
100
AcDbEntity
  8
14000_Bottom
  6
Continuous
 62
     7
370
    13
100
AcDbLine
 39
0.7
 10
-8.895214497676247
 20
611.5073693431831
 30
0.0
 11
1.10478550232375
 21
611.5073693431831
 31
0.0
1001
AUSTER_FOLIE
1002
{
1000
ZENTRA_2144_BO_M_LB_DREH
1002
}
1001
AUSTER_ANSICHT
1002
{
1000
R
1002
}
  0
LINE
  5
C26C
330
20
100
AcDbEntity
  8
14000_Bottom
  6
Continuous
 62
     7
370
    50
100
AcDbLine
 39
0.7
 10
1.10478550232375
 20
613.5073693431835
 30
0.0
 11
-8.895214497676247
 21
613.5073693431835
 31
0.0
1001
AUSTER_FOLIE
1002
{
1000
ZENTRA_2144_BO_M_LB_DREH
1002
}
1001
AUSTER_ANSICHT
1002
{
1000
R
1002
}
  0
LINE
  5
C26D
330
20
100
AcDbEntity
  8
14000_Bottom
  6
Continuous
 62
     7
370
    13
100
AcDbLine
 39
0.7
 10
-8.895214497676247
 20
611.5073693431831
 30
0.0
 11
-8.895214497676247
 21
613.5073693431835
 31
0.0
1001
AUSTER_FOLIE
1002
{
1000
ZENTRA_2144_BO_M_LB_DREH
1002
}
1001
AUSTER_ANSICHT
1002
{
1000
R
1002
}
  0
LINE
  5
C26E
330
20
100
AcDbEntity
  8
14000_Bottom
  6
Continuous
 62
     7
370
    13
100
AcDbLine
 39
0.7
 10
-13.89521449767625
 20
613.5073693431835
 30
0.0
 11
-13.89521449767625
 21
611.5073693431831
 31
0.0
1001
AUSTER_FOLIE
1002
{
1000
ZENTRA_2144_BO_M_LB_DREH
1002
}
1001
AUSTER_ANSICHT
1002
{
1000
R
1002
}
  0
LINE
  5
C26F
330
20
100
AcDbEntity
  8
14000_Bottom
  6
Continuous
 62
     7
370
    13
100
AcDbLine
 39
0.7
 10
-13.89521449767625
 20
611.5073693431831
 30
0.0
 11
-8.895214497676247
 21
611.5073693431831
 31
0.0
1001
AUSTER_FOLIE
1002
{
1000
ZENTRA_2144_BO_M_LB_DREH
1002
}
1001
AUSTER_ANSICHT
1002
{
1000
R
1002
}
  0
LINE
  5
C270
330
20
100
AcDbEntity
  8
14000_Bottom
  6
Continuous
 62
     7
370
    50
100
AcDbLine
 39
0.7
 10
-8.895214497676247
 20
613.5073693431835
 30
0.0
 11
-13.89521449767625
 21
613.5073693431835
 31
0.0
1001
AUSTER_FOLIE
1002
{
1000
ZENTRA_2144_BO_M_LB_DREH
1002
}
1001
AUSTER_ANSICHT
1002
{
1000
R
1002
}
  0
POINT
  5
C271
330
20
100
AcDbEntity
  8
14000_Bottom
  6
Continuous
 62
     7
370
    13
100
AcDbPoint
 10
-13.89521449767625
 20
613.5073693431835
 30
0.0
 39
0.7
1001
AUSTER_FOLIE
1002
{
1000
ZENTRA_2144_BO_M_LB_DREH
1002
}
1001
AUSTER_ANSICHT
1002
{
1000
R
1002
}
  0
LINE
  5
C272
330
20
100
AcDbEntity
  8
14000_Bottom
  6
Continuous
 62
     7
370
    13
100
AcDbLine
 39
0.7
 10
1.10478550232375
 20
611.5073693431831
 30
0.0
 11
6.10478550232375
 21
611.5073693431831
 31
0.0
1001
AUSTER_FOLIE
1002
{
1000
ZENTRA_2144_BO_M_LB_DREH
1002
}
1001
AUSTER_ANSICHT
1002
{
1000
R
1002
}
  0
LINE
  5
C273
330
20
100
AcDbEntity
  8
14000_Bottom
  6
Continuous
 62
     7
370
    50
100
AcDbLine
 39
0.7
 10
6.10478550232375
 20
613.5073693431835
 30
0.0
 11
1.10478550232375
 21
613.5073693431835
 31
0.0
1001
AUSTER_FOLIE
1002
{
1000
ZENTRA_2144_BO_M_LB_DREH
1002
}
1001
AUSTER_ANSICHT
1002
{
1000
R
1002
}
  0
LINE
  5
C274
330
20
100
AcDbEntity
  8
14000_Bottom
  6
Continuous
 62
     7
370
    13
100
AcDbLine
 39
0.7
 10
1.10478550232375
 20
613.5073693431835
 30
0.0
 11
1.10478550232375
 21
611.5073693431831
 31
0.0
1001
AUSTER_FOLIE
1002
{
1000
ZENTRA_2144_BO_M_LB_DREH
1002
}
1001
AUSTER_ANSICHT
1002
{
1000
R
1002
}
  0
LINE
  5
C275
330
20
100
AcDbEntity
  8
14000_Bottom
  6
Continuous
 62
     7
370
    13
100
AcDbLine
 39
0.7
 10
6.10478550232375
 20
611.5073693431831
 30
0.0
 11
6.10478550232375
 21
613.5073693431835
 31
0.0
1001
AUSTER_FOLIE
1002
{
1000
ZENTRA_2144_BO_M_LB_DREH
1002
}
1001
AUSTER_ANSICHT
1002
{
1000
R
1002
}
  0
LINE
  5
C276
330
20
100
AcDbEntity
  8
14000_Bottom
  6
Continuous
 62
     7
370
    50
100
AcDbLine
 39
0.7
 10
28.90478550232371
 20
599.3023693431836
 30
0.0
 11
28.90478550232371
 21
539.3944044646022
 31
0.0
1001
AUSTER_FOLIE
1002
{
1000
ZENTRA_2144_BO_M_LB_DREH
1002
}
1001
AUSTER_ANSICHT
1002
{
1000
R
1002
}
  0
LINE
  5
C277
330
20
100
AcDbEntity
  8
14000_Bottom
  6
Continuous
 62
     7
370
    20
100
AcDbLine
 39
0.7
 10
18.4047855023237
 20
551.9973693431835
 30
0.0
 11
18.4047855023237
 21
586.9973693431838
 31
0.0
1001
AUSTER_FOLIE
1002
{
1000
ZENTRA_2144_BO_M_LB_DREH
1002
}
1001
AUSTER_ANSICHT
1002
{
1000
R
1002
}
  0
ARC
  5
C278
330
20
100
AcDbEntity
  8
14000_Bottom
  6
Continuous
 62
     7
370
    50
100
AcDbCircle
 39
0.7
 10
25.6547855023237
 20
539.1523693431836
 30
0.0
 40
3.258999999999999
100
AcDbArc
 50
274.3950000000032
 51
355.6049999999968
1001
AUSTER_FOLIE
1002
{
1000
ZENTRA_2144_BO_M_LB_DREH
1002
}
1001
AUSTER_ANSICHT
1002
{
1000
R
1002
}
  0
ARC
  5
C279
330
20
100
AcDbEntity
  8
14000_Bottom
  6
Continuous
 62
     7
370
    13
100
AcDbCircle
 39
0.7
 10
20.03219020702375
 20
544.7967916187971
 30
0.0
 40
5.495899207730809
100
AcDbArc
 50
268.6716630782897
 51
5.278204943473573
1001
AUSTER_FOLIE
1002
{
1000
ZENTRA_2144_BO_M_LB_DREH
1002
}
1001
AUSTER_ANSICHT
1002
{
1000
R
1002
}
  0
LINE
  5
C27A
330
20
100
AcDbEntity
  8
14000_Bottom
  6
Continuous
 62
     7
370
    20
100
AcDbLine
 39
0.7
 10
18.4047855023237
 20
544.4973693431835
 30
0.0
 11
18.4047855023237
 21
551.9973693431835
 31
0.0
1001
AUSTER_FOLIE
1002
{
1000
ZENTRA_2144_BO_M_LB_DREH
1002
}
1001
AUSTER_ANSICHT
1002
{
1000
R
1002
}
  0
LINE
  5
C27B
330
20
100
AcDbEntity
  8
14000_Bottom
  6
Continuous
 62
     7
370
    20
100
AcDbLine
 39
0.7
 10
18.4047855023237
 20
541.9973693431835
 30
0.0
 11
18.4047855023237
 21
544.4973693431835
 31
0.0
1001
AUSTER_FOLIE
1002
{
1000
ZENTRA_2144_BO_M_LB_DREH
1002
}
1001
AUSTER_ANSICHT
1002
{
1000
R
1002
}
  0
LINE
  5
C27C
330
20
100
AcDbEntity
  8
14000_Bottom
  6
Continuous
 62
     7
370
    13
100
AcDbLine
 39
0.7
 10
12.13178550232368
 20
544.4973693431835
 30
0.0
 11
12.13178550232368
 21
544.4973693431835
 31
0.0
1001
AUSTER_FOLIE
1002
{
1000
ZENTRA_2144_BO_M_LB_DREH
1002
}
1001
AUSTER_ANSICHT
1002
{
1000
R
1002
}
  0
LINE
  5
C27D
330
20
100
AcDbEntity
  8
14000_Bottom
  6
Continuous
 62
     7
370
    13
100
AcDbLine
 39
0.7
 10
18.4047855023237
 20
544.4973693431835
 30
0.0
 11
12.13178550232368
 21
544.4973693431835
 31
0.0
1001
AUSTER_FOLIE
1002
{
1000
ZENTRA_2144_BO_M_LB_DREH
1002
}
1001
AUSTER_ANSICHT
1002
{
1000
R
1002
}
  0
LINE
  5
C27E
330
20
100
AcDbEntity
  8
14000_Bottom
  6
Continuous
 62
     7
370
    50
100
AcDbLine
 39
0.7
 10
18.60478550232375
 20
613.5073693431835
 30
0.0
 11
18.60478550232375
 21
602.3023693431831
 31
0.0
1001
AUSTER_FOLIE
1002
{
1000
ZENTRA_2144_BO_M_LB_DREH
1002
}
1001
AUSTER_ANSICHT
1002
{
1000
R
1002
}
  0
LINE
  5
C27F
330
20
100
AcDbEntity
  8
14000_Bottom
  6
Continuous
 62
     7
370
    13
100
AcDbLine
 39
0.7
 10
16.60478550232375
 20
611.5073693431831
 30
0.0
 11
16.60378550232366
 21
596.9973693431835
 31
0.0
1001
AUSTER_FOLIE
1002
{
1000
ZENTRA_2144_BO_M_LB_DREH
1002
}
1001
AUSTER_ANSICHT
1002
{
1000
R
1002
}
  0
ARC
  5
C280
330
20
100
AcDbEntity
  8
14000_Bottom
  6
Continuous
 62
     7
370
    13
100
AcDbCircle
 39
0.7
 10
20.01853707681448
 20
593.7952041460416
 30
0.0
 40
5.508339852379223
100
AcDbArc
 50
354.8668447028016
 51
91.18328727543199
1001
AUSTER_FOLIE
1002
{
1000
ZENTRA_2144_BO_M_LB_DREH
1002
}
1001
AUSTER_ANSICHT
1002
{
1000
R
1002
}
  0
LINE
  5
C281
330
20
100
AcDbEntity
  8
14000_Bottom
  6
Continuous
 62
     7
370
    20
100
AcDbLine
 39
0.7
 10
18.4047855023237
 20
586.9973693431838
 30
0.0
 11
18.4047855023237
 21
592.4973693431835
 31
0.0
1001
AUSTER_FOLIE
1002
{
1000
ZENTRA_2144_BO_M_LB_DREH
1002
}
1001
AUSTER_ANSICHT
1002
{
1000
R
1002
}
  0
LINE
  5
C282
330
20
100
AcDbEntity
  8
14000_Bottom
  6
Continuous
 62
     7
370
    20
100
AcDbLine
 39
0.7
 10
18.4047855023237
 20
592.4973693431835
 30
0.0
 11
18.4047855023237
 21
593.4973693431835
 31
0.0
1001
AUSTER_FOLIE
1002
{
1000
ZENTRA_2144_BO_M_LB_DREH
1002
}
1001
AUSTER_ANSICHT
1002
{
1000
R
1002
}
  0
LINE
  5
C283
330
20
100
AcDbEntity
  8
14000_Bottom
  6
Continuous
 62
     7
370
    50
100
AcDbLine
 39
0.7
 10
18.56778550232371
 20
602.3023693431831
 30
0.0
 11
25.90478550232371
 21
602.3023693431831
 31
0.0
1001
AUSTER_FOLIE
1002
{
1000
ZENTRA_2144_BO_M_LB_DREH
1002
}
1001
AUSTER_ANSICHT
1002
{
1000
R
1002
}
  0
LINE
  5
C284
330
20
100
AcDbEntity
  8
14000_Bottom
  6
Continuous
 62
     7
370
    13
100
AcDbLine
 39
0.7
 10
19.9047855023237
 20
599.3023693431836
 30
0.0
 11
18.57478550232378
 21
599.3023693431836
 31
0.0
1001
AUSTER_FOLIE
1002
{
1000
ZENTRA_2144_BO_M_LB_DREH
1002
}
1001
AUSTER_ANSICHT
1002
{
1000
R
1002
}
  0
ARC
  5
C285
330
20
100
AcDbEntity
  8
14000_Bottom
  6
Continuous
 62
     7
370
    50
100
AcDbCircle
 39
0.7
 10
25.9147855023237
 20
599.3123693431837
 30
0.0
 40
2.99
100
AcDbArc
 50
359.8100000000004
 51
90.18999999999953
1001
AUSTER_FOLIE
1002
{
1000
ZENTRA_2144_BO_M_LB_DREH
1002
}
1001
AUSTER_ANSICHT
1002
{
1000
R
1002
}
  0
LINE
  5
C286
330
20
100
AcDbEntity
  8
14000_Bottom
  6
Continuous
 62
     7
370
    13
100
AcDbLine
 39
0.7
 10
16.10478550232375
 20
613.5073693431835
 30
0.0
 11
16.10478550232375
 21
611.5073693431831
 31
0.0
1001
AUSTER_FOLIE
1002
{
1000
ZENTRA_2144_BO_M_LB_DREH
1002
}
1001
AUSTER_ANSICHT
1002
{
1000
R
1002
}
  0
LINE
  5
C287
330
20
100
AcDbEntity
  8
14000_Bottom
  6
Continuous
 62
     7
370
    13
100
AcDbLine
 39
0.7
 10
16.10478550232375
 20
611.5073693431831
 30
0.0
 11
16.60478550232375
 21
611.5073693431831
 31
0.0
1001
AUSTER_FOLIE
1002
{
1000
ZENTRA_2144_BO_M_LB_DREH
1002
}
1001
AUSTER_ANSICHT
1002
{
1000
R
1002
}
  0
LINE
  5
C288
330
20
100
AcDbEntity
  8
14000_Bottom
  6
Continuous
 62
     7
370
    50
100
AcDbLine
 39
0.7
 10
18.60478550232375
 20
613.5073693431835
 30
0.0
 11
16.10478550232375
 21
613.5073693431835
 31
0.0
1001
AUSTER_FOLIE
1002
{
1000
ZENTRA_2144_BO_M_LB_DREH
1002
}
1001
AUSTER_ANSICHT
1002
{
1000
R
1002
}
  0
LINE
  5
C2A8
330
20
100
AcDbEntity
  8
14000_Bottom
  6
Continuous
 62
     7
370
    13
100
AcDbLine
 39
0.7
 10
25.50478550232356
 20
593.3023693431834
 30
0.0
 11
25.50478550232356
 21
545.3023693431836
 31
0.0
1001
AUSTER_FOLIE
1002
{
1000
ZENTRA_2144_BO_M_LB_DREH
1002
}
1001
AUSTER_ANSICHT
1002
{
1000
R
1002
}
  0
ENDSEC
  0
SECTION
  2
OBJECTS
  0
DICTIONARY
  5
C
330
0
100
AcDbDictionary
281
     1
  3
ACAD_COLOR
350
1B
  3
ACAD_GROUP
350
D
  3
ACAD_LAYOUT
350
19
  3
ACAD_MATERIAL
350
1A
  3
ACAD_MLINESTYLE
350
16
  3
ACAD_PLOTSETTINGS
350
18
  3
ACAD_PLOTSTYLENAME
350
E
  3
ACDBHEADERROUNDTRIPXREC
350
C5CA
  3
AcDbVariableDictionary
350
687E
  3
DWGPROPS
350
C5C9
  0
DICTIONARY
  5
1B
102
{ACAD_REACTORS
330
C
102
}
330
C
100
AcDbDictionary
281
     1
  0
DICTIONARY
  5
D
102
{ACAD_REACTORS
330
C
102
}
330
C
100
AcDbDictionary
281
     1
  0
DICTIONARY
  5
19
102
{ACAD_REACTORS
330
C
102
}
330
C
100
AcDbDictionary
281
     1
  3
Layout1
350
1F
  3
Model
350
23
  0
DICTIONARY
  5
1A
102
{ACAD_REACTORS
330
C
102
}
330
C
100
AcDbDictionary
281
     1
  0
DICTIONARY
  5
16
102
{ACAD_REACTORS
330
C
102
}
330
C
100
AcDbDictionary
281
     1
  3
Standard
350
17
  0
DICTIONARY
  5
18
102
{ACAD_REACTORS
330
C
102
}
330
C
100
AcDbDictionary
281
     1
  0
ACDBDICTIONARYWDFLT
  5
E
102
{ACAD_REACTORS
330
C
102
}
330
C
100
AcDbDictionary
281
     1
  3
Normal
350
F
100
AcDbDictionaryWithDefault
340
F
  0
DICTIONARY
  5
C5CA
102
{ACAD_REACTORS
330
C
102
}
330
C
100
AcDbDictionary
281
     1
  3
COLORDICT
350
C5CC
  3
MATERIALDICT
350
C5CB
  0
DICTIONARY
  5
687E
102
{ACAD_REACTORS
330
C
102
}
330
C
100
AcDbDictionary
281
     1
  3
DIMASSOC
350
687F
  3
PROJECTNAME
350
6880
  0
XRECORD
  5
C5C9
102
{ACAD_REACTORS
330
C
102
}
330
C
100
AcDbXrecord
280
     1
  1
DWGPROPS COOKIE
  2

  3

  4

  6

  7

  8

  9

300
=
301
=
302
=
303
=
304
=
305
=
306
=
307
=
308
=
309
=
 40
2.395983020833333
 41
2452829.417613079
 42
2453423.640117627
  1

 90
        0
  0
LAYOUT
  5
1F
102
{ACAD_XDICTIONARY
360
C5CD
102
}
102
{ACAD_REACTORS
330
19
102
}
330
19
100
AcDbPlotSettings
  1

  2
HP LaserJet 5000 Series PS
  4

  6

 40
0.0
 41
0.0
 42
0.0
 43
0.0
 44
0.0
 45
0.0
 46
0.0
 47
0.0
 48
0.0
 49
0.0
140
0.0
141
0.0
142
1.0
143
1.0
 70
   688
 72
     0
 73
     0
 74
     5
  7
monochrome.ctb
 75
    16
147
1.0
148
0.0
149
0.0
100
AcDbLayout
  1
Layout1
 70
     1
 71
     1
 10
0.0
 20
0.0
 11
12.0
 21
9.0
 12
0.0
 22
0.0
 32
0.0
 14
1.000000000000000E+20
 24
1.000000000000000E+20
 34
1.000000000000000E+20
 15
-1.000000000000000E+20
 25
-1.000000000000000E+20
 35
-1.000000000000000E+20
146
0.0
 13
0.0
 23
0.0
 33
0.0
 16
1.0
 26
0.0
 36
0.0
 17
0.0
 27
1.0
 37
0.0
 76
     0
330
1C
  0
LAYOUT
  5
23
102
{ACAD_XDICTIONARY
360
C5CF
102
}
102
{ACAD_REACTORS
330
19
102
}
330
19
100
AcDbPlotSettings
  1

  2
\\AMBW779A\A_P00873 (Canon iR2200-3300 PCL6)
  4
A3
  6

 40
4.815416812896728
 41
4.815412044525146
 42
4.815399169921875
 43
4.8154296875
 44
296.9259948730469
 45
419.9466552734373
 46
0.0
 47
0.0
 48
0.0
 49
0.0
140
0.0
141
0.0
142
1.0
143
1.0
 70
 11952
 72
     1
 73
     1
 74
     1
  7
monochrome.ctb
 75
    16
147
1.0
148
70.61101108460127
149
-494.2310691414609
100
AcDbLayout
  1
Model
 70
     1
 71
     0
 10
0.0
 20
0.0
 11
12.0
 21
9.0
 12
0.0
 22
0.0
 32
0.0
 14
0.0
 24
0.0
 34
0.0
 15
0.0
 25
0.0
 35
0.0
146
0.0
 13
0.0
 23
0.0
 33
0.0
 16
1.0
 26
0.0
 36
0.0
 17
0.0
 27
1.0
 37
0.0
 76
     0
330
20
  0
MLINESTYLE
  5
17
102
{ACAD_REACTORS
330
16
102
}
330
16
100
AcDbMlineStyle
  2
STANDARD
 70
     0
  3

 62
   256
 51
90.0
 52
90.0
 71
     2
 49
0.5
 62
   256
  6
BYLAYER
 49
-0.5
 62
   256
  6
BYLAYER
  0
ACDBPLACEHOLDER
  5
F
102
{ACAD_REACTORS
330
E
102
}
330
E
  0
XRECORD
  5
C5CC
102
{ACAD_REACTORS
330
C5CA
102
}
330
C5CA
100
AcDbXrecord
280
     1
340
1B
  0
XRECORD
  5
C5CB
102
{ACAD_REACTORS
330
C5CA
102
}
330
C5CA
100
AcDbXrecord
280
     1
340
1A
  0
DICTIONARYVAR
  5
687F
102
{ACAD_REACTORS
330
687E
102
}
330
687E
100
DictionaryVariables
280
     0
  1
1
  0
DICTIONARYVAR
  5
6880
102
{ACAD_REACTORS
330
687E
102
}
330
687E
100
DictionaryVariables
280
     0
  1

  0
DICTIONARY
  5
C5CD
330
1F
100
AcDbDictionary
280
     1
281
     1
  3
ACAD_XREC_ROUNDTRIP
360
C5CE
  0
DICTIONARY
  5
C5CF
330
23
100
AcDbDictionary
280
     1
281
     1
  3
ACAD_XREC_ROUNDTRIP
360
C5D0
  0
XRECORD
  5
C5CE
102
{ACAD_REACTORS
330
C5CD
102
}
330
C5CD
100
AcDbXrecord
280
     1
102
SHADEPLOT
 70
     0
102
SHADEPLOTRESLEVEL
 70
     2
102
SHADEPLOTCUSTOMDPI
 70
   300
  0
XRECORD
  5
C5D0
102
{ACAD_REACTORS
330
C5CF
102
}
330
C5CF
100
AcDbXrecord
280
     1
102
SHADEPLOT
 70
     1
102
SHADEPLOTRESLEVEL
 70
     2
102
SHADEPLOTCUSTOMDPI
 70
   300
  0
ENDSEC
  0
EOF
