  0
SECTION
  2
HEADER
  9
$ACADVER
  1
AC1015
  9
$ACADMAINTVER
 70
    20
  9
$DWGCODEPAGE
  3
ANSI_1252
  9
$INSBASE
 10
0.0
 20
0.0
 30
0.0
  9
$EXTMIN
 10
-70.60458337769119
 20
494.279881970476
 30
0.0
  9
$EXTMAX
 10
339.3954166223088
 20
764.279881970476
 30
0.7
  9
$LIMMIN
 10
0.0
 20
0.0
  9
$LIMMAX
 10
420.0
 20
297.0
  9
$ORTHOMODE
 70
     1
  9
$REGENMODE
 70
     1
  9
$FILLMODE
 70
     1
  9
$QTEXTMODE
 70
     0
  9
$MIRRTEXT
 70
     0
  9
$LTSCALE
 40
23.1
  9
$ATTMODE
 70
     1
  9
$TEXTSIZE
 40
0.2
  9
$TRACEWID
 40
0.05
  9
$TEXTSTYLE
  7
Standard
  9
$CLAYER
  8
14100_Bottom_Dim
  9
$CELTYPE
  6
ByLayer
  9
$CECOLOR
 62
   256
  9
$CELTSCALE
 40
1.0
  9
$DISPSILH
 70
     0
  9
$DIMSCALE
 40
0.0
  9
$DIMASZ
 40
3.5
  9
$DIMEXO
 40
0.0
  9
$DIMDLI
 40
3.75
  9
$DIMRND
 40
0.0
  9
$DIMDLE
 40
0.0
  9
$DIMEXE
 40
2.0
  9
$DIMTP
 40
0.0
  9
$DIMTM
 40
0.0
  9
$DIMTXT
 40
3.5
  9
$DIMCEN
 40
2.5
  9
$DIMTSZ
 40
0.0
  9
$DIMTOL
 70
     0
  9
$DIMLIM
 70
     0
  9
$DIMTIH
 70
     0
  9
$DIMTOH
 70
     0
  9
$DIMSE1
 70
     0
  9
$DIMSE2
 70
     0
  9
$DIMTAD
 70
     1
  9
$DIMZIN
 70
     8
  9
$DIMBLK
  1

  9
$DIMASO
 70
     1
  9
$DIMSHO
 70
     1
  9
$DIMPOST
  1

  9
$DIMAPOST
  1

  9
$DIMALT
 70
     0
  9
$DIMALTD
 70
     4
  9
$DIMALTF
 40
0.039
  9
$DIMLFAC
 40
1.0
  9
$DIMTOFL
 70
     1
  9
$DIMTVP
 40
0.0
  9
$DIMTIX
 70
     0
  9
$DIMSOXD
 70
     0
  9
$DIMSAH
 70
     0
  9
$DIMBLK1
  1

  9
$DIMBLK2
  1

  9
$DIMSTYLE
  2
H035
  9
$DIMCLRD
 70
   256
  9
$DIMCLRE
 70
     7
  9
$DIMCLRT
 70
     7
  9
$DIMTFAC
 40
1.0
  9
$DIMGAP
 40
0.5
  9
$DIMJUST
 70
     0
  9
$DIMSD1
 70
     0
  9
$DIMSD2
 70
     0
  9
$DIMTOLJ
 70
     1
  9
$DIMTZIN
 70
     0
  9
$DIMALTZ
 70
     0
  9
$DIMALTTZ
 70
     0
  9
$DIMUPT
 70
     0
  9
$DIMDEC
 70
     0
  9
$DIMTDEC
 70
     2
  9
$DIMALTU
 70
     8
  9
$DIMALTTD
 70
     4
  9
$DIMTXSTY
  7
Standard
  9
$DIMAUNIT
 70
     0
  9
$DIMADEC
 70
     0
  9
$DIMALTRND
 40
0.0
  9
$DIMAZIN
 70
     0
  9
$DIMDSEP
 70
    46
  9
$DIMATFIT
 70
     3
  9
$DIMFRAC
 70
     0
  9
$DIMLDRBLK
  1

  9
$DIMLUNIT
 70
     2
  9
$DIMLWD
 70
    -2
  9
$DIMLWE
 70
    -2
  9
$DIMTMOVE
 70
     0
  9
$LUNITS
 70
     2
  9
$LUPREC
 70
     4
  9
$SKETCHINC
 40
0.1
  9
$FILLETRAD
 40
0.5
  9
$AUNITS
 70
     0
  9
$AUPREC
 70
     0
  9
$MENU
  1
.
  9
$ELEVATION
 40
0.0
  9
$PELEVATION
 40
0.0
  9
$THICKNESS
 40
0.0
  9
$LIMCHECK
 70
     0
  9
$CHAMFERA
 40
0.0
  9
$CHAMFERB
 40
0.0
  9
$CHAMFERC
 40
0.0
  9
$CHAMFERD
 40
0.0
  9
$SKPOLY
 70
     0
  9
$TDCREATE
 40
2452829.417613079
  9
$TDUCREATE
 40
2452829.375946412
  9
$TDUPDATE
 40
2453423.652375313
  9
$TDUUPDATE
 40
2453423.610708646
  9
$TDINDWG
 40
2.5128841898
  9
$TDUSRTIMER
 40
2.5128762384
  9
$USRTIMER
 70
     1
  9
$ANGBASE
 50
0.0
  9
$ANGDIR
 70
     0
  9
$PDMODE
 70
     0
  9
$PDSIZE
 40
0.0
  9
$PLINEWID
 40
0.0
  9
$SPLFRAME
 70
     0
  9
$SPLINETYPE
 70
     6
  9
$SPLINESEGS
 70
     8
  9
$HANDSEED
  5
CE53
  9
$SURFTAB1
 70
     6
  9
$SURFTAB2
 70
     6
  9
$SURFTYPE
 70
     6
  9
$SURFU
 70
     6
  9
$SURFV
 70
     6
  9
$UCSBASE
  2

  9
$UCSNAME
  2

  9
$UCSORG
 10
0.0
 20
0.0
 30
0.0
  9
$UCSXDIR
 10
1.0
 20
0.0
 30
0.0
  9
$UCSYDIR
 10
0.0
 20
1.0
 30
0.0
  9
$UCSORTHOREF
  2

  9
$UCSORTHOVIEW
 70
     0
  9
$UCSORGTOP
 10
0.0
 20
0.0
 30
0.0
  9
$UCSORGBOTTOM
 10
0.0
 20
0.0
 30
0.0
  9
$UCSORGLEFT
 10
0.0
 20
0.0
 30
0.0
  9
$UCSORGRIGHT
 10
0.0
 20
0.0
 30
0.0
  9
$UCSORGFRONT
 10
0.0
 20
0.0
 30
0.0
  9
$UCSORGBACK
 10
0.0
 20
0.0
 30
0.0
  9
$PUCSBASE
  2

  9
$PUCSNAME
  2

  9
$PUCSORG
 10
0.0
 20
0.0
 30
0.0
  9
$PUCSXDIR
 10
1.0
 20
0.0
 30
0.0
  9
$PUCSYDIR
 10
0.0
 20
1.0
 30
0.0
  9
$PUCSORTHOREF
  2

  9
$PUCSORTHOVIEW
 70
     0
  9
$PUCSORGTOP
 10
0.0
 20
0.0
 30
0.0
  9
$PUCSORGBOTTOM
 10
0.0
 20
0.0
 30
0.0
  9
$PUCSORGLEFT
 10
0.0
 20
0.0
 30
0.0
  9
$PUCSORGRIGHT
 10
0.0
 20
0.0
 30
0.0
  9
$PUCSORGFRONT
 10
0.0
 20
0.0
 30
0.0
  9
$PUCSORGBACK
 10
0.0
 20
0.0
 30
0.0
  9
$USERI1
 70
     0
  9
$USERI2
 70
     0
  9
$USERI3
 70
     0
  9
$USERI4
 70
     0
  9
$USERI5
 70
     0
  9
$USERR1
 40
0.0
  9
$USERR2
 40
0.0
  9
$USERR3
 40
0.0
  9
$USERR4
 40
0.0
  9
$USERR5
 40
0.0
  9
$WORLDVIEW
 70
     1
  9
$SHADEDGE
 70
     3
  9
$SHADEDIF
 70
    70
  9
$TILEMODE
 70
     1
  9
$MAXACTVP
 70
    64
  9
$PINSBASE
 10
0.0
 20
0.0
 30
0.0
  9
$PLIMCHECK
 70
     0
  9
$PEXTMIN
 10
1.000000000000000E+20
 20
1.000000000000000E+20
 30
1.000000000000000E+20
  9
$PEXTMAX
 10
-1.000000000000000E+20
 20
-1.000000000000000E+20
 30
-1.000000000000000E+20
  9
$PLIMMIN
 10
0.0
 20
0.0
  9
$PLIMMAX
 10
12.0
 20
9.0
  9
$UNITMODE
 70
     0
  9
$VISRETAIN
 70
     1
  9
$PLINEGEN
 70
     0
  9
$PSLTSCALE
 70
     1
  9
$TREEDEPTH
 70
  3020
  9
$CMLSTYLE
  2
Standard
  9
$CMLJUST
 70
     0
  9
$CMLSCALE
 40
1.0
  9
$PROXYGRAPHICS
 70
     1
  9
$MEASUREMENT
 70
     0
  9
$CELWEIGHT
370
    -1
  9
$ENDCAPS
280
     0
  9
$JOINSTYLE
280
     0
  9
$LWDISPLAY
290
     0
  9
$INSUNITS
 70
     0
  9
$HYPERLINKBASE
  1

  9
$STYLESHEET
  1
MONOCHROME.CTB
  9
$XEDIT
290
     1
  9
$CEPSNTYPE
380
     0
  9
$PSTYLEMODE
290
     1
  9
$FINGERPRINTGUID
  2
{D88032C4-1185-41D3-97DD-7638FCF99E3F}
  9
$VERSIONGUID
  2
{03F58101-EB14-4544-9AC9-1217DE3466CA}
  9
$EXTNAMES
290
     1
  9
$PSVPSCALE
 40
0.0
  9
$OLESTARTUP
290
     0
  0
ENDSEC
  0
SECTION
  2
CLASSES
  0
CLASS
  1
ACDBDICTIONARYWDFLT
  2
AcDbDictionaryWithDefault
  3
ObjectDBX Classes
 90
        0
280
     0
281
     0
  0
CLASS
  1
DICTIONARYVAR
  2
AcDbDictionaryVar
  3
ObjectDBX Classes
 90
        0
280
     0
281
     0
  0
CLASS
  1
ACDBPLACEHOLDER
  2
AcDbPlaceHolder
  3
ObjectDBX Classes
 90
        0
280
     0
281
     0
  0
CLASS
  1
LAYOUT
  2
AcDbLayout
  3
ObjectDBX Classes
 90
        0
280
     0
281
     0
  0
ENDSEC
  0
SECTION
  2
TABLES
  0
TABLE
  2
VPORT
  5
8
330
0
100
AcDbSymbolTable
 70
     2
  0
VPORT
  5
CE4A
330
8
100
AcDbSymbolTableRecord
100
AcDbViewportTableRecord
  2
*Active
 70
     0
 10
0.0
 20
0.0
 11
1.0
 21
1.0
 12
135.8397830376523
 22
629.2766207532751
 13
0.0
 23
0.0
 14
1.0
 24
1.0
 15
0.0
 25
0.0
 16
0.0
 26
0.0
 36
1.0
 17
0.0
 27
0.0
 37
0.0
 40
272.1695573342754
 41
1.571994715984147
 42
50.0
 43
0.0
 44
0.0
 50
0.0
 51
0.0
 71
     0
 72
   100
 73
     1
 74
     1
 75
     0
 76
     0
 77
     0
 78
     0
281
     0
 65
     1
110
0.0
120
0.0
130
0.0
111
1.0
121
0.0
131
0.0
112
0.0
122
1.0
132
0.0
 79
     0
146
0.0
  0
ENDTAB
  0
TABLE
  2
LTYPE
  5
5
330
0
100
AcDbSymbolTable
 70
     2
  0
LTYPE
  5
13
330
5
100
AcDbSymbolTableRecord
100
AcDbLinetypeTableRecord
  2
ByBlock
 70
     0
  3

 72
    65
 73
     0
 40
0.0
  0
LTYPE
  5
14
330
5
100
AcDbSymbolTableRecord
100
AcDbLinetypeTableRecord
  2
ByLayer
 70
     0
  3

 72
    65
 73
     0
 40
0.0
  0
LTYPE
  5
15
330
5
100
AcDbSymbolTableRecord
100
AcDbLinetypeTableRecord
  2
CONTINUOUS
 70
     0
  3
Solid line
 72
    65
 73
     0
 40
0.0
  0
LTYPE
  5
26
330
5
100
AcDbSymbolTableRecord
100
AcDbLinetypeTableRecord
  2
CENTER
 70
     0
  3
____ _ ____ _ ____ _ ____ _ ____ _ ____ _ ____
 72
    65
 73
     4
 40
0.6
 49
0.375
 74
     0
 49
-0.075
 74
     0
 49
0.075
 74
     0
 49
-0.075
 74
     0
  0
ENDTAB
  0
TABLE
  2
LAYER
  5
2
330
0
100
AcDbSymbolTable
 70
    14
  0
LAYER
  5
10
330
2
100
AcDbSymbolTableRecord
100
AcDbLayerTableRecord
  2
0
 70
     0
 62
     7
  6
CONTINUOUS
370
    -3
390
F
  0
LAYER
  5
1D8
330
2
100
AcDbSymbolTableRecord
100
AcDbLayerTableRecord
  2
Defpoints
 70
     0
 62
     7
  6
CONTINUOUS
290
     0
370
    -3
390
F
  0
LAYER
  5
1D9
330
2
100
AcDbSymbolTableRecord
100
AcDbLayerTableRecord
  2
91000_TIP
 70
     0
 62
     7
  6
CONTINUOUS
370
    -3
390
F
  0
LAYER
  5
1DA
330
2
100
AcDbSymbolTableRecord
100
AcDbLayerTableRecord
  2
11000_Left
 70
     0
 62
     7
  6
CONTINUOUS
370
    -3
390
F
  0
LAYER
  5
1DB
330
2
100
AcDbSymbolTableRecord
100
AcDbLayerTableRecord
  2
10000_FRONT
 70
     0
 62
     7
  6
CONTINUOUS
370
    -3
390
F
  0
LAYER
  5
1DC
330
2
100
AcDbSymbolTableRecord
100
AcDbLayerTableRecord
  2
10100_FRONT_DIM
 70
     0
 62
     7
  6
CONTINUOUS
370
    -3
390
F
  0
LAYER
  5
1DD
330
2
100
AcDbSymbolTableRecord
100
AcDbLayerTableRecord
  2
90000_FRAME
 70
     0
 62
     7
  6
CONTINUOUS
370
    -3
390
F
  0
LAYER
  5
1DE
330
2
100
AcDbSymbolTableRecord
100
AcDbLayerTableRecord
  2
11100_LEFT_DIM
 70
     0
 62
     7
  6
CONTINUOUS
370
    -3
390
F
  0
LAYER
  5
8E71
330
2
100
AcDbSymbolTableRecord
100
AcDbLayerTableRecord
  2
30000_Drilling
 70
     0
 62
     7
  6
CONTINUOUS
370
    -3
390
F
  0
LAYER
  5
8E72
330
2
100
AcDbSymbolTableRecord
100
AcDbLayerTableRecord
  2
30100_Drilling_DIM
 70
     0
 62
     7
  6
CONTINUOUS
370
    -3
390
F
  0
LAYER
  5
ABF6
330
2
100
AcDbSymbolTableRecord
100
AcDbLayerTableRecord
  2
14000_Bottom
 70
     0
 62
     7
  6
CONTINUOUS
370
    -3
390
F
  0
LAYER
  5
ABF7
330
2
100
AcDbSymbolTableRecord
100
AcDbLayerTableRecord
  2
14100_Bottom_Dim
 70
     0
 62
     7
  6
CONTINUOUS
370
    -3
390
F
  0
ENDTAB
  0
TABLE
  2
STYLE
  5
3
330
0
100
AcDbSymbolTable
 70
     1
  0
STYLE
  5
11
330
3
100
AcDbSymbolTableRecord
100
AcDbTextStyleTableRecord
  2
Standard
 70
     0
 40
0.0
 41
1.0
 50
0.0
 71
     0
 42
0.2
  3
txt
  4

  0
ENDTAB
  0
TABLE
  2
VIEW
  5
6
330
0
100
AcDbSymbolTable
 70
     0
  0
ENDTAB
  0
TABLE
  2
UCS
  5
7
330
0
100
AcDbSymbolTable
 70
     0
  0
ENDTAB
  0
TABLE
  2
APPID
  5
9
330
0
100
AcDbSymbolTable
 70
     3
  0
APPID
  5
12
330
9
100
AcDbSymbolTableRecord
100
AcDbRegAppTableRecord
  2
ACAD
 70
     0
  0
APPID
  5
1E8
330
9
100
AcDbSymbolTableRecord
100
AcDbRegAppTableRecord
  2
AUSTER_ANSICHT
 70
     0
  0
APPID
  5
1E9
330
9
100
AcDbSymbolTableRecord
100
AcDbRegAppTableRecord
  2
AUSTER_FOLIE
 70
     0
  0
ENDTAB
  0
TABLE
  2
DIMSTYLE
  5
A
330
0
100
AcDbSymbolTable
 70
     3
100
AcDbDimStyleTable
 71
     3
340
1E7
340
3A1A
340
BA
  0
DIMSTYLE
105
BA
330
A
100
AcDbSymbolTableRecord
100
AcDbDimStyleTableRecord
  2
Standard
 70
     0
340
11
  0
DIMSTYLE
105
1E7
102
{ACAD_REACTORS
330
C84F
330
C851
330
C852
330
CDC9
330
CDE8
330
CDF5
102
}
330
A
100
AcDbSymbolTableRecord
100
AcDbDimStyleTableRecord
  2
DSTYLE1
 70
     0
 41
3.0
 42
0.0
 44
1.0
 73
     0
 74
     0
 77
     1
 78
     3
140
2.5
143
0.039370079
147
1.0
271
     3
272
     3
274
     0
279
     2
340
11
  0
DIMSTYLE
105
3A1A
102
{ACAD_REACTORS
330
C357
330
C358
330
C359
330
CCC8
330
CD00
330
CD1A
330
CD0D
102
}
330
A
100
AcDbSymbolTableRecord
100
AcDbDimStyleTableRecord
  2
H035
 70
     0
 40
0.0
 41
3.5
 42
0.0
 43
3.75
 44
2.0
 73
     0
 74
     0
 77
     1
 78
     8
140
3.5
141
2.5
143
0.039
147
0.5
171
     4
172
     1
176
   256
177
     7
178
     7
271
     0
272
     2
273
     8
274
     4
340
11
  0
ENDTAB
  0
TABLE
  2
BLOCK_RECORD
  5
1
330
0
100
AcDbSymbolTable
 70
    14
  0
BLOCK_RECORD
  5
20
330
1
100
AcDbSymbolTableRecord
100
AcDbBlockTableRecord
  2
*Model_Space
340
23
  0
BLOCK_RECORD
  5
1C
330
1
100
AcDbSymbolTableRecord
100
AcDbBlockTableRecord
  2
*Paper_Space
340
1F
  0
BLOCK_RECORD
  5
3A
330
1
100
AcDbSymbolTableRecord
100
AcDbBlockTableRecord
  2
SIEMENS_OUTLINE_BL0
340
0
102
{BLKREFS
331
BBA3
102
}
  0
BLOCK_RECORD
  5
C383
330
1
100
AcDbSymbolTableRecord
100
AcDbBlockTableRecord
  2
*D1
340
0
  0
BLOCK_RECORD
  5
C38F
330
1
100
AcDbSymbolTableRecord
100
AcDbBlockTableRecord
  2
*D2
340
0
  0
BLOCK_RECORD
  5
C39B
330
1
100
AcDbSymbolTableRecord
100
AcDbBlockTableRecord
  2
*D3
340
0
  0
BLOCK_RECORD
  5
C85A
330
1
100
AcDbSymbolTableRecord
100
AcDbBlockTableRecord
  2
*D4
340
0
  0
BLOCK_RECORD
  5
C870
330
1
100
AcDbSymbolTableRecord
100
AcDbBlockTableRecord
  2
*D5
340
0
  0
BLOCK_RECORD
  5
C87D
330
1
100
AcDbSymbolTableRecord
100
AcDbBlockTableRecord
  2
*D6
340
0
  0
BLOCK_RECORD
  5
CCC9
330
1
100
AcDbSymbolTableRecord
100
AcDbBlockTableRecord
  2
*D7
340
0
  0
BLOCK_RECORD
  5
CD01
330
1
100
AcDbSymbolTableRecord
100
AcDbBlockTableRecord
  2
*D8
340
0
  0
BLOCK_RECORD
  5
CD0E
330
1
100
AcDbSymbolTableRecord
100
AcDbBlockTableRecord
  2
*D9
340
0
  0
BLOCK_RECORD
  5
CD1B
330
1
100
AcDbSymbolTableRecord
100
AcDbBlockTableRecord
  2
*D10
340
0
  0
BLOCK_RECORD
  5
CDCA
330
1
100
AcDbSymbolTableRecord
100
AcDbBlockTableRecord
  2
*D11
340
0
  0
BLOCK_RECORD
  5
CDE9
330
1
100
AcDbSymbolTableRecord
100
AcDbBlockTableRecord
  2
*D12
340
0
  0
BLOCK_RECORD
  5
CDF6
330
1
100
AcDbSymbolTableRecord
100
AcDbBlockTableRecord
  2
*D13
340
0
  0
ENDTAB
  0
ENDSEC
  0
SECTION
  2
BLOCKS
  0
BLOCK
  5
21
330
20
100
AcDbEntity
  8
0
100
AcDbBlockBegin
  2
*Model_Space
 70
     0
 10
0.0
 20
0.0
 30
0.0
  3
*Model_Space
  1

  0
ENDBLK
  5
22
330
20
100
AcDbEntity
  8
0
100
AcDbBlockEnd
  0
BLOCK
  5
1D
330
1C
100
AcDbEntity
 67
     1
  8
0
100
AcDbBlockBegin
  2
*Paper_Space
 70
     0
 10
0.0
 20
0.0
 30
0.0
  3
*Paper_Space
  1

  0
ENDBLK
  5
1E
330
1C
100
AcDbEntity
 67
     1
  8
0
100
AcDbBlockEnd
  0
BLOCK
  5
3B
330
3A
100
AcDbEntity
  8
0
  6
Continuous
 62
     7
100
AcDbBlockBegin
  2
SIEMENS_OUTLINE_BL0
 70
     0
 10
0.0
 20
0.0
 30
0.0
  3
SIEMENS_OUTLINE_BL0
  1

  0
LINE
  5
3C
330
3A
100
AcDbEntity
  8
0
  6
Continuous
 62
     7
100
AcDbLine
 10
289.1235341257
 20
21.4969115175
 30
0.0
 11
289.1235341257
 21
16.7436424342
 31
0.0
  0
LINE
  5
3D
330
3A
100
AcDbEntity
  8
0
  6
Continuous
 62
     7
100
AcDbLine
 10
290.5495148507
 20
21.4969115175
 30
0.0
 11
290.5495148507
 21
16.7436424342
 31
0.0
  0
LINE
  5
3E
330
3A
100
AcDbEntity
  8
0
  6
Continuous
 62
     7
100
AcDbLine
 10
289.1235341257
 20
16.7436424342
 30
0.0
 11
290.5495148507
 21
16.7436424342
 31
0.0
  0
LINE
  5
3F
330
3A
100
AcDbEntity
  8
0
  6
Continuous
 62
     7
100
AcDbLine
 10
289.1235341257
 20
21.4969115175
 30
0.0
 11
290.5495148507
 21
21.4969115175
 31
0.0
  0
LINE
  5
40
330
3A
100
AcDbEntity
  8
0
  6
Continuous
 62
     7
100
AcDbLine
 10
291.6427667399
 20
21.4969115175
 30
0.0
 11
291.6427667399
 21
16.7436424342
 31
0.0
  0
LINE
  5
41
330
3A
100
AcDbEntity
  8
0
  6
Continuous
 62
     7
100
AcDbLine
 10
291.6427667399
 20
16.7436424342
 30
0.0
 11
295.2077185523
 21
16.7436424342
 31
0.0
  0
LINE
  5
42
330
3A
100
AcDbEntity
  8
0
  6
Continuous
 62
     7
100
AcDbLine
 10
295.2077185523
 20
17.64676356
 30
0.0
 11
293.021214774
 21
17.64676356
 31
0.0
  0
LINE
  5
43
330
3A
100
AcDbEntity
  8
0
  6
Continuous
 62
     7
100
AcDbLine
 10
295.2077185523
 20
17.64676356
 30
0.0
 11
295.2077185523
 21
16.7436424342
 31
0.0
  0
LINE
  5
44
330
3A
100
AcDbEntity
  8
0
  6
Continuous
 62
     7
100
AcDbLine
 10
295.1601858615
 20
21.4969115175
 30
0.0
 11
291.6427667399
 21
21.4969115175
 31
0.0
  0
LINE
  5
45
330
3A
100
AcDbEntity
  8
0
  6
Continuous
 62
     7
100
AcDbLine
 10
295.1601858615
 20
20.6175567371
 30
0.0
 11
293.021214774
 21
20.6175567371
 31
0.0
  0
LINE
  5
46
330
3A
100
AcDbEntity
  8
0
  6
Continuous
 62
     7
100
AcDbLine
 10
295.1601858615
 20
21.4969115175
 30
0.0
 11
295.1601858615
 21
20.6175567371
 31
0.0
  0
LINE
  5
47
330
3A
100
AcDbEntity
  8
0
  6
Continuous
 62
     7
100
AcDbLine
 10
294.8749897165
 20
18.7637817946
 30
0.0
 11
293.021214774
 21
18.7637817946
 31
0.0
  0
LINE
  5
48
330
3A
100
AcDbEntity
  8
0
  6
Continuous
 62
     7
100
AcDbLine
 10
294.8749897165
 20
19.5480711933
 30
0.0
 11
294.8749897165
 21
18.7637817946
 31
0.0
  0
LINE
  5
49
330
3A
100
AcDbEntity
  8
0
  6
Continuous
 62
     7
100
AcDbLine
 10
294.8749897165
 20
19.5480711933
 30
0.0
 11
293.021214774
 21
19.5480711933
 31
0.0
  0
LINE
  5
4A
330
3A
100
AcDbEntity
  8
0
  6
Continuous
 62
     7
100
AcDbLine
 10
293.021214774
 20
20.6175567371
 30
0.0
 11
293.021214774
 21
19.5480711933
 31
0.0
  0
LINE
  5
4B
330
3A
100
AcDbEntity
  8
0
  6
Continuous
 62
     7
100
AcDbLine
 10
293.021214774
 20
18.7637817946
 30
0.0
 11
293.021214774
 21
17.64676356
 31
0.0
  0
LINE
  5
4C
330
3A
100
AcDbEntity
  8
0
  6
Continuous
 62
     7
100
AcDbLine
 10
296.0157742965
 20
16.7436424342
 30
0.0
 11
296.0157742965
 21
21.4969115175
 31
0.0
  0
LINE
  5
4D
330
3A
100
AcDbEntity
  8
0
  6
Continuous
 62
     7
100
AcDbLine
 10
296.0157742965
 20
16.7436424342
 30
0.0
 11
296.9664281131
 21
16.7436424342
 31
0.0
  0
LINE
  5
4E
330
3A
100
AcDbEntity
  8
0
  6
Continuous
 62
     7
100
AcDbLine
 10
301.8622952689
 20
21.4969115175
 30
0.0
 11
301.8622952689
 21
16.7436424342
 31
0.0
  0
LINE
  5
4F
330
3A
100
AcDbEntity
  8
0
  6
Continuous
 62
     7
100
AcDbLine
 10
301.8622952689
 20
16.7436424342
 30
0.0
 11
300.4838472348
 21
16.7436424342
 31
0.0
  0
LINE
  5
50
330
3A
100
AcDbEntity
  8
0
  6
Continuous
 62
     7
100
AcDbLine
 10
298.2973434565
 20
16.6961097434
 30
0.0
 11
299.1529318914
 21
16.6961097434
 31
0.0
  0
LINE
  5
51
330
3A
100
AcDbEntity
  8
0
  6
Continuous
 62
     7
100
AcDbLine
 10
298.2973434565
 20
16.6961097434
 30
0.0
 11
296.9664281131
 21
19.7857346475
 31
0.0
  0
LINE
  5
52
330
3A
100
AcDbEntity
  8
0
  6
Continuous
 62
     7
100
AcDbLine
 10
296.9664281131
 20
16.7436424342
 30
0.0
 11
296.9664281131
 21
19.7857346475
 31
0.0
  0
LINE
  5
53
330
3A
100
AcDbEntity
  8
0
  6
Continuous
 62
     7
100
AcDbLine
 10
300.4838472348
 20
19.8332673383
 30
0.0
 11
299.1529318914
 21
16.6961097434
 31
0.0
  0
LINE
  5
54
330
3A
100
AcDbEntity
  8
0
  6
Continuous
 62
     7
100
AcDbLine
 10
297.7269511665
 20
21.4969115175
 30
0.0
 11
296.0157742965
 21
21.4969115175
 31
0.0
  0
LINE
  5
55
330
3A
100
AcDbEntity
  8
0
  6
Continuous
 62
     7
100
AcDbLine
 10
301.8622952689
 20
21.4969115175
 30
0.0
 11
300.1511183989
 21
21.4969115175
 31
0.0
  0
LINE
  5
56
330
3A
100
AcDbEntity
  8
0
  6
Continuous
 62
     7
100
AcDbLine
 10
297.7269511665
 20
21.4969115175
 30
0.0
 11
298.9628011281
 21
18.5974173767
 31
0.0
  0
LINE
  5
57
330
3A
100
AcDbEntity
  8
0
  6
Continuous
 62
     7
100
AcDbLine
 10
300.1511183989
 20
21.4969115175
 30
0.0
 11
298.9628011281
 21
18.5974173767
 31
0.0
  0
LINE
  5
58
330
3A
100
AcDbEntity
  8
0
  6
Continuous
 62
     7
100
AcDbLine
 10
300.4838472348
 20
19.8332673383
 30
0.0
 11
300.4838472348
 21
16.7436424342
 31
0.0
  0
LINE
  5
59
330
3A
100
AcDbEntity
  8
0
  6
Continuous
 62
     7
100
AcDbLine
 10
302.9555471581
 20
21.4969115175
 30
0.0
 11
302.9555471581
 21
16.7436424342
 31
0.0
  0
LINE
  5
5A
330
3A
100
AcDbEntity
  8
0
  6
Continuous
 62
     7
100
AcDbLine
 10
302.9555471581
 20
16.7436424342
 30
0.0
 11
306.5204989705
 21
16.7436424342
 31
0.0
  0
LINE
  5
5B
330
3A
100
AcDbEntity
  8
0
  6
Continuous
 62
     7
100
AcDbLine
 10
306.5204989705
 20
17.64676356
 30
0.0
 11
304.3339951922
 21
17.64676356
 31
0.0
  0
LINE
  5
5C
330
3A
100
AcDbEntity
  8
0
  6
Continuous
 62
     7
100
AcDbLine
 10
306.5204989705
 20
17.64676356
 30
0.0
 11
306.5204989705
 21
16.7436424342
 31
0.0
  0
LINE
  5
5D
330
3A
100
AcDbEntity
  8
0
  6
Continuous
 62
     7
100
AcDbLine
 10
306.4729662797
 20
21.4969115175
 30
0.0
 11
302.9555471581
 21
21.4969115175
 31
0.0
  0
LINE
  5
5E
330
3A
100
AcDbEntity
  8
0
  6
Continuous
 62
     7
100
AcDbLine
 10
306.4729662797
 20
20.6175567371
 30
0.0
 11
304.3339951922
 21
20.6175567371
 31
0.0
  0
LINE
  5
5F
330
3A
100
AcDbEntity
  8
0
  6
Continuous
 62
     7
100
AcDbLine
 10
306.4729662797
 20
21.4969115175
 30
0.0
 11
306.4729662797
 21
20.6175567371
 31
0.0
  0
LINE
  5
60
330
3A
100
AcDbEntity
  8
0
  6
Continuous
 62
     7
100
AcDbLine
 10
306.1877701347
 20
18.7637817946
 30
0.0
 11
304.3339951922
 21
18.7637817946
 31
0.0
  0
LINE
  5
61
330
3A
100
AcDbEntity
  8
0
  6
Continuous
 62
     7
100
AcDbLine
 10
306.1877701347
 20
19.5480711933
 30
0.0
 11
306.1877701347
 21
18.7637817946
 31
0.0
  0
LINE
  5
62
330
3A
100
AcDbEntity
  8
0
  6
Continuous
 62
     7
100
AcDbLine
 10
306.1877701347
 20
19.5480711933
 30
0.0
 11
304.3339951922
 21
19.5480711933
 31
0.0
  0
LINE
  5
63
330
3A
100
AcDbEntity
  8
0
  6
Continuous
 62
     7
100
AcDbLine
 10
304.3339951922
 20
20.6175567371
 30
0.0
 11
304.3339951922
 21
19.5480711933
 31
0.0
  0
LINE
  5
64
330
3A
100
AcDbEntity
  8
0
  6
Continuous
 62
     7
100
AcDbLine
 10
304.3339951922
 20
18.7637817946
 30
0.0
 11
304.3339951922
 21
17.64676356
 31
0.0
  0
LINE
  5
65
330
3A
100
AcDbEntity
  8
0
  6
Continuous
 62
     7
100
AcDbLine
 10
307.3047883693
 20
16.7436424342
 30
0.0
 11
307.3047883693
 21
21.4969115175
 31
0.0
  0
LINE
  5
66
330
3A
100
AcDbEntity
  8
0
  6
Continuous
 62
     7
100
AcDbLine
 10
311.4876651625
 20
21.4969115175
 30
0.0
 11
311.4876651625
 21
16.7436424342
 31
0.0
  0
LINE
  5
67
330
3A
100
AcDbEntity
  8
0
  6
Continuous
 62
     7
100
AcDbLine
 10
307.3047883693
 20
16.7436424342
 30
0.0
 11
308.2554421859
 21
16.7436424342
 31
0.0
  0
LINE
  5
68
330
3A
100
AcDbEntity
  8
0
  6
Continuous
 62
     7
100
AcDbLine
 10
311.4876651625
 20
21.4969115175
 30
0.0
 11
310.5370113459
 21
21.4969115175
 31
0.0
  0
LINE
  5
69
330
3A
100
AcDbEntity
  8
0
  6
Continuous
 62
     7
100
AcDbLine
 10
308.8496008213
 20
21.4969115175
 30
0.0
 11
307.3047883693
 21
21.4969115175
 31
0.0
  0
LINE
  5
6A
330
3A
100
AcDbEntity
  8
0
  6
Continuous
 62
     7
100
AcDbLine
 10
311.4876651625
 20
16.7436424342
 30
0.0
 11
309.9666190559
 21
16.7436424342
 31
0.0
  0
LINE
  5
6B
330
3A
100
AcDbEntity
  8
0
  6
Continuous
 62
     7
100
AcDbLine
 10
309.9666190559
 20
16.7436424342
 30
0.0
 11
308.2554421859
 21
19.7857346475
 31
0.0
  0
LINE
  5
6C
330
3A
100
AcDbEntity
  8
0
  6
Continuous
 62
     7
100
AcDbLine
 10
308.8496008213
 20
21.4969115175
 30
0.0
 11
310.5370113459
 21
18.5498846858
 31
0.0
  0
LINE
  5
6D
330
3A
100
AcDbEntity
  8
0
  6
Continuous
 62
     7
100
AcDbLine
 10
310.5370113459
 20
21.4969115175
 30
0.0
 11
310.5370113459
 21
18.5498846858
 31
0.0
  0
LINE
  5
6E
330
3A
100
AcDbEntity
  8
0
  6
Continuous
 62
     7
100
AcDbLine
 10
308.2554421859
 20
16.7436424342
 30
0.0
 11
308.2554421859
 21
19.7857346475
 31
0.0
  0
LINE
  5
6F
330
3A
100
AcDbEntity
  8
0
  6
Continuous
 62
     7
100
AcDbLine
 10
312.2957209067
 20
16.8387078159
 30
0.0
 11
312.2957209067
 21
17.7893616325
 31
0.0
  0
LINE
  5
70
330
3A
100
AcDbEntity
  8
0
  6
Continuous
 62
     7
100
AcDbLine
 10
315.623009265
 20
20.49872501
 30
0.0
 11
315.623009265
 21
21.4493788266
 31
0.0
  0
ARC
  5
71
330
3A
100
AcDbEntity
  8
0
  6
Continuous
 62
     7
100
AcDbCircle
 10
314.0003620317
 20
18.7008009792
 30
0.0
 40
1.111619360599997
100
AcDbArc
 50
277.7099956934
 51
295.6884927746
  0
ARC
  5
72
330
3A
100
AcDbEntity
  8
0
  6
Continuous
 62
     7
100
AcDbCircle
 10
314.2846720145
 20
17.9759752156
 30
0.0
 40
0.3401689265
100
AcDbArc
 50
305.503221255
 51
72.46528985229999
  0
ARC
  5
73
330
3A
100
AcDbEntity
  8
0
  6
Continuous
 62
     7
100
AcDbCircle
 10
313.7186782063
 20
21.3776821252
 30
0.0
 40
4.756794641099999
100
AcDbArc
 50
252.5939200548001
 51
280.9816604256
  0
ARC
  5
74
330
3A
100
AcDbEntity
  8
0
  6
Continuous
 62
     7
100
AcDbCircle
 10
314.1735135694
 20
18.7596683887
 30
0.0
 40
2.100726595299998
100
AcDbArc
 50
282.405835852
 51
311.8644433928
  0
ARC
  5
75
330
3A
100
AcDbEntity
  8
0
  6
Continuous
 62
     7
100
AcDbCircle
 10
313.8999492223
 20
20.3680101102
 30
0.0
 40
0.3029626476
100
AcDbArc
 50
154.4400348282
 51
221.8201698801
  0
ARC
  5
76
330
3A
100
AcDbEntity
  8
0
  6
Continuous
 62
     7
100
AcDbCircle
 10
313.9791703737
 20
20.2887889588
 30
0.0
 40
0.4103089737
100
AcDbArc
 50
102.8287828681
 51
149.2259639003
  0
ARC
  5
77
330
3A
100
AcDbEntity
  8
0
  6
Continuous
 62
     7
100
AcDbCircle
 10
314.3961972093
 20
18.546453629
 30
0.0
 40
2.201836557
100
AcDbArc
 50
84.0400061857
 51
103.3427657870999
  0
ARC
  5
78
330
3A
100
AcDbEntity
  8
0
  6
Continuous
 62
     7
100
AcDbCircle
 10
314.0552333846
 20
16.1290897051
 30
0.0
 40
4.642373736499997
100
AcDbArc
 50
70.2625858546
 51
82.95241863799999
  0
ARC
  5
79
330
3A
100
AcDbEntity
  8
0
  6
Continuous
 62
     7
100
AcDbCircle
 10
313.5412151824001
 20
20.8007125947
 30
0.0
 40
3.258755990899997
100
AcDbArc
 50
247.5300206145
 51
280.7579522143
  0
ARC
  5
7A
330
3A
100
AcDbEntity
  8
0
  6
Continuous
 62
     7
100
AcDbCircle
 10
307.1562487104
 20
2.5491926343
 30
0.0
 40
17.3316084133
100
AcDbArc
 50
65.34146746500001
 51
67.39977707359999
  0
ARC
  5
7B
330
3A
100
AcDbEntity
  8
0
  6
Continuous
 62
     7
100
AcDbCircle
 10
317.9521111158
 20
28.3416189974
 30
0.0
 40
10.6291642039
100
AcDbArc
 50
242.8620101252001
 51
247.1042029186
  0
ARC
  5
7C
330
3A
100
AcDbEntity
  8
0
  6
Continuous
 62
     7
100
AcDbCircle
 10
314.0972098893
 20
20.8076875004
 30
0.0
 40
2.166291629199998
100
AcDbArc
 50
227.3119280794
 51
242.7040315235
  0
ARC
  5
7D
330
3A
100
AcDbEntity
  8
0
  6
Continuous
 62
     7
100
AcDbCircle
 10
313.4931790796
 20
20.1020098596
 30
0.0
 40
1.238521734
100
AcDbArc
 50
194.7952194236
 51
225.7176549047
  0
ARC
  5
7E
330
3A
100
AcDbEntity
  8
0
  6
Continuous
 62
     7
100
AcDbCircle
 10
313.5553372138
 20
20.1422298287
 30
0.0
 40
1.309092072899999
100
AcDbArc
 50
164.1974860461
 51
195.8025139539
  0
ARC
  5
7F
330
3A
100
AcDbEntity
  8
0
  6
Continuous
 62
     7
100
AcDbCircle
 10
314.1123609345001
 20
19.2539626688
 30
0.0
 40
2.366924815299999
100
AcDbArc
 50
86.22180229280001
 51
120.4272602309
  0
ARC
  5
80
330
3A
100
AcDbEntity
  8
0
  6
Continuous
 62
     7
100
AcDbCircle
 10
313.8435041519
 20
12.5577948477
 30
0.0
 40
9.0679051661
100
AcDbArc
 50
78.68270492259998
 51
87.3147599624
  0
ARC
  5
81
330
3A
100
AcDbEntity
  8
0
  6
Continuous
 62
     7
100
AcDbCircle
 10
313.3874349735
 20
20.2497375912
 30
0.0
 40
1.119747444
100
AcDbArc
 50
142.813917903
 51
167.1522951417
  0
ARC
  5
82
330
3A
100
AcDbEntity
  8
0
  6
Continuous
 62
     7
100
AcDbCircle
 10
313.7327443151
 20
19.9431558946
 30
0.0
 40
1.580546684499998
100
AcDbArc
 50
121.2140948535
 51
141.5254768286
  0
ARC
  5
83
330
3A
100
AcDbEntity
  8
0
  6
Continuous
 62
     7
100
AcDbCircle
 10
314.3099186807
 20
20.7542132232
 30
0.0
 40
0.8661276051999998
100
AcDbArc
 50
222.7760387596
 51
239.0362434679
  0
ARC
  5
84
330
3A
100
AcDbEntity
  8
0
  6
Continuous
 62
     7
100
AcDbCircle
 10
311.8032091024
 20
13.4239410246
 30
0.0
 40
6.858773576299999
100
AcDbArc
 50
59.90202725600001
 51
68.2036481279
  0
ARC
  5
85
330
3A
100
AcDbEntity
  8
0
  6
Continuous
 62
     7
100
AcDbCircle
 10
315.2117035963
 20
22.3498275319
 30
0.0
 40
2.698741017099999
100
AcDbArc
 50
240.0481997804
 51
251.3779673736999
  0
ARC
  5
86
330
3A
100
AcDbEntity
  8
0
  6
Continuous
 62
     7
100
AcDbCircle
 10
314.5462464295
 20
18.1929289165
 30
0.0
 40
1.4334474881
100
AcDbArc
 50
315.8904553224
 51
333.5229264373
  0
ARC
  5
87
330
3A
100
AcDbEntity
  8
0
  6
Continuous
 62
     7
100
AcDbCircle
 10
314.5508846732
 20
18.1395217664
 30
0.0
 40
1.406228711899998
100
AcDbArc
 50
335.3867972702
 51
24.3915119402
  0
ARC
  5
88
330
3A
100
AcDbEntity
  8
0
  6
Continuous
 62
     7
100
AcDbCircle
 10
314.4786797697
 20
18.0616650746
 30
0.0
 40
1.504702514799999
100
AcDbArc
 50
25.95629166050001
 51
59.4834829668
  0
LINE
  5
89
330
3A
100
AcDbEntity
  8
0
  6
Continuous
 62
     7
100
AcDbLine
 10
284.7029938783
 20
16.8387078159
 30
0.0
 11
284.7029938783
 21
17.7893616325
 31
0.0
  0
LINE
  5
8A
330
3A
100
AcDbEntity
  8
0
  6
Continuous
 62
     7
100
AcDbLine
 10
288.0302822366
 20
20.49872501
 30
0.0
 11
288.0302822366
 21
21.4493788266
 31
0.0
  0
ARC
  5
8B
330
3A
100
AcDbEntity
  8
0
  6
Continuous
 62
     7
100
AcDbCircle
 10
286.4076350033
 20
18.7008009792
 30
0.0
 40
1.111619360599997
100
AcDbArc
 50
277.7099956934
 51
295.6884927746
  0
ARC
  5
8C
330
3A
100
AcDbEntity
  8
0
  6
Continuous
 62
     7
100
AcDbCircle
 10
286.691944986
 20
17.9759752156
 30
0.0
 40
0.3401689265
100
AcDbArc
 50
305.5032212556
 51
72.4652898515
  0
ARC
  5
8D
330
3A
100
AcDbEntity
  8
0
  6
Continuous
 62
     7
100
AcDbCircle
 10
286.1259511779
 20
21.3776821252
 30
0.0
 40
4.756794641099999
100
AcDbArc
 50
252.5939200545
 51
280.9816604253
  0
ARC
  5
8E
330
3A
100
AcDbEntity
  8
0
  6
Continuous
 62
     7
100
AcDbCircle
 10
286.580786541
 20
18.7596683887
 30
0.0
 40
2.100726595299998
100
AcDbArc
 50
282.4058358513
 51
311.8644433923
  0
ARC
  5
8F
330
3A
100
AcDbEntity
  8
0
  6
Continuous
 62
     7
100
AcDbCircle
 10
286.3072221939
 20
20.3680101102
 30
0.0
 40
0.3029626476
100
AcDbArc
 50
154.4400348282
 51
221.8201698801
  0
ARC
  5
90
330
3A
100
AcDbEntity
  8
0
  6
Continuous
 62
     7
100
AcDbCircle
 10
286.3864433453
 20
20.2887889588
 30
0.0
 40
0.4103089737
100
AcDbArc
 50
102.8287828727
 51
149.2259639027
  0
ARC
  5
91
330
3A
100
AcDbEntity
  8
0
  6
Continuous
 62
     7
100
AcDbCircle
 10
286.8034701809
 20
18.546453629
 30
0.0
 40
2.201836557
100
AcDbArc
 50
84.0400061859
 51
103.3427657872
  0
ARC
  5
92
330
3A
100
AcDbEntity
  8
0
  6
Continuous
 62
     7
100
AcDbCircle
 10
286.4625063562
 20
16.1290897051
 30
0.0
 40
4.642373736499997
100
AcDbArc
 50
70.2625858546
 51
82.9524186379
  0
ARC
  5
93
330
3A
100
AcDbEntity
  8
0
  6
Continuous
 62
     7
100
AcDbCircle
 10
285.948488154
 20
20.8007125947
 30
0.0
 40
3.258755990899997
100
AcDbArc
 50
247.5300206148
 51
280.7579522145
  0
ARC
  5
94
330
3A
100
AcDbEntity
  8
0
  6
Continuous
 62
     7
100
AcDbCircle
 10
279.563521682
 20
2.5491926343
 30
0.0
 40
17.3316084133
100
AcDbArc
 50
65.34146746500001
 51
67.39977707359999
  0
ARC
  5
95
330
3A
100
AcDbEntity
  8
0
  6
Continuous
 62
     7
100
AcDbCircle
 10
290.3593840874
 20
28.3416189974
 30
0.0
 40
10.6291642039
100
AcDbArc
 50
242.8620101252001
 51
247.1042029185
  0
ARC
  5
96
330
3A
100
AcDbEntity
  8
0
  6
Continuous
 62
     7
100
AcDbCircle
 10
286.5044828608
 20
20.8076875004
 30
0.0
 40
2.166291629199998
100
AcDbArc
 50
227.3119280794
 51
242.7040315235
  0
ARC
  5
97
330
3A
100
AcDbEntity
  8
0
  6
Continuous
 62
     7
100
AcDbCircle
 10
285.9004520512
 20
20.1020098596
 30
0.0
 40
1.238521734
100
AcDbArc
 50
194.7952194234
 51
225.7176549042
  0
ARC
  5
98
330
3A
100
AcDbEntity
  8
0
  6
Continuous
 62
     7
100
AcDbCircle
 10
286.519633906
 20
19.2539626688
 30
0.0
 40
2.366924815299999
100
AcDbArc
 50
86.22180229280001
 51
120.4272602309
  0
ARC
  5
99
330
3A
100
AcDbEntity
  8
0
  6
Continuous
 62
     7
100
AcDbCircle
 10
286.2507771235
 20
12.5577948477
 30
0.0
 40
9.0679051661
100
AcDbArc
 50
78.68270492259998
 51
87.3147599624
  0
ARC
  5
9A
330
3A
100
AcDbEntity
  8
0
  6
Continuous
 62
     7
100
AcDbCircle
 10
286.1400172867
 20
19.9431558946
 30
0.0
 40
1.580546684599998
100
AcDbArc
 50
121.2140948541
 51
141.525476829
  0
ARC
  5
9B
330
3A
100
AcDbEntity
  8
0
  6
Continuous
 62
     7
100
AcDbCircle
 10
286.7171916523
 20
20.7542132232
 30
0.0
 40
0.8661276051999998
100
AcDbArc
 50
222.7760387596
 51
239.0362434679
  0
ARC
  5
9C
330
3A
100
AcDbEntity
  8
0
  6
Continuous
 62
     7
100
AcDbCircle
 10
284.210482074
 20
13.4239410246
 30
0.0
 40
6.858773576299999
100
AcDbArc
 50
59.90202725620001
 51
68.20364812820002
  0
ARC
  5
9D
330
3A
100
AcDbEntity
  8
0
  6
Continuous
 62
     7
100
AcDbCircle
 10
287.6189765678
 20
22.3498275319
 30
0.0
 40
2.698741017099999
100
AcDbArc
 50
240.0481997804
 51
251.3779673734
  0
ARC
  5
9E
330
3A
100
AcDbEntity
  8
0
  6
Continuous
 62
     7
100
AcDbCircle
 10
286.953519401
 20
18.1929289165
 30
0.0
 40
1.4334474881
100
AcDbArc
 50
315.8904553226
 51
333.5229264375
  0
ARC
  5
9F
330
3A
100
AcDbEntity
  8
0
  6
Continuous
 62
     7
100
AcDbCircle
 10
286.9581576447
 20
18.1395217664
 30
0.0
 40
1.406228711899998
100
AcDbArc
 50
335.3867972703
 51
24.3915119403
  0
ARC
  5
A0
330
3A
100
AcDbEntity
  8
0
  6
Continuous
 62
     7
100
AcDbCircle
 10
286.8859527412
 20
18.0616650746
 30
0.0
 40
1.504702514699999
100
AcDbArc
 50
25.9562916611
 51
59.4834829676
  0
LINE
  5
A1
330
3A
100
AcDbEntity
  8
0
  6
Continuous
 62
     7
100
AcDbLine
 10
284.8948224676
 20
20.9161059766
 30
0.0
 11
285.1688882922
 21
21.1901790542
 31
0.0
  0
ARC
  5
A2
330
3A
100
AcDbEntity
  8
0
  6
Continuous
 62
     7
100
AcDbCircle
 10
285.9626101853
 20
20.1422298287
 30
0.0
 40
1.309092072899999
100
AcDbArc
 50
164.1974860461
 51
195.8025139539
  0
ARC
  5
A3
330
3A
100
AcDbEntity
  8
0
  6
Continuous
 62
     7
100
AcDbCircle
 10
285.7947079451
 20
20.2497375912
 30
0.0
 40
1.119747444
100
AcDbArc
 50
142.813917903
 51
167.1522951417
  0
ENDBLK
  5
A4
330
3A
100
AcDbEntity
  8
0
100
AcDbBlockEnd
  0
BLOCK
  5
C38D
330
C383
100
AcDbEntity
  8
0
100
AcDbBlockBegin
  2
*D1
 70
     1
 10
0.0
 20
0.0
 30
0.0
  3
*D1
  1

  0
LINE
  5
C7E8
330
C383
100
AcDbEntity
  8
10100_FRONT_DIM
  6
Continuous
 62
     7
370
    -2
100
AcDbLine
 10
-20.44903916656693
 20
629.4048577111087
 30
0.0
 11
-41.63621216656694
 21
629.4048577111087
 31
0.0
  0
LINE
  5
C7E9
330
C383
100
AcDbEntity
  8
10100_FRONT_DIM
  6
Continuous
 62
     7
370
    -2
100
AcDbLine
 10
-20.44903916656693
 20
695.4048577111087
 30
0.0
 11
-41.63621216656692
 21
695.4048577111087
 31
0.0
  0
LINE
  5
C7EA
330
C383
100
AcDbEntity
  8
10100_FRONT_DIM
  6
Continuous
370
    -2
100
AcDbLine
 10
-39.63621216656694
 20
632.9048577111088
 30
0.0
 11
-39.63621216656694
 21
657.9881910444422
 31
0.0
  0
LINE
  5
C7EB
330
C383
100
AcDbEntity
  8
10100_FRONT_DIM
  6
Continuous
370
    -2
100
AcDbLine
 10
-39.63621216656693
 20
691.9048577111087
 30
0.0
 11
-39.63621216656694
 21
666.8215243777755
 31
0.0
  0
MTEXT
  5
C7EC
330
C383
100
AcDbEntity
  8
10100_FRONT_DIM
  6
Continuous
 62
     7
370
    13
100
AcDbMText
 10
-39.49809427494268
 20
662.4048577111087
 30
0.0
 40
3.5
 41
0.0
 71
     5
 72
     1
  1
\A1;66
 11
0.0000000000000001
 21
1.0
 31
0.0
 73
     1
 44
1.0
1001
ACAD
1000
MTEXTBEGIN
1070
    73
1070
     1
1070
    44
1040
1.0
1070
    74
1070
     0
1000
MTEXTEND
  0
SOLID
  5
C7ED
330
C383
100
AcDbEntity
  8
10100_FRONT_DIM
  6
Continuous
100
AcDbTrace
 10
-40.21954549990027
 20
632.9048577111088
 30
0.0
 11
-39.0528788332336
 21
632.9048577111088
 31
0.0
 12
-39.63621216656694
 22
629.4048577111087
 32
0.0
 13
-39.63621216656694
 23
629.4048577111087
 33
0.0
  0
SOLID
  5
C7EE
330
C383
100
AcDbEntity
  8
10100_FRONT_DIM
  6
Continuous
100
AcDbTrace
 10
-40.21954549990026
 20
691.9048577111087
 30
0.0
 11
-39.05287883323359
 21
691.9048577111087
 31
0.0
 12
-39.63621216656693
 22
695.4048577111087
 32
0.0
 13
-39.63621216656693
 23
695.4048577111087
 33
0.0
  0
POINT
  5
C7EF
330
C383
100
AcDbEntity
  8
Defpoints
  6
Continuous
 62
     0
100
AcDbPoint
 10
-20.44903916656693
 20
629.4048577111087
 30
0.0
  0
POINT
  5
C7F0
330
C383
100
AcDbEntity
  8
Defpoints
  6
Continuous
 62
     0
100
AcDbPoint
 10
-20.44903916656693
 20
695.4048577111087
 30
0.0
  0
POINT
  5
C7F1
330
C383
100
AcDbEntity
  8
Defpoints
  6
Continuous
 62
     0
100
AcDbPoint
 10
-39.63621216656693
 20
695.4048577111087
 30
0.0
  0
ENDBLK
  5
C38E
330
C383
100
AcDbEntity
  8
0
100
AcDbBlockEnd
  0
BLOCK
  5
C399
330
C38F
100
AcDbEntity
  8
0
100
AcDbBlockBegin
  2
*D2
 70
     1
 10
0.0
 20
0.0
 30
0.0
  3
*D2
  1

  0
LINE
  5
C7DE
330
C38F
100
AcDbEntity
  8
10100_FRONT_DIM
  6
Continuous
 62
     7
370
    -2
100
AcDbLine
 10
42.55095783343306
 20
692.4048577111086
 30
0.0
 11
42.55095783343306
 21
718.8036677111085
 31
0.0
  0
LINE
  5
C7DF
330
C38F
100
AcDbEntity
  8
10100_FRONT_DIM
  6
Continuous
 62
     7
370
    -2
100
AcDbLine
 10
-23.44903916656693
 20
692.4048577111086
 30
0.0
 11
-23.44903916656693
 21
718.8036677111085
 31
0.0
  0
LINE
  5
C7E0
330
C38F
100
AcDbEntity
  8
10100_FRONT_DIM
  6
Continuous
370
    -2
100
AcDbLine
 10
39.05095783343308
 20
716.8036677111087
 30
0.0
 11
13.96762750009973
 21
716.8036677111087
 31
0.0
  0
LINE
  5
C7E1
330
C38F
100
AcDbEntity
  8
10100_FRONT_DIM
  6
Continuous
370
    -2
100
AcDbLine
 10
-19.94903916656692
 20
716.8036677111087
 30
0.0
 11
5.1342941667664
 21
716.8036677111087
 31
0.0
  0
MTEXT
  5
C7E2
330
C38F
100
AcDbEntity
  8
10100_FRONT_DIM
  6
Continuous
 62
     7
370
    13
100
AcDbMText
 10
9.550960833433066
 20
716.703126189553
 30
0.0
 40
3.5
 41
0.0
 71
     5
 72
     1
  1
\A1;66
 73
     1
 44
1.0
1001
ACAD
1000
MTEXTBEGIN
1070
    73
1070
     1
1070
    44
1040
1.0
1070
    74
1070
     0
1000
MTEXTEND
  0
SOLID
  5
C7E3
330
C38F
100
AcDbEntity
  8
10100_FRONT_DIM
  6
Continuous
100
AcDbTrace
 10
39.05095783343308
 20
717.3870010444423
 30
0.0
 11
39.05095783343308
 21
716.2203343777755
 31
0.0
 12
42.55095783343306
 22
716.8036677111087
 32
0.0
 13
42.55095783343306
 23
716.8036677111087
 33
0.0
  0
SOLID
  5
C7E4
330
C38F
100
AcDbEntity
  8
10100_FRONT_DIM
  6
Continuous
100
AcDbTrace
 10
-19.94903916656692
 20
717.3870010444423
 30
0.0
 11
-19.94903916656692
 21
716.2203343777755
 31
0.0
 12
-23.44903916656693
 22
716.8036677111087
 32
0.0
 13
-23.44903916656693
 23
716.8036677111087
 33
0.0
  0
POINT
  5
C7E5
330
C38F
100
AcDbEntity
  8
Defpoints
  6
Continuous
 62
     0
100
AcDbPoint
 10
42.55095783343306
 20
692.4048577111086
 30
0.0
  0
POINT
  5
C7E6
330
C38F
100
AcDbEntity
  8
Defpoints
  6
Continuous
 62
     0
100
AcDbPoint
 10
-23.44903916656693
 20
692.4048577111086
 30
0.0
  0
POINT
  5
C7E7
330
C38F
100
AcDbEntity
  8
Defpoints
  6
Continuous
 62
     0
100
AcDbPoint
 10
-23.44903916656693
 20
716.8036677111087
 30
0.0
  0
ENDBLK
  5
C39A
330
C38F
100
AcDbEntity
  8
0
100
AcDbBlockEnd
  0
BLOCK
  5
C3A5
330
C39B
100
AcDbEntity
  8
0
100
AcDbBlockBegin
  2
*D3
 70
     1
 10
0.0
 20
0.0
 30
0.0
  3
*D3
  1

  0
LINE
  5
C90E
330
C39B
100
AcDbEntity
  8
14100_Bottom_Dim
  6
Continuous
 62
     7
370
    -2
100
AcDbLine
 10
242.6268478334331
 20
706.4048577111089
 30
0.0
 11
242.6268478334331
 21
718.8036677111085
 31
0.0
  0
LINE
  5
C90F
330
C39B
100
AcDbEntity
  8
14100_Bottom_Dim
  6
Continuous
 62
     7
370
    -2
100
AcDbLine
 10
287.826837833433
 20
706.4048577111089
 30
0.0
 11
287.826837833433
 21
718.8036677111085
 31
0.0
  0
LINE
  5
C910
330
C39B
100
AcDbEntity
  8
14100_Bottom_Dim
  6
Continuous
370
    -2
100
AcDbLine
 10
246.1268478334331
 20
716.8036677111087
 30
0.0
 11
259.959382550896
 21
716.8036677111087
 31
0.0
  0
LINE
  5
C911
330
C39B
100
AcDbEntity
  8
14100_Bottom_Dim
  6
Continuous
370
    -2
100
AcDbLine
 10
284.3268378334331
 20
716.8036677111087
 30
0.0
 11
268.7927158842294
 21
716.8036677111087
 31
0.0
  0
MTEXT
  5
C912
330
C39B
100
AcDbEntity
  8
14100_Bottom_Dim
  6
Continuous
 62
     7
370
    13
100
AcDbMText
 10
264.3760492175627
 20
716.8036677111087
 30
0.0
 40
3.5
 41
0.0
 71
     5
 72
     1
  1
\A1;45
 73
     1
 44
1.0
1001
ACAD
1000
MTEXTBEGIN
1070
    73
1070
     1
1070
    44
1040
1.0
1070
    74
1070
     0
1000
MTEXTEND
  0
SOLID
  5
C913
330
C39B
100
AcDbEntity
  8
14100_Bottom_Dim
  6
Continuous
100
AcDbTrace
 10
246.1268478334331
 20
717.3870010444423
 30
0.0
 11
246.1268478334331
 21
716.2203343777755
 31
0.0
 12
242.6268478334331
 22
716.8036677111087
 32
0.0
 13
242.6268478334331
 23
716.8036677111087
 33
0.0
  0
SOLID
  5
C914
330
C39B
100
AcDbEntity
  8
14100_Bottom_Dim
  6
Continuous
100
AcDbTrace
 10
284.3268378334331
 20
717.3870010444423
 30
0.0
 11
284.3268378334331
 21
716.2203343777755
 31
0.0
 12
287.826837833433
 22
716.8036677111087
 32
0.0
 13
287.826837833433
 23
716.8036677111087
 33
0.0
  0
POINT
  5
C915
330
C39B
100
AcDbEntity
  8
Defpoints
  6
Continuous
 62
     0
100
AcDbPoint
 10
242.6268478334331
 20
706.4048577111089
 30
0.0
  0
POINT
  5
C916
330
C39B
100
AcDbEntity
  8
Defpoints
  6
Continuous
 62
     0
100
AcDbPoint
 10
287.826837833433
 20
706.4048577111089
 30
0.0
  0
POINT
  5
C917
330
C39B
100
AcDbEntity
  8
Defpoints
  6
Continuous
 62
     0
100
AcDbPoint
 10
287.826837833433
 20
716.8036677111087
 30
0.0
  0
ENDBLK
  5
C3A6
330
C39B
100
AcDbEntity
  8
0
100
AcDbBlockEnd
  0
BLOCK
  5
C863
330
C85A
100
AcDbEntity
  8
0
100
AcDbBlockBegin
  2
*D4
 70
     1
 10
0.0
 20
0.0
 30
0.0
  3
*D4
  1

  0
LINE
  5
CDE0
330
C85A
100
AcDbEntity
  8
30100_Drilling_DIM
  6
Continuous
 62
     0
370
    -2
100
AcDbLine
 10
42.53599218154739
 20
530.1204980807434
 30
0.0
 11
38.85146530113565
 21
529.612062792907
 31
0.0
  0
LINE
  5
CDE1
330
C85A
100
AcDbEntity
  8
30100_Drilling_DIM
  6
Continuous
 62
     0
370
    -2
100
AcDbLine
 10
27.45941636573092
 20
528.0400510075373
 30
0.0
 11
23.99227103756422
 21
527.5616126380769
 31
0.0
  0
MTEXT
  5
CDE2
330
C85A
100
AcDbEntity
  8
30100_Drilling_DIM
  6
Continuous
 62
     0
370
    13
100
AcDbMText
 10
49.01625190204942
 20
531.0147221760444
 30
0.0
 40
3.5
 41
0.0
 71
     5
 72
     1
  1
\A1;\U+22054,5
 11
0.9906129509047682
 21
0.1366966769886793
 31
0.0
 73
     1
 44
1.0
1001
ACAD
1000
MTEXTBEGIN
1070
    73
1070
     1
1070
    44
1040
1.0
1070
    74
1070
     0
1000
MTEXTEND
  0
LINE
  5
CDE3
330
C85A
100
AcDbEntity
  8
30100_Drilling_DIM
  6
Continuous
 62
     0
370
    -2
100
AcDbLine
 10
30.9265616938976
 20
528.5184893769976
 30
0.0
 11
35.38431997296897
 21
529.1336244234466
 31
0.0
  0
SOLID
  5
CDE4
330
C85A
100
AcDbEntity
  8
30100_Drilling_DIM
  6
Continuous
 62
     0
100
AcDbTrace
 10
27.37967663748752
 20
528.6179085622318
 30
0.0
 11
27.53915609397431
 21
527.4621934528428
 31
0.0
 12
30.9265616938976
 22
528.5184893769976
 32
0.0
 13
30.9265616938976
 23
528.5184893769976
 33
0.0
  0
SOLID
  5
CDE5
330
C85A
100
AcDbEntity
  8
30100_Drilling_DIM
  6
Continuous
 62
     0
100
AcDbTrace
 10
38.77172557289225
 20
530.1899203476016
 30
0.0
 11
38.93120502937904
 21
529.0342052382126
 31
0.0
 12
35.38431997296897
 22
529.1336244234466
 32
0.0
 13
35.38431997296897
 23
529.1336244234466
 33
0.0
  0
POINT
  5
CDE6
330
C85A
100
AcDbEntity
  8
Defpoints
  6
Continuous
 62
     0
100
AcDbPoint
 10
35.38431997296897
 20
529.1336244234466
 30
0.0
  0
POINT
  5
CDE7
330
C85A
100
AcDbEntity
  8
Defpoints
  6
Continuous
 62
     0
100
AcDbPoint
 10
30.9265616938976
 20
528.5184893769976
 30
0.0
  0
ENDBLK
  5
C864
330
C85A
100
AcDbEntity
  8
0
100
AcDbBlockEnd
  0
BLOCK
  5
C87B
330
C870
100
AcDbEntity
  8
0
100
AcDbBlockBegin
  2
*D5
 70
     1
 10
0.0
 20
0.0
 30
0.0
  3
*D5
  1

  0
LINE
  5
C8B9
330
C870
100
AcDbEntity
  8
30100_Drilling_DIM
  6
Continuous
 62
     0
370
    -2
100
AcDbLine
 10
-18.09455916656672
 20
576.8260569002222
 30
0.0
 11
-25.23179954170342
 21
576.8260569002222
 31
0.0
  0
LINE
  5
C8BA
330
C870
100
AcDbEntity
  8
30100_Drilling_DIM
  6
Continuous
 62
     0
370
    -2
100
AcDbLine
 10
-18.09455916656672
 20
528.8260569002225
 30
0.0
 11
-25.23179954170343
 21
528.8260569002225
 31
0.0
  0
LINE
  5
C8BB
330
C870
100
AcDbEntity
  8
30100_Drilling_DIM
  6
Continuous
 62
     0
370
    -2
100
AcDbLine
 10
-24.23179954170342
 20
573.3260569002224
 30
0.0
 11
-24.23179954170342
 21
556.7427235668891
 31
0.0
  0
LINE
  5
C8BC
330
C870
100
AcDbEntity
  8
30100_Drilling_DIM
  6
Continuous
 62
     0
370
    -2
100
AcDbLine
 10
-24.23179954170342
 20
532.3260569002226
 30
0.0
 11
-24.23179954170342
 21
548.9093902335558
 31
0.0
  0
SOLID
  5
C8BD
330
C870
100
AcDbEntity
  8
30100_Drilling_DIM
  6
Continuous
 62
     0
100
AcDbTrace
 10
-24.81513287503675
 20
573.3260569002224
 30
0.0
 11
-23.64846620837008
 21
573.3260569002224
 31
0.0
 12
-24.23179954170342
 22
576.8260569002222
 32
0.0
 13
-24.23179954170342
 23
576.8260569002222
 33
0.0
  0
SOLID
  5
C8BE
330
C870
100
AcDbEntity
  8
30100_Drilling_DIM
  6
Continuous
 62
     0
100
AcDbTrace
 10
-24.81513287503676
 20
532.3260569002226
 30
0.0
 11
-23.64846620837009
 21
532.3260569002226
 31
0.0
 12
-24.23179954170342
 22
528.8260569002225
 32
0.0
 13
-24.23179954170342
 23
528.8260569002225
 33
0.0
  0
MTEXT
  5
C8BF
330
C870
100
AcDbEntity
  8
30100_Drilling_DIM
  6
Continuous
 62
     0
370
    13
100
AcDbMText
 10
-24.23179954170351
 20
552.8260569002225
 30
0.0
 40
3.5
 41
0.0
 71
     5
 72
     1
  1
\A1;48
 11
0.0000000000000001
 21
1.0
 31
0.0
 73
     1
 44
1.0
1001
ACAD
1000
MTEXTBEGIN
1070
    73
1070
     1
1070
    44
1040
1.0
1070
    74
1070
     0
1000
MTEXTEND
  0
POINT
  5
C8C0
330
C870
100
AcDbEntity
  8
Defpoints
  6
Continuous
 62
     0
100
AcDbPoint
 10
-17.09455916656672
 20
576.8260569002222
 30
0.0
  0
POINT
  5
C8C1
330
C870
100
AcDbEntity
  8
Defpoints
  6
Continuous
 62
     0
100
AcDbPoint
 10
-17.09455916656672
 20
528.8260569002225
 30
0.0
  0
POINT
  5
C8C2
330
C870
100
AcDbEntity
  8
Defpoints
  6
Continuous
 62
     0
100
AcDbPoint
 10
-24.23179954170342
 20
528.8260569002225
 30
0.0
  0
ENDBLK
  5
C87C
330
C870
100
AcDbEntity
  8
0
100
AcDbBlockEnd
  0
BLOCK
  5
C888
330
C87D
100
AcDbEntity
  8
0
100
AcDbBlockBegin
  2
*D6
 70
     1
 10
0.0
 20
0.0
 30
0.0
  3
*D6
  1

  0
LINE
  5
C8AF
330
C87D
100
AcDbEntity
  8
30100_Drilling_DIM
  6
Continuous
 62
     0
370
    -2
100
AcDbLine
 10
-14.84455916656672
 20
580.0760569002224
 30
0.0
 11
-14.84455916656672
 21
585.9902029662805
 31
0.0
  0
LINE
  5
C8B0
330
C87D
100
AcDbEntity
  8
30100_Drilling_DIM
  6
Continuous
 62
     0
370
    -2
100
AcDbLine
 10
33.15544083343328
 20
580.0760569002224
 30
0.0
 11
33.15544083343328
 21
585.9902029662805
 31
0.0
  0
LINE
  5
C8B1
330
C87D
100
AcDbEntity
  8
30100_Drilling_DIM
  6
Continuous
 62
     0
370
    -2
100
AcDbLine
 10
-11.34455916656672
 20
584.9902029662805
 30
0.0
 11
5.238774166766608
 21
584.9902029662805
 31
0.0
  0
LINE
  5
C8B2
330
C87D
100
AcDbEntity
  8
30100_Drilling_DIM
  6
Continuous
 62
     0
370
    -2
100
AcDbLine
 10
29.65544083343328
 20
584.9902029662805
 30
0.0
 11
13.07210750009994
 21
584.9902029662805
 31
0.0
  0
SOLID
  5
C8B3
330
C87D
100
AcDbEntity
  8
30100_Drilling_DIM
  6
Continuous
 62
     0
100
AcDbTrace
 10
-11.34455916656672
 20
585.573536299614
 30
0.0
 11
-11.34455916656672
 21
584.4068696329473
 31
0.0
 12
-14.84455916656672
 22
584.9902029662805
 32
0.0
 13
-14.84455916656672
 23
584.9902029662805
 33
0.0
  0
SOLID
  5
C8B4
330
C87D
100
AcDbEntity
  8
30100_Drilling_DIM
  6
Continuous
 62
     0
100
AcDbTrace
 10
29.65544083343328
 20
585.573536299614
 30
0.0
 11
29.65544083343328
 21
584.4068696329473
 31
0.0
 12
33.15544083343328
 22
584.9902029662805
 32
0.0
 13
33.15544083343328
 23
584.9902029662805
 33
0.0
  0
MTEXT
  5
C8B5
330
C87D
100
AcDbEntity
  8
30100_Drilling_DIM
  6
Continuous
 62
     0
370
    13
100
AcDbMText
 10
9.155440833433274
 20
584.9902029662805
 30
0.0
 40
3.5
 41
0.0
 71
     5
 72
     1
  1
\A1;48
 73
     1
 44
1.0
1001
ACAD
1000
MTEXTBEGIN
1070
    73
1070
     1
1070
    44
1040
1.0
1070
    74
1070
     0
1000
MTEXTEND
  0
POINT
  5
C8B6
330
C87D
100
AcDbEntity
  8
Defpoints
  6
Continuous
 62
     0
100
AcDbPoint
 10
-14.84455916656672
 20
579.0760569002222
 30
0.0
  0
POINT
  5
C8B7
330
C87D
100
AcDbEntity
  8
Defpoints
  6
Continuous
 62
     0
100
AcDbPoint
 10
33.15544083343328
 20
579.0760569002222
 30
0.0
  0
POINT
  5
C8B8
330
C87D
100
AcDbEntity
  8
Defpoints
  6
Continuous
 62
     0
100
AcDbPoint
 10
33.15544083343328
 20
584.9902029662805
 30
0.0
  0
ENDBLK
  5
C889
330
C87D
100
AcDbEntity
  8
0
100
AcDbBlockEnd
  0
BLOCK
  5
CCD4
330
CCC9
100
AcDbEntity
  8
0
100
AcDbBlockBegin
  2
*D7
 70
     1
 10
0.0
 20
0.0
 30
0.0
  3
*D7
  1

  0
LINE
  5
CDBD
330
CCC9
100
AcDbEntity
  8
11100_LEFT_DIM
  6
Continuous
 62
     7
370
    -2
100
AcDbLine
 10
172.5127860517637
 20
714.2673064953825
 30
0.0
 11
172.5127860517637
 21
718.6036677111085
 31
0.0
  0
LINE
  5
CDBE
330
CCC9
100
AcDbEntity
  8
11100_LEFT_DIM
  6
Continuous
 62
     7
370
    -2
100
AcDbLine
 10
208.7127860517638
 20
668.2048577111087
 30
0.0
 11
208.7127860517638
 21
718.6036677111085
 31
0.0
  0
LINE
  5
CDBF
330
CCC9
100
AcDbEntity
  8
11100_LEFT_DIM
  6
Continuous
370
    -2
100
AcDbLine
 10
176.0127860517637
 20
716.6036677111085
 30
0.0
 11
186.1961193850971
 21
716.6036677111085
 31
0.0
  0
LINE
  5
CDC0
330
CCC9
100
AcDbEntity
  8
11100_LEFT_DIM
  6
Continuous
370
    -2
100
AcDbLine
 10
205.2127860517638
 20
716.6036677111085
 30
0.0
 11
195.0294527184304
 21
716.6036677111085
 31
0.0
  0
MTEXT
  5
CDC1
330
CCC9
100
AcDbEntity
  8
11100_LEFT_DIM
  6
Continuous
 62
     7
370
    13
100
AcDbMText
 10
190.6127860517638
 20
716.4213259049403
 30
0.0
 40
3.5
 41
0.0
 71
     5
 72
     1
  1
\A1;36
 73
     1
 44
1.0
1001
ACAD
1000
MTEXTBEGIN
1070
    73
1070
     1
1070
    44
1040
1.0
1070
    74
1070
     0
1000
MTEXTEND
  0
SOLID
  5
CDC2
330
CCC9
100
AcDbEntity
  8
11100_LEFT_DIM
  6
Continuous
100
AcDbTrace
 10
176.0127860517637
 20
717.187001044442
 30
0.0
 11
176.0127860517637
 21
716.0203343777753
 31
0.0
 12
172.5127860517637
 22
716.6036677111085
 32
0.0
 13
172.5127860517637
 23
716.6036677111085
 33
0.0
  0
SOLID
  5
CDC3
330
CCC9
100
AcDbEntity
  8
11100_LEFT_DIM
  6
Continuous
100
AcDbTrace
 10
205.2127860517638
 20
717.187001044442
 30
0.0
 11
205.2127860517638
 21
716.0203343777753
 31
0.0
 12
208.7127860517638
 22
716.6036677111085
 32
0.0
 13
208.7127860517638
 23
716.6036677111085
 33
0.0
  0
POINT
  5
CDC4
330
CCC9
100
AcDbEntity
  8
Defpoints
  6
Continuous
 62
     0
100
AcDbPoint
 10
172.5127860517637
 20
714.2673064953825
 30
0.0
  0
POINT
  5
CDC5
330
CCC9
100
AcDbEntity
  8
Defpoints
  6
Continuous
 62
     0
100
AcDbPoint
 10
208.7127860517638
 20
668.2048577111087
 30
0.0
  0
POINT
  5
CDC6
330
CCC9
100
AcDbEntity
  8
Defpoints
  6
Continuous
 62
     0
100
AcDbPoint
 10
208.7127860517638
 20
716.6036677111085
 30
0.0
  0
ENDBLK
  5
CCD5
330
CCC9
100
AcDbEntity
  8
0
100
AcDbBlockEnd
  0
BLOCK
  5
CD0B
330
CD01
100
AcDbEntity
  8
0
100
AcDbBlockBegin
  2
*D8
 70
     1
 10
0.0
 20
0.0
 30
0.0
  3
*D8
  1

  0
LINE
  5
CDB3
330
CD01
100
AcDbEntity
  8
11100_LEFT_DIM
  6
Continuous
 62
     7
370
    -2
100
AcDbLine
 10
96.51278605176372
 20
677.9048577111088
 30
0.0
 11
96.51278605176372
 21
718.4301566437633
 31
0.0
  0
LINE
  5
CDB4
330
CD01
100
AcDbEntity
  8
11100_LEFT_DIM
  6
Continuous
 62
     7
370
    -2
100
AcDbLine
 10
170.5127860517637
 20
714.4301566437633
 30
0.0
 11
170.5127860517637
 21
718.4301566437633
 31
0.0
  0
LINE
  5
CDB5
330
CD01
100
AcDbEntity
  8
11100_LEFT_DIM
  6
Continuous
370
    -2
100
AcDbLine
 10
100.0127860517637
 20
716.4301566437633
 30
0.0
 11
129.096119385097
 21
716.4301566437633
 31
0.0
  0
LINE
  5
CDB6
330
CD01
100
AcDbEntity
  8
11100_LEFT_DIM
  6
Continuous
370
    -2
100
AcDbLine
 10
167.0127860517637
 20
716.4301566437633
 30
0.0
 11
137.9294527184304
 21
716.4301566437633
 31
0.0
  0
SOLID
  5
CDB7
330
CD01
100
AcDbEntity
  8
11100_LEFT_DIM
  6
Continuous
100
AcDbTrace
 10
100.0127860517637
 20
717.0134899770967
 30
0.0
 11
100.0127860517637
 21
715.8468233104298
 31
0.0
 12
96.51278605176372
 22
716.4301566437633
 32
0.0
 13
96.51278605176372
 23
716.4301566437633
 33
0.0
  0
SOLID
  5
CDB8
330
CD01
100
AcDbEntity
  8
11100_LEFT_DIM
  6
Continuous
100
AcDbTrace
 10
167.0127860517637
 20
717.0134899770967
 30
0.0
 11
167.0127860517637
 21
715.8468233104298
 31
0.0
 12
170.5127860517637
 22
716.4301566437633
 32
0.0
 13
170.5127860517637
 23
716.4301566437633
 33
0.0
  0
MTEXT
  5
CDB9
330
CD01
100
AcDbEntity
  8
11100_LEFT_DIM
  6
Continuous
 62
     7
370
    13
100
AcDbMText
 10
133.5127860517637
 20
716.4301566437633
 30
0.0
 40
3.5
 41
0.0
 71
     5
 72
     1
  1
\A1;74
 73
     1
 44
1.0
1001
ACAD
1000
MTEXTBEGIN
1070
    73
1070
     1
1070
    44
1040
1.0
1070
    74
1070
     0
1000
MTEXTEND
  0
POINT
  5
CDBA
330
CD01
100
AcDbEntity
  8
Defpoints
  6
Continuous
 62
     0
100
AcDbPoint
 10
96.51278605176372
 20
677.9048577111088
 30
0.0
  0
POINT
  5
CDBB
330
CD01
100
AcDbEntity
  8
Defpoints
  6
Continuous
 62
     0
100
AcDbPoint
 10
170.5127860517637
 20
714.4301566437633
 30
0.0
  0
POINT
  5
CDBC
330
CD01
100
AcDbEntity
  8
Defpoints
  6
Continuous
 62
     0
100
AcDbPoint
 10
170.5127860517637
 20
716.4301566437633
 30
0.0
  0
ENDBLK
  5
CD0C
330
CD01
100
AcDbEntity
  8
0
100
AcDbBlockEnd
  0
BLOCK
  5
CD18
330
CD0E
100
AcDbEntity
  8
0
100
AcDbBlockBegin
  2
*D9
 70
     1
 10
0.0
 20
0.0
 30
0.0
  3
*D9
  1

  0
LINE
  5
CDA9
330
CD0E
100
AcDbEntity
  8
11100_LEFT_DIM
  6
Continuous
 62
     7
370
    -2
100
AcDbLine
 10
113.4362260517637
 20
689.9379877111085
 30
0.0
 11
78.0000593150914
 21
689.9379877111085
 31
0.0
  0
LINE
  5
CDAA
330
CD0E
100
AcDbEntity
  8
11100_LEFT_DIM
  6
Continuous
 62
     7
370
    -2
100
AcDbLine
 10
113.5127860517637
 20
634.9048577111087
 30
0.0
 11
78.00005931509139
 21
634.9048577111087
 31
0.0
  0
LINE
  5
CDAB
330
CD0E
100
AcDbEntity
  8
11100_LEFT_DIM
  6
Continuous
370
    -2
100
AcDbLine
 10
80.00005931509141
 20
686.4379877111084
 30
0.0
 11
80.00005931509139
 21
666.8380893777753
 31
0.0
  0
LINE
  5
CDAC
330
CD0E
100
AcDbEntity
  8
11100_LEFT_DIM
  6
Continuous
370
    -2
100
AcDbLine
 10
80.00005931509139
 20
638.4048577111087
 30
0.0
 11
80.00005931509139
 21
658.0047560444419
 31
0.0
  0
MTEXT
  5
CDAD
330
CD0E
100
AcDbEntity
  8
11100_LEFT_DIM
  6
Continuous
 62
     7
370
    13
100
AcDbMText
 10
80.00005931509127
 20
662.4214227111086
 30
0.0
 40
3.5
 41
0.0
 71
     5
 72
     1
  1
\A1;55
 11
0.0000000000000001
 21
1.0
 31
0.0
 73
     1
 44
1.0
1001
ACAD
1000
MTEXTBEGIN
1070
    73
1070
     1
1070
    44
1040
1.0
1070
    74
1070
     0
1000
MTEXTEND
  0
SOLID
  5
CDAE
330
CD0E
100
AcDbEntity
  8
11100_LEFT_DIM
  6
Continuous
100
AcDbTrace
 10
79.41672598175808
 20
686.4379877111084
 30
0.0
 11
80.58339264842473
 21
686.4379877111084
 31
0.0
 12
80.00005931509141
 22
689.9379877111085
 32
0.0
 13
80.00005931509141
 23
689.9379877111085
 33
0.0
  0
SOLID
  5
CDAF
330
CD0E
100
AcDbEntity
  8
11100_LEFT_DIM
  6
Continuous
100
AcDbTrace
 10
79.41672598175806
 20
638.4048577111087
 30
0.0
 11
80.58339264842471
 21
638.4048577111087
 31
0.0
 12
80.00005931509139
 22
634.9048577111087
 32
0.0
 13
80.00005931509139
 23
634.9048577111087
 33
0.0
  0
POINT
  5
CDB0
330
CD0E
100
AcDbEntity
  8
Defpoints
  6
Continuous
 62
     0
100
AcDbPoint
 10
113.4362260517637
 20
689.9379877111085
 30
0.0
  0
POINT
  5
CDB1
330
CD0E
100
AcDbEntity
  8
Defpoints
  6
Continuous
 62
     0
100
AcDbPoint
 10
113.5127860517637
 20
634.9048577111087
 30
0.0
  0
POINT
  5
CDB2
330
CD0E
100
AcDbEntity
  8
Defpoints
  6
Continuous
 62
     0
100
AcDbPoint
 10
80.00005931509139
 20
634.9048577111087
 30
0.0
  0
ENDBLK
  5
CD19
330
CD0E
100
AcDbEntity
  8
0
100
AcDbBlockEnd
  0
BLOCK
  5
CD25
330
CD1B
100
AcDbEntity
  8
0
100
AcDbBlockBegin
  2
*D10
 70
     1
 10
0.0
 20
0.0
 30
0.0
  3
*D10
  1

  0
LINE
  5
CD9F
330
CD1B
100
AcDbEntity
  8
11100_LEFT_DIM
  6
Continuous
 62
     7
370
    -2
100
AcDbLine
 10
89.9600260517637
 20
662.4048577111087
 30
0.0
 11
85.81266783343307
 21
662.4048577111087
 31
0.0
  0
LINE
  5
CDA0
330
CD1B
100
AcDbEntity
  8
11100_LEFT_DIM
  6
Continuous
 62
     7
370
    -2
100
AcDbLine
 10
110.5027860517637
 20
706.4048577111085
 30
0.0
 11
85.81266783343307
 21
706.4048577111085
 31
0.0
  0
LINE
  5
CDA1
330
CD1B
100
AcDbEntity
  8
11100_LEFT_DIM
  6
Continuous
370
    -2
100
AcDbLine
 10
87.81266783343305
 20
665.9048577111088
 30
0.0
 11
87.81266783343308
 21
679.988191044442
 31
0.0
  0
LINE
  5
CDA2
330
CD1B
100
AcDbEntity
  8
11100_LEFT_DIM
  6
Continuous
370
    -2
100
AcDbLine
 10
87.81266783343308
 20
702.9048577111085
 30
0.0
 11
87.81266783343308
 21
688.8215243777753
 31
0.0
  0
MTEXT
  5
CDA3
330
CD1B
100
AcDbEntity
  8
11100_LEFT_DIM
  6
Continuous
 62
     7
370
    13
100
AcDbMText
 10
87.81266783343294
 20
684.4048577111086
 30
0.0
 40
3.5
 41
0.0
 71
     5
 72
     1
  1
\A1;44
 11
0.0000000000000001
 21
1.0
 31
0.0
 73
     1
 44
1.0
1001
ACAD
1000
MTEXTBEGIN
1070
    73
1070
     1
1070
    44
1040
1.0
1070
    74
1070
     0
1000
MTEXTEND
  0
SOLID
  5
CDA4
330
CD1B
100
AcDbEntity
  8
11100_LEFT_DIM
  6
Continuous
100
AcDbTrace
 10
87.22933450009973
 20
665.9048577111088
 30
0.0
 11
88.3960011667664
 21
665.9048577111088
 31
0.0
 12
87.81266783343305
 22
662.4048577111087
 32
0.0
 13
87.81266783343305
 23
662.4048577111087
 33
0.0
  0
SOLID
  5
CDA5
330
CD1B
100
AcDbEntity
  8
11100_LEFT_DIM
  6
Continuous
100
AcDbTrace
 10
87.22933450009975
 20
702.9048577111085
 30
0.0
 11
88.3960011667664
 21
702.9048577111085
 31
0.0
 12
87.81266783343308
 22
706.4048577111085
 32
0.0
 13
87.81266783343308
 23
706.4048577111085
 33
0.0
  0
POINT
  5
CDA6
330
CD1B
100
AcDbEntity
  8
Defpoints
  6
Continuous
 62
     0
100
AcDbPoint
 10
89.9600260517637
 20
662.4048577111087
 30
0.0
  0
POINT
  5
CDA7
330
CD1B
100
AcDbEntity
  8
Defpoints
  6
Continuous
 62
     0
100
AcDbPoint
 10
110.5027860517637
 20
706.4048577111085
 30
0.0
  0
POINT
  5
CDA8
330
CD1B
100
AcDbEntity
  8
Defpoints
  6
Continuous
 62
     0
100
AcDbPoint
 10
87.81266783343308
 20
706.4048577111085
 30
0.0
  0
ENDBLK
  5
CD26
330
CD1B
100
AcDbEntity
  8
0
100
AcDbBlockEnd
  0
BLOCK
  5
CDD6
330
CDCA
100
AcDbEntity
  8
0
100
AcDbBlockBegin
  2
*D11
 70
     1
 10
0.0
 20
0.0
 30
0.0
  3
*D11
  1

  0
LINE
  5
CE20
330
CDCA
100
AcDbEntity
  8
30100_Drilling_DIM
  6
Continuous
 62
     0
370
    -2
100
AcDbLine
 10
7.95561000149545
 20
566.2780075529509
 30
0.0
 11
7.95561000149545
 21
573.1218029383658
 31
0.0
  0
LINE
  5
CE21
330
CDCA
100
AcDbEntity
  8
30100_Drilling_DIM
  6
Continuous
 62
     0
370
    -2
100
AcDbLine
 10
11.14634193535954
 20
566.2667446310853
 30
0.0
 11
11.14634193535954
 21
573.1218029383658
 31
0.0
  0
LINE
  5
CE22
330
CDCA
100
AcDbEntity
  8
30100_Drilling_DIM
  6
Continuous
 62
     0
370
    -2
100
AcDbLine
 10
4.45561000149545
 20
572.1218029383655
 30
0.0
 11
0.9556100014954498
 21
572.1218029383655
 31
0.0
  0
LINE
  5
CE23
330
CDCA
100
AcDbEntity
  8
30100_Drilling_DIM
  6
Continuous
 62
     0
370
    -2
100
AcDbLine
 10
14.64634193535954
 20
572.1218029383655
 30
0.0
 11
18.14634193535954
 21
572.1218029383655
 31
0.0
  0
LINE
  5
CE24
330
CDCA
100
AcDbEntity
  8
30100_Drilling_DIM
  6
Continuous
 62
     0
370
    -2
100
AcDbLine
 10
7.95561000149545
 20
572.1218029383655
 30
0.0
 11
11.14634193535954
 21
572.1218029383655
 31
0.0
  0
SOLID
  5
CE25
330
CDCA
100
AcDbEntity
  8
30100_Drilling_DIM
  6
Continuous
 62
     0
100
AcDbTrace
 10
4.45561000149545
 20
572.7051362716991
 30
0.0
 11
4.45561000149545
 21
571.5384696050322
 31
0.0
 12
7.95561000149545
 22
572.1218029383655
 32
0.0
 13
7.95561000149545
 23
572.1218029383655
 33
0.0
  0
SOLID
  5
CE26
330
CDCA
100
AcDbEntity
  8
30100_Drilling_DIM
  6
Continuous
 62
     0
100
AcDbTrace
 10
14.64634193535954
 20
572.7051362716991
 30
0.0
 11
14.64634193535954
 21
571.5384696050322
 31
0.0
 12
11.14634193535954
 22
572.1218029383655
 32
0.0
 13
11.14634193535954
 23
572.1218029383655
 33
0.0
  0
MTEXT
  5
CE27
330
CDCA
100
AcDbEntity
  8
30100_Drilling_DIM
  6
Continuous
 62
     0
370
    13
100
AcDbMText
 10
22.93800860202621
 20
572.1218029383655
 30
0.0
 40
3.5
 41
0.0
 71
     5
 72
     1
  1
\A1;3,2
 73
     1
 44
1.0
1001
ACAD
1000
MTEXTBEGIN
1070
    73
1070
     1
1070
    44
1040
1.0
1070
    74
1070
     0
1000
MTEXTEND
  0
POINT
  5
CE28
330
CDCA
100
AcDbEntity
  8
Defpoints
  6
Continuous
 62
     0
100
AcDbPoint
 10
7.95561000149545
 20
565.2780075529509
 30
0.0
  0
POINT
  5
CE29
330
CDCA
100
AcDbEntity
  8
Defpoints
  6
Continuous
 62
     0
100
AcDbPoint
 10
11.14634193535954
 20
565.2667446310853
 30
0.0
  0
POINT
  5
CE2A
330
CDCA
100
AcDbEntity
  8
Defpoints
  6
Continuous
 62
     0
100
AcDbPoint
 10
11.14634193535954
 20
572.1218029383655
 30
0.0
  0
ENDBLK
  5
CDD7
330
CDCA
100
AcDbEntity
  8
0
100
AcDbBlockEnd
  0
BLOCK
  5
CDF3
330
CDE9
100
AcDbEntity
  8
0
100
AcDbBlockBegin
  2
*D12
 70
     1
 10
0.0
 20
0.0
 30
0.0
  3
*D12
  1

  0
LINE
  5
CE16
330
CDE9
100
AcDbEntity
  8
30100_Drilling_DIM
  6
Continuous
 62
     0
370
    -2
100
AcDbLine
 10
11.55096083343306
 20
541.1941887983434
 30
0.0
 11
32.82589516025825
 21
541.1941887983434
 31
0.0
  0
LINE
  5
CE17
330
CDE9
100
AcDbEntity
  8
30100_Drilling_DIM
  6
Continuous
 62
     0
370
    -2
100
AcDbLine
 10
12.14634193535954
 20
565.2667446310853
 30
0.0
 11
32.82589516025826
 21
565.2667446310853
 31
0.0
  0
LINE
  5
CE18
330
CDE9
100
AcDbEntity
  8
30100_Drilling_DIM
  6
Continuous
 62
     0
370
    -2
100
AcDbLine
 10
31.82589516025825
 20
544.6941887983435
 30
0.0
 11
31.82589516025825
 21
547.2721333813808
 31
0.0
  0
LINE
  5
CE19
330
CDE9
100
AcDbEntity
  8
30100_Drilling_DIM
  6
Continuous
 62
     0
370
    -2
100
AcDbLine
 10
31.82589516025826
 20
561.7667446310852
 30
0.0
 11
31.82589516025826
 21
559.1888000480476
 31
0.0
  0
SOLID
  5
CE1A
330
CDE9
100
AcDbEntity
  8
30100_Drilling_DIM
  6
Continuous
 62
     0
100
AcDbTrace
 10
31.24256182692492
 20
544.6941887983435
 30
0.0
 11
32.40922849359158
 21
544.6941887983435
 31
0.0
 12
31.82589516025825
 22
541.1941887983434
 32
0.0
 13
31.82589516025825
 23
541.1941887983434
 33
0.0
  0
SOLID
  5
CE1B
330
CDE9
100
AcDbEntity
  8
30100_Drilling_DIM
  6
Continuous
 62
     0
100
AcDbTrace
 10
31.24256182692493
 20
561.7667446310852
 30
0.0
 11
32.40922849359159
 21
561.7667446310852
 31
0.0
 12
31.82589516025826
 22
565.2667446310853
 32
0.0
 13
31.82589516025826
 23
565.2667446310853
 33
0.0
  0
MTEXT
  5
CE1C
330
CDE9
100
AcDbEntity
  8
30100_Drilling_DIM
  6
Continuous
 62
     0
370
    13
100
AcDbMText
 10
31.82589516025818
 20
553.2304667147142
 30
0.0
 40
3.5
 41
0.0
 71
     5
 72
     1
  1
\A1;24,1
 11
0.0000000000000001
 21
1.0
 31
0.0
 73
     1
 44
1.0
1001
ACAD
1000
MTEXTBEGIN
1070
    73
1070
     1
1070
    44
1040
1.0
1070
    74
1070
     0
1000
MTEXTEND
  0
POINT
  5
CE1D
330
CDE9
100
AcDbEntity
  8
Defpoints
  6
Continuous
 62
     0
100
AcDbPoint
 10
10.55096083343306
 20
541.1941887983434
 30
0.0
  0
POINT
  5
CE1E
330
CDE9
100
AcDbEntity
  8
Defpoints
  6
Continuous
 62
     0
100
AcDbPoint
 10
11.14634193535954
 20
565.2667446310853
 30
0.0
  0
POINT
  5
CE1F
330
CDE9
100
AcDbEntity
  8
Defpoints
  6
Continuous
 62
     0
100
AcDbPoint
 10
31.82589516025826
 20
565.2667446310853
 30
0.0
  0
ENDBLK
  5
CDF4
330
CDE9
100
AcDbEntity
  8
0
100
AcDbBlockEnd
  0
BLOCK
  5
CDFF
330
CDF6
100
AcDbEntity
  8
0
100
AcDbBlockBegin
  2
*D13
 70
     1
 10
0.0
 20
0.0
 30
0.0
  3
*D13
  1

  0
LINE
  5
CE2B
330
CDF6
100
AcDbEntity
  8
30100_Drilling_DIM
  6
Continuous
 62
     0
370
    -2
100
AcDbLine
 10
-7.446806711483417
 20
545.8244570807002
 30
0.0
 11
-4.184520530344086
 21
547.0923249256851
 31
0.0
  0
LINE
  5
CE2C
330
CDF6
100
AcDbEntity
  8
30100_Drilling_DIM
  6
Continuous
 62
     0
370
    -2
100
AcDbLine
 10
23.28644219721022
 20
557.7687488747601
 30
0.0
 11
26.54872837834958
 21
559.0366167197453
 31
0.0
  0
MTEXT
  5
CE2D
330
CDF6
100
AcDbEntity
  8
30100_Drilling_DIM
  6
Continuous
 62
     0
370
    13
100
AcDbMText
 10
-12.72860338570902
 20
543.7717186650099
 30
0.0
 40
3.5
 41
0.0
 71
     5
 72
     1
  1
\A1;\U+220522
 11
0.9320817660398105
 21
0.3622479557100465
 31
0.0
 73
     1
 44
1.0
1001
ACAD
1000
MTEXTBEGIN
1070
    73
1070
     1
1070
    44
1040
1.0
1070
    74
1070
     0
1000
MTEXTEND
  0
LINE
  5
CE2E
330
CDF6
100
AcDbEntity
  8
30100_Drilling_DIM
  6
Continuous
 62
     0
370
    -2
100
AcDbLine
 10
20.02415601607089
 20
556.5008810297748
 30
0.0
 11
-0.9222343492047572
 21
548.3601927706704
 31
0.0
  0
SOLID
  5
CE2F
330
CDF6
100
AcDbEntity
  8
30100_Drilling_DIM
  6
Continuous
 62
     0
100
AcDbTrace
 10
23.07513088971268
 20
558.3124632382832
 30
0.0
 11
23.49775350470776
 21
557.2250345112369
 31
0.0
 12
20.02415601607089
 22
556.5008810297748
 32
0.0
 13
20.02415601607089
 23
556.5008810297748
 33
0.0
  0
SOLID
  5
CE30
330
CDF6
100
AcDbEntity
  8
30100_Drilling_DIM
  6
Continuous
 62
     0
100
AcDbTrace
 10
-4.395831837841626
 20
547.6360392892083
 30
0.0
 11
-3.973209222846548
 21
546.548610562162
 31
0.0
 12
-0.9222343492047572
 22
548.3601927706704
 32
0.0
 13
-0.9222343492047572
 23
548.3601927706704
 33
0.0
  0
POINT
  5
CE31
330
CDF6
100
AcDbEntity
  8
Defpoints
  6
Continuous
 62
     0
100
AcDbPoint
 10
-0.9222343492047572
 20
548.3601927706704
 30
0.0
  0
POINT
  5
CE32
330
CDF6
100
AcDbEntity
  8
Defpoints
  6
Continuous
 62
     0
100
AcDbPoint
 10
20.02415601607089
 20
556.5008810297748
 30
0.0
  0
ENDBLK
  5
CE00
330
CDF6
100
AcDbEntity
  8
0
100
AcDbBlockEnd
  0
ENDSEC
  0
SECTION
  2
ENTITIES
  0
LINE
  5
BBA0
330
20
100
AcDbEntity
  8
90000_FRAME
  6
Continuous
 62
     7
100
AcDbLine
 10
-70.60458337769119
 20
764.279881970476
 30
0.0
 11
339.3954166223088
 21
764.279881970476
 31
0.0
  0
LINE
  5
BBA1
330
20
100
AcDbEntity
  8
90000_FRAME
  6
Continuous
 62
     7
100
AcDbLine
 10
-70.60458337769119
 20
494.279881970476
 30
0.0
 11
-70.60458337769119
 21
764.279881970476
 31
0.0
  0
LINE
  5
BBA2
330
20
100
AcDbEntity
  8
90000_FRAME
  6
Continuous
 62
     7
100
AcDbLine
 10
339.3954166223088
 20
494.279881970476
 30
0.0
 11
339.3954166223088
 21
764.279881970476
 31
0.0
  0
INSERT
  5
BBA3
330
20
100
AcDbEntity
  8
90000_FRAME
  6
Continuous
 62
     7
100
AcDbBlockReference
  2
SIEMENS_OUTLINE_BL0
 10
-80.60458337769194
 20
494.279881970476
 30
0.0
  0
LINE
  5
BBA4
330
20
100
AcDbEntity
  8
90000_FRAME
  6
Continuous
 62
     7
100
AcDbLine
 10
194.395416622308
 20
504.2798819704761
 30
0.0
 11
329.3954166223082
 21
504.2798819704761
 31
0.0
  0
LINE
  5
BBA5
330
20
100
AcDbEntity
  8
90000_FRAME
  6
Continuous
 62
     7
100
AcDbLine
 10
194.395416622308
 20
504.2798819704761
 30
0.0
 11
194.395416622308
 21
522.279881970476
 31
0.0
  0
LINE
  5
BBA6
330
20
100
AcDbEntity
  8
90000_FRAME
  6
Continuous
 62
     7
100
AcDbLine
 10
244.3954166223081
 20
510.2798819704761
 30
0.0
 11
329.3954166223082
 21
510.2798819704761
 31
0.0
  0
LINE
  5
BBA7
330
20
100
AcDbEntity
  8
90000_FRAME
  6
Continuous
 62
     7
100
AcDbLine
 10
194.395416622308
 20
522.279881970476
 30
0.0
 11
329.3954166223082
 21
522.279881970476
 31
0.0
  0
LINE
  5
BBA8
330
20
100
AcDbEntity
  8
90000_FRAME
  6
Continuous
 62
     7
100
AcDbLine
 10
244.3954166223081
 20
504.2798819704761
 30
0.0
 11
244.3954166223081
 21
522.279881970476
 31
0.0
  0
LINE
  5
BBA9
330
20
100
AcDbEntity
  8
90000_FRAME
  6
Continuous
 62
     7
100
AcDbLine
 10
286.8954166223081
 20
504.2798819704761
 30
0.0
 11
286.8954166223081
 21
510.2798819704761
 31
0.0
  0
LINE
  5
BBAA
330
20
100
AcDbEntity
  8
90000_FRAME
  6
Continuous
 62
     7
100
AcDbLine
 10
329.3954166223082
 20
504.2798819704761
 30
0.0
 11
329.3954166223082
 21
522.279881970476
 31
0.0
  0
TEXT
  5
BBAB
330
20
100
AcDbEntity
  8
90000_FRAME
  6
Continuous
 62
     7
100
AcDbText
 10
245.0554166223081
 20
506.179881970476
 30
0.0
 40
2.2
  1
Format / Size: DIN A3
 41
0.7994987468660263
 72
     5
 11
278.474464241308
 21
506.179881970476
 31
0.0
100
AcDbText
  0
TEXT
  5
BBAC
330
20
100
AcDbEntity
  8
90000_FRAME
  6
Continuous
 62
     7
100
AcDbText
 10
287.5554166223082
 20
506.179881970476
 30
0.0
 40
2.2
  1
Massstab / Scale: 1:1
 41
0.7732634338148454
 72
     5
 11
318.4601785271082
 21
506.179881970476
 31
0.0
100
AcDbText
  0
LINE
  5
BBAD
330
20
100
AcDbEntity
  8
91000_TIP
  6
Continuous
 62
     7
100
AcDbLine
 10
169.210086726334
 20
515.6036194928466
 30
0.0
 11
179.2100865221341
 21
518.1036194418465
 31
0.0
  0
LINE
  5
BBAE
330
20
100
AcDbEntity
  8
91000_TIP
  6
CENTER
 62
     7
100
AcDbLine
 10
167.930576254333
 20
513.1036195439467
 30
0.0
 11
191.532565518433
 21
513.1036195439467
 31
0.0
  0
LINE
  5
BBAF
330
20
100
AcDbEntity
  8
91000_TIP
  6
Continuous
 62
     7
100
AcDbLine
 10
169.210086726334
 20
510.6036195950466
 30
0.0
 11
179.2100865221341
 21
508.1036196460465
 31
0.0
  0
LINE
  5
BBB0
330
20
100
AcDbEntity
  8
91000_TIP
  6
Continuous
 62
     7
100
AcDbLine
 10
169.210086726334
 20
515.6036194928466
 30
0.0
 11
169.210086726334
 21
510.6036195950466
 31
0.0
  0
LINE
  5
BBB1
330
20
100
AcDbEntity
  8
91000_TIP
  6
Continuous
 62
     7
100
AcDbLine
 10
179.2100865221341
 20
518.1036194418465
 30
0.0
 11
179.2100865221341
 21
508.1036196460465
 31
0.0
  0
LINE
  5
BBB2
330
20
100
AcDbEntity
  8
91000_TIP
  6
CENTER
 62
     7
100
AcDbLine
 10
185.710086389334
 20
507.3821383375467
 30
0.0
 11
185.710086389334
 21
518.6655243375467
 31
0.0
  0
CIRCLE
  5
BBB3
330
20
100
AcDbEntity
  8
91000_TIP
  6
Continuous
 62
     7
100
AcDbCircle
 10
185.710086389334
 20
513.1036195439467
 30
0.0
 40
4.9999998979
  0
CIRCLE
  5
BBB4
330
20
100
AcDbEntity
  8
91000_TIP
  6
Continuous
 62
     7
100
AcDbCircle
 10
185.710086389334
 20
513.1036195439467
 30
0.0
 40
2.499999948899997
  0
TEXT
  5
BBB5
330
20
100
AcDbEntity
  8
90000_FRAME
  6
Continuous
 62
     7
100
AcDbText
 10
257.7013411462589
 20
514.5298819704761
 30
0.0
 40
3.5
  1
3LD2254_00000301_000_ALL
 41
0.7316751156272581
 72
     5
 11
313.6135145654419
 21
514.5298819704761
 31
0.0
100
AcDbText
  0
LINE
  5
BBB6
330
20
100
AcDbEntity
  8
90000_FRAME
  6
Continuous
 62
     7
100
AcDbLine
 10
-70.60458337769119
 20
494.279881970476
 30
0.0
 11
339.3954166223088
 21
494.279881970476
 31
0.0
  0
LINE
  5
BBB7
330
20
100
AcDbEntity
  8
90000_FRAME
  6
Continuous
 62
     7
100
AcDbLine
 10
329.3954166223082
 20
504.2798819704761
 30
0.0
 11
329.3954166223082
 21
522.279881970476
 31
0.0
  0
TEXT
  5
BBB8
330
20
100
AcDbEntity
  8
91000_TIP
  6
Continuous
 62
     7
100
AcDbText
 10
-66.55123359502733
 20
497.7621185921528
 30
0.0
 40
2.5
  1
All dimensions are in millimeters (mm).
 41
0.7513350295680265
 72
     5
 11
-6.444431229585262
 21
497.7621185921528
 31
0.0
100
AcDbText
  0
TEXT
  5
BBB9
330
20
100
AcDbEntity
  8
91000_TIP
  6
Continuous
 62
     7
100
AcDbText
 10
-66.55123359502733
 20
503.0121185921526
 30
0.0
 40
2.5
  1
Alle Bemassungswerte sind in Millimeter (mm) angegeben.
 41
0.6056311217924569
 72
     5
 11
7.133886223054927
 21
503.0121185921526
 31
0.0
100
AcDbText
  0
LINE
  5
C07F
330
20
100
AcDbEntity
  8
10000_FRONT
  6
Continuous
 62
     7
370
    20
100
AcDbLine
 39
0.7
 10
-12.94903916656693
 20
706.4148577111089
 30
0.0
 11
-12.94903916656693
 21
706.4048577111089
 31
0.0
  0
LINE
  5
C087
330
20
100
AcDbEntity
  8
10000_FRONT
  6
Continuous
 62
     7
370
    20
100
AcDbLine
 39
0.7
 10
29.75095783343308
 20
706.4048577111089
 30
0.0
 11
19.75098783343307
 21
706.4048577111089
 31
0.0
  0
LINE
  5
C088
330
20
100
AcDbEntity
  8
10000_FRONT
  6
Continuous
 62
     7
370
    20
100
AcDbLine
 39
0.7
 10
14.75096083343307
 20
706.4048577111089
 30
0.0
 11
4.750987833433072
 21
706.4048577111089
 31
0.0
  0
LINE
  5
C089
330
20
100
AcDbEntity
  8
10000_FRONT
  6
Continuous
 62
     7
370
    20
100
AcDbLine
 39
0.7
 10
-13.14903916656692
 20
706.4048577111089
 30
0.0
 11
-13.14903916656692
 21
695.4076477111089
 31
0.0
  0
LINE
  5
C08A
330
20
100
AcDbEntity
  8
10000_FRONT
  6
Continuous
 62
     7
370
    20
100
AcDbLine
 39
0.7
 10
-10.24903916656693
 20
706.4048577111089
 30
0.0
 11
-13.14903916656692
 21
706.4048577111089
 31
0.0
  0
LINE
  5
C08B
330
20
100
AcDbEntity
  8
10000_FRONT
  6
Continuous
 62
     7
370
    20
100
AcDbLine
 39
0.7
 10
-10.24903916656693
 20
704.4048577111087
 30
0.0
 11
-10.24903916656693
 21
706.4048577111089
 31
0.0
  0
LINE
  5
C08C
330
20
100
AcDbEntity
  8
10000_FRONT
  6
Continuous
 62
     7
370
    20
100
AcDbLine
 39
0.7
 10
-0.2490391665669307
 20
706.4048577111089
 30
0.0
 11
-10.24901216656693
 21
706.4048577111089
 31
0.0
  0
LINE
  5
C08D
330
20
100
AcDbEntity
  8
10000_FRONT
  6
Continuous
 62
     7
370
    20
100
AcDbLine
 39
0.7
 10
29.75095783343308
 20
706.4048577111089
 30
0.0
 11
29.75095783343308
 21
704.4048577111087
 31
0.0
  0
LINE
  5
C08E
330
20
100
AcDbEntity
  8
10000_FRONT
  6
Continuous
 62
     7
370
    20
100
AcDbLine
 39
0.7
 10
32.25095783343308
 20
706.4048577111089
 30
0.0
 11
29.75095783343308
 21
706.4048577111089
 31
0.0
  0
LINE
  5
C08F
330
20
100
AcDbEntity
  8
10000_FRONT
  6
Continuous
 62
     7
370
    20
100
AcDbLine
 39
0.7
 10
32.25095783343308
 20
706.4048577111089
 30
0.0
 11
32.25095783343308
 21
695.4076477111089
 31
0.0
  0
LINE
  5
C090
330
20
100
AcDbEntity
  8
10000_FRONT
  6
Continuous
 62
     7
370
    20
100
AcDbLine
 39
0.7
 10
14.75096083343307
 20
706.4048577111089
 30
0.0
 11
14.75096083343307
 21
704.4048577111087
 31
0.0
  0
LINE
  5
C091
330
20
100
AcDbEntity
  8
10000_FRONT
  6
Continuous
 62
     7
370
    20
100
AcDbLine
 39
0.7
 10
19.75095783343308
 20
706.4048577111089
 30
0.0
 11
14.75096083343307
 21
706.4048577111089
 31
0.0
  0
LINE
  5
C092
330
20
100
AcDbEntity
  8
10000_FRONT
  6
Continuous
 62
     7
370
    20
100
AcDbLine
 39
0.7
 10
19.75095783343308
 20
704.4048577111087
 30
0.0
 11
19.75095783343308
 21
706.4048577111089
 31
0.0
  0
LINE
  5
C093
330
20
100
AcDbEntity
  8
10000_FRONT
  6
Continuous
 62
     7
370
    20
100
AcDbLine
 39
0.7
 10
-0.2490391665669307
 20
706.4048577111089
 30
0.0
 11
-0.2490391665669307
 21
704.4048577111087
 31
0.0
  0
LINE
  5
C094
330
20
100
AcDbEntity
  8
10000_FRONT
  6
Continuous
 62
     7
370
    20
100
AcDbLine
 39
0.7
 10
4.750960833433068
 20
706.4048577111089
 30
0.0
 11
-0.2490391665669307
 21
706.4048577111089
 31
0.0
  0
LINE
  5
C095
330
20
100
AcDbEntity
  8
10000_FRONT
  6
Continuous
 62
     7
370
    20
100
AcDbLine
 39
0.7
 10
4.750960833433068
 20
704.4048577111087
 30
0.0
 11
4.750960833433068
 21
706.4048577111089
 31
0.0
  0
LINE
  5
C096
330
20
100
AcDbEntity
  8
10000_FRONT
  6
Continuous
 62
     7
370
    20
100
AcDbLine
 39
0.7
 10
30.25095783343308
 20
704.4048577111087
 30
0.0
 11
30.25095783343308
 21
695.4076477111089
 31
0.0
  0
LINE
  5
C097
330
20
100
AcDbEntity
  8
10000_FRONT
  6
Continuous
 62
     7
370
    20
100
AcDbLine
 39
0.7
 10
-11.14903916656692
 20
695.4076477111089
 30
0.0
 11
-11.14903916656692
 21
704.4048577111087
 31
0.0
  0
LINE
  5
C098
330
20
100
AcDbEntity
  8
10000_FRONT
  6
Continuous
 62
     7
370
    20
100
AcDbLine
 39
0.7
 10
17.75096083343307
 20
695.4084077111089
 30
0.0
 11
17.75096083343307
 21
704.4048577111087
 31
0.0
  0
LINE
  5
C099
330
20
100
AcDbEntity
  8
10000_FRONT
  6
Continuous
 62
     7
370
    20
100
AcDbLine
 39
0.7
 10
16.75096083343307
 20
704.4048577111087
 30
0.0
 11
16.75096083343307
 21
695.4084077111089
 31
0.0
  0
LINE
  5
C09A
330
20
100
AcDbEntity
  8
10000_FRONT
  6
Continuous
 62
     7
370
    20
100
AcDbLine
 39
0.7
 10
-11.14903916656692
 20
704.4048577111087
 30
0.0
 11
-10.24903916656693
 21
704.4048577111087
 31
0.0
  0
LINE
  5
C09B
330
20
100
AcDbEntity
  8
10000_FRONT
  6
Continuous
 62
     7
370
    20
100
AcDbLine
 39
0.7
 10
-10.24903916656693
 20
704.4048577111087
 30
0.0
 11
-0.2490391665669307
 21
704.4048577111087
 31
0.0
  0
LINE
  5
C09C
330
20
100
AcDbEntity
  8
10000_FRONT
  6
Continuous
 62
     7
370
    20
100
AcDbLine
 39
0.7
 10
-0.2490391665669307
 20
704.4048577111087
 30
0.0
 11
4.750960833433068
 21
704.4048577111087
 31
0.0
  0
LINE
  5
C09D
330
20
100
AcDbEntity
  8
10000_FRONT
  6
Continuous
 62
     7
370
    20
100
AcDbLine
 39
0.7
 10
4.750960833433068
 20
704.4048577111087
 30
0.0
 11
14.75096083343307
 21
704.4048577111087
 31
0.0
  0
LINE
  5
C09E
330
20
100
AcDbEntity
  8
10000_FRONT
  6
Continuous
 62
     7
370
    20
100
AcDbLine
 39
0.7
 10
14.75096083343307
 20
704.4048577111087
 30
0.0
 11
19.75095783343308
 21
704.4048577111087
 31
0.0
  0
LINE
  5
C09F
330
20
100
AcDbEntity
  8
10000_FRONT
  6
Continuous
 62
     7
370
    20
100
AcDbLine
 39
0.7
 10
19.75095783343308
 20
704.4048577111087
 30
0.0
 11
29.75095783343308
 21
704.4048577111087
 31
0.0
  0
LINE
  5
C0A0
330
20
100
AcDbEntity
  8
10000_FRONT
  6
Continuous
 62
     7
370
    20
100
AcDbLine
 39
0.7
 10
29.75095783343308
 20
704.4048577111087
 30
0.0
 11
30.25095783343308
 21
704.4048577111087
 31
0.0
  0
LINE
  5
C0A1
330
20
100
AcDbEntity
  8
10000_FRONT
  6
Continuous
 62
     7
370
    20
100
AcDbLine
 39
0.7
 10
2.750960833433068
 20
695.4084077111089
 30
0.0
 11
2.750960833433068
 21
704.4048577111087
 31
0.0
  0
LINE
  5
C0A2
330
20
100
AcDbEntity
  8
10000_FRONT
  6
Continuous
 62
     7
370
    20
100
AcDbLine
 39
0.7
 10
1.750960833433069
 20
695.4084077111089
 30
0.0
 11
1.750960833433069
 21
704.4048577111087
 31
0.0
  0
ARC
  5
C0A3
330
20
100
AcDbEntity
  8
10000_FRONT
  6
Continuous
 62
     7
370
    20
100
AcDbCircle
 39
0.7
 10
9.550960833433066
 20
662.4048577111087
 30
0.0
 40
23.095472
100
AcDbArc
 50
15.06581799999809
 51
344.9423299999981
  0
LINE
  5
C0A4
330
20
100
AcDbEntity
  8
10000_FRONT
  6
Continuous
 62
     7
370
    20
100
AcDbLine
 39
0.7
 10
7.550960833433066
 20
668.4048577111089
 30
0.0
 11
42.55095783343306
 21
668.4048577111089
 31
0.0
  0
LINE
  5
C0A5
330
20
100
AcDbEntity
  8
10000_FRONT
  6
Continuous
 62
     7
370
    50
100
AcDbLine
 10
42.55095783343306
 20
668.4048577111089
 30
0.0
 11
42.55095783343306
 21
656.4048577111089
 31
0.0
  0
LINE
  5
C0A6
330
20
100
AcDbEntity
  8
10000_FRONT
  6
Continuous
 62
     7
370
    20
100
AcDbLine
 39
0.7
 10
42.55095783343306
 20
656.4048577111089
 30
0.0
 11
7.550960833433066
 21
656.4048577111089
 31
0.0
  0
LINE
  5
C0A7
330
20
100
AcDbEntity
  8
10000_FRONT
  6
Continuous
 62
     7
370
    20
100
AcDbLine
 39
0.7
 10
7.550960833433066
 20
668.4048577111089
 30
0.0
 11
1.550960833433066
 21
668.4048577111089
 31
0.0
  0
LINE
  5
C0A8
330
20
100
AcDbEntity
  8
10000_FRONT
  6
Continuous
 62
     7
370
    20
100
AcDbLine
 39
0.7
 10
7.550960833433066
 20
656.4048577111089
 30
0.0
 11
7.550960833433066
 21
668.4048577111089
 31
0.0
  0
LINE
  5
C0A9
330
20
100
AcDbEntity
  8
10000_FRONT
  6
Continuous
 62
     7
370
    20
100
AcDbLine
 39
0.7
 10
1.550960833433066
 20
656.4048577111089
 30
0.0
 11
7.550960833433066
 21
656.4048577111089
 31
0.0
  0
LINE
  5
C0AA
330
20
100
AcDbEntity
  8
10000_FRONT
  6
Continuous
 62
     7
370
    20
100
AcDbLine
 39
0.7
 10
1.550960833433066
 20
668.4048577111089
 30
0.0
 11
1.550960833433066
 21
656.4048577111089
 31
0.0
  0
LINE
  5
C0AB
330
20
100
AcDbEntity
  8
10000_FRONT
  6
Continuous
 62
     7
370
    50
100
AcDbLine
 39
0.7
 10
39.55095783343308
 20
629.4048577111087
 30
0.0
 11
-20.44903916656693
 21
629.4048577111087
 31
0.0
  0
ARC
  5
C0AC
330
20
100
AcDbEntity
  8
10000_FRONT
  6
Continuous
 62
     7
370
    50
100
AcDbCircle
 39
0.7
 10
-20.44903916656693
 20
632.4048577111089
 30
0.0
 40
3.0
100
AcDbArc
 50
180.0
 51
270.0
  0
LINE
  5
C0AD
330
20
100
AcDbEntity
  8
10000_FRONT
  6
Continuous
 62
     7
370
    50
100
AcDbLine
 39
0.7
 10
-23.44903916656694
 20
632.4048577111089
 30
0.0
 11
-23.44903916656694
 21
692.4048577111086
 31
0.0
  0
ARC
  5
C0AE
330
20
100
AcDbEntity
  8
10000_FRONT
  6
Continuous
 62
     7
370
    50
100
AcDbCircle
 39
0.7
 10
-20.44903916656693
 20
692.4048577111086
 30
0.0
 40
3.0
100
AcDbArc
 50
90.0
 51
180.0
  0
LINE
  5
C0AF
330
20
100
AcDbEntity
  8
10000_FRONT
  6
Continuous
 62
     7
370
    50
100
AcDbLine
 39
0.7
 10
-20.44903916656693
 20
695.4048577111087
 30
0.0
 11
39.55095783343308
 21
695.4048577111087
 31
0.0
  0
ARC
  5
C0B0
330
20
100
AcDbEntity
  8
10000_FRONT
  6
Continuous
 62
     7
370
    50
100
AcDbCircle
 39
0.7
 10
39.55095783343308
 20
692.4048577111086
 30
0.0
 40
3.0
100
AcDbArc
 50
0.0
 51
90.0
  0
LINE
  5
C0B1
330
20
100
AcDbEntity
  8
10000_FRONT
  6
Continuous
 62
     7
370
    50
100
AcDbLine
 10
42.55095783343306
 20
692.4048577111086
 30
0.0
 11
42.55095783343306
 21
668.4085577111089
 31
0.0
  0
LINE
  5
C0B2
330
20
100
AcDbEntity
  8
10000_FRONT
  6
Continuous
 62
     7
370
    50
100
AcDbLine
 39
0.7
 10
42.55095783343306
 20
656.4048577111089
 30
0.0
 11
42.55095783343306
 21
632.4048577111089
 31
0.0
  0
ARC
  5
C0B3
330
20
100
AcDbEntity
  8
10000_FRONT
  6
Continuous
 62
     7
370
    50
100
AcDbCircle
 39
0.7
 10
39.55095783343308
 20
632.4048577111089
 30
0.0
 40
3.0
100
AcDbArc
 50
270.0
 51
0.0
  0
LINE
  5
C0C5
330
20
100
AcDbEntity
  8
10000_FRONT
  6
Continuous
 62
     7
370
    20
100
AcDbLine
 39
0.7
 10
-20.77285816656692
 20
657.6548577111089
 30
0.0
 11
-20.77152416656693
 21
657.6548577111089
 31
0.0
  0
ARC
  5
C0CA
330
20
100
AcDbEntity
  8
10000_FRONT
  6
Continuous
 62
     7
370
    20
100
AcDbCircle
 39
0.7
 10
9.550960833433066
 20
662.4048577111087
 30
0.0
 40
30.0
100
AcDbArc
 50
348.4670700000009
 51
348.4692199999994
  0
ARC
  5
C0E0
330
20
100
AcDbEntity
  8
10000_FRONT
  6
Continuous
 62
     7
370
    20
100
AcDbCircle
 39
0.7
 10
9.550960833433066
 20
662.4048577111087
 30
0.0
 40
31.5
100
AcDbArc
 50
10.98508699999989
 51
32.1378400000017
  0
LINE
  5
C0E1
330
20
100
AcDbEntity
  8
10000_FRONT
  6
Continuous
 62
     7
370
    20
100
AcDbLine
 39
0.7
 10
-20.77285816656692
 20
667.1548577111089
 30
0.0
 11
-20.77126316656694
 21
667.1548577111089
 31
0.0
  0
LINE
  5
C0E3
330
20
100
AcDbEntity
  8
10000_FRONT
  6
Continuous
 62
     7
370
    20
100
AcDbLine
 39
0.7
 10
-21.03767316656693
 20
656.0128377111087
 30
0.0
 11
-21.15865416656692
 21
655.3927577111087
 31
0.0
  0
LINE
  5
C0E4
330
20
100
AcDbEntity
  8
10000_FRONT
  6
Continuous
 62
     7
370
    20
100
AcDbLine
 39
0.7
 10
-20.91797616656693
 20
656.694717711109
 30
0.0
 11
-21.03767316656693
 21
656.0128377111087
 31
0.0
  0
ARC
  5
C0E5
330
20
100
AcDbEntity
  8
10000_FRONT
  6
Continuous
 62
     7
370
    20
100
AcDbCircle
 39
0.7
 10
9.550960833433066
 20
662.4048577111087
 30
0.0
 40
30.0
100
AcDbArc
 50
224.4699999999999
 51
225.0000000000003
  0
ARC
  5
C0E6
330
20
100
AcDbEntity
  8
10000_FRONT
  6
Continuous
 62
     7
370
    20
100
AcDbCircle
 39
0.7
 10
9.550960833433066
 20
662.4048577111087
 30
0.0
 40
31.5
100
AcDbArc
 50
192.8621600000024
 51
212.1378400000017
  0
LINE
  5
C0E7
330
20
100
AcDbEntity
  8
10000_FRONT
  6
Continuous
 62
     7
370
    20
100
AcDbLine
 39
0.7
 10
-20.90923716656693
 20
656.7478177111087
 30
0.0
 11
-20.91797616656693
 21
656.694717711109
 31
0.0
  0
LINE
  5
C0E8
330
20
100
AcDbEntity
  8
10000_FRONT
  6
Continuous
 62
     7
370
    20
100
AcDbLine
 39
0.7
 10
-20.89995616656694
 20
656.804777711109
 30
0.0
 11
-20.90923716656693
 21
656.7478177111087
 31
0.0
  0
LINE
  5
C0E9
330
20
100
AcDbEntity
  8
10000_FRONT
  6
Continuous
 62
     7
370
    20
100
AcDbLine
 39
0.7
 10
-20.87429916656693
 20
656.965427711109
 30
0.0
 11
-20.89995616656694
 21
656.804777711109
 31
0.0
  0
LINE
  5
C0EA
330
20
100
AcDbEntity
  8
10000_FRONT
  6
Continuous
 62
     7
370
    20
100
AcDbLine
 39
0.7
 10
-20.84553516656692
 20
657.1515177111089
 30
0.0
 11
-20.87429916656693
 21
656.965427711109
 31
0.0
  0
LINE
  5
C0EB
330
20
100
AcDbEntity
  8
10000_FRONT
  6
Continuous
 62
     7
370
    20
100
AcDbLine
 39
0.7
 10
-20.81233716656692
 20
657.3750577111089
 30
0.0
 11
-20.84553516656692
 21
657.1515177111089
 31
0.0
  0
LINE
  5
C0EC
330
20
100
AcDbEntity
  8
10000_FRONT
  6
Continuous
 62
     7
370
    20
100
AcDbLine
 39
0.7
 10
-20.77947216656693
 20
657.6068177111087
 30
0.0
 11
-20.81233716656692
 21
657.3750577111089
 31
0.0
  0
LINE
  5
C0ED
330
20
100
AcDbEntity
  8
10000_FRONT
  6
Continuous
 62
     7
370
    20
100
AcDbLine
 39
0.7
 10
-20.70648816656693
 20
658.1675077111087
 30
0.0
 11
-20.77947216656693
 21
657.6068177111087
 31
0.0
  0
LINE
  5
C0EE
330
20
100
AcDbEntity
  8
10000_FRONT
  6
Continuous
 62
     7
370
    20
100
AcDbLine
 39
0.7
 10
-20.63987616656692
 20
658.7548977111087
 30
0.0
 11
-20.70648816656693
 21
658.1675077111087
 31
0.0
  0
LINE
  5
C0EF
330
20
100
AcDbEntity
  8
10000_FRONT
  6
Continuous
 62
     7
370
    20
100
AcDbLine
 39
0.7
 10
-20.53324716656693
 20
659.9784377111087
 30
0.0
 11
-20.63987616656692
 21
658.7548977111087
 31
0.0
  0
LINE
  5
C0F0
330
20
100
AcDbEntity
  8
10000_FRONT
  6
Continuous
 62
     7
370
    20
100
AcDbLine
 39
0.7
 10
-20.46924116656693
 20
661.2158577111088
 30
0.0
 11
-20.53324716656693
 21
659.9784377111087
 31
0.0
  0
LINE
  5
C0F1
330
20
100
AcDbEntity
  8
10000_FRONT
  6
Continuous
 62
     7
370
    20
100
AcDbLine
 39
0.7
 10
-20.44938716656695
 20
662.2487977111087
 30
0.0
 11
-20.46924116656693
 21
661.2158577111088
 31
0.0
  0
LINE
  5
C0F2
330
20
100
AcDbEntity
  8
10000_FRONT
  6
Continuous
 62
     7
370
    20
100
AcDbLine
 39
0.7
 10
-16.59825416656692
 20
645.2952277111087
 30
0.0
 11
-16.03150716656692
 21
644.8977377111089
 31
0.0
  0
LINE
  5
C0F3
330
20
100
AcDbEntity
  8
10000_FRONT
  6
Continuous
 62
     7
370
    20
100
AcDbLine
 39
0.7
 10
-17.12231816656692
 20
645.6481777111088
 30
0.0
 11
-16.59825416656692
 21
645.2952277111087
 31
0.0
  0
LINE
  5
C0F4
330
20
100
AcDbEntity
  8
10000_FRONT
  6
Continuous
 62
     7
370
    20
100
AcDbLine
 39
0.7
 10
-12.51727416656693
 20
642.0181177111087
 30
0.0
 11
-11.77283416656692
 21
641.3017477111089
 31
0.0
  0
LINE
  5
C0F5
330
20
100
AcDbEntity
  8
10000_FRONT
  6
Continuous
 62
     7
370
    20
100
AcDbLine
 39
0.7
 10
-13.43752216656693
 20
642.8478377111088
 30
0.0
 11
-12.51727416656693
 21
642.0181177111087
 31
0.0
  0
LINE
  5
C0F6
330
20
100
AcDbEntity
  8
10000_FRONT
  6
Continuous
 62
     7
370
    20
100
AcDbLine
 39
0.7
 10
-14.37809116656693
 20
643.637617711109
 30
0.0
 11
-13.43752216656693
 21
642.8478377111088
 31
0.0
  0
LINE
  5
C0F7
330
20
100
AcDbEntity
  8
10000_FRONT
  6
Continuous
 62
     7
370
    20
100
AcDbLine
 39
0.7
 10
-14.84054516656692
 20
644.0058677111087
 30
0.0
 11
-14.37809116656693
 21
643.637617711109
 31
0.0
  0
LINE
  5
C0F8
330
20
100
AcDbEntity
  8
10000_FRONT
  6
Continuous
 62
     7
370
    20
100
AcDbLine
 39
0.7
 10
-15.28861716656692
 20
644.3507177111087
 30
0.0
 11
-14.84054516656692
 21
644.0058677111087
 31
0.0
  0
LINE
  5
C0F9
330
20
100
AcDbEntity
  8
10000_FRONT
  6
Continuous
 62
     7
370
    20
100
AcDbLine
 39
0.7
 10
-15.47573916656692
 20
644.4913677111087
 30
0.0
 11
-15.28861716656692
 21
644.3507177111087
 31
0.0
  0
LINE
  5
C0FA
330
20
100
AcDbEntity
  8
10000_FRONT
  6
Continuous
 62
     7
370
    20
100
AcDbLine
 39
0.7
 10
-15.65727716656693
 20
644.6259577111089
 30
0.0
 11
-15.47573916656692
 21
644.4913677111087
 31
0.0
  0
LINE
  5
C0FB
330
20
100
AcDbEntity
  8
10000_FRONT
  6
Continuous
 62
     7
370
    20
100
AcDbLine
 39
0.7
 10
-15.80920316656693
 20
644.7372077111089
 30
0.0
 11
-15.65727716656693
 21
644.6259577111089
 31
0.0
  0
LINE
  5
C0FC
330
20
100
AcDbEntity
  8
10000_FRONT
  6
Continuous
 62
     7
370
    20
100
AcDbLine
 39
0.7
 10
-15.94094216656692
 20
644.8326577111088
 30
0.0
 11
-15.80920316656693
 21
644.7372077111089
 31
0.0
  0
LINE
  5
C0FD
330
20
100
AcDbEntity
  8
10000_FRONT
  6
Continuous
 62
     7
370
    20
100
AcDbLine
 39
0.7
 10
-15.98778116656693
 20
644.8663677111087
 30
0.0
 11
-15.94094216656692
 21
644.8326577111088
 31
0.0
  0
LINE
  5
C0FE
330
20
100
AcDbEntity
  8
10000_FRONT
  6
Continuous
 62
     7
370
    20
100
AcDbLine
 39
0.7
 10
-16.02302516656692
 20
644.8916577111089
 30
0.0
 11
-15.98778116656693
 21
644.8663677111087
 31
0.0
  0
LINE
  5
C0FF
330
20
100
AcDbEntity
  8
10000_FRONT
  6
Continuous
 62
     7
370
    20
100
AcDbLine
 39
0.7
 10
-16.03150716656692
 20
644.8977377111089
 30
0.0
 11
-16.02302516656692
 21
644.8916577111089
 31
0.0
  0
LINE
  5
C100
330
20
100
AcDbEntity
  8
10000_FRONT
  6
Continuous
 62
     7
370
    20
100
AcDbLine
 39
0.7
 10
-7.987522166566932
 20
636.8661077111087
 30
0.0
 11
-7.956154166566932
 21
636.8223877111088
 31
0.0
  0
LINE
  5
C101
330
20
100
AcDbEntity
  8
10000_FRONT
  6
Continuous
 62
     7
370
    20
100
AcDbLine
 39
0.7
 10
-8.021236166566922
 20
636.9129477111088
 30
0.0
 11
-7.987522166566932
 21
636.8661077111087
 31
0.0
  0
LINE
  5
C102
330
20
100
AcDbEntity
  8
10000_FRONT
  6
Continuous
 62
     7
370
    20
100
AcDbLine
 39
0.7
 10
-8.116690166566925
 20
637.0446877111087
 30
0.0
 11
-8.021236166566922
 21
636.9129477111088
 31
0.0
  0
LINE
  5
C103
330
20
100
AcDbEntity
  8
10000_FRONT
  6
Continuous
 62
     7
370
    20
100
AcDbLine
 39
0.7
 10
-8.227939166566926
 20
637.1966177111087
 30
0.0
 11
-8.116690166566925
 21
637.0446877111087
 31
0.0
  0
LINE
  5
C104
330
20
100
AcDbEntity
  8
10000_FRONT
  6
Continuous
 62
     7
370
    20
100
AcDbLine
 39
0.7
 10
-8.362527166566932
 20
637.3781577111087
 30
0.0
 11
-8.227939166566926
 21
637.1966177111087
 31
0.0
  0
LINE
  5
C105
330
20
100
AcDbEntity
  8
10000_FRONT
  6
Continuous
 62
     7
370
    20
100
AcDbLine
 39
0.7
 10
-8.503171166566929
 20
637.5652777111088
 30
0.0
 11
-8.362527166566932
 21
637.3781577111087
 31
0.0
  0
LINE
  5
C106
330
20
100
AcDbEntity
  8
10000_FRONT
  6
Continuous
 62
     7
370
    20
100
AcDbLine
 39
0.7
 10
-8.848028166566932
 20
638.013347711109
 30
0.0
 11
-8.503171166566929
 21
637.5652777111088
 31
0.0
  0
LINE
  5
C107
330
20
100
AcDbEntity
  8
10000_FRONT
  6
Continuous
 62
     7
370
    20
100
AcDbLine
 39
0.7
 10
-9.216278166566921
 20
638.4757977111087
 30
0.0
 11
-8.848028166566932
 21
638.013347711109
 31
0.0
  0
LINE
  5
C108
330
20
100
AcDbEntity
  8
10000_FRONT
  6
Continuous
 62
     7
370
    20
100
AcDbLine
 39
0.7
 10
-10.00605216656693
 20
639.4163677111087
 30
0.0
 11
-9.216278166566921
 21
638.4757977111087
 31
0.0
  0
LINE
  5
C109
330
20
100
AcDbEntity
  8
10000_FRONT
  6
Continuous
 62
     7
370
    20
100
AcDbLine
 39
0.7
 10
-10.83578016656693
 20
640.3366177111088
 30
0.0
 11
-10.00605216656693
 21
639.4163677111087
 31
0.0
  0
LINE
  5
C10A
330
20
100
AcDbEntity
  8
10000_FRONT
  6
Continuous
 62
     7
370
    20
100
AcDbLine
 39
0.7
 10
-11.55214316656693
 20
641.0810577111089
 30
0.0
 11
-10.83578016656693
 21
640.3366177111088
 31
0.0
  0
LINE
  5
C10B
330
20
100
AcDbEntity
  8
10000_FRONT
  6
Continuous
 62
     7
370
    20
100
AcDbLine
 39
0.7
 10
-7.558668166566932
 20
636.2556377111087
 30
0.0
 11
-7.205714166566932
 21
635.7315777111089
 31
0.0
  0
LINE
  5
C10C
330
20
100
AcDbEntity
  8
10000_FRONT
  6
Continuous
 62
     7
370
    20
100
AcDbLine
 39
0.7
 10
-7.956154166566932
 20
636.8223877111088
 30
0.0
 11
-7.558668166566932
 21
636.2556377111087
 31
0.0
  0
ARC
  5
C10D
330
20
100
AcDbEntity
  8
10000_FRONT
  6
Continuous
 62
     7
370
    20
100
AcDbCircle
 39
0.7
 10
9.550960833433066
 20
662.4048577111087
 30
0.0
 40
30.0
100
AcDbArc
 50
225.0000000000003
 51
225.5308799999992
  0
ARC
  5
C10F
330
20
100
AcDbEntity
  8
10000_FRONT
  6
Continuous
 62
     7
370
    20
100
AcDbCircle
 39
0.7
 10
9.550960833433066
 20
662.4048577111087
 30
0.0
 40
31.5
100
AcDbArc
 50
237.8621600000004
 51
257.13784
  0
LINE
  5
C110
330
20
100
AcDbEntity
  8
10000_FRONT
  6
Continuous
 62
     7
370
    20
100
AcDbLine
 39
0.7
 10
8.361964833433077
 20
632.3846477111088
 30
0.0
 11
9.394908833433063
 21
632.4045077111087
 31
0.0
  0
LINE
  5
C111
330
20
100
AcDbEntity
  8
10000_FRONT
  6
Continuous
 62
     7
370
    20
100
AcDbLine
 39
0.7
 10
7.124544833433077
 20
632.3206477111089
 30
0.0
 11
8.361964833433077
 21
632.3846477111088
 31
0.0
  0
LINE
  5
C112
330
20
100
AcDbEntity
  8
10000_FRONT
  6
Continuous
 62
     7
370
    20
100
AcDbLine
 39
0.7
 10
5.90100783343307
 20
632.2140177111089
 30
0.0
 11
7.124544833433077
 21
632.3206477111089
 31
0.0
  0
LINE
  5
C113
330
20
100
AcDbEntity
  8
10000_FRONT
  6
Continuous
 62
     7
370
    20
100
AcDbLine
 39
0.7
 10
5.313611833433071
 20
632.1474077111088
 30
0.0
 11
5.90100783343307
 21
632.2140177111089
 31
0.0
  0
LINE
  5
C114
330
20
100
AcDbEntity
  8
10000_FRONT
  6
Continuous
 62
     7
370
    20
100
AcDbLine
 39
0.7
 10
4.752925833433066
 20
632.0744177111087
 30
0.0
 11
5.313611833433071
 21
632.1474077111088
 31
0.0
  0
LINE
  5
C115
330
20
100
AcDbEntity
  8
10000_FRONT
  6
Continuous
 62
     7
370
    20
100
AcDbLine
 39
0.7
 10
4.521160833433071
 20
632.0415577111089
 30
0.0
 11
4.752925833433066
 21
632.0744177111087
 31
0.0
  0
LINE
  5
C116
330
20
100
AcDbEntity
  8
10000_FRONT
  6
Continuous
 62
     7
370
    20
100
AcDbLine
 39
0.7
 10
4.297625833433071
 20
632.0083577111088
 30
0.0
 11
4.521160833433071
 21
632.0415577111089
 31
0.0
  0
LINE
  5
C117
330
20
100
AcDbEntity
  8
10000_FRONT
  6
Continuous
 62
     7
370
    20
100
AcDbLine
 39
0.7
 10
4.111532833433074
 20
631.9795977111088
 30
0.0
 11
4.297625833433071
 21
632.0083577111088
 31
0.0
  0
LINE
  5
C118
330
20
100
AcDbEntity
  8
10000_FRONT
  6
Continuous
 62
     7
370
    20
100
AcDbLine
 39
0.7
 10
3.950882833433068
 20
631.9539377111087
 30
0.0
 11
4.111532833433074
 21
631.9795977111088
 31
0.0
  0
LINE
  5
C119
330
20
100
AcDbEntity
  8
10000_FRONT
  6
Continuous
 62
     7
370
    20
100
AcDbLine
 39
0.7
 10
3.893922833433066
 20
631.9446577111087
 30
0.0
 11
3.950882833433068
 21
631.9539377111087
 31
0.0
  0
LINE
  5
C11A
330
20
100
AcDbEntity
  8
10000_FRONT
  6
Continuous
 62
     7
370
    20
100
AcDbLine
 39
0.7
 10
3.851118833433075
 20
631.9376177111088
 30
0.0
 11
3.893922833433066
 21
631.9446577111087
 31
0.0
  0
LINE
  5
C11B
330
20
100
AcDbEntity
  8
10000_FRONT
  6
Continuous
 62
     7
370
    20
100
AcDbLine
 39
0.7
 10
3.840823833433076
 20
631.9359177111087
 30
0.0
 11
3.851118833433075
 21
631.9376177111088
 31
0.0
  0
LINE
  5
C11C
330
20
100
AcDbEntity
  8
10000_FRONT
  6
Continuous
 62
     7
370
    20
100
AcDbLine
 39
0.7
 10
3.159008833433075
 20
631.8162277111087
 30
0.0
 11
3.840823833433076
 21
631.9359177111087
 31
0.0
  0
LINE
  5
C11D
330
20
100
AcDbEntity
  8
10000_FRONT
  6
Continuous
 62
     7
370
    20
100
AcDbLine
 39
0.7
 10
2.53886283343307
 20
631.6952377111087
 30
0.0
 11
3.159008833433075
 21
631.8162277111087
 31
0.0
  0
ARC
  5
C11E
330
20
100
AcDbEntity
  8
10000_FRONT
  6
Continuous
 62
     7
370
    20
100
AcDbCircle
 39
0.7
 10
9.550960833433066
 20
662.4048577111087
 30
0.0
 40
31.5
100
AcDbArc
 50
327.8621599999983
 51
349.0194299999962
  0
LINE
  5
C11F
330
20
100
AcDbEntity
  8
10000_FRONT
  6
Continuous
 62
     7
370
    20
100
AcDbLine
 39
0.7
 10
26.65585783343308
 20
636.3739377111087
 30
0.0
 11
26.81853783343307
 21
636.4837077111087
 31
0.0
  0
LINE
  5
C120
330
20
100
AcDbEntity
  8
10000_FRONT
  6
Continuous
 62
     7
370
    20
100
AcDbLine
 39
0.7
 10
25.89532783343307
 20
635.8729677111088
 30
0.0
 11
26.65585783343308
 21
636.3739377111087
 31
0.0
  0
LINE
  5
C121
330
20
100
AcDbEntity
  8
10000_FRONT
  6
Continuous
 62
     7
370
    20
100
AcDbLine
 39
0.7
 10
25.18726783343307
 20
635.4225077111087
 30
0.0
 11
25.89532783343307
 21
635.8729677111088
 31
0.0
  0
LINE
  5
C122
330
20
100
AcDbEntity
  8
10000_FRONT
  6
Continuous
 62
     7
370
    20
100
AcDbLine
 39
0.7
 10
24.57984783343306
 20
635.0445777111088
 30
0.0
 11
25.18726783343307
 21
635.4225077111087
 31
0.0
  0
LINE
  5
C123
330
20
100
AcDbEntity
  8
10000_FRONT
  6
Continuous
 62
     7
370
    20
100
AcDbLine
 39
0.7
 10
24.07902783343307
 20
634.7333877111089
 30
0.0
 11
24.57984783343306
 21
635.0445777111088
 31
0.0
  0
LINE
  5
C124
330
20
100
AcDbEntity
  8
10000_FRONT
  6
Continuous
 62
     7
370
    20
100
AcDbLine
 39
0.7
 10
23.69801783343307
 20
634.4876477111088
 30
0.0
 11
24.07902783343307
 21
634.7333877111089
 31
0.0
  0
LINE
  5
C125
330
20
100
AcDbEntity
  8
10000_FRONT
  6
Continuous
 62
     7
370
    20
100
AcDbLine
 39
0.7
 10
23.47259783343307
 20
634.3214777111087
 30
0.0
 11
23.69801783343307
 21
634.4876477111088
 31
0.0
  0
LINE
  5
C126
330
20
100
AcDbEntity
  8
10000_FRONT
  6
Continuous
 62
     7
370
    20
100
AcDbLine
 39
0.7
 10
23.43894783343308
 20
634.2893877111087
 30
0.0
 11
23.47259783343307
 21
634.3214777111087
 31
0.0
  0
LINE
  5
C127
330
20
100
AcDbEntity
  8
10000_FRONT
  6
Continuous
 62
     7
370
    20
100
AcDbLine
 39
0.7
 10
23.52104783343307
 20
634.1721277111088
 30
0.0
 11
23.43894783343308
 21
634.2893877111087
 31
0.0
  0
ARC
  5
C128
330
20
100
AcDbEntity
  8
10000_FRONT
  6
Continuous
 62
     7
370
    20
100
AcDbCircle
 39
0.7
 10
9.550960833433066
 20
662.4048577111087
 30
0.0
 40
31.5
100
AcDbArc
 50
282.86216
 51
296.3270800000008
  0
LINE
  5
C129
330
20
100
AcDbEntity
  8
10000_FRONT
  6
Continuous
 62
     7
370
    20
100
AcDbLine
 39
0.7
 10
15.94291383343307
 20
631.8162277111087
 30
0.0
 11
16.56305883343307
 21
631.6952377111087
 31
0.0
  0
LINE
  5
C12A
330
20
100
AcDbEntity
  8
10000_FRONT
  6
Continuous
 62
     7
370
    20
100
AcDbLine
 39
0.7
 10
15.26109783343307
 20
631.9359177111087
 30
0.0
 11
15.94291383343307
 21
631.8162277111087
 31
0.0
  0
LINE
  5
C12B
330
20
100
AcDbEntity
  8
10000_FRONT
  6
Continuous
 62
     7
370
    20
100
AcDbLine
 39
0.7
 10
15.20799883343307
 20
631.9446577111087
 30
0.0
 11
15.26109783343307
 21
631.9359177111087
 31
0.0
  0
LINE
  5
C12C
330
20
100
AcDbEntity
  8
10000_FRONT
  6
Continuous
 62
     7
370
    20
100
AcDbLine
 39
0.7
 10
15.15103883343307
 20
631.9539377111087
 30
0.0
 11
15.20799883343307
 21
631.9446577111087
 31
0.0
  0
LINE
  5
C12D
330
20
100
AcDbEntity
  8
10000_FRONT
  6
Continuous
 62
     7
370
    20
100
AcDbLine
 39
0.7
 10
14.99038883343307
 20
631.9795977111088
 30
0.0
 11
15.15103883343307
 21
631.9539377111087
 31
0.0
  0
LINE
  5
C12E
330
20
100
AcDbEntity
  8
10000_FRONT
  6
Continuous
 62
     7
370
    20
100
AcDbLine
 39
0.7
 10
14.80429583343307
 20
632.0083577111088
 30
0.0
 11
14.99038883343307
 21
631.9795977111088
 31
0.0
  0
LINE
  5
C12F
330
20
100
AcDbEntity
  8
10000_FRONT
  6
Continuous
 62
     7
370
    20
100
AcDbLine
 39
0.7
 10
14.58076083343307
 20
632.0415577111089
 30
0.0
 11
14.80429583343307
 21
632.0083577111088
 31
0.0
  0
LINE
  5
C130
330
20
100
AcDbEntity
  8
10000_FRONT
  6
Continuous
 62
     7
370
    20
100
AcDbLine
 39
0.7
 10
14.34899683343308
 20
632.0744177111087
 30
0.0
 11
14.58076083343307
 21
632.0415577111089
 31
0.0
  0
LINE
  5
C131
330
20
100
AcDbEntity
  8
10000_FRONT
  6
Continuous
 62
     7
370
    20
100
AcDbLine
 39
0.7
 10
13.78830983343307
 20
632.1474077111088
 30
0.0
 11
14.34899683343308
 21
632.0744177111087
 31
0.0
  0
LINE
  5
C132
330
20
100
AcDbEntity
  8
10000_FRONT
  6
Continuous
 62
     7
370
    20
100
AcDbLine
 39
0.7
 10
13.20091383343308
 20
632.2140177111089
 30
0.0
 11
13.78830983343307
 21
632.1474077111088
 31
0.0
  0
LINE
  5
C133
330
20
100
AcDbEntity
  8
10000_FRONT
  6
Continuous
 62
     7
370
    20
100
AcDbLine
 39
0.7
 10
11.97737683343307
 20
632.3206477111089
 30
0.0
 11
13.20091383343308
 21
632.2140177111089
 31
0.0
  0
LINE
  5
C134
330
20
100
AcDbEntity
  8
10000_FRONT
  6
Continuous
 62
     7
370
    20
100
AcDbLine
 39
0.7
 10
10.73995683343307
 20
632.3846477111088
 30
0.0
 11
11.97737683343307
 21
632.3206477111089
 31
0.0
  0
LINE
  5
C135
330
20
100
AcDbEntity
  8
10000_FRONT
  6
Continuous
 62
     7
370
    20
100
AcDbLine
 39
0.7
 10
9.707012833433067
 20
632.4045077111087
 30
0.0
 11
10.73995683343307
 21
632.3846477111088
 31
0.0
  0
LINE
  5
C136
330
20
100
AcDbEntity
  8
10000_FRONT
  6
Continuous
 62
     7
370
    20
100
AcDbLine
 39
0.7
 10
35.70017783343307
 20
645.2952277111087
 30
0.0
 11
36.22423783343307
 21
645.6481777111088
 31
0.0
  0
LINE
  5
C137
330
20
100
AcDbEntity
  8
10000_FRONT
  6
Continuous
 62
     7
370
    20
100
AcDbLine
 39
0.7
 10
35.13342783343308
 20
644.8977377111089
 30
0.0
 11
35.70017783343307
 21
645.2952277111087
 31
0.0
  0
LINE
  5
C138
330
20
100
AcDbEntity
  8
10000_FRONT
  6
Continuous
 62
     7
370
    20
100
AcDbLine
 39
0.7
 10
26.81853783343307
 20
636.4837077111087
 30
0.0
 11
27.05807783343308
 21
636.8223877111088
 31
0.0
  0
LINE
  5
C139
330
20
100
AcDbEntity
  8
10000_FRONT
  6
Continuous
 62
     7
370
    20
100
AcDbLine
 39
0.7
 10
29.93769783343308
 20
640.3366177111088
 30
0.0
 11
30.65406783343308
 21
641.0810577111089
 31
0.0
  0
LINE
  5
C13A
330
20
100
AcDbEntity
  8
10000_FRONT
  6
Continuous
 62
     7
370
    20
100
AcDbLine
 39
0.7
 10
29.10797783343307
 20
639.4163677111087
 30
0.0
 11
29.93769783343308
 21
640.3366177111088
 31
0.0
  0
LINE
  5
C13B
330
20
100
AcDbEntity
  8
10000_FRONT
  6
Continuous
 62
     7
370
    20
100
AcDbLine
 39
0.7
 10
28.31819783343308
 20
638.4757977111087
 30
0.0
 11
29.10797783343307
 21
639.4163677111087
 31
0.0
  0
LINE
  5
C13C
330
20
100
AcDbEntity
  8
10000_FRONT
  6
Continuous
 62
     7
370
    20
100
AcDbLine
 39
0.7
 10
27.94994783343307
 20
638.013347711109
 30
0.0
 11
28.31819783343308
 21
638.4757977111087
 31
0.0
  0
LINE
  5
C13D
330
20
100
AcDbEntity
  8
10000_FRONT
  6
Continuous
 62
     7
370
    20
100
AcDbLine
 39
0.7
 10
27.60509783343308
 20
637.5652777111088
 30
0.0
 11
27.94994783343307
 21
638.013347711109
 31
0.0
  0
LINE
  5
C13E
330
20
100
AcDbEntity
  8
10000_FRONT
  6
Continuous
 62
     7
370
    20
100
AcDbLine
 39
0.7
 10
27.46444783343307
 20
637.3781577111087
 30
0.0
 11
27.60509783343308
 21
637.5652777111088
 31
0.0
  0
LINE
  5
C13F
330
20
100
AcDbEntity
  8
10000_FRONT
  6
Continuous
 62
     7
370
    20
100
AcDbLine
 39
0.7
 10
27.32985783343307
 20
637.1966177111087
 30
0.0
 11
27.46444783343307
 21
637.3781577111087
 31
0.0
  0
LINE
  5
C140
330
20
100
AcDbEntity
  8
10000_FRONT
  6
Continuous
 62
     7
370
    20
100
AcDbLine
 39
0.7
 10
27.21860783343307
 20
637.0446877111087
 30
0.0
 11
27.32985783343307
 21
637.1966177111087
 31
0.0
  0
LINE
  5
C141
330
20
100
AcDbEntity
  8
10000_FRONT
  6
Continuous
 62
     7
370
    20
100
AcDbLine
 39
0.7
 10
27.12315783343307
 20
636.9129477111088
 30
0.0
 11
27.21860783343307
 21
637.0446877111087
 31
0.0
  0
LINE
  5
C142
330
20
100
AcDbEntity
  8
10000_FRONT
  6
Continuous
 62
     7
370
    20
100
AcDbLine
 39
0.7
 10
27.08944783343307
 20
636.8661077111087
 30
0.0
 11
27.12315783343307
 21
636.9129477111088
 31
0.0
  0
LINE
  5
C143
330
20
100
AcDbEntity
  8
10000_FRONT
  6
Continuous
 62
     7
370
    20
100
AcDbLine
 39
0.7
 10
27.06415783343307
 20
636.8308677111087
 30
0.0
 11
27.08944783343307
 21
636.8661077111087
 31
0.0
  0
LINE
  5
C144
330
20
100
AcDbEntity
  8
10000_FRONT
  6
Continuous
 62
     7
370
    20
100
AcDbLine
 39
0.7
 10
27.05807783343308
 20
636.8223877111088
 30
0.0
 11
27.06415783343307
 21
636.8308677111087
 31
0.0
  0
LINE
  5
C145
330
20
100
AcDbEntity
  8
10000_FRONT
  6
Continuous
 62
     7
370
    20
100
AcDbLine
 39
0.7
 10
35.12494783343307
 20
644.8916577111089
 30
0.0
 11
35.13342783343308
 21
644.8977377111089
 31
0.0
  0
LINE
  5
C146
330
20
100
AcDbEntity
  8
10000_FRONT
  6
Continuous
 62
     7
370
    20
100
AcDbLine
 39
0.7
 10
35.08969783343307
 20
644.8663677111087
 30
0.0
 11
35.12494783343307
 21
644.8916577111089
 31
0.0
  0
LINE
  5
C147
330
20
100
AcDbEntity
  8
10000_FRONT
  6
Continuous
 62
     7
370
    20
100
AcDbLine
 39
0.7
 10
35.04286783343307
 20
644.8326577111088
 30
0.0
 11
35.08969783343307
 21
644.8663677111087
 31
0.0
  0
LINE
  5
C148
330
20
100
AcDbEntity
  8
10000_FRONT
  6
Continuous
 62
     7
370
    20
100
AcDbLine
 39
0.7
 10
34.91112783343307
 20
644.7372077111089
 30
0.0
 11
35.04286783343307
 21
644.8326577111088
 31
0.0
  0
LINE
  5
C149
330
20
100
AcDbEntity
  8
10000_FRONT
  6
Continuous
 62
     7
370
    20
100
AcDbLine
 39
0.7
 10
34.75919783343308
 20
644.6259577111089
 30
0.0
 11
34.91112783343307
 21
644.7372077111089
 31
0.0
  0
LINE
  5
C14A
330
20
100
AcDbEntity
  8
10000_FRONT
  6
Continuous
 62
     7
370
    20
100
AcDbLine
 39
0.7
 10
34.57765783343307
 20
644.4913677111087
 30
0.0
 11
34.75919783343308
 21
644.6259577111089
 31
0.0
  0
LINE
  5
C14B
330
20
100
AcDbEntity
  8
10000_FRONT
  6
Continuous
 62
     7
370
    20
100
AcDbLine
 39
0.7
 10
34.39053783343307
 20
644.3507177111087
 30
0.0
 11
34.57765783343307
 21
644.4913677111087
 31
0.0
  0
LINE
  5
C14C
330
20
100
AcDbEntity
  8
10000_FRONT
  6
Continuous
 62
     7
370
    20
100
AcDbLine
 39
0.7
 10
33.94246783343307
 20
644.0058677111087
 30
0.0
 11
34.39053783343307
 21
644.3507177111087
 31
0.0
  0
LINE
  5
C14D
330
20
100
AcDbEntity
  8
10000_FRONT
  6
Continuous
 62
     7
370
    20
100
AcDbLine
 39
0.7
 10
33.48000783343308
 20
643.637617711109
 30
0.0
 11
33.94246783343307
 21
644.0058677111087
 31
0.0
  0
LINE
  5
C14E
330
20
100
AcDbEntity
  8
10000_FRONT
  6
Continuous
 62
     7
370
    20
100
AcDbLine
 39
0.7
 10
32.53944783343307
 20
642.8478377111088
 30
0.0
 11
33.48000783343308
 21
643.637617711109
 31
0.0
  0
LINE
  5
C14F
330
20
100
AcDbEntity
  8
10000_FRONT
  6
Continuous
 62
     7
370
    20
100
AcDbLine
 39
0.7
 10
31.61919783343308
 20
642.0181177111087
 30
0.0
 11
32.53944783343307
 21
642.8478377111088
 31
0.0
  0
LINE
  5
C150
330
20
100
AcDbEntity
  8
10000_FRONT
  6
Continuous
 62
     7
370
    20
100
AcDbLine
 39
0.7
 10
30.87475783343307
 20
641.3017477111089
 30
0.0
 11
31.61919783343308
 21
642.0181177111087
 31
0.0
  0
ARC
  5
C151
330
20
100
AcDbEntity
  8
10000_FRONT
  6
Continuous
 62
     7
370
    20
100
AcDbCircle
 39
0.7
 10
9.550960833433066
 20
662.4048577111087
 30
0.0
 40
30.0
100
AcDbArc
 50
134.9999999999997
 51
135.2416799999982
  0
LINE
  5
C152
330
20
100
AcDbEntity
  8
10000_FRONT
  6
Continuous
 62
     7
370
    20
100
AcDbLine
 39
0.7
 10
-21.03767316656693
 20
668.7968777111088
 30
0.0
 11
-20.91797616656693
 21
668.1149877111088
 31
0.0
  0
LINE
  5
C153
330
20
100
AcDbEntity
  8
10000_FRONT
  6
Continuous
 62
     7
370
    20
100
AcDbLine
 39
0.7
 10
-21.15865416656692
 20
669.4169477111088
 30
0.0
 11
-21.03767316656693
 21
668.7968777111088
 31
0.0
  0
ARC
  5
C154
330
20
100
AcDbEntity
  8
10000_FRONT
  6
Continuous
 62
     7
370
    20
100
AcDbCircle
 39
0.7
 10
9.550960833433066
 20
662.4048577111087
 30
0.0
 40
31.5
100
AcDbArc
 50
147.8621599999983
 51
167.1378399999976
  0
LINE
  5
C155
330
20
100
AcDbEntity
  8
10000_FRONT
  6
Continuous
 62
     7
370
    20
100
AcDbLine
 39
0.7
 10
-20.46924116656693
 20
663.5938477111087
 30
0.0
 11
-20.44938716656695
 21
662.5609077111088
 31
0.0
  0
LINE
  5
C156
330
20
100
AcDbEntity
  8
10000_FRONT
  6
Continuous
 62
     7
370
    20
100
AcDbLine
 39
0.7
 10
-20.53324716656693
 20
664.8312677111087
 30
0.0
 11
-20.46924116656693
 21
663.5938477111087
 31
0.0
  0
LINE
  5
C157
330
20
100
AcDbEntity
  8
10000_FRONT
  6
Continuous
 62
     7
370
    20
100
AcDbLine
 39
0.7
 10
-20.63987616656692
 20
666.0548077111087
 30
0.0
 11
-20.53324716656693
 21
664.8312677111087
 31
0.0
  0
LINE
  5
C158
330
20
100
AcDbEntity
  8
10000_FRONT
  6
Continuous
 62
     7
370
    20
100
AcDbLine
 39
0.7
 10
-20.70648816656693
 20
666.6422077111088
 30
0.0
 11
-20.63987616656692
 21
666.0548077111087
 31
0.0
  0
LINE
  5
C159
330
20
100
AcDbEntity
  8
10000_FRONT
  6
Continuous
 62
     7
370
    20
100
AcDbLine
 39
0.7
 10
-20.77947216656693
 20
667.2028877111088
 30
0.0
 11
-20.70648816656693
 21
666.6422077111088
 31
0.0
  0
LINE
  5
C15A
330
20
100
AcDbEntity
  8
10000_FRONT
  6
Continuous
 62
     7
370
    20
100
AcDbLine
 39
0.7
 10
-20.81233716656692
 20
667.4346577111089
 30
0.0
 11
-20.77947216656693
 21
667.2028877111088
 31
0.0
  0
LINE
  5
C15B
330
20
100
AcDbEntity
  8
10000_FRONT
  6
Continuous
 62
     7
370
    20
100
AcDbLine
 39
0.7
 10
-20.84553516656692
 20
667.6581877111089
 30
0.0
 11
-20.81233716656692
 21
667.4346577111089
 31
0.0
  0
LINE
  5
C15C
330
20
100
AcDbEntity
  8
10000_FRONT
  6
Continuous
 62
     7
370
    20
100
AcDbLine
 39
0.7
 10
-20.87429916656693
 20
667.8442777111087
 30
0.0
 11
-20.84553516656692
 21
667.6581877111089
 31
0.0
  0
LINE
  5
C15D
330
20
100
AcDbEntity
  8
10000_FRONT
  6
Continuous
 62
     7
370
    20
100
AcDbLine
 39
0.7
 10
-20.89995616656694
 20
668.0049277111087
 30
0.0
 11
-20.87429916656693
 21
667.8442777111087
 31
0.0
  0
LINE
  5
C15E
330
20
100
AcDbEntity
  8
10000_FRONT
  6
Continuous
 62
     7
370
    20
100
AcDbLine
 39
0.7
 10
-20.90923716656693
 20
668.0618877111087
 30
0.0
 11
-20.89995616656694
 21
668.0049277111087
 31
0.0
  0
LINE
  5
C15F
330
20
100
AcDbEntity
  8
10000_FRONT
  6
Continuous
 62
     7
370
    20
100
AcDbLine
 39
0.7
 10
-20.91627516656692
 20
668.1046977111089
 30
0.0
 11
-20.90923716656693
 21
668.0618877111087
 31
0.0
  0
LINE
  5
C160
330
20
100
AcDbEntity
  8
10000_FRONT
  6
Continuous
 62
     7
370
    20
100
AcDbLine
 39
0.7
 10
-20.91797616656693
 20
668.1149877111088
 30
0.0
 11
-20.91627516656692
 21
668.1046977111089
 31
0.0
  0
LINE
  5
C161
330
20
100
AcDbEntity
  8
10000_FRONT
  6
Continuous
 62
     7
370
    20
100
AcDbLine
 39
0.7
 10
-15.98778116656693
 20
679.9433377111088
 30
0.0
 11
-16.03150716656692
 21
679.9119677111089
 31
0.0
  0
LINE
  5
C162
330
20
100
AcDbEntity
  8
10000_FRONT
  6
Continuous
 62
     7
370
    20
100
AcDbLine
 39
0.7
 10
-15.94094216656692
 20
679.9770477111088
 30
0.0
 11
-15.98778116656693
 21
679.9433377111088
 31
0.0
  0
LINE
  5
C163
330
20
100
AcDbEntity
  8
10000_FRONT
  6
Continuous
 62
     7
370
    20
100
AcDbLine
 39
0.7
 10
-15.80920316656693
 20
680.0725077111088
 30
0.0
 11
-15.94094216656692
 21
679.9770477111088
 31
0.0
  0
LINE
  5
C164
330
20
100
AcDbEntity
  8
10000_FRONT
  6
Continuous
 62
     7
370
    20
100
AcDbLine
 39
0.7
 10
-15.65727716656693
 20
680.1837577111089
 30
0.0
 11
-15.80920316656693
 21
680.0725077111088
 31
0.0
  0
LINE
  5
C165
330
20
100
AcDbEntity
  8
10000_FRONT
  6
Continuous
 62
     7
370
    20
100
AcDbLine
 39
0.7
 10
-15.47573916656692
 20
680.3183377111088
 30
0.0
 11
-15.65727716656693
 21
680.1837577111089
 31
0.0
  0
LINE
  5
C166
330
20
100
AcDbEntity
  8
10000_FRONT
  6
Continuous
 62
     7
370
    20
100
AcDbLine
 39
0.7
 10
-15.28861716656692
 20
680.4589877111087
 30
0.0
 11
-15.47573916656692
 21
680.3183377111088
 31
0.0
  0
LINE
  5
C167
330
20
100
AcDbEntity
  8
10000_FRONT
  6
Continuous
 62
     7
370
    20
100
AcDbLine
 39
0.7
 10
-14.84054516656692
 20
680.8038477111088
 30
0.0
 11
-15.28861716656692
 21
680.4589877111087
 31
0.0
  0
LINE
  5
C168
330
20
100
AcDbEntity
  8
10000_FRONT
  6
Continuous
 62
     7
370
    20
100
AcDbLine
 39
0.7
 10
-14.37809116656693
 20
681.1720977111089
 30
0.0
 11
-14.84054516656692
 21
680.8038477111088
 31
0.0
  0
LINE
  5
C169
330
20
100
AcDbEntity
  8
10000_FRONT
  6
Continuous
 62
     7
370
    20
100
AcDbLine
 39
0.7
 10
-13.43752216656693
 20
681.9618677111089
 30
0.0
 11
-14.37809116656693
 21
681.1720977111089
 31
0.0
  0
LINE
  5
C16A
330
20
100
AcDbEntity
  8
10000_FRONT
  6
Continuous
 62
     7
370
    20
100
AcDbLine
 39
0.7
 10
-12.51727416656693
 20
682.7915977111087
 30
0.0
 11
-13.43752216656693
 21
681.9618677111089
 31
0.0
  0
LINE
  5
C16B
330
20
100
AcDbEntity
  8
10000_FRONT
  6
Continuous
 62
     7
370
    20
100
AcDbLine
 39
0.7
 10
-11.77283416656692
 20
683.5079577111088
 30
0.0
 11
-12.51727416656693
 21
682.7915977111087
 31
0.0
  0
LINE
  5
C16C
330
20
100
AcDbEntity
  8
10000_FRONT
  6
Continuous
 62
     7
370
    20
100
AcDbLine
 39
0.7
 10
-16.59825416656692
 20
679.5144777111087
 30
0.0
 11
-17.12231816656692
 21
679.1615277111088
 31
0.0
  0
LINE
  5
C16D
330
20
100
AcDbEntity
  8
10000_FRONT
  6
Continuous
 62
     7
370
    20
100
AcDbLine
 39
0.7
 10
-16.03150716656692
 20
679.9119677111089
 30
0.0
 11
-16.59825416656692
 21
679.5144777111087
 31
0.0
  0
ARC
  5
C16E
330
20
100
AcDbEntity
  8
10000_FRONT
  6
Continuous
 62
     7
370
    20
100
AcDbCircle
 39
0.7
 10
9.550960833433066
 20
662.4048577111087
 30
0.0
 40
30.0
100
AcDbArc
 50
134.7541099999998
 51
134.9999999999997
  0
LINE
  5
C16F
330
20
100
AcDbEntity
  8
10000_FRONT
  6
Continuous
 62
     7
370
    20
100
AcDbLine
 39
0.7
 10
-7.558668166566932
 20
688.5540677111086
 30
0.0
 11
-7.956154166566932
 21
687.987317711109
 31
0.0
  0
LINE
  5
C170
330
20
100
AcDbEntity
  8
10000_FRONT
  6
Continuous
 62
     7
370
    20
100
AcDbLine
 39
0.7
 10
-7.205714166566932
 20
689.0781377111087
 30
0.0
 11
-7.558668166566932
 21
688.5540677111086
 31
0.0
  0
ARC
  5
C171
330
20
100
AcDbEntity
  8
10000_FRONT
  6
Continuous
 62
     7
370
    20
100
AcDbCircle
 39
0.7
 10
9.550960833433066
 20
662.4048577111087
 30
0.0
 40
31.5
100
AcDbArc
 50
102.86216
 51
122.1378399999993
  0
LINE
  5
C172
330
20
100
AcDbEntity
  8
10000_FRONT
  6
Continuous
 62
     7
370
    20
100
AcDbLine
 39
0.7
 10
-10.83578016656693
 20
684.4730877111087
 30
0.0
 11
-11.55214316656693
 21
683.7286477111088
 31
0.0
  0
LINE
  5
C173
330
20
100
AcDbEntity
  8
10000_FRONT
  6
Continuous
 62
     7
370
    20
100
AcDbLine
 39
0.7
 10
-10.00605216656693
 20
685.3933377111087
 30
0.0
 11
-10.83578016656693
 21
684.4730877111087
 31
0.0
  0
LINE
  5
C174
330
20
100
AcDbEntity
  8
10000_FRONT
  6
Continuous
 62
     7
370
    20
100
AcDbLine
 39
0.7
 10
-9.216278166566921
 20
686.3339077111087
 30
0.0
 11
-10.00605216656693
 21
685.3933377111087
 31
0.0
  0
LINE
  5
C175
330
20
100
AcDbEntity
  8
10000_FRONT
  6
Continuous
 62
     7
370
    20
100
AcDbLine
 39
0.7
 10
-8.848028166566932
 20
686.796357711109
 30
0.0
 11
-9.216278166566921
 21
686.3339077111087
 31
0.0
  0
LINE
  5
C176
330
20
100
AcDbEntity
  8
10000_FRONT
  6
Continuous
 62
     7
370
    20
100
AcDbLine
 39
0.7
 10
-8.503171166566929
 20
687.244427711109
 30
0.0
 11
-8.848028166566932
 21
686.796357711109
 31
0.0
  0
LINE
  5
C177
330
20
100
AcDbEntity
  8
10000_FRONT
  6
Continuous
 62
     7
370
    20
100
AcDbLine
 39
0.7
 10
-8.362527166566932
 20
687.4315577111087
 30
0.0
 11
-8.503171166566929
 21
687.244427711109
 31
0.0
  0
LINE
  5
C178
330
20
100
AcDbEntity
  8
10000_FRONT
  6
Continuous
 62
     7
370
    20
100
AcDbLine
 39
0.7
 10
-8.227939166566926
 20
687.6130877111087
 30
0.0
 11
-8.362527166566932
 21
687.4315577111087
 31
0.0
  0
LINE
  5
C179
330
20
100
AcDbEntity
  8
10000_FRONT
  6
Continuous
 62
     7
370
    20
100
AcDbLine
 39
0.7
 10
-8.116690166566925
 20
687.7650177111087
 30
0.0
 11
-8.227939166566926
 21
687.6130877111087
 31
0.0
  0
LINE
  5
C17A
330
20
100
AcDbEntity
  8
10000_FRONT
  6
Continuous
 62
     7
370
    20
100
AcDbLine
 39
0.7
 10
-8.021236166566922
 20
687.8967577111085
 30
0.0
 11
-8.116690166566925
 21
687.7650177111087
 31
0.0
  0
LINE
  5
C17B
330
20
100
AcDbEntity
  8
10000_FRONT
  6
Continuous
 62
     7
370
    20
100
AcDbLine
 39
0.7
 10
-7.987522166566932
 20
687.9435977111087
 30
0.0
 11
-8.021236166566922
 21
687.8967577111085
 31
0.0
  0
LINE
  5
C17C
330
20
100
AcDbEntity
  8
10000_FRONT
  6
Continuous
 62
     7
370
    20
100
AcDbLine
 39
0.7
 10
-7.962231166566922
 20
687.9788377111089
 30
0.0
 11
-7.987522166566932
 21
687.9435977111087
 31
0.0
  0
LINE
  5
C17D
330
20
100
AcDbEntity
  8
10000_FRONT
  6
Continuous
 62
     7
370
    20
100
AcDbLine
 39
0.7
 10
-7.956154166566932
 20
687.987317711109
 30
0.0
 11
-7.962231166566922
 21
687.9788377111089
 31
0.0
  0
LINE
  5
C17E
330
20
100
AcDbEntity
  8
10000_FRONT
  6
Continuous
 62
     7
370
    20
100
AcDbLine
 39
0.7
 10
3.893922833433066
 20
692.8650477111089
 30
0.0
 11
3.840823833433076
 21
692.8737877111089
 31
0.0
  0
LINE
  5
C17F
330
20
100
AcDbEntity
  8
10000_FRONT
  6
Continuous
 62
     7
370
    20
100
AcDbLine
 39
0.7
 10
3.950882833433068
 20
692.8557677111089
 30
0.0
 11
3.893922833433066
 21
692.8650477111089
 31
0.0
  0
LINE
  5
C180
330
20
100
AcDbEntity
  8
10000_FRONT
  6
Continuous
 62
     7
370
    20
100
AcDbLine
 39
0.7
 10
4.111532833433074
 20
692.8301177111087
 30
0.0
 11
3.950882833433068
 21
692.8557677111089
 31
0.0
  0
LINE
  5
C181
330
20
100
AcDbEntity
  8
10000_FRONT
  6
Continuous
 62
     7
370
    20
100
AcDbLine
 39
0.7
 10
4.297625833433071
 20
692.801347711109
 30
0.0
 11
4.111532833433074
 21
692.8301177111087
 31
0.0
  0
LINE
  5
C182
330
20
100
AcDbEntity
  8
10000_FRONT
  6
Continuous
 62
     7
370
    20
100
AcDbLine
 39
0.7
 10
4.521160833433071
 20
692.7681477111089
 30
0.0
 11
4.297625833433071
 21
692.801347711109
 31
0.0
  0
LINE
  5
C183
330
20
100
AcDbEntity
  8
10000_FRONT
  6
Continuous
 62
     7
370
    20
100
AcDbLine
 39
0.7
 10
4.752925833433066
 20
692.7352877111087
 30
0.0
 11
4.521160833433071
 21
692.7681477111089
 31
0.0
  0
LINE
  5
C184
330
20
100
AcDbEntity
  8
10000_FRONT
  6
Continuous
 62
     7
370
    20
100
AcDbLine
 39
0.7
 10
5.313611833433071
 20
692.6622977111087
 30
0.0
 11
4.752925833433066
 21
692.7352877111087
 31
0.0
  0
LINE
  5
C185
330
20
100
AcDbEntity
  8
10000_FRONT
  6
Continuous
 62
     7
370
    20
100
AcDbLine
 39
0.7
 10
5.90100783343307
 20
692.5956877111087
 30
0.0
 11
5.313611833433071
 21
692.6622977111087
 31
0.0
  0
LINE
  5
C186
330
20
100
AcDbEntity
  8
10000_FRONT
  6
Continuous
 62
     7
370
    20
100
AcDbLine
 39
0.7
 10
7.124544833433077
 20
692.4890577111089
 30
0.0
 11
5.90100783343307
 21
692.5956877111087
 31
0.0
  0
LINE
  5
C187
330
20
100
AcDbEntity
  8
10000_FRONT
  6
Continuous
 62
     7
370
    20
100
AcDbLine
 39
0.7
 10
8.361964833433077
 20
692.4250577111087
 30
0.0
 11
7.124544833433077
 21
692.4890577111089
 31
0.0
  0
LINE
  5
C188
330
20
100
AcDbEntity
  8
10000_FRONT
  6
Continuous
 62
     7
370
    20
100
AcDbLine
 39
0.7
 10
9.394908833433063
 20
692.4051977111087
 30
0.0
 11
8.361964833433077
 21
692.4250577111087
 31
0.0
  0
LINE
  5
C189
330
20
100
AcDbEntity
  8
10000_FRONT
  6
Continuous
 62
     7
370
    20
100
AcDbLine
 39
0.7
 10
3.159008833433075
 20
692.9934777111085
 30
0.0
 11
2.53886283343307
 21
693.1144677111085
 31
0.0
  0
LINE
  5
C18A
330
20
100
AcDbEntity
  8
10000_FRONT
  6
Continuous
 62
     7
370
    20
100
AcDbLine
 39
0.7
 10
3.840823833433076
 20
692.8737877111089
 30
0.0
 11
3.159008833433075
 21
692.9934777111085
 31
0.0
  0
LINE
  5
C19B
330
20
100
AcDbEntity
  8
10000_FRONT
  6
Continuous
 62
     7
370
    20
100
AcDbLine
 39
0.7
 10
15.94291383343307
 20
692.9934777111085
 30
0.0
 11
15.26109783343307
 21
692.8737877111089
 31
0.0
  0
LINE
  5
C19C
330
20
100
AcDbEntity
  8
10000_FRONT
  6
Continuous
 62
     7
370
    20
100
AcDbLine
 39
0.7
 10
16.56305883343307
 20
693.1144677111085
 30
0.0
 11
15.94291383343307
 21
692.9934777111085
 31
0.0
  0
ARC
  5
C19D
330
20
100
AcDbEntity
  8
10000_FRONT
  6
Continuous
 62
     7
370
    20
100
AcDbCircle
 39
0.7
 10
9.550960833433066
 20
662.4048577111087
 30
0.0
 40
31.5
100
AcDbArc
 50
63.67292299999895
 51
77.13783999999998
  0
LINE
  5
C19E
330
20
100
AcDbEntity
  8
10000_FRONT
  6
Continuous
 62
     7
370
    20
100
AcDbLine
 39
0.7
 10
23.43894783343308
 20
690.5203177111087
 30
0.0
 11
23.52104783343307
 21
690.6375777111087
 31
0.0
  0
LINE
  5
C19F
330
20
100
AcDbEntity
  8
10000_FRONT
  6
Continuous
 62
     7
370
    20
100
AcDbLine
 39
0.7
 10
23.47259783343307
 20
690.4882277111087
 30
0.0
 11
23.43894783343308
 21
690.5203177111087
 31
0.0
  0
LINE
  5
C1A0
330
20
100
AcDbEntity
  8
10000_FRONT
  6
Continuous
 62
     7
370
    20
100
AcDbLine
 39
0.7
 10
23.69801783343307
 20
690.3220677111087
 30
0.0
 11
23.47259783343307
 21
690.4882277111087
 31
0.0
  0
LINE
  5
C1A1
330
20
100
AcDbEntity
  8
10000_FRONT
  6
Continuous
 62
     7
370
    20
100
AcDbLine
 39
0.7
 10
24.07902783343307
 20
690.0763277111089
 30
0.0
 11
23.69801783343307
 21
690.3220677111087
 31
0.0
  0
LINE
  5
C1A2
330
20
100
AcDbEntity
  8
10000_FRONT
  6
Continuous
 62
     7
370
    20
100
AcDbLine
 39
0.7
 10
24.57984783343306
 20
689.7651277111089
 30
0.0
 11
24.07902783343307
 21
690.0763277111089
 31
0.0
  0
LINE
  5
C1A3
330
20
100
AcDbEntity
  8
10000_FRONT
  6
Continuous
 62
     7
370
    20
100
AcDbLine
 39
0.7
 10
25.18726783343307
 20
689.3871977111089
 30
0.0
 11
24.57984783343306
 21
689.7651277111089
 31
0.0
  0
LINE
  5
C1A4
330
20
100
AcDbEntity
  8
10000_FRONT
  6
Continuous
 62
     7
370
    20
100
AcDbLine
 39
0.7
 10
25.89532783343307
 20
688.9367377111089
 30
0.0
 11
25.18726783343307
 21
689.3871977111089
 31
0.0
  0
LINE
  5
C1A5
330
20
100
AcDbEntity
  8
10000_FRONT
  6
Continuous
 62
     7
370
    20
100
AcDbLine
 39
0.7
 10
26.65585783343308
 20
688.4357777111087
 30
0.0
 11
25.89532783343307
 21
688.9367377111089
 31
0.0
  0
LINE
  5
C1A6
330
20
100
AcDbEntity
  8
10000_FRONT
  6
Continuous
 62
     7
370
    20
100
AcDbLine
 39
0.7
 10
26.81853783343307
 20
688.3259977111086
 30
0.0
 11
26.65585783343308
 21
688.4357777111087
 31
0.0
  0
LINE
  5
C1A7
330
20
100
AcDbEntity
  8
10000_FRONT
  6
Continuous
 62
     7
370
    20
100
AcDbLine
 39
0.7
 10
10.73995683343307
 20
692.4250577111087
 30
0.0
 11
9.707012833433067
 21
692.4051977111087
 31
0.0
  0
LINE
  5
C1A8
330
20
100
AcDbEntity
  8
10000_FRONT
  6
Continuous
 62
     7
370
    20
100
AcDbLine
 39
0.7
 10
11.97737683343307
 20
692.4890577111089
 30
0.0
 11
10.73995683343307
 21
692.4250577111087
 31
0.0
  0
LINE
  5
C1A9
330
20
100
AcDbEntity
  8
10000_FRONT
  6
Continuous
 62
     7
370
    20
100
AcDbLine
 39
0.7
 10
13.20091383343308
 20
692.5956877111087
 30
0.0
 11
11.97737683343307
 21
692.4890577111089
 31
0.0
  0
LINE
  5
C1AA
330
20
100
AcDbEntity
  8
10000_FRONT
  6
Continuous
 62
     7
370
    20
100
AcDbLine
 39
0.7
 10
13.78830983343307
 20
692.6622977111087
 30
0.0
 11
13.20091383343308
 21
692.5956877111087
 31
0.0
  0
LINE
  5
C1AB
330
20
100
AcDbEntity
  8
10000_FRONT
  6
Continuous
 62
     7
370
    20
100
AcDbLine
 39
0.7
 10
14.34899683343308
 20
692.7352877111087
 30
0.0
 11
13.78830983343307
 21
692.6622977111087
 31
0.0
  0
LINE
  5
C1AC
330
20
100
AcDbEntity
  8
10000_FRONT
  6
Continuous
 62
     7
370
    20
100
AcDbLine
 39
0.7
 10
14.58076083343307
 20
692.7681477111089
 30
0.0
 11
14.34899683343308
 21
692.7352877111087
 31
0.0
  0
LINE
  5
C1AD
330
20
100
AcDbEntity
  8
10000_FRONT
  6
Continuous
 62
     7
370
    20
100
AcDbLine
 39
0.7
 10
14.80429583343307
 20
692.801347711109
 30
0.0
 11
14.58076083343307
 21
692.7681477111089
 31
0.0
  0
LINE
  5
C1AE
330
20
100
AcDbEntity
  8
10000_FRONT
  6
Continuous
 62
     7
370
    20
100
AcDbLine
 39
0.7
 10
14.99038883343307
 20
692.8301177111087
 30
0.0
 11
14.80429583343307
 21
692.801347711109
 31
0.0
  0
LINE
  5
C1AF
330
20
100
AcDbEntity
  8
10000_FRONT
  6
Continuous
 62
     7
370
    20
100
AcDbLine
 39
0.7
 10
15.15103883343307
 20
692.8557677111089
 30
0.0
 11
14.99038883343307
 21
692.8301177111087
 31
0.0
  0
LINE
  5
C1B0
330
20
100
AcDbEntity
  8
10000_FRONT
  6
Continuous
 62
     7
370
    20
100
AcDbLine
 39
0.7
 10
15.20799883343307
 20
692.8650477111089
 30
0.0
 11
15.15103883343307
 21
692.8557677111089
 31
0.0
  0
LINE
  5
C1B1
330
20
100
AcDbEntity
  8
10000_FRONT
  6
Continuous
 62
     7
370
    20
100
AcDbLine
 39
0.7
 10
15.25080283343307
 20
692.8720877111087
 30
0.0
 11
15.20799883343307
 21
692.8650477111089
 31
0.0
  0
LINE
  5
C1B2
330
20
100
AcDbEntity
  8
10000_FRONT
  6
Continuous
 62
     7
370
    20
100
AcDbLine
 39
0.7
 10
15.26109783343307
 20
692.8737877111089
 30
0.0
 11
15.25080283343307
 21
692.8720877111087
 31
0.0
  0
ARC
  5
C1B3
330
20
100
AcDbEntity
  8
10000_FRONT
  6
Continuous
 62
     7
370
    20
100
AcDbCircle
 39
0.7
 10
55.51289783343307
 20
616.4429177111087
 30
0.0
 40
35.0
100
AcDbArc
 50
134.7445399999995
 51
135.2554600000016
  0
ARC
  5
C1B5
330
20
100
AcDbEntity
  8
10000_FRONT
  6
Continuous
 62
     7
370
    20
100
AcDbCircle
 39
0.7
 10
-36.41098016656693
 20
616.4429177111087
 30
0.0
 40
35.0
100
AcDbArc
 50
44.74453900000077
 51
45.25546099999806
  0
ARC
  5
C1B7
330
20
100
AcDbEntity
  8
10000_FRONT
  6
Continuous
 62
     7
370
    20
100
AcDbCircle
 39
0.7
 10
-36.41098016656693
 20
708.3667977111087
 30
0.0
 40
35.0
100
AcDbArc
 50
314.7445399999995
 51
315.2554600000016
  0
ARC
  5
C1B9
330
20
100
AcDbEntity
  8
10000_FRONT
  6
Continuous
 62
     7
370
    20
100
AcDbCircle
 39
0.7
 10
55.51289783343307
 20
708.3667977111087
 30
0.0
 40
35.0
100
AcDbArc
 50
224.7445399999981
 51
225.2554600000005
  0
LINE
  5
C1BA
330
20
100
AcDbEntity
  8
10000_FRONT
  6
Continuous
 62
     7
370
    20
100
AcDbLine
 39
0.7
 10
27.08944783343307
 20
687.9435977111087
 30
0.0
 11
27.05807783343308
 21
687.987317711109
 31
0.0
  0
LINE
  5
C1BB
330
20
100
AcDbEntity
  8
10000_FRONT
  6
Continuous
 62
     7
370
    20
100
AcDbLine
 39
0.7
 10
27.12315783343307
 20
687.8967577111085
 30
0.0
 11
27.08944783343307
 21
687.9435977111087
 31
0.0
  0
LINE
  5
C1BC
330
20
100
AcDbEntity
  8
10000_FRONT
  6
Continuous
 62
     7
370
    20
100
AcDbLine
 39
0.7
 10
27.21860783343307
 20
687.7650177111087
 30
0.0
 11
27.12315783343307
 21
687.8967577111085
 31
0.0
  0
LINE
  5
C1BD
330
20
100
AcDbEntity
  8
10000_FRONT
  6
Continuous
 62
     7
370
    20
100
AcDbLine
 39
0.7
 10
27.32985783343307
 20
687.6130877111087
 30
0.0
 11
27.21860783343307
 21
687.7650177111087
 31
0.0
  0
LINE
  5
C1BE
330
20
100
AcDbEntity
  8
10000_FRONT
  6
Continuous
 62
     7
370
    20
100
AcDbLine
 39
0.7
 10
27.46444783343307
 20
687.4315577111087
 30
0.0
 11
27.32985783343307
 21
687.6130877111087
 31
0.0
  0
LINE
  5
C1BF
330
20
100
AcDbEntity
  8
10000_FRONT
  6
Continuous
 62
     7
370
    20
100
AcDbLine
 39
0.7
 10
27.60509783343308
 20
687.244427711109
 30
0.0
 11
27.46444783343307
 21
687.4315577111087
 31
0.0
  0
LINE
  5
C1C0
330
20
100
AcDbEntity
  8
10000_FRONT
  6
Continuous
 62
     7
370
    20
100
AcDbLine
 39
0.7
 10
27.94994783343307
 20
686.796357711109
 30
0.0
 11
27.60509783343308
 21
687.244427711109
 31
0.0
  0
LINE
  5
C1C1
330
20
100
AcDbEntity
  8
10000_FRONT
  6
Continuous
 62
     7
370
    20
100
AcDbLine
 39
0.7
 10
28.31819783343308
 20
686.3339077111087
 30
0.0
 11
27.94994783343307
 21
686.796357711109
 31
0.0
  0
LINE
  5
C1C2
330
20
100
AcDbEntity
  8
10000_FRONT
  6
Continuous
 62
     7
370
    20
100
AcDbLine
 39
0.7
 10
29.10797783343307
 20
685.3933377111087
 30
0.0
 11
28.31819783343308
 21
686.3339077111087
 31
0.0
  0
LINE
  5
C1C3
330
20
100
AcDbEntity
  8
10000_FRONT
  6
Continuous
 62
     7
370
    20
100
AcDbLine
 39
0.7
 10
29.93769783343308
 20
684.4730877111087
 30
0.0
 11
29.10797783343307
 21
685.3933377111087
 31
0.0
  0
LINE
  5
C1C4
330
20
100
AcDbEntity
  8
10000_FRONT
  6
Continuous
 62
     7
370
    20
100
AcDbLine
 39
0.7
 10
30.65406783343308
 20
683.7286477111088
 30
0.0
 11
29.93769783343308
 21
684.4730877111087
 31
0.0
  0
LINE
  5
C1C5
330
20
100
AcDbEntity
  8
10000_FRONT
  6
Continuous
 62
     7
370
    20
100
AcDbLine
 39
0.7
 10
27.05807783343308
 20
687.987317711109
 30
0.0
 11
26.81853783343307
 21
688.3259977111086
 31
0.0
  0
LINE
  5
C1C6
330
20
100
AcDbEntity
  8
10000_FRONT
  6
Continuous
 62
     7
370
    20
100
AcDbLine
 39
0.7
 10
35.70017783343307
 20
679.5144777111087
 30
0.0
 11
35.13342783343308
 21
679.9119677111089
 31
0.0
  0
LINE
  5
C1C7
330
20
100
AcDbEntity
  8
10000_FRONT
  6
Continuous
 62
     7
370
    20
100
AcDbLine
 39
0.7
 10
36.22423783343307
 20
679.1615277111088
 30
0.0
 11
35.70017783343307
 21
679.5144777111087
 31
0.0
  0
LINE
  5
C1C8
330
20
100
AcDbEntity
  8
10000_FRONT
  6
Continuous
 62
     7
370
    20
100
AcDbLine
 39
0.7
 10
31.61919783343308
 20
682.7915977111087
 30
0.0
 11
30.87475783343307
 21
683.5079577111088
 31
0.0
  0
LINE
  5
C1C9
330
20
100
AcDbEntity
  8
10000_FRONT
  6
Continuous
 62
     7
370
    20
100
AcDbLine
 39
0.7
 10
32.53944783343307
 20
681.9618677111089
 30
0.0
 11
31.61919783343308
 21
682.7915977111087
 31
0.0
  0
LINE
  5
C1CA
330
20
100
AcDbEntity
  8
10000_FRONT
  6
Continuous
 62
     7
370
    20
100
AcDbLine
 39
0.7
 10
33.48000783343308
 20
681.1720977111089
 30
0.0
 11
32.53944783343307
 21
681.9618677111089
 31
0.0
  0
LINE
  5
C1CB
330
20
100
AcDbEntity
  8
10000_FRONT
  6
Continuous
 62
     7
370
    20
100
AcDbLine
 39
0.7
 10
33.94246783343307
 20
680.8038477111088
 30
0.0
 11
33.48000783343308
 21
681.1720977111089
 31
0.0
  0
LINE
  5
C1CC
330
20
100
AcDbEntity
  8
10000_FRONT
  6
Continuous
 62
     7
370
    20
100
AcDbLine
 39
0.7
 10
34.39053783343307
 20
680.4589877111087
 30
0.0
 11
33.94246783343307
 21
680.8038477111088
 31
0.0
  0
LINE
  5
C1CD
330
20
100
AcDbEntity
  8
10000_FRONT
  6
Continuous
 62
     7
370
    20
100
AcDbLine
 39
0.7
 10
34.57765783343307
 20
680.3183377111088
 30
0.0
 11
34.39053783343307
 21
680.4589877111087
 31
0.0
  0
LINE
  5
C1CE
330
20
100
AcDbEntity
  8
10000_FRONT
  6
Continuous
 62
     7
370
    20
100
AcDbLine
 39
0.7
 10
34.75919783343308
 20
680.1837577111089
 30
0.0
 11
34.57765783343307
 21
680.3183377111088
 31
0.0
  0
LINE
  5
C1CF
330
20
100
AcDbEntity
  8
10000_FRONT
  6
Continuous
 62
     7
370
    20
100
AcDbLine
 39
0.7
 10
34.91112783343307
 20
680.0725077111088
 30
0.0
 11
34.75919783343308
 21
680.1837577111089
 31
0.0
  0
LINE
  5
C1D0
330
20
100
AcDbEntity
  8
10000_FRONT
  6
Continuous
 62
     7
370
    20
100
AcDbLine
 39
0.7
 10
35.04286783343307
 20
679.9770477111088
 30
0.0
 11
34.91112783343307
 21
680.0725077111088
 31
0.0
  0
LINE
  5
C1D1
330
20
100
AcDbEntity
  8
10000_FRONT
  6
Continuous
 62
     7
370
    20
100
AcDbLine
 39
0.7
 10
35.08969783343307
 20
679.9433377111088
 30
0.0
 11
35.04286783343307
 21
679.9770477111088
 31
0.0
  0
LINE
  5
C1D2
330
20
100
AcDbEntity
  8
10000_FRONT
  6
Continuous
 62
     7
370
    20
100
AcDbLine
 39
0.7
 10
35.12494783343307
 20
679.9180477111089
 30
0.0
 11
35.08969783343307
 21
679.9433377111088
 31
0.0
  0
LINE
  5
C1D3
330
20
100
AcDbEntity
  8
10000_FRONT
  6
Continuous
 62
     7
370
    20
100
AcDbLine
 39
0.7
 10
35.13342783343308
 20
679.9119677111089
 30
0.0
 11
35.12494783343307
 21
679.9180477111089
 31
0.0
  0
LINE
  5
C1E2
330
20
100
AcDbEntity
  8
14000_Bottom
  6
Continuous
 62
     7
370
    50
100
AcDbLine
 10
242.8268478334331
 20
637.1048577111088
 30
0.0
 11
242.8268478334331
 21
638.4048577111087
 31
0.0
  0
LINE
  5
C1F5
330
20
100
AcDbEntity
  8
14000_Bottom
  6
Continuous
 62
     7
370
    50
100
AcDbLine
 10
287.826847833433
 20
692.4148577111089
 30
0.0
 11
287.826847833433
 21
706.4148577111089
 31
0.0
  0
LINE
  5
C1F9
330
20
100
AcDbEntity
  8
14000_Bottom
  6
Continuous
 62
     7
370
    50
100
AcDbLine
 10
287.826847833433
 20
678.4148577111087
 30
0.0
 11
287.826847833433
 21
692.4148577111089
 31
0.0
  0
LINE
  5
C1FD
330
20
100
AcDbEntity
  8
14000_Bottom
  6
Continuous
 62
     7
370
    50
100
AcDbLine
 10
242.6268478334331
 20
692.4048577111086
 30
0.0
 11
242.6268478334331
 21
706.4048577111089
 31
0.0
  0
LINE
  5
C1FE
330
20
100
AcDbEntity
  8
14000_Bottom
  6
Continuous
 62
     7
370
    50
100
AcDbLine
 39
0.7
 10
242.6268478334331
 20
706.4048577111089
 30
0.0
 11
287.826837833433
 21
706.4048577111089
 31
0.0
  0
LINE
  5
C1FF
330
20
100
AcDbEntity
  8
14000_Bottom
  6
Continuous
 62
     7
370
    20
100
AcDbLine
 10
242.6268478334331
 20
678.4048577111088
 30
0.0
 11
287.826847833433
 21
678.4148577111087
 31
0.0
  0
LINE
  5
C200
330
20
100
AcDbEntity
  8
14000_Bottom
  6
Continuous
 62
     7
370
    50
100
AcDbLine
 39
0.7
 10
242.6268478334331
 20
678.4048577111088
 30
0.0
 11
242.6268478334331
 21
692.4048577111086
 31
0.0
  0
LINE
  5
C201
330
20
100
AcDbEntity
  8
14000_Bottom
  6
Continuous
 62
     7
370
    20
100
AcDbLine
 10
242.6268478334331
 20
692.4048577111086
 30
0.0
 11
288.0268478334331
 21
692.4048577111086
 31
0.0
  0
LINE
  5
C203
330
20
100
AcDbEntity
  8
14000_Bottom
  6
Continuous
 62
     7
370
    20
100
AcDbLine
 10
295.3268478334331
 20
629.4048577111087
 30
0.0
 11
235.3268478334331
 21
629.4048577111087
 31
0.0
  0
LINE
  5
C204
330
20
100
AcDbEntity
  8
14000_Bottom
  6
Continuous
 62
     7
370
    20
100
AcDbLine
 10
235.3268478334331
 20
695.4048577111087
 30
0.0
 11
242.6178878334331
 21
695.4048577111087
 31
0.0
  0
ARC
  5
C207
330
20
100
AcDbEntity
  8
14000_Bottom
  6
Continuous
 62
     7
370
    20
100
AcDbCircle
 10
295.3268478334331
 20
632.4048577111089
 30
0.0
 40
3.0
100
AcDbArc
 50
270.0
 51
0.0
  0
ARC
  5
C208
330
20
100
AcDbEntity
  8
14000_Bottom
  6
Continuous
 62
     7
370
    20
100
AcDbCircle
 10
235.3268478334331
 20
692.4048577111086
 30
0.0
 40
3.0
100
AcDbArc
 50
90.0
 51
180.0
  0
LINE
  5
C20B
330
20
100
AcDbEntity
  8
14000_Bottom
  6
Continuous
 62
     7
370
    20
100
AcDbLine
 10
232.3268478334331
 20
632.4048577111089
 30
0.0
 11
232.3268478334331
 21
692.4048577111086
 31
0.0
  0
ARC
  5
C20C
330
20
100
AcDbEntity
  8
14000_Bottom
  6
Continuous
 62
     7
370
    20
100
AcDbCircle
 10
235.3268478334331
 20
632.4048577111089
 30
0.0
 40
3.0
100
AcDbArc
 50
180.0
 51
270.0
  0
LINE
  5
C20F
330
20
100
AcDbEntity
  8
14000_Bottom
  6
Continuous
 62
     7
370
    20
100
AcDbLine
 10
295.3268478334331
 20
632.4048577111089
 30
0.0
 11
235.3268478334331
 21
632.4048577111089
 31
0.0
  0
LINE
  5
C215
330
20
100
AcDbEntity
  8
14000_Bottom
  6
Continuous
 62
     7
370
    20
100
AcDbLine
 10
235.3268478334331
 20
632.4048577111089
 30
0.0
 11
235.3268478334331
 21
692.4048577111086
 31
0.0
  0
LINE
  5
C216
330
20
100
AcDbEntity
  8
14000_Bottom
  6
Continuous
 62
     7
370
    20
100
AcDbLine
 10
235.3268478334331
 20
692.4048577111086
 30
0.0
 11
242.6178878334331
 21
692.4048577111086
 31
0.0
  0
LINE
  5
C218
330
20
100
AcDbEntity
  8
14000_Bottom
  6
Continuous
 62
     7
370
    20
100
AcDbLine
 10
287.6268478334331
 20
677.9048577111089
 30
0.0
 11
242.8268478334331
 21
677.9048577111089
 31
0.0
  0
LINE
  5
C219
330
20
100
AcDbEntity
  8
14000_Bottom
  6
Continuous
 62
     7
370
    20
100
AcDbLine
 10
287.6268478334331
 20
646.9048577111087
 30
0.0
 11
242.8268478334331
 21
646.9048577111087
 31
0.0
  0
LINE
  5
C21B
330
20
100
AcDbEntity
  8
14000_Bottom
  6
Continuous
 62
     7
370
    50
100
AcDbLine
 39
0.7
 10
255.3268478334331
 20
634.9048577111089
 30
0.0
 11
242.8268478334331
 21
634.9048577111089
 31
0.0
  0
LINE
  5
C21C
330
20
100
AcDbEntity
  8
14000_Bottom
  6
Continuous
 62
     7
370
    20
100
AcDbLine
 10
242.8268478334331
 20
678.4053577111087
 30
0.0
 11
242.8268478334331
 21
677.9054877111089
 31
0.0
  0
LINE
  5
C21D
330
20
100
AcDbEntity
  8
14000_Bottom
  6
Continuous
 62
     7
370
    50
100
AcDbLine
 10
242.8268478334331
 20
677.9048577111089
 30
0.0
 11
242.8268478334331
 21
646.9048577111087
 31
0.0
  0
LINE
  5
C21E
330
20
100
AcDbEntity
  8
14000_Bottom
  6
Continuous
 62
     7
370
    50
100
AcDbLine
 10
242.8268478334331
 20
646.9048577111087
 30
0.0
 11
242.8268478334331
 21
638.4048577111087
 31
0.0
  0
LINE
  5
C21F
330
20
100
AcDbEntity
  8
14000_Bottom
  6
Continuous
 62
     7
370
    50
100
AcDbLine
 39
0.7
 10
242.8268478334331
 20
637.1048577111088
 30
0.0
 11
242.8268478334331
 21
634.9048577111089
 31
0.0
  0
LINE
  5
C221
330
20
100
AcDbEntity
  8
14000_Bottom
  6
Continuous
 62
     7
370
    50
100
AcDbLine
 39
0.7
 10
287.6268478334331
 20
678.4048577111088
 30
0.0
 11
287.6268478334331
 21
638.4048577111087
 31
0.0
  0
ARC
  5
C223
330
20
100
AcDbEntity
  8
14000_Bottom
  6
Continuous
 62
     7
370
    20
100
AcDbCircle
 10
289.3268478334331
 20
638.4048577111087
 30
0.0
 40
2.1
100
AcDbArc
 50
179.8547099999985
 51
180.0
  0
ARC
  5
C22E
330
20
100
AcDbEntity
  8
14000_Bottom
  6
Continuous
 62
     7
370
    20
100
AcDbCircle
 10
264.8268478334331
 20
681.4048577111089
 30
0.0
 40
3.0
100
AcDbArc
 50
268.94515
 51
271.0548499999999
  0
ARC
  5
C22F
330
20
100
AcDbEntity
  8
14000_Bottom
  6
Continuous
 62
     7
370
    20
100
AcDbCircle
 10
249.3268478334331
 20
681.4048577111089
 30
0.0
 40
3.0
100
AcDbArc
 50
268.94515
 51
271.0548499999999
  0
LINE
  5
C23E
330
20
100
AcDbEntity
  8
14000_Bottom
  6
Continuous
 62
     7
370
    50
100
AcDbLine
 39
0.7
 10
260.3268478334331
 20
634.9048577111089
 30
0.0
 11
260.3268478334331
 21
634.9050477111087
 31
0.0
  0
LINE
  5
C248
330
20
100
AcDbEntity
  8
14000_Bottom
  6
Continuous
 62
     7
370
    50
100
AcDbLine
 39
0.7
 10
253.8268478334331
 20
634.9048577111089
 30
0.0
 11
253.8268478334331
 21
634.9050477111087
 31
0.0
  0
LINE
  5
C24F
330
20
100
AcDbEntity
  8
14000_Bottom
  6
Continuous
 62
     7
370
    50
100
AcDbLine
 39
0.7
 10
286.3268478334331
 20
634.9048577111089
 30
0.0
 11
286.3268478334331
 21
638.4048577111087
 31
0.0
  0
LINE
  5
C250
330
20
100
AcDbEntity
  8
14000_Bottom
  6
Continuous
 62
     7
370
    50
100
AcDbLine
 39
0.7
 10
286.3268478334331
 20
634.9048577111089
 30
0.0
 11
274.3268478334331
 21
634.9048577111089
 31
0.0
  0
LINE
  5
C251
330
20
100
AcDbEntity
  8
14000_Bottom
  6
Continuous
 62
     7
370
    50
100
AcDbLine
 39
0.7
 10
274.3268478334331
 20
638.4048577111087
 30
0.0
 11
274.3268478334331
 21
634.9048577111089
 31
0.0
  0
LINE
  5
C252
330
20
100
AcDbEntity
  8
14000_Bottom
  6
Continuous
 62
     7
370
    50
100
AcDbLine
 39
0.7
 10
270.8268478334331
 20
634.9048577111089
 30
0.0
 11
270.8268478334331
 21
638.4048577111087
 31
0.0
  0
LINE
  5
C253
330
20
100
AcDbEntity
  8
14000_Bottom
  6
Continuous
 62
     7
370
    50
100
AcDbLine
 39
0.7
 10
270.8268478334331
 20
634.9048577111089
 30
0.0
 11
258.8268478334331
 21
634.9048577111089
 31
0.0
  0
LINE
  5
C254
330
20
100
AcDbEntity
  8
14000_Bottom
  6
Continuous
 62
     7
370
    50
100
AcDbLine
 39
0.7
 10
255.3268478334331
 20
634.9048577111089
 30
0.0
 11
255.3268478334331
 21
638.4048577111087
 31
0.0
  0
LINE
  5
C255
330
20
100
AcDbEntity
  8
14000_Bottom
  6
Continuous
 62
     7
370
    50
100
AcDbLine
 39
0.7
 10
258.8268478334331
 20
638.4048577111087
 30
0.0
 11
258.8268478334331
 21
634.9048577111089
 31
0.0
  0
LINE
  5
C34F
330
20
100
AcDbEntity
  8
10000_FRONT
  6
Continuous
 62
     7
370
    20
100
AcDbLine
 39
0.7
 10
-11.55271416656693
 20
667.3475377111087
 30
0.0
 11
-0.4725371665669229
 21
667.3475377111087
 31
0.0
  0
LINE
  5
C350
330
20
100
AcDbEntity
  8
10000_FRONT
  6
Continuous
 62
     7
370
    20
100
AcDbLine
 39
0.7
 10
-0.4725371665669229
 20
657.4727177111087
 30
0.0
 11
-0.4725371665669229
 21
667.3475377111087
 31
0.0
  0
LINE
  5
C351
330
20
100
AcDbEntity
  8
10000_FRONT
  6
Continuous
 62
     7
370
    20
100
AcDbLine
 39
0.7
 10
-11.55271416656693
 20
657.4727177111087
 30
0.0
 11
-0.4725371665669229
 21
657.4727177111087
 31
0.0
  0
LINE
  5
C352
330
20
100
AcDbEntity
  8
10000_FRONT
  6
Continuous
 62
     7
370
    20
100
AcDbLine
 39
0.7
 10
-11.55271416656693
 20
667.3475377111087
 30
0.0
 11
-11.55271416656693
 21
657.4727177111087
 31
0.0
  0
CIRCLE
  5
C353
330
20
100
AcDbEntity
  8
10000_FRONT
  6
Continuous
 62
     7
370
    20
100
AcDbCircle
 39
0.7
 10
-6.162357166566931
 20
662.3267177111088
 30
0.0
 40
3.967900999999999
  0
DIMENSION
  5
C357
330
20
100
AcDbEntity
  8
10100_FRONT_DIM
  6
Continuous
 62
     7
370
    13
100
AcDbDimension
  2
*D1
 10
-39.63621216656693
 20
695.4048577111087
 30
0.0
 11
-39.49809427494268
 21
662.4048577111087
 31
0.0
 70
   160
 71
     5
 42
66.0
  3
H035
100
AcDbAlignedDimension
 13
-20.44903916656693
 23
629.4048577111087
 33
0.0
 14
-20.44903916656693
 24
695.4048577111087
 34
0.0
 50
90.0
100
AcDbRotatedDimension
1001
ACAD
1000
DSTYLE
1002
{
1070
    40
1040
1.0
1070
    77
1070
     0
1070
   147
1040
1.5
1070
   272
1070
     0
1070
   279
1070
     1
1070
   288
1070
     1
1002
}
  0
DIMENSION
  5
C358
330
20
100
AcDbEntity
  8
10100_FRONT_DIM
  6
Continuous
 62
     7
370
    13
100
AcDbDimension
  2
*D2
 10
-23.44903916656693
 20
716.8036677111087
 30
0.0
 11
9.550960833433066
 21
716.703126189553
 31
0.0
 70
   160
 71
     5
 42
65.99999700000001
  3
H035
100
AcDbAlignedDimension
 13
42.55095783343306
 23
692.4048577111086
 33
0.0
 14
-23.44903916656693
 24
692.4048577111086
 34
0.0
100
AcDbRotatedDimension
1001
ACAD
1000
DSTYLE
1002
{
1070
    40
1040
1.0
1070
    77
1070
     0
1070
   147
1040
1.5
1070
   272
1070
     0
1070
   279
1070
     1
1070
   288
1070
     1
1002
}
  0
DIMENSION
  5
C359
330
20
100
AcDbEntity
  8
14100_Bottom_Dim
  6
Continuous
 62
     7
370
    13
100
AcDbDimension
  2
*D3
 10
287.826837833433
 20
716.8036677111087
 30
0.0
 11
264.3760492175627
 21
716.8036677111087
 31
0.0
 70
   160
 71
     5
 42
45.19998999999994
  3
H035
100
AcDbAlignedDimension
 13
242.6268478334331
 23
706.4048577111089
 33
0.0
 14
287.826837833433
 24
706.4048577111089
 34
0.0
100
AcDbRotatedDimension
1001
ACAD
1000
DSTYLE
1002
{
1070
    40
1040
1.0
1070
    77
1070
     0
1070
   147
1040
1.5
1070
   272
1070
     0
1070
   279
1070
     1
1070
   288
1070
     1
1002
}
  0
LINE
  5
C35C
330
20
100
AcDbEntity
  8
10000_FRONT
  6
CENTER
 62
     7
370
     9
100
AcDbLine
 39
0.8
 10
9.550960833433066
 20
712.8355177111089
 30
0.0
 11
9.550960833433066
 21
622.4048577111089
 31
0.0
  0
LINE
  5
C35D
330
20
100
AcDbEntity
  8
10000_FRONT
  6
CENTER
 62
     7
370
     9
100
AcDbLine
 39
0.8
 10
-30.44903916656693
 20
662.4048577111087
 30
0.0
 11
58.03379783343308
 21
662.4048577111087
 31
0.0
  0
LINE
  5
C520
330
20
100
AcDbEntity
  8
14000_Bottom
  6
Continuous
 62
     7
370
    20
100
AcDbLine
 39
0.7
 10
252.1047364899999
 20
642.6834579297076
 30
0.0
 11
249.8340384189484
 21
642.68391775511
 31
0.0
1001
AUSTER_FOLIE
1002
{
1000
ZENTRA_MIT_DREHANTRIEB_67_AUSTER
1002
}
1001
AUSTER_ANSICHT
1002
{
1000
R
1002
}
  0
LINE
  5
C521
330
20
100
AcDbEntity
  8
14000_Bottom
  6
Continuous
 62
     7
370
    20
100
AcDbLine
 39
0.7
 10
248.8040384400672
 20
642.6841263342078
 30
0.0
 11
246.5333403690157
 21
642.6845861596103
 31
0.0
1001
AUSTER_FOLIE
1002
{
1000
ZENTRA_MIT_DREHANTRIEB_67_AUSTER
1002
}
1001
AUSTER_ANSICHT
1002
{
1000
R
1002
}
  0
LINE
  5
C522
330
20
100
AcDbEntity
  8
14000_Bottom
  6
Continuous
 62
     7
370
    20
100
AcDbLine
 39
0.7
 10
246.5335851178878
 20
643.8931987953488
 30
0.0
 11
248.8042831889393
 21
643.8927389699465
 31
0.0
1001
AUSTER_FOLIE
1002
{
1000
ZENTRA_MIT_DREHANTRIEB_67_AUSTER
1002
}
1001
AUSTER_ANSICHT
1002
{
1000
R
1002
}
  0
LINE
  5
C523
330
20
100
AcDbEntity
  8
14000_Bottom
  6
Continuous
 62
     7
370
    20
100
AcDbLine
 39
0.7
 10
249.8342831678205
 20
643.8925303908487
 30
0.0
 11
252.1049812388719
 21
643.8920705654465
 31
0.0
1001
AUSTER_FOLIE
1002
{
1000
ZENTRA_MIT_DREHANTRIEB_67_AUSTER
1002
}
1001
AUSTER_ANSICHT
1002
{
1000
R
1002
}
  0
LINE
  5
C524
330
20
100
AcDbEntity
  8
14000_Bottom
  6
Continuous
 62
     7
370
    20
100
AcDbLine
 39
0.7
 10
249.8345206170845
 20
645.0650962885767
 30
0.0
 11
249.8343196727744
 21
644.0727982230827
 31
0.0
1001
AUSTER_FOLIE
1002
{
1000
ZENTRA_MIT_DREHANTRIEB_67_AUSTER
1002
}
1001
AUSTER_ANSICHT
1002
{
1000
R
1002
}
  0
LINE
  5
C525
330
20
100
AcDbEntity
  8
14000_Bottom
  6
Continuous
 62
     7
370
    20
100
AcDbLine
 39
0.7
 10
248.8043196938932
 20
644.07300680218
 30
0.0
 11
248.8045206382033
 21
645.0653048676742
 31
0.0
1001
AUSTER_FOLIE
1002
{
1000
ZENTRA_MIT_DREHANTRIEB_67_AUSTER
1002
}
1001
AUSTER_ANSICHT
1002
{
1000
R
1002
}
  0
LINE
  5
C526
330
20
100
AcDbEntity
  8
14000_Bottom
  6
Continuous
 62
     7
370
    20
100
AcDbLine
 39
0.7
 10
248.8038009908032
 20
641.5115604364897
 30
0.0
 11
248.8040019351133
 21
642.5038585019839
 31
0.0
1001
AUSTER_FOLIE
1002
{
1000
ZENTRA_MIT_DREHANTRIEB_67_AUSTER
1002
}
1001
AUSTER_ANSICHT
1002
{
1000
R
1002
}
  0
LINE
  5
C527
330
20
100
AcDbEntity
  8
14000_Bottom
  6
Continuous
 62
     7
370
    20
100
AcDbLine
 39
0.7
 10
249.8340003718086
 20
642.5036477213782
 30
0.0
 11
249.8338009696844
 21
641.5113518573922
 31
0.0
1001
AUSTER_FOLIE
1002
{
1000
ZENTRA_MIT_DREHANTRIEB_67_AUSTER
1002
}
1001
AUSTER_ANSICHT
1002
{
1000
R
1002
}
  0
LINE
  5
C528
330
20
100
AcDbEntity
  8
14000_Bottom
  6
Continuous
 62
     7
370
    20
100
AcDbLine
 39
0.7
 10
248.8043212360693
 20
644.0730090036877
 30
0.0
 11
248.8042831889393
 21
643.8927389699465
 31
0.0
1001
AUSTER_FOLIE
1002
{
1000
ZENTRA_MIT_DREHANTRIEB_67_AUSTER
1002
}
1001
AUSTER_ANSICHT
1002
{
1000
R
1002
}
  0
LINE
  5
C529
330
20
100
AcDbEntity
  8
14000_Bottom
  6
Continuous
 62
     7
370
    20
100
AcDbLine
 39
0.7
 10
248.8040034763975
 20
642.5038562998516
 30
0.0
 11
248.8040384400672
 21
642.6841263342078
 31
0.0
1001
AUSTER_FOLIE
1002
{
1000
ZENTRA_MIT_DREHANTRIEB_67_AUSTER
1002
}
1001
AUSTER_ANSICHT
1002
{
1000
R
1002
}
  0
LINE
  5
C52A
330
20
100
AcDbEntity
  8
14000_Bottom
  6
Continuous
 62
     7
370
    20
100
AcDbLine
 39
0.7
 10
249.8343196727744
 20
644.0727982230827
 30
0.0
 11
249.8342831678205
 21
643.8925303908487
 31
0.0
1001
AUSTER_FOLIE
1002
{
1000
ZENTRA_MIT_DREHANTRIEB_67_AUSTER
1002
}
1001
AUSTER_ANSICHT
1002
{
1000
R
1002
}
  0
LINE
  5
C52B
330
20
100
AcDbEntity
  8
14000_Bottom
  6
Continuous
 62
     7
370
    20
100
AcDbLine
 39
0.7
 10
249.8340003718086
 20
642.5036477213782
 30
0.0
 11
249.8340384189484
 21
642.68391775511
 31
0.0
1001
AUSTER_FOLIE
1002
{
1000
ZENTRA_MIT_DREHANTRIEB_67_AUSTER
1002
}
1001
AUSTER_ANSICHT
1002
{
1000
R
1002
}
  0
CIRCLE
  5
C52C
330
20
100
AcDbEntity
  8
14000_Bottom
  6
Continuous
 62
     7
370
    20
100
AcDbCircle
 39
0.7
 10
249.3191608039438
 20
643.288328362528
 30
0.0
 40
3.1
1001
AUSTER_FOLIE
1002
{
1000
ZENTRA_MIT_DREHANTRIEB_67_AUSTER
1002
}
1001
AUSTER_ANSICHT
1002
{
1000
R
1002
}
  0
ARC
  5
C52D
330
20
100
AcDbEntity
  8
14000_Bottom
  6
Continuous
 62
     7
370
    20
100
AcDbCircle
 39
0.7
 10
249.3191608039438
 20
643.288328362528
 30
0.0
 40
2.85049121087
100
AcDbArc
 50
347.7487691038303
 51
12.22802564944676
1001
AUSTER_FOLIE
1002
{
1000
ZENTRA_MIT_DREHANTRIEB_67_AUSTER
1002
}
1001
AUSTER_ANSICHT
1002
{
1000
R
1002
}
  0
ARC
  5
C52E
330
20
100
AcDbEntity
  8
14000_Bottom
  6
Continuous
 62
     7
370
    20
100
AcDbCircle
 39
0.7
 10
249.3191608039438
 20
643.288328362528
 30
0.0
 40
1.85
100
AcDbArc
 50
73.82495229579665
 51
106.1518424575082
1001
AUSTER_FOLIE
1002
{
1000
ZENTRA_MIT_DREHANTRIEB_67_AUSTER
1002
}
1001
AUSTER_ANSICHT
1002
{
1000
R
1002
}
  0
ARC
  5
C52F
330
20
100
AcDbEntity
  8
14000_Bottom
  6
Continuous
 62
     7
370
    20
100
AcDbCircle
 39
0.7
 10
249.3191608039438
 20
643.288328362528
 30
0.0
 40
1.85
100
AcDbArc
 50
253.8249522957461
 51
286.151842457456
1001
AUSTER_FOLIE
1002
{
1000
ZENTRA_MIT_DREHANTRIEB_67_AUSTER
1002
}
1001
AUSTER_ANSICHT
1002
{
1000
R
1002
}
  0
ARC
  5
C530
330
20
100
AcDbEntity
  8
14000_Bottom
  6
Continuous
 62
     7
370
    20
100
AcDbCircle
 39
0.7
 10
249.3191608039438
 20
643.288328362528
 30
0.0
 40
2.85049121087
100
AcDbArc
 50
167.7487691038173
 51
192.2280256494199
1001
AUSTER_FOLIE
1002
{
1000
ZENTRA_MIT_DREHANTRIEB_67_AUSTER
1002
}
1001
AUSTER_ANSICHT
1002
{
1000
R
1002
}
  0
CIRCLE
  5
C531
330
20
100
AcDbEntity
  8
14000_Bottom
  6
Continuous
 62
     7
370
    20
100
AcDbCircle
 39
0.7
 10
249.3191608039438
 20
643.288328362528
 30
0.0
 40
3.1
1001
AUSTER_FOLIE
1002
{
1000
ZENTRA_MIT_DREHANTRIEB_67_AUSTER
1002
}
1001
AUSTER_ANSICHT
1002
{
1000
R
1002
}
  0
POINT
  5
C532
330
20
100
AcDbEntity
  8
14000_Bottom
  6
Continuous
 62
     7
370
    20
100
AcDbPoint
 10
249.3191608039438
 20
643.288328362528
 30
0.0
 39
0.7
1001
AUSTER_FOLIE
1002
{
1000
ZENTRA_MIT_DREHANTRIEB_67_AUSTER
1002
}
1001
AUSTER_ANSICHT
1002
{
1000
R
1002
}
  0
POINT
  5
C533
330
20
100
AcDbEntity
  8
14000_Bottom
  6
Continuous
 62
     7
370
    20
100
AcDbPoint
 10
249.3191608039438
 20
643.288328362528
 30
0.0
 39
0.7
1001
AUSTER_FOLIE
1002
{
1000
ZENTRA_MIT_DREHANTRIEB_67_AUSTER
1002
}
1001
AUSTER_ANSICHT
1002
{
1000
R
1002
}
  0
POINT
  5
C534
330
20
100
AcDbEntity
  8
14000_Bottom
  6
Continuous
 62
     7
370
    20
100
AcDbPoint
 10
249.3191608039438
 20
643.288328362528
 30
0.0
 39
0.7
1001
AUSTER_FOLIE
1002
{
1000
ZENTRA_MIT_DREHANTRIEB_67_AUSTER
1002
}
1001
AUSTER_ANSICHT
1002
{
1000
R
1002
}
  0
POINT
  5
C535
330
20
100
AcDbEntity
  8
14000_Bottom
  6
Continuous
 62
     7
370
    20
100
AcDbPoint
 10
249.3191608039438
 20
643.288328362528
 30
0.0
 39
0.7
1001
AUSTER_FOLIE
1002
{
1000
ZENTRA_MIT_DREHANTRIEB_67_AUSTER
1002
}
1001
AUSTER_ANSICHT
1002
{
1000
R
1002
}
  0
POINT
  5
C536
330
20
100
AcDbEntity
  8
14000_Bottom
  6
Continuous
 62
     7
370
    20
100
AcDbPoint
 10
249.3191608039438
 20
643.288328362528
 30
0.0
 39
0.7
1001
AUSTER_FOLIE
1002
{
1000
ZENTRA_MIT_DREHANTRIEB_67_AUSTER
1002
}
1001
AUSTER_ANSICHT
1002
{
1000
R
1002
}
  0
POINT
  5
C537
330
20
100
AcDbEntity
  8
14000_Bottom
  6
Continuous
 62
     7
370
    20
100
AcDbPoint
 10
249.3191284286735
 20
643.2884237691363
 30
0.0
 39
0.7
1001
AUSTER_FOLIE
1002
{
1000
ZENTRA_MIT_DREHANTRIEB_67_AUSTER
1002
}
1001
AUSTER_ANSICHT
1002
{
1000
R
1002
}
  0
POINT
  5
C538
330
20
100
AcDbEntity
  8
14000_Bottom
  6
Continuous
 62
     7
370
    20
100
AcDbPoint
 10
249.3191608039438
 20
643.288328362528
 30
0.0
 39
0.7
1001
AUSTER_FOLIE
1002
{
1000
ZENTRA_MIT_DREHANTRIEB_67_AUSTER
1002
}
1001
AUSTER_ANSICHT
1002
{
1000
R
1002
}
  0
POINT
  5
C539
330
20
100
AcDbEntity
  8
14000_Bottom
  6
Continuous
 62
     7
370
    20
100
AcDbPoint
 10
264.8268478334331
 20
643.288328362528
 30
0.0
 39
0.7
1001
AUSTER_FOLIE
1002
{
1000
ZENTRA_MIT_DREHANTRIEB_67_AUSTER
1002
}
1001
AUSTER_ANSICHT
1002
{
1000
R
1002
}
  0
POINT
  5
C53A
330
20
100
AcDbEntity
  8
14000_Bottom
  6
Continuous
 62
     7
370
    20
100
AcDbPoint
 10
264.8268154581627
 20
643.2884237691361
 30
0.0
 39
0.7
1001
AUSTER_FOLIE
1002
{
1000
ZENTRA_MIT_DREHANTRIEB_67_AUSTER
1002
}
1001
AUSTER_ANSICHT
1002
{
1000
R
1002
}
  0
POINT
  5
C53B
330
20
100
AcDbEntity
  8
14000_Bottom
  6
Continuous
 62
     7
370
    20
100
AcDbPoint
 10
264.8268478334331
 20
643.288328362528
 30
0.0
 39
0.7
1001
AUSTER_FOLIE
1002
{
1000
ZENTRA_MIT_DREHANTRIEB_67_AUSTER
1002
}
1001
AUSTER_ANSICHT
1002
{
1000
R
1002
}
  0
POINT
  5
C53C
330
20
100
AcDbEntity
  8
14000_Bottom
  6
Continuous
 62
     7
370
    20
100
AcDbPoint
 10
264.8268478334331
 20
643.288328362528
 30
0.0
 39
0.7
1001
AUSTER_FOLIE
1002
{
1000
ZENTRA_MIT_DREHANTRIEB_67_AUSTER
1002
}
1001
AUSTER_ANSICHT
1002
{
1000
R
1002
}
  0
POINT
  5
C53D
330
20
100
AcDbEntity
  8
14000_Bottom
  6
Continuous
 62
     7
370
    20
100
AcDbPoint
 10
264.8268478334331
 20
643.288328362528
 30
0.0
 39
0.7
1001
AUSTER_FOLIE
1002
{
1000
ZENTRA_MIT_DREHANTRIEB_67_AUSTER
1002
}
1001
AUSTER_ANSICHT
1002
{
1000
R
1002
}
  0
POINT
  5
C53E
330
20
100
AcDbEntity
  8
14000_Bottom
  6
Continuous
 62
     7
370
    20
100
AcDbPoint
 10
264.8268478334331
 20
643.288328362528
 30
0.0
 39
0.7
1001
AUSTER_FOLIE
1002
{
1000
ZENTRA_MIT_DREHANTRIEB_67_AUSTER
1002
}
1001
AUSTER_ANSICHT
1002
{
1000
R
1002
}
  0
POINT
  5
C53F
330
20
100
AcDbEntity
  8
14000_Bottom
  6
Continuous
 62
     7
370
    20
100
AcDbPoint
 10
264.8268478334331
 20
643.288328362528
 30
0.0
 39
0.7
1001
AUSTER_FOLIE
1002
{
1000
ZENTRA_MIT_DREHANTRIEB_67_AUSTER
1002
}
1001
AUSTER_ANSICHT
1002
{
1000
R
1002
}
  0
CIRCLE
  5
C540
330
20
100
AcDbEntity
  8
14000_Bottom
  6
Continuous
 62
     7
370
    20
100
AcDbCircle
 39
0.7
 10
264.8268478334331
 20
643.288328362528
 30
0.0
 40
3.1
1001
AUSTER_FOLIE
1002
{
1000
ZENTRA_MIT_DREHANTRIEB_67_AUSTER
1002
}
1001
AUSTER_ANSICHT
1002
{
1000
R
1002
}
  0
ARC
  5
C541
330
20
100
AcDbEntity
  8
14000_Bottom
  6
Continuous
 62
     7
370
    20
100
AcDbCircle
 39
0.7
 10
264.8268478334331
 20
643.288328362528
 30
0.0
 40
2.85049121087
100
AcDbArc
 50
167.7487691038173
 51
192.2280256494199
1001
AUSTER_FOLIE
1002
{
1000
ZENTRA_MIT_DREHANTRIEB_67_AUSTER
1002
}
1001
AUSTER_ANSICHT
1002
{
1000
R
1002
}
  0
ARC
  5
C542
330
20
100
AcDbEntity
  8
14000_Bottom
  6
Continuous
 62
     7
370
    20
100
AcDbCircle
 39
0.7
 10
264.8268478334331
 20
643.288328362528
 30
0.0
 40
1.85
100
AcDbArc
 50
253.8249522957461
 51
286.151842457456
1001
AUSTER_FOLIE
1002
{
1000
ZENTRA_MIT_DREHANTRIEB_67_AUSTER
1002
}
1001
AUSTER_ANSICHT
1002
{
1000
R
1002
}
  0
ARC
  5
C543
330
20
100
AcDbEntity
  8
14000_Bottom
  6
Continuous
 62
     7
370
    20
100
AcDbCircle
 39
0.7
 10
264.8268478334331
 20
643.288328362528
 30
0.0
 40
1.85
100
AcDbArc
 50
73.82495229579665
 51
106.1518424575082
1001
AUSTER_FOLIE
1002
{
1000
ZENTRA_MIT_DREHANTRIEB_67_AUSTER
1002
}
1001
AUSTER_ANSICHT
1002
{
1000
R
1002
}
  0
ARC
  5
C544
330
20
100
AcDbEntity
  8
14000_Bottom
  6
Continuous
 62
     7
370
    20
100
AcDbCircle
 39
0.7
 10
264.8268478334331
 20
643.288328362528
 30
0.0
 40
2.85049121087
100
AcDbArc
 50
347.7487691038303
 51
12.22802564944676
1001
AUSTER_FOLIE
1002
{
1000
ZENTRA_MIT_DREHANTRIEB_67_AUSTER
1002
}
1001
AUSTER_ANSICHT
1002
{
1000
R
1002
}
  0
CIRCLE
  5
C545
330
20
100
AcDbEntity
  8
14000_Bottom
  6
Continuous
 62
     7
370
    20
100
AcDbCircle
 39
0.7
 10
264.8268478334331
 20
643.288328362528
 30
0.0
 40
3.1
1001
AUSTER_FOLIE
1002
{
1000
ZENTRA_MIT_DREHANTRIEB_67_AUSTER
1002
}
1001
AUSTER_ANSICHT
1002
{
1000
R
1002
}
  0
LINE
  5
C546
330
20
100
AcDbEntity
  8
14000_Bottom
  6
Continuous
 62
     7
370
    20
100
AcDbLine
 39
0.7
 10
265.3416874012979
 20
642.5036477213782
 30
0.0
 11
265.3417254484375
 21
642.6839177551097
 31
0.0
1001
AUSTER_FOLIE
1002
{
1000
ZENTRA_MIT_DREHANTRIEB_67_AUSTER
1002
}
1001
AUSTER_ANSICHT
1002
{
1000
R
1002
}
  0
LINE
  5
C547
330
20
100
AcDbEntity
  8
14000_Bottom
  6
Continuous
 62
     7
370
    20
100
AcDbLine
 39
0.7
 10
265.3420067022636
 20
644.0727982230826
 30
0.0
 11
265.3419701973097
 21
643.8925303908487
 31
0.0
1001
AUSTER_FOLIE
1002
{
1000
ZENTRA_MIT_DREHANTRIEB_67_AUSTER
1002
}
1001
AUSTER_ANSICHT
1002
{
1000
R
1002
}
  0
LINE
  5
C548
330
20
100
AcDbEntity
  8
14000_Bottom
  6
Continuous
 62
     7
370
    20
100
AcDbLine
 39
0.7
 10
264.3116905058867
 20
642.5038562998516
 30
0.0
 11
264.3117254695564
 21
642.6841263342075
 31
0.0
1001
AUSTER_FOLIE
1002
{
1000
ZENTRA_MIT_DREHANTRIEB_67_AUSTER
1002
}
1001
AUSTER_ANSICHT
1002
{
1000
R
1002
}
  0
LINE
  5
C549
330
20
100
AcDbEntity
  8
14000_Bottom
  6
Continuous
 62
     7
370
    20
100
AcDbLine
 39
0.7
 10
264.3120082655585
 20
644.0730090036877
 30
0.0
 11
264.3119702184285
 21
643.8927389699465
 31
0.0
1001
AUSTER_FOLIE
1002
{
1000
ZENTRA_MIT_DREHANTRIEB_67_AUSTER
1002
}
1001
AUSTER_ANSICHT
1002
{
1000
R
1002
}
  0
LINE
  5
C54A
330
20
100
AcDbEntity
  8
14000_Bottom
  6
Continuous
 62
     7
370
    20
100
AcDbLine
 39
0.7
 10
265.3416874012979
 20
642.5036477213782
 30
0.0
 11
265.3414879991736
 21
641.5113518573921
 31
0.0
1001
AUSTER_FOLIE
1002
{
1000
ZENTRA_MIT_DREHANTRIEB_67_AUSTER
1002
}
1001
AUSTER_ANSICHT
1002
{
1000
R
1002
}
  0
LINE
  5
C54B
330
20
100
AcDbEntity
  8
14000_Bottom
  6
Continuous
 62
     7
370
    20
100
AcDbLine
 39
0.7
 10
264.3114880202924
 20
641.5115604364897
 30
0.0
 11
264.3116889646025
 21
642.5038585019835
 31
0.0
1001
AUSTER_FOLIE
1002
{
1000
ZENTRA_MIT_DREHANTRIEB_67_AUSTER
1002
}
1001
AUSTER_ANSICHT
1002
{
1000
R
1002
}
  0
LINE
  5
C54C
330
20
100
AcDbEntity
  8
14000_Bottom
  6
Continuous
 62
     7
370
    20
100
AcDbLine
 39
0.7
 10
264.3120067233825
 20
644.07300680218
 30
0.0
 11
264.3122076676926
 21
645.065304867674
 31
0.0
1001
AUSTER_FOLIE
1002
{
1000
ZENTRA_MIT_DREHANTRIEB_67_AUSTER
1002
}
1001
AUSTER_ANSICHT
1002
{
1000
R
1002
}
  0
LINE
  5
C54D
330
20
100
AcDbEntity
  8
14000_Bottom
  6
Continuous
 62
     7
370
    20
100
AcDbLine
 39
0.7
 10
265.3422076465737
 20
645.0650962885762
 30
0.0
 11
265.3420067022636
 21
644.0727982230826
 31
0.0
1001
AUSTER_FOLIE
1002
{
1000
ZENTRA_MIT_DREHANTRIEB_67_AUSTER
1002
}
1001
AUSTER_ANSICHT
1002
{
1000
R
1002
}
  0
LINE
  5
C54E
330
20
100
AcDbEntity
  8
14000_Bottom
  6
Continuous
 62
     7
370
    20
100
AcDbLine
 39
0.7
 10
265.3419701973097
 20
643.8925303908487
 30
0.0
 11
267.6126682683612
 21
643.8920705654464
 31
0.0
1001
AUSTER_FOLIE
1002
{
1000
ZENTRA_MIT_DREHANTRIEB_67_AUSTER
1002
}
1001
AUSTER_ANSICHT
1002
{
1000
R
1002
}
  0
LINE
  5
C54F
330
20
100
AcDbEntity
  8
14000_Bottom
  6
Continuous
 62
     7
370
    20
100
AcDbLine
 39
0.7
 10
262.041272147377
 20
643.8931987953488
 30
0.0
 11
264.3119702184285
 21
643.8927389699465
 31
0.0
1001
AUSTER_FOLIE
1002
{
1000
ZENTRA_MIT_DREHANTRIEB_67_AUSTER
1002
}
1001
AUSTER_ANSICHT
1002
{
1000
R
1002
}
  0
LINE
  5
C550
330
20
100
AcDbEntity
  8
14000_Bottom
  6
Continuous
 62
     7
370
    20
100
AcDbLine
 39
0.7
 10
264.3117254695564
 20
642.6841263342075
 30
0.0
 11
262.041027398505
 21
642.6845861596101
 31
0.0
1001
AUSTER_FOLIE
1002
{
1000
ZENTRA_MIT_DREHANTRIEB_67_AUSTER
1002
}
1001
AUSTER_ANSICHT
1002
{
1000
R
1002
}
  0
LINE
  5
C551
330
20
100
AcDbEntity
  8
14000_Bottom
  6
Continuous
 62
     7
370
    20
100
AcDbLine
 39
0.7
 10
267.6124235194891
 20
642.6834579297075
 30
0.0
 11
265.3417254484375
 21
642.6839177551097
 31
0.0
1001
AUSTER_FOLIE
1002
{
1000
ZENTRA_MIT_DREHANTRIEB_67_AUSTER
1002
}
1001
AUSTER_ANSICHT
1002
{
1000
R
1002
}
  0
LINE
  5
C552
330
20
100
AcDbEntity
  8
14000_Bottom
  6
Continuous
 62
     7
370
    20
100
AcDbLine
 39
0.7
 10
283.1124235194891
 20
642.7999872782883
 30
0.0
 11
280.8417254484376
 21
642.8004471036907
 31
0.0
1001
AUSTER_FOLIE
1002
{
1000
ZENTRA_MIT_DREHANTRIEB_67_AUSTER
1002
}
1001
AUSTER_ANSICHT
1002
{
1000
R
1002
}
  0
LINE
  5
C553
330
20
100
AcDbEntity
  8
14000_Bottom
  6
Continuous
 62
     7
370
    20
100
AcDbLine
 39
0.7
 10
279.8117254695565
 20
642.8006556827885
 30
0.0
 11
277.541027398505
 21
642.8011155081907
 31
0.0
1001
AUSTER_FOLIE
1002
{
1000
ZENTRA_MIT_DREHANTRIEB_67_AUSTER
1002
}
1001
AUSTER_ANSICHT
1002
{
1000
R
1002
}
  0
LINE
  5
C554
330
20
100
AcDbEntity
  8
14000_Bottom
  6
Continuous
 62
     7
370
    20
100
AcDbLine
 39
0.7
 10
277.541272147377
 20
644.0097281439297
 30
0.0
 11
279.8119702184286
 21
644.0092683185272
 31
0.0
1001
AUSTER_FOLIE
1002
{
1000
ZENTRA_MIT_DREHANTRIEB_67_AUSTER
1002
}
1001
AUSTER_ANSICHT
1002
{
1000
R
1002
}
  0
LINE
  5
C555
330
20
100
AcDbEntity
  8
14000_Bottom
  6
Continuous
 62
     7
370
    20
100
AcDbLine
 39
0.7
 10
280.8419701973097
 20
644.0090597394296
 30
0.0
 11
283.1126682683613
 21
644.0085999140272
 31
0.0
1001
AUSTER_FOLIE
1002
{
1000
ZENTRA_MIT_DREHANTRIEB_67_AUSTER
1002
}
1001
AUSTER_ANSICHT
1002
{
1000
R
1002
}
  0
LINE
  5
C556
330
20
100
AcDbEntity
  8
14000_Bottom
  6
Continuous
 62
     7
370
    20
100
AcDbLine
 39
0.7
 10
280.8422076465737
 20
645.1816256371572
 30
0.0
 11
280.8420067022636
 21
644.1893275716635
 31
0.0
1001
AUSTER_FOLIE
1002
{
1000
ZENTRA_MIT_DREHANTRIEB_67_AUSTER
1002
}
1001
AUSTER_ANSICHT
1002
{
1000
R
1002
}
  0
LINE
  5
C557
330
20
100
AcDbEntity
  8
14000_Bottom
  6
Continuous
 62
     7
370
    20
100
AcDbLine
 39
0.7
 10
279.8120067233825
 20
644.1895361507611
 30
0.0
 11
279.8122076676926
 21
645.1818342162551
 31
0.0
1001
AUSTER_FOLIE
1002
{
1000
ZENTRA_MIT_DREHANTRIEB_67_AUSTER
1002
}
1001
AUSTER_ANSICHT
1002
{
1000
R
1002
}
  0
LINE
  5
C558
330
20
100
AcDbEntity
  8
14000_Bottom
  6
Continuous
 62
     7
370
    20
100
AcDbLine
 39
0.7
 10
279.8114880202924
 20
641.6280897850706
 30
0.0
 11
279.8116889646025
 21
642.6203878505647
 31
0.0
1001
AUSTER_FOLIE
1002
{
1000
ZENTRA_MIT_DREHANTRIEB_67_AUSTER
1002
}
1001
AUSTER_ANSICHT
1002
{
1000
R
1002
}
  0
LINE
  5
C559
330
20
100
AcDbEntity
  8
14000_Bottom
  6
Continuous
 62
     7
370
    20
100
AcDbLine
 39
0.7
 10
280.8416874012979
 20
642.6201770699591
 30
0.0
 11
280.8414879991736
 21
641.6278812059729
 31
0.0
1001
AUSTER_FOLIE
1002
{
1000
ZENTRA_MIT_DREHANTRIEB_67_AUSTER
1002
}
1001
AUSTER_ANSICHT
1002
{
1000
R
1002
}
  0
LINE
  5
C55A
330
20
100
AcDbEntity
  8
14000_Bottom
  6
Continuous
 62
     7
370
    20
100
AcDbLine
 39
0.7
 10
279.8120082655584
 20
644.1895383522687
 30
0.0
 11
279.8119702184286
 21
644.0092683185272
 31
0.0
1001
AUSTER_FOLIE
1002
{
1000
ZENTRA_MIT_DREHANTRIEB_67_AUSTER
1002
}
1001
AUSTER_ANSICHT
1002
{
1000
R
1002
}
  0
LINE
  5
C55B
330
20
100
AcDbEntity
  8
14000_Bottom
  6
Continuous
 62
     7
370
    20
100
AcDbLine
 39
0.7
 10
279.8116905058868
 20
642.6203856484325
 30
0.0
 11
279.8117254695565
 21
642.8006556827885
 31
0.0
1001
AUSTER_FOLIE
1002
{
1000
ZENTRA_MIT_DREHANTRIEB_67_AUSTER
1002
}
1001
AUSTER_ANSICHT
1002
{
1000
R
1002
}
  0
LINE
  5
C55C
330
20
100
AcDbEntity
  8
14000_Bottom
  6
Continuous
 62
     7
370
    20
100
AcDbLine
 39
0.7
 10
280.8420067022636
 20
644.1893275716635
 30
0.0
 11
280.8419701973097
 21
644.0090597394296
 31
0.0
1001
AUSTER_FOLIE
1002
{
1000
ZENTRA_MIT_DREHANTRIEB_67_AUSTER
1002
}
1001
AUSTER_ANSICHT
1002
{
1000
R
1002
}
  0
LINE
  5
C55D
330
20
100
AcDbEntity
  8
14000_Bottom
  6
Continuous
 62
     7
370
    20
100
AcDbLine
 39
0.7
 10
280.8416874012979
 20
642.6201770699591
 30
0.0
 11
280.8417254484376
 21
642.8004471036907
 31
0.0
1001
AUSTER_FOLIE
1002
{
1000
ZENTRA_MIT_DREHANTRIEB_67_AUSTER
1002
}
1001
AUSTER_ANSICHT
1002
{
1000
R
1002
}
  0
CIRCLE
  5
C55E
330
20
100
AcDbEntity
  8
14000_Bottom
  6
Continuous
 62
     7
370
    20
100
AcDbCircle
 39
0.7
 10
280.3268478334331
 20
643.4048577111089
 30
0.0
 40
3.1
1001
AUSTER_FOLIE
1002
{
1000
ZENTRA_MIT_DREHANTRIEB_67_AUSTER
1002
}
1001
AUSTER_ANSICHT
1002
{
1000
R
1002
}
  0
ARC
  5
C55F
330
20
100
AcDbEntity
  8
14000_Bottom
  6
Continuous
 62
     7
370
    20
100
AcDbCircle
 39
0.7
 10
280.3268478334331
 20
643.4048577111089
 30
0.0
 40
2.85049121087
100
AcDbArc
 50
347.7487691038303
 51
12.22802564944676
1001
AUSTER_FOLIE
1002
{
1000
ZENTRA_MIT_DREHANTRIEB_67_AUSTER
1002
}
1001
AUSTER_ANSICHT
1002
{
1000
R
1002
}
  0
ARC
  5
C560
330
20
100
AcDbEntity
  8
14000_Bottom
  6
Continuous
 62
     7
370
    20
100
AcDbCircle
 39
0.7
 10
280.3268478334331
 20
643.4048577111089
 30
0.0
 40
1.85
100
AcDbArc
 50
73.82495229579665
 51
106.1518424575082
1001
AUSTER_FOLIE
1002
{
1000
ZENTRA_MIT_DREHANTRIEB_67_AUSTER
1002
}
1001
AUSTER_ANSICHT
1002
{
1000
R
1002
}
  0
ARC
  5
C561
330
20
100
AcDbEntity
  8
14000_Bottom
  6
Continuous
 62
     7
370
    20
100
AcDbCircle
 39
0.7
 10
280.3268478334331
 20
643.4048577111089
 30
0.0
 40
1.85
100
AcDbArc
 50
253.8249522957461
 51
286.151842457456
1001
AUSTER_FOLIE
1002
{
1000
ZENTRA_MIT_DREHANTRIEB_67_AUSTER
1002
}
1001
AUSTER_ANSICHT
1002
{
1000
R
1002
}
  0
ARC
  5
C562
330
20
100
AcDbEntity
  8
14000_Bottom
  6
Continuous
 62
     7
370
    20
100
AcDbCircle
 39
0.7
 10
280.3268478334331
 20
643.4048577111089
 30
0.0
 40
2.85049121087
100
AcDbArc
 50
167.7487691038173
 51
192.2280256494199
1001
AUSTER_FOLIE
1002
{
1000
ZENTRA_MIT_DREHANTRIEB_67_AUSTER
1002
}
1001
AUSTER_ANSICHT
1002
{
1000
R
1002
}
  0
CIRCLE
  5
C563
330
20
100
AcDbEntity
  8
14000_Bottom
  6
Continuous
 62
     7
370
    20
100
AcDbCircle
 39
0.7
 10
280.3268478334331
 20
643.4048577111089
 30
0.0
 40
3.1
1001
AUSTER_FOLIE
1002
{
1000
ZENTRA_MIT_DREHANTRIEB_67_AUSTER
1002
}
1001
AUSTER_ANSICHT
1002
{
1000
R
1002
}
  0
POINT
  5
C564
330
20
100
AcDbEntity
  8
14000_Bottom
  6
Continuous
 62
     7
370
    20
100
AcDbPoint
 10
280.3268478334331
 20
643.4048577111089
 30
0.0
 39
0.7
1001
AUSTER_FOLIE
1002
{
1000
ZENTRA_MIT_DREHANTRIEB_67_AUSTER
1002
}
1001
AUSTER_ANSICHT
1002
{
1000
R
1002
}
  0
POINT
  5
C565
330
20
100
AcDbEntity
  8
14000_Bottom
  6
Continuous
 62
     7
370
    20
100
AcDbPoint
 10
280.3268478334331
 20
643.4048577111089
 30
0.0
 39
0.7
1001
AUSTER_FOLIE
1002
{
1000
ZENTRA_MIT_DREHANTRIEB_67_AUSTER
1002
}
1001
AUSTER_ANSICHT
1002
{
1000
R
1002
}
  0
POINT
  5
C566
330
20
100
AcDbEntity
  8
14000_Bottom
  6
Continuous
 62
     7
370
    20
100
AcDbPoint
 10
280.3268478334331
 20
643.4048577111089
 30
0.0
 39
0.7
1001
AUSTER_FOLIE
1002
{
1000
ZENTRA_MIT_DREHANTRIEB_67_AUSTER
1002
}
1001
AUSTER_ANSICHT
1002
{
1000
R
1002
}
  0
POINT
  5
C567
330
20
100
AcDbEntity
  8
14000_Bottom
  6
Continuous
 62
     7
370
    20
100
AcDbPoint
 10
280.3268478334331
 20
643.4048577111089
 30
0.0
 39
0.7
1001
AUSTER_FOLIE
1002
{
1000
ZENTRA_MIT_DREHANTRIEB_67_AUSTER
1002
}
1001
AUSTER_ANSICHT
1002
{
1000
R
1002
}
  0
POINT
  5
C568
330
20
100
AcDbEntity
  8
14000_Bottom
  6
Continuous
 62
     7
370
    20
100
AcDbPoint
 10
280.3268478334331
 20
643.4048577111089
 30
0.0
 39
0.7
1001
AUSTER_FOLIE
1002
{
1000
ZENTRA_MIT_DREHANTRIEB_67_AUSTER
1002
}
1001
AUSTER_ANSICHT
1002
{
1000
R
1002
}
  0
POINT
  5
C569
330
20
100
AcDbEntity
  8
14000_Bottom
  6
Continuous
 62
     7
370
    20
100
AcDbPoint
 10
280.3268154581628
 20
643.404953117717
 30
0.0
 39
0.7
1001
AUSTER_FOLIE
1002
{
1000
ZENTRA_MIT_DREHANTRIEB_67_AUSTER
1002
}
1001
AUSTER_ANSICHT
1002
{
1000
R
1002
}
  0
POINT
  5
C56A
330
20
100
AcDbEntity
  8
14000_Bottom
  6
Continuous
 62
     7
370
    20
100
AcDbPoint
 10
280.3268478334331
 20
643.4048577111089
 30
0.0
 39
0.7
1001
AUSTER_FOLIE
1002
{
1000
ZENTRA_MIT_DREHANTRIEB_67_AUSTER
1002
}
1001
AUSTER_ANSICHT
1002
{
1000
R
1002
}
  0
LINE
  5
C72A
330
20
100
AcDbEntity
  8
14000_Bottom
  6
Continuous
 62
     7
370
    20
100
AcDbLine
 39
0.7
 10
255.326847833433
 20
638.4048577111087
 30
0.0
 11
242.8268478334331
 21
638.4048577111087
 31
0.0
  0
LINE
  5
C72B
330
20
100
AcDbEntity
  8
14000_Bottom
  6
Continuous
 62
     7
370
    50
100
AcDbLine
 39
0.7
 10
258.826847833433
 20
638.4048577111087
 30
0.0
 11
255.326847833433
 21
638.4048577111087
 31
0.0
  0
LINE
  5
C72C
330
20
100
AcDbEntity
  8
14000_Bottom
  6
Continuous
 62
     7
370
    20
100
AcDbLine
 39
0.7
 10
270.8268478334331
 20
638.4048577111087
 30
0.0
 11
258.826847833433
 21
638.4048577111087
 31
0.0
  0
LINE
  5
C72D
330
20
100
AcDbEntity
  8
14000_Bottom
  6
Continuous
 62
     7
370
    50
100
AcDbLine
 39
0.7
 10
274.3268478334331
 20
638.4048577111087
 30
0.0
 11
270.8268478334331
 21
638.4048577111087
 31
0.0
  0
LINE
  5
C72E
330
20
100
AcDbEntity
  8
14000_Bottom
  6
Continuous
 62
     7
370
    20
100
AcDbLine
 39
0.7
 10
286.3268478334331
 20
638.4048577111087
 30
0.0
 11
274.3268478334331
 21
638.4048577111087
 31
0.0
  0
LINE
  5
C72F
330
20
100
AcDbEntity
  8
14000_Bottom
  6
Continuous
 62
     7
370
    50
100
AcDbLine
 39
0.7
 10
287.6268478334331
 20
638.4048577111087
 30
0.0
 11
286.3268478334331
 21
638.4048577111087
 31
0.0
  0
DIMENSION
  5
C84F
330
20
100
AcDbEntity
  8
30100_Drilling_DIM
  6
Continuous
 62
     7
370
    13
100
AcDbDimension
  2
*D4
 10
30.9265616938976
 20
528.5184893769976
 30
0.0
 11
49.01625190204942
 21
531.0147221760444
 31
0.0
 70
   163
 71
     5
 42
4.4999999999999
  3
DSTYLE1
100
AcDbDiametricDimension
 15
35.38431997296897
 25
529.1336244234466
 35
0.0
 40
0.0
1001
ACAD
1000
DSTYLE
1002
{
1070
    41
1040
3.5
1070
    42
1040
1.0
1070
    43
1040
1.0
1070
    47
1040
0.005
1070
    48
1040
-0.005
1070
    77
1070
     0
1070
    78
1070
     0
1070
   140
1040
3.5
1070
   143
1040
25.4
1070
   171
1070
     0
1070
   172
1070
     1
1070
   271
1070
     1
1070
   272
1070
     1
1070
   277
1070
     6
1070
   279
1070
     0
1002
}
  0
DIMENSION
  5
C851
330
20
100
AcDbEntity
  8
30100_Drilling_DIM
  6
Continuous
 62
     7
370
    13
100
AcDbDimension
  2
*D5
 10
-24.23179954170342
 20
528.8260569002225
 30
0.0
 11
-24.23179954170351
 21
552.8260569002225
 31
0.0
 70
    32
 71
     5
 42
47.99999999999977
  3
DSTYLE1
100
AcDbAlignedDimension
 13
-17.09455916656672
 23
576.8260569002222
 33
0.0
 14
-17.09455916656672
 24
528.8260569002225
 34
0.0
 50
90.0
100
AcDbRotatedDimension
1001
ACAD
1000
DSTYLE
1002
{
1070
    41
1040
3.5
1070
    42
1040
1.0
1070
    43
1040
1.0
1070
    47
1040
0.005
1070
    48
1040
-0.005
1070
    77
1070
     0
1070
    78
1070
     0
1070
   140
1040
3.5
1070
   143
1040
25.4
1070
   171
1070
     0
1070
   172
1070
     1
1070
   271
1070
     0
1070
   272
1070
     1
1070
   277
1070
     6
1070
   279
1070
     0
1002
}
  0
DIMENSION
  5
C852
330
20
100
AcDbEntity
  8
30100_Drilling_DIM
  6
Continuous
 62
     7
370
    13
100
AcDbDimension
  2
*D6
 10
33.15544083343328
 20
584.9902029662805
 30
0.0
 11
9.155440833433274
 21
584.9902029662805
 31
0.0
 70
    32
 71
     5
 42
48.0
  3
DSTYLE1
100
AcDbAlignedDimension
 13
-14.84455916656672
 23
579.0760569002222
 33
0.0
 14
33.15544083343328
 24
579.0760569002222
 34
0.0
100
AcDbRotatedDimension
1001
ACAD
1000
DSTYLE
1002
{
1070
    41
1040
3.5
1070
    42
1040
1.0
1070
    43
1040
1.0
1070
    47
1040
0.005
1070
    48
1040
-0.005
1070
    77
1070
     0
1070
    78
1070
     0
1070
   140
1040
3.5
1070
   143
1040
25.4
1070
   171
1070
     0
1070
   172
1070
     1
1070
   271
1070
     0
1070
   272
1070
     1
1070
   277
1070
     6
1070
   279
1070
     0
1002
}
  0
CIRCLE
  5
C856
330
20
100
AcDbEntity
  8
30000_Drilling
 62
     7
370
    50
100
AcDbCircle
 39
0.25
 10
-14.84455916656672
 20
528.8260569002225
 30
0.0
 40
2.25
1001
AUSTER_FOLIE
1002
{
1000
VIERLOCH_2113_BO_M_LB_DREH
1002
}
1001
AUSTER_ANSICHT
1002
{
1000
Det01
1002
}
  0
CIRCLE
  5
C857
330
20
100
AcDbEntity
  8
30000_Drilling
 62
     7
370
    50
100
AcDbCircle
 39
0.25
 10
-14.84455916656672
 20
576.8260569002222
 30
0.0
 40
2.25
1001
AUSTER_FOLIE
1002
{
1000
VIERLOCH_2113_BO_M_LB_DREH
1002
}
1001
AUSTER_ANSICHT
1002
{
1000
Det01
1002
}
  0
CIRCLE
  5
C858
330
20
100
AcDbEntity
  8
30000_Drilling
 62
     7
370
    50
100
AcDbCircle
 39
0.25
 10
33.15544083343328
 20
528.8260569002223
 30
0.0
 40
2.25
1001
AUSTER_FOLIE
1002
{
1000
VIERLOCH_2113_BO_M_LB_DREH
1002
}
1001
AUSTER_ANSICHT
1002
{
1000
Det01
1002
}
  0
CIRCLE
  5
C859
330
20
100
AcDbEntity
  8
30000_Drilling
 62
     7
370
    50
100
AcDbCircle
 39
0.25
 10
33.15544083343328
 20
576.8260569002222
 30
0.0
 40
2.25
1001
AUSTER_FOLIE
1002
{
1000
VIERLOCH_2113_BO_M_LB_DREH
1002
}
1001
AUSTER_ANSICHT
1002
{
1000
Det01
1002
}
  0
LINE
  5
C919
330
20
100
AcDbEntity
  8
14000_Bottom
  6
Continuous
 62
     7
370
    20
100
AcDbLine
 10
295.3268478334331
 20
692.4048577111086
 30
0.0
 11
288.0358078334331
 21
692.4048577111086
 31
0.0
  0
LINE
  5
C91A
330
20
100
AcDbEntity
  8
14000_Bottom
  6
Continuous
 62
     7
370
    20
100
AcDbLine
 10
295.3268478334331
 20
632.4048577111089
 30
0.0
 11
295.3268478334331
 21
692.4048577111086
 31
0.0
  0
LINE
  5
C91B
330
20
100
AcDbEntity
  8
14000_Bottom
  6
Continuous
 62
     7
370
    20
100
AcDbLine
 10
298.3268478334331
 20
632.4048577111089
 30
0.0
 11
298.3268478334331
 21
692.4048577111086
 31
0.0
  0
ARC
  5
C91C
330
20
100
AcDbEntity
  8
14000_Bottom
  6
Continuous
 62
     7
370
    20
100
AcDbCircle
 10
295.3268478334331
 20
692.4048577111086
 30
0.0
 40
3.0
100
AcDbArc
 50
0.000000000000007
 51
90.0
  0
LINE
  5
C91D
330
20
100
AcDbEntity
  8
14000_Bottom
  6
Continuous
 62
     7
370
    20
100
AcDbLine
 10
295.3268478334331
 20
695.4048577111087
 30
0.0
 11
288.0358078334331
 21
695.4048577111087
 31
0.0
  0
ARC
  5
C91E
330
20
100
AcDbEntity
  8
14100_Bottom_Dim
100
AcDbCircle
 10
289.3268478334331
 20
638.4048577111087
 30
0.0
 40
2.25
100
AcDbArc
 50
180.0000000000029
 51
139.0739366903929
  0
ARC
  5
C922
330
20
100
AcDbEntity
  8
14100_Bottom_Dim
100
AcDbCircle
 10
289.3268478334331
 20
686.4048577111089
 30
0.0
 40
2.25
100
AcDbArc
 50
228.1896851042205
 51
131.8103148957795
  0
ARC
  5
C942
330
20
100
AcDbEntity
  8
14100_Bottom_Dim
100
AcDbCircle
 10
241.3268478334331
 20
686.4048577111089
 30
0.0
 40
2.225
100
AcDbArc
 50
54.24858821234091
 51
305.7514117876591
  0
ARC
  5
C943
330
20
100
AcDbEntity
  8
14100_Bottom_Dim
100
AcDbCircle
 10
241.3268478334331
 20
638.4048577111087
 30
0.0
 40
2.25
100
AcDbArc
 50
48.18968510422045
 51
311.8103148957771
  0
LINE
  5
CAE2
330
20
100
AcDbEntity
  8
30000_Drilling
 62
     7
370
    50
100
AcDbLine
 39
0.25
 10
9.550960833433066
 20
565.2667446310853
 30
0.0
 11
7.955579731506588
 21
565.2667446310853
 31
0.0
1001
AUSTER_FOLIE
1002
{
1000
ZENTRA_MIT_DREHANTRIEB_67_AUSTER
1002
}
1001
AUSTER_ANSICHT
1002
{
1000
Det01
1002
}
  0
LINE
  5
CAE3
330
20
100
AcDbEntity
  8
30000_Drilling
 62
     7
370
    50
100
AcDbLine
 39
0.25
 10
9.550960833433066
 20
565.2667446310853
 30
0.0
 11
11.14634193535954
 21
565.2667446310853
 31
0.0
1001
AUSTER_FOLIE
1002
{
1000
ZENTRA_MIT_DREHANTRIEB_67_AUSTER
1002
}
1001
AUSTER_ANSICHT
1002
{
1000
Det01
1002
}
  0
ARC
  5
CAE4
330
20
100
AcDbEntity
  8
30000_Drilling
 62
     7
370
    50
100
AcDbCircle
 39
0.25
 10
9.550960833433066
 20
552.4305369002227
 30
0.0
 40
11.23634810187941
100
AcDbArc
 50
98.18640058847542
 51
81.81359941152459
1001
AUSTER_FOLIE
1002
{
1000
ZENTRA_MIT_DREHANTRIEB_67_AUSTER
1002
}
1001
AUSTER_ANSICHT
1002
{
1000
Det01
1002
}
  0
LINE
  5
CAE5
330
20
100
AcDbEntity
  8
30000_Drilling
 62
     7
370
    50
100
AcDbLine
 39
0.25
 10
7.955579731506588
 20
565.2667446310853
 30
0.0
 11
7.950972261135857
 21
563.5523872514514
 31
0.0
1001
AUSTER_FOLIE
1002
{
1000
ZENTRA_MIT_DREHANTRIEB_67_AUSTER
1002
}
1001
AUSTER_ANSICHT
1002
{
1000
Det01
1002
}
  0
LINE
  5
CAE6
330
20
100
AcDbEntity
  8
30000_Drilling
 62
     7
370
    50
100
AcDbLine
 39
0.25
 10
11.14634193535954
 20
565.2667446310853
 30
0.0
 11
11.15094940573027
 21
563.5523872514514
 31
0.0
1001
AUSTER_FOLIE
1002
{
1000
ZENTRA_MIT_DREHANTRIEB_67_AUSTER
1002
}
1001
AUSTER_ANSICHT
1002
{
1000
Det01
1002
}
  0
LINE
  5
CAF4
330
20
100
AcDbEntity
  8
11100_LEFT_DIM
  6
Continuous
 62
     7
 48
0.5
370
    13
100
AcDbLine
 39
0.35
 10
170.5127860517637
 20
619.2751834689804
 30
0.0
 11
165.3301706108662
 21
610.9435600557
 31
0.0
1001
AUSTER_FOLIE
1002
{
1000
ZENTRA_MIT_DREHANTRIEB_67_AUSTER
1002
}
1001
AUSTER_ANSICHT
1002
{
1000
SL
1002
}
  0
LINE
  5
CB0B
330
20
100
AcDbEntity
  8
11000_Left
  6
CENTER
 62
     7
370
     9
100
AcDbLine
 39
0.8
 10
211.0085660517637
 20
662.4048577111087
 30
0.0
 11
89.9600260517637
 21
662.4048577111087
 31
0.0
1001
AUSTER_FOLIE
1002
{
1000
ZENTRA_MIT_DREHANTRIEB_67_AUSTER
1002
}
1001
AUSTER_ANSICHT
1002
{
1000
SL
1002
}
  0
TEXT
  5
CB0D
330
20
100
AcDbEntity
  8
11100_LEFT_DIM
  6
Continuous
 62
     7
370
    13
100
AcDbText
 39
0.25
 10
150.343288094972
 20
604.7377750994208
 30
0.0
 40
3.5
  1
max 5,5 mm
100
AcDbText
1001
AUSTER_FOLIE
1002
{
1000
ZENTRA_MIT_DREHANTRIEB_67_AUSTER
1002
}
1001
AUSTER_ANSICHT
1002
{
1000
SL
1002
}
  0
LINE
  5
CB5D
330
20
100
AcDbEntity
  8
11000_Left
  6
Continuous
 62
     7
 48
0.5
370
     9
100
AcDbLine
 39
0.7
 10
170.5127860517635
 20
718.9202866437632
 30
0.0
 11
172.5127860517637
 21
720.9202866437632
 31
0.0
1001
AUSTER_FOLIE
1002
{
1000
ZENTRA_MIT_DREHANTRIEB_67_AUSTER
1002
}
1001
AUSTER_ANSICHT
1002
{
1000
SL
1002
}
  0
LINE
  5
CB5E
330
20
100
AcDbEntity
  8
11000_Left
  6
Continuous
 62
     7
 48
0.5
370
     9
100
AcDbLine
 39
0.7
 10
170.5127860517637
 20
723.8080856050983
 30
0.0
 11
172.5127860517637
 21
723.9613601373434
 31
0.0
1001
AUSTER_FOLIE
1002
{
1000
ZENTRA_MIT_DREHANTRIEB_67_AUSTER
1002
}
1001
AUSTER_ANSICHT
1002
{
1000
SL
1002
}
  0
LINE
  5
CB5F
330
20
100
AcDbEntity
  8
11000_Left
  6
Continuous
 62
     7
 48
0.5
370
     9
100
AcDbLine
 39
0.7
 10
170.5127860517637
 20
705.4499024621594
 30
0.0
 11
172.5127860517637
 21
707.4499024621594
 31
0.0
1001
AUSTER_FOLIE
1002
{
1000
ZENTRA_MIT_DREHANTRIEB_67_AUSTER
1002
}
1001
AUSTER_ANSICHT
1002
{
1000
SL
1002
}
  0
LINE
  5
CB60
330
20
100
AcDbEntity
  8
11000_Left
  6
Continuous
 62
     7
 48
0.5
370
     9
100
AcDbLine
 39
0.7
 10
170.5127860517637
 20
714.4301566437633
 30
0.0
 11
172.5127860517637
 21
716.4301566437633
 31
0.0
1001
AUSTER_FOLIE
1002
{
1000
ZENTRA_MIT_DREHANTRIEB_67_AUSTER
1002
}
1001
AUSTER_ANSICHT
1002
{
1000
SL
1002
}
  0
LINE
  5
CB7A
330
20
100
AcDbEntity
  8
11000_Left
  6
Continuous
 62
     7
 48
0.5
370
     9
100
AcDbLine
 39
0.7
 10
170.5127860517637
 20
691.9795182805557
 30
0.0
 11
172.5127860517637
 21
693.9795182805559
 31
0.0
1001
AUSTER_FOLIE
1002
{
1000
ZENTRA_MIT_DREHANTRIEB_67_AUSTER
1002
}
1001
AUSTER_ANSICHT
1002
{
1000
SL
1002
}
  0
LINE
  5
CB7E
330
20
100
AcDbEntity
  8
11000_Left
  6
Continuous
 62
     7
 48
0.5
370
     9
100
AcDbLine
 39
0.7
 10
170.5127860517635
 20
700.9597724621594
 30
0.0
 11
172.5127860517637
 21
702.9597724621594
 31
0.0
1001
AUSTER_FOLIE
1002
{
1000
ZENTRA_MIT_DREHANTRIEB_67_AUSTER
1002
}
1001
AUSTER_ANSICHT
1002
{
1000
SL
1002
}
  0
LINE
  5
CB80
330
20
100
AcDbEntity
  8
11000_Left
  6
Continuous
 62
     7
 48
0.5
370
     9
100
AcDbLine
 39
0.7
 10
170.5127860517637
 20
678.5091340989521
 30
0.0
 11
172.5127860517637
 21
680.5091340989521
 31
0.0
1001
AUSTER_FOLIE
1002
{
1000
ZENTRA_MIT_DREHANTRIEB_67_AUSTER
1002
}
1001
AUSTER_ANSICHT
1002
{
1000
SL
1002
}
  0
LINE
  5
CB81
330
20
100
AcDbEntity
  8
11000_Left
  6
Continuous
 62
     7
370
    50
100
AcDbLine
 39
0.7
 10
166.5127860517637
 20
679.4048577111084
 30
0.0
 11
164.5127860517637
 21
679.4048577111084
 31
0.0
1001
AUSTER_FOLIE
1002
{
1000
ZENTRA_MIT_DREHANTRIEB_67_AUSTER
1002
}
1001
AUSTER_ANSICHT
1002
{
1000
SL
1002
}
  0
LINE
  5
CB82
330
20
100
AcDbEntity
  8
11000_Left
  6
Continuous
 62
     7
370
    50
100
AcDbLine
 39
0.7
 10
170.5127860517637
 20
682.4048577111084
 30
0.0
 11
166.5127860517637
 21
682.4048577111084
 31
0.0
1001
AUSTER_FOLIE
1002
{
1000
ZENTRA_MIT_DREHANTRIEB_67_AUSTER
1002
}
1001
AUSTER_ANSICHT
1002
{
1000
SL
1002
}
  0
LINE
  5
CB83
330
20
100
AcDbEntity
  8
11000_Left
  6
Continuous
 62
     7
 48
0.5
370
     9
100
AcDbLine
 39
0.7
 10
170.5127860517637
 20
687.4893882805557
 30
0.0
 11
172.5127860517637
 21
689.4893882805558
 31
0.0
1001
AUSTER_FOLIE
1002
{
1000
ZENTRA_MIT_DREHANTRIEB_67_AUSTER
1002
}
1001
AUSTER_ANSICHT
1002
{
1000
SL
1002
}
  0
LINE
  5
CB85
330
20
100
AcDbEntity
  8
11000_Left
  6
Continuous
 62
     7
370
    50
100
AcDbLine
 39
0.7
 10
154.5127860517637
 20
682.4048577111084
 30
0.0
 11
146.5158460517637
 21
682.4048577111084
 31
0.0
1001
AUSTER_FOLIE
1002
{
1000
ZENTRA_MIT_DREHANTRIEB_67_AUSTER
1002
}
1001
AUSTER_ANSICHT
1002
{
1000
SL
1002
}
  0
LINE
  5
CB86
330
20
100
AcDbEntity
  8
11000_Left
  6
Continuous
 62
     7
370
    50
100
AcDbLine
 39
0.7
 10
143.5127860517637
 20
684.9048577111084
 30
0.0
 11
143.5127860517637
 21
677.9048577111084
 31
0.0
1001
AUSTER_FOLIE
1002
{
1000
ZENTRA_MIT_DREHANTRIEB_67_AUSTER
1002
}
1001
AUSTER_ANSICHT
1002
{
1000
SL
1002
}
  0
LINE
  5
CB87
330
20
100
AcDbEntity
  8
11000_Left
  6
Continuous
 62
     7
370
    50
100
AcDbLine
 39
0.7
 10
133.5127860517637
 20
677.9048577111088
 30
0.0
 11
133.5127860517637
 21
686.4048577111088
 31
0.0
1001
AUSTER_FOLIE
1002
{
1000
ZENTRA_MIT_DREHANTRIEB_67_AUSTER
1002
}
1001
AUSTER_ANSICHT
1002
{
1000
SL
1002
}
  0
LINE
  5
CB88
330
20
100
AcDbEntity
  8
11000_Left
  6
Continuous
 62
     7
370
    50
100
AcDbLine
 39
0.7
 10
133.5127860517637
 20
686.4048577111088
 30
0.0
 11
128.0127860517637
 21
686.4048577111088
 31
0.0
1001
AUSTER_FOLIE
1002
{
1000
ZENTRA_MIT_DREHANTRIEB_67_AUSTER
1002
}
1001
AUSTER_ANSICHT
1002
{
1000
SL
1002
}
  0
LINE
  5
CB89
330
20
100
AcDbEntity
  8
11000_Left
  6
Continuous
 62
     7
370
    50
100
AcDbLine
 39
0.7
 10
143.5127860517637
 20
677.9048577111088
 30
0.0
 11
133.5127860517637
 21
677.9048577111088
 31
0.0
1001
AUSTER_FOLIE
1002
{
1000
ZENTRA_MIT_DREHANTRIEB_67_AUSTER
1002
}
1001
AUSTER_ANSICHT
1002
{
1000
SL
1002
}
  0
LINE
  5
CB8A
330
20
100
AcDbEntity
  8
11000_Left
  6
Continuous
 62
     7
370
    50
100
AcDbLine
 39
0.7
 10
143.5127860517637
 20
684.9048577111084
 30
0.0
 11
146.5127860517637
 21
684.9048577111084
 31
0.0
1001
AUSTER_FOLIE
1002
{
1000
ZENTRA_MIT_DREHANTRIEB_67_AUSTER
1002
}
1001
AUSTER_ANSICHT
1002
{
1000
SL
1002
}
  0
LINE
  5
CB8B
330
20
100
AcDbEntity
  8
11000_Left
  6
Continuous
 62
     7
370
    20
100
AcDbLine
 10
131.5027860517637
 20
706.4048577111085
 30
0.0
 11
131.5027860517637
 21
686.4048577111088
 31
0.0
1001
AUSTER_FOLIE
1002
{
1000
ZENTRA_MIT_DREHANTRIEB_67_AUSTER
1002
}
1001
AUSTER_ANSICHT
1002
{
1000
SL
1002
}
  0
LINE
  5
CB8C
330
20
100
AcDbEntity
  8
11000_Left
  6
Continuous
 62
     7
370
    50
100
AcDbLine
 39
0.7
 10
164.5127860517637
 20
675.4048577111084
 30
0.0
 11
160.5127860517637
 21
675.4048577111084
 31
0.0
1001
AUSTER_FOLIE
1002
{
1000
ZENTRA_MIT_DREHANTRIEB_67_AUSTER
1002
}
1001
AUSTER_ANSICHT
1002
{
1000
SL
1002
}
  0
LINE
  5
CBB5
330
20
100
AcDbEntity
  8
11000_Left
  6
Continuous
 62
     7
 48
0.5
370
     9
100
AcDbLine
 39
0.7
 10
170.5127860517637
 20
660.5486199173484
 30
0.0
 11
172.5127860517637
 21
662.5486199173484
 31
0.0
1001
AUSTER_FOLIE
1002
{
1000
ZENTRA_MIT_DREHANTRIEB_67_AUSTER
1002
}
1001
AUSTER_ANSICHT
1002
{
1000
SL
1002
}
  0
LINE
  5
CBB6
330
20
100
AcDbEntity
  8
11000_Left
  6
Continuous
 62
     7
 48
0.5
370
     9
100
AcDbLine
 39
0.7
 10
170.5127860517637
 20
665.0387499173482
 30
0.0
 11
172.5127860517637
 21
667.0387499173482
 31
0.0
1001
AUSTER_FOLIE
1002
{
1000
ZENTRA_MIT_DREHANTRIEB_67_AUSTER
1002
}
1001
AUSTER_ANSICHT
1002
{
1000
SL
1002
}
  0
LINE
  5
CBB7
330
20
100
AcDbEntity
  8
11000_Left
  6
Continuous
 62
     7
 48
0.5
370
     9
100
AcDbLine
 39
0.7
 10
170.5127860517637
 20
647.0782357357446
 30
0.0
 11
172.5127860517637
 21
649.0782357357447
 31
0.0
1001
AUSTER_FOLIE
1002
{
1000
ZENTRA_MIT_DREHANTRIEB_67_AUSTER
1002
}
1001
AUSTER_ANSICHT
1002
{
1000
SL
1002
}
  0
LINE
  5
CBB8
330
20
100
AcDbEntity
  8
11000_Left
  6
Continuous
 62
     7
 48
0.5
370
     9
100
AcDbLine
 39
0.7
 10
170.5127860517637
 20
651.5683657357445
 30
0.0
 11
172.5127860517637
 21
653.5683657357448
 31
0.0
1001
AUSTER_FOLIE
1002
{
1000
ZENTRA_MIT_DREHANTRIEB_67_AUSTER
1002
}
1001
AUSTER_ANSICHT
1002
{
1000
SL
1002
}
  0
LINE
  5
CBB9
330
20
100
AcDbEntity
  8
11000_Left
  6
Continuous
 62
     7
370
    50
100
AcDbLine
 39
0.7
 10
164.5127860517637
 20
645.4048577111088
 30
0.0
 11
166.5127860517637
 21
645.4048577111088
 31
0.0
1001
AUSTER_FOLIE
1002
{
1000
ZENTRA_MIT_DREHANTRIEB_67_AUSTER
1002
}
1001
AUSTER_ANSICHT
1002
{
1000
SL
1002
}
  0
LINE
  5
CBD3
330
20
100
AcDbEntity
  8
11000_Left
  6
Continuous
 62
     7
 48
0.5
370
     9
100
AcDbLine
 39
0.7
 10
170.5127860517637
 20
633.6078515541409
 30
0.0
 11
172.5127860517637
 21
635.6078515541407
 31
0.0
1001
AUSTER_FOLIE
1002
{
1000
ZENTRA_MIT_DREHANTRIEB_67_AUSTER
1002
}
1001
AUSTER_ANSICHT
1002
{
1000
SL
1002
}
  0
LINE
  5
CBD4
330
20
100
AcDbEntity
  8
11000_Left
  6
Continuous
 62
     7
 48
0.5
370
     9
100
AcDbLine
 39
0.7
 10
170.5127860517637
 20
638.0979815541408
 30
0.0
 11
172.5127860517637
 21
640.097981554141
 31
0.0
1001
AUSTER_FOLIE
1002
{
1000
ZENTRA_MIT_DREHANTRIEB_67_AUSTER
1002
}
1001
AUSTER_ANSICHT
1002
{
1000
SL
1002
}
  0
LINE
  5
CBD5
330
20
100
AcDbEntity
  8
11000_Left
  6
Continuous
 62
     7
370
    50
100
AcDbLine
 39
0.7
 10
166.5127860517637
 20
642.4048577111087
 30
0.0
 11
170.5127860517637
 21
642.4048577111087
 31
0.0
1001
AUSTER_FOLIE
1002
{
1000
ZENTRA_MIT_DREHANTRIEB_67_AUSTER
1002
}
1001
AUSTER_ANSICHT
1002
{
1000
SL
1002
}
  0
LINE
  5
CBD6
330
20
100
AcDbEntity
  8
11000_Left
  6
Continuous
 62
     7
 48
0.5
370
     9
100
AcDbLine
 39
0.7
 10
170.5127860517637
 20
620.137467372537
 30
0.0
 11
172.5127860517637
 21
622.1374673725371
 31
0.0
1001
AUSTER_FOLIE
1002
{
1000
ZENTRA_MIT_DREHANTRIEB_67_AUSTER
1002
}
1001
AUSTER_ANSICHT
1002
{
1000
SL
1002
}
  0
LINE
  5
CBD7
330
20
100
AcDbEntity
  8
11000_Left
  6
Continuous
 62
     7
 48
0.5
370
     9
100
AcDbLine
 39
0.7
 10
170.5127860517637
 20
624.627597372537
 30
0.0
 11
172.5127860517637
 21
626.6275973725372
 31
0.0
1001
AUSTER_FOLIE
1002
{
1000
ZENTRA_MIT_DREHANTRIEB_67_AUSTER
1002
}
1001
AUSTER_ANSICHT
1002
{
1000
SL
1002
}
  0
LINE
  5
CBD8
330
20
100
AcDbEntity
  8
11000_Left
  6
Continuous
 62
     7
 48
0.5
370
     9
100
AcDbLine
 39
0.7
 10
172.5127860517637
 20
619.1219101547175
 30
0.0
 11
170.5127860517637
 21
619.2751834689804
 31
0.0
1001
AUSTER_FOLIE
1002
{
1000
ZENTRA_MIT_DREHANTRIEB_67_AUSTER
1002
}
1001
AUSTER_ANSICHT
1002
{
1000
SL
1002
}
  0
LINE
  5
CBDF
330
20
100
AcDbEntity
  8
11000_Left
  6
Continuous
 62
     7
370
    50
100
AcDbLine
 39
0.7
 10
160.5127860517637
 20
672.9048577111084
 30
0.0
 11
154.5127860517637
 21
672.9048577111084
 31
0.0
1001
AUSTER_FOLIE
1002
{
1000
ZENTRA_MIT_DREHANTRIEB_67_AUSTER
1002
}
1001
AUSTER_ANSICHT
1002
{
1000
SL
1002
}
  0
LINE
  5
CBE0
330
20
100
AcDbEntity
  8
11000_Left
  6
Continuous
 62
     7
370
    50
100
AcDbLine
 39
0.7
 10
154.5127860517637
 20
651.9048577111087
 30
0.0
 11
160.5127860517637
 21
651.9048577111087
 31
0.0
1001
AUSTER_FOLIE
1002
{
1000
ZENTRA_MIT_DREHANTRIEB_67_AUSTER
1002
}
1001
AUSTER_ANSICHT
1002
{
1000
SL
1002
}
  0
LINE
  5
CBE1
330
20
100
AcDbEntity
  8
11000_Left
  6
Continuous
 62
     7
370
    50
100
AcDbLine
 39
0.7
 10
133.5127860517637
 20
646.9048577111087
 30
0.0
 11
143.5127860517637
 21
646.9048577111087
 31
0.0
1001
AUSTER_FOLIE
1002
{
1000
ZENTRA_MIT_DREHANTRIEB_67_AUSTER
1002
}
1001
AUSTER_ANSICHT
1002
{
1000
SL
1002
}
  0
LINE
  5
CBE2
330
20
100
AcDbEntity
  8
11000_Left
  6
Continuous
 62
     7
370
    50
100
AcDbLine
 39
0.7
 10
146.5158460517637
 20
642.4048577111087
 30
0.0
 11
154.5127860517637
 21
642.4048577111087
 31
0.0
1001
AUSTER_FOLIE
1002
{
1000
ZENTRA_MIT_DREHANTRIEB_67_AUSTER
1002
}
1001
AUSTER_ANSICHT
1002
{
1000
SL
1002
}
  0
LINE
  5
CBE3
330
20
100
AcDbEntity
  8
11000_Left
  6
Continuous
 62
     7
370
    50
100
AcDbLine
 39
0.7
 10
143.5127860517637
 20
639.9048577111088
 30
0.0
 11
146.5127860517637
 21
639.9048577111088
 31
0.0
1001
AUSTER_FOLIE
1002
{
1000
ZENTRA_MIT_DREHANTRIEB_67_AUSTER
1002
}
1001
AUSTER_ANSICHT
1002
{
1000
SL
1002
}
  0
LINE
  5
CBE4
330
20
100
AcDbEntity
  8
11000_Left
  6
Continuous
 62
     7
370
    50
100
AcDbLine
 39
0.7
 10
143.5127860517637
 20
646.9048577111087
 30
0.0
 11
143.5127860517637
 21
639.9048577111088
 31
0.0
1001
AUSTER_FOLIE
1002
{
1000
ZENTRA_MIT_DREHANTRIEB_67_AUSTER
1002
}
1001
AUSTER_ANSICHT
1002
{
1000
SL
1002
}
  0
LINE
  5
CBE5
330
20
100
AcDbEntity
  8
11000_Left
  6
Continuous
 62
     7
370
    50
100
AcDbLine
 39
0.7
 10
133.5127860517637
 20
638.4048577111087
 30
0.0
 11
133.5127860517637
 21
646.9048577111087
 31
0.0
1001
AUSTER_FOLIE
1002
{
1000
ZENTRA_MIT_DREHANTRIEB_67_AUSTER
1002
}
1001
AUSTER_ANSICHT
1002
{
1000
SL
1002
}
  0
LINE
  5
CBE6
330
20
100
AcDbEntity
  8
11000_Left
  6
Continuous
 62
     7
370
    50
100
AcDbLine
 39
0.7
 10
160.5127860517637
 20
649.4048577111088
 30
0.0
 11
164.5127860517637
 21
649.4048577111088
 31
0.0
1001
AUSTER_FOLIE
1002
{
1000
ZENTRA_MIT_DREHANTRIEB_67_AUSTER
1002
}
1001
AUSTER_ANSICHT
1002
{
1000
SL
1002
}
  0
LINE
  5
CBE7
330
20
100
AcDbEntity
  8
11000_Left
  6
Continuous
 62
     7
 48
0.5
370
    20
100
AcDbLine
 39
0.7
 10
170.5127860517637
 20
619.2751834689804
 30
0.0
 11
170.5127860517637
 21
723.8080856050983
 31
0.0
1001
AUSTER_FOLIE
1002
{
1000
ZENTRA_MIT_DREHANTRIEB_67_AUSTER
1002
}
1001
AUSTER_ANSICHT
1002
{
1000
SL
1002
}
  0
LINE
  5
CBE8
330
20
100
AcDbEntity
  8
11000_Left
  6
Continuous
 62
     7
 48
0.5
370
    20
100
AcDbLine
 39
0.7
 10
172.5127860517637
 20
619.1219101547175
 30
0.0
 11
172.5127860517637
 21
723.9613601373434
 31
0.0
1001
AUSTER_FOLIE
1002
{
1000
ZENTRA_MIT_DREHANTRIEB_67_AUSTER
1002
}
1001
AUSTER_ANSICHT
1002
{
1000
SL
1002
}
  0
LINE
  5
CBE9
330
20
100
AcDbEntity
  8
11000_Left
  6
Continuous
 62
     7
370
    50
100
AcDbLine
 39
0.7
 10
166.5127860517637
 20
642.4048577111087
 30
0.0
 11
166.5127860517636
 21
645.4048577111088
 31
0.0
1001
AUSTER_FOLIE
1002
{
1000
ZENTRA_MIT_DREHANTRIEB_67_AUSTER
1002
}
1001
AUSTER_ANSICHT
1002
{
1000
SL
1002
}
  0
LINE
  5
CBEA
330
20
100
AcDbEntity
  8
11000_Left
  6
Continuous
 62
     7
370
    50
100
AcDbLine
 39
0.7
 10
154.5127860517637
 20
642.4048577111087
 30
0.0
 11
154.5127860517637
 21
651.9048577111086
 31
0.0
1001
AUSTER_FOLIE
1002
{
1000
ZENTRA_MIT_DREHANTRIEB_67_AUSTER
1002
}
1001
AUSTER_ANSICHT
1002
{
1000
SL
1002
}
  0
LINE
  5
CBED
330
20
100
AcDbEntity
  8
11000_Left
  6
Continuous
 62
     7
370
    50
100
AcDbLine
 39
0.7
 10
146.5127860517637
 20
639.9048577111088
 30
0.0
 11
146.5127860517637
 21
642.4048577111086
 31
0.0
1001
AUSTER_FOLIE
1002
{
1000
ZENTRA_MIT_DREHANTRIEB_67_AUSTER
1002
}
1001
AUSTER_ANSICHT
1002
{
1000
SL
1002
}
  0
LINE
  5
CBEE
330
20
100
AcDbEntity
  8
11000_Left
  6
Continuous
 62
     7
370
    50
100
AcDbLine
 39
0.7
 10
160.5127860517637
 20
649.4048577111088
 30
0.0
 11
160.5127860517636
 21
651.9048577111086
 31
0.0
1001
AUSTER_FOLIE
1002
{
1000
ZENTRA_MIT_DREHANTRIEB_67_AUSTER
1002
}
1001
AUSTER_ANSICHT
1002
{
1000
SL
1002
}
  0
LINE
  5
CBEF
330
20
100
AcDbEntity
  8
11000_Left
  6
Continuous
 62
     7
370
    50
100
AcDbLine
 39
0.7
 10
164.5127860517637
 20
645.4048577111088
 30
0.0
 11
164.5127860517637
 21
649.4048577111088
 31
0.0
1001
AUSTER_FOLIE
1002
{
1000
ZENTRA_MIT_DREHANTRIEB_67_AUSTER
1002
}
1001
AUSTER_ANSICHT
1002
{
1000
SL
1002
}
  0
LINE
  5
CBF0
330
20
100
AcDbEntity
  8
11000_Left
  6
Continuous
 62
     7
 48
0.5
370
     9
100
AcDbLine
 39
0.7
 10
170.5127860517637
 20
674.019004098952
 30
0.0
 11
172.5127860517637
 21
676.0190040989519
 31
0.0
1001
AUSTER_FOLIE
1002
{
1000
ZENTRA_MIT_DREHANTRIEB_67_AUSTER
1002
}
1001
AUSTER_ANSICHT
1002
{
1000
SL
1002
}
  0
LINE
  5
CBF2
330
20
100
AcDbEntity
  8
11000_Left
  6
Continuous
 62
     7
370
    50
100
AcDbLine
 39
0.7
 10
114.4362260517637
 20
689.9379877111085
 30
0.0
 11
127.9673560517636
 21
689.9379877111085
 31
0.0
1001
AUSTER_FOLIE
1002
{
1000
ZENTRA_MIT_DREHANTRIEB_67_AUSTER
1002
}
1001
AUSTER_ANSICHT
1002
{
1000
SL
1002
}
  0
LINE
  5
CBF5
330
20
100
AcDbEntity
  8
11000_Left
  6
Continuous
 62
     7
370
    50
100
AcDbLine
 39
0.7
 10
114.4362260517637
 20
686.4048577111088
 30
0.0
 11
114.4362260517637
 21
689.9379877111085
 31
0.0
1001
AUSTER_FOLIE
1002
{
1000
ZENTRA_MIT_DREHANTRIEB_67_AUSTER
1002
}
1001
AUSTER_ANSICHT
1002
{
1000
SL
1002
}
  0
LINE
  5
CBF6
330
20
100
AcDbEntity
  8
11000_Left
  6
Continuous
 62
     7
370
    50
100
AcDbLine
 39
0.7
 10
127.9673560517636
 20
689.9379877111085
 30
0.0
 11
127.9673560517636
 21
686.4048577111088
 31
0.0
1001
AUSTER_FOLIE
1002
{
1000
ZENTRA_MIT_DREHANTRIEB_67_AUSTER
1002
}
1001
AUSTER_ANSICHT
1002
{
1000
SL
1002
}
  0
LINE
  5
CBF8
330
20
100
AcDbEntity
  8
11000_Left
  6
Continuous
 62
     7
370
    50
100
AcDbLine
 39
0.7
 10
101.5127860517637
 20
686.4048577111088
 30
0.0
 11
101.5127860517637
 21
677.9048577111088
 31
0.0
1001
AUSTER_FOLIE
1002
{
1000
ZENTRA_MIT_DREHANTRIEB_67_AUSTER
1002
}
1001
AUSTER_ANSICHT
1002
{
1000
SL
1002
}
  0
LINE
  5
CBFA
330
20
100
AcDbEntity
  8
11000_Left
  6
Continuous
 62
     7
370
    50
100
AcDbLine
 39
0.7
 10
101.5127860517637
 20
677.9048577111088
 30
0.0
 11
96.51278605176372
 21
677.9048577111088
 31
0.0
1001
AUSTER_FOLIE
1002
{
1000
ZENTRA_MIT_DREHANTRIEB_67_AUSTER
1002
}
1001
AUSTER_ANSICHT
1002
{
1000
SL
1002
}
  0
LINE
  5
CBFB
330
20
100
AcDbEntity
  8
11000_Left
  6
Continuous
 62
     7
370
    20
100
AcDbLine
 10
101.5027860517637
 20
678.4048577111088
 30
0.0
 11
97.50278605176372
 21
678.4048577111088
 31
0.0
1001
AUSTER_FOLIE
1002
{
1000
ZENTRA_MIT_DREHANTRIEB_67_AUSTER
1002
}
1001
AUSTER_ANSICHT
1002
{
1000
SL
1002
}
  0
LINE
  5
CBFF
330
20
100
AcDbEntity
  8
11000_Left
  6
Continuous
 62
     7
370
    20
100
AcDbLine
 10
97.50278605176372
 20
678.4048577111088
 30
0.0
 11
97.50278605176372
 21
692.4048577111086
 31
0.0
1001
AUSTER_FOLIE
1002
{
1000
ZENTRA_MIT_DREHANTRIEB_67_AUSTER
1002
}
1001
AUSTER_ANSICHT
1002
{
1000
SL
1002
}
  0
LINE
  5
CC00
330
20
100
AcDbEntity
  8
11000_Left
  6
Continuous
 62
     7
370
    20
100
AcDbLine
 10
97.50278605176372
 20
692.4048577111086
 30
0.0
 11
111.5027860517637
 21
706.4048577111085
 31
0.0
1001
AUSTER_FOLIE
1002
{
1000
ZENTRA_MIT_DREHANTRIEB_67_AUSTER
1002
}
1001
AUSTER_ANSICHT
1002
{
1000
SL
1002
}
  0
LINE
  5
CC04
330
20
100
AcDbEntity
  8
11000_Left
  6
Continuous
 62
     7
370
    50
100
AcDbLine
 39
0.7
 10
96.51278605176372
 20
646.9048577111087
 30
0.0
 11
101.5127860517637
 21
646.9048577111087
 31
0.0
1001
AUSTER_FOLIE
1002
{
1000
ZENTRA_MIT_DREHANTRIEB_67_AUSTER
1002
}
1001
AUSTER_ANSICHT
1002
{
1000
SL
1002
}
  0
LINE
  5
CC06
330
20
100
AcDbEntity
  8
11000_Left
  6
Continuous
 62
     7
370
    50
100
AcDbLine
 39
0.7
 10
128.0127860517637
 20
634.9048577111087
 30
0.0
 11
128.0127860517637
 21
638.4048577111087
 31
0.0
1001
AUSTER_FOLIE
1002
{
1000
ZENTRA_MIT_DREHANTRIEB_67_AUSTER
1002
}
1001
AUSTER_ANSICHT
1002
{
1000
SL
1002
}
  0
LINE
  5
CC09
330
20
100
AcDbEntity
  8
11000_Left
  6
Continuous
 62
     7
370
    50
100
AcDbLine
 39
0.7
 10
114.5127860517637
 20
638.4048577111087
 30
0.0
 11
114.5127860517637
 21
634.9048577111087
 31
0.0
1001
AUSTER_FOLIE
1002
{
1000
ZENTRA_MIT_DREHANTRIEB_67_AUSTER
1002
}
1001
AUSTER_ANSICHT
1002
{
1000
SL
1002
}
  0
LINE
  5
CC0B
330
20
100
AcDbEntity
  8
11000_Left
  6
Continuous
 62
     7
370
    50
100
AcDbLine
 39
0.7
 10
114.5127860517637
 20
634.9048577111087
 30
0.0
 11
128.0127860517637
 21
634.9048577111087
 31
0.0
1001
AUSTER_FOLIE
1002
{
1000
ZENTRA_MIT_DREHANTRIEB_67_AUSTER
1002
}
1001
AUSTER_ANSICHT
1002
{
1000
SL
1002
}
  0
LINE
  5
CC0C
330
20
100
AcDbEntity
  8
11000_Left
  6
Continuous
 62
     7
 48
0.5
370
    20
100
AcDbLine
 39
0.7
 10
109.5127860517637
 20
637.1048577111086
 30
0.0
 11
109.5127860517637
 21
638.4105577111085
 31
0.0
1001
AUSTER_FOLIE
1002
{
1000
ZENTRA_MIT_DREHANTRIEB_67_AUSTER
1002
}
1001
AUSTER_ANSICHT
1002
{
1000
SL
1002
}
  0
LINE
  5
CC10
330
20
100
AcDbEntity
  8
11000_Left
  6
Continuous
 62
     7
 48
0.5
370
    20
100
AcDbLine
 39
0.7
 10
114.5145460517636
 20
637.1048577111086
 30
0.0
 11
109.5127860517637
 21
637.1048577111086
 31
0.0
1001
AUSTER_FOLIE
1002
{
1000
ZENTRA_MIT_DREHANTRIEB_67_AUSTER
1002
}
1001
AUSTER_ANSICHT
1002
{
1000
SL
1002
}
  0
LINE
  5
CC11
330
20
100
AcDbEntity
  8
11000_Left
  6
Continuous
 62
     7
370
    50
100
AcDbLine
 39
0.7
 10
101.5127860517637
 20
638.4048577111087
 30
0.0
 11
114.5127860517637
 21
638.4048577111087
 31
0.0
1001
AUSTER_FOLIE
1002
{
1000
ZENTRA_MIT_DREHANTRIEB_67_AUSTER
1002
}
1001
AUSTER_ANSICHT
1002
{
1000
SL
1002
}
  0
LINE
  5
CC12
330
20
100
AcDbEntity
  8
11000_Left
  6
Continuous
 62
     7
370
    50
100
AcDbLine
 39
0.7
 10
101.5127860517637
 20
646.9048577111087
 30
0.0
 11
101.5127860517637
 21
638.4048577111087
 31
0.0
1001
AUSTER_FOLIE
1002
{
1000
ZENTRA_MIT_DREHANTRIEB_67_AUSTER
1002
}
1001
AUSTER_ANSICHT
1002
{
1000
SL
1002
}
  0
LINE
  5
CC13
330
20
100
AcDbEntity
  8
11000_Left
  6
Continuous
 62
     7
370
    50
100
AcDbLine
 39
0.7
 10
96.51278605176372
 20
677.9048577111088
 30
0.0
 11
96.51278605176372
 21
646.9048577111087
 31
0.0
1001
AUSTER_FOLIE
1002
{
1000
ZENTRA_MIT_DREHANTRIEB_67_AUSTER
1002
}
1001
AUSTER_ANSICHT
1002
{
1000
SL
1002
}
  0
LINE
  5
CC14
330
20
100
AcDbEntity
  8
11000_Left
  6
Continuous
 62
     7
370
    50
100
AcDbLine
 39
0.7
 10
128.0127860517637
 20
638.4048577111087
 30
0.0
 11
133.5127860517637
 21
638.4048577111087
 31
0.0
1001
AUSTER_FOLIE
1002
{
1000
ZENTRA_MIT_DREHANTRIEB_67_AUSTER
1002
}
1001
AUSTER_ANSICHT
1002
{
1000
SL
1002
}
  0
LINE
  5
CC15
330
20
100
AcDbEntity
  8
11000_Left
  6
Continuous
 62
     7
370
    20
100
AcDbLine
 10
111.5027860517637
 20
706.4048577111085
 30
0.0
 11
131.5027860517637
 21
706.4048577111085
 31
0.0
1001
AUSTER_FOLIE
1002
{
1000
ZENTRA_MIT_DREHANTRIEB_67_AUSTER
1002
}
1001
AUSTER_ANSICHT
1002
{
1000
SL
1002
}
  0
LINE
  5
CC16
330
20
100
AcDbEntity
  8
11000_Left
  6
Continuous
 62
     7
370
    20
100
AcDbLine
 39
0.7
 10
128.0127860517637
 20
686.4048577111088
 30
0.0
 11
114.4362260517637
 21
686.4048577111089
 31
0.0
1001
AUSTER_FOLIE
1002
{
1000
ZENTRA_MIT_DREHANTRIEB_67_AUSTER
1002
}
1001
AUSTER_ANSICHT
1002
{
1000
SL
1002
}
  0
LINE
  5
CC20
330
20
100
AcDbEntity
  8
11000_Left
  6
Continuous
 62
     7
370
    20
100
AcDbLine
 39
0.7
 10
200.0127860517638
 20
656.4048577111084
 30
0.0
 11
200.0127860517638
 21
662.2488577111088
 31
0.0
1001
AUSTER_FOLIE
1002
{
1000
ZENTRA_2144_BO_M_LB_DREH
1002
}
1001
AUSTER_ANSICHT
1002
{
1000
SL
1002
}
  0
LINE
  5
CC21
330
20
100
AcDbEntity
  8
11000_Left
  6
Continuous
 62
     7
370
    50
100
AcDbLine
 39
0.7
 10
200.0127860517639
 20
668.404857711109
 30
0.0
 11
200.0127860517638
 21
683.5088577111088
 31
0.0
1001
AUSTER_FOLIE
1002
{
1000
ZENTRA_2144_BO_M_LB_DREH
1002
}
1001
AUSTER_ANSICHT
1002
{
1000
SL
1002
}
  0
ARC
  5
CC22
330
20
100
AcDbEntity
  8
11000_Left
  6
Continuous
 62
     7
370
    20
100
AcDbCircle
 39
0.7
 10
191.4146782608174
 20
662.393275783419
 30
0.0
 40
4.907121458962985
100
AcDbArc
 50
0.1352312546017931
 51
10.99118638689263
  0
LINE
  5
CC23
330
20
100
AcDbEntity
  8
11000_Left
  6
Continuous
 62
     7
370
    20
100
AcDbLine
 39
0.7
 10
195.5047860517637
 20
665.0838577111088
 30
0.0
 11
194.9157860517637
 21
665.7998577111087
 31
0.0
1001
AUSTER_FOLIE
1002
{
1000
ZENTRA_2144_BO_M_LB_DREH
1002
}
1001
AUSTER_ANSICHT
1002
{
1000
SL
1002
}
  0
LINE
  5
CC24
330
20
100
AcDbEntity
  8
11000_Left
  6
Continuous
 62
     7
370
    20
100
AcDbLine
 39
0.7
 10
195.9557860517637
 20
664.242857711109
 30
0.0
 11
195.5047860517637
 21
665.0838577111088
 31
0.0
1001
AUSTER_FOLIE
1002
{
1000
ZENTRA_2144_BO_M_LB_DREH
1002
}
1001
AUSTER_ANSICHT
1002
{
1000
SL
1002
}
  0
LINE
  5
CC25
330
20
100
AcDbEntity
  8
11000_Left
  6
Continuous
 62
     7
370
    20
100
AcDbLine
 39
0.7
 10
196.2317860517637
 20
663.3288577111088
 30
0.0
 11
195.9557860517637
 21
664.242857711109
 31
0.0
1001
AUSTER_FOLIE
1002
{
1000
ZENTRA_2144_BO_M_LB_DREH
1002
}
1001
AUSTER_ANSICHT
1002
{
1000
SL
1002
}
  0
LINE
  5
CC26
330
20
100
AcDbEntity
  8
11000_Left
  6
Continuous
 62
     7
370
    20
100
AcDbLine
 39
0.7
 10
196.2317860517637
 20
661.4818577111087
 30
0.0
 11
196.3217860517637
 21
662.4048577111092
 31
0.0
1001
AUSTER_FOLIE
1002
{
1000
ZENTRA_2144_BO_M_LB_DREH
1002
}
1001
AUSTER_ANSICHT
1002
{
1000
SL
1002
}
  0
LINE
  5
CC27
330
20
100
AcDbEntity
  8
11000_Left
  6
Continuous
 62
     7
370
    20
100
AcDbLine
 39
0.7
 10
195.9557860517637
 20
660.5678577111092
 30
0.0
 11
196.2317860517637
 21
661.4818577111087
 31
0.0
1001
AUSTER_FOLIE
1002
{
1000
ZENTRA_2144_BO_M_LB_DREH
1002
}
1001
AUSTER_ANSICHT
1002
{
1000
SL
1002
}
  0
LINE
  5
CC28
330
20
100
AcDbEntity
  8
11000_Left
  6
Continuous
 62
     7
370
    50
100
AcDbLine
 39
0.7
 10
199.1117860517637
 20
692.8728577111085
 30
0.0
 11
199.0647860517637
 21
692.8738577111093
 31
0.0
1001
AUSTER_FOLIE
1002
{
1000
ZENTRA_2144_BO_M_LB_DREH
1002
}
1001
AUSTER_ANSICHT
1002
{
1000
SL
1002
}
  0
LINE
  5
CC29
330
20
100
AcDbEntity
  8
11000_Left
  6
Continuous
 62
     7
370
    50
100
AcDbLine
 39
0.7
 10
199.2097860517636
 20
692.8658577111085
 30
0.0
 11
199.1117860517637
 21
692.8728577111085
 31
0.0
1001
AUSTER_FOLIE
1002
{
1000
ZENTRA_2144_BO_M_LB_DREH
1002
}
1001
AUSTER_ANSICHT
1002
{
1000
SL
1002
}
  0
LINE
  5
CC2A
330
20
100
AcDbEntity
  8
11000_Left
  6
Continuous
 62
     7
370
    50
100
AcDbLine
 39
0.7
 10
199.2897860517637
 20
692.8558577111089
 30
0.0
 11
199.2097860517636
 21
692.8658577111085
 31
0.0
1001
AUSTER_FOLIE
1002
{
1000
ZENTRA_2144_BO_M_LB_DREH
1002
}
1001
AUSTER_ANSICHT
1002
{
1000
SL
1002
}
  0
LINE
  5
CC2B
330
20
100
AcDbEntity
  8
11000_Left
  6
Continuous
 62
     7
370
    50
100
AcDbLine
 39
0.7
 10
199.4337860517637
 20
692.8308577111083
 30
0.0
 11
199.2897860517637
 21
692.8558577111089
 31
0.0
1001
AUSTER_FOLIE
1002
{
1000
ZENTRA_2144_BO_M_LB_DREH
1002
}
1001
AUSTER_ANSICHT
1002
{
1000
SL
1002
}
  0
LINE
  5
CC2C
330
20
100
AcDbEntity
  8
11000_Left
  6
Continuous
 62
     7
370
    50
100
AcDbLine
 39
0.7
 10
199.5457860517637
 20
692.8018577111084
 30
0.0
 11
199.4337860517637
 21
692.8308577111083
 31
0.0
1001
AUSTER_FOLIE
1002
{
1000
ZENTRA_2144_BO_M_LB_DREH
1002
}
1001
AUSTER_ANSICHT
1002
{
1000
SL
1002
}
  0
LINE
  5
CC2D
330
20
100
AcDbEntity
  8
11000_Left
  6
Continuous
 62
     7
370
    50
100
AcDbLine
 39
0.7
 10
199.6427860517637
 20
692.7688577111088
 30
0.0
 11
199.5457860517637
 21
692.8018577111084
 31
0.0
1001
AUSTER_FOLIE
1002
{
1000
ZENTRA_2144_BO_M_LB_DREH
1002
}
1001
AUSTER_ANSICHT
1002
{
1000
SL
1002
}
  0
LINE
  5
CC2E
330
20
100
AcDbEntity
  8
11000_Left
  6
Continuous
 62
     7
370
    50
100
AcDbLine
 39
0.7
 10
199.7197860517637
 20
692.7358577111085
 30
0.0
 11
199.6427860517637
 21
692.7688577111088
 31
0.0
1001
AUSTER_FOLIE
1002
{
1000
ZENTRA_2144_BO_M_LB_DREH
1002
}
1001
AUSTER_ANSICHT
1002
{
1000
SL
1002
}
  0
LINE
  5
CC2F
330
20
100
AcDbEntity
  8
11000_Left
  6
Continuous
 62
     7
370
    50
100
AcDbLine
 39
0.7
 10
199.8467860517637
 20
692.6628577111093
 30
0.0
 11
199.7197860517637
 21
692.7358577111085
 31
0.0
1001
AUSTER_FOLIE
1002
{
1000
ZENTRA_2144_BO_M_LB_DREH
1002
}
1001
AUSTER_ANSICHT
1002
{
1000
SL
1002
}
  0
LINE
  5
CC30
330
20
100
AcDbEntity
  8
11000_Left
  6
Continuous
 62
     7
370
    50
100
AcDbLine
 39
0.7
 10
199.9247860517636
 20
692.5958577111091
 30
0.0
 11
199.8467860517637
 21
692.6628577111093
 31
0.0
1001
AUSTER_FOLIE
1002
{
1000
ZENTRA_2144_BO_M_LB_DREH
1002
}
1001
AUSTER_ANSICHT
1002
{
1000
SL
1002
}
  0
LINE
  5
CC31
330
20
100
AcDbEntity
  8
11000_Left
  6
Continuous
 62
     7
370
    50
100
AcDbLine
 39
0.7
 10
199.9957860517636
 20
692.4898577111088
 30
0.0
 11
199.9247860517636
 21
692.5958577111091
 31
0.0
1001
AUSTER_FOLIE
1002
{
1000
ZENTRA_2144_BO_M_LB_DREH
1002
}
1001
AUSTER_ANSICHT
1002
{
1000
SL
1002
}
  0
LINE
  5
CC32
330
20
100
AcDbEntity
  8
11000_Left
  6
Continuous
 62
     7
370
    50
100
AcDbLine
 39
0.7
 10
200.0117860517637
 20
692.4258577111085
 30
0.0
 11
199.9957860517636
 21
692.4898577111088
 31
0.0
1001
AUSTER_FOLIE
1002
{
1000
ZENTRA_2144_BO_M_LB_DREH
1002
}
1001
AUSTER_ANSICHT
1002
{
1000
SL
1002
}
  0
LINE
  5
CC33
330
20
100
AcDbEntity
  8
11000_Left
  6
Continuous
 62
     7
370
    50
100
AcDbLine
 39
0.7
 10
200.0127860517638
 20
692.4058577111085
 30
0.0
 11
200.0117860517637
 21
692.4258577111085
 31
0.0
1001
AUSTER_FOLIE
1002
{
1000
ZENTRA_2144_BO_M_LB_DREH
1002
}
1001
AUSTER_ANSICHT
1002
{
1000
SL
1002
}
  0
LINE
  5
CC34
330
20
100
AcDbEntity
  8
11000_Left
  6
Continuous
 62
     7
370
    20
100
AcDbLine
 39
0.7
 10
199.1117860517637
 20
687.9788577111085
 30
0.0
 11
199.2097860517636
 21
687.9438577111085
 31
0.0
1001
AUSTER_FOLIE
1002
{
1000
ZENTRA_2144_BO_M_LB_DREH
1002
}
1001
AUSTER_ANSICHT
1002
{
1000
SL
1002
}
  0
LINE
  5
CC35
330
20
100
AcDbEntity
  8
11000_Left
  6
Continuous
 62
     7
370
    20
100
AcDbLine
 39
0.7
 10
199.0647860517637
 20
687.9878577111091
 30
0.0
 11
199.1117860517637
 21
687.9788577111085
 31
0.0
1001
AUSTER_FOLIE
1002
{
1000
ZENTRA_2144_BO_M_LB_DREH
1002
}
1001
AUSTER_ANSICHT
1002
{
1000
SL
1002
}
  0
LINE
  5
CC36
330
20
100
AcDbEntity
  8
11000_Left
  6
Continuous
 62
     7
370
    20
100
AcDbLine
 39
0.7
 10
199.4337860517637
 20
687.7658577111085
 30
0.0
 11
199.5457860517637
 21
687.6138577111085
 31
0.0
1001
AUSTER_FOLIE
1002
{
1000
ZENTRA_2144_BO_M_LB_DREH
1002
}
1001
AUSTER_ANSICHT
1002
{
1000
SL
1002
}
  0
LINE
  5
CC37
330
20
100
AcDbEntity
  8
11000_Left
  6
Continuous
 62
     7
370
    20
100
AcDbLine
 39
0.7
 10
199.2897860517637
 20
687.8968577111085
 30
0.0
 11
199.4337860517637
 21
687.7658577111085
 31
0.0
1001
AUSTER_FOLIE
1002
{
1000
ZENTRA_2144_BO_M_LB_DREH
1002
}
1001
AUSTER_ANSICHT
1002
{
1000
SL
1002
}
  0
LINE
  5
CC38
330
20
100
AcDbEntity
  8
11000_Left
  6
Continuous
 62
     7
370
    20
100
AcDbLine
 39
0.7
 10
199.2097860517636
 20
687.9438577111085
 30
0.0
 11
199.2897860517637
 21
687.8968577111085
 31
0.0
1001
AUSTER_FOLIE
1002
{
1000
ZENTRA_2144_BO_M_LB_DREH
1002
}
1001
AUSTER_ANSICHT
1002
{
1000
SL
1002
}
  0
LINE
  5
CC39
330
20
100
AcDbEntity
  8
11000_Left
  6
Continuous
 62
     7
370
    50
100
AcDbLine
 39
0.7
 10
200.0117860517637
 20
682.7918577111088
 30
0.0
 11
199.9957860517636
 21
681.9618577111092
 31
0.0
1001
AUSTER_FOLIE
1002
{
1000
ZENTRA_2144_BO_M_LB_DREH
1002
}
1001
AUSTER_ANSICHT
1002
{
1000
SL
1002
}
  0
LINE
  5
CC3A
330
20
100
AcDbEntity
  8
11000_Left
  6
Continuous
 62
     7
370
    50
100
AcDbLine
 39
0.7
 10
200.0127860517638
 20
683.5088577111088
 30
0.0
 11
200.0117860517637
 21
682.7918577111088
 31
0.0
1001
AUSTER_FOLIE
1002
{
1000
ZENTRA_2144_BO_M_LB_DREH
1002
}
1001
AUSTER_ANSICHT
1002
{
1000
SL
1002
}
  0
LINE
  5
CC3B
330
20
100
AcDbEntity
  8
11000_Left
  6
Continuous
 62
     7
370
    20
100
AcDbLine
 39
0.7
 10
199.9247860517636
 20
686.3348577111087
 30
0.0
 11
199.9957860517636
 21
685.3938577111091
 31
0.0
1001
AUSTER_FOLIE
1002
{
1000
ZENTRA_2144_BO_M_LB_DREH
1002
}
1001
AUSTER_ANSICHT
1002
{
1000
SL
1002
}
  0
LINE
  5
CC3C
330
20
100
AcDbEntity
  8
11000_Left
  6
Continuous
 62
     7
370
    20
100
AcDbLine
 39
0.7
 10
199.8467860517637
 20
686.7968577111086
 30
0.0
 11
199.9247860517636
 21
686.3348577111087
 31
0.0
1001
AUSTER_FOLIE
1002
{
1000
ZENTRA_2144_BO_M_LB_DREH
1002
}
1001
AUSTER_ANSICHT
1002
{
1000
SL
1002
}
  0
LINE
  5
CC3D
330
20
100
AcDbEntity
  8
11000_Left
  6
Continuous
 62
     7
370
    20
100
AcDbLine
 39
0.7
 10
199.7197860517637
 20
687.2448577111087
 30
0.0
 11
199.8467860517637
 21
686.7968577111086
 31
0.0
1001
AUSTER_FOLIE
1002
{
1000
ZENTRA_2144_BO_M_LB_DREH
1002
}
1001
AUSTER_ANSICHT
1002
{
1000
SL
1002
}
  0
LINE
  5
CC3E
330
20
100
AcDbEntity
  8
11000_Left
  6
Continuous
 62
     7
370
    20
100
AcDbLine
 39
0.7
 10
199.6427860517637
 20
687.4318577111087
 30
0.0
 11
199.7197860517637
 21
687.2448577111087
 31
0.0
1001
AUSTER_FOLIE
1002
{
1000
ZENTRA_2144_BO_M_LB_DREH
1002
}
1001
AUSTER_ANSICHT
1002
{
1000
SL
1002
}
  0
LINE
  5
CC3F
330
20
100
AcDbEntity
  8
11000_Left
  6
Continuous
 62
     7
370
    20
100
AcDbLine
 39
0.7
 10
199.5457860517637
 20
687.6138577111085
 30
0.0
 11
199.6427860517637
 21
687.4318577111087
 31
0.0
1001
AUSTER_FOLIE
1002
{
1000
ZENTRA_2144_BO_M_LB_DREH
1002
}
1001
AUSTER_ANSICHT
1002
{
1000
SL
1002
}
  0
LINE
  5
CC40
330
20
100
AcDbEntity
  8
11000_Left
  6
Continuous
 62
     7
370
    50
100
AcDbLine
 39
0.7
 10
200.0127860517638
 20
683.5088577111088
 30
0.0
 11
200.0127860517638
 21
683.7288577111086
 31
0.0
1001
AUSTER_FOLIE
1002
{
1000
ZENTRA_2144_BO_M_LB_DREH
1002
}
1001
AUSTER_ANSICHT
1002
{
1000
SL
1002
}
  0
LINE
  5
CC41
330
20
100
AcDbEntity
  8
11000_Left
  6
Continuous
 62
     7
370
    20
100
AcDbLine
 39
0.7
 10
199.1117860517637
 20
679.9188577111092
 30
0.0
 11
199.0647860517637
 21
679.9128577111091
 31
0.0
1001
AUSTER_FOLIE
1002
{
1000
ZENTRA_2144_BO_M_LB_DREH
1002
}
1001
AUSTER_ANSICHT
1002
{
1000
SL
1002
}
  0
LINE
  5
CC42
330
20
100
AcDbEntity
  8
11000_Left
  6
Continuous
 62
     7
370
    20
100
AcDbLine
 39
0.7
 10
199.2097860517636
 20
679.9438577111088
 30
0.0
 11
199.1117860517637
 21
679.9188577111092
 31
0.0
1001
AUSTER_FOLIE
1002
{
1000
ZENTRA_2144_BO_M_LB_DREH
1002
}
1001
AUSTER_ANSICHT
1002
{
1000
SL
1002
}
  0
LINE
  5
CC43
330
20
100
AcDbEntity
  8
11000_Left
  6
Continuous
 62
     7
370
    20
100
AcDbLine
 39
0.7
 10
199.2897860517637
 20
679.9778577111092
 30
0.0
 11
199.2097860517636
 21
679.9438577111088
 31
0.0
1001
AUSTER_FOLIE
1002
{
1000
ZENTRA_2144_BO_M_LB_DREH
1002
}
1001
AUSTER_ANSICHT
1002
{
1000
SL
1002
}
  0
LINE
  5
CC44
330
20
100
AcDbEntity
  8
11000_Left
  6
Continuous
 62
     7
370
    20
100
AcDbLine
 39
0.7
 10
199.4337860517637
 20
680.0728577111088
 30
0.0
 11
199.2897860517637
 21
679.9778577111092
 31
0.0
1001
AUSTER_FOLIE
1002
{
1000
ZENTRA_2144_BO_M_LB_DREH
1002
}
1001
AUSTER_ANSICHT
1002
{
1000
SL
1002
}
  0
LINE
  5
CC45
330
20
100
AcDbEntity
  8
11000_Left
  6
Continuous
 62
     7
370
    20
100
AcDbLine
 39
0.7
 10
199.5457860517637
 20
680.1838577111092
 30
0.0
 11
199.4337860517637
 21
680.0728577111088
 31
0.0
1001
AUSTER_FOLIE
1002
{
1000
ZENTRA_2144_BO_M_LB_DREH
1002
}
1001
AUSTER_ANSICHT
1002
{
1000
SL
1002
}
  0
LINE
  5
CC46
330
20
100
AcDbEntity
  8
11000_Left
  6
Continuous
 62
     7
370
    20
100
AcDbLine
 39
0.7
 10
199.6427860517637
 20
680.3188577111087
 30
0.0
 11
199.5457860517637
 21
680.1838577111092
 31
0.0
1001
AUSTER_FOLIE
1002
{
1000
ZENTRA_2144_BO_M_LB_DREH
1002
}
1001
AUSTER_ANSICHT
1002
{
1000
SL
1002
}
  0
LINE
  5
CC47
330
20
100
AcDbEntity
  8
11000_Left
  6
Continuous
 62
     7
370
    20
100
AcDbLine
 39
0.7
 10
199.7197860517637
 20
680.4598577111087
 30
0.0
 11
199.6427860517637
 21
680.3188577111087
 31
0.0
1001
AUSTER_FOLIE
1002
{
1000
ZENTRA_2144_BO_M_LB_DREH
1002
}
1001
AUSTER_ANSICHT
1002
{
1000
SL
1002
}
  0
LINE
  5
CC48
330
20
100
AcDbEntity
  8
11000_Left
  6
Continuous
 62
     7
370
    20
100
AcDbLine
 39
0.7
 10
199.8467860517637
 20
680.803857711109
 30
0.0
 11
199.7197860517637
 21
680.4598577111087
 31
0.0
1001
AUSTER_FOLIE
1002
{
1000
ZENTRA_2144_BO_M_LB_DREH
1002
}
1001
AUSTER_ANSICHT
1002
{
1000
SL
1002
}
  0
LINE
  5
CC49
330
20
100
AcDbEntity
  8
11000_Left
  6
Continuous
 62
     7
370
    20
100
AcDbLine
 39
0.7
 10
199.9247860517636
 20
681.1728577111091
 30
0.0
 11
199.8467860517637
 21
680.803857711109
 31
0.0
1001
AUSTER_FOLIE
1002
{
1000
ZENTRA_2144_BO_M_LB_DREH
1002
}
1001
AUSTER_ANSICHT
1002
{
1000
SL
1002
}
  0
LINE
  5
CC4A
330
20
100
AcDbEntity
  8
11000_Left
  6
Continuous
 62
     7
370
    20
100
AcDbLine
 39
0.7
 10
199.9957860517636
 20
681.9618577111092
 30
0.0
 11
199.9247860517636
 21
681.1728577111091
 31
0.0
1001
AUSTER_FOLIE
1002
{
1000
ZENTRA_2144_BO_M_LB_DREH
1002
}
1001
AUSTER_ANSICHT
1002
{
1000
SL
1002
}
  0
LINE
  5
CC4B
330
20
100
AcDbEntity
  8
11000_Left
  6
Continuous
 62
     7
370
    50
100
AcDbLine
 39
0.7
 10
200.0127860517638
 20
683.7288577111086
 30
0.0
 11
200.0127860517638
 21
692.4058577111085
 31
0.0
1001
AUSTER_FOLIE
1002
{
1000
ZENTRA_2144_BO_M_LB_DREH
1002
}
1001
AUSTER_ANSICHT
1002
{
1000
SL
1002
}
  0
LINE
  5
CC4C
330
20
100
AcDbEntity
  8
11000_Left
  6
Continuous
 62
     7
370
    50
100
AcDbLine
 39
0.7
 10
189.5127860517637
 20
692.4048577111094
 30
0.0
 11
181.5127860517637
 21
692.4048577111094
 31
0.0
1001
AUSTER_FOLIE
1002
{
1000
ZENTRA_2144_BO_M_LB_DREH
1002
}
1001
AUSTER_ANSICHT
1002
{
1000
SL
1002
}
  0
LINE
  5
CC4D
330
20
100
AcDbEntity
  8
11000_Left
  6
Continuous
 62
     7
370
    20
100
AcDbLine
 39
0.7
 10
189.5127860517637
 20
693.1148577111092
 30
0.0
 11
189.5147860517637
 21
693.1148577111092
 31
0.0
1001
AUSTER_FOLIE
1002
{
1000
ZENTRA_2144_BO_M_LB_DREH
1002
}
1001
AUSTER_ANSICHT
1002
{
1000
SL
1002
}
  0
LINE
  5
CC4E
330
20
100
AcDbEntity
  8
11000_Left
  6
Continuous
 62
     7
370
    20
100
AcDbLine
 39
0.7
 10
189.5127860517637
 20
692.4048577111094
 30
0.0
 11
189.5127860517637
 21
683.6188577111085
 31
0.0
1001
AUSTER_FOLIE
1002
{
1000
ZENTRA_2144_BO_M_LB_DREH
1002
}
1001
AUSTER_ANSICHT
1002
{
1000
SL
1002
}
  0
LINE
  5
CC4F
330
20
100
AcDbEntity
  8
11000_Left
  6
Continuous
 62
     7
370
    20
100
AcDbLine
 39
0.7
 10
189.5127860517637
 20
683.6188577111085
 30
0.0
 11
189.5127860517637
 21
679.1618577111086
 31
0.0
1001
AUSTER_FOLIE
1002
{
1000
ZENTRA_2144_BO_M_LB_DREH
1002
}
1001
AUSTER_ANSICHT
1002
{
1000
SL
1002
}
  0
LINE
  5
CC50
330
20
100
AcDbEntity
  8
11000_Left
  6
Continuous
 62
     7
370
    20
100
AcDbLine
 39
0.7
 10
189.5127860517637
 20
689.078857711109
 30
0.0
 11
194.2957860517637
 21
688.5548577111085
 31
0.0
1001
AUSTER_FOLIE
1002
{
1000
ZENTRA_2144_BO_M_LB_DREH
1002
}
1001
AUSTER_ANSICHT
1002
{
1000
SL
1002
}
  0
LINE
  5
CC51
330
20
100
AcDbEntity
  8
11000_Left
  6
Continuous
 62
     7
370
    20
100
AcDbLine
 39
0.7
 10
194.2957860517637
 20
679.5148577111092
 30
0.0
 11
189.5127860517637
 21
679.1618577111086
 31
0.0
1001
AUSTER_FOLIE
1002
{
1000
ZENTRA_2144_BO_M_LB_DREH
1002
}
1001
AUSTER_ANSICHT
1002
{
1000
SL
1002
}
  0
LINE
  5
CC52
330
20
100
AcDbEntity
  8
11000_Left
  6
Continuous
 62
     7
370
    50
100
AcDbLine
 39
0.7
 10
189.5127860517637
 20
693.1148577111092
 30
0.0
 11
189.5127860517637
 21
692.4048577111094
 31
0.0
1001
AUSTER_FOLIE
1002
{
1000
ZENTRA_2144_BO_M_LB_DREH
1002
}
1001
AUSTER_ANSICHT
1002
{
1000
SL
1002
}
  0
LINE
  5
CC53
330
20
100
AcDbEntity
  8
11000_Left
  6
Continuous
 62
     7
370
    20
100
AcDbLine
 39
0.7
 10
194.2957860517637
 20
688.5548577111085
 30
0.0
 11
199.0647860517637
 21
687.9878577111091
 31
0.0
1001
AUSTER_FOLIE
1002
{
1000
ZENTRA_2144_BO_M_LB_DREH
1002
}
1001
AUSTER_ANSICHT
1002
{
1000
SL
1002
}
  0
LINE
  5
CC54
330
20
100
AcDbEntity
  8
11000_Left
  6
Continuous
 62
     7
370
    50
100
AcDbLine
 39
0.7
 10
199.0647860517637
 20
692.8738577111093
 30
0.0
 11
189.5127860517637
 21
693.1148577111092
 31
0.0
1001
AUSTER_FOLIE
1002
{
1000
ZENTRA_2144_BO_M_LB_DREH
1002
}
1001
AUSTER_ANSICHT
1002
{
1000
SL
1002
}
  0
LINE
  5
CC55
330
20
100
AcDbEntity
  8
11000_Left
  6
Continuous
 62
     7
370
    20
100
AcDbLine
 39
0.7
 10
199.0647860517637
 20
679.9128577111091
 30
0.0
 11
194.2957860517637
 21
679.5148577111092
 31
0.0
1001
AUSTER_FOLIE
1002
{
1000
ZENTRA_2144_BO_M_LB_DREH
1002
}
1001
AUSTER_ANSICHT
1002
{
1000
SL
1002
}
  0
LINE
  5
CC56
330
20
100
AcDbEntity
  8
11000_Left
  6
Continuous
 62
     7
370
    50
100
AcDbLine
 39
0.7
 10
179.5127860517637
 20
695.6048577111086
 30
0.0
 11
172.5127860517637
 21
695.6048577111086
 31
0.0
1001
AUSTER_FOLIE
1002
{
1000
ZENTRA_2144_BO_M_LB_DREH
1002
}
1001
AUSTER_ANSICHT
1002
{
1000
SL
1002
}
  0
ARC
  5
CC57
330
20
100
AcDbEntity
  8
11000_Left
  6
Continuous
 62
     7
370
    50
100
AcDbCircle
 39
0.7
 10
181.5127860517637
 20
694.4058577111085
 30
0.0
 40
2.0
100
AcDbArc
 50
183.8209999999991
 51
269.9990000000003
1001
AUSTER_FOLIE
1002
{
1000
ZENTRA_2144_BO_M_LB_DREH
1002
}
1001
AUSTER_ANSICHT
1002
{
1000
SL
1002
}
  0
LINE
  5
CC58
330
20
100
AcDbEntity
  8
11000_Left
  6
Continuous
 62
     7
370
    50
100
AcDbLine
 39
0.7
 10
179.5172318305258
 20
694.2725784925499
 30
0.0
 11
179.5127860517637
 21
695.6048577111086
 31
0.0
1001
AUSTER_FOLIE
1002
{
1000
ZENTRA_2144_BO_M_LB_DREH
1002
}
1001
AUSTER_ANSICHT
1002
{
1000
SL
1002
}
  0
LINE
  5
CC59
330
20
100
AcDbEntity
  8
11000_Left
  6
Continuous
 62
     7
370
    20
100
AcDbLine
 39
0.7
 10
199.2097860517636
 20
668.0628577111088
 30
0.0
 11
199.2897860517637
 21
668.005857711109
 31
0.0
1001
AUSTER_FOLIE
1002
{
1000
ZENTRA_2144_BO_M_LB_DREH
1002
}
1001
AUSTER_ANSICHT
1002
{
1000
SL
1002
}
  0
LINE
  5
CC5A
330
20
100
AcDbEntity
  8
11000_Left
  6
Continuous
 62
     7
370
    20
100
AcDbLine
 39
0.7
 10
199.1117860517637
 20
668.1048577111084
 30
0.0
 11
199.2097860517636
 21
668.0628577111088
 31
0.0
1001
AUSTER_FOLIE
1002
{
1000
ZENTRA_2144_BO_M_LB_DREH
1002
}
1001
AUSTER_ANSICHT
1002
{
1000
SL
1002
}
  0
LINE
  5
CC5B
330
20
100
AcDbEntity
  8
11000_Left
  6
Continuous
 62
     7
370
    20
100
AcDbLine
 39
0.7
 10
199.0647860517637
 20
668.1158577111087
 30
0.0
 11
199.1117860517637
 21
668.1048577111084
 31
0.0
1001
AUSTER_FOLIE
1002
{
1000
ZENTRA_2144_BO_M_LB_DREH
1002
}
1001
AUSTER_ANSICHT
1002
{
1000
SL
1002
}
  0
LINE
  5
CC5C
330
20
100
AcDbEntity
  8
11000_Left
  6
Continuous
 62
     7
370
    50
100
AcDbLine
 39
0.7
 10
200.0127860517638
 20
668.404857711109
 30
0.0
 11
202.7127860517637
 21
668.404857711109
 31
0.0
1001
AUSTER_FOLIE
1002
{
1000
ZENTRA_2144_BO_M_LB_DREH
1002
}
1001
AUSTER_ANSICHT
1002
{
1000
SL
1002
}
  0
LINE
  5
CC5D
330
20
100
AcDbEntity
  8
11000_Left
  6
Continuous
 62
     7
370
    20
100
AcDbLine
 39
0.7
 10
199.9247860517636
 20
666.0548577111087
 30
0.0
 11
199.9957860517636
 21
664.8318577111086
 31
0.0
1001
AUSTER_FOLIE
1002
{
1000
ZENTRA_2144_BO_M_LB_DREH
1002
}
1001
AUSTER_ANSICHT
1002
{
1000
SL
1002
}
  0
LINE
  5
CC5E
330
20
100
AcDbEntity
  8
11000_Left
  6
Continuous
 62
     7
370
    20
100
AcDbLine
 39
0.7
 10
199.8467860517637
 20
666.6428577111088
 30
0.0
 11
199.9247860517636
 21
666.0548577111087
 31
0.0
1001
AUSTER_FOLIE
1002
{
1000
ZENTRA_2144_BO_M_LB_DREH
1002
}
1001
AUSTER_ANSICHT
1002
{
1000
SL
1002
}
  0
LINE
  5
CC5F
330
20
100
AcDbEntity
  8
11000_Left
  6
Continuous
 62
     7
370
    20
100
AcDbLine
 39
0.7
 10
199.7197860517637
 20
667.203857711109
 30
0.0
 11
199.8467860517637
 21
666.6428577111088
 31
0.0
1001
AUSTER_FOLIE
1002
{
1000
ZENTRA_2144_BO_M_LB_DREH
1002
}
1001
AUSTER_ANSICHT
1002
{
1000
SL
1002
}
  0
LINE
  5
CC60
330
20
100
AcDbEntity
  8
11000_Left
  6
Continuous
 62
     7
370
    20
100
AcDbLine
 39
0.7
 10
199.6427860517637
 20
667.4348577111087
 30
0.0
 11
199.7197860517637
 21
667.203857711109
 31
0.0
1001
AUSTER_FOLIE
1002
{
1000
ZENTRA_2144_BO_M_LB_DREH
1002
}
1001
AUSTER_ANSICHT
1002
{
1000
SL
1002
}
  0
LINE
  5
CC61
330
20
100
AcDbEntity
  8
11000_Left
  6
Continuous
 62
     7
370
    20
100
AcDbLine
 39
0.7
 10
199.5457860517637
 20
667.6588577111086
 30
0.0
 11
199.6427860517637
 21
667.4348577111087
 31
0.0
1001
AUSTER_FOLIE
1002
{
1000
ZENTRA_2144_BO_M_LB_DREH
1002
}
1001
AUSTER_ANSICHT
1002
{
1000
SL
1002
}
  0
LINE
  5
CC62
330
20
100
AcDbEntity
  8
11000_Left
  6
Continuous
 62
     7
370
    20
100
AcDbLine
 39
0.7
 10
199.4337860517637
 20
667.8448577111086
 30
0.0
 11
199.5457860517637
 21
667.6588577111086
 31
0.0
1001
AUSTER_FOLIE
1002
{
1000
ZENTRA_2144_BO_M_LB_DREH
1002
}
1001
AUSTER_ANSICHT
1002
{
1000
SL
1002
}
  0
LINE
  5
CC63
330
20
100
AcDbEntity
  8
11000_Left
  6
Continuous
 62
     7
370
    20
100
AcDbLine
 39
0.7
 10
199.2897860517637
 20
668.005857711109
 30
0.0
 11
199.4337860517637
 21
667.8448577111086
 31
0.0
1001
AUSTER_FOLIE
1002
{
1000
ZENTRA_2144_BO_M_LB_DREH
1002
}
1001
AUSTER_ANSICHT
1002
{
1000
SL
1002
}
  0
LINE
  5
CC64
330
20
100
AcDbEntity
  8
11000_Left
  6
Continuous
 62
     7
370
    50
100
AcDbLine
 39
0.7
 10
208.7127860517637
 20
668.404857711109
 30
0.0
 11
202.7127860517637
 21
668.404857711109
 31
0.0
1001
AUSTER_FOLIE
1002
{
1000
ZENTRA_2144_BO_M_LB_DREH
1002
}
1001
AUSTER_ANSICHT
1002
{
1000
SL
1002
}
  0
LINE
  5
CC65
330
20
100
AcDbEntity
  8
11000_Left
  6
Continuous
 62
     7
370
    20
100
AcDbLine
 39
0.7
 10
192.4457860517637
 20
667.1158577111092
 30
0.0
 11
192.2127860517637
 21
667.1548577111088
 31
0.0
1001
AUSTER_FOLIE
1002
{
1000
ZENTRA_2144_BO_M_LB_DREH
1002
}
1001
AUSTER_ANSICHT
1002
{
1000
SL
1002
}
  0
LINE
  5
CC66
330
20
100
AcDbEntity
  8
11000_Left
  6
Continuous
 62
     7
370
    20
100
AcDbLine
 39
0.7
 10
193.3597860517635
 20
666.8398577111084
 30
0.0
 11
192.4457860517637
 21
667.1158577111092
 31
0.0
1001
AUSTER_FOLIE
1002
{
1000
ZENTRA_2144_BO_M_LB_DREH
1002
}
1001
AUSTER_ANSICHT
1002
{
1000
SL
1002
}
  0
LINE
  5
CC67
330
20
100
AcDbEntity
  8
11000_Left
  6
Continuous
 62
     7
370
    20
100
AcDbLine
 39
0.7
 10
194.2007860517637
 20
666.3878577111088
 30
0.0
 11
193.3597860517635
 21
666.8398577111084
 31
0.0
1001
AUSTER_FOLIE
1002
{
1000
ZENTRA_2144_BO_M_LB_DREH
1002
}
1001
AUSTER_ANSICHT
1002
{
1000
SL
1002
}
  0
LINE
  5
CC68
330
20
100
AcDbEntity
  8
11000_Left
  6
Continuous
 62
     7
370
    20
100
AcDbLine
 39
0.7
 10
194.9157860517637
 20
665.7998577111087
 30
0.0
 11
194.2007860517637
 21
666.3878577111088
 31
0.0
1001
AUSTER_FOLIE
1002
{
1000
ZENTRA_2144_BO_M_LB_DREH
1002
}
1001
AUSTER_ANSICHT
1002
{
1000
SL
1002
}
  0
LINE
  5
CC69
330
20
100
AcDbEntity
  8
11000_Left
  6
Continuous
 62
     7
370
    20
100
AcDbLine
 39
0.7
 10
189.5127860517637
 20
668.404857711109
 30
0.0
 11
189.5157860517637
 21
668.404857711109
 31
0.0
1001
AUSTER_FOLIE
1002
{
1000
ZENTRA_2144_BO_M_LB_DREH
1002
}
1001
AUSTER_ANSICHT
1002
{
1000
SL
1002
}
  0
LINE
  5
CC6A
330
20
100
AcDbEntity
  8
11000_Left
  6
Continuous
 62
     7
370
    20
100
AcDbLine
 39
0.7
 10
184.2127860517637
 20
667.1548577111088
 30
0.0
 11
189.5127860517637
 21
667.1548577111088
 31
0.0
1001
AUSTER_FOLIE
1002
{
1000
ZENTRA_2144_BO_M_LB_DREH
1002
}
1001
AUSTER_ANSICHT
1002
{
1000
SL
1002
}
  0
LINE
  5
CC6B
330
20
100
AcDbEntity
  8
11000_Left
  6
Continuous
 62
     7
370
    20
100
AcDbLine
 39
0.7
 10
189.5127860517637
 20
669.4178577111091
 30
0.0
 11
189.5127860517637
 21
667.1548577111088
 31
0.0
1001
AUSTER_FOLIE
1002
{
1000
ZENTRA_2144_BO_M_LB_DREH
1002
}
1001
AUSTER_ANSICHT
1002
{
1000
SL
1002
}
  0
LINE
  5
CC6C
330
20
100
AcDbEntity
  8
11000_Left
  6
Continuous
 62
     7
370
    20
100
AcDbLine
 39
0.7
 10
192.2127860517637
 20
667.1548577111088
 30
0.0
 11
189.5127860517637
 21
667.1548577111088
 31
0.0
1001
AUSTER_FOLIE
1002
{
1000
ZENTRA_2144_BO_M_LB_DREH
1002
}
1001
AUSTER_ANSICHT
1002
{
1000
SL
1002
}
  0
LINE
  5
CC6D
330
20
100
AcDbEntity
  8
11000_Left
  6
Continuous
 62
     7
370
    20
100
AcDbLine
 39
0.7
 10
189.5127860517637
 20
669.4178577111091
 30
0.0
 11
194.2947860517637
 21
668.7968577111084
 31
0.0
1001
AUSTER_FOLIE
1002
{
1000
ZENTRA_2144_BO_M_LB_DREH
1002
}
1001
AUSTER_ANSICHT
1002
{
1000
SL
1002
}
  0
LINE
  5
CC6E
330
20
100
AcDbEntity
  8
11000_Left
  6
Continuous
 62
     7
370
    20
100
AcDbLine
 39
0.7
 10
194.2947860517637
 20
668.7968577111084
 30
0.0
 11
199.0647860517637
 21
668.1158577111087
 31
0.0
1001
AUSTER_FOLIE
1002
{
1000
ZENTRA_2144_BO_M_LB_DREH
1002
}
1001
AUSTER_ANSICHT
1002
{
1000
SL
1002
}
  0
LINE
  5
CC6F
330
20
100
AcDbEntity
  8
11000_Left
  6
Continuous
 62
     7
370
    20
100
AcDbLine
 39
0.7
 10
189.5127860517637
 20
679.1618577111086
 30
0.0
 11
189.5127860517637
 21
669.4178577111091
 31
0.0
1001
AUSTER_FOLIE
1002
{
1000
ZENTRA_2144_BO_M_LB_DREH
1002
}
1001
AUSTER_ANSICHT
1002
{
1000
SL
1002
}
  0
LINE
  5
CC70
330
20
100
AcDbEntity
  8
11000_Left
  6
Continuous
 62
     7
370
    20
100
AcDbLine
 39
0.7
 10
200.0127860517639
 20
662.2048577111087
 30
0.0
 11
200.0127860517639
 21
668.404857711109
 31
0.0
1001
AUSTER_FOLIE
1002
{
1000
ZENTRA_2144_BO_M_LB_DREH
1002
}
1001
AUSTER_ANSICHT
1002
{
1000
SL
1002
}
  0
LINE
  5
CC71
330
20
100
AcDbEntity
  8
11000_Left
  6
Continuous
 62
     7
370
    20
100
AcDbLine
 39
0.7
 10
199.1117860517637
 20
656.7058577111086
 30
0.0
 11
199.0647860517637
 21
656.6948577111086
 31
0.0
1001
AUSTER_FOLIE
1002
{
1000
ZENTRA_2144_BO_M_LB_DREH
1002
}
1001
AUSTER_ANSICHT
1002
{
1000
SL
1002
}
  0
LINE
  5
CC72
330
20
100
AcDbEntity
  8
11000_Left
  6
Continuous
 62
     7
370
    20
100
AcDbLine
 39
0.7
 10
199.2097860517636
 20
656.7478577111087
 30
0.0
 11
199.1117860517637
 21
656.7058577111086
 31
0.0
1001
AUSTER_FOLIE
1002
{
1000
ZENTRA_2144_BO_M_LB_DREH
1002
}
1001
AUSTER_ANSICHT
1002
{
1000
SL
1002
}
  0
LINE
  5
CC73
330
20
100
AcDbEntity
  8
11000_Left
  6
Continuous
 62
     7
370
    20
100
AcDbLine
 39
0.7
 10
199.2897860517637
 20
656.8048577111087
 30
0.0
 11
199.2097860517636
 21
656.7478577111087
 31
0.0
1001
AUSTER_FOLIE
1002
{
1000
ZENTRA_2144_BO_M_LB_DREH
1002
}
1001
AUSTER_ANSICHT
1002
{
1000
SL
1002
}
  0
LINE
  5
CC74
330
20
100
AcDbEntity
  8
11000_Left
  6
Continuous
 62
     7
370
    20
100
AcDbLine
 39
0.7
 10
199.4337860517637
 20
656.9658577111091
 30
0.0
 11
199.2897860517637
 21
656.8048577111087
 31
0.0
1001
AUSTER_FOLIE
1002
{
1000
ZENTRA_2144_BO_M_LB_DREH
1002
}
1001
AUSTER_ANSICHT
1002
{
1000
SL
1002
}
  0
LINE
  5
CC75
330
20
100
AcDbEntity
  8
11000_Left
  6
Continuous
 62
     7
370
    20
100
AcDbLine
 39
0.7
 10
199.5457860517637
 20
657.1518577111087
 30
0.0
 11
199.4337860517637
 21
656.9658577111091
 31
0.0
1001
AUSTER_FOLIE
1002
{
1000
ZENTRA_2144_BO_M_LB_DREH
1002
}
1001
AUSTER_ANSICHT
1002
{
1000
SL
1002
}
  0
LINE
  5
CC76
330
20
100
AcDbEntity
  8
11000_Left
  6
Continuous
 62
     7
370
    20
100
AcDbLine
 39
0.7
 10
199.6427860517637
 20
657.3758577111087
 30
0.0
 11
199.5457860517637
 21
657.1518577111087
 31
0.0
1001
AUSTER_FOLIE
1002
{
1000
ZENTRA_2144_BO_M_LB_DREH
1002
}
1001
AUSTER_ANSICHT
1002
{
1000
SL
1002
}
  0
LINE
  5
CC77
330
20
100
AcDbEntity
  8
11000_Left
  6
Continuous
 62
     7
370
    20
100
AcDbLine
 39
0.7
 10
199.7197860517637
 20
657.6068577111084
 30
0.0
 11
199.6427860517637
 21
657.3758577111087
 31
0.0
1001
AUSTER_FOLIE
1002
{
1000
ZENTRA_2144_BO_M_LB_DREH
1002
}
1001
AUSTER_ANSICHT
1002
{
1000
SL
1002
}
  0
LINE
  5
CC78
330
20
100
AcDbEntity
  8
11000_Left
  6
Continuous
 62
     7
370
    20
100
AcDbLine
 39
0.7
 10
199.8467860517637
 20
658.1678577111091
 30
0.0
 11
199.7197860517637
 21
657.6068577111084
 31
0.0
1001
AUSTER_FOLIE
1002
{
1000
ZENTRA_2144_BO_M_LB_DREH
1002
}
1001
AUSTER_ANSICHT
1002
{
1000
SL
1002
}
  0
LINE
  5
CC79
330
20
100
AcDbEntity
  8
11000_Left
  6
Continuous
 62
     7
370
    20
100
AcDbLine
 39
0.7
 10
199.9247860517636
 20
658.7558577111088
 30
0.0
 11
199.8467860517637
 21
658.1678577111091
 31
0.0
1001
AUSTER_FOLIE
1002
{
1000
ZENTRA_2144_BO_M_LB_DREH
1002
}
1001
AUSTER_ANSICHT
1002
{
1000
SL
1002
}
  0
LINE
  5
CC7A
330
20
100
AcDbEntity
  8
11000_Left
  6
Continuous
 62
     7
370
    50
100
AcDbLine
 39
0.7
 10
200.0127860517638
 20
656.4048577111087
 30
0.0
 11
202.7127860517637
 21
656.4048577111087
 31
0.0
1001
AUSTER_FOLIE
1002
{
1000
ZENTRA_2144_BO_M_LB_DREH
1002
}
1001
AUSTER_ANSICHT
1002
{
1000
SL
1002
}
  0
LINE
  5
CC7B
330
20
100
AcDbEntity
  8
11000_Left
  6
Continuous
 62
     7
370
    50
100
AcDbLine
 39
0.7
 10
202.7127860517637
 20
656.4048577111087
 30
0.0
 11
208.7127860517637
 21
656.4048577111087
 31
0.0
1001
AUSTER_FOLIE
1002
{
1000
ZENTRA_2144_BO_M_LB_DREH
1002
}
1001
AUSTER_ANSICHT
1002
{
1000
SL
1002
}
  0
LINE
  5
CC7C
330
20
100
AcDbEntity
  8
11000_Left
  6
Continuous
 62
     7
370
    20
100
AcDbLine
 39
0.7
 10
199.9957860517636
 20
659.9788577111087
 30
0.0
 11
199.9247860517636
 21
658.7558577111088
 31
0.0
1001
AUSTER_FOLIE
1002
{
1000
ZENTRA_2144_BO_M_LB_DREH
1002
}
1001
AUSTER_ANSICHT
1002
{
1000
SL
1002
}
  0
LINE
  5
CC7D
330
20
100
AcDbEntity
  8
11000_Left
  6
Continuous
 62
     7
370
    20
100
AcDbLine
 39
0.7
 10
202.7127860517637
 20
668.404857711109
 30
0.0
 11
202.7127860517637
 21
656.4048577111087
 31
0.0
1001
AUSTER_FOLIE
1002
{
1000
ZENTRA_2144_BO_M_LB_DREH
1002
}
1001
AUSTER_ANSICHT
1002
{
1000
SL
1002
}
  0
LINE
  5
CC7E
330
20
100
AcDbEntity
  8
11000_Left
  6
Continuous
 62
     7
370
    50
100
AcDbLine
 39
0.7
 10
208.7127860517637
 20
656.4048577111087
 30
0.0
 11
208.7127860517637
 21
668.404857711109
 31
0.0
1001
AUSTER_FOLIE
1002
{
1000
ZENTRA_2144_BO_M_LB_DREH
1002
}
1001
AUSTER_ANSICHT
1002
{
1000
SL
1002
}
  0
LINE
  5
CC7F
330
20
100
AcDbEntity
  8
11000_Left
  6
Continuous
 62
     7
370
    20
100
AcDbLine
 39
0.7
 10
194.9157860517637
 20
659.010857711109
 30
0.0
 11
195.5047860517637
 21
659.726857711109
 31
0.0
1001
AUSTER_FOLIE
1002
{
1000
ZENTRA_2144_BO_M_LB_DREH
1002
}
1001
AUSTER_ANSICHT
1002
{
1000
SL
1002
}
  0
LINE
  5
CC80
330
20
100
AcDbEntity
  8
11000_Left
  6
Continuous
 62
     7
370
    20
100
AcDbLine
 39
0.7
 10
194.2007860517637
 20
658.4218577111085
 30
0.0
 11
194.9157860517637
 21
659.010857711109
 31
0.0
1001
AUSTER_FOLIE
1002
{
1000
ZENTRA_2144_BO_M_LB_DREH
1002
}
1001
AUSTER_ANSICHT
1002
{
1000
SL
1002
}
  0
LINE
  5
CC81
330
20
100
AcDbEntity
  8
11000_Left
  6
Continuous
 62
     7
370
    20
100
AcDbLine
 39
0.7
 10
193.3597860517635
 20
657.9708577111091
 30
0.0
 11
194.2007860517637
 21
658.4218577111085
 31
0.0
1001
AUSTER_FOLIE
1002
{
1000
ZENTRA_2144_BO_M_LB_DREH
1002
}
1001
AUSTER_ANSICHT
1002
{
1000
SL
1002
}
  0
LINE
  5
CC82
330
20
100
AcDbEntity
  8
11000_Left
  6
Continuous
 62
     7
370
    20
100
AcDbLine
 39
0.7
 10
192.4457860517637
 20
657.6948577111088
 30
0.0
 11
193.3597860517635
 21
657.9708577111091
 31
0.0
1001
AUSTER_FOLIE
1002
{
1000
ZENTRA_2144_BO_M_LB_DREH
1002
}
1001
AUSTER_ANSICHT
1002
{
1000
SL
1002
}
  0
LINE
  5
CC83
330
20
100
AcDbEntity
  8
11000_Left
  6
Continuous
 62
     7
370
    20
100
AcDbLine
 39
0.7
 10
192.2127860517637
 20
657.654857711109
 30
0.0
 11
192.4457860517637
 21
657.6948577111088
 31
0.0
1001
AUSTER_FOLIE
1002
{
1000
ZENTRA_2144_BO_M_LB_DREH
1002
}
1001
AUSTER_ANSICHT
1002
{
1000
SL
1002
}
  0
LINE
  5
CC84
330
20
100
AcDbEntity
  8
11000_Left
  6
Continuous
 62
     7
370
    20
100
AcDbLine
 39
0.7
 10
189.5127860517637
 20
657.654857711109
 30
0.0
 11
184.2127860517637
 21
657.654857711109
 31
0.0
1001
AUSTER_FOLIE
1002
{
1000
ZENTRA_2144_BO_M_LB_DREH
1002
}
1001
AUSTER_ANSICHT
1002
{
1000
SL
1002
}
  0
LINE
  5
CC85
330
20
100
AcDbEntity
  8
11000_Left
  6
Continuous
 62
     7
370
    20
100
AcDbLine
 39
0.7
 10
189.5127860517637
 20
655.3928577111093
 30
0.0
 11
189.5127860517637
 21
645.6488577111091
 31
0.0
1001
AUSTER_FOLIE
1002
{
1000
ZENTRA_2144_BO_M_LB_DREH
1002
}
1001
AUSTER_ANSICHT
1002
{
1000
SL
1002
}
  0
LINE
  5
CC86
330
20
100
AcDbEntity
  8
11000_Left
  6
Continuous
 62
     7
370
    20
100
AcDbLine
 39
0.7
 10
189.5127860517637
 20
657.654857711109
 30
0.0
 11
189.5127860517637
 21
655.3928577111093
 31
0.0
1001
AUSTER_FOLIE
1002
{
1000
ZENTRA_2144_BO_M_LB_DREH
1002
}
1001
AUSTER_ANSICHT
1002
{
1000
SL
1002
}
  0
LINE
  5
CC87
330
20
100
AcDbEntity
  8
11000_Left
  6
Continuous
 62
     7
370
    20
100
AcDbLine
 39
0.7
 10
189.5127860517637
 20
657.654857711109
 30
0.0
 11
192.2127860517637
 21
657.654857711109
 31
0.0
1001
AUSTER_FOLIE
1002
{
1000
ZENTRA_2144_BO_M_LB_DREH
1002
}
1001
AUSTER_ANSICHT
1002
{
1000
SL
1002
}
  0
LINE
  5
CC88
330
20
100
AcDbEntity
  8
11000_Left
  6
Continuous
 62
     7
370
    20
100
AcDbLine
 39
0.7
 10
194.2947860517637
 20
656.0128577111086
 30
0.0
 11
189.5127860517637
 21
655.3928577111093
 31
0.0
1001
AUSTER_FOLIE
1002
{
1000
ZENTRA_2144_BO_M_LB_DREH
1002
}
1001
AUSTER_ANSICHT
1002
{
1000
SL
1002
}
  0
LINE
  5
CC89
330
20
100
AcDbEntity
  8
11000_Left
  6
Continuous
 62
     7
370
    20
100
AcDbLine
 39
0.7
 10
195.5047860517637
 20
659.726857711109
 30
0.0
 11
195.9557860517637
 21
660.5678577111092
 31
0.0
1001
AUSTER_FOLIE
1002
{
1000
ZENTRA_2144_BO_M_LB_DREH
1002
}
1001
AUSTER_ANSICHT
1002
{
1000
SL
1002
}
  0
LINE
  5
CC8A
330
20
100
AcDbEntity
  8
11000_Left
  6
Continuous
 62
     7
370
    20
100
AcDbLine
 39
0.7
 10
184.2127860517637
 20
657.654857711109
 30
0.0
 11
184.2127860517637
 21
667.1548577111088
 31
0.0
1001
AUSTER_FOLIE
1002
{
1000
ZENTRA_2144_BO_M_LB_DREH
1002
}
1001
AUSTER_ANSICHT
1002
{
1000
SL
1002
}
  0
LINE
  5
CC8B
330
20
100
AcDbEntity
  8
11000_Left
  6
Continuous
 62
     7
370
    20
100
AcDbLine
 39
0.7
 10
199.0647860517637
 20
656.6948577111086
 30
0.0
 11
194.2947860517637
 21
656.0128577111086
 31
0.0
1001
AUSTER_FOLIE
1002
{
1000
ZENTRA_2144_BO_M_LB_DREH
1002
}
1001
AUSTER_ANSICHT
1002
{
1000
SL
1002
}
  0
LINE
  5
CC8C
330
20
100
AcDbEntity
  8
11000_Left
  6
Continuous
 62
     7
370
    20
100
AcDbLine
 39
0.7
 10
199.7197860517637
 20
644.3508577111091
 30
0.0
 11
199.8467860517637
 21
644.0058577111088
 31
0.0
1001
AUSTER_FOLIE
1002
{
1000
ZENTRA_2144_BO_M_LB_DREH
1002
}
1001
AUSTER_ANSICHT
1002
{
1000
SL
1002
}
  0
LINE
  5
CC8D
330
20
100
AcDbEntity
  8
11000_Left
  6
Continuous
 62
     7
370
    20
100
AcDbLine
 39
0.7
 10
199.6427860517637
 20
644.4918577111088
 30
0.0
 11
199.7197860517637
 21
644.3508577111091
 31
0.0
1001
AUSTER_FOLIE
1002
{
1000
ZENTRA_2144_BO_M_LB_DREH
1002
}
1001
AUSTER_ANSICHT
1002
{
1000
SL
1002
}
  0
LINE
  5
CC8E
330
20
100
AcDbEntity
  8
11000_Left
  6
Continuous
 62
     7
370
    20
100
AcDbLine
 39
0.7
 10
199.5457860517637
 20
644.626857711109
 30
0.0
 11
199.6427860517637
 21
644.4918577111088
 31
0.0
1001
AUSTER_FOLIE
1002
{
1000
ZENTRA_2144_BO_M_LB_DREH
1002
}
1001
AUSTER_ANSICHT
1002
{
1000
SL
1002
}
  0
LINE
  5
CC8F
330
20
100
AcDbEntity
  8
11000_Left
  6
Continuous
 62
     7
370
    20
100
AcDbLine
 39
0.7
 10
199.4337860517637
 20
644.7378577111087
 30
0.0
 11
199.5457860517637
 21
644.626857711109
 31
0.0
1001
AUSTER_FOLIE
1002
{
1000
ZENTRA_2144_BO_M_LB_DREH
1002
}
1001
AUSTER_ANSICHT
1002
{
1000
SL
1002
}
  0
LINE
  5
CC90
330
20
100
AcDbEntity
  8
11000_Left
  6
Continuous
 62
     7
370
    20
100
AcDbLine
 39
0.7
 10
199.2897860517637
 20
644.8328577111092
 30
0.0
 11
199.4337860517637
 21
644.7378577111087
 31
0.0
1001
AUSTER_FOLIE
1002
{
1000
ZENTRA_2144_BO_M_LB_DREH
1002
}
1001
AUSTER_ANSICHT
1002
{
1000
SL
1002
}
  0
LINE
  5
CC91
330
20
100
AcDbEntity
  8
11000_Left
  6
Continuous
 62
     7
370
    20
100
AcDbLine
 39
0.7
 10
199.2097860517636
 20
644.8668577111087
 30
0.0
 11
199.2897860517637
 21
644.8328577111092
 31
0.0
1001
AUSTER_FOLIE
1002
{
1000
ZENTRA_2144_BO_M_LB_DREH
1002
}
1001
AUSTER_ANSICHT
1002
{
1000
SL
1002
}
  0
LINE
  5
CC92
330
20
100
AcDbEntity
  8
11000_Left
  6
Continuous
 62
     7
370
    20
100
AcDbLine
 39
0.7
 10
199.1117860517637
 20
644.8918577111084
 30
0.0
 11
199.2097860517636
 21
644.8668577111087
 31
0.0
1001
AUSTER_FOLIE
1002
{
1000
ZENTRA_2144_BO_M_LB_DREH
1002
}
1001
AUSTER_ANSICHT
1002
{
1000
SL
1002
}
  0
LINE
  5
CC93
330
20
100
AcDbEntity
  8
11000_Left
  6
Continuous
 62
     7
370
    20
100
AcDbLine
 39
0.7
 10
199.0647860517637
 20
644.8978577111088
 30
0.0
 11
199.1117860517637
 21
644.8918577111084
 31
0.0
1001
AUSTER_FOLIE
1002
{
1000
ZENTRA_2144_BO_M_LB_DREH
1002
}
1001
AUSTER_ANSICHT
1002
{
1000
SL
1002
}
  0
LINE
  5
CC94
330
20
100
AcDbEntity
  8
11000_Left
  6
Continuous
 62
     7
370
    50
100
AcDbLine
 39
0.7
 10
200.0127860517638
 20
641.0818577111086
 30
0.0
 11
200.0117860517637
 21
640.3368577111088
 31
0.0
1001
AUSTER_FOLIE
1002
{
1000
ZENTRA_2144_BO_M_LB_DREH
1002
}
1001
AUSTER_ANSICHT
1002
{
1000
SL
1002
}
  0
LINE
  5
CC95
330
20
100
AcDbEntity
  8
11000_Left
  6
Continuous
 62
     7
370
    50
100
AcDbLine
 39
0.7
 10
200.0127860517638
 20
632.4048577111088
 30
0.0
 11
200.0127860517638
 21
641.0818577111086
 31
0.0
1001
AUSTER_FOLIE
1002
{
1000
ZENTRA_2144_BO_M_LB_DREH
1002
}
1001
AUSTER_ANSICHT
1002
{
1000
SL
1002
}
  0
LINE
  5
CC96
330
20
100
AcDbEntity
  8
11000_Left
  6
Continuous
 62
     7
370
    20
100
AcDbLine
 39
0.7
 10
199.1117860517637
 20
636.8308577111085
 30
0.0
 11
199.0647860517637
 21
636.8228577111092
 31
0.0
1001
AUSTER_FOLIE
1002
{
1000
ZENTRA_2144_BO_M_LB_DREH
1002
}
1001
AUSTER_ANSICHT
1002
{
1000
SL
1002
}
  0
LINE
  5
CC97
330
20
100
AcDbEntity
  8
11000_Left
  6
Continuous
 62
     7
370
    20
100
AcDbLine
 39
0.7
 10
199.2097860517636
 20
636.8668577111087
 30
0.0
 11
199.1117860517637
 21
636.8308577111085
 31
0.0
1001
AUSTER_FOLIE
1002
{
1000
ZENTRA_2144_BO_M_LB_DREH
1002
}
1001
AUSTER_ANSICHT
1002
{
1000
SL
1002
}
  0
LINE
  5
CC98
330
20
100
AcDbEntity
  8
11000_Left
  6
Continuous
 62
     7
370
    20
100
AcDbLine
 39
0.7
 10
199.2897860517637
 20
636.9138577111088
 30
0.0
 11
199.2097860517636
 21
636.8668577111087
 31
0.0
1001
AUSTER_FOLIE
1002
{
1000
ZENTRA_2144_BO_M_LB_DREH
1002
}
1001
AUSTER_ANSICHT
1002
{
1000
SL
1002
}
  0
LINE
  5
CC99
330
20
100
AcDbEntity
  8
11000_Left
  6
Continuous
 62
     7
370
    20
100
AcDbLine
 39
0.7
 10
199.4337860517637
 20
637.0448577111087
 30
0.0
 11
199.2897860517637
 21
636.9138577111088
 31
0.0
1001
AUSTER_FOLIE
1002
{
1000
ZENTRA_2144_BO_M_LB_DREH
1002
}
1001
AUSTER_ANSICHT
1002
{
1000
SL
1002
}
  0
LINE
  5
CC9A
330
20
100
AcDbEntity
  8
11000_Left
  6
Continuous
 62
     7
370
    20
100
AcDbLine
 39
0.7
 10
199.5457860517637
 20
637.1968577111088
 30
0.0
 11
199.4337860517637
 21
637.0448577111087
 31
0.0
1001
AUSTER_FOLIE
1002
{
1000
ZENTRA_2144_BO_M_LB_DREH
1002
}
1001
AUSTER_ANSICHT
1002
{
1000
SL
1002
}
  0
LINE
  5
CC9B
330
20
100
AcDbEntity
  8
11000_Left
  6
Continuous
 62
     7
370
    20
100
AcDbLine
 39
0.7
 10
199.6427860517637
 20
637.3788577111086
 30
0.0
 11
199.5457860517637
 21
637.1968577111088
 31
0.0
1001
AUSTER_FOLIE
1002
{
1000
ZENTRA_2144_BO_M_LB_DREH
1002
}
1001
AUSTER_ANSICHT
1002
{
1000
SL
1002
}
  0
LINE
  5
CC9C
330
20
100
AcDbEntity
  8
11000_Left
  6
Continuous
 62
     7
370
    20
100
AcDbLine
 39
0.7
 10
199.7197860517637
 20
637.565857711109
 30
0.0
 11
199.6427860517637
 21
637.3788577111086
 31
0.0
1001
AUSTER_FOLIE
1002
{
1000
ZENTRA_2144_BO_M_LB_DREH
1002
}
1001
AUSTER_ANSICHT
1002
{
1000
SL
1002
}
  0
LINE
  5
CC9D
330
20
100
AcDbEntity
  8
11000_Left
  6
Continuous
 62
     7
370
    20
100
AcDbLine
 39
0.7
 10
199.8467860517637
 20
638.0138577111088
 30
0.0
 11
199.7197860517637
 21
637.565857711109
 31
0.0
1001
AUSTER_FOLIE
1002
{
1000
ZENTRA_2144_BO_M_LB_DREH
1002
}
1001
AUSTER_ANSICHT
1002
{
1000
SL
1002
}
  0
LINE
  5
CC9E
330
20
100
AcDbEntity
  8
11000_Left
  6
Continuous
 62
     7
370
    20
100
AcDbLine
 39
0.7
 10
199.9247860517636
 20
638.4758577111085
 30
0.0
 11
199.8467860517637
 21
638.0138577111088
 31
0.0
1001
AUSTER_FOLIE
1002
{
1000
ZENTRA_2144_BO_M_LB_DREH
1002
}
1001
AUSTER_ANSICHT
1002
{
1000
SL
1002
}
  0
LINE
  5
CC9F
330
20
100
AcDbEntity
  8
11000_Left
  6
Continuous
 62
     7
370
    20
100
AcDbLine
 39
0.7
 10
199.9957860517636
 20
639.4168577111088
 30
0.0
 11
199.9247860517636
 21
638.4758577111085
 31
0.0
1001
AUSTER_FOLIE
1002
{
1000
ZENTRA_2144_BO_M_LB_DREH
1002
}
1001
AUSTER_ANSICHT
1002
{
1000
SL
1002
}
  0
LINE
  5
CCA0
330
20
100
AcDbEntity
  8
11000_Left
  6
Continuous
 62
     7
370
    50
100
AcDbLine
 39
0.7
 10
200.0117860517637
 20
632.3848577111086
 30
0.0
 11
200.0127860517638
 21
632.4048577111088
 31
0.0
1001
AUSTER_FOLIE
1002
{
1000
ZENTRA_2144_BO_M_LB_DREH
1002
}
1001
AUSTER_ANSICHT
1002
{
1000
SL
1002
}
  0
LINE
  5
CCA1
330
20
100
AcDbEntity
  8
11000_Left
  6
Continuous
 62
     7
370
    50
100
AcDbLine
 39
0.7
 10
199.9957860517636
 20
632.3208577111088
 30
0.0
 11
200.0117860517637
 21
632.3848577111086
 31
0.0
1001
AUSTER_FOLIE
1002
{
1000
ZENTRA_2144_BO_M_LB_DREH
1002
}
1001
AUSTER_ANSICHT
1002
{
1000
SL
1002
}
  0
LINE
  5
CCA2
330
20
100
AcDbEntity
  8
11000_Left
  6
Continuous
 62
     7
370
    50
100
AcDbLine
 39
0.7
 10
199.9247860517636
 20
632.2148577111088
 30
0.0
 11
199.9957860517636
 21
632.3208577111088
 31
0.0
1001
AUSTER_FOLIE
1002
{
1000
ZENTRA_2144_BO_M_LB_DREH
1002
}
1001
AUSTER_ANSICHT
1002
{
1000
SL
1002
}
  0
LINE
  5
CCA3
330
20
100
AcDbEntity
  8
11000_Left
  6
Continuous
 62
     7
370
    50
100
AcDbLine
 39
0.7
 10
199.8467860517637
 20
632.1478577111085
 30
0.0
 11
199.9247860517636
 21
632.2148577111088
 31
0.0
1001
AUSTER_FOLIE
1002
{
1000
ZENTRA_2144_BO_M_LB_DREH
1002
}
1001
AUSTER_ANSICHT
1002
{
1000
SL
1002
}
  0
LINE
  5
CCA4
330
20
100
AcDbEntity
  8
11000_Left
  6
Continuous
 62
     7
370
    50
100
AcDbLine
 39
0.7
 10
199.7197860517637
 20
632.0748577111086
 30
0.0
 11
199.8467860517637
 21
632.1478577111085
 31
0.0
1001
AUSTER_FOLIE
1002
{
1000
ZENTRA_2144_BO_M_LB_DREH
1002
}
1001
AUSTER_ANSICHT
1002
{
1000
SL
1002
}
  0
LINE
  5
CCA5
330
20
100
AcDbEntity
  8
11000_Left
  6
Continuous
 62
     7
370
    50
100
AcDbLine
 39
0.7
 10
199.6427860517637
 20
632.0418577111088
 30
0.0
 11
199.7197860517637
 21
632.0748577111086
 31
0.0
1001
AUSTER_FOLIE
1002
{
1000
ZENTRA_2144_BO_M_LB_DREH
1002
}
1001
AUSTER_ANSICHT
1002
{
1000
SL
1002
}
  0
LINE
  5
CCA6
330
20
100
AcDbEntity
  8
11000_Left
  6
Continuous
 62
     7
370
    50
100
AcDbLine
 39
0.7
 10
199.5457860517637
 20
632.0088577111091
 30
0.0
 11
199.6427860517637
 21
632.0418577111088
 31
0.0
1001
AUSTER_FOLIE
1002
{
1000
ZENTRA_2144_BO_M_LB_DREH
1002
}
1001
AUSTER_ANSICHT
1002
{
1000
SL
1002
}
  0
LINE
  5
CCA7
330
20
100
AcDbEntity
  8
11000_Left
  6
Continuous
 62
     7
370
    50
100
AcDbLine
 39
0.7
 10
199.4337860517637
 20
631.9798577111088
 30
0.0
 11
199.5457860517637
 21
632.0088577111091
 31
0.0
1001
AUSTER_FOLIE
1002
{
1000
ZENTRA_2144_BO_M_LB_DREH
1002
}
1001
AUSTER_ANSICHT
1002
{
1000
SL
1002
}
  0
LINE
  5
CCA8
330
20
100
AcDbEntity
  8
11000_Left
  6
Continuous
 62
     7
370
    50
100
AcDbLine
 39
0.7
 10
199.2897860517637
 20
631.9548577111087
 30
0.0
 11
199.4337860517637
 21
631.9798577111088
 31
0.0
1001
AUSTER_FOLIE
1002
{
1000
ZENTRA_2144_BO_M_LB_DREH
1002
}
1001
AUSTER_ANSICHT
1002
{
1000
SL
1002
}
  0
LINE
  5
CCA9
330
20
100
AcDbEntity
  8
11000_Left
  6
Continuous
 62
     7
370
    50
100
AcDbLine
 39
0.7
 10
199.2097860517636
 20
631.9448577111087
 30
0.0
 11
199.2897860517637
 21
631.9548577111087
 31
0.0
1001
AUSTER_FOLIE
1002
{
1000
ZENTRA_2144_BO_M_LB_DREH
1002
}
1001
AUSTER_ANSICHT
1002
{
1000
SL
1002
}
  0
LINE
  5
CCAA
330
20
100
AcDbEntity
  8
11000_Left
  6
Continuous
 62
     7
370
    50
100
AcDbLine
 39
0.7
 10
199.1117860517637
 20
631.9378577111088
 30
0.0
 11
199.2097860517636
 21
631.9448577111087
 31
0.0
1001
AUSTER_FOLIE
1002
{
1000
ZENTRA_2144_BO_M_LB_DREH
1002
}
1001
AUSTER_ANSICHT
1002
{
1000
SL
1002
}
  0
LINE
  5
CCAB
330
20
100
AcDbEntity
  8
11000_Left
  6
Continuous
 62
     7
370
    50
100
AcDbLine
 39
0.7
 10
199.0647860517637
 20
631.9368577111085
 30
0.0
 11
199.1117860517637
 21
631.9378577111088
 31
0.0
1001
AUSTER_FOLIE
1002
{
1000
ZENTRA_2144_BO_M_LB_DREH
1002
}
1001
AUSTER_ANSICHT
1002
{
1000
SL
1002
}
  0
LINE
  5
CCAC
330
20
100
AcDbEntity
  8
11000_Left
  6
Continuous
 62
     7
370
    20
100
AcDbLine
 39
0.7
 10
199.1117860517637
 20
631.9378577111088
 30
0.0
 11
199.0647860517637
 21
631.9368577111085
 31
0.0
1001
AUSTER_FOLIE
1002
{
1000
ZENTRA_2144_BO_M_LB_DREH
1002
}
1001
AUSTER_ANSICHT
1002
{
1000
SL
1002
}
  0
LINE
  5
CCAD
330
20
100
AcDbEntity
  8
11000_Left
  6
Continuous
 62
     7
370
    20
100
AcDbLine
 39
0.7
 10
199.2097860517636
 20
631.9448577111087
 30
0.0
 11
199.1117860517637
 21
631.9378577111088
 31
0.0
1001
AUSTER_FOLIE
1002
{
1000
ZENTRA_2144_BO_M_LB_DREH
1002
}
1001
AUSTER_ANSICHT
1002
{
1000
SL
1002
}
  0
LINE
  5
CCAE
330
20
100
AcDbEntity
  8
11000_Left
  6
Continuous
 62
     7
370
    20
100
AcDbLine
 39
0.7
 10
199.2897860517637
 20
631.9548577111087
 30
0.0
 11
199.2097860517636
 21
631.9448577111087
 31
0.0
1001
AUSTER_FOLIE
1002
{
1000
ZENTRA_2144_BO_M_LB_DREH
1002
}
1001
AUSTER_ANSICHT
1002
{
1000
SL
1002
}
  0
LINE
  5
CCAF
330
20
100
AcDbEntity
  8
11000_Left
  6
Continuous
 62
     7
370
    20
100
AcDbLine
 39
0.7
 10
199.4337860517637
 20
631.9798577111088
 30
0.0
 11
199.2897860517637
 21
631.9548577111087
 31
0.0
1001
AUSTER_FOLIE
1002
{
1000
ZENTRA_2144_BO_M_LB_DREH
1002
}
1001
AUSTER_ANSICHT
1002
{
1000
SL
1002
}
  0
LINE
  5
CCB0
330
20
100
AcDbEntity
  8
11000_Left
  6
Continuous
 62
     7
370
    20
100
AcDbLine
 39
0.7
 10
199.5457860517637
 20
632.0088577111091
 30
0.0
 11
199.4337860517637
 21
631.9798577111088
 31
0.0
1001
AUSTER_FOLIE
1002
{
1000
ZENTRA_2144_BO_M_LB_DREH
1002
}
1001
AUSTER_ANSICHT
1002
{
1000
SL
1002
}
  0
LINE
  5
CCB1
330
20
100
AcDbEntity
  8
11000_Left
  6
Continuous
 62
     7
370
    20
100
AcDbLine
 39
0.7
 10
199.6427860517637
 20
632.0418577111088
 30
0.0
 11
199.5457860517637
 21
632.0088577111091
 31
0.0
1001
AUSTER_FOLIE
1002
{
1000
ZENTRA_2144_BO_M_LB_DREH
1002
}
1001
AUSTER_ANSICHT
1002
{
1000
SL
1002
}
  0
LINE
  5
CCB2
330
20
100
AcDbEntity
  8
11000_Left
  6
Continuous
 62
     7
370
    20
100
AcDbLine
 39
0.7
 10
199.7197860517637
 20
632.0748577111086
 30
0.0
 11
199.6427860517637
 21
632.0418577111088
 31
0.0
1001
AUSTER_FOLIE
1002
{
1000
ZENTRA_2144_BO_M_LB_DREH
1002
}
1001
AUSTER_ANSICHT
1002
{
1000
SL
1002
}
  0
LINE
  5
CCB3
330
20
100
AcDbEntity
  8
11000_Left
  6
Continuous
 62
     7
370
    20
100
AcDbLine
 39
0.7
 10
199.8467860517637
 20
632.1478577111085
 30
0.0
 11
199.7197860517637
 21
632.0748577111086
 31
0.0
1001
AUSTER_FOLIE
1002
{
1000
ZENTRA_2144_BO_M_LB_DREH
1002
}
1001
AUSTER_ANSICHT
1002
{
1000
SL
1002
}
  0
LINE
  5
CCB4
330
20
100
AcDbEntity
  8
11000_Left
  6
Continuous
 62
     7
370
    20
100
AcDbLine
 39
0.7
 10
199.9957860517636
 20
642.8478577111087
 30
0.0
 11
200.0117860517637
 21
642.0188577111091
 31
0.0
1001
AUSTER_FOLIE
1002
{
1000
ZENTRA_2144_BO_M_LB_DREH
1002
}
1001
AUSTER_ANSICHT
1002
{
1000
SL
1002
}
  0
LINE
  5
CCB5
330
20
100
AcDbEntity
  8
11000_Left
  6
Continuous
 62
     7
370
    20
100
AcDbLine
 39
0.7
 10
199.9247860517636
 20
643.6378577111088
 30
0.0
 11
199.9957860517636
 21
642.8478577111087
 31
0.0
1001
AUSTER_FOLIE
1002
{
1000
ZENTRA_2144_BO_M_LB_DREH
1002
}
1001
AUSTER_ANSICHT
1002
{
1000
SL
1002
}
  0
LINE
  5
CCB6
330
20
100
AcDbEntity
  8
11000_Left
  6
Continuous
 62
     7
370
    50
100
AcDbLine
 39
0.7
 10
200.0127860517638
 20
641.0818577111086
 30
0.0
 11
200.0127860517638
 21
641.3018577111088
 31
0.0
1001
AUSTER_FOLIE
1002
{
1000
ZENTRA_2144_BO_M_LB_DREH
1002
}
1001
AUSTER_ANSICHT
1002
{
1000
SL
1002
}
  0
LINE
  5
CCB7
330
20
100
AcDbEntity
  8
11000_Left
  6
Continuous
 62
     7
370
    20
100
AcDbLine
 39
0.7
 10
199.8467860517637
 20
644.0058577111088
 30
0.0
 11
199.9247860517636
 21
643.6378577111088
 31
0.0
1001
AUSTER_FOLIE
1002
{
1000
ZENTRA_2144_BO_M_LB_DREH
1002
}
1001
AUSTER_ANSICHT
1002
{
1000
SL
1002
}
  0
LINE
  5
CCB8
330
20
100
AcDbEntity
  8
11000_Left
  6
Continuous
 62
     7
370
    50
100
AcDbLine
 39
0.7
 10
181.5127860517637
 20
632.4048577111088
 30
0.0
 11
189.5127860517637
 21
632.4048577111088
 31
0.0
1001
AUSTER_FOLIE
1002
{
1000
ZENTRA_2144_BO_M_LB_DREH
1002
}
1001
AUSTER_ANSICHT
1002
{
1000
SL
1002
}
  0
LINE
  5
CCB9
330
20
100
AcDbEntity
  8
11000_Left
  6
Continuous
 62
     7
370
    20
100
AcDbLine
 39
0.7
 10
189.5127860517637
 20
641.1918577111091
 30
0.0
 11
189.5127860517637
 21
632.4048577111088
 31
0.0
1001
AUSTER_FOLIE
1002
{
1000
ZENTRA_2144_BO_M_LB_DREH
1002
}
1001
AUSTER_ANSICHT
1002
{
1000
SL
1002
}
  0
LINE
  5
CCBA
330
20
100
AcDbEntity
  8
11000_Left
  6
Continuous
 62
     7
370
    50
100
AcDbLine
 39
0.7
 10
189.5127860517637
 20
632.4048577111088
 30
0.0
 11
189.5127860517637
 21
631.6958577111088
 31
0.0
1001
AUSTER_FOLIE
1002
{
1000
ZENTRA_2144_BO_M_LB_DREH
1002
}
1001
AUSTER_ANSICHT
1002
{
1000
SL
1002
}
  0
LINE
  5
CCBB
330
20
100
AcDbEntity
  8
11000_Left
  6
Continuous
 62
     7
370
    20
100
AcDbLine
 39
0.7
 10
194.2957860517637
 20
636.255857711109
 30
0.0
 11
189.5127860517637
 21
635.7318577111088
 31
0.0
1001
AUSTER_FOLIE
1002
{
1000
ZENTRA_2144_BO_M_LB_DREH
1002
}
1001
AUSTER_ANSICHT
1002
{
1000
SL
1002
}
  0
LINE
  5
CCBC
330
20
100
AcDbEntity
  8
11000_Left
  6
Continuous
 62
     7
370
    50
100
AcDbLine
 39
0.7
 10
189.5127860517637
 20
631.6958577111088
 30
0.0
 11
194.2957860517637
 21
631.8168577111091
 31
0.0
1001
AUSTER_FOLIE
1002
{
1000
ZENTRA_2144_BO_M_LB_DREH
1002
}
1001
AUSTER_ANSICHT
1002
{
1000
SL
1002
}
  0
LINE
  5
CCBD
330
20
100
AcDbEntity
  8
11000_Left
  6
Continuous
 62
     7
370
    20
100
AcDbLine
 39
0.7
 10
199.0647860517637
 20
636.8228577111092
 30
0.0
 11
194.2957860517637
 21
636.255857711109
 31
0.0
1001
AUSTER_FOLIE
1002
{
1000
ZENTRA_2144_BO_M_LB_DREH
1002
}
1001
AUSTER_ANSICHT
1002
{
1000
SL
1002
}
  0
LINE
  5
CCBE
330
20
100
AcDbEntity
  8
11000_Left
  6
Continuous
 62
     7
370
    50
100
AcDbLine
 39
0.7
 10
194.2957860517637
 20
631.8168577111091
 30
0.0
 11
199.0647860517637
 21
631.9368577111085
 31
0.0
1001
AUSTER_FOLIE
1002
{
1000
ZENTRA_2144_BO_M_LB_DREH
1002
}
1001
AUSTER_ANSICHT
1002
{
1000
SL
1002
}
  0
LINE
  5
CCBF
330
20
100
AcDbEntity
  8
11000_Left
  6
Continuous
 62
     7
370
    20
100
AcDbLine
 39
0.7
 10
199.0647860517637
 20
631.9368577111085
 30
0.0
 11
189.5127860517637
 21
631.6958577111088
 31
0.0
1001
AUSTER_FOLIE
1002
{
1000
ZENTRA_2144_BO_M_LB_DREH
1002
}
1001
AUSTER_ANSICHT
1002
{
1000
SL
1002
}
  0
LINE
  5
CCC0
330
20
100
AcDbEntity
  8
11000_Left
  6
Continuous
 62
     7
370
    20
100
AcDbLine
 39
0.7
 10
194.2957860517637
 20
645.2958577111091
 30
0.0
 11
199.0647860517637
 21
644.8978577111088
 31
0.0
1001
AUSTER_FOLIE
1002
{
1000
ZENTRA_2144_BO_M_LB_DREH
1002
}
1001
AUSTER_ANSICHT
1002
{
1000
SL
1002
}
  0
LINE
  5
CCC1
330
20
100
AcDbEntity
  8
11000_Left
  6
Continuous
 62
     7
370
    20
100
AcDbLine
 39
0.7
 10
189.5127860517637
 20
645.6488577111091
 30
0.0
 11
194.2957860517637
 21
645.2958577111091
 31
0.0
1001
AUSTER_FOLIE
1002
{
1000
ZENTRA_2144_BO_M_LB_DREH
1002
}
1001
AUSTER_ANSICHT
1002
{
1000
SL
1002
}
  0
LINE
  5
CCC2
330
20
100
AcDbEntity
  8
11000_Left
  6
Continuous
 62
     7
370
    20
100
AcDbLine
 39
0.7
 10
189.5127860517637
 20
645.6488577111091
 30
0.0
 11
189.5127860517637
 21
641.1918577111091
 31
0.0
1001
AUSTER_FOLIE
1002
{
1000
ZENTRA_2144_BO_M_LB_DREH
1002
}
1001
AUSTER_ANSICHT
1002
{
1000
SL
1002
}
  0
LINE
  5
CCC3
330
20
100
AcDbEntity
  8
11000_Left
  6
Continuous
 62
     7
370
    50
100
AcDbLine
 39
0.7
 10
200.0127860517638
 20
641.3018577111088
 30
0.0
 11
200.0127860517638
 21
656.4048577111084
 31
0.0
1001
AUSTER_FOLIE
1002
{
1000
ZENTRA_2144_BO_M_LB_DREH
1002
}
1001
AUSTER_ANSICHT
1002
{
1000
SL
1002
}
  0
LINE
  5
CCC4
330
20
100
AcDbEntity
  8
11000_Left
  6
Continuous
 62
     7
370
    50
100
AcDbLine
 39
0.7
 10
172.5127860517637
 20
629.2048577111087
 30
0.0
 11
179.5127860517637
 21
629.2048577111087
 31
0.0
1001
AUSTER_FOLIE
1002
{
1000
ZENTRA_2144_BO_M_LB_DREH
1002
}
1001
AUSTER_ANSICHT
1002
{
1000
SL
1002
}
  0
LINE
  5
CCC5
330
20
100
AcDbEntity
  8
11000_Left
  6
Continuous
 62
     7
370
    50
100
AcDbLine
 39
0.7
 10
179.5127860517637
 20
629.2048577111087
 30
0.0
 11
179.5135321899687
 21
631.3007733741031
 31
0.0
1001
AUSTER_FOLIE
1002
{
1000
ZENTRA_2144_BO_M_LB_DREH
1002
}
1001
AUSTER_ANSICHT
1002
{
1000
SL
1002
}
  0
ARC
  5
CCC6
330
20
100
AcDbEntity
  8
11000_Left
  6
Continuous
 62
     7
370
    50
100
AcDbCircle
 39
0.7
 10
181.4492066048835
 20
630.1578394574265
 30
0.0
 40
2.24791756486866
100
AcDbArc
 50
88.37924668868351
 51
149.4399450991138
1001
AUSTER_FOLIE
1002
{
1000
ZENTRA_2144_BO_M_LB_DREH
1002
}
1001
AUSTER_ANSICHT
1002
{
1000
SL
1002
}
  0
LINE
  5
CCC7
330
20
100
AcDbEntity
  8
11000_Left
  6
Continuous
 62
     7
370
    20
100
AcDbLine
 39
0.7
 10
179.5135321899687
 20
631.3007733741031
 30
0.0
 11
179.5172318305258
 21
694.2725784925499
 31
0.0
1001
AUSTER_FOLIE
1002
{
1000
ZENTRA_2144_BO_M_LB_DREH
1002
}
1001
AUSTER_ANSICHT
1002
{
1000
SL
1002
}
  0
DIMENSION
  5
CCC8
330
20
100
AcDbEntity
  8
11100_LEFT_DIM
  6
Continuous
 62
     7
370
    13
100
AcDbDimension
  2
*D7
 10
208.7127860517638
 20
716.6036677111085
 30
0.0
 11
190.6127860517638
 21
716.4213259049403
 31
0.0
 70
   160
 71
     5
 42
36.20000000000004
  3
H035
100
AcDbAlignedDimension
 13
172.5127860517637
 23
714.2673064953825
 33
0.0
 14
208.7127860517638
 24
668.2048577111087
 34
0.0
100
AcDbRotatedDimension
1001
ACAD
1000
DSTYLE
1002
{
1070
    40
1040
1.0
1070
    77
1070
     0
1070
   147
1040
1.5
1070
   272
1070
     0
1070
   279
1070
     1
1070
   288
1070
     1
1002
}
  0
LINE
  5
CCF5
330
20
100
AcDbEntity
  8
11000_Left
  6
Continuous
 62
     7
370
    50
100
AcDbLine
 39
0.7
 10
114.4362260517637
 20
686.4048577111089
 30
0.0
 11
101.5027860517637
 21
686.4048577111088
 31
0.0
1001
AUSTER_FOLIE
1002
{
1000
ZENTRA_MIT_DREHANTRIEB_67_AUSTER
1002
}
1001
AUSTER_ANSICHT
1002
{
1000
SL
1002
}
  0
LINE
  5
CCF6
330
20
100
AcDbEntity
  8
11000_Left
  6
Continuous
 62
     7
370
    50
100
AcDbLine
 39
0.7
 10
154.5127860517637
 20
672.9048577111084
 30
0.0
 11
154.5127860517637
 21
682.4048577111084
 31
0.0
1001
AUSTER_FOLIE
1002
{
1000
ZENTRA_MIT_DREHANTRIEB_67_AUSTER
1002
}
1001
AUSTER_ANSICHT
1002
{
1000
SL
1002
}
  0
LINE
  5
CCF7
330
20
100
AcDbEntity
  8
11000_Left
  6
Continuous
 62
     7
370
    20
100
AcDbLine
 39
0.7
 10
154.5127860517637
 20
651.9048577111086
 30
0.0
 11
154.5127860517637
 21
672.9048577111084
 31
0.0
1001
AUSTER_FOLIE
1002
{
1000
ZENTRA_MIT_DREHANTRIEB_67_AUSTER
1002
}
1001
AUSTER_ANSICHT
1002
{
1000
SL
1002
}
  0
LINE
  5
CCF8
330
20
100
AcDbEntity
  8
11000_Left
  6
Continuous
 62
     7
370
    20
100
AcDbLine
 39
0.7
 10
160.5127860517636
 20
651.9048577111086
 30
0.0
 11
160.5127860517637
 21
672.9048577111084
 31
0.0
1001
AUSTER_FOLIE
1002
{
1000
ZENTRA_MIT_DREHANTRIEB_67_AUSTER
1002
}
1001
AUSTER_ANSICHT
1002
{
1000
SL
1002
}
  0
LINE
  5
CCF9
330
20
100
AcDbEntity
  8
11000_Left
  6
Continuous
 62
     7
370
    50
100
AcDbLine
 39
0.7
 10
160.5127860517637
 20
672.9048577111084
 30
0.0
 11
160.5127860517637
 21
675.4048577111084
 31
0.0
1001
AUSTER_FOLIE
1002
{
1000
ZENTRA_MIT_DREHANTRIEB_67_AUSTER
1002
}
1001
AUSTER_ANSICHT
1002
{
1000
SL
1002
}
  0
LINE
  5
CCFA
330
20
100
AcDbEntity
  8
11000_Left
  6
Continuous
 62
     7
370
    50
100
AcDbLine
 39
0.7
 10
164.5127860517636
 20
675.4048577111084
 30
0.0
 11
164.5127860517637
 21
679.4048577111084
 31
0.0
1001
AUSTER_FOLIE
1002
{
1000
ZENTRA_MIT_DREHANTRIEB_67_AUSTER
1002
}
1001
AUSTER_ANSICHT
1002
{
1000
SL
1002
}
  0
LINE
  5
CCFB
330
20
100
AcDbEntity
  8
11000_Left
  6
Continuous
 62
     7
370
    20
100
AcDbLine
 39
0.7
 10
164.5127860517637
 20
649.4048577111088
 30
0.0
 11
164.5127860517636
 21
675.4048577111084
 31
0.0
1001
AUSTER_FOLIE
1002
{
1000
ZENTRA_MIT_DREHANTRIEB_67_AUSTER
1002
}
1001
AUSTER_ANSICHT
1002
{
1000
SL
1002
}
  0
LINE
  5
CCFC
330
20
100
AcDbEntity
  8
11000_Left
  6
Continuous
 62
     7
370
    20
100
AcDbLine
 39
0.7
 10
166.5127860517636
 20
645.4048577111088
 30
0.0
 11
166.5127860517637
 21
679.4048577111087
 31
0.0
1001
AUSTER_FOLIE
1002
{
1000
ZENTRA_MIT_DREHANTRIEB_67_AUSTER
1002
}
1001
AUSTER_ANSICHT
1002
{
1000
SL
1002
}
  0
LINE
  5
CCFD
330
20
100
AcDbEntity
  8
11000_Left
  6
Continuous
 62
     7
370
    50
100
AcDbLine
 39
0.7
 10
166.5127860517637
 20
679.4048577111087
 30
0.0
 11
166.5127860517637
 21
682.4048577111084
 31
0.0
1001
AUSTER_FOLIE
1002
{
1000
ZENTRA_MIT_DREHANTRIEB_67_AUSTER
1002
}
1001
AUSTER_ANSICHT
1002
{
1000
SL
1002
}
  0
LINE
  5
CCFE
330
20
100
AcDbEntity
  8
11000_Left
  6
Continuous
 62
     7
370
    50
100
AcDbLine
 39
0.7
 10
146.5127860517637
 20
682.4048577111084
 30
0.0
 11
146.5127860517637
 21
684.9048577111084
 31
0.0
1001
AUSTER_FOLIE
1002
{
1000
ZENTRA_MIT_DREHANTRIEB_67_AUSTER
1002
}
1001
AUSTER_ANSICHT
1002
{
1000
SL
1002
}
  0
LINE
  5
CCFF
330
20
100
AcDbEntity
  8
11000_Left
  6
Continuous
 62
     7
370
    20
100
AcDbLine
 39
0.7
 10
146.5127860517637
 20
642.4048577111086
 30
0.0
 11
146.5127860517637
 21
682.4048577111084
 31
0.0
1001
AUSTER_FOLIE
1002
{
1000
ZENTRA_MIT_DREHANTRIEB_67_AUSTER
1002
}
1001
AUSTER_ANSICHT
1002
{
1000
SL
1002
}
  0
DIMENSION
  5
CD00
330
20
100
AcDbEntity
  8
11100_LEFT_DIM
  6
Continuous
 62
     7
370
    13
100
AcDbDimension
  2
*D8
 10
170.5127860517637
 20
716.4301566437633
 30
0.0
 11
133.5127860517637
 21
716.4301566437633
 31
0.0
 70
    32
 71
     5
 42
74.00000000000002
  3
H035
100
AcDbAlignedDimension
 13
96.51278605176372
 23
677.9048577111088
 33
0.0
 14
170.5127860517637
 24
714.4301566437633
 34
0.0
100
AcDbRotatedDimension
1001
ACAD
1000
DSTYLE
1002
{
1070
    40
1040
1.0
1070
    77
1070
     0
1070
   147
1040
1.5
1070
   272
1070
     0
1070
   279
1070
     1
1070
   288
1070
     1
1002
}
  0
DIMENSION
  5
CD0D
330
20
100
AcDbEntity
  8
11100_LEFT_DIM
  6
Continuous
 62
     7
370
    13
100
AcDbDimension
  2
*D9
 10
80.00005931509139
 20
634.9048577111087
 30
0.0
 11
80.00005931509127
 21
662.4214227111086
 31
0.0
 70
   160
 71
     5
 42
55.0331299999998
  3
H035
100
AcDbAlignedDimension
 13
113.4362260517637
 23
689.9379877111085
 33
0.0
 14
113.5127860517637
 24
634.9048577111087
 34
0.0
 50
90.0
100
AcDbRotatedDimension
1001
ACAD
1000
DSTYLE
1002
{
1070
    40
1040
1.0
1070
    77
1070
     0
1070
   147
1040
1.5
1070
   272
1070
     0
1070
   279
1070
     1
1070
   288
1070
     1
1002
}
  0
DIMENSION
  5
CD1A
330
20
100
AcDbEntity
  8
11100_LEFT_DIM
  6
Continuous
 62
     7
370
    13
100
AcDbDimension
  2
*D10
 10
87.81266783343308
 20
706.4048577111085
 30
0.0
 11
87.81266783343294
 21
684.4048577111086
 31
0.0
 70
   160
 71
     5
 42
43.99999999999977
  3
H035
100
AcDbAlignedDimension
 13
89.9600260517637
 23
662.4048577111087
 33
0.0
 14
110.5027860517637
 24
706.4048577111085
 34
0.0
 50
90.0
100
AcDbRotatedDimension
1001
ACAD
1000
DSTYLE
1002
{
1070
    40
1040
1.0
1070
    77
1070
     0
1070
   147
1040
1.5
1070
   272
1070
     0
1070
   279
1070
     1
1070
   288
1070
     1
1002
}
  0
DIMENSION
  5
CDC9
330
20
100
AcDbEntity
  8
30100_Drilling_DIM
  6
Continuous
 62
     7
370
    13
100
AcDbDimension
  2
*D11
 10
11.14634193535954
 20
572.1218029383655
 30
0.0
 11
22.93800860202621
 21
572.1218029383655
 31
0.0
 70
    32
 71
     5
 42
3.190731933864094
  3
DSTYLE1
100
AcDbAlignedDimension
 13
7.95561000149545
 23
565.2780075529509
 33
0.0
 14
11.14634193535954
 24
565.2667446310853
 34
0.0
100
AcDbRotatedDimension
1001
ACAD
1000
DSTYLE
1002
{
1070
    41
1040
3.5
1070
    42
1040
1.0
1070
    43
1040
1.0
1070
    47
1040
0.005
1070
    48
1040
-0.005
1070
    77
1070
     0
1070
    78
1070
     0
1070
   140
1040
3.5
1070
   143
1040
25.4
1070
   171
1070
     0
1070
   172
1070
     1
1070
   271
1070
     1
1070
   272
1070
     1
1070
   277
1070
     6
1070
   279
1070
     0
1002
}
  0
DIMENSION
  5
CDE8
330
20
100
AcDbEntity
  8
30100_Drilling_DIM
  6
Continuous
 62
     7
370
    13
100
AcDbDimension
  2
*D12
 10
31.82589516025826
 20
565.2667446310853
 30
0.0
 11
31.82589516025818
 21
553.2304667147142
 31
0.0
 70
    32
 71
     5
 42
24.07255583274173
  3
DSTYLE1
100
AcDbAlignedDimension
 13
10.55096083343306
 23
541.1941887983434
 33
0.0
 14
11.14634193535954
 24
565.2667446310853
 34
0.0
 50
90.0
100
AcDbRotatedDimension
1001
ACAD
1000
DSTYLE
1002
{
1070
    41
1040
3.5
1070
    42
1040
1.0
1070
    43
1040
1.0
1070
    47
1040
0.005
1070
    48
1040
-0.005
1070
    77
1070
     0
1070
    78
1070
     0
1070
   140
1040
3.5
1070
   143
1040
25.4
1070
   171
1070
     0
1070
   172
1070
     1
1070
   271
1070
     1
1070
   272
1070
     1
1070
   277
1070
     6
1070
   279
1070
     0
1002
}
  0
DIMENSION
  5
CDF5
330
20
100
AcDbEntity
  8
30100_Drilling_DIM
  6
Continuous
 62
     7
370
    13
100
AcDbDimension
  2
*D13
 10
20.02415601607089
 20
556.5008810297748
 30
0.0
 11
-12.72860338570902
 21
543.7717186650099
 31
0.0
 70
    35
 71
     5
 42
22.4726962037588
  3
DSTYLE1
100
AcDbDiametricDimension
 15
-0.9222343492047572
 25
548.3601927706704
 35
0.0
 40
0.0
1001
ACAD
1000
DSTYLE
1002
{
1070
    41
1040
3.5
1070
    42
1040
1.0
1070
    43
1040
1.0
1070
    47
1040
0.005
1070
    48
1040
-0.005
1070
    77
1070
     0
1070
    78
1070
     0
1070
   140
1040
3.5
1070
   143
1040
25.4
1070
   171
1070
     0
1070
   172
1070
     1
1070
   271
1070
     0
1070
   272
1070
     1
1070
   277
1070
     6
1070
   279
1070
     0
1002
}
  0
ENDSEC
  0
SECTION
  2
OBJECTS
  0
DICTIONARY
  5
C
330
0
100
AcDbDictionary
281
     1
  3
ACAD_COLOR
350
1B
  3
ACAD_GROUP
350
D
  3
ACAD_LAYOUT
350
19
  3
ACAD_MATERIAL
350
1A
  3
ACAD_MLINESTYLE
350
16
  3
ACAD_PLOTSETTINGS
350
18
  3
ACAD_PLOTSTYLENAME
350
E
  3
ACDBHEADERROUNDTRIPXREC
350
CE4C
  3
AcDbVariableDictionary
350
687E
  3
DWGPROPS
350
CE4B
  0
DICTIONARY
  5
1B
102
{ACAD_REACTORS
330
C
102
}
330
C
100
AcDbDictionary
281
     1
  0
DICTIONARY
  5
D
102
{ACAD_REACTORS
330
C
102
}
330
C
100
AcDbDictionary
281
     1
  0
DICTIONARY
  5
19
102
{ACAD_REACTORS
330
C
102
}
330
C
100
AcDbDictionary
281
     1
  3
Layout1
350
1F
  3
Model
350
23
  0
DICTIONARY
  5
1A
102
{ACAD_REACTORS
330
C
102
}
330
C
100
AcDbDictionary
281
     1
  0
DICTIONARY
  5
16
102
{ACAD_REACTORS
330
C
102
}
330
C
100
AcDbDictionary
281
     1
  3
Standard
350
17
  0
DICTIONARY
  5
18
102
{ACAD_REACTORS
330
C
102
}
330
C
100
AcDbDictionary
281
     1
  0
ACDBDICTIONARYWDFLT
  5
E
102
{ACAD_REACTORS
330
C
102
}
330
C
100
AcDbDictionary
281
     1
  3
Normal
350
F
100
AcDbDictionaryWithDefault
340
F
  0
DICTIONARY
  5
CE4C
102
{ACAD_REACTORS
330
C
102
}
330
C
100
AcDbDictionary
281
     1
  3
COLORDICT
350
CE4E
  3
MATERIALDICT
350
CE4D
  0
DICTIONARY
  5
687E
102
{ACAD_REACTORS
330
C
102
}
330
C
100
AcDbDictionary
281
     1
  3
DIMASSOC
350
687F
  3
PROJECTNAME
350
6880
  0
XRECORD
  5
CE4B
102
{ACAD_REACTORS
330
C
102
}
330
C
100
AcDbXrecord
280
     1
  1
DWGPROPS COOKIE
  2

  3

  4

  6

  7

  8

  9

300
=
301
=
302
=
303
=
304
=
305
=
306
=
307
=
308
=
309
=
 40
2.512884016203703
 41
2452829.417613079
 42
2453423.652375313
  1

 90
        0
  0
LAYOUT
  5
1F
102
{ACAD_XDICTIONARY
360
CE4F
102
}
102
{ACAD_REACTORS
330
19
102
}
330
19
100
AcDbPlotSettings
  1

  2
HP LaserJet 5000 Series PS
  4

  6

 40
0.0
 41
0.0
 42
0.0
 43
0.0
 44
0.0
 45
0.0
 46
0.0
 47
0.0
 48
0.0
 49
0.0
140
0.0
141
0.0
142
1.0
143
1.0
 70
   688
 72
     0
 73
     0
 74
     5
  7
monochrome.ctb
 75
    16
147
1.0
148
0.0
149
0.0
100
AcDbLayout
  1
Layout1
 70
     1
 71
     1
 10
0.0
 20
0.0
 11
12.0
 21
9.0
 12
0.0
 22
0.0
 32
0.0
 14
1.000000000000000E+20
 24
1.000000000000000E+20
 34
1.000000000000000E+20
 15
-1.000000000000000E+20
 25
-1.000000000000000E+20
 35
-1.000000000000000E+20
146
0.0
 13
0.0
 23
0.0
 33
0.0
 16
1.0
 26
0.0
 36
0.0
 17
0.0
 27
1.0
 37
0.0
 76
     0
330
1C
  0
LAYOUT
  5
23
102
{ACAD_XDICTIONARY
360
CE51
102
}
102
{ACAD_REACTORS
330
19
102
}
330
19
100
AcDbPlotSettings
  1

  2
\\AMBW779A\A_P00873 (Canon iR2200-3300 PCL6)
  4
A3
  6

 40
4.815416812896728
 41
4.815412044525146
 42
4.815399169921875
 43
4.8154296875
 44
296.9259948730469
 45
419.9466552734373
 46
0.0
 47
0.0
 48
0.0
 49
0.0
140
0.0
141
0.0
142
1.0
143
1.0
 70
 11952
 72
     1
 73
     1
 74
     1
  7
monochrome.ctb
 75
    16
147
1.0
148
70.63452567741513
149
-494.2267073231498
100
AcDbLayout
  1
Model
 70
     1
 71
     0
 10
0.0
 20
0.0
 11
12.0
 21
9.0
 12
0.0
 22
0.0
 32
0.0
 14
0.0
 24
0.0
 34
0.0
 15
0.0
 25
0.0
 35
0.0
146
0.0
 13
0.0
 23
0.0
 33
0.0
 16
1.0
 26
0.0
 36
0.0
 17
0.0
 27
1.0
 37
0.0
 76
     0
330
20
  0
MLINESTYLE
  5
17
102
{ACAD_REACTORS
330
16
102
}
330
16
100
AcDbMlineStyle
  2
STANDARD
 70
     0
  3

 62
   256
 51
90.0
 52
90.0
 71
     2
 49
0.5
 62
   256
  6
BYLAYER
 49
-0.5
 62
   256
  6
BYLAYER
  0
ACDBPLACEHOLDER
  5
F
102
{ACAD_REACTORS
330
E
102
}
330
E
  0
XRECORD
  5
CE4E
102
{ACAD_REACTORS
330
CE4C
102
}
330
CE4C
100
AcDbXrecord
280
     1
340
1B
  0
XRECORD
  5
CE4D
102
{ACAD_REACTORS
330
CE4C
102
}
330
CE4C
100
AcDbXrecord
280
     1
340
1A
  0
DICTIONARYVAR
  5
687F
102
{ACAD_REACTORS
330
687E
102
}
330
687E
100
DictionaryVariables
280
     0
  1
1
  0
DICTIONARYVAR
  5
6880
102
{ACAD_REACTORS
330
687E
102
}
330
687E
100
DictionaryVariables
280
     0
  1

  0
DICTIONARY
  5
CE4F
330
1F
100
AcDbDictionary
280
     1
281
     1
  3
ACAD_XREC_ROUNDTRIP
360
CE50
  0
DICTIONARY
  5
CE51
330
23
100
AcDbDictionary
280
     1
281
     1
  3
ACAD_XREC_ROUNDTRIP
360
CE52
  0
XRECORD
  5
CE50
102
{ACAD_REACTORS
330
CE4F
102
}
330
CE4F
100
AcDbXrecord
280
     1
102
SHADEPLOT
 70
     0
102
SHADEPLOTRESLEVEL
 70
     2
102
SHADEPLOTCUSTOMDPI
 70
   300
  0
XRECORD
  5
CE52
102
{ACAD_REACTORS
330
CE51
102
}
330
CE51
100
AcDbXrecord
280
     1
102
SHADEPLOT
 70
     1
102
SHADEPLOTRESLEVEL
 70
     2
102
SHADEPLOTCUSTOMDPI
 70
   300
  0
ENDSEC
  0
EOF
