  0
SECTION
  2
HEADER
  9
$ACADVER
  1
AC1015
  9
$ACADMAINTVER
 70
    20
  9
$DWGCODEPAGE
  3
ANSI_1252
  9
$INSBASE
 10
0.0
 20
0.0
 30
0.0
  9
$EXTMIN
 10
50.70407190004551
 20
59.49685829621794
 30
0.0
  9
$EXTMAX
 10
250.7040719000454
 20
329.4968582962179
 30
0.0
  9
$LIMMIN
 10
0.0
 20
0.0
  9
$LIMMAX
 10
420.0
 20
297.0
  9
$ORTHOMODE
 70
     0
  9
$REGENMODE
 70
     1
  9
$FILLMODE
 70
     1
  9
$QTEXTMODE
 70
     0
  9
$MIRRTEXT
 70
     0
  9
$LTSCALE
 40
1.0
  9
$ATTMODE
 70
     1
  9
$TEXTSIZE
 40
2.5
  9
$TRACEWID
 40
1.0
  9
$TEXTSTYLE
  7
Standard
  9
$CLAYER
  8
11100_Left_Dim
  9
$CELTYPE
  6
Continuous
  9
$CECOLOR
 62
     7
  9
$CELTSCALE
 40
1.0
  9
$DISPSILH
 70
     0
  9
$DIMSCALE
 40
1.0
  9
$DIMASZ
 40
2.5
  9
$DIMEXO
 40
0.625
  9
$DIMDLI
 40
3.75
  9
$DIMRND
 40
0.0
  9
$DIMDLE
 40
0.0
  9
$DIMEXE
 40
1.25
  9
$DIMTP
 40
0.0
  9
$DIMTM
 40
0.0
  9
$DIMTXT
 40
2.5
  9
$DIMCEN
 40
2.5
  9
$DIMTSZ
 40
0.0
  9
$DIMTOL
 70
     0
  9
$DIMLIM
 70
     0
  9
$DIMTIH
 70
     0
  9
$DIMTOH
 70
     0
  9
$DIMSE1
 70
     0
  9
$DIMSE2
 70
     0
  9
$DIMTAD
 70
     1
  9
$DIMZIN
 70
     8
  9
$DIMBLK
  1

  9
$DIMASO
 70
     1
  9
$DIMSHO
 70
     1
  9
$DIMPOST
  1

  9
$DIMAPOST
  1

  9
$DIMALT
 70
     0
  9
$DIMALTD
 70
     3
  9
$DIMALTF
 40
0.03937007874016
  9
$DIMLFAC
 40
1.0
  9
$DIMTOFL
 70
     1
  9
$DIMTVP
 40
0.0
  9
$DIMTIX
 70
     0
  9
$DIMSOXD
 70
     0
  9
$DIMSAH
 70
     0
  9
$DIMBLK1
  1

  9
$DIMBLK2
  1

  9
$DIMSTYLE
  2
ISO-25
  9
$DIMCLRD
 70
     0
  9
$DIMCLRE
 70
     0
  9
$DIMCLRT
 70
     0
  9
$DIMTFAC
 40
1.0
  9
$DIMGAP
 40
0.625
  9
$DIMJUST
 70
     0
  9
$DIMSD1
 70
     0
  9
$DIMSD2
 70
     0
  9
$DIMTOLJ
 70
     0
  9
$DIMTZIN
 70
     8
  9
$DIMALTZ
 70
     0
  9
$DIMALTTZ
 70
     0
  9
$DIMUPT
 70
     0
  9
$DIMDEC
 70
     2
  9
$DIMTDEC
 70
     2
  9
$DIMALTU
 70
     2
  9
$DIMALTTD
 70
     3
  9
$DIMTXSTY
  7
Standard
  9
$DIMAUNIT
 70
     0
  9
$DIMADEC
 70
     0
  9
$DIMALTRND
 40
0.0
  9
$DIMAZIN
 70
     0
  9
$DIMDSEP
 70
    44
  9
$DIMATFIT
 70
     3
  9
$DIMFRAC
 70
     0
  9
$DIMLDRBLK
  1

  9
$DIMLUNIT
 70
     2
  9
$DIMLWD
 70
    -2
  9
$DIMLWE
 70
    -2
  9
$DIMTMOVE
 70
     0
  9
$LUNITS
 70
     2
  9
$LUPREC
 70
     4
  9
$SKETCHINC
 40
1.0
  9
$FILLETRAD
 40
10.0
  9
$AUNITS
 70
     0
  9
$AUPREC
 70
     0
  9
$MENU
  1
.
  9
$ELEVATION
 40
0.0
  9
$PELEVATION
 40
0.0
  9
$THICKNESS
 40
0.0
  9
$LIMCHECK
 70
     0
  9
$CHAMFERA
 40
10.0
  9
$CHAMFERB
 40
10.0
  9
$CHAMFERC
 40
20.0
  9
$CHAMFERD
 40
0.0
  9
$SKPOLY
 70
     0
  9
$TDCREATE
 40
2453634.328971389
  9
$TDUCREATE
 40
2453634.245638056
  9
$TDUPDATE
 40
2453976.650916297
  9
$TDUUPDATE
 40
2453976.567582963
  9
$TDINDWG
 40
0.5567707639
  9
$TDUSRTIMER
 40
0.5567680440
  9
$USRTIMER
 70
     1
  9
$ANGBASE
 50
0.0
  9
$ANGDIR
 70
     0
  9
$PDMODE
 70
     0
  9
$PDSIZE
 40
0.0
  9
$PLINEWID
 40
0.0
  9
$SPLFRAME
 70
     0
  9
$SPLINETYPE
 70
     6
  9
$SPLINESEGS
 70
     8
  9
$HANDSEED
  5
98C5
  9
$SURFTAB1
 70
     6
  9
$SURFTAB2
 70
     6
  9
$SURFTYPE
 70
     6
  9
$SURFU
 70
     6
  9
$SURFV
 70
     6
  9
$UCSBASE
  2

  9
$UCSNAME
  2

  9
$UCSORG
 10
0.0
 20
0.0
 30
0.0
  9
$UCSXDIR
 10
1.0
 20
0.0
 30
0.0
  9
$UCSYDIR
 10
0.0
 20
1.0
 30
0.0
  9
$UCSORTHOREF
  2

  9
$UCSORTHOVIEW
 70
     0
  9
$UCSORGTOP
 10
0.0
 20
0.0
 30
0.0
  9
$UCSORGBOTTOM
 10
0.0
 20
0.0
 30
0.0
  9
$UCSORGLEFT
 10
0.0
 20
0.0
 30
0.0
  9
$UCSORGRIGHT
 10
0.0
 20
0.0
 30
0.0
  9
$UCSORGFRONT
 10
0.0
 20
0.0
 30
0.0
  9
$UCSORGBACK
 10
0.0
 20
0.0
 30
0.0
  9
$PUCSBASE
  2

  9
$PUCSNAME
  2

  9
$PUCSORG
 10
0.0
 20
0.0
 30
0.0
  9
$PUCSXDIR
 10
1.0
 20
0.0
 30
0.0
  9
$PUCSYDIR
 10
0.0
 20
1.0
 30
0.0
  9
$PUCSORTHOREF
  2

  9
$PUCSORTHOVIEW
 70
     0
  9
$PUCSORGTOP
 10
0.0
 20
0.0
 30
0.0
  9
$PUCSORGBOTTOM
 10
0.0
 20
0.0
 30
0.0
  9
$PUCSORGLEFT
 10
0.0
 20
0.0
 30
0.0
  9
$PUCSORGRIGHT
 10
0.0
 20
0.0
 30
0.0
  9
$PUCSORGFRONT
 10
0.0
 20
0.0
 30
0.0
  9
$PUCSORGBACK
 10
0.0
 20
0.0
 30
0.0
  9
$USERI1
 70
     0
  9
$USERI2
 70
     0
  9
$USERI3
 70
     0
  9
$USERI4
 70
     0
  9
$USERI5
 70
     0
  9
$USERR1
 40
0.0
  9
$USERR2
 40
0.0
  9
$USERR3
 40
0.0
  9
$USERR4
 40
0.0
  9
$USERR5
 40
0.0
  9
$WORLDVIEW
 70
     1
  9
$SHADEDGE
 70
     3
  9
$SHADEDIF
 70
    70
  9
$TILEMODE
 70
     1
  9
$MAXACTVP
 70
    64
  9
$PINSBASE
 10
0.0
 20
0.0
 30
0.0
  9
$PLIMCHECK
 70
     0
  9
$PEXTMIN
 10
0.0
 20
0.0
 30
0.0
  9
$PEXTMAX
 10
0.0
 20
0.0
 30
0.0
  9
$PLIMMIN
 10
0.0
 20
0.0
  9
$PLIMMAX
 10
12.0
 20
9.0
  9
$UNITMODE
 70
     0
  9
$VISRETAIN
 70
     1
  9
$PLINEGEN
 70
     0
  9
$PSLTSCALE
 70
     1
  9
$TREEDEPTH
 70
  3020
  9
$CMLSTYLE
  2
Standard
  9
$CMLJUST
 70
     0
  9
$CMLSCALE
 40
20.0
  9
$PROXYGRAPHICS
 70
     1
  9
$MEASUREMENT
 70
     1
  9
$CELWEIGHT
370
    13
  9
$ENDCAPS
280
     0
  9
$JOINSTYLE
280
     0
  9
$LWDISPLAY
290
     0
  9
$INSUNITS
 70
     4
  9
$HYPERLINKBASE
  1

  9
$STYLESHEET
  1

  9
$XEDIT
290
     1
  9
$CEPSNTYPE
380
     0
  9
$PSTYLEMODE
290
     1
  9
$FINGERPRINTGUID
  2
{FDEAD578-A652-11D2-9A35-0060089B3A3F}
  9
$VERSIONGUID
  2
{984241D7-A9E9-4EE0-AE41-0724E6EE7C43}
  9
$EXTNAMES
290
     1
  9
$PSVPSCALE
 40
0.0
  9
$OLESTARTUP
290
     0
  0
ENDSEC
  0
SECTION
  2
CLASSES
  0
CLASS
  1
ACDBDICTIONARYWDFLT
  2
AcDbDictionaryWithDefault
  3
ObjectDBX Classes
 90
        0
280
     0
281
     0
  0
CLASS
  1
DICTIONARYVAR
  2
AcDbDictionaryVar
  3
ObjectDBX Classes
 90
        0
280
     0
281
     0
  0
CLASS
  1
DIMASSOC
  2
AcDbDimAssoc
  3
"AcDbDimAssoc|Product Desc:     AcDim ARX App For Dimension|Company:          Autodesk, Inc.|WEB Address:      www.autodesk.com"
 90
        0
280
     0
281
     0
  0
CLASS
  1
ACDBPLACEHOLDER
  2
AcDbPlaceHolder
  3
ObjectDBX Classes
 90
        0
280
     0
281
     0
  0
CLASS
  1
LAYOUT
  2
AcDbLayout
  3
ObjectDBX Classes
 90
        0
280
     0
281
     0
  0
CLASS
  1
MATERIAL
  2
AcDbMaterial
  3
ObjectDBX Classes
 90
     1024
280
     0
281
     0
  0
CLASS
  1
VISUALSTYLE
  2
AcDbVisualStyle
  3
ObjectDBX Classes
 90
     4095
280
     0
281
     0
  0
CLASS
  1
TABLESTYLE
  2
AcDbTableStyle
  3
ObjectDBX Classes
 90
     4095
280
     0
281
     0
  0
ENDSEC
  0
SECTION
  2
TABLES
  0
TABLE
  2
VPORT
  5
8
330
0
100
AcDbSymbolTable
 70
     1
  0
VPORT
  5
9870
330
8
100
AcDbSymbolTableRecord
100
AcDbViewportTableRecord
  2
*Active
 70
     0
 10
0.0
 20
0.0
 11
1.0
 21
1.0
 12
176.6414164887717
 22
194.4992834913971
 13
0.0
 23
0.0
 14
10.0
 24
10.0
 15
10.0
 25
10.0
 16
0.0
 26
0.0
 36
1.0
 17
0.0
 27
0.0
 37
0.0
 40
271.7019528471559
 41
1.533470648815653
 42
50.0
 43
0.0
 44
0.0
 50
0.0
 51
0.0
 71
     0
 72
  1000
 73
     1
 74
     3
 75
     0
 76
     0
 77
     0
 78
     0
281
     0
 65
     1
110
0.0
120
0.0
130
0.0
111
1.0
121
0.0
131
0.0
112
0.0
122
1.0
132
0.0
 79
     0
146
0.0
  0
ENDTAB
  0
TABLE
  2
LTYPE
  5
5
330
0
100
AcDbSymbolTable
 70
     2
  0
LTYPE
  5
14
330
5
100
AcDbSymbolTableRecord
100
AcDbLinetypeTableRecord
  2
ByBlock
 70
     0
  3

 72
    65
 73
     0
 40
0.0
  0
LTYPE
  5
15
330
5
100
AcDbSymbolTableRecord
100
AcDbLinetypeTableRecord
  2
ByLayer
 70
     0
  3

 72
    65
 73
     0
 40
0.0
  0
LTYPE
  5
16
330
5
100
AcDbSymbolTableRecord
100
AcDbLinetypeTableRecord
  2
Continuous
 70
     0
  3
Solid line
 72
    65
 73
     0
 40
0.0
  0
LTYPE
  5
593
330
5
100
AcDbSymbolTableRecord
100
AcDbLinetypeTableRecord
  2
CENTER
 70
     0
  3
____ _ ____ _ ____ _ ____ _ ____ _ ____ _ ____
 72
    65
 73
     4
 40
2.0
 49
1.25
 74
     0
 49
-0.25
 74
     0
 49
0.25
 74
     0
 49
-0.25
 74
     0
  0
ENDTAB
  0
TABLE
  2
LAYER
  5
2
102
{ACAD_XDICTIONARY
360
9897
102
}
330
0
100
AcDbSymbolTable
 70
     8
  0
LAYER
  5
10
330
2
100
AcDbSymbolTableRecord
100
AcDbLayerTableRecord
  2
0
 70
     0
 62
     7
  6
Continuous
370
    -3
390
F
  0
LAYER
  5
173
330
2
100
AcDbSymbolTableRecord
100
AcDbLayerTableRecord
  2
Defpoints
 70
     0
 62
     7
  6
Continuous
290
     0
370
    -3
390
F
  0
LAYER
  5
40C
330
2
100
AcDbSymbolTableRecord
100
AcDbLayerTableRecord
  2
11000_Left
 70
     0
 62
     7
  6
Continuous
370
    -3
390
F
  0
LAYER
  5
594
330
2
100
AcDbSymbolTableRecord
100
AcDbLayerTableRecord
  2
90000_FRAME
 70
     0
 62
     7
  6
Continuous
370
    -3
390
F
  0
LAYER
  5
595
330
2
100
AcDbSymbolTableRecord
100
AcDbLayerTableRecord
  2
91000_TIP
 70
     0
 62
     7
  6
Continuous
370
    -3
390
F
  0
LAYER
  5
91F
330
2
100
AcDbSymbolTableRecord
100
AcDbLayerTableRecord
  2
10000_Front
 70
     0
 62
     7
  6
Continuous
370
    -3
390
F
  0
LAYER
  5
1A7C
330
2
100
AcDbSymbolTableRecord
100
AcDbLayerTableRecord
  2
11100_Left_Dim
 70
     0
 62
     7
  6
Continuous
370
    -3
390
F
  0
LAYER
  5
9895
330
2
100
AcDbSymbolTableRecord
100
AcDbLayerTableRecord
  2
10100_Front_Dim
 70
     0
 62
     7
  6
Continuous
370
    -3
390
F
1001
AcAecLayerStandard
1000

1000

  0
ENDTAB
  0
TABLE
  2
STYLE
  5
3
330
0
100
AcDbSymbolTable
 70
     1
  0
STYLE
  5
11
330
3
100
AcDbSymbolTableRecord
100
AcDbTextStyleTableRecord
  2
Standard
 70
     0
 40
0.0
 41
1.0
 50
0.0
 71
     0
 42
2.5
  3
txt
  4

  0
ENDTAB
  0
TABLE
  2
VIEW
  5
6
330
0
100
AcDbSymbolTable
 70
     0
  0
ENDTAB
  0
TABLE
  2
UCS
  5
7
330
0
100
AcDbSymbolTable
 70
     0
  0
ENDTAB
  0
TABLE
  2
APPID
  5
9
330
0
100
AcDbSymbolTable
 70
     4
  0
APPID
  5
12
330
9
100
AcDbSymbolTableRecord
100
AcDbRegAppTableRecord
  2
ACAD
 70
     0
  0
APPID
  5
2C5A
330
9
100
AcDbSymbolTableRecord
100
AcDbRegAppTableRecord
  2
AUSTER_ANSICHT
 70
     0
  0
APPID
  5
2C5B
330
9
100
AcDbSymbolTableRecord
100
AcDbRegAppTableRecord
  2
AUSTER_FOLIE
 70
     0
  0
APPID
  5
9896
330
9
100
AcDbSymbolTableRecord
100
AcDbRegAppTableRecord
  2
AcAecLayerStandard
 70
     0
  0
ENDTAB
  0
TABLE
  2
DIMSTYLE
  5
A
330
0
100
AcDbSymbolTable
 70
     3
100
AcDbDimStyleTable
 71
     2
340
40E
340
27
  0
DIMSTYLE
105
27
330
A
100
AcDbSymbolTableRecord
100
AcDbDimStyleTableRecord
  2
ISO-25
 70
     0
 41
2.5
 42
0.625
 43
3.75
 44
1.25
 73
     0
 74
     0
 77
     1
 78
     8
140
2.5
141
2.5
143
0.03937007874016
147
0.625
171
     3
172
     1
271
     2
272
     2
274
     3
278
    44
283
     0
284
     8
340
11
  0
DIMSTYLE
105
40E
102
{ACAD_REACTORS
330
9796
330
977E
330
9766
102
}
330
A
100
AcDbSymbolTableRecord
100
AcDbDimStyleTableRecord
  2
H035
 70
     0
 40
0.0
 41
2.5
 42
0.0
 43
3.75
 44
2.0
 73
     0
 74
     0
 77
     1
 78
     8
140
5.0
141
2.5
143
0.0394
147
1.0
171
     4
172
     1
176
   256
177
   256
178
     2
271
     0
272
     2
273
     8
274
     4
277
     6
340
11
  0
DIMSTYLE
105
2C59
330
A
100
AcDbSymbolTableRecord
100
AcDbDimStyleTableRecord
  2
STANDARD
 70
     0
 41
0.125
 43
0.25
 44
0.125
 47
0.005
 48
-0.005
140
3.0
147
0.0625
171
     0
172
     1
271
     3
272
     3
274
     0
279
     2
340
11
  0
ENDTAB
  0
TABLE
  2
BLOCK_RECORD
  5
1
330
0
100
AcDbSymbolTable
 70
     5
  0
BLOCK_RECORD
  5
1F
330
1
100
AcDbSymbolTableRecord
100
AcDbBlockTableRecord
  2
*Model_Space
340
22
  0
BLOCK_RECORD
  5
50
330
1
100
AcDbSymbolTableRecord
100
AcDbBlockTableRecord
  2
*Paper_Space
340
51
  0
BLOCK_RECORD
  5
55
330
1
100
AcDbSymbolTableRecord
100
AcDbBlockTableRecord
  2
*Paper_Space0
340
56
  0
BLOCK_RECORD
  5
528
330
1
100
AcDbSymbolTableRecord
100
AcDbBlockTableRecord
  2
SIEMENS_OUTLINE_BL0
340
0
102
{BLKREFS
331
5CB
102
}
  0
BLOCK_RECORD
  5
9767
330
1
100
AcDbSymbolTableRecord
100
AcDbBlockTableRecord
  2
*D2
340
0
  0
BLOCK_RECORD
  5
977F
330
1
100
AcDbSymbolTableRecord
100
AcDbBlockTableRecord
  2
*D3
340
0
  0
BLOCK_RECORD
  5
9797
330
1
100
AcDbSymbolTableRecord
100
AcDbBlockTableRecord
  2
*D4
340
0
  0
ENDTAB
  0
ENDSEC
  0
SECTION
  2
BLOCKS
  0
BLOCK
  5
20
330
1F
100
AcDbEntity
  8
0
100
AcDbBlockBegin
  2
*Model_Space
 70
     0
 10
0.0
 20
0.0
 30
0.0
  3
*Model_Space
  1

  0
ENDBLK
  5
21
330
1F
100
AcDbEntity
  8
0
100
AcDbBlockEnd
  0
BLOCK
  5
52
330
50
100
AcDbEntity
 67
     1
  8
0
100
AcDbBlockBegin
  2
*Paper_Space
 70
     0
 10
0.0
 20
0.0
 30
0.0
  3
*Paper_Space
  1

  0
ENDBLK
  5
53
330
50
100
AcDbEntity
 67
     1
  8
0
100
AcDbBlockEnd
  0
BLOCK
  5
57
330
55
100
AcDbEntity
 67
     1
  8
0
100
AcDbBlockBegin
  2
*Paper_Space0
 70
     0
 10
0.0
 20
0.0
 30
0.0
  3
*Paper_Space0
  1

  0
ENDBLK
  5
58
330
55
100
AcDbEntity
 67
     1
  8
0
100
AcDbBlockEnd
  0
BLOCK
  5
529
330
528
100
AcDbEntity
  8
0
  6
Continuous
 62
     7
100
AcDbBlockBegin
  2
SIEMENS_OUTLINE_BL0
 70
     0
 10
0.0
 20
0.0
 30
0.0
  3
SIEMENS_OUTLINE_BL0
  1

  0
LINE
  5
52A
330
528
100
AcDbEntity
  8
0
  6
Continuous
 62
     7
100
AcDbLine
 10
79.186200508
 20
21.4145478991
 30
0.0
 11
79.186200508
 21
16.6612788158
 31
0.0
  0
LINE
  5
52B
330
528
100
AcDbEntity
  8
0
  6
Continuous
 62
     7
100
AcDbLine
 10
80.61218123299999
 20
21.4145478991
 30
0.0
 11
80.61218123299999
 21
16.6612788158
 31
0.0
  0
LINE
  5
52C
330
528
100
AcDbEntity
  8
0
  6
Continuous
 62
     7
100
AcDbLine
 10
79.186200508
 20
16.6612788158
 30
0.0
 11
80.61218123299999
 21
16.6612788158
 31
0.0
  0
LINE
  5
52D
330
528
100
AcDbEntity
  8
0
  6
Continuous
 62
     7
100
AcDbLine
 10
79.186200508
 20
21.4145478991
 30
0.0
 11
80.61218123299999
 21
21.4145478991
 31
0.0
  0
LINE
  5
52E
330
528
100
AcDbEntity
  8
0
  6
Continuous
 62
     7
100
AcDbLine
 10
81.7054331221
 20
21.4145478991
 30
0.0
 11
81.7054331221
 21
16.6612788158
 31
0.0
  0
LINE
  5
52F
330
528
100
AcDbEntity
  8
0
  6
Continuous
 62
     7
100
AcDbLine
 10
81.7054331221
 20
16.6612788158
 30
0.0
 11
85.2703849346
 21
16.6612788158
 31
0.0
  0
LINE
  5
530
330
528
100
AcDbEntity
  8
0
  6
Continuous
 62
     7
100
AcDbLine
 10
85.2703849346
 20
17.5643999417
 30
0.0
 11
83.0838811563
 21
17.5643999417
 31
0.0
  0
LINE
  5
531
330
528
100
AcDbEntity
  8
0
  6
Continuous
 62
     7
100
AcDbLine
 10
85.2703849346
 20
17.5643999417
 30
0.0
 11
85.2703849346
 21
16.6612788158
 31
0.0
  0
LINE
  5
532
330
528
100
AcDbEntity
  8
0
  6
Continuous
 62
     7
100
AcDbLine
 10
85.2228522438
 20
21.4145478991
 30
0.0
 11
81.7054331221
 21
21.4145478991
 31
0.0
  0
LINE
  5
533
330
528
100
AcDbEntity
  8
0
  6
Continuous
 62
     7
100
AcDbLine
 10
85.2228522438
 20
20.5351931187
 30
0.0
 11
83.0838811563
 21
20.5351931187
 31
0.0
  0
LINE
  5
534
330
528
100
AcDbEntity
  8
0
  6
Continuous
 62
     7
100
AcDbLine
 10
85.2228522438
 20
21.4145478991
 30
0.0
 11
85.2228522438
 21
20.5351931187
 31
0.0
  0
LINE
  5
535
330
528
100
AcDbEntity
  8
0
  6
Continuous
 62
     7
100
AcDbLine
 10
84.9376560988
 20
18.68141817619999
 30
0.0
 11
83.0838811563
 21
18.68141817619999
 31
0.0
  0
LINE
  5
536
330
528
100
AcDbEntity
  8
0
  6
Continuous
 62
     7
100
AcDbLine
 10
84.9376560988
 20
19.465707575
 30
0.0
 11
84.9376560988
 21
18.68141817619999
 31
0.0
  0
LINE
  5
537
330
528
100
AcDbEntity
  8
0
  6
Continuous
 62
     7
100
AcDbLine
 10
84.9376560988
 20
19.465707575
 30
0.0
 11
83.0838811563
 21
19.465707575
 31
0.0
  0
LINE
  5
538
330
528
100
AcDbEntity
  8
0
  6
Continuous
 62
     7
100
AcDbLine
 10
83.0838811563
 20
20.5351931187
 30
0.0
 11
83.0838811563
 21
19.465707575
 31
0.0
  0
LINE
  5
539
330
528
100
AcDbEntity
  8
0
  6
Continuous
 62
     7
100
AcDbLine
 10
83.0838811563
 20
18.68141817619999
 30
0.0
 11
83.0838811563
 21
17.5643999417
 31
0.0
  0
LINE
  5
53A
330
528
100
AcDbEntity
  8
0
  6
Continuous
 62
     7
100
AcDbLine
 10
86.0784406788
 20
16.6612788158
 30
0.0
 11
86.0784406788
 21
21.4145478991
 31
0.0
  0
LINE
  5
53B
330
528
100
AcDbEntity
  8
0
  6
Continuous
 62
     7
100
AcDbLine
 10
86.0784406788
 20
16.6612788158
 30
0.0
 11
87.02909449539999
 21
16.6612788158
 31
0.0
  0
LINE
  5
53C
330
528
100
AcDbEntity
  8
0
  6
Continuous
 62
     7
100
AcDbLine
 10
91.92496165120001
 20
21.4145478991
 30
0.0
 11
91.92496165120001
 21
16.6612788158
 31
0.0
  0
LINE
  5
53D
330
528
100
AcDbEntity
  8
0
  6
Continuous
 62
     7
100
AcDbLine
 10
91.92496165120001
 20
16.6612788158
 30
0.0
 11
90.54651361700001
 21
16.6612788158
 31
0.0
  0
LINE
  5
53E
330
528
100
AcDbEntity
  8
0
  6
Continuous
 62
     7
100
AcDbLine
 10
88.3600098387
 20
16.613746125
 30
0.0
 11
89.21559827370002
 21
16.613746125
 31
0.0
  0
LINE
  5
53F
330
528
100
AcDbEntity
  8
0
  6
Continuous
 62
     7
100
AcDbLine
 10
88.3600098387
 20
16.613746125
 30
0.0
 11
87.02909449539999
 21
19.7033710291
 31
0.0
  0
LINE
  5
540
330
528
100
AcDbEntity
  8
0
  6
Continuous
 62
     7
100
AcDbLine
 10
87.02909449539999
 20
16.6612788158
 30
0.0
 11
87.02909449539999
 21
19.7033710291
 31
0.0
  0
LINE
  5
541
330
528
100
AcDbEntity
  8
0
  6
Continuous
 62
     7
100
AcDbLine
 10
90.54651361700001
 20
19.75090372
 30
0.0
 11
89.21559827370002
 21
16.613746125
 31
0.0
  0
LINE
  5
542
330
528
100
AcDbEntity
  8
0
  6
Continuous
 62
     7
100
AcDbLine
 10
87.78961754870001
 20
21.4145478991
 30
0.0
 11
86.0784406788
 21
21.4145478991
 31
0.0
  0
LINE
  5
543
330
528
100
AcDbEntity
  8
0
  6
Continuous
 62
     7
100
AcDbLine
 10
91.92496165120001
 20
21.4145478991
 30
0.0
 11
90.2137847812
 21
21.4145478991
 31
0.0
  0
LINE
  5
544
330
528
100
AcDbEntity
  8
0
  6
Continuous
 62
     7
100
AcDbLine
 10
87.78961754870001
 20
21.4145478991
 30
0.0
 11
89.0254675104
 21
18.5150537583
 31
0.0
  0
LINE
  5
545
330
528
100
AcDbEntity
  8
0
  6
Continuous
 62
     7
100
AcDbLine
 10
90.2137847812
 20
21.4145478991
 30
0.0
 11
89.0254675104
 21
18.5150537583
 31
0.0
  0
LINE
  5
546
330
528
100
AcDbEntity
  8
0
  6
Continuous
 62
     7
100
AcDbLine
 10
90.54651361700001
 20
19.75090372
 30
0.0
 11
90.54651361700001
 21
16.6612788158
 31
0.0
  0
LINE
  5
547
330
528
100
AcDbEntity
  8
0
  6
Continuous
 62
     7
100
AcDbLine
 10
93.01821354030002
 20
21.4145478991
 30
0.0
 11
93.01821354030002
 21
16.6612788158
 31
0.0
  0
LINE
  5
548
330
528
100
AcDbEntity
  8
0
  6
Continuous
 62
     7
100
AcDbLine
 10
93.01821354030002
 20
16.6612788158
 30
0.0
 11
96.5831653528
 21
16.6612788158
 31
0.0
  0
LINE
  5
549
330
528
100
AcDbEntity
  8
0
  6
Continuous
 62
     7
100
AcDbLine
 10
96.5831653528
 20
17.5643999417
 30
0.0
 11
94.3966615745
 21
17.5643999417
 31
0.0
  0
LINE
  5
54A
330
528
100
AcDbEntity
  8
0
  6
Continuous
 62
     7
100
AcDbLine
 10
96.5831653528
 20
17.5643999417
 30
0.0
 11
96.5831653528
 21
16.6612788158
 31
0.0
  0
LINE
  5
54B
330
528
100
AcDbEntity
  8
0
  6
Continuous
 62
     7
100
AcDbLine
 10
96.53563266200002
 20
21.4145478991
 30
0.0
 11
93.01821354030002
 21
21.4145478991
 31
0.0
  0
LINE
  5
54C
330
528
100
AcDbEntity
  8
0
  6
Continuous
 62
     7
100
AcDbLine
 10
96.53563266200002
 20
20.5351931187
 30
0.0
 11
94.3966615745
 21
20.5351931187
 31
0.0
  0
LINE
  5
54D
330
528
100
AcDbEntity
  8
0
  6
Continuous
 62
     7
100
AcDbLine
 10
96.53563266200002
 20
21.4145478991
 30
0.0
 11
96.53563266200002
 21
20.5351931187
 31
0.0
  0
LINE
  5
54E
330
528
100
AcDbEntity
  8
0
  6
Continuous
 62
     7
100
AcDbLine
 10
96.25043651700002
 20
18.68141817619999
 30
0.0
 11
94.3966615745
 21
18.68141817619999
 31
0.0
  0
LINE
  5
54F
330
528
100
AcDbEntity
  8
0
  6
Continuous
 62
     7
100
AcDbLine
 10
96.25043651700002
 20
19.465707575
 30
0.0
 11
96.25043651700002
 21
18.68141817619999
 31
0.0
  0
LINE
  5
550
330
528
100
AcDbEntity
  8
0
  6
Continuous
 62
     7
100
AcDbLine
 10
96.25043651700002
 20
19.465707575
 30
0.0
 11
94.3966615745
 21
19.465707575
 31
0.0
  0
LINE
  5
551
330
528
100
AcDbEntity
  8
0
  6
Continuous
 62
     7
100
AcDbLine
 10
94.3966615745
 20
20.5351931187
 30
0.0
 11
94.3966615745
 21
19.465707575
 31
0.0
  0
LINE
  5
552
330
528
100
AcDbEntity
  8
0
  6
Continuous
 62
     7
100
AcDbLine
 10
94.3966615745
 20
18.68141817619999
 30
0.0
 11
94.3966615745
 21
17.5643999417
 31
0.0
  0
LINE
  5
553
330
528
100
AcDbEntity
  8
0
  6
Continuous
 62
     7
100
AcDbLine
 10
97.3674547515
 20
16.6612788158
 30
0.0
 11
97.3674547515
 21
21.4145478991
 31
0.0
  0
LINE
  5
554
330
528
100
AcDbEntity
  8
0
  6
Continuous
 62
     7
100
AcDbLine
 10
101.5503315448
 20
21.4145478991
 30
0.0
 11
101.5503315448
 21
16.6612788158
 31
0.0
  0
LINE
  5
555
330
528
100
AcDbEntity
  8
0
  6
Continuous
 62
     7
100
AcDbLine
 10
97.3674547515
 20
16.6612788158
 30
0.0
 11
98.3181085682
 21
16.6612788158
 31
0.0
  0
LINE
  5
556
330
528
100
AcDbEntity
  8
0
  6
Continuous
 62
     7
100
AcDbLine
 10
101.5503315448
 20
21.4145478991
 30
0.0
 11
100.5996777282
 21
21.4145478991
 31
0.0
  0
LINE
  5
557
330
528
100
AcDbEntity
  8
0
  6
Continuous
 62
     7
100
AcDbLine
 10
98.91226720360002
 20
21.4145478991
 30
0.0
 11
97.3674547515
 21
21.4145478991
 31
0.0
  0
LINE
  5
558
330
528
100
AcDbEntity
  8
0
  6
Continuous
 62
     7
100
AcDbLine
 10
101.5503315448
 20
16.6612788158
 30
0.0
 11
100.0292854382
 21
16.6612788158
 31
0.0
  0
LINE
  5
559
330
528
100
AcDbEntity
  8
0
  6
Continuous
 62
     7
100
AcDbLine
 10
100.0292854382
 20
16.6612788158
 30
0.0
 11
98.3181085682
 21
19.7033710291
 31
0.0
  0
LINE
  5
55A
330
528
100
AcDbEntity
  8
0
  6
Continuous
 62
     7
100
AcDbLine
 10
98.91226720360002
 20
21.4145478991
 30
0.0
 11
100.5996777282
 21
18.4675210675
 31
0.0
  0
LINE
  5
55B
330
528
100
AcDbEntity
  8
0
  6
Continuous
 62
     7
100
AcDbLine
 10
100.5996777282
 20
21.4145478991
 30
0.0
 11
100.5996777282
 21
18.4675210675
 31
0.0
  0
LINE
  5
55C
330
528
100
AcDbEntity
  8
0
  6
Continuous
 62
     7
100
AcDbLine
 10
98.3181085682
 20
16.6612788158
 30
0.0
 11
98.3181085682
 21
19.7033710291
 31
0.0
  0
LINE
  5
55D
330
528
100
AcDbEntity
  8
0
  6
Continuous
 62
     7
100
AcDbLine
 10
102.358387289
 20
16.7563441975
 30
0.0
 11
102.358387289
 21
17.7069980142
 31
0.0
  0
LINE
  5
55E
330
528
100
AcDbEntity
  8
0
  6
Continuous
 62
     7
100
AcDbLine
 10
105.6856756473
 20
20.4163613916
 30
0.0
 11
105.6856756473
 21
21.3670152083
 31
0.0
  0
ARC
  5
55F
330
528
100
AcDbEntity
  8
0
  6
Continuous
 62
     7
100
AcDbCircle
 10
104.063028414
 20
18.6184373609
 30
0.0
 40
1.111619360599997
100
AcDbArc
 50
277.7099956934
 51
295.6884927746
  0
ARC
  5
560
330
528
100
AcDbEntity
  8
0
  6
Continuous
 62
     7
100
AcDbCircle
 10
104.3473383967
 20
17.8936115972
 30
0.0
 40
0.3401689265
100
AcDbArc
 50
305.503221255
 51
72.46528985229999
  0
ARC
  5
561
330
528
100
AcDbEntity
  8
0
  6
Continuous
 62
     7
100
AcDbCircle
 10
103.7813445886
 20
21.2953185068
 30
0.0
 40
4.756794641099999
100
AcDbArc
 50
252.5939200548001
 51
280.9816604256
  0
ARC
  5
562
330
528
100
AcDbEntity
  8
0
  6
Continuous
 62
     7
100
AcDbCircle
 10
104.2361799517
 20
18.6773047703
 30
0.0
 40
2.100726595299998
100
AcDbArc
 50
282.405835852
 51
311.8644433928
  0
ARC
  5
563
330
528
100
AcDbEntity
  8
0
  6
Continuous
 62
     7
100
AcDbCircle
 10
103.9626156046
 20
20.2856464918
 30
0.0
 40
0.3029626476
100
AcDbArc
 50
154.4400348282
 51
221.8201698801
  0
ARC
  5
564
330
528
100
AcDbEntity
  8
0
  6
Continuous
 62
     7
100
AcDbCircle
 10
104.0418367559
 20
20.2064253405
 30
0.0
 40
0.4103089737
100
AcDbArc
 50
102.8287828681
 51
149.2259639003
  0
ARC
  5
565
330
528
100
AcDbEntity
  8
0
  6
Continuous
 62
     7
100
AcDbCircle
 10
104.4588635916
 20
18.4640900106
 30
0.0
 40
2.201836557
100
AcDbArc
 50
84.0400061857
 51
103.3427657870999
  0
ARC
  5
566
330
528
100
AcDbEntity
  8
0
  6
Continuous
 62
     7
100
AcDbCircle
 10
104.1178997669
 20
16.0467260867
 30
0.0
 40
4.642373736499997
100
AcDbArc
 50
70.2625858546
 51
82.95241863799999
  0
ARC
  5
567
330
528
100
AcDbEntity
  8
0
  6
Continuous
 62
     7
100
AcDbCircle
 10
103.6038815647
 20
20.7183489764
 30
0.0
 40
3.258755990899997
100
AcDbArc
 50
247.5300206145
 51
280.7579522143
  0
ARC
  5
568
330
528
100
AcDbEntity
  8
0
  6
Continuous
 62
     7
100
AcDbCircle
 10
97.21891509270001
 20
2.4668290159
 30
0.0
 40
17.3316084133
100
AcDbArc
 50
65.34146746500001
 51
67.39977707359999
  0
ARC
  5
569
330
528
100
AcDbEntity
  8
0
  6
Continuous
 62
     7
100
AcDbCircle
 10
108.0147774981
 20
28.259255379
 30
0.0
 40
10.6291642039
100
AcDbArc
 50
242.8620101252001
 51
247.1042029186
  0
ARC
  5
56A
330
528
100
AcDbEntity
  8
0
  6
Continuous
 62
     7
100
AcDbCircle
 10
104.1598762715
 20
20.725323882
 30
0.0
 40
2.166291629199998
100
AcDbArc
 50
227.3119280794
 51
242.7040315235
  0
ARC
  5
56B
330
528
100
AcDbEntity
  8
0
  6
Continuous
 62
     7
100
AcDbCircle
 10
103.5558454619
 20
20.0196462412
 30
0.0
 40
1.238521734
100
AcDbArc
 50
194.7952194236
 51
225.7176549047
  0
ARC
  5
56C
330
528
100
AcDbEntity
  8
0
  6
Continuous
 62
     7
100
AcDbCircle
 10
103.6180035961
 20
20.0598662104
 30
0.0
 40
1.309092072899999
100
AcDbArc
 50
164.1974860461
 51
195.8025139539
  0
ARC
  5
56D
330
528
100
AcDbEntity
  8
0
  6
Continuous
 62
     7
100
AcDbCircle
 10
104.1750273167
 20
19.1715990505
 30
0.0
 40
2.366924815299999
100
AcDbArc
 50
86.22180229280001
 51
120.4272602309
  0
ARC
  5
56E
330
528
100
AcDbEntity
  8
0
  6
Continuous
 62
     7
100
AcDbCircle
 10
103.9061705342
 20
12.4754312294
 30
0.0
 40
9.0679051661
100
AcDbArc
 50
78.68270492259998
 51
87.3147599624
  0
ARC
  5
56F
330
528
100
AcDbEntity
  8
0
  6
Continuous
 62
     7
100
AcDbCircle
 10
103.4501013558
 20
20.1673739729
 30
0.0
 40
1.119747444
100
AcDbArc
 50
142.813917903
 51
167.1522951417
  0
ARC
  5
570
330
528
100
AcDbEntity
  8
0
  6
Continuous
 62
     7
100
AcDbCircle
 10
103.7954106974
 20
19.8607922762
 30
0.0
 40
1.580546684499998
100
AcDbArc
 50
121.2140948535
 51
141.5254768286
  0
ARC
  5
571
330
528
100
AcDbEntity
  8
0
  6
Continuous
 62
     7
100
AcDbCircle
 10
104.372585063
 20
20.6718496049
 30
0.0
 40
0.8661276051999998
100
AcDbArc
 50
222.7760387596
 51
239.0362434679
  0
ARC
  5
572
330
528
100
AcDbEntity
  8
0
  6
Continuous
 62
     7
100
AcDbCircle
 10
101.8658754847
 20
13.3415774063
 30
0.0
 40
6.858773576299999
100
AcDbArc
 50
59.90202725599999
 51
68.2036481279
  0
ARC
  5
573
330
528
100
AcDbEntity
  8
0
  6
Continuous
 62
     7
100
AcDbCircle
 10
105.2743699785
 20
22.2674639135
 30
0.0
 40
2.698741017099999
100
AcDbArc
 50
240.0481997804
 51
251.3779673736999
  0
ARC
  5
574
330
528
100
AcDbEntity
  8
0
  6
Continuous
 62
     7
100
AcDbCircle
 10
104.6089128117
 20
18.1105652982
 30
0.0
 40
1.4334474881
100
AcDbArc
 50
315.8904553224
 51
333.5229264373
  0
ARC
  5
575
330
528
100
AcDbEntity
  8
0
  6
Continuous
 62
     7
100
AcDbCircle
 10
104.6135510555
 20
18.057158148
 30
0.0
 40
1.406228711899998
100
AcDbArc
 50
335.3867972702
 51
24.3915119402
  0
ARC
  5
576
330
528
100
AcDbEntity
  8
0
  6
Continuous
 62
     7
100
AcDbCircle
 10
104.5413461519
 20
17.9793014562
 30
0.0
 40
1.504702514799999
100
AcDbArc
 50
25.95629166050001
 51
59.4834829668
  0
LINE
  5
577
330
528
100
AcDbEntity
  8
0
  6
Continuous
 62
     7
100
AcDbLine
 10
74.7656602606
 20
16.7563441975
 30
0.0
 11
74.7656602606
 21
17.7069980142
 31
0.0
  0
LINE
  5
578
330
528
100
AcDbEntity
  8
0
  6
Continuous
 62
     7
100
AcDbLine
 10
78.09294861879997
 20
20.4163613916
 30
0.0
 11
78.09294861879997
 21
21.3670152083
 31
0.0
  0
ARC
  5
579
330
528
100
AcDbEntity
  8
0
  6
Continuous
 62
     7
100
AcDbCircle
 10
76.4703013855
 20
18.6184373609
 30
0.0
 40
1.111619360599997
100
AcDbArc
 50
277.7099956934
 51
295.6884927746
  0
ARC
  5
57A
330
528
100
AcDbEntity
  8
0
  6
Continuous
 62
     7
100
AcDbCircle
 10
76.7546113683
 20
17.8936115972
 30
0.0
 40
0.3401689265
100
AcDbArc
 50
305.5032212556
 51
72.4652898515
  0
ARC
  5
57B
330
528
100
AcDbEntity
  8
0
  6
Continuous
 62
     7
100
AcDbCircle
 10
76.1886175602
 20
21.2953185068
 30
0.0
 40
4.756794641099999
100
AcDbArc
 50
252.5939200545
 51
280.9816604253
  0
ARC
  5
57C
330
528
100
AcDbEntity
  8
0
  6
Continuous
 62
     7
100
AcDbCircle
 10
76.64345292330001
 20
18.6773047703
 30
0.0
 40
2.100726595299998
100
AcDbArc
 50
282.4058358513
 51
311.8644433923
  0
ARC
  5
57D
330
528
100
AcDbEntity
  8
0
  6
Continuous
 62
     7
100
AcDbCircle
 10
76.3698885762
 20
20.2856464918
 30
0.0
 40
0.3029626476
100
AcDbArc
 50
154.4400348282
 51
221.8201698801
  0
ARC
  5
57E
330
528
100
AcDbEntity
  8
0
  6
Continuous
 62
     7
100
AcDbCircle
 10
76.4491097276
 20
20.2064253405
 30
0.0
 40
0.4103089737
100
AcDbArc
 50
102.8287828727
 51
149.2259639027
  0
ARC
  5
57F
330
528
100
AcDbEntity
  8
0
  6
Continuous
 62
     7
100
AcDbCircle
 10
76.8661365632
 20
18.4640900106
 30
0.0
 40
2.201836557
100
AcDbArc
 50
84.0400061859
 51
103.3427657872
  0
ARC
  5
580
330
528
100
AcDbEntity
  8
0
  6
Continuous
 62
     7
100
AcDbCircle
 10
76.5251727384
 20
16.0467260867
 30
0.0
 40
4.642373736499997
100
AcDbArc
 50
70.2625858546
 51
82.9524186379
  0
ARC
  5
581
330
528
100
AcDbEntity
  8
0
  6
Continuous
 62
     7
100
AcDbCircle
 10
76.0111545363
 20
20.7183489764
 30
0.0
 40
3.258755990899997
100
AcDbArc
 50
247.5300206148
 51
280.7579522145
  0
ARC
  5
582
330
528
100
AcDbEntity
  8
0
  6
Continuous
 62
     7
100
AcDbCircle
 10
69.6261880643
 20
2.4668290159
 30
0.0
 40
17.3316084133
100
AcDbArc
 50
65.34146746500001
 51
67.39977707359999
  0
ARC
  5
583
330
528
100
AcDbEntity
  8
0
  6
Continuous
 62
     7
100
AcDbCircle
 10
80.4220504697
 20
28.259255379
 30
0.0
 40
10.6291642039
100
AcDbArc
 50
242.8620101252001
 51
247.1042029185
  0
ARC
  5
584
330
528
100
AcDbEntity
  8
0
  6
Continuous
 62
     7
100
AcDbCircle
 10
76.56714924310001
 20
20.725323882
 30
0.0
 40
2.166291629199998
100
AcDbArc
 50
227.3119280794
 51
242.7040315235
  0
ARC
  5
585
330
528
100
AcDbEntity
  8
0
  6
Continuous
 62
     7
100
AcDbCircle
 10
75.9631184335
 20
20.0196462412
 30
0.0
 40
1.238521734
100
AcDbArc
 50
194.7952194234
 51
225.7176549042
  0
ARC
  5
586
330
528
100
AcDbEntity
  8
0
  6
Continuous
 62
     7
100
AcDbCircle
 10
76.58230028830002
 20
19.1715990505
 30
0.0
 40
2.366924815299999
100
AcDbArc
 50
86.22180229280001
 51
120.4272602309
  0
ARC
  5
587
330
528
100
AcDbEntity
  8
0
  6
Continuous
 62
     7
100
AcDbCircle
 10
76.3134435058
 20
12.4754312294
 30
0.0
 40
9.0679051661
100
AcDbArc
 50
78.68270492259998
 51
87.3147599624
  0
ARC
  5
588
330
528
100
AcDbEntity
  8
0
  6
Continuous
 62
     7
100
AcDbCircle
 10
76.20268366899998
 20
19.8607922762
 30
0.0
 40
1.580546684599998
100
AcDbArc
 50
121.2140948541
 51
141.525476829
  0
ARC
  5
589
330
528
100
AcDbEntity
  8
0
  6
Continuous
 62
     7
100
AcDbCircle
 10
76.7798580346
 20
20.6718496049
 30
0.0
 40
0.8661276051999998
100
AcDbArc
 50
222.7760387596
 51
239.0362434679
  0
ARC
  5
58A
330
528
100
AcDbEntity
  8
0
  6
Continuous
 62
     7
100
AcDbCircle
 10
74.2731484563
 20
13.3415774063
 30
0.0
 40
6.858773576299999
100
AcDbArc
 50
59.90202725620001
 51
68.20364812820002
  0
ARC
  5
58B
330
528
100
AcDbEntity
  8
0
  6
Continuous
 62
     7
100
AcDbCircle
 10
77.6816429501
 20
22.2674639135
 30
0.0
 40
2.698741017099999
100
AcDbArc
 50
240.0481997804
 51
251.3779673734
  0
ARC
  5
58C
330
528
100
AcDbEntity
  8
0
  6
Continuous
 62
     7
100
AcDbCircle
 10
77.0161857833
 20
18.1105652982
 30
0.0
 40
1.4334474881
100
AcDbArc
 50
315.8904553226
 51
333.5229264375
  0
ARC
  5
58D
330
528
100
AcDbEntity
  8
0
  6
Continuous
 62
     7
100
AcDbCircle
 10
77.020824027
 20
18.057158148
 30
0.0
 40
1.406228711899998
100
AcDbArc
 50
335.3867972703
 51
24.3915119403
  0
ARC
  5
58E
330
528
100
AcDbEntity
  8
0
  6
Continuous
 62
     7
100
AcDbCircle
 10
76.94861912350001
 20
17.9793014562
 30
0.0
 40
1.504702514699999
100
AcDbArc
 50
25.9562916611
 51
59.4834829676
  0
LINE
  5
58F
330
528
100
AcDbEntity
  8
0
  6
Continuous
 62
     7
100
AcDbLine
 10
74.9574888499
 20
20.8337423583
 30
0.0
 11
75.2315546745
 21
21.1078154358
 31
0.0
  0
ARC
  5
590
330
528
100
AcDbEntity
  8
0
  6
Continuous
 62
     7
100
AcDbCircle
 10
76.0252765676
 20
20.0598662104
 30
0.0
 40
1.309092072899999
100
AcDbArc
 50
164.1974860461
 51
195.8025139539
  0
ARC
  5
591
330
528
100
AcDbEntity
  8
0
  6
Continuous
 62
     7
100
AcDbCircle
 10
75.8573743274
 20
20.1673739729
 30
0.0
 40
1.119747444
100
AcDbArc
 50
142.813917903
 51
167.1522951417
  0
ENDBLK
  5
592
330
528
100
AcDbEntity
  8
0
100
AcDbBlockEnd
  0
BLOCK
  5
9771
330
9767
100
AcDbEntity
  8
0
 62
     7
370
    13
100
AcDbBlockBegin
  2
*D2
 70
     1
 10
0.0
 20
0.0
 30
0.0
  3
*D2
  1

  0
LINE
  5
989A
330
9767
100
AcDbEntity
  8
10100_Front_Dim
  6
Continuous
370
    -2
100
AcDbLine
 10
181.0898477808855
 20
196.7197724350801
 30
0.0
 11
191.5838843530996
 21
196.7197724350801
 31
0.0
  0
LINE
  5
989B
330
9767
100
AcDbEntity
  8
10100_Front_Dim
  6
Continuous
370
    -2
100
AcDbLine
 10
181.0898477808855
 20
186.0697296723238
 30
0.0
 11
191.5838843530996
 21
186.0697296723238
 31
0.0
  0
LINE
  5
989C
330
9767
100
AcDbEntity
  8
10100_Front_Dim
  6
Continuous
370
    -2
100
AcDbLine
 10
189.5838843530996
 20
199.2197724350801
 30
0.0
 11
189.5838843530996
 21
201.7197724350801
 31
0.0
  0
LINE
  5
989D
330
9767
100
AcDbEntity
  8
10100_Front_Dim
  6
Continuous
370
    -2
100
AcDbLine
 10
189.5838843530995
 20
183.5697296723238
 30
0.0
 11
189.5838843530995
 21
181.0697296723238
 31
0.0
  0
MTEXT
  5
989E
330
9767
100
AcDbEntity
  8
10100_Front_Dim
  6
Continuous
 62
     7
370
    13
100
AcDbMText
 10
189.5838843530995
 20
191.394751053702
 30
0.0
 40
5.0
 41
0.0
 71
     5
 72
     1
  1
\A1;11
 11
0.0000000000000001
 21
1.0
 31
0.0
 73
     1
 44
1.0
1001
ACAD
1000
MTEXTBEGIN
1070
    73
1070
     1
1070
    44
1040
1.0
1070
    74
1070
     0
1000
MTEXTEND
  0
SOLID
  5
989F
330
9767
100
AcDbEntity
  8
10100_Front_Dim
  6
Continuous
370
    13
100
AcDbTrace
 10
189.1672176864329
 20
199.2197724350801
 30
0.0
 11
190.0005510197662
 21
199.2197724350801
 31
0.0
 12
189.5838843530996
 22
196.7197724350801
 32
0.0
 13
189.5838843530996
 23
196.7197724350801
 33
0.0
  0
SOLID
  5
98A0
330
9767
100
AcDbEntity
  8
10100_Front_Dim
  6
Continuous
370
    13
100
AcDbTrace
 10
189.1672176864329
 20
183.5697296723238
 30
0.0
 11
190.0005510197662
 21
183.5697296723238
 31
0.0
 12
189.5838843530995
 22
186.0697296723238
 32
0.0
 13
189.5838843530995
 23
186.0697296723238
 33
0.0
  0
POINT
  5
98A1
330
9767
100
AcDbEntity
  8
Defpoints
  6
Continuous
 62
     0
370
    13
100
AcDbPoint
 10
181.0898477808855
 20
196.7197724350801
 30
0.0
  0
POINT
  5
98A2
330
9767
100
AcDbEntity
  8
Defpoints
  6
Continuous
 62
     0
370
    13
100
AcDbPoint
 10
181.0898477808855
 20
186.0697296723238
 30
0.0
  0
POINT
  5
98A3
330
9767
100
AcDbEntity
  8
Defpoints
  6
Continuous
 62
     0
370
    13
100
AcDbPoint
 10
189.5838843530995
 20
186.0697296723238
 30
0.0
  0
ENDBLK
  5
9772
330
9767
100
AcDbEntity
  8
0
 62
     7
370
    13
100
AcDbBlockEnd
  0
BLOCK
  5
9789
330
977F
100
AcDbEntity
  8
0
 62
     7
370
    13
100
AcDbBlockBegin
  2
*D3
 70
     1
 10
0.0
 20
0.0
 30
0.0
  3
*D3
  1

  0
LINE
  5
9821
330
977F
100
AcDbEntity
  8
11100_Left_Dim
  6
Continuous
370
    -2
100
AcDbLine
 10
181.5807120835122
 20
218.6511580501225
 30
0.0
 11
191.9716992460075
 21
218.6511580501225
 31
0.0
  0
LINE
  5
9822
330
977F
100
AcDbEntity
  8
11100_Left_Dim
  6
Continuous
370
    -2
100
AcDbLine
 10
175.5386087364108
 20
250.2463122078228
 30
0.0
 11
191.9716992460075
 21
250.2463122078228
 31
0.0
  0
LINE
  5
9823
330
977F
100
AcDbEntity
  8
11100_Left_Dim
  6
Continuous
370
    -2
100
AcDbLine
 10
189.9716992460075
 20
221.1511580501225
 30
0.0
 11
189.9716992460075
 21
228.782068462306
 31
0.0
  0
LINE
  5
9824
330
977F
100
AcDbEntity
  8
11100_Left_Dim
  6
Continuous
370
    -2
100
AcDbLine
 10
189.9716992460075
 20
247.7463122078228
 30
0.0
 11
189.9716992460075
 21
240.1154017956393
 31
0.0
  0
SOLID
  5
9825
330
977F
100
AcDbEntity
  8
11100_Left_Dim
  6
Continuous
370
    13
100
AcDbTrace
 10
189.5550325793408
 20
221.1511580501225
 30
0.0
 11
190.3883659126742
 21
221.1511580501225
 31
0.0
 12
189.9716992460075
 22
218.6511580501225
 32
0.0
 13
189.9716992460075
 23
218.6511580501225
 33
0.0
  0
SOLID
  5
9826
330
977F
100
AcDbEntity
  8
11100_Left_Dim
  6
Continuous
370
    13
100
AcDbTrace
 10
189.5550325793408
 20
247.7463122078228
 30
0.0
 11
190.3883659126742
 21
247.7463122078228
 31
0.0
 12
189.9716992460075
 22
250.2463122078228
 32
0.0
 13
189.9716992460075
 23
250.2463122078228
 33
0.0
  0
MTEXT
  5
9827
330
977F
100
AcDbEntity
  8
11100_Left_Dim
  6
Continuous
 62
     7
370
    13
100
AcDbMText
 10
189.9716992460075
 20
234.4487351289727
 30
0.0
 40
5.0
 41
0.0
 71
     5
 72
     1
  1
\A1;32
 11
0.0000000000000001
 21
1.0
 31
0.0
 73
     1
 44
1.0
1001
ACAD
1000
MTEXTBEGIN
1070
    73
1070
     1
1070
    44
1040
1.0
1070
    74
1070
     0
1000
MTEXTEND
  0
POINT
  5
9828
330
977F
100
AcDbEntity
  8
Defpoints
  6
Continuous
 62
     0
370
    13
100
AcDbPoint
 10
181.5807120835122
 20
218.6511580501225
 30
0.0
  0
POINT
  5
9829
330
977F
100
AcDbEntity
  8
Defpoints
  6
Continuous
 62
     0
370
    13
100
AcDbPoint
 10
175.5386087364108
 20
250.2463122078228
 30
0.0
  0
POINT
  5
982A
330
977F
100
AcDbEntity
  8
Defpoints
  6
Continuous
 62
     0
370
    13
100
AcDbPoint
 10
189.9716992460075
 20
250.2463122078228
 30
0.0
  0
ENDBLK
  5
978A
330
977F
100
AcDbEntity
  8
0
 62
     7
370
    13
100
AcDbBlockEnd
  0
BLOCK
  5
97A1
330
9797
100
AcDbEntity
  8
0
 62
     7
370
    13
100
AcDbBlockBegin
  2
*D4
 70
     1
 10
0.0
 20
0.0
 30
0.0
  3
*D4
  1

  0
LINE
  5
984F
330
9797
100
AcDbEntity
  8
11100_Left_Dim
  6
Continuous
370
    -2
100
AcDbLine
 10
131.5899742998523
 20
218.7428870343835
 30
0.0
 11
131.5899742998523
 21
210.3274302701286
 31
0.0
  0
LINE
  5
9850
330
9797
100
AcDbEntity
  8
11100_Left_Dim
  6
Continuous
370
    -2
100
AcDbLine
 10
181.5898547758501
 20
218.746377501085
 30
0.0
 11
181.5898547758501
 21
210.3274302701286
 31
0.0
  0
LINE
  5
9851
330
9797
100
AcDbEntity
  8
11100_Left_Dim
  6
Continuous
370
    -2
100
AcDbLine
 10
134.0899742998523
 20
212.3274302701286
 30
0.0
 11
151.3399145378513
 21
212.3274302701286
 31
0.0
  0
LINE
  5
9852
330
9797
100
AcDbEntity
  8
11100_Left_Dim
  6
Continuous
370
    -2
100
AcDbLine
 10
179.0898547758501
 20
212.3274302701286
 30
0.0
 11
161.8399145378513
 21
212.3274302701286
 31
0.0
  0
SOLID
  5
9853
330
9797
100
AcDbEntity
  8
11100_Left_Dim
  6
Continuous
370
    13
100
AcDbTrace
 10
134.0899742998523
 20
212.7440969367953
 30
0.0
 11
134.0899742998523
 21
211.910763603462
 31
0.0
 12
131.5899742998523
 22
212.3274302701286
 32
0.0
 13
131.5899742998523
 23
212.3274302701286
 33
0.0
  0
SOLID
  5
9854
330
9797
100
AcDbEntity
  8
11100_Left_Dim
  6
Continuous
370
    13
100
AcDbTrace
 10
179.0898547758501
 20
212.7440969367953
 30
0.0
 11
179.0898547758501
 21
211.910763603462
 31
0.0
 12
181.5898547758501
 22
212.3274302701286
 32
0.0
 13
181.5898547758501
 23
212.3274302701286
 33
0.0
  0
MTEXT
  5
9855
330
9797
100
AcDbEntity
  8
11100_Left_Dim
  6
Continuous
 62
     7
370
    13
100
AcDbMText
 10
156.5899145378513
 20
212.3274302701286
 30
0.0
 40
5.0
 41
0.0
 71
     5
 72
     1
  1
\A1;50
 73
     1
 44
1.0
1001
ACAD
1000
MTEXTBEGIN
1070
    73
1070
     1
1070
    44
1040
1.0
1070
    74
1070
     0
1000
MTEXTEND
  0
POINT
  5
9856
330
9797
100
AcDbEntity
  8
Defpoints
  6
Continuous
 62
     0
370
    13
100
AcDbPoint
 10
131.5899742998523
 20
218.7428870343835
 30
0.0
  0
POINT
  5
9857
330
9797
100
AcDbEntity
  8
Defpoints
  6
Continuous
 62
     0
370
    13
100
AcDbPoint
 10
181.5898547758501
 20
218.746377501085
 30
0.0
  0
POINT
  5
9858
330
9797
100
AcDbEntity
  8
Defpoints
  6
Continuous
 62
     0
370
    13
100
AcDbPoint
 10
181.5898547758501
 20
212.3274302701286
 30
0.0
  0
ENDBLK
  5
97A2
330
9797
100
AcDbEntity
  8
0
 62
     7
370
    13
100
AcDbBlockEnd
  0
ENDSEC
  0
SECTION
  2
ENTITIES
  0
LINE
  5
5B3
330
1F
100
AcDbEntity
  8
90000_FRAME
  6
Continuous
 62
     7
100
AcDbLine
 10
50.70407190004551
 20
59.49685829621794
 30
0.0
 11
50.70407190004551
 21
329.4968582962179
 31
0.0
  0
LINE
  5
5B4
330
1F
100
AcDbEntity
  8
90000_FRAME
  6
Continuous
 62
     7
100
AcDbLine
 10
250.7040719000454
 20
329.4968582962179
 30
0.0
 11
50.70407190004551
 21
329.4968582962179
 31
0.0
  0
LINE
  5
5B5
330
1F
100
AcDbEntity
  8
91000_TIP
  6
Continuous
 62
     7
100
AcDbLine
 10
82.08353273695911
 20
75.70694925398033
 30
0.0
 11
92.08353253275921
 21
78.20694920298031
 31
0.0
  0
LINE
  5
5B6
330
1F
100
AcDbEntity
  8
91000_TIP
  6
CENTER
 62
     7
100
AcDbLine
 10
80.80402226495911
 20
73.20694930508034
 30
0.0
 11
104.4060115290591
 21
73.20694930508034
 31
0.0
  0
LINE
  5
5B7
330
1F
100
AcDbEntity
  8
91000_TIP
  6
Continuous
 62
     7
100
AcDbLine
 10
82.08353273695911
 20
70.7069493561803
 30
0.0
 11
92.08353253275921
 21
68.20694940718033
 31
0.0
  0
LINE
  5
5B8
330
1F
100
AcDbEntity
  8
91000_TIP
  6
Continuous
 62
     7
100
AcDbLine
 10
82.08353273695911
 20
75.70694925398033
 30
0.0
 11
82.08353273695911
 21
70.7069493561803
 31
0.0
  0
LINE
  5
5B9
330
1F
100
AcDbEntity
  8
91000_TIP
  6
Continuous
 62
     7
100
AcDbLine
 10
92.08353253275921
 20
78.20694920298031
 30
0.0
 11
92.08353253275921
 21
68.20694940718033
 31
0.0
  0
LINE
  5
5BA
330
1F
100
AcDbEntity
  8
91000_TIP
  6
CENTER
 62
     7
100
AcDbLine
 10
98.58353239995921
 20
67.48546809868031
 30
0.0
 11
98.58353239995921
 21
78.76885409868032
 31
0.0
  0
CIRCLE
  5
5BB
330
1F
100
AcDbEntity
  8
91000_TIP
  6
Continuous
 62
     7
100
AcDbCircle
 10
98.58353239995921
 20
73.20694930508034
 30
0.0
 40
4.9999998979
  0
CIRCLE
  5
5BC
330
1F
100
AcDbEntity
  8
91000_TIP
  6
Continuous
 62
     7
100
AcDbCircle
 10
98.58353239995921
 20
73.20694930508034
 30
0.0
 40
2.499999948899997
  0
TEXT
  5
5BD
330
1F
100
AcDbEntity
  8
91000_TIP
  6
Continuous
 62
     7
100
AcDbText
 10
111.2636125012772
 20
84.27456240158738
 30
0.0
 40
2.2
  1
All dimensions are in millimeters (mm)
 41
0.9608678382598297
 72
     5
 11
178.2040719000453
 21
84.27456240158738
 31
0.0
100
AcDbText
  0
TEXT
  5
5BE
330
1F
100
AcDbEntity
  8
91000_TIP
  6
Continuous
 62
     7
100
AcDbText
 10
111.2636125012772
 20
87.40358480543312
 30
0.0
 40
2.2
  1
Alle Bemassungswerte sind in Millimeter (mm) angegeben.
 41
0.8250311332500007
 72
     5
 11
199.5969458345772
 21
87.40358480543312
 31
0.0
100
AcDbText
  0
LINE
  5
5BF
330
1F
100
AcDbEntity
  8
90000_FRAME
  6
Continuous
 62
     7
100
AcDbLine
 10
250.7040719000454
 20
59.49685829621794
 30
0.0
 11
250.7040719000454
 21
329.4968582962179
 31
0.0
  0
LINE
  5
5C0
330
1F
100
AcDbEntity
  8
90000_FRAME
  6
Continuous
 62
     7
100
AcDbLine
 10
250.7040719000454
 20
59.49685829621794
 30
0.0
 11
50.70407190004551
 21
59.49685829621794
 31
0.0
  0
TEXT
  5
5C1
330
1F
100
AcDbEntity
  8
90000_FRAME
  6
Continuous
 62
     7
100
AcDbText
 10
170.5207233837207
 20
77.74685829621794
 30
0.0
 40
3.5
  1
3LD9200_00001191_000_ALL
 41
0.8139758109382404
 72
     5
 11
230.8227647107286
 21
77.74685829621794
 31
0.0
100
AcDbText
  0
TEXT
  5
5C2
330
1F
100
AcDbEntity
  8
90000_FRAME
  6
Continuous
 62
     7
100
AcDbText
 10
203.8640719000454
 20
65.92623547966292
 30
0.0
 40
2.2
  1
Massstab / Scale:
 41
0.9062980030733189
 72
     5
 11
234.7688338048456
 21
65.92623547966292
 31
0.0
100
AcDbText
  0
TEXT
  5
5C3
330
1F
100
AcDbEntity
  8
90000_FRAME
  6
Continuous
 62
     7
100
AcDbText
 10
161.3640719000454
 20
65.92623547966292
 30
0.0
 40
2.2
  1
Format / Size: DIN A4
 41
0.803258145363636
 72
     5
 11
194.9402623762454
 21
65.92623547966292
 31
0.0
100
AcDbText
  0
LINE
  5
5C4
330
1F
100
AcDbEntity
  8
90000_FRAME
  6
Continuous
 62
     7
100
AcDbLine
 10
245.7040719000453
 20
64.49685829621795
 30
0.0
 11
245.7040719000453
 21
82.49685829621794
 31
0.0
  0
LINE
  5
5C5
330
1F
100
AcDbEntity
  8
90000_FRAME
  6
Continuous
 62
     7
100
AcDbLine
 10
203.2040719000454
 20
64.49685829621795
 30
0.0
 11
203.2040719000454
 21
68.99685829621795
 31
0.0
  0
LINE
  5
5C6
330
1F
100
AcDbEntity
  8
90000_FRAME
  6
Continuous
 62
     7
100
AcDbLine
 10
160.7040719000454
 20
64.49685829621795
 30
0.0
 11
160.7040719000454
 21
82.49685829621794
 31
0.0
  0
LINE
  5
5C7
330
1F
100
AcDbEntity
  8
90000_FRAME
  6
Continuous
 62
     7
100
AcDbLine
 10
110.7040719000454
 20
82.49685829621794
 30
0.0
 11
245.7040719000453
 21
82.49685829621794
 31
0.0
  0
LINE
  5
5C8
330
1F
100
AcDbEntity
  8
90000_FRAME
  6
Continuous
 62
     7
100
AcDbLine
 10
160.7040719000454
 20
68.99685829621795
 30
0.0
 11
245.7040719000453
 21
68.99685829621795
 31
0.0
  0
LINE
  5
5C9
330
1F
100
AcDbEntity
  8
90000_FRAME
  6
Continuous
 62
     7
100
AcDbLine
 10
110.7040719000454
 20
64.49685829621795
 30
0.0
 11
110.7040719000454
 21
82.49685829621794
 31
0.0
  0
LINE
  5
5CA
330
1F
100
AcDbEntity
  8
90000_FRAME
  6
Continuous
 62
     7
100
AcDbLine
 10
110.7040719000454
 20
64.49685829621795
 30
0.0
 11
245.7040719000453
 21
64.49685829621795
 31
0.0
  0
INSERT
  5
5CB
330
1F
100
AcDbEntity
  8
90000_FRAME
  6
Continuous
 62
     7
100
AcDbBlockReference
  2
SIEMENS_OUTLINE_BL0
 10
45.70407190004551
 20
54.49685829621795
 30
0.0
  0
TEXT
  5
2C2C
330
1F
100
AcDbEntity
  8
90000_FRAME
  6
Continuous
 62
     7
100
AcDbText
 10
170.5207233837207
 20
71.95129827519697
 30
0.0
 40
3.0
  1
Hilfsschalter
 41
1.73264806596757
 72
     5
 11
227.6981095606505
 21
71.95129827519697
 31
0.0
100
AcDbText
  0
LINE
  5
9649
330
1F
100
AcDbEntity
  8
10000_Front
  6
Continuous
 62
     7
370
    13
100
AcDbLine
 10
168.9899035232875
 20
188.0197581957037
 30
0.0
 11
168.9899084407403
 21
186.0697609422919
 31
0.0
  0
LINE
  5
964A
330
1F
100
AcDbEntity
  8
10000_Front
  6
Continuous
 62
     7
370
    13
100
AcDbLine
 10
170.4899137314908
 20
186.5698044550401
 30
0.0
 11
170.4899134792555
 21
186.6698274195175
 31
0.0
  0
ARC
  5
964B
330
1F
100
AcDbEntity
  8
10000_Front
  6
Continuous
 62
     7
370
    13
100
AcDbCircle
 10
170.7899008079285
 20
186.6697956174596
 30
0.0
 40
0.2999993999999778
100
AcDbArc
 50
90.00014448702215
 51
180.000144487022
  0
LINE
  5
964C
330
1F
100
AcDbEntity
  8
10000_Front
  6
Continuous
 62
     7
370
    13
100
AcDbLine
 10
170.7899065238548
 20
186.9698219771501
 30
0.0
 11
171.8898963099993
 21
186.969824751076
 31
0.0
  0
LINE
  5
964D
330
1F
100
AcDbEntity
  8
10000_Front
  6
Continuous
 62
     7
370
    13
100
AcDbLine
 10
171.8898963099993
 20
186.969824751076
 30
0.0
 11
171.8898936622859
 21
188.0197655088242
 31
0.0
  0
LINE
  5
964E
330
1F
100
AcDbEntity
  8
10000_Front
  6
Continuous
 62
     7
370
    13
100
AcDbLine
 10
170.4899137314908
 20
186.5698044550401
 30
0.0
 11
170.4899149924781
 21
186.0697647249699
 31
0.0
  0
LINE
  5
964F
330
1F
100
AcDbEntity
  8
10000_Front
  6
Continuous
 62
     7
370
    13
100
AcDbLine
 10
168.9899035232874
 20
188.0197581957037
 30
0.0
 11
171.8898936622859
 21
188.0197655088242
 31
0.0
  0
LINE
  5
9650
330
1F
100
AcDbEntity
  8
10000_Front
  6
Continuous
 62
     7
370
    13
100
AcDbLine
 10
170.3898845323261
 20
197.3697384083152
 30
0.0
 11
170.3898686282063
 21
196.7197724350801
 31
0.0
  0
LINE
  5
9651
330
1F
100
AcDbEntity
  8
10000_Front
  6
Continuous
 62
     7
370
    13
100
AcDbLine
 10
142.789939732326
 20
197.3697384083152
 30
0.0
 11
142.7899508253956
 21
196.7197724350801
 31
0.0
  0
LINE
  5
9652
330
1F
100
AcDbEntity
  8
10000_Front
  6
Continuous
 62
     7
370
    13
100
AcDbLine
 10
144.1899344126606
 20
188.0197269257418
 30
0.0
 11
141.289944273653
 21
188.0197269257418
 31
0.0
  0
ARC
  5
9653
330
1F
100
AcDbEntity
  8
10000_Front
  6
Continuous
 62
     7
370
    13
100
AcDbCircle
 10
180.4210832194561
 20
196.2197407083153
 30
0.0
 40
0.4999990000000154
100
AcDbArc
 50
0.0
 51
90.0
  0
ARC
  5
9654
330
1F
100
AcDbEntity
  8
10000_Front
  6
Continuous
 62
     7
370
    13
100
AcDbCircle
 10
132.7587410451958
 20
196.2197407083153
 30
0.0
 40
0.4999990000000237
100
AcDbArc
 50
90.0
 51
180.0
  0
LINE
  5
9655
330
1F
100
AcDbEntity
  8
10000_Front
  6
Continuous
 62
     7
370
    13
100
AcDbLine
 10
132.258741652193
 20
196.2197327050081
 30
0.0
 11
132.2587420451959
 21
186.5697600083152
 31
0.0
  0
LINE
  5
9656
330
1F
100
AcDbEntity
  8
10000_Front
  6
Continuous
 62
     7
370
    13
100
AcDbLine
 10
180.9210822194564
 20
186.5697600083152
 30
0.0
 11
180.9210778014088
 21
196.2197327050081
 31
0.0
  0
ARC
  5
9657
330
1F
100
AcDbEntity
  8
10000_Front
  6
Continuous
 62
     7
370
    13
100
AcDbCircle
 10
180.4210832194563
 20
186.5697600083152
 30
0.0
 40
0.4999990000000937
100
AcDbArc
 50
270.0
 51
0.0
  0
ARC
  5
9658
330
1F
100
AcDbEntity
  8
10000_Front
  6
Continuous
 62
     7
370
    13
100
AcDbCircle
 10
132.758741045196
 20
186.5697600083152
 30
0.0
 40
0.4999990000000937
100
AcDbArc
 50
180.0
 51
270.0
  0
LINE
  5
9659
330
1F
100
AcDbEntity
  8
10000_Front
  6
Continuous
 62
     7
370
    13
100
AcDbLine
 10
157.2192396513842
 20
203.719727917563
 30
0.0
 11
156.0192269007585
 21
203.719727917563
 31
0.0
  0
LINE
  5
965A
330
1F
100
AcDbEntity
  8
10000_Front
  6
Continuous
 62
     7
370
    13
100
AcDbLine
 10
157.2192396513842
 20
203.719727917563
 30
0.0
 11
157.7192418352985
 21
203.2197632798067
 31
0.0
  0
LINE
  5
965B
330
1F
100
AcDbEntity
  8
10000_Front
  6
Continuous
 62
     7
370
    13
100
AcDbLine
 10
157.7192418352985
 20
203.2197632798067
 30
0.0
 11
155.5192247168444
 21
203.2197632798067
 31
0.0
  0
LINE
  5
965C
330
1F
100
AcDbEntity
  8
10000_Front
  6
Continuous
 62
     7
370
    13
100
AcDbLine
 10
155.5192247168444
 20
203.2197632798067
 30
0.0
 11
156.0192269007585
 21
203.719727917563
 31
0.0
  0
LINE
  5
965D
330
1F
100
AcDbEntity
  8
10000_Front
  6
Continuous
 62
     7
370
    13
100
AcDbLine
 10
157.7192418352985
 20
203.2197632798067
 30
0.0
 11
157.7192418352985
 21
196.7197724350801
 31
0.0
  0
LINE
  5
965E
330
1F
100
AcDbEntity
  8
10000_Front
  6
Continuous
 62
     7
370
    13
100
AcDbLine
 10
155.5192247168444
 20
196.7197724350801
 30
0.0
 11
155.5192247168444
 21
203.2197632798067
 31
0.0
  0
ELLIPSE
  5
965F
330
1F
100
AcDbEntity
  8
10000_Front
  6
Continuous
 62
     7
370
    13
100
AcDbEllipse
 10
177.4709965532929
 20
191.8286330087274
 30
0.0
 11
3.784099792701671
 21
0.0575744338592916
 31
0.0
210
0.0
220
0.0
230
0.9999999999999998
 40
0.8191208534891726
 41
2.701632187976021
 42
3.883243318924043
  0
ELLIPSE
  5
9660
330
1F
100
AcDbEntity
  8
10000_Front
  6
Continuous
 62
     7
370
    13
100
AcDbEllipse
 10
176.8871253831461
 20
191.8197495083153
 30
0.0
 11
0.0
 21
3.100111842759697
 31
0.0
210
0.0
220
0.0
230
0.9999999999999998
 40
0.8191208534891647
 41
3.876527017687926
 42
5.548250943081479
  0
ELLIPSE
  5
9661
330
1F
100
AcDbEntity
  8
10000_Front
  6
Continuous
 62
     7
370
    13
100
AcDbEllipse
 10
177.517720229501
 20
191.8197495083153
 30
0.0
 11
3.822863185827131
 21
0.0000000000000559
 31
0.0
210
0.0
220
0.0
230
1.0
 40
0.8190908589678778
 41
2.114961447172509
 42
2.721547540979214
  0
ARC
  5
9662
330
1F
100
AcDbEntity
  8
10000_Front
  6
Continuous
 62
     7
370
    13
100
AcDbCircle
 10
172.2452659338453
 20
201.0709032186431
 30
0.0
 40
7.351218639097802
100
AcDbArc
 50
296.6154287911853
 51
299.1442947222089
  0
LWPOLYLINE
  5
9663
330
1F
100
AcDbEntity
  8
10000_Front
  6
Continuous
 62
     7
370
    13
100
AcDbPolyline
 90
       18
 70
   128
 43
0.0
 10
178.5898744074726
 20
194.1374227913729
 10
178.4563978163624
 20
194.2737904366365
 10
178.3156372706318
 20
194.3987440499178
 10
178.1681935088062
 20
194.5116828926912
 10
178.0148174540425
 20
194.6120813187472
 10
177.8561473910237
 20
194.6994887741915
 10
177.6929717890644
 20
194.7735297974459
 10
177.5260791174793
 20
194.8337538346163
 10
177.3561827532673
 20
194.8799356087557
 10
177.1841087119007
 20
194.9118498429171
 10
177.0106454626942
 20
194.9293463524691
 10
176.8365814749622
 20
194.9324251374117
 10
176.6627803103351
 20
194.9209360131136
 10
176.4900304381275
 20
194.8950291642061
 10
176.3191203276539
 20
194.8548547753206
 10
176.1508759943867
 20
194.8004879387728
 10
175.9860483614825
 20
194.7322290238253
 10
175.8253883520984
 20
194.6503783997408
  0
LWPOLYLINE
  5
9664
330
1F
100
AcDbEntity
  8
10000_Front
  6
Continuous
 62
     7
370
    13
100
AcDbPolyline
 90
       18
 70
   128
 43
0.0
 10
175.8253883520984
 20
188.9890936287752
 10
175.9860483614825
 20
188.9073180970064
 10
176.1508759943867
 20
188.8390591820589
 10
176.3191203276539
 20
188.7846923455111
 10
176.4900304381275
 20
188.7444428643099
 10
176.6627803103351
 20
188.7185360154024
 10
176.8365814749622
 20
188.70712198342
 10
177.0106454626942
 20
188.7101256760469
 10
177.1841087119007
 20
188.727622185599
 10
177.3561827532673
 20
188.759611512076
 10
177.5260791174793
 20
188.8057932862153
 10
177.6929717890644
 20
188.8660173233858
 10
177.8561473910237
 20
188.9399832543245
 10
178.0148174540425
 20
189.0273907097689
 10
178.1681935088062
 20
189.1277891358248
 10
178.3156372706318
 20
189.2407279785982
 10
178.4563978163624
 20
189.3656815918794
 10
178.5898744074726
 20
189.5020492371432
  0
ARC
  5
9665
330
1F
100
AcDbEntity
  8
10000_Front
  6
Continuous
 62
     7
370
    13
100
AcDbCircle
 10
172.5376290504275
 20
183.1219207054696
 30
0.0
 40
6.72555420301516
100
AcDbArc
 50
60.73524876580188
 51
63.49948433292746
  0
ELLIPSE
  5
9666
330
1F
100
AcDbEntity
  8
10000_Front
  6
Continuous
 62
     7
370
    13
100
AcDbEllipse
 10
177.5177202295009
 20
191.8197495083153
 30
0.0
 11
3.822863185827086
 21
-0.0000000000000671
 31
0.0
210
0.0
220
0.0
230
1.0
 40
0.8190908589678818
 41
3.888539377225785
 42
4.16822386000712
  0
ELLIPSE
  5
9667
330
1F
100
AcDbEntity
  8
10000_Front
  6
Continuous
 62
     7
370
    13
100
AcDbEllipse
 10
135.662104035151
 20
191.8197495083153
 30
0.0
 11
3.822863185827131
 21
0.0000000000000783
 31
0.0
210
0.0
220
0.0
230
1.0
 40
0.8190908589678778
 41
5.256554100762309
 42
7.309816513596849
  0
ARC
  5
9668
330
1F
100
AcDbEntity
  8
10000_Front
  6
Continuous
 62
     7
370
    13
100
AcDbCircle
 10
140.671856479935
 20
200.5756946007006
 30
0.0
 40
6.790779279495035
100
AcDbArc
 50
240.7567073250032
 51
243.4941832476462
  0
LWPOLYLINE
  5
9669
330
1F
100
AcDbEntity
  8
10000_Front
  6
Continuous
 62
     7
370
    13
100
AcDbPolyline
 90
       18
 70
   128
 43
0.0
 10
137.3544311015034
 20
194.6503783997408
 10
137.193808638277
 20
194.7322290238253
 10
137.0289434592151
 20
194.8004879387728
 10
136.860699125948
 20
194.8548547753206
 10
136.6897890154743
 20
194.8950291642061
 10
136.5170391432667
 20
194.9209360131136
 10
136.3432379786396
 20
194.9324251374117
 10
136.1692115370655
 20
194.9293463524691
 10
135.995748287859
 20
194.9118498429171
 10
135.8236367003345
 20
194.8799356087557
 10
135.6537403361225
 20
194.8337538346163
 10
135.4868476645374
 20
194.7735297974459
 10
135.3236720625782
 20
194.6994887741915
 10
135.1650395457172
 20
194.6120813187472
 10
135.0116259447956
 20
194.5116828926912
 10
134.86418218297
 20
194.3987440499178
 10
134.7234216372394
 20
194.2737904366365
 10
134.5899450461292
 20
194.1374227913729
  0
ARC
  5
966A
330
1F
100
AcDbEntity
  8
10000_Front
  6
Continuous
 62
     7
370
    13
100
AcDbCircle
 10
140.8368720881675
 20
182.7554633864
 30
0.0
 40
7.14041603999748
100
AcDbArc
 50
116.5863357300151
 51
119.1900732805522
  0
LWPOLYLINE
  5
966B
330
1F
100
AcDbEntity
  8
10000_Front
  6
Continuous
 62
     7
370
    13
100
AcDbPolyline
 90
       18
 70
   128
 43
0.0
 10
134.5899450461292
 20
189.5020492371432
 10
134.7234216372394
 20
189.3656815918794
 10
134.86418218297
 20
189.2407279785982
 10
135.0116259447956
 20
189.1277891358248
 10
135.1650395457172
 20
189.0273907097689
 10
135.3236720625782
 20
188.9399832543245
 10
135.4868476645374
 20
188.8660173233858
 10
135.6537403361225
 20
188.8057932862153
 10
135.8236367003345
 20
188.759611512076
 10
135.995748287859
 20
188.727622185599
 10
136.1692115370655
 20
188.7101256760469
 10
136.3432379786396
 20
188.70712198342
 10
136.5170391432667
 20
188.7185360154024
 10
136.6897890154743
 20
188.7444428643099
 10
136.860699125948
 20
188.7846923455111
 10
137.0289434592151
 20
188.8390591820589
 10
137.193808638277
 20
188.9073180970064
 10
137.3544311015034
 20
188.9890936287752
  0
LINE
  5
966C
330
1F
100
AcDbEntity
  8
10000_Front
  6
Continuous
 62
     7
370
    50
100
AcDbLine
 10
163.1899047629261
 20
196.7197724350801
 30
0.0
 11
149.9899146906757
 21
196.7197724350801
 31
0.0
  0
LINE
  5
966D
330
1F
100
AcDbEntity
  8
10000_Front
  6
Continuous
 62
     7
370
    13
100
AcDbLine
 10
134.5899450461292
 20
194.1374227913729
 30
0.0
 11
134.5899450461292
 21
189.5020492371431
 31
0.0
  0
LINE
  5
966E
330
1F
100
AcDbEntity
  8
10000_Front
  6
Continuous
 62
     7
370
    13
100
AcDbLine
 10
137.6412086550617
 20
196.7197724350801
 30
0.0
 11
133.1851555506611
 21
196.7197724350801
 31
0.0
  0
LINE
  5
966F
330
1F
100
AcDbEntity
  8
10000_Front
  6
Continuous
 62
     7
370
    13
100
AcDbLine
 10
179.9946639029407
 20
196.7197724350801
 30
0.0
 11
175.53861079854
 21
196.7197724350801
 31
0.0
  0
LINE
  5
9670
330
1F
100
AcDbEntity
  8
10000_Front
  6
Continuous
 62
     7
370
    13
100
AcDbLine
 10
178.5898744074726
 20
189.5020492371431
 30
0.0
 11
178.5898744074726
 21
189.5198461159578
 31
0.0
  0
LINE
  5
9671
330
1F
100
AcDbEntity
  8
10000_Front
  6
Continuous
 62
     7
370
    13
100
AcDbLine
 10
178.5898744074726
 20
194.1196259125582
 30
0.0
 11
178.5898744074726
 21
194.1374227913729
 31
0.0
  0
LINE
  5
9672
330
1F
100
AcDbEntity
  8
10000_Front
  6
Continuous
 62
     7
370
    50
100
AcDbLine
 10
149.9899146906757
 20
196.7197724350801
 30
0.0
 11
144.2863187758941
 21
196.7197724350801
 31
0.0
  0
LINE
  5
9673
330
1F
100
AcDbEntity
  8
10000_Front
  6
Continuous
 62
     7
370
    50
100
AcDbLine
 10
168.8935054887591
 20
196.7197724350801
 30
0.0
 11
163.1899047629261
 21
196.7197724350801
 31
0.0
  0
LINE
  5
9674
330
1F
100
AcDbEntity
  8
10000_Front
  6
Continuous
 62
     7
370
    13
100
AcDbLine
 10
180.4210756174946
 20
196.7197724350801
 30
0.0
 11
179.9946639029407
 21
196.7197724350801
 31
0.0
  0
LINE
  5
9675
330
1F
100
AcDbEntity
  8
10000_Front
  6
Continuous
 62
     7
370
    13
100
AcDbLine
 10
133.1851555506611
 20
196.7197724350801
 30
0.0
 11
132.7587438361072
 21
196.7197724350801
 31
0.0
  0
ARC
  5
9676
330
1F
100
AcDbEntity
  8
10000_Front
  6
Continuous
 62
     7
370
    13
100
AcDbCircle
 10
134.3250428347409
 20
191.4839729142046
 30
0.0
 40
2.940569761376292
100
AcDbArc
 50
210.9497983868968
 51
225.3569896559482
  0
ARC
  5
9677
330
1F
100
AcDbEntity
  8
10000_Front
  6
Continuous
 62
     7
370
    13
100
AcDbCircle
 10
134.3192086728135
 20
192.1599212151259
 30
0.0
 40
2.933292156367564
100
AcDbArc
 50
134.6232396874742
 51
149.065672503586
  0
ARC
  5
9678
330
1F
100
AcDbEntity
  8
10000_Front
  6
Continuous
 62
     7
370
    13
100
AcDbCircle
 10
178.8653319179581
 20
192.1636504636559
 30
0.0
 40
2.927325629532169
100
AcDbArc
 50
30.91922000466479
 51
45.39133335774779
  0
ARC
  5
9679
330
1F
100
AcDbEntity
  8
10000_Front
  6
Continuous
 62
     7
370
    13
100
AcDbCircle
 10
178.8595219053556
 20
191.4802252718397
 30
0.0
 40
2.934572855940626
100
AcDbArc
 50
314.6284316374307
 51
329.0653058475481
  0
LINE
  5
967A
330
1F
100
AcDbEntity
  8
10000_Front
  6
Continuous
 62
     7
370
    50
100
AcDbLine
 10
144.2863187758941
 20
196.7197724350801
 30
0.0
 11
132.089971672716
 21
196.7197724350801
 31
0.0
  0
LINE
  5
967B
102
{ACAD_REACTORS
330
977D
102
}
330
1F
100
AcDbEntity
  8
10000_Front
  6
Continuous
 62
     7
370
    50
100
AcDbLine
 10
181.0898477808855
 20
196.7197724350801
 30
0.0
 11
168.889887532326
 21
196.7197397083152
 31
0.0
  0
ARC
  5
967C
330
1F
100
AcDbEntity
  8
10000_Front
  6
Continuous
 62
     7
370
    13
100
AcDbCircle
 10
133.1124141116492
 20
190.7481595291871
 30
0.0
 40
1.522486500635321
100
AcDbArc
 50
180.4249655914671
 51
210.6893792305528
  0
LINE
  5
967D
330
1F
100
AcDbEntity
  8
10000_Front
  6
Continuous
 62
     7
370
    50
100
AcDbLine
 10
131.5899694888019
 20
190.7368672760836
 30
0.0
 11
131.5899694888019
 21
192.9026047524324
 31
0.0
  0
ARC
  5
967E
330
1F
100
AcDbEntity
  8
10000_Front
  6
Continuous
 62
     7
370
    13
100
AcDbCircle
 10
133.1097894234474
 20
192.8917321759801
 30
0.0
 40
1.519858824583685
100
AcDbArc
 50
149.2836697688324
 51
179.590121104359
  0
ARC
  5
967F
330
1F
100
AcDbEntity
  8
10000_Front
  6
Continuous
 62
     7
370
    13
100
AcDbCircle
 10
180.0670612705106
 20
192.8912691997971
 30
0.0
 40
1.522830884310003
100
AcDbArc
 50
0.4264986540218171
 51
30.68584649117407
  0
ARC
  5
9680
330
1F
100
AcDbEntity
  8
10000_Front
  6
Continuous
 62
     7
370
    13
100
AcDbCircle
 10
180.0700848731593
 20
190.7477163072831
 30
0.0
 40
1.519803814723111
100
AcDbArc
 50
329.2831124859591
 51
359.5909939343136
  0
LINE
  5
9681
330
1F
100
AcDbEntity
  8
10000_Front
  6
Continuous
 62
     7
370
    50
100
AcDbLine
 10
131.5899694888019
 20
192.9026047524324
 30
0.0
 11
131.5899694888019
 21
196.2197327050081
 31
0.0
  0
ARC
  5
9682
330
1F
100
AcDbEntity
  8
10000_Front
  6
Continuous
 62
     7
370
    50
100
AcDbCircle
 10
132.089961132326
 20
196.2197407083153
 30
0.0
 40
0.4999990000000237
100
AcDbArc
 50
90.0
 51
180.0
  0
ARC
  5
9683
330
1F
100
AcDbEntity
  8
10000_Front
  6
Continuous
 62
     7
370
    50
100
AcDbCircle
 10
181.089863132326
 20
196.2197407083153
 30
0.0
 40
0.4999990000000154
100
AcDbArc
 50
0.0
 51
90.0
  0
LINE
  5
9684
330
1F
100
AcDbEntity
  8
10000_Front
  6
Continuous
 62
     7
370
    50
100
AcDbLine
 10
181.5898499647998
 20
196.2197327050081
 30
0.0
 11
181.5898621323261
 21
186.5697600083152
 31
0.0
  0
LINE
  5
9685
330
1F
100
AcDbEntity
  8
10000_Front
  6
Continuous
 62
     7
370
    50
100
AcDbLine
 10
131.589962132326
 20
186.5697600083152
 30
0.0
 11
131.5899694888019
 21
190.7368672760836
 31
0.0
  0
ARC
  5
9686
330
1F
100
AcDbEntity
  8
10000_Front
  6
Continuous
 62
     7
370
    13
100
AcDbCircle
 10
144.289936732326
 20
196.9197393083152
 30
0.0
 40
0.1999995999999815
100
AcDbArc
 50
180.0
 51
270.0
  0
ARC
  5
9687
330
1F
100
AcDbEntity
  8
10000_Front
  6
Continuous
 62
     7
370
    13
100
AcDbCircle
 10
168.889887532326
 20
196.9197393083152
 30
0.0
 40
0.1999995999999815
100
AcDbArc
 50
270.0
 51
0.0
  0
ARC
  5
9688
330
1F
100
AcDbEntity
  8
10000_Front
  6
Continuous
 62
     7
370
    13
100
AcDbCircle
 10
142.4899403323261
 20
197.3697384083152
 30
0.0
 40
0.2999994000000393
100
AcDbArc
 50
0.0
 51
90.0
  0
LINE
  5
9689
330
1F
100
AcDbEntity
  8
10000_Front
  6
Continuous
 62
     7
370
    13
100
AcDbLine
 10
141.9899548403644
 20
197.6697653206698
 30
0.0
 11
142.4899570242786
 21
197.6697653206698
 31
0.0
  0
LINE
  5
968A
330
1F
100
AcDbEntity
  8
10000_Front
  6
Continuous
 62
     7
370
    13
100
AcDbLine
 10
141.4899526564503
 20
198.1697299584261
 30
0.0
 11
141.9899548403644
 21
197.6697653206698
 31
0.0
  0
LINE
  5
968B
330
1F
100
AcDbEntity
  8
10000_Front
  6
Continuous
 62
     7
370
    13
100
AcDbLine
 10
141.4899526564503
 20
198.4697237595431
 30
0.0
 11
141.4899526564503
 21
198.1697299584261
 31
0.0
  0
ARC
  5
968C
330
1F
100
AcDbEntity
  8
10000_Front
  6
Continuous
 62
     7
370
    13
100
AcDbCircle
 10
141.6899419323261
 20
198.4697362083153
 30
0.0
 40
0.1999995999999815
100
AcDbArc
 50
90.0
 51
180.0
  0
LINE
  5
968D
330
1F
100
AcDbEntity
  8
10000_Front
  6
Continuous
 62
     7
370
    13
100
AcDbLine
 10
143.5899468104267
 20
198.6697696884981
 30
0.0
 11
141.6899234930896
 21
198.6697696884981
 31
0.0
  0
ARC
  5
968E
330
1F
100
AcDbEntity
  8
10000_Front
  6
Continuous
 62
     7
370
    13
100
AcDbCircle
 10
143.5899381323261
 20
198.1697368083151
 30
0.0
 40
0.4999990000000937
100
AcDbArc
 50
0.0
 51
90.0
  0
LINE
  5
968F
330
1F
100
AcDbEntity
  8
10000_Front
  6
Continuous
 62
     7
370
    13
100
AcDbLine
 10
144.0899489943409
 20
196.9175610852406
 30
0.0
 11
144.0899489943409
 21
198.1697299584261
 31
0.0
  0
LINE
  5
9690
330
1F
100
AcDbEntity
  8
10000_Front
  6
Continuous
 62
     7
370
    13
100
AcDbLine
 10
149.6899208895588
 20
187.669721642386
 30
0.0
 11
149.6899208895588
 21
196.1697212227693
 31
0.0
  0
LINE
  5
9691
330
1F
100
AcDbEntity
  8
10000_Front
  6
Continuous
 62
     7
370
    13
100
AcDbLine
 10
149.6899208895588
 20
187.669721642386
 30
0.0
 11
163.489898564043
 21
187.669721642386
 31
0.0
  0
LINE
  5
9692
330
1F
100
AcDbEntity
  8
10000_Front
  6
Continuous
 62
     7
370
    13
100
AcDbLine
 10
163.489898564043
 20
187.669721642386
 30
0.0
 11
163.489898564043
 21
196.1697212227693
 31
0.0
  0
LINE
  5
9693
330
1F
100
AcDbEntity
  8
10000_Front
  6
Continuous
 62
     7
370
    13
100
AcDbLine
 10
169.0898704592609
 20
198.1697299584261
 30
0.0
 11
169.0898704592609
 21
196.9171568802546
 31
0.0
  0
ARC
  5
9694
330
1F
100
AcDbEntity
  8
10000_Front
  6
Continuous
 62
     7
370
    13
100
AcDbCircle
 10
169.5898861323261
 20
198.1697368083151
 30
0.0
 40
0.4999990000000937
100
AcDbArc
 50
90.0
 51
180.0
  0
LINE
  5
9695
330
1F
100
AcDbEntity
  8
10000_Front
  6
Continuous
 62
     7
370
    13
100
AcDbLine
 10
171.4898959605122
 20
198.6697696884981
 30
0.0
 11
169.5898726431751
 21
198.6697696884981
 31
0.0
  0
ARC
  5
9696
330
1F
100
AcDbEntity
  8
10000_Front
  6
Continuous
 62
     7
370
    13
100
AcDbCircle
 10
171.4898823323261
 20
198.4697362083153
 30
0.0
 40
0.1999995999999815
100
AcDbArc
 50
0.0
 51
90.0
  0
LINE
  5
9697
330
1F
100
AcDbEntity
  8
10000_Front
  6
Continuous
 62
     7
370
    13
100
AcDbLine
 10
171.6898667971516
 20
198.1697299584261
 30
0.0
 11
171.6898667971516
 21
198.4697237595431
 31
0.0
  0
LINE
  5
9698
330
1F
100
AcDbEntity
  8
10000_Front
  6
Continuous
 62
     7
370
    13
100
AcDbLine
 10
171.1898646132373
 20
197.6697653206698
 30
0.0
 11
171.6898667971516
 21
198.1697299584261
 31
0.0
  0
LINE
  5
9699
330
1F
100
AcDbEntity
  8
10000_Front
  6
Continuous
 62
     7
370
    13
100
AcDbLine
 10
170.689899975481
 20
197.6697653206698
 30
0.0
 11
171.1898646132373
 21
197.6697653206698
 31
0.0
  0
ARC
  5
969A
330
1F
100
AcDbEntity
  8
10000_Front
  6
Continuous
 62
     7
370
    13
100
AcDbCircle
 10
170.6898839323261
 20
197.3697384083152
 30
0.0
 40
0.2999994000000337
100
AcDbArc
 50
90.0
 51
180.0
  0
LINE
  5
969B
330
1F
100
AcDbEntity
  8
10000_Front
  6
Continuous
 62
     7
370
    13
100
AcDbLine
 10
163.489898564043
 20
196.1697212227693
 30
0.0
 11
163.489898564043
 21
196.6697609528414
 31
0.0
  0
LINE
  5
969C
330
1F
100
AcDbEntity
  8
10000_Front
  6
Continuous
 62
     7
370
    13
100
AcDbLine
 10
149.6899208895588
 20
196.6697609528414
 30
0.0
 11
149.6899208895588
 21
196.1697212227693
 31
0.0
  0
LINE
  5
969D
330
1F
100
AcDbEntity
  8
10000_Front
  6
Continuous
 62
     7
370
    13
100
AcDbLine
 10
142.689927860918
 20
186.5697694023958
 30
0.0
 11
142.689927860918
 21
186.0697296723238
 31
0.0
  0
LINE
  5
969E
330
1F
100
AcDbEntity
  8
10000_Front
  6
Continuous
 62
     7
370
    50
100
AcDbLine
 10
137.6412086550617
 20
186.0697296723238
 30
0.0
 11
142.689927860918
 21
186.0697296723238
 31
0.0
  0
LINE
  5
969F
330
1F
100
AcDbEntity
  8
10000_Front
  6
Continuous
 62
     7
370
    13
100
AcDbLine
 10
141.289944273653
 20
186.9697861679903
 30
0.0
 11
141.289944273653
 21
188.0197269257418
 31
0.0
  0
LINE
  5
96A0
330
1F
100
AcDbEntity
  8
10000_Front
  6
Continuous
 62
     7
370
    13
100
AcDbLine
 10
142.389934059801
 20
186.9697861679903
 30
0.0
 11
141.289944273653
 21
186.9697861679903
 31
0.0
  0
ARC
  5
96A1
330
1F
100
AcDbEntity
  8
10000_Front
  6
Continuous
 62
     7
370
    13
100
AcDbCircle
 10
142.389940532326
 20
186.6697598083152
 30
0.0
 40
0.2999993999999778
100
AcDbArc
 50
0.0
 51
90.0
  0
LINE
  5
96A2
330
1F
100
AcDbEntity
  8
10000_Front
  6
Continuous
 62
     7
370
    13
100
AcDbLine
 10
142.689927860918
 20
186.5697694023958
 30
0.0
 11
142.689927860918
 21
186.6697923668733
 31
0.0
  0
LINE
  5
96A3
330
1F
100
AcDbEntity
  8
10000_Front
  6
Continuous
 62
     7
370
    50
100
AcDbLine
 10
170.4898915926837
 20
186.0697296723238
 30
0.0
 11
175.53861079854
 21
186.0697296723238
 31
0.0
  0
LINE
  5
96A4
330
1F
100
AcDbEntity
  8
10000_Front
  6
Continuous
 62
     7
370
    13
100
AcDbLine
 10
144.1899344126606
 20
188.0197269257418
 30
0.0
 11
144.1899344126606
 21
186.0697296723238
 31
0.0
  0
LINE
  5
96A5
330
1F
100
AcDbEntity
  8
10000_Front
  6
Continuous
 62
     7
370
    50
100
AcDbLine
 10
144.1899344126606
 20
186.0697296723238
 30
0.0
 11
168.9898850409411
 21
186.0697296723238
 31
0.0
  0
LINE
  5
96A6
330
1F
100
AcDbEntity
  8
10000_Front
  6
Continuous
 62
     7
370
    13
100
AcDbLine
 10
133.1851555506611
 20
186.0697296723238
 30
0.0
 11
137.6412086550617
 21
186.0697296723238
 31
0.0
  0
LINE
  5
96A7
330
1F
100
AcDbEntity
  8
10000_Front
  6
Continuous
 62
     7
370
    13
100
AcDbLine
 10
175.53861079854
 20
186.0697296723238
 30
0.0
 11
179.9946639029407
 21
186.0697296723238
 31
0.0
  0
LINE
  5
96A8
330
1F
100
AcDbEntity
  8
10000_Front
  6
Continuous
 62
     7
370
    50
100
AcDbLine
 10
142.689927860918
 20
186.0697296723238
 30
0.0
 11
144.1899344126606
 21
186.0697296723238
 31
0.0
  0
LINE
  5
96A9
330
1F
100
AcDbEntity
  8
10000_Front
  6
Continuous
 62
     7
370
    50
100
AcDbLine
 10
168.9898850409411
 20
186.0697296723238
 30
0.0
 11
170.4898915926837
 21
186.0697296723238
 31
0.0
  0
LINE
  5
96AA
330
1F
100
AcDbEntity
  8
10000_Front
  6
Continuous
 62
     7
370
    13
100
AcDbLine
 10
179.9946639029407
 20
186.0697296723238
 30
0.0
 11
180.4210756174946
 21
186.0697296723238
 31
0.0
  0
LINE
  5
96AB
330
1F
100
AcDbEntity
  8
10000_Front
  6
Continuous
 62
     7
370
    13
100
AcDbLine
 10
132.7587438361072
 20
186.0697296723238
 30
0.0
 11
133.1851555506611
 21
186.0697296723238
 31
0.0
  0
ARC
  5
96AC
330
1F
100
AcDbEntity
  8
10000_Front
  6
Continuous
 62
     7
370
    50
100
AcDbCircle
 10
132.089961132326
 20
186.5697600083152
 30
0.0
 40
0.4999990000000937
100
AcDbArc
 50
180.0
 51
270.0
  0
LINE
  5
96AD
330
1F
100
AcDbEntity
  8
10000_Front
  6
Continuous
 62
     7
370
    50
100
AcDbLine
 10
132.089971672716
 20
186.0697296723238
 30
0.0
 11
139.0408918730639
 21
186.0697296723238
 31
0.0
  0
LINE
  5
96AE
102
{ACAD_REACTORS
330
977D
102
}
330
1F
100
AcDbEntity
  8
10000_Front
  6
Continuous
 62
     7
370
    50
100
AcDbLine
 10
174.1389275805377
 20
186.0697296723238
 30
0.0
 11
181.0898477808855
 21
186.0697296723238
 31
0.0
  0
ARC
  5
96AF
330
1F
100
AcDbEntity
  8
10000_Front
  6
Continuous
 62
     7
370
    50
100
AcDbCircle
 10
181.0898631323261
 20
186.5697600083152
 30
0.0
 40
0.4999990000000937
100
AcDbArc
 50
270.0
 51
0.0
  0
LINE
  5
96B0
330
1F
100
AcDbEntity
  8
11000_Left
  6
Continuous
 62
     7
370
    50
100
AcDbLine
 10
181.5898547758501
 20
230.8599131770875
 30
0.0
 11
181.5898547758501
 21
230.5996314777877
 31
0.0
  0
LINE
  5
96B3
330
1F
100
AcDbEntity
  8
11000_Left
  6
Continuous
 62
     7
370
    15
100
AcDbLine
 10
180.289856606905
 20
218.2463753171708
 30
0.0
 11
180.3898795713825
 21
218.2463753171708
 31
0.0
  0
LINE
  5
96B4
330
1F
100
AcDbEntity
  8
11000_Left
  6
Continuous
 62
     7
370
    50
100
AcDbLine
 10
175.0898639311237
 20
218.2463753171708
 30
0.0
 11
175.1898868956012
 21
218.2463753171708
 31
0.0
  0
LINE
  5
96B5
330
1F
100
AcDbEntity
  8
11000_Left
  6
Continuous
 62
     7
370
    50
100
AcDbLine
 10
132.7899495043201
 20
218.2463753171708
 30
0.0
 11
132.8899724687977
 21
218.2463753171708
 31
0.0
  0
LINE
  5
96B6
330
1F
100
AcDbEntity
  8
11000_Left
  6
Continuous
 62
     7
370
    50
100
AcDbLine
 10
137.9899421801013
 20
218.2463753171708
 30
0.0
 11
138.0899651445789
 21
218.2463753171708
 31
0.0
  0
ARC
  5
96B7
330
1F
100
AcDbEntity
  8
11000_Left
  6
Continuous
 62
     7
370
    50
100
AcDbCircle
 10
179.4210852194562
 20
245.8070017602602
 30
0.0
 40
1.49999699999998
100
AcDbArc
 50
328.0000000000009
 51
55.00000000000262
  0
ARC
  5
96B8
330
1F
100
AcDbEntity
  8
11000_Left
  6
Continuous
 62
     7
370
    50
100
AcDbCircle
 10
132.089961132326
 20
218.7463752078228
 30
0.0
 40
0.499998999999993
100
AcDbArc
 50
180.0
 51
270.0
  0
LINE
  5
96B9
330
1F
100
AcDbEntity
  8
11000_Left
  6
Continuous
 62
     7
370
    15
100
AcDbLine
 10
181.5898547758501
 20
219.7463724823739
 30
0.0
 11
181.5898547758501
 21
219.6303501613881
 31
0.0
  0
LINE
  5
96BA
330
1F
100
AcDbEntity
  8
11000_Left
  6
Continuous
 62
     7
370
    50
100
AcDbLine
 10
139.4899487318439
 20
218.2463753171708
 30
0.0
 11
132.0899764837665
 21
218.2463753171708
 31
0.0
  0
LINE
  5
96BF
330
1F
100
AcDbEntity
  8
11000_Left
  6
Continuous
 62
     7
370
    50
100
AcDbLine
 10
181.0898525919361
 20
218.2463753171708
 30
0.0
 11
173.6898803438587
 21
218.2463753171708
 31
0.0
  0
ARC
  5
96C0
102
{ACAD_REACTORS
330
9795
102
}
330
1F
100
AcDbEntity
  8
11000_Left
  6
Continuous
 62
     7
370
    50
100
AcDbCircle
 10
181.0898631323261
 20
218.7463752078228
 30
0.0
 40
0.4999990000000042
100
AcDbArc
 50
270.0
 51
0.0
  0
LINE
  5
96C1
102
{ACAD_REACTORS
330
97AD
102
}
330
1F
100
AcDbEntity
  8
11000_Left
  6
Continuous
 62
     7
370
    50
100
AcDbLine
 10
181.5898547758501
 20
219.6303501613881
 30
0.0
 11
181.5898547758501
 21
218.746377501085
 31
0.0
  0
CIRCLE
  5
96C2
330
1F
100
AcDbEntity
  8
11000_Left
  6
Continuous
 62
     7
370
    13
100
AcDbCircle
 10
166.989891332326
 20
230.9463508078228
 30
0.0
 40
0.9499980999999817
  0
CIRCLE
  5
96C3
330
1F
100
AcDbEntity
  8
11000_Left
  6
Continuous
 62
     7
370
    13
100
AcDbCircle
 10
146.1899329323261
 20
230.9463508078228
 30
0.0
 40
0.9499980999999706
  0
LINE
  5
96C5
330
1F
100
AcDbEntity
  8
11000_Left
  6
Continuous
 62
     7
370
    13
100
AcDbLine
 10
144.1576495279712
 20
248.1463167764689
 30
0.0
 11
144.0899538053913
 21
248.1463167764689
 31
0.0
  0
LINE
  5
96C6
330
1F
100
AcDbEntity
  8
11000_Left
  6
Continuous
 62
     7
370
    13
100
AcDbLine
 10
169.0898752703113
 20
248.1463167764689
 30
0.0
 11
169.0221795477314
 21
248.1463167764689
 31
0.0
  0
LINE
  5
96C8
330
1F
100
AcDbEntity
  8
11000_Left
  6
Continuous
 62
     7
370
    13
100
AcDbLine
 10
144.0899538053913
 20
248.1463167764689
 30
0.0
 11
143.5899516214771
 21
248.1463167764689
 31
0.0
  0
LINE
  5
96CA
330
1F
100
AcDbEntity
  8
11000_Left
  6
Continuous
 62
     7
370
    13
100
AcDbLine
 10
144.0899538053913
 20
250.2463121037628
 30
0.0
 11
144.0899538053913
 21
248.1463167764689
 31
0.0
  0
LINE
  5
96CC
330
1F
100
AcDbEntity
  8
11000_Left
  6
Continuous
 62
     7
370
    13
100
AcDbLine
 10
141.4899574675007
 20
250.2463121037628
 30
0.0
 11
141.4899574675007
 21
248.9463151081349
 31
0.0
  0
LINE
  5
96CE
330
1F
100
AcDbEntity
  8
11000_Left
  6
Continuous
 62
     7
370
    13
100
AcDbLine
 10
171.6898716082019
 20
250.2463121037628
 30
0.0
 11
171.6898716082019
 21
248.9463151081349
 31
0.0
  0
LINE
  5
96CF
330
1F
100
AcDbEntity
  8
11000_Left
  6
Continuous
 62
     7
370
    13
100
AcDbLine
 10
169.0898752703113
 20
248.1463167764689
 30
0.0
 11
169.5898774542255
 21
248.1463167764689
 31
0.0
  0
LINE
  5
96D1
330
1F
100
AcDbEntity
  8
11000_Left
  6
Continuous
 62
     7
370
    13
100
AcDbLine
 10
169.0898752703113
 20
250.2463121037628
 30
0.0
 11
169.0898752703113
 21
248.1463167764689
 31
0.0
  0
LINE
  5
96D3
330
1F
100
AcDbEntity
  8
11000_Left
  6
Continuous
 62
     7
370
    13
100
AcDbLine
 10
169.5898774542255
 20
248.1463167764689
 30
0.0
 11
170.3898734392567
 21
248.1463167764689
 31
0.0
  0
LINE
  5
96D4
330
1F
100
AcDbEntity
  8
11000_Left
  6
Continuous
 62
     7
370
    13
100
AcDbLine
 10
170.3898734392567
 20
248.1463167764689
 30
0.0
 11
171.6898716082019
 21
248.9462931438953
 31
0.0
  0
LINE
  5
96D6
330
1F
100
AcDbEntity
  8
11000_Left
  6
Continuous
 62
     7
370
    13
100
AcDbLine
 10
141.4899574675007
 20
248.9463151081349
 30
0.0
 11
142.789955636446
 21
248.1463167764689
 31
0.0
  0
LINE
  5
96D7
330
1F
100
AcDbEntity
  8
11000_Left
  6
Continuous
 62
     7
370
    13
100
AcDbLine
 10
143.5899516214771
 20
248.1463167764689
 30
0.0
 11
142.789955636446
 21
248.1463167764689
 31
0.0
  0
LINE
  5
96D8
330
1F
100
AcDbEntity
  8
11000_Left
  6
Continuous
 62
     7
370
    50
100
AcDbLine
 10
137.6412134661121
 20
250.2463121037628
 30
0.0
 11
138.4671913923664
 21
250.2463121037628
 31
0.0
  0
LINE
  5
96D9
330
1F
100
AcDbEntity
  8
11000_Left
  6
Continuous
 62
     7
370
    50
100
AcDbLine
 10
131.5899742998523
 20
230.2684954853799
 30
0.0
 11
131.5899742998523
 21
230.5996314777877
 31
0.0
  0
LINE
  5
96DA
330
1F
100
AcDbEntity
  8
11000_Left
  6
Continuous
 62
     7
370
    50
100
AcDbLine
 10
181.5898547758501
 20
230.5996314777877
 30
0.0
 11
181.5898547758501
 21
230.2684954853799
 31
0.0
  0
LINE
  5
96DB
330
1F
100
AcDbEntity
  8
11000_Left
  6
Continuous
 62
     7
370
    15
100
AcDbLine
 10
173.694873982851
 20
250.2463121037628
 30
0.0
 11
175.5386156095905
 21
250.2463121037628
 31
0.0
  0
LINE
  5
96DC
330
1F
100
AcDbEntity
  8
11000_Left
  6
Continuous
 62
     7
370
    50
100
AcDbLine
 10
138.4671913923664
 20
250.2463121037628
 30
0.0
 11
139.4932152475758
 21
250.2463121037628
 31
0.0
  0
LINE
  5
96DE
330
1F
100
AcDbEntity
  8
11000_Left
  6
Continuous
 62
     7
370
    15
100
AcDbLine
 10
139.5899341501636
 20
218.2463753171708
 30
0.0
 11
139.4899487318439
 21
218.2463753171708
 31
0.0
  0
LINE
  5
96DF
330
1F
100
AcDbEntity
  8
11000_Left
  6
Continuous
 62
     7
370
    15
100
AcDbLine
 10
173.6898803438587
 20
218.2463753171708
 30
0.0
 11
173.589894925539
 21
218.2463753171708
 31
0.0
  0
LINE
  5
96E0
330
1F
100
AcDbEntity
  8
11000_Left
  6
Continuous
 62
     7
370
    15
100
AcDbLine
 10
181.5898547758501
 20
219.8463719805028
 30
0.0
 11
181.5898547758501
 21
219.7463724823739
 31
0.0
  0
LINE
  5
96E1
330
1F
100
AcDbEntity
  8
11000_Left
  6
Continuous
 62
     7
370
    50
100
AcDbLine
 10
138.3654413046283
 20
235.6041447760607
 30
0.0
 11
131.8031613840504
 21
231.0092060871865
 31
0.0
  0
LINE
  5
96E2
330
1F
100
AcDbEntity
  8
11000_Left
  6
Continuous
 62
     7
370
    50
100
AcDbLine
 10
181.5898547758501
 20
230.8599131770875
 30
0.0
 11
174.8143877710742
 21
235.6041447760607
 31
0.0
  0
LINE
  5
96E3
330
1F
100
AcDbEntity
  8
11000_Left
  6
Continuous
 62
     7
370
    13
100
AcDbLine
 10
163.1899095739765
 20
249.7463134398009
 30
0.0
 11
163.1899095739765
 21
250.2463121037628
 31
0.0
  0
LINE
  5
96E4
330
1F
100
AcDbEntity
  8
11000_Left
  6
Continuous
 62
     7
370
    13
100
AcDbLine
 10
149.9899195017261
 20
250.2463121037628
 30
0.0
 11
149.9899195017261
 21
249.7463134398009
 31
0.0
  0
ARC
  5
96E6
330
1F
100
AcDbEntity
  8
11000_Left
  6
Continuous
 62
     7
370
    50
100
AcDbCircle
 10
132.0899611323261
 20
230.5996311931297
 30
0.0
 40
0.4999990000000154
100
AcDbArc
 50
124.9999999999974
 51
180.0
  0
LINE
  5
96E7
330
1F
100
AcDbEntity
  8
11000_Left
  6
Continuous
 62
     7
370
    13
100
AcDbLine
 10
131.5899742998523
 20
219.8463719805028
 30
0.0
 11
132.0899764837665
 21
219.8463719805028
 31
0.0
  0
LINE
  5
96E8
330
1F
100
AcDbEntity
  8
11000_Left
  6
Continuous
 62
     7
370
    50
100
AcDbLine
 10
131.5899742998523
 20
230.5996314777877
 30
0.0
 11
131.5899742998523
 21
218.7498633812633
 31
0.0
  0
LINE
  5
96E9
330
1F
100
AcDbEntity
  8
11000_Left
  6
Continuous
 62
     7
370
    13
100
AcDbLine
 10
181.0898525919361
 20
219.8463719805028
 30
0.0
 11
181.5898547758501
 21
219.8463719805028
 31
0.0
  0
LINE
  5
96EA
330
1F
100
AcDbEntity
  8
11000_Left
  6
Continuous
 62
     7
370
    50
100
AcDbLine
 10
181.5898547758501
 20
219.8463719805028
 30
0.0
 11
181.5898547758501
 21
230.5996314777877
 31
0.0
  0
ARC
  5
96EB
330
1F
100
AcDbEntity
  8
11000_Left
  6
Continuous
 62
     7
370
    50
100
AcDbCircle
 10
137.6412155282415
 20
249.7463132078228
 30
0.0
 40
0.4999990000000407
100
AcDbArc
 50
90.0
 51
125.0000000000009
  0
ARC
  5
96EC
102
{ACAD_REACTORS
330
9795
102
}
330
1F
100
AcDbEntity
  8
11000_Left
  6
Continuous
 62
     7
370
    15
100
AcDbCircle
 10
175.5386087364108
 20
249.7463132078227
 30
0.0
 40
0.4999990000001864
100
AcDbArc
 50
54.99999999999998
 51
89.99999999999024
  0
LINE
  5
96ED
330
1F
100
AcDbEntity
  8
11000_Left
  6
Continuous
 62
     7
370
    50
100
AcDbLine
 10
175.5386087364108
 20
250.2463122078228
 30
0.0
 11
137.6412134661121
 21
250.2463121037628
 31
0.0
  0
LINE
  5
96EF
330
1F
100
AcDbEntity
  8
11000_Left
  6
Continuous
 62
     7
370
    50
100
AcDbLine
 10
144.2899246420306
 20
218.2463753171708
 30
0.0
 11
168.889904433672
 21
218.2463753171708
 31
0.0
  0
LINE
  5
96F0
330
1F
100
AcDbEntity
  8
11000_Left
  6
Continuous
 62
     7
370
    50
100
AcDbLine
 10
139.5899341501636
 20
218.2463753171708
 30
0.0
 11
141.4899574675007
 21
218.2463753171708
 31
0.0
  0
LINE
  5
96F1
330
1F
100
AcDbEntity
  8
11000_Left
  6
Continuous
 62
     7
370
    13
100
AcDbLine
 10
139.5899341501636
 20
218.746377501085
 30
0.0
 11
139.5899341501636
 21
218.2463753171708
 31
0.0
  0
LINE
  5
96F2
330
1F
100
AcDbEntity
  8
11000_Left
  6
Continuous
 62
     7
370
    50
100
AcDbLine
 10
171.6898716082019
 20
218.2463753171708
 30
0.0
 11
173.589894925539
 21
218.2463753171708
 31
0.0
  0
LINE
  5
96F3
330
1F
100
AcDbEntity
  8
11000_Left
  6
Continuous
 62
     7
370
    13
100
AcDbLine
 10
173.589894925539
 20
218.2463753171708
 30
0.0
 11
173.589894925539
 21
218.746377501085
 31
0.0
  0
ARC
  5
96F4
330
1F
100
AcDbEntity
  8
11000_Left
  6
Continuous
 62
     7
370
    50
100
AcDbCircle
 10
133.7587390451959
 20
245.8070017602602
 30
0.0
 40
1.499996999999992
100
AcDbArc
 50
125.0
 51
212.0000000000005
  0
ARC
  5
96F5
330
1F
100
AcDbEntity
  8
11000_Left
  6
Continuous
 62
     7
370
    50
100
AcDbCircle
 10
179.4210852194563
 20
245.8070017602602
 30
0.0
 40
1.499996999999994
100
AcDbArc
 50
328.0000000000009
 51
54.99999999999998
  0
LINE
  5
96F6
330
1F
100
AcDbEntity
  8
11000_Left
  6
Continuous
 62
     7
370
    50
100
AcDbLine
 10
132.4866516413135
 20
245.012125438049
 30
0.0
 11
138.3654413046283
 21
235.6041447760607
 31
0.0
  0
LINE
  5
96F7
330
1F
100
AcDbEntity
  8
11000_Left
  6
Continuous
 62
     7
370
    50
100
AcDbLine
 10
174.8143877710742
 20
235.6041447760607
 30
0.0
 11
180.6931398882312
 21
245.012125438049
 31
0.0
  0
LINE
  5
96F8
330
1F
100
AcDbEntity
  8
11000_Left
  6
Continuous
 62
     7
370
    50
100
AcDbLine
 10
137.3544359125538
 20
250.1558880491998
 30
0.0
 11
132.8983828081531
 21
247.0357272406365
 31
0.0
  0
LINE
  5
96F9
330
1F
100
AcDbEntity
  8
11000_Left
  6
Continuous
 62
     7
370
    50
100
AcDbLine
 10
180.2814462675495
 20
247.0357272406365
 30
0.0
 11
175.8253931631488
 21
250.1558880491998
 31
0.0
  0
LINE
  5
96FA
330
1F
100
AcDbEntity
  8
11000_Left
  6
Continuous
 62
     7
370
    13
100
AcDbLine
 10
158.5899045004291
 20
240.7463304485823
 30
0.0
 11
154.5899245752735
 21
240.7463304485823
 31
0.0
  0
LINE
  5
96FB
330
1F
100
AcDbEntity
  8
11000_Left
  6
Continuous
 62
     7
370
    13
100
AcDbLine
 10
158.5899045004291
 20
227.7463581456687
 30
0.0
 11
158.5899045004291
 21
240.7463304485823
 31
0.0
  0
LINE
  5
96FC
330
1F
100
AcDbEntity
  8
11000_Left
  6
Continuous
 62
     7
370
    13
100
AcDbLine
 10
154.5899245752735
 20
227.7463581456687
 30
0.0
 11
158.5899045004291
 21
227.7463581456687
 31
0.0
  0
LINE
  5
96FD
330
1F
100
AcDbEntity
  8
11000_Left
  6
Continuous
 62
     7
370
    13
100
AcDbLine
 10
154.5899245752735
 20
240.7463304485823
 30
0.0
 11
154.5899245752735
 21
227.7463581456687
 31
0.0
  0
LINE
  5
96FE
330
1F
100
AcDbEntity
  8
11000_Left
  6
Continuous
 62
     7
370
    13
100
AcDbLine
 10
163.1899095739765
 20
248.1463167764689
 30
0.0
 11
169.0221795477314
 21
248.1463167764689
 31
0.0
  0
LINE
  5
96FF
330
1F
100
AcDbEntity
  8
11000_Left
  6
Continuous
 62
     7
370
    13
100
AcDbLine
 10
163.1899095739765
 20
249.7463134398009
 30
0.0
 11
163.1899095739765
 21
248.1463167764689
 31
0.0
  0
LINE
  5
9700
330
1F
100
AcDbEntity
  8
11000_Left
  6
Continuous
 62
     7
370
    13
100
AcDbLine
 10
149.9899195017261
 20
248.1463167764689
 30
0.0
 11
149.9899195017261
 21
249.7463134398009
 31
0.0
  0
LINE
  5
9701
330
1F
100
AcDbEntity
  8
11000_Left
  6
Continuous
 62
     7
370
    13
100
AcDbLine
 10
144.1576495279712
 20
248.1463167764689
 30
0.0
 11
149.9899195017261
 21
248.1463167764689
 31
0.0
  0
LINE
  5
9702
330
1F
100
AcDbEntity
  8
11000_Left
  6
Continuous
 62
     7
370
    13
100
AcDbLine
 10
139.5899341501636
 20
219.8463719805028
 30
0.0
 11
132.0899764837665
 21
219.8463719805028
 31
0.0
  0
LINE
  5
9703
330
1F
100
AcDbEntity
  8
11000_Left
  6
Continuous
 62
     7
370
    13
100
AcDbLine
 10
139.5899341501636
 20
218.746377501085
 30
0.0
 11
139.5899341501636
 21
219.8463719805028
 31
0.0
  0
LINE
  5
9704
330
1F
100
AcDbEntity
  8
11000_Left
  6
Continuous
 62
     7
370
    13
100
AcDbLine
 10
173.589894925539
 20
219.8463719805028
 30
0.0
 11
173.589894925539
 21
218.746377501085
 31
0.0
  0
LINE
  5
9705
330
1F
100
AcDbEntity
  8
11000_Left
  6
Continuous
 62
     7
370
    13
100
AcDbLine
 10
181.0898525919361
 20
219.8463719805028
 30
0.0
 11
173.589894925539
 21
219.8463719805028
 31
0.0
  0
LINE
  5
9706
330
1F
100
AcDbEntity
  8
11000_Left
  6
Continuous
 62
     7
370
    15
100
AcDbLine
 10
144.2899246420306
 20
218.2463753171708
 30
0.0
 11
144.0899538053913
 21
218.2463753171708
 31
0.0
  0
LINE
  5
9707
330
1F
100
AcDbEntity
  8
11000_Left
  6
Continuous
 62
     7
370
    15
100
AcDbLine
 10
169.0898752703113
 20
218.2463753171708
 30
0.0
 11
168.889904433672
 21
218.2463753171708
 31
0.0
  0
LINE
  5
9708
330
1F
100
AcDbEntity
  8
11000_Left
  6
Continuous
 62
     7
370
    13
100
AcDbLine
 10
169.1898982347888
 20
235.7463414623286
 30
0.0
 11
169.1898982347888
 21
237.7463361181761
 31
0.0
  0
LINE
  5
9709
330
1F
100
AcDbEntity
  8
11000_Left
  6
Continuous
 62
     7
370
    13
100
AcDbLine
 10
170.8898756231708
 20
237.7463361181761
 30
0.0
 11
170.8898756231708
 21
235.7463414623286
 31
0.0
  0
LINE
  5
970A
330
1F
100
AcDbEntity
  8
11000_Left
  6
Continuous
 62
     7
370
    13
100
AcDbLine
 10
169.1898982347888
 20
237.7463361181761
 30
0.0
 11
170.8898756231708
 21
237.7463361181761
 31
0.0
  0
LINE
  5
970B
330
1F
100
AcDbEntity
  8
11000_Left
  6
Continuous
 62
     7
370
    13
100
AcDbLine
 10
142.2899534525318
 20
235.7463414623286
 30
0.0
 11
142.2899534525318
 21
237.7463361181761
 31
0.0
  0
LINE
  5
970C
330
1F
100
AcDbEntity
  8
11000_Left
  6
Continuous
 62
     7
370
    13
100
AcDbLine
 10
143.9899308409137
 20
235.7463414623286
 30
0.0
 11
143.9899308409137
 21
237.7463361181761
 31
0.0
  0
LINE
  5
970D
330
1F
100
AcDbEntity
  8
11000_Left
  6
Continuous
 62
     7
370
    13
100
AcDbLine
 10
142.2899534525318
 20
237.7463361181761
 30
0.0
 11
143.9899308409137
 21
237.7463361181761
 31
0.0
  0
LINE
  5
970E
330
1F
100
AcDbEntity
  8
11000_Left
  6
Continuous
 62
     7
370
    13
100
AcDbLine
 10
169.1898982347888
 20
233.1463474710728
 30
0.0
 11
170.8898756231708
 21
233.1463474710728
 31
0.0
  0
LINE
  5
970F
330
1F
100
AcDbEntity
  8
11000_Left
  6
Continuous
 62
     7
370
    13
100
AcDbLine
 10
170.8898756231708
 20
233.1463474710728
 30
0.0
 11
170.8898756231708
 21
232.7463471319224
 31
0.0
  0
LINE
  5
9710
330
1F
100
AcDbEntity
  8
11000_Left
  6
Continuous
 62
     7
370
    13
100
AcDbLine
 10
169.1898982347888
 20
232.7463471319224
 30
0.0
 11
169.1898982347888
 21
233.1463474710728
 31
0.0
  0
LINE
  5
9711
330
1F
100
AcDbEntity
  8
11000_Left
  6
Continuous
 62
     7
370
    13
100
AcDbLine
 10
142.2899534525318
 20
230.74635012944
 30
0.0
 11
142.2899534525318
 21
232.7463471319224
 31
0.0
  0
LINE
  5
9712
330
1F
100
AcDbEntity
  8
11000_Left
  6
Continuous
 62
     7
370
    13
100
AcDbLine
 10
143.9899308409137
 20
230.74635012944
 30
0.0
 11
143.9899308409137
 21
232.7463471319224
 31
0.0
  0
LINE
  5
9713
330
1F
100
AcDbEntity
  8
11000_Left
  6
Continuous
 62
     7
370
    13
100
AcDbLine
 10
143.9899308409137
 20
230.74635012944
 30
0.0
 11
142.2899534525318
 21
230.74635012944
 31
0.0
  0
LINE
  5
9714
330
1F
100
AcDbEntity
  8
11000_Left
  6
Continuous
 62
     7
370
    13
100
AcDbLine
 10
169.1898982347888
 20
230.74635012944
 30
0.0
 11
169.1898982347888
 21
232.7463471319224
 31
0.0
  0
LINE
  5
9715
330
1F
100
AcDbEntity
  8
11000_Left
  6
Continuous
 62
     7
370
    13
100
AcDbLine
 10
170.8898756231708
 20
230.74635012944
 30
0.0
 11
169.1898982347888
 21
230.74635012944
 31
0.0
  0
LINE
  5
9716
330
1F
100
AcDbEntity
  8
11000_Left
  6
Continuous
 62
     7
370
    13
100
AcDbLine
 10
170.8898756231708
 20
232.7463471319224
 30
0.0
 11
170.8898756231708
 21
230.74635012944
 31
0.0
  0
LINE
  5
9717
330
1F
100
AcDbEntity
  8
11000_Left
  6
Continuous
 62
     7
370
    13
100
AcDbLine
 10
142.2899534525318
 20
235.3463411231782
 30
0.0
 11
142.2899534525318
 21
235.7463414623286
 31
0.0
  0
LINE
  5
9718
330
1F
100
AcDbEntity
  8
11000_Left
  6
Continuous
 62
     7
370
    13
100
AcDbLine
 10
143.9899308409137
 20
235.3463411231782
 30
0.0
 11
142.2899534525318
 21
235.3463411231782
 31
0.0
  0
LINE
  5
9719
330
1F
100
AcDbEntity
  8
11000_Left
  6
Continuous
 62
     7
370
    13
100
AcDbLine
 10
143.9899308409137
 20
235.3463411231782
 30
0.0
 11
143.9899308409137
 21
235.7463414623286
 31
0.0
  0
LINE
  5
971A
330
1F
100
AcDbEntity
  8
11000_Left
  6
Continuous
 62
     7
370
    13
100
AcDbLine
 10
142.2899534525318
 20
232.7463471319224
 30
0.0
 11
142.2899534525318
 21
233.1463474710728
 31
0.0
  0
LINE
  5
971B
330
1F
100
AcDbEntity
  8
11000_Left
  6
Continuous
 62
     7
370
    13
100
AcDbLine
 10
143.9899308409137
 20
232.7463471319224
 30
0.0
 11
143.9899308409137
 21
233.1463474710728
 31
0.0
  0
LINE
  5
971C
330
1F
100
AcDbEntity
  8
11000_Left
  6
Continuous
 62
     7
370
    13
100
AcDbLine
 10
142.2899534525318
 20
233.1463474710728
 30
0.0
 11
143.9899308409137
 21
233.1463474710728
 31
0.0
  0
LINE
  5
971D
330
1F
100
AcDbEntity
  8
11000_Left
  6
Continuous
 62
     7
370
    13
100
AcDbLine
 10
169.1898982347888
 20
235.3463411231782
 30
0.0
 11
169.1898982347888
 21
235.7463414623286
 31
0.0
  0
LINE
  5
971E
330
1F
100
AcDbEntity
  8
11000_Left
  6
Continuous
 62
     7
370
    13
100
AcDbLine
 10
170.8898756231708
 20
235.3463411231782
 30
0.0
 11
169.1898982347888
 21
235.3463411231782
 31
0.0
  0
LINE
  5
971F
330
1F
100
AcDbEntity
  8
11000_Left
  6
Continuous
 62
     7
370
    13
100
AcDbLine
 10
170.8898756231708
 20
235.7463414623286
 30
0.0
 11
170.8898756231708
 21
235.3463411231782
 31
0.0
  0
LINE
  5
9720
330
1F
100
AcDbEntity
  8
11000_Left
  6
Continuous
 62
     7
370
    50
100
AcDbLine
 10
143.889945422594
 20
218.2463753171707
 30
0.0
 11
141.6899283041401
 21
218.2463753171707
 31
0.0
  0
LINE
  5
9721
330
1F
100
AcDbEntity
  8
11000_Left
  6
Continuous
 62
     7
370
    15
100
AcDbLine
 10
169.2898836531085
 20
218.2463753171707
 30
0.0
 11
169.0898752703113
 21
218.2463753171707
 31
0.0
  0
LINE
  5
9722
330
1F
100
AcDbEntity
  8
11000_Left
  6
Continuous
 62
     7
370
    13
100
AcDbLine
 10
169.0898752703113
 20
218.2463753171707
 30
0.0
 11
169.0898752703113
 21
220.7467945512082
 31
0.0
  0
LINE
  5
9723
330
1F
100
AcDbEntity
  8
11000_Left
  6
Continuous
 62
     7
370
    50
100
AcDbLine
 10
141.6899283041401
 20
218.2463753171707
 30
0.0
 11
141.4899574675007
 21
218.2463753171707
 31
0.0
  0
LINE
  5
9724
330
1F
100
AcDbEntity
  8
11000_Left
  6
Continuous
 62
     7
370
    13
100
AcDbLine
 10
141.4899574675007
 20
220.7467945512082
 30
0.0
 11
141.4899574675007
 21
218.2463753171707
 31
0.0
  0
LINE
  5
9725
330
1F
100
AcDbEntity
  8
11000_Left
  6
Continuous
 62
     7
370
    13
100
AcDbLine
 10
141.4899574675007
 20
220.7467945512082
 30
0.0
 11
144.0899538053913
 21
220.7467945512082
 31
0.0
  0
LINE
  5
9726
330
1F
100
AcDbEntity
  8
11000_Left
  6
Continuous
 62
     7
370
    15
100
AcDbLine
 10
144.0899538053913
 20
218.2463753171707
 30
0.0
 11
143.889945422594
 21
218.2463753171707
 31
0.0
  0
LINE
  5
9727
330
1F
100
AcDbEntity
  8
11000_Left
  6
Continuous
 62
     7
370
    13
100
AcDbLine
 10
144.0899538053913
 20
220.7467945512082
 30
0.0
 11
144.0899538053913
 21
218.2463753171707
 31
0.0
  0
LINE
  5
9728
330
1F
100
AcDbEntity
  8
11000_Left
  6
Continuous
 62
     7
370
    50
100
AcDbLine
 10
171.6898716082019
 20
218.2463753171707
 30
0.0
 11
169.2898836531085
 21
218.2463753171707
 31
0.0
  0
LINE
  5
9729
330
1F
100
AcDbEntity
  8
11000_Left
  6
Continuous
 62
     7
370
    13
100
AcDbLine
 10
171.6898716082019
 20
220.7467945512082
 30
0.0
 11
171.6898716082019
 21
218.2463753171707
 31
0.0
  0
LINE
  5
972A
330
1F
100
AcDbEntity
  8
11000_Left
  6
Continuous
 62
     7
370
    13
100
AcDbLine
 10
169.0898752703113
 20
220.7467945512082
 30
0.0
 11
171.6898716082019
 21
220.7467945512082
 31
0.0
  0
LINE
  5
972B
330
1F
100
AcDbEntity
  8
11000_Left
  6
Continuous
 62
     7
370
    13
100
AcDbLine
 10
157.6605995478077
 20
229.8292124785926
 30
0.0
 11
155.4605824293537
 21
229.8292124785926
 31
0.0
  0
LINE
  5
972C
330
1F
100
AcDbEntity
  8
11000_Left
  6
Continuous
 62
     7
370
    13
100
AcDbLine
 10
155.4605824293537
 20
232.4292064698483
 30
0.0
 11
157.6605995478077
 21
232.4292064698483
 31
0.0
  0
LINE
  5
972D
330
1F
100
AcDbEntity
  8
11000_Left
  6
Continuous
 62
     7
370
    13
100
AcDbLine
 10
157.6605995478077
 20
232.4292064698483
 30
0.0
 11
157.6605995478077
 21
229.8292124785926
 31
0.0
  0
LINE
  5
972E
330
1F
100
AcDbEntity
  8
11000_Left
  6
Continuous
 62
     7
370
    13
100
AcDbLine
 10
155.4605824293537
 20
229.8292124785926
 30
0.0
 11
155.4605824293537
 21
232.4292064698483
 31
0.0
  0
DIMENSION
  5
9766
102
{ACAD_XDICTIONARY
360
9773
102
}
102
{ACAD_REACTORS
330
977D
102
}
330
1F
100
AcDbEntity
  8
10100_Front_Dim
  6
Continuous
 62
     7
370
    13
100
AcDbDimension
  2
*D2
 10
189.5838843530995
 20
186.0697296723238
 30
0.0
 11
189.5838843530995
 21
191.394751053702
 31
0.0
 70
   160
 71
     5
 42
10.6500427627563
  3
H035
100
AcDbAlignedDimension
 13
181.0898477808855
 23
196.7197724350801
 33
0.0
 14
181.0898477808855
 24
186.0697296723238
 34
0.0
 50
90.0
100
AcDbRotatedDimension
1001
ACAD
1000
DSTYLE
1002
{
1070
   172
1070
     0
1070
   175
1070
     1
1070
    40
1040
1.0
1070
    77
1070
     0
1070
   147
1040
1.5
1070
   178
1070
     7
1070
   272
1070
     0
1070
   279
1070
     2
1070
   288
1070
     1
1002
}
  0
DIMENSION
  5
977E
102
{ACAD_XDICTIONARY
360
978B
102
}
102
{ACAD_REACTORS
330
9795
102
}
330
1F
100
AcDbEntity
  8
11100_Left_Dim
  6
Continuous
 62
     7
370
    13
100
AcDbDimension
  2
*D3
 10
189.9716992460075
 20
250.2463122078228
 30
0.0
 11
189.9716992460075
 21
234.4487351289727
 31
0.0
 70
    32
 71
     5
 42
31.59515415770031
  3
H035
100
AcDbAlignedDimension
 13
181.5807120835122
 23
218.6511580501225
 33
0.0
 14
175.5386087364108
 24
250.2463122078228
 34
0.0
 50
90.0
100
AcDbRotatedDimension
1001
ACAD
1000
DSTYLE
1002
{
1070
    40
1040
1.0
1070
    77
1070
     0
1070
   147
1040
1.5
1070
   178
1070
     7
1070
   272
1070
     0
1070
   279
1070
     1
1070
   288
1070
     1
1002
}
  0
DIMENSION
  5
9796
102
{ACAD_XDICTIONARY
360
97A3
102
}
102
{ACAD_REACTORS
330
97AD
102
}
330
1F
100
AcDbEntity
  8
11100_Left_Dim
  6
Continuous
 62
     7
370
    13
100
AcDbDimension
  2
*D4
 10
181.5898547758501
 20
212.3274302701286
 30
0.0
 11
156.5899145378513
 21
212.3274302701286
 31
0.0
 70
    32
 71
     5
 42
49.99988047599789
  3
H035
100
AcDbAlignedDimension
 13
131.5899742998523
 23
218.7428870343835
 33
0.0
 14
181.5898547758501
 24
218.746377501085
 34
0.0
100
AcDbRotatedDimension
1001
ACAD
1000
DSTYLE
1002
{
1070
    40
1040
1.0
1070
    77
1070
     0
1070
   147
1040
1.5
1070
   178
1070
     7
1070
   272
1070
     0
1070
   279
1070
     1
1070
   288
1070
     1
1002
}
  0
ENDSEC
  0
SECTION
  2
OBJECTS
  0
DICTIONARY
  5
C
330
0
100
AcDbDictionary
281
     1
  3
ACAD_COLOR
350
6B
  3
ACAD_GROUP
350
D
  3
ACAD_LAYOUT
350
1A
  3
ACAD_MATERIAL
350
6A
  3
ACAD_MLINESTYLE
350
17
  3
ACAD_PLOTSETTINGS
350
19
  3
ACAD_PLOTSTYLENAME
350
E
  3
ACAD_TABLESTYLE
350
9892
  3
ACAD_VISUALSTYLE
350
9881
  3
AcDbVariableDictionary
350
5E
  3
DWGPROPS
350
98B6
  0
DICTIONARY
  5
9897
330
2
100
AcDbDictionary
280
     1
281
     1
  3
ACAD_LAYERFILTERS
360
9899
  3
ACLYDICTIONARY
360
9898
  0
DICTIONARY
  5
9773
330
9766
100
AcDbDictionary
280
     1
281
     1
  3
ACAD_DIMASSOC
360
977D
  0
DICTIONARY
  5
978B
330
977E
100
AcDbDictionary
280
     1
281
     1
  3
ACAD_DIMASSOC
360
9795
  0
DICTIONARY
  5
97A3
330
9796
100
AcDbDictionary
280
     1
281
     1
  3
ACAD_DIMASSOC
360
97AD
  0
DICTIONARY
  5
6B
102
{ACAD_REACTORS
330
C
102
}
330
C
100
AcDbDictionary
281
     1
  0
DICTIONARY
  5
D
102
{ACAD_REACTORS
330
C
102
}
330
C
100
AcDbDictionary
281
     1
  0
DICTIONARY
  5
1A
102
{ACAD_REACTORS
330
C
102
}
330
C
100
AcDbDictionary
281
     1
  3
Layout1
350
51
  3
Layout2
350
56
  3
Model
350
22
  0
DICTIONARY
  5
6A
102
{ACAD_REACTORS
330
C
102
}
330
C
100
AcDbDictionary
281
     1
  3
ByBlock
350
987F
  3
ByLayer
350
987E
  3
Global
350
9880
  0
DICTIONARY
  5
17
102
{ACAD_REACTORS
330
C
102
}
330
C
100
AcDbDictionary
281
     1
  3
Standard
350
18
  0
DICTIONARY
  5
19
102
{ACAD_REACTORS
330
C
102
}
330
C
100
AcDbDictionary
281
     1
  0
ACDBDICTIONARYWDFLT
  5
E
102
{ACAD_REACTORS
330
C
102
}
330
C
100
AcDbDictionary
281
     1
  3
Normal
350
F
100
AcDbDictionaryWithDefault
340
F
  0
DICTIONARY
  5
9892
102
{ACAD_REACTORS
330
C
102
}
330
C
100
AcDbDictionary
281
     1
  3
Standard
350
9893
  0
DICTIONARY
  5
9881
102
{ACAD_REACTORS
330
C
102
}
330
C
100
AcDbDictionary
281
     1
  3
2dWireframe
350
9887
  3
3D Hidden
350
9889
  3
3dWireframe
350
9888
  3
Basic
350
9886
  3
Brighten
350
988D
  3
ColorChange
350
9891
  3
Conceptual
350
988A
  3
Dim
350
988C
  3
Facepattern
350
9890
  3
Flat
350
9882
  3
FlatWithEdges
350
9883
  3
Gouraud
350
9884
  3
GouraudWithEdges
350
9885
  3
Linepattern
350
988F
  3
Realistic
350
988B
  3
Thicken
350
988E
  0
DICTIONARY
  5
5E
102
{ACAD_REACTORS
330
C
102
}
330
C
100
AcDbDictionary
281
     1
  3
CTABLESTYLE
350
98A4
  3
DIMASSOC
350
5F
  3
HIDETEXT
350
63
  3
INDEXCTL
350
98A6
  3
PROJECTNAME
350
B06
  3
SORTENTS
350
98A5
  0
XRECORD
  5
98B6
102
{ACAD_REACTORS
330
C
102
}
330
C
100
AcDbXrecord
280
     1
  1
DWGPROPS COOKIE
  2

  3

  4

  6

  7

  8
chpf
  9

300
=
301
=
302
=
303
=
304
=
305
=
306
=
307
=
308
=
309
=
 40
0.5567707638888889
 41
2453634.328971389
 42
2453976.650916297
  1

 90
        0
  0
DICTIONARY
  5
9899
102
{ACAD_REACTORS
330
9897
102
}
330
9897
100
AcDbDictionary
281
     1
  0
DICTIONARY
  5
9898
102
{ACAD_REACTORS
330
9897
102
}
330
9897
100
AcDbDictionary
281
     1
1001
ACAD
1000
<All
  0
DIMASSOC
  5
977D
102
{ACAD_REACTORS
330
9773
102
}
330
9773
100
AcDbDimAssoc
330
9766
 90
        3
 70
     0
 71
     0
  1
AcDbOsnapPointRef
 72
    13
331
967B
 73
     2
 91
        0
 40
0.0
 10
0.0
 20
0.0
 30
2.000000000000000E+50
 75
     0
  1
AcDbOsnapPointRef
 72
     1
331
96AE
 73
     2
 91
        0
 40
1.0
 10
0.0
 20
0.0
 30
2.000000000000000E+50
 75
     0
  0
DIMASSOC
  5
9795
102
{ACAD_REACTORS
330
978B
102
}
330
978B
100
AcDbDimAssoc
330
977E
 90
        3
 70
     0
 71
     0
  1
AcDbOsnapPointRef
 72
     8
331
96C0
 73
     2
 91
        0
 40
4.919944527262217
 10
0.0
 20
0.0
 30
0.0
 75
     1
  1
AcDbOsnapPointRef
 72
     0
 40
0.0
 10
358.9377170729647
 20
184.2466230653364
 30
0.0
 75
     0
  1
AcDbOsnapPointRef
 72
     5
331
96EC
 73
     2
 91
        0
 40
1.570796326794896
 10
0.0
 20
0.0
 30
0.0
 75
     0
  0
DIMASSOC
  5
97AD
102
{ACAD_REACTORS
330
97A3
102
}
330
97A3
100
AcDbDimAssoc
330
9796
 90
        2
 70
     0
 71
     0
  1
AcDbOsnapPointRef
 72
     1
331
96C1
 73
     2
 91
        0
 40
1.0
 10
0.0
 20
0.0
 30
2.000000000000000E+50
 75
     0
  0
LAYOUT
  5
51
102
{ACAD_XDICTIONARY
360
98B9
102
}
102
{ACAD_REACTORS
330
1A
102
}
330
1A
100
AcDbPlotSettings
  1

  2
None
  4

  6

 40
0.0
 41
0.0
 42
0.0
 43
0.0
 44
0.0
 45
0.0
 46
0.0
 47
0.0
 48
0.0
 49
0.0
140
0.0
141
0.0
142
1.0
143
1.0
 70
   688
 72
     0
 73
     0
 74
     5
  7

 75
    16
147
1.0
148
0.0
149
0.0
100
AcDbLayout
  1
Layout1
 70
     1
 71
     1
 10
0.0
 20
0.0
 11
12.0
 21
9.0
 12
0.0
 22
0.0
 32
0.0
 14
0.0
 24
0.0
 34
0.0
 15
0.0
 25
0.0
 35
0.0
146
0.0
 13
0.0
 23
0.0
 33
0.0
 16
1.0
 26
0.0
 36
0.0
 17
0.0
 27
1.0
 37
0.0
 76
     0
330
50
  0
LAYOUT
  5
56
102
{ACAD_XDICTIONARY
360
98BB
102
}
102
{ACAD_REACTORS
330
1A
102
}
330
1A
100
AcDbPlotSettings
  1

  2
None
  4

  6

 40
0.0
 41
0.0
 42
0.0
 43
0.0
 44
0.0
 45
0.0
 46
0.0
 47
0.0
 48
0.0
 49
0.0
140
0.0
141
0.0
142
1.0
143
1.0
 70
   688
 72
     0
 73
     0
 74
     5
  7

 75
    16
147
1.0
148
0.0
149
0.0
100
AcDbLayout
  1
Layout2
 70
     1
 71
     2
 10
0.0
 20
0.0
 11
12.0
 21
9.0
 12
0.0
 22
0.0
 32
0.0
 14
0.0
 24
0.0
 34
0.0
 15
0.0
 25
0.0
 35
0.0
146
0.0
 13
0.0
 23
0.0
 33
0.0
 16
1.0
 26
0.0
 36
0.0
 17
0.0
 27
1.0
 37
0.0
 76
     0
330
55
  0
LAYOUT
  5
22
102
{ACAD_XDICTIONARY
360
98B7
102
}
102
{ACAD_REACTORS
330
1A
102
}
330
1A
100
AcDbPlotSettings
  1

  2
\\ambw779a\A_P00390 (HP LaserJet 5000 Series PCL 6)
  4
A4
  6

 40
4.233333110809326
 41
4.233341693878172
 42
7.789321899414062
 43
4.23333740234375
 44
209.9733276367186
 45
296.9259948730469
 46
0.0
 47
0.0
 48
0.0
 49
0.0
140
0.0
141
0.0
142
1.0
143
1.0105916758742
 70
 11952
 72
     1
 73
     0
 74
     1
  7

 75
     0
147
0.9895193319645748
148
-50.67993267751297
149
-59.49667927573057
100
AcDbLayout
  1
Model
 70
     1
 71
     0
 10
0.0
 20
0.0
 11
12.0
 21
9.0
 12
0.0
 22
0.0
 32
0.0
 14
0.0
 24
0.0
 34
0.0
 15
0.0
 25
0.0
 35
0.0
146
0.0
 13
0.0
 23
0.0
 33
0.0
 16
1.0
 26
0.0
 36
0.0
 17
0.0
 27
1.0
 37
0.0
 76
     0
330
1F
331
9870
  0
MATERIAL
  5
987F
102
{ACAD_XDICTIONARY
360
98BF
102
}
102
{ACAD_REACTORS
330
6A
102
}
330
6A
100
AcDbMaterial
  1
ByBlock
  0
MATERIAL
  5
987E
102
{ACAD_XDICTIONARY
360
98BD
102
}
102
{ACAD_REACTORS
330
6A
102
}
330
6A
100
AcDbMaterial
  1
ByLayer
  0
MATERIAL
  5
9880
102
{ACAD_XDICTIONARY
360
98C1
102
}
102
{ACAD_REACTORS
330
6A
102
}
330
6A
100
AcDbMaterial
  1
Global
  0
MLINESTYLE
  5
18
102
{ACAD_REACTORS
330
17
102
}
330
17
100
AcDbMlineStyle
  2
STANDARD
 70
     0
  3

 62
   256
 51
90.0
 52
90.0
 71
     2
 49
0.5
 62
   256
  6
BYLAYER
 49
-0.5
 62
   256
  6
BYLAYER
  0
ACDBPLACEHOLDER
  5
F
102
{ACAD_REACTORS
330
E
102
}
330
E
  0
TABLESTYLE
  5
9893
102
{ACAD_XDICTIONARY
360
98C3
102
}
102
{ACAD_REACTORS
330
9892
102
}
330
9892
100
AcDbTableStyle
  3
Standard
 70
     0
 71
     0
 40
1.5
 41
1.5
280
     0
281
     0
  7
Standard
140
4.5
170
     2
 62
     0
 63
     7
283
     0
274
    -2
284
     1
 64
     0
275
    -2
285
     1
 65
     0
276
    -2
286
     1
 66
     0
277
    -2
287
     1
 67
     0
278
    -2
288
     1
 68
     0
279
    -2
289
     1
 69
     0
  7
Standard
140
6.0
170
     5
 62
     0
 63
     7
283
     0
274
    -2
284
     1
 64
     0
275
    -2
285
     1
 65
     0
276
    -2
286
     1
 66
     0
277
    -2
287
     1
 67
     0
278
    -2
288
     1
 68
     0
279
    -2
289
     1
 69
     0
  7
Standard
140
4.5
170
     5
 62
     0
 63
     7
283
     0
274
    -2
284
     1
 64
     0
275
    -2
285
     1
 65
     0
276
    -2
286
     1
 66
     0
277
    -2
287
     1
 67
     0
278
    -2
288
     1
 68
     0
279
    -2
289
     1
 69
     0
  0
VISUALSTYLE
  5
9887
102
{ACAD_REACTORS
330
9881
102
}
330
9881
100
AcDbVisualStyle
  2
2dWireframe
 70
     4
 71
     0
 72
     2
 73
     0
 90
        0
 40
-0.6
 41
-30.0
 62
     5
 63
     7
 74
     1
 91
        4
 64
     7
 65
   257
 75
     1
175
     1
 42
1.0
 92
        0
 66
   257
 43
1.0
 76
     1
 77
     6
 78
     2
 67
     7
 79
     5
170
     0
171
     0
290
     0
174
     0
 93
        1
 44
0.0
173
     0
291
     0
 45
0.0
1001
ACAD
1000
AcDbSavedByObjectVersion
1070
     0
  0
VISUALSTYLE
  5
9889
102
{ACAD_REACTORS
330
9881
102
}
330
9881
100
AcDbVisualStyle
  2
3D Hidden
 70
     6
 71
     1
 72
     2
 73
     2
 90
        0
 40
-0.6
 41
-30.0
 62
     5
 63
     7
 74
     2
 91
        2
 64
     7
 65
   257
 75
     2
175
     1
 42
40.0
 92
        0
 66
   257
 43
1.0
 76
     1
 77
     6
 78
     2
 67
     7
 79
     3
170
     0
171
     0
290
     0
174
     0
 93
        1
 44
0.0
173
     0
291
     0
 45
0.0
1001
ACAD
1000
AcDbSavedByObjectVersion
1070
     0
  0
VISUALSTYLE
  5
9888
102
{ACAD_REACTORS
330
9881
102
}
330
9881
100
AcDbVisualStyle
  2
3dWireframe
 70
     5
 71
     0
 72
     2
 73
     0
 90
        0
 40
-0.6
 41
-30.0
 62
     5
 63
     7
 74
     1
 91
        4
 64
     7
 65
   257
 75
     1
175
     1
 42
1.0
 92
        0
 66
   257
 43
1.0
 76
     1
 77
     6
 78
     2
 67
     7
 79
     5
170
     0
171
     0
290
     0
174
     0
 93
        1
 44
0.0
173
     0
291
     0
 45
0.0
1001
ACAD
1000
AcDbSavedByObjectVersion
1070
     0
  0
VISUALSTYLE
  5
9886
102
{ACAD_REACTORS
330
9881
102
}
330
9881
100
AcDbVisualStyle
  2
Basic
 70
     7
 71
     1
 72
     0
 73
     1
 90
        0
 40
-0.6
 41
-30.0
 62
     5
 63
     7
 74
     0
 91
        4
 64
     7
 65
   257
 75
     1
175
     1
 42
1.0
 92
        8
 66
     7
 43
1.0
 76
     1
 77
     6
 78
     2
 67
     7
 79
     5
170
     0
171
     0
290
     0
174
     0
 93
        1
 44
0.0
173
     0
291
     1
 45
0.0
1001
ACAD
1000
AcDbSavedByObjectVersion
1070
     0
  0
VISUALSTYLE
  5
988D
102
{ACAD_REACTORS
330
9881
102
}
330
9881
100
AcDbVisualStyle
  2
Brighten
 70
    12
 71
     2
 72
     2
 73
     0
 90
        0
 40
-0.6
 41
-30.0
 62
     5
 63
     7
 74
     1
 91
        4
 64
     7
 65
   257
 75
     1
175
     1
 42
1.0
 92
        8
 66
     7
 43
1.0
 76
     1
 77
     6
 78
     2
 67
     7
 79
     5
170
     0
171
     0
290
     0
174
     0
 93
        1
 44
50.0
173
     0
291
     1
 45
0.0
1001
ACAD
1000
AcDbSavedByObjectVersion
1070
     0
  0
VISUALSTYLE
  5
9891
102
{ACAD_REACTORS
330
9881
102
}
330
9881
100
AcDbVisualStyle
  2
ColorChange
 70
    16
 71
     2
 72
     2
 73
     3
 90
        0
 40
-0.6
 41
-30.0
 62
     5
 63
     8
 74
     1
 91
        4
 64
     7
 65
   257
 75
     1
175
     1
 42
1.0
 92
        8
 66
     8
 43
1.0
 76
     1
 77
     6
 78
     2
 67
     7
 79
     5
170
     0
171
     0
290
     0
174
     0
 93
        1
 44
0.0
173
     0
291
     1
 45
0.0
1001
ACAD
1000
AcDbSavedByObjectVersion
1070
     0
  0
VISUALSTYLE
  5
988A
102
{ACAD_REACTORS
330
9881
102
}
330
9881
100
AcDbVisualStyle
  2
Conceptual
 70
     9
 71
     3
 72
     2
 73
     0
 90
        0
 40
-0.6
 41
-30.0
 62
     5
 63
     7
 74
     2
 91
        2
 64
     7
 65
   257
 75
     1
175
     1
 42
40.0
 92
        8
 66
     7
 43
1.0
 76
     1
 77
     6
 78
     2
 67
     7
 79
     3
170
     0
171
     0
290
     0
174
     0
 93
        1
 44
0.0
173
     0
291
     0
 45
0.0
1001
ACAD
1000
AcDbSavedByObjectVersion
1070
     0
  0
VISUALSTYLE
  5
988C
102
{ACAD_REACTORS
330
9881
102
}
330
9881
100
AcDbVisualStyle
  2
Dim
 70
    11
 71
     2
 72
     2
 73
     0
 90
        0
 40
-0.6
 41
-30.0
 62
     5
 63
     7
 74
     1
 91
        4
 64
     7
 65
   257
 75
     1
175
     1
 42
1.0
 92
        8
 66
     7
 43
1.0
 76
     1
 77
     6
 78
     2
 67
     7
 79
     5
170
     0
171
     0
290
     0
174
     0
 93
        1
 44
-50.0
173
     0
291
     1
 45
0.0
1001
ACAD
1000
AcDbSavedByObjectVersion
1070
     0
  0
VISUALSTYLE
  5
9890
102
{ACAD_REACTORS
330
9881
102
}
330
9881
100
AcDbVisualStyle
  2
Facepattern
 70
    15
 71
     2
 72
     2
 73
     0
 90
        0
 40
-0.6
 41
-30.0
 62
     5
 63
     7
 74
     1
 91
        4
 64
     7
 65
   257
 75
     1
175
     1
 42
1.0
 92
        8
 66
     7
 43
1.0
 76
     1
 77
     6
 78
     2
 67
     7
 79
     5
170
     0
171
     0
290
     0
174
     0
 93
        1
 44
0.0
173
     0
291
     1
 45
0.0
1001
ACAD
1000
AcDbSavedByObjectVersion
1070
     0
  0
VISUALSTYLE
  5
9882
102
{ACAD_REACTORS
330
9881
102
}
330
9881
100
AcDbVisualStyle
  2
Flat
 70
     0
 71
     2
 72
     1
 73
     1
 90
        2
 40
-0.6
 41
30.0
 62
     5
 63
     7
 74
     0
 91
        4
 64
     7
 65
   257
 75
     1
175
     1
 42
1.0
 92
        8
 66
     7
 43
1.0
 76
     1
 77
     6
 78
     2
 67
     7
 79
     5
170
     0
171
     0
290
     0
174
     0
 93
       13
 44
0.0
173
     0
291
     1
 45
0.0
1001
ACAD
1000
AcDbSavedByObjectVersion
1070
     0
  0
VISUALSTYLE
  5
9883
102
{ACAD_REACTORS
330
9881
102
}
330
9881
100
AcDbVisualStyle
  2
FlatWithEdges
 70
     1
 71
     2
 72
     1
 73
     1
 90
        2
 40
-0.6
 41
30.0
 62
     5
 63
     7
 74
     1
 91
        4
 64
     7
 65
   257
 75
     1
175
     1
 42
1.0
 92
        0
 66
   257
 43
1.0
 76
     1
 77
     6
 78
     2
 67
     7
 79
     5
170
     0
171
     0
290
     0
174
     0
 93
       13
 44
0.0
173
     0
291
     1
 45
0.0
1001
ACAD
1000
AcDbSavedByObjectVersion
1070
     0
  0
VISUALSTYLE
  5
9884
102
{ACAD_REACTORS
330
9881
102
}
330
9881
100
AcDbVisualStyle
  2
Gouraud
 70
     2
 71
     2
 72
     2
 73
     1
 90
        2
 40
-0.6
 41
30.0
 62
     5
 63
     7
 74
     0
 91
        4
 64
     7
 65
   257
 75
     1
175
     1
 42
1.0
 92
        0
 66
     7
 43
1.0
 76
     1
 77
     6
 78
     2
 67
     7
 79
     5
170
     0
171
     0
290
     0
174
     0
 93
       13
 44
0.0
173
     0
291
     1
 45
0.0
1001
ACAD
1000
AcDbSavedByObjectVersion
1070
     0
  0
VISUALSTYLE
  5
9885
102
{ACAD_REACTORS
330
9881
102
}
330
9881
100
AcDbVisualStyle
  2
GouraudWithEdges
 70
     3
 71
     2
 72
     2
 73
     1
 90
        2
 40
-0.6
 41
30.0
 62
     5
 63
     7
 74
     1
 91
        4
 64
     7
 65
   257
 75
     1
175
     1
 42
1.0
 92
        0
 66
   257
 43
1.0
 76
     1
 77
     6
 78
     2
 67
     7
 79
     5
170
     0
171
     0
290
     0
174
     0
 93
       13
 44
0.0
173
     0
291
     1
 45
0.0
1001
ACAD
1000
AcDbSavedByObjectVersion
1070
     0
  0
VISUALSTYLE
  5
988F
102
{ACAD_REACTORS
330
9881
102
}
330
9881
100
AcDbVisualStyle
  2
Linepattern
 70
    14
 71
     2
 72
     2
 73
     0
 90
        0
 40
-0.6
 41
-30.0
 62
     5
 63
     7
 74
     1
 91
        4
 64
     7
 65
   257
 75
     7
175
     7
 42
1.0
 92
        8
 66
     7
 43
1.0
 76
     1
 77
     6
 78
     2
 67
     7
 79
     5
170
     0
171
     0
290
     0
174
     0
 93
        1
 44
0.0
173
     0
291
     1
 45
0.0
1001
ACAD
1000
AcDbSavedByObjectVersion
1070
     0
  0
VISUALSTYLE
  5
988B
102
{ACAD_REACTORS
330
9881
102
}
330
9881
100
AcDbVisualStyle
  2
Realistic
 70
     8
 71
     2
 72
     2
 73
     0
 90
        0
 40
-0.6
 41
-30.0
 62
     5
 63
     7
 74
     1
 91
        0
 64
     7
 65
   257
 75
     1
175
     1
 42
1.0
 92
        8
 66
     8
 43
1.0
 76
     1
 77
     6
 78
     2
 67
     7
 79
     5
170
     0
171
     0
290
     0
174
     0
 93
       13
 44
0.0
173
     0
291
     0
 45
0.0
1001
ACAD
1000
AcDbSavedByObjectVersion
1070
     0
  0
VISUALSTYLE
  5
988E
102
{ACAD_REACTORS
330
9881
102
}
330
9881
100
AcDbVisualStyle
  2
Thicken
 70
    13
 71
     2
 72
     2
 73
     0
 90
        0
 40
-0.6
 41
-30.0
 62
     5
 63
     7
 74
     1
 91
        4
 64
     7
 65
   257
 75
     1
175
     1
 42
1.0
 92
       12
 66
     7
 43
1.0
 76
     1
 77
     6
 78
     2
 67
     7
 79
     5
170
     0
171
     0
290
     0
174
     0
 93
        1
 44
0.0
173
     0
291
     1
 45
0.0
1001
ACAD
1000
AcDbSavedByObjectVersion
1070
     0
  0
DICTIONARYVAR
  5
98A4
102
{ACAD_REACTORS
330
5E
102
}
330
5E
100
DictionaryVariables
280
     0
  1
STANDARD
  0
DICTIONARYVAR
  5
5F
102
{ACAD_REACTORS
330
5E
102
}
330
5E
100
DictionaryVariables
280
     0
  1
2
  0
DICTIONARYVAR
  5
63
102
{ACAD_REACTORS
330
5E
102
}
330
5E
100
DictionaryVariables
280
     0
  1
1
  0
DICTIONARYVAR
  5
98A6
102
{ACAD_REACTORS
330
5E
102
}
330
5E
100
DictionaryVariables
280
     0
  1
0
  0
DICTIONARYVAR
  5
B06
102
{ACAD_REACTORS
330
5E
102
}
330
5E
100
DictionaryVariables
280
     0
  1

  0
DICTIONARYVAR
  5
98A5
102
{ACAD_REACTORS
330
5E
102
}
330
5E
100
DictionaryVariables
280
     0
  1
127
  0
DICTIONARY
  5
98B9
330
51
100
AcDbDictionary
280
     1
281
     1
  3
ACAD_XREC_ROUNDTRIP
360
98BA
  0
DICTIONARY
  5
98BB
330
56
100
AcDbDictionary
280
     1
281
     1
  3
ACAD_XREC_ROUNDTRIP
360
98BC
  0
DICTIONARY
  5
98B7
330
22
100
AcDbDictionary
280
     1
281
     1
  3
ACAD_XREC_ROUNDTRIP
360
98B8
  0
DICTIONARY
  5
98BF
330
987F
100
AcDbDictionary
280
     1
281
     1
  3
ACAD_XREC_ROUNDTRIP
360
98C0
  0
DICTIONARY
  5
98BD
330
987E
100
AcDbDictionary
280
     1
281
     1
  3
ACAD_XREC_ROUNDTRIP
360
98BE
  0
DICTIONARY
  5
98C1
330
9880
100
AcDbDictionary
280
     1
281
     1
  3
ACAD_XREC_ROUNDTRIP
360
98C2
  0
DICTIONARY
  5
98C3
330
9893
100
AcDbDictionary
280
     1
281
     1
  3
ACAD_XREC_ROUNDTRIP
360
98C4
  0
XRECORD
  5
98BA
102
{ACAD_REACTORS
330
98B9
102
}
330
98B9
100
AcDbXrecord
280
     1
102
SHADEPLOT
 70
     0
102
SHADEPLOTRESLEVEL
 70
     2
102
SHADEPLOTCUSTOMDPI
 70
   300
  0
XRECORD
  5
98BC
102
{ACAD_REACTORS
330
98BB
102
}
330
98BB
100
AcDbXrecord
280
     1
102
SHADEPLOT
 70
     0
102
SHADEPLOTRESLEVEL
 70
     2
102
SHADEPLOTCUSTOMDPI
 70
   300
  0
XRECORD
  5
98B8
102
{ACAD_REACTORS
330
98B7
102
}
330
98B7
100
AcDbXrecord
280
     1
102
SHADEPLOT
 70
     0
102
SHADEPLOTRESLEVEL
 70
     2
102
SHADEPLOTCUSTOMDPI
 70
   300
  0
XRECORD
  5
98C0
102
{ACAD_REACTORS
330
98BF
102
}
330
98BF
100
AcDbXrecord
280
     1
102
MATERIAL
148
0.0
149
0.0
149
0.0
 93
        0
 94
       63
282
     0
 72
     1
 77
     1
171
     1
175
     1
179
     1
273
     0
  0
XRECORD
  5
98BE
102
{ACAD_REACTORS
330
98BD
102
}
330
98BD
100
AcDbXrecord
280
     1
102
MATERIAL
148
0.0
149
0.0
149
0.0
 93
        0
 94
       63
282
     0
 72
     1
 77
     1
171
     1
175
     1
179
     1
273
     0
  0
XRECORD
  5
98C2
102
{ACAD_REACTORS
330
98C1
102
}
330
98C1
100
AcDbXrecord
280
     1
102
MATERIAL
148
0.0
149
0.0
149
0.0
 93
        0
 94
       63
282
     0
 72
     1
 77
     1
171
     1
175
     1
179
     1
273
     0
  0
XRECORD
  5
98C4
102
{ACAD_REACTORS
330
98C3
102
}
330
98C3
100
AcDbXrecord
280
     1
102
ACAD_ROUNDTRIP_PRE2007_TABLESTYLE
 90
      512
 91
        0
  1

 92
      512
 93
        0
  2

 94
      512
 95
        0
  3

  0
ENDSEC
  0
EOF
