  0
SECTION
  2
HEADER
  9
$ACADVER
  1
AC1015
  9
$ACADMAINTVER
 70
    20
  9
$DWGCODEPAGE
  3
ANSI_1252
  9
$INSBASE
 10
0.0
 20
0.0
 30
0.0
  9
$EXTMIN
 10
46.41815288739531
 20
83.62641985624383
 30
-0.0000884782051642
  9
$EXTMAX
 10
316.4483651151513
 20
283.6400763595477
 30
1.400082392153222
  9
$LIMMIN
 10
0.0
 20
0.0
  9
$LIMMAX
 10
420.0
 20
297.0
  9
$ORTHOMODE
 70
     0
  9
$REGENMODE
 70
     1
  9
$FILLMODE
 70
     1
  9
$QTEXTMODE
 70
     0
  9
$MIRRTEXT
 70
     0
  9
$LTSCALE
 40
1.0
  9
$ATTMODE
 70
     1
  9
$TEXTSIZE
 40
4.945867574227346
  9
$TRACEWID
 40
1.0
  9
$TEXTSTYLE
  7
Standard
  9
$CLAYER
  8
0
  9
$CELTYPE
  6
ByLayer
  9
$CECOLOR
 62
   256
  9
$CELTSCALE
 40
1.0
  9
$DISPSILH
 70
     0
  9
$DIMSCALE
 40
1.0
  9
$DIMASZ
 40
2.5
  9
$DIMEXO
 40
0.625
  9
$DIMDLI
 40
3.75
  9
$DIMRND
 40
0.0
  9
$DIMDLE
 40
0.0
  9
$DIMEXE
 40
1.25
  9
$DIMTP
 40
0.0
  9
$DIMTM
 40
0.0
  9
$DIMTXT
 40
2.5
  9
$DIMCEN
 40
2.5
  9
$DIMTSZ
 40
0.0
  9
$DIMTOL
 70
     0
  9
$DIMLIM
 70
     0
  9
$DIMTIH
 70
     0
  9
$DIMTOH
 70
     0
  9
$DIMSE1
 70
     0
  9
$DIMSE2
 70
     0
  9
$DIMTAD
 70
     1
  9
$DIMZIN
 70
     8
  9
$DIMBLK
  1

  9
$DIMASO
 70
     1
  9
$DIMSHO
 70
     1
  9
$DIMPOST
  1

  9
$DIMAPOST
  1

  9
$DIMALT
 70
     0
  9
$DIMALTD
 70
     3
  9
$DIMALTF
 40
0.03937007874016
  9
$DIMLFAC
 40
1.0
  9
$DIMTOFL
 70
     1
  9
$DIMTVP
 40
0.0
  9
$DIMTIX
 70
     0
  9
$DIMSOXD
 70
     0
  9
$DIMSAH
 70
     0
  9
$DIMBLK1
  1

  9
$DIMBLK2
  1

  9
$DIMSTYLE
  2
ISO-25
  9
$DIMCLRD
 70
     0
  9
$DIMCLRE
 70
     0
  9
$DIMCLRT
 70
     0
  9
$DIMTFAC
 40
1.0
  9
$DIMGAP
 40
0.625
  9
$DIMJUST
 70
     0
  9
$DIMSD1
 70
     0
  9
$DIMSD2
 70
     0
  9
$DIMTOLJ
 70
     0
  9
$DIMTZIN
 70
     8
  9
$DIMALTZ
 70
     0
  9
$DIMALTTZ
 70
     0
  9
$DIMUPT
 70
     0
  9
$DIMDEC
 70
     2
  9
$DIMTDEC
 70
     2
  9
$DIMALTU
 70
     2
  9
$DIMALTTD
 70
     3
  9
$DIMTXSTY
  7
Standard
  9
$DIMAUNIT
 70
     0
  9
$DIMADEC
 70
     0
  9
$DIMALTRND
 40
0.0
  9
$DIMAZIN
 70
     0
  9
$DIMDSEP
 70
    44
  9
$DIMATFIT
 70
     3
  9
$DIMFRAC
 70
     0
  9
$DIMLDRBLK
  1

  9
$DIMLUNIT
 70
     2
  9
$DIMLWD
 70
    -2
  9
$DIMLWE
 70
    -2
  9
$DIMTMOVE
 70
     0
  9
$LUNITS
 70
     2
  9
$LUPREC
 70
     4
  9
$SKETCHINC
 40
1.0
  9
$FILLETRAD
 40
10.0
  9
$AUNITS
 70
     0
  9
$AUPREC
 70
     0
  9
$MENU
  1
.
  9
$ELEVATION
 40
0.0
  9
$PELEVATION
 40
0.0
  9
$THICKNESS
 40
0.0
  9
$LIMCHECK
 70
     0
  9
$CHAMFERA
 40
10.0
  9
$CHAMFERB
 40
10.0
  9
$CHAMFERC
 40
20.0
  9
$CHAMFERD
 40
0.0
  9
$SKPOLY
 70
     0
  9
$TDCREATE
 40
2453453.645911123
  9
$TDUCREATE
 40
2453453.604244456
  9
$TDUPDATE
 40
2453780.575458704
  9
$TDUUPDATE
 40
2453780.533792037
  9
$TDINDWG
 40
0.1024132176
  9
$TDUSRTIMER
 40
0.1024126852
  9
$USRTIMER
 70
     1
  9
$ANGBASE
 50
0.0
  9
$ANGDIR
 70
     0
  9
$PDMODE
 70
     0
  9
$PDSIZE
 40
0.0
  9
$PLINEWID
 40
0.0
  9
$SPLFRAME
 70
     0
  9
$SPLINETYPE
 70
     6
  9
$SPLINESEGS
 70
     8
  9
$HANDSEED
  5
49BD
  9
$SURFTAB1
 70
     6
  9
$SURFTAB2
 70
     6
  9
$SURFTYPE
 70
     6
  9
$SURFU
 70
     6
  9
$SURFV
 70
     6
  9
$UCSBASE
  2

  9
$UCSNAME
  2

  9
$UCSORG
 10
0.0
 20
0.0
 30
0.0
  9
$UCSXDIR
 10
1.0
 20
0.0
 30
0.0
  9
$UCSYDIR
 10
0.0
 20
1.0
 30
0.0
  9
$UCSORTHOREF
  2

  9
$UCSORTHOVIEW
 70
     0
  9
$UCSORGTOP
 10
0.0
 20
0.0
 30
0.0
  9
$UCSORGBOTTOM
 10
0.0
 20
0.0
 30
0.0
  9
$UCSORGLEFT
 10
0.0
 20
0.0
 30
0.0
  9
$UCSORGRIGHT
 10
0.0
 20
0.0
 30
0.0
  9
$UCSORGFRONT
 10
0.0
 20
0.0
 30
0.0
  9
$UCSORGBACK
 10
0.0
 20
0.0
 30
0.0
  9
$PUCSBASE
  2

  9
$PUCSNAME
  2

  9
$PUCSORG
 10
0.0
 20
0.0
 30
0.0
  9
$PUCSXDIR
 10
1.0
 20
0.0
 30
0.0
  9
$PUCSYDIR
 10
0.0
 20
1.0
 30
0.0
  9
$PUCSORTHOREF
  2

  9
$PUCSORTHOVIEW
 70
     0
  9
$PUCSORGTOP
 10
0.0
 20
0.0
 30
0.0
  9
$PUCSORGBOTTOM
 10
0.0
 20
0.0
 30
0.0
  9
$PUCSORGLEFT
 10
0.0
 20
0.0
 30
0.0
  9
$PUCSORGRIGHT
 10
0.0
 20
0.0
 30
0.0
  9
$PUCSORGFRONT
 10
0.0
 20
0.0
 30
0.0
  9
$PUCSORGBACK
 10
0.0
 20
0.0
 30
0.0
  9
$USERI1
 70
     0
  9
$USERI2
 70
     0
  9
$USERI3
 70
     0
  9
$USERI4
 70
     0
  9
$USERI5
 70
     0
  9
$USERR1
 40
0.0
  9
$USERR2
 40
0.0
  9
$USERR3
 40
0.0
  9
$USERR4
 40
0.0
  9
$USERR5
 40
0.0
  9
$WORLDVIEW
 70
     1
  9
$SHADEDGE
 70
     3
  9
$SHADEDIF
 70
    70
  9
$TILEMODE
 70
     1
  9
$MAXACTVP
 70
    64
  9
$PINSBASE
 10
0.0
 20
0.0
 30
0.0
  9
$PLIMCHECK
 70
     0
  9
$PEXTMIN
 10
0.0
 20
0.0
 30
0.0
  9
$PEXTMAX
 10
0.0
 20
0.0
 30
0.0
  9
$PLIMMIN
 10
0.0
 20
0.0
  9
$PLIMMAX
 10
12.0
 20
9.0
  9
$UNITMODE
 70
     0
  9
$VISRETAIN
 70
     1
  9
$PLINEGEN
 70
     0
  9
$PSLTSCALE
 70
     1
  9
$TREEDEPTH
 70
  3020
  9
$CMLSTYLE
  2
Standard
  9
$CMLJUST
 70
     0
  9
$CMLSCALE
 40
20.0
  9
$PROXYGRAPHICS
 70
     1
  9
$MEASUREMENT
 70
     1
  9
$CELWEIGHT
370
    -1
  9
$ENDCAPS
280
     0
  9
$JOINSTYLE
280
     0
  9
$LWDISPLAY
290
     0
  9
$INSUNITS
 70
     4
  9
$HYPERLINKBASE
  1

  9
$STYLESHEET
  1

  9
$XEDIT
290
     1
  9
$CEPSNTYPE
380
     0
  9
$PSTYLEMODE
290
     1
  9
$FINGERPRINTGUID
  2
{FDEAD578-A652-11D2-9A35-0060089B3A3F}
  9
$VERSIONGUID
  2
{B5D23DD4-6DE9-4FAD-AB73-E6285BE2BE89}
  9
$EXTNAMES
290
     1
  9
$PSVPSCALE
 40
0.0
  9
$OLESTARTUP
290
     0
  0
ENDSEC
  0
SECTION
  2
CLASSES
  0
CLASS
  1
ACDBDICTIONARYWDFLT
  2
AcDbDictionaryWithDefault
  3
ObjectDBX Classes
 90
        0
280
     0
281
     0
  0
CLASS
  1
DICTIONARYVAR
  2
AcDbDictionaryVar
  3
ObjectDBX Classes
 90
        0
280
     0
281
     0
  0
CLASS
  1
DIMASSOC
  2
AcDbDimAssoc
  3
"AcDbDimAssoc|Product Desc:     AcDim ARX App For Dimension|Company:          Autodesk, Inc.|WEB Address:      www.autodesk.com"
 90
        0
280
     0
281
     0
  0
CLASS
  1
ACDBPLACEHOLDER
  2
AcDbPlaceHolder
  3
ObjectDBX Classes
 90
        0
280
     0
281
     0
  0
CLASS
  1
LAYOUT
  2
AcDbLayout
  3
ObjectDBX Classes
 90
        0
280
     0
281
     0
  0
ENDSEC
  0
SECTION
  2
TABLES
  0
TABLE
  2
VPORT
  5
8
330
0
100
AcDbSymbolTable
 70
     2
  0
VPORT
  5
49B2
330
8
100
AcDbSymbolTableRecord
100
AcDbViewportTableRecord
  2
*Active
 70
     0
 10
0.0
 20
0.0
 11
1.0
 21
1.0
 12
181.4332590012733
 22
183.6332481078958
 13
0.0
 23
0.0
 14
10.0
 24
10.0
 15
10.0
 25
10.0
 16
0.0
 26
0.0
 36
1.0
 17
0.0
 27
0.0
 37
0.0
 40
201.2534105725392
 41
1.605997931747673
 42
50.0
 43
0.0
 44
0.0
 50
0.0
 51
0.0
 71
     0
 72
  1000
 73
     1
 74
     3
 75
     0
 76
     0
 77
     0
 78
     0
281
     0
 65
     1
110
0.0
120
0.0
130
0.0
111
1.0
121
0.0
131
0.0
112
0.0
122
1.0
132
0.0
 79
     0
146
0.0
  0
ENDTAB
  0
TABLE
  2
LTYPE
  5
5
330
0
100
AcDbSymbolTable
 70
     3
  0
LTYPE
  5
14
330
5
100
AcDbSymbolTableRecord
100
AcDbLinetypeTableRecord
  2
ByBlock
 70
     0
  3

 72
    65
 73
     0
 40
0.0
  0
LTYPE
  5
15
330
5
100
AcDbSymbolTableRecord
100
AcDbLinetypeTableRecord
  2
ByLayer
 70
     0
  3

 72
    65
 73
     0
 40
0.0
  0
LTYPE
  5
16
330
5
100
AcDbSymbolTableRecord
100
AcDbLinetypeTableRecord
  2
Continuous
 70
     0
  3
Solid line
 72
    65
 73
     0
 40
0.0
  0
LTYPE
  5
2BDE
330
5
100
AcDbSymbolTableRecord
100
AcDbLinetypeTableRecord
  2
CENTER
 70
     0
  3
____ _ ____ _ ____ _ ____ _ ____ _ ____ _ ____
 72
    65
 73
     4
 40
2.0
 49
1.25
 74
     0
 49
-0.25
 74
     0
 49
0.25
 74
     0
 49
-0.25
 74
     0
  0
LTYPE
  5
3443
330
5
100
AcDbSymbolTableRecord
100
AcDbLinetypeTableRecord
  2
DASHED
 70
     0
  3
_ _ _ _ _ _ _ _ _ _ _ _ _ _ _ _ _ _ _ _ _ _ _ _
 72
    65
 73
     2
 40
0.375
 49
0.25
 74
     0
 49
-0.125
 74
     0
  0
ENDTAB
  0
TABLE
  2
LAYER
  5
2
330
0
100
AcDbSymbolTable
 70
     8
  0
LAYER
  5
10
330
2
100
AcDbSymbolTableRecord
100
AcDbLayerTableRecord
  2
0
 70
     0
 62
     7
  6
Continuous
370
    -3
390
F
  0
LAYER
  5
171B
330
2
100
AcDbSymbolTableRecord
100
AcDbLayerTableRecord
  2
Defpoints
 70
     0
 62
     7
  6
Continuous
290
     0
370
    -3
390
F
  0
LAYER
  5
2BDF
330
2
100
AcDbSymbolTableRecord
100
AcDbLayerTableRecord
  2
90000_FRAME
 70
     0
 62
     7
  6
Continuous
370
    -3
390
F
  0
LAYER
  5
2BE0
330
2
100
AcDbSymbolTableRecord
100
AcDbLayerTableRecord
  2
91000_TIP
 70
     0
 62
     7
  6
Continuous
370
    -3
390
F
  0
LAYER
  5
2D47
330
2
100
AcDbSymbolTableRecord
100
AcDbLayerTableRecord
  2
10000_Front
 70
     0
 62
     7
  6
Continuous
370
    -3
390
F
  0
LAYER
  5
2D48
330
2
100
AcDbSymbolTableRecord
100
AcDbLayerTableRecord
  2
10100_Front_Dim
 70
     0
 62
     7
  6
Continuous
370
    -3
390
F
  0
LAYER
  5
2F54
330
2
100
AcDbSymbolTableRecord
100
AcDbLayerTableRecord
  2
11000_Left
 70
     0
 62
     7
  6
Continuous
370
    -3
390
F
  0
LAYER
  5
2F55
330
2
100
AcDbSymbolTableRecord
100
AcDbLayerTableRecord
  2
11100_Left_Dim
 70
     0
 62
     7
  6
Continuous
370
    -3
390
F
  0
ENDTAB
  0
TABLE
  2
STYLE
  5
3
330
0
100
AcDbSymbolTable
 70
     1
  0
STYLE
  5
11
330
3
100
AcDbSymbolTableRecord
100
AcDbTextStyleTableRecord
  2
Standard
 70
     0
 40
0.0
 41
1.0
 50
0.0
 71
     0
 42
4.945867574227346
  3
txt
  4

  0
ENDTAB
  0
TABLE
  2
VIEW
  5
6
330
0
100
AcDbSymbolTable
 70
     0
  0
ENDTAB
  0
TABLE
  2
UCS
  5
7
330
0
100
AcDbSymbolTable
 70
     0
  0
ENDTAB
  0
TABLE
  2
APPID
  5
9
330
0
100
AcDbSymbolTable
 70
     3
  0
APPID
  5
12
330
9
100
AcDbSymbolTableRecord
100
AcDbRegAppTableRecord
  2
ACAD
 70
     0
  0
APPID
  5
344C
330
9
100
AcDbSymbolTableRecord
100
AcDbRegAppTableRecord
  2
AUSTER_ANSICHT
 70
     0
  0
APPID
  5
344D
330
9
100
AcDbSymbolTableRecord
100
AcDbRegAppTableRecord
  2
AUSTER_FOLIE
 70
     0
  0
ENDTAB
  0
TABLE
  2
DIMSTYLE
  5
A
330
0
100
AcDbSymbolTable
 70
     2
100
AcDbDimStyleTable
 71
     2
340
2F56
340
27
  0
DIMSTYLE
105
27
330
A
100
AcDbSymbolTableRecord
100
AcDbDimStyleTableRecord
  2
ISO-25
 70
     0
 41
2.5
 42
0.625
 43
3.75
 44
1.25
 73
     0
 74
     0
 77
     1
 78
     8
140
2.5
141
2.5
143
0.03937007874016
147
0.625
171
     3
172
     1
271
     2
272
     2
274
     3
278
    44
283
     0
284
     8
340
11
  0
DIMSTYLE
105
2F56
102
{ACAD_REACTORS
330
3C1D
330
3C26
330
3C1E
330
461E
330
4648
330
47D0
330
47FB
330
3C24
330
3C23
330
3C22
102
}
330
A
100
AcDbSymbolTableRecord
100
AcDbDimStyleTableRecord
  2
H035
 70
     0
 40
0.0
 41
2.5
 42
0.0
 43
3.75
 44
2.0
 73
     0
 74
     0
 77
     1
 78
     8
140
5.0
141
2.5
143
0.0394
147
1.0
171
     4
172
     1
176
   256
177
   256
178
     2
271
     0
272
     2
273
     8
274
     4
277
     6
340
11
  0
ENDTAB
  0
TABLE
  2
BLOCK_RECORD
  5
1
330
0
100
AcDbSymbolTable
 70
    12
  0
BLOCK_RECORD
  5
1F
330
1
100
AcDbSymbolTableRecord
100
AcDbBlockTableRecord
  2
*Model_Space
340
22
  0
BLOCK_RECORD
  5
50
330
1
100
AcDbSymbolTableRecord
100
AcDbBlockTableRecord
  2
*Paper_Space
340
51
  0
BLOCK_RECORD
  5
55
330
1
100
AcDbSymbolTableRecord
100
AcDbBlockTableRecord
  2
*Paper_Space0
340
56
  0
BLOCK_RECORD
  5
2B73
330
1
100
AcDbSymbolTableRecord
100
AcDbBlockTableRecord
  2
SIEMENS_OUTLINE_BL0
340
0
102
{BLKREFS
331
2BFF
102
}
  0
BLOCK_RECORD
  5
443C
330
1
100
AcDbSymbolTableRecord
100
AcDbBlockTableRecord
  2
*D2
340
0
  0
BLOCK_RECORD
  5
4448
330
1
100
AcDbSymbolTableRecord
100
AcDbBlockTableRecord
  2
*D3
340
0
  0
BLOCK_RECORD
  5
447A
330
1
100
AcDbSymbolTableRecord
100
AcDbBlockTableRecord
  2
*D4
340
0
  0
BLOCK_RECORD
  5
4488
330
1
100
AcDbSymbolTableRecord
100
AcDbBlockTableRecord
  2
*D5
340
0
  0
BLOCK_RECORD
  5
4494
330
1
100
AcDbSymbolTableRecord
100
AcDbBlockTableRecord
  2
*D6
340
0
  0
BLOCK_RECORD
  5
44A0
330
1
100
AcDbSymbolTableRecord
100
AcDbBlockTableRecord
  2
*D7
340
0
  0
BLOCK_RECORD
  5
461F
330
1
100
AcDbSymbolTableRecord
100
AcDbBlockTableRecord
  2
*D8
340
0
  0
BLOCK_RECORD
  5
4649
330
1
100
AcDbSymbolTableRecord
100
AcDbBlockTableRecord
  2
*D9
340
0
  0
BLOCK_RECORD
  5
47D1
330
1
100
AcDbSymbolTableRecord
100
AcDbBlockTableRecord
  2
*D10
340
0
  0
BLOCK_RECORD
  5
47FC
330
1
100
AcDbSymbolTableRecord
100
AcDbBlockTableRecord
  2
*D11
340
0
  0
ENDTAB
  0
ENDSEC
  0
SECTION
  2
BLOCKS
  0
BLOCK
  5
20
330
1F
100
AcDbEntity
  8
0
100
AcDbBlockBegin
  2
*Model_Space
 70
     0
 10
0.0
 20
0.0
 30
0.0
  3
*Model_Space
  1

  0
ENDBLK
  5
21
330
1F
100
AcDbEntity
  8
0
100
AcDbBlockEnd
  0
BLOCK
  5
52
330
50
100
AcDbEntity
 67
     1
  8
0
100
AcDbBlockBegin
  2
*Paper_Space
 70
     0
 10
0.0
 20
0.0
 30
0.0
  3
*Paper_Space
  1

  0
ENDBLK
  5
53
330
50
100
AcDbEntity
 67
     1
  8
0
100
AcDbBlockEnd
  0
BLOCK
  5
57
330
55
100
AcDbEntity
  8
0
100
AcDbBlockBegin
  2
*Paper_Space0
 70
     0
 10
0.0
 20
0.0
 30
0.0
  3
*Paper_Space0
  1

  0
ENDBLK
  5
58
330
55
100
AcDbEntity
  8
0
100
AcDbBlockEnd
  0
BLOCK
  5
2B74
330
2B73
100
AcDbEntity
  8
0
  6
Continuous
 62
     7
100
AcDbBlockBegin
  2
SIEMENS_OUTLINE_BL0
 70
     0
 10
0.0
 20
0.0
 30
0.0
  3
SIEMENS_OUTLINE_BL0
  1

  0
LINE
  5
2B75
330
2B73
100
AcDbEntity
  8
0
  6
Continuous
 62
     7
100
AcDbLine
 10
79.186200508
 20
21.4145478991
 30
0.0
 11
79.186200508
 21
16.6612788158
 31
0.0
  0
LINE
  5
2B76
330
2B73
100
AcDbEntity
  8
0
  6
Continuous
 62
     7
100
AcDbLine
 10
80.61218123299999
 20
21.4145478991
 30
0.0
 11
80.61218123299999
 21
16.6612788158
 31
0.0
  0
LINE
  5
2B77
330
2B73
100
AcDbEntity
  8
0
  6
Continuous
 62
     7
100
AcDbLine
 10
79.186200508
 20
16.6612788158
 30
0.0
 11
80.61218123299999
 21
16.6612788158
 31
0.0
  0
LINE
  5
2B78
330
2B73
100
AcDbEntity
  8
0
  6
Continuous
 62
     7
100
AcDbLine
 10
79.186200508
 20
21.4145478991
 30
0.0
 11
80.61218123299999
 21
21.4145478991
 31
0.0
  0
LINE
  5
2B79
330
2B73
100
AcDbEntity
  8
0
  6
Continuous
 62
     7
100
AcDbLine
 10
81.7054331221
 20
21.4145478991
 30
0.0
 11
81.7054331221
 21
16.6612788158
 31
0.0
  0
LINE
  5
2B7A
330
2B73
100
AcDbEntity
  8
0
  6
Continuous
 62
     7
100
AcDbLine
 10
81.7054331221
 20
16.6612788158
 30
0.0
 11
85.2703849346
 21
16.6612788158
 31
0.0
  0
LINE
  5
2B7B
330
2B73
100
AcDbEntity
  8
0
  6
Continuous
 62
     7
100
AcDbLine
 10
85.2703849346
 20
17.5643999417
 30
0.0
 11
83.0838811563
 21
17.5643999417
 31
0.0
  0
LINE
  5
2B7C
330
2B73
100
AcDbEntity
  8
0
  6
Continuous
 62
     7
100
AcDbLine
 10
85.2703849346
 20
17.5643999417
 30
0.0
 11
85.2703849346
 21
16.6612788158
 31
0.0
  0
LINE
  5
2B7D
330
2B73
100
AcDbEntity
  8
0
  6
Continuous
 62
     7
100
AcDbLine
 10
85.2228522438
 20
21.4145478991
 30
0.0
 11
81.7054331221
 21
21.4145478991
 31
0.0
  0
LINE
  5
2B7E
330
2B73
100
AcDbEntity
  8
0
  6
Continuous
 62
     7
100
AcDbLine
 10
85.2228522438
 20
20.5351931187
 30
0.0
 11
83.0838811563
 21
20.5351931187
 31
0.0
  0
LINE
  5
2B7F
330
2B73
100
AcDbEntity
  8
0
  6
Continuous
 62
     7
100
AcDbLine
 10
85.2228522438
 20
21.4145478991
 30
0.0
 11
85.2228522438
 21
20.5351931187
 31
0.0
  0
LINE
  5
2B80
330
2B73
100
AcDbEntity
  8
0
  6
Continuous
 62
     7
100
AcDbLine
 10
84.9376560988
 20
18.68141817619999
 30
0.0
 11
83.0838811563
 21
18.68141817619999
 31
0.0
  0
LINE
  5
2B81
330
2B73
100
AcDbEntity
  8
0
  6
Continuous
 62
     7
100
AcDbLine
 10
84.9376560988
 20
19.465707575
 30
0.0
 11
84.9376560988
 21
18.68141817619999
 31
0.0
  0
LINE
  5
2B82
330
2B73
100
AcDbEntity
  8
0
  6
Continuous
 62
     7
100
AcDbLine
 10
84.9376560988
 20
19.465707575
 30
0.0
 11
83.0838811563
 21
19.465707575
 31
0.0
  0
LINE
  5
2B83
330
2B73
100
AcDbEntity
  8
0
  6
Continuous
 62
     7
100
AcDbLine
 10
83.0838811563
 20
20.5351931187
 30
0.0
 11
83.0838811563
 21
19.465707575
 31
0.0
  0
LINE
  5
2B84
330
2B73
100
AcDbEntity
  8
0
  6
Continuous
 62
     7
100
AcDbLine
 10
83.0838811563
 20
18.68141817619999
 30
0.0
 11
83.0838811563
 21
17.5643999417
 31
0.0
  0
LINE
  5
2B85
330
2B73
100
AcDbEntity
  8
0
  6
Continuous
 62
     7
100
AcDbLine
 10
86.0784406788
 20
16.6612788158
 30
0.0
 11
86.0784406788
 21
21.4145478991
 31
0.0
  0
LINE
  5
2B86
330
2B73
100
AcDbEntity
  8
0
  6
Continuous
 62
     7
100
AcDbLine
 10
86.0784406788
 20
16.6612788158
 30
0.0
 11
87.02909449539999
 21
16.6612788158
 31
0.0
  0
LINE
  5
2B87
330
2B73
100
AcDbEntity
  8
0
  6
Continuous
 62
     7
100
AcDbLine
 10
91.92496165120001
 20
21.4145478991
 30
0.0
 11
91.92496165120001
 21
16.6612788158
 31
0.0
  0
LINE
  5
2B88
330
2B73
100
AcDbEntity
  8
0
  6
Continuous
 62
     7
100
AcDbLine
 10
91.92496165120001
 20
16.6612788158
 30
0.0
 11
90.54651361700001
 21
16.6612788158
 31
0.0
  0
LINE
  5
2B89
330
2B73
100
AcDbEntity
  8
0
  6
Continuous
 62
     7
100
AcDbLine
 10
88.3600098387
 20
16.613746125
 30
0.0
 11
89.21559827370002
 21
16.613746125
 31
0.0
  0
LINE
  5
2B8A
330
2B73
100
AcDbEntity
  8
0
  6
Continuous
 62
     7
100
AcDbLine
 10
88.3600098387
 20
16.613746125
 30
0.0
 11
87.02909449539999
 21
19.7033710291
 31
0.0
  0
LINE
  5
2B8B
330
2B73
100
AcDbEntity
  8
0
  6
Continuous
 62
     7
100
AcDbLine
 10
87.02909449539999
 20
16.6612788158
 30
0.0
 11
87.02909449539999
 21
19.7033710291
 31
0.0
  0
LINE
  5
2B8C
330
2B73
100
AcDbEntity
  8
0
  6
Continuous
 62
     7
100
AcDbLine
 10
90.54651361700001
 20
19.75090372
 30
0.0
 11
89.21559827370002
 21
16.613746125
 31
0.0
  0
LINE
  5
2B8D
330
2B73
100
AcDbEntity
  8
0
  6
Continuous
 62
     7
100
AcDbLine
 10
87.78961754870001
 20
21.4145478991
 30
0.0
 11
86.0784406788
 21
21.4145478991
 31
0.0
  0
LINE
  5
2B8E
330
2B73
100
AcDbEntity
  8
0
  6
Continuous
 62
     7
100
AcDbLine
 10
91.92496165120001
 20
21.4145478991
 30
0.0
 11
90.2137847812
 21
21.4145478991
 31
0.0
  0
LINE
  5
2B8F
330
2B73
100
AcDbEntity
  8
0
  6
Continuous
 62
     7
100
AcDbLine
 10
87.78961754870001
 20
21.4145478991
 30
0.0
 11
89.0254675104
 21
18.5150537583
 31
0.0
  0
LINE
  5
2B90
330
2B73
100
AcDbEntity
  8
0
  6
Continuous
 62
     7
100
AcDbLine
 10
90.2137847812
 20
21.4145478991
 30
0.0
 11
89.0254675104
 21
18.5150537583
 31
0.0
  0
LINE
  5
2B91
330
2B73
100
AcDbEntity
  8
0
  6
Continuous
 62
     7
100
AcDbLine
 10
90.54651361700001
 20
19.75090372
 30
0.0
 11
90.54651361700001
 21
16.6612788158
 31
0.0
  0
LINE
  5
2B92
330
2B73
100
AcDbEntity
  8
0
  6
Continuous
 62
     7
100
AcDbLine
 10
93.01821354030002
 20
21.4145478991
 30
0.0
 11
93.01821354030002
 21
16.6612788158
 31
0.0
  0
LINE
  5
2B93
330
2B73
100
AcDbEntity
  8
0
  6
Continuous
 62
     7
100
AcDbLine
 10
93.01821354030002
 20
16.6612788158
 30
0.0
 11
96.5831653528
 21
16.6612788158
 31
0.0
  0
LINE
  5
2B94
330
2B73
100
AcDbEntity
  8
0
  6
Continuous
 62
     7
100
AcDbLine
 10
96.5831653528
 20
17.5643999417
 30
0.0
 11
94.3966615745
 21
17.5643999417
 31
0.0
  0
LINE
  5
2B95
330
2B73
100
AcDbEntity
  8
0
  6
Continuous
 62
     7
100
AcDbLine
 10
96.5831653528
 20
17.5643999417
 30
0.0
 11
96.5831653528
 21
16.6612788158
 31
0.0
  0
LINE
  5
2B96
330
2B73
100
AcDbEntity
  8
0
  6
Continuous
 62
     7
100
AcDbLine
 10
96.53563266200002
 20
21.4145478991
 30
0.0
 11
93.01821354030002
 21
21.4145478991
 31
0.0
  0
LINE
  5
2B97
330
2B73
100
AcDbEntity
  8
0
  6
Continuous
 62
     7
100
AcDbLine
 10
96.53563266200002
 20
20.5351931187
 30
0.0
 11
94.3966615745
 21
20.5351931187
 31
0.0
  0
LINE
  5
2B98
330
2B73
100
AcDbEntity
  8
0
  6
Continuous
 62
     7
100
AcDbLine
 10
96.53563266200002
 20
21.4145478991
 30
0.0
 11
96.53563266200002
 21
20.5351931187
 31
0.0
  0
LINE
  5
2B99
330
2B73
100
AcDbEntity
  8
0
  6
Continuous
 62
     7
100
AcDbLine
 10
96.25043651700002
 20
18.68141817619999
 30
0.0
 11
94.3966615745
 21
18.68141817619999
 31
0.0
  0
LINE
  5
2B9A
330
2B73
100
AcDbEntity
  8
0
  6
Continuous
 62
     7
100
AcDbLine
 10
96.25043651700002
 20
19.465707575
 30
0.0
 11
96.25043651700002
 21
18.68141817619999
 31
0.0
  0
LINE
  5
2B9B
330
2B73
100
AcDbEntity
  8
0
  6
Continuous
 62
     7
100
AcDbLine
 10
96.25043651700002
 20
19.465707575
 30
0.0
 11
94.3966615745
 21
19.465707575
 31
0.0
  0
LINE
  5
2B9C
330
2B73
100
AcDbEntity
  8
0
  6
Continuous
 62
     7
100
AcDbLine
 10
94.3966615745
 20
20.5351931187
 30
0.0
 11
94.3966615745
 21
19.465707575
 31
0.0
  0
LINE
  5
2B9D
330
2B73
100
AcDbEntity
  8
0
  6
Continuous
 62
     7
100
AcDbLine
 10
94.3966615745
 20
18.68141817619999
 30
0.0
 11
94.3966615745
 21
17.5643999417
 31
0.0
  0
LINE
  5
2B9E
330
2B73
100
AcDbEntity
  8
0
  6
Continuous
 62
     7
100
AcDbLine
 10
97.3674547515
 20
16.6612788158
 30
0.0
 11
97.3674547515
 21
21.4145478991
 31
0.0
  0
LINE
  5
2B9F
330
2B73
100
AcDbEntity
  8
0
  6
Continuous
 62
     7
100
AcDbLine
 10
101.5503315448
 20
21.4145478991
 30
0.0
 11
101.5503315448
 21
16.6612788158
 31
0.0
  0
LINE
  5
2BA0
330
2B73
100
AcDbEntity
  8
0
  6
Continuous
 62
     7
100
AcDbLine
 10
97.3674547515
 20
16.6612788158
 30
0.0
 11
98.3181085682
 21
16.6612788158
 31
0.0
  0
LINE
  5
2BA1
330
2B73
100
AcDbEntity
  8
0
  6
Continuous
 62
     7
100
AcDbLine
 10
101.5503315448
 20
21.4145478991
 30
0.0
 11
100.5996777282
 21
21.4145478991
 31
0.0
  0
LINE
  5
2BA2
330
2B73
100
AcDbEntity
  8
0
  6
Continuous
 62
     7
100
AcDbLine
 10
98.91226720360002
 20
21.4145478991
 30
0.0
 11
97.3674547515
 21
21.4145478991
 31
0.0
  0
LINE
  5
2BA3
330
2B73
100
AcDbEntity
  8
0
  6
Continuous
 62
     7
100
AcDbLine
 10
101.5503315448
 20
16.6612788158
 30
0.0
 11
100.0292854382
 21
16.6612788158
 31
0.0
  0
LINE
  5
2BA4
330
2B73
100
AcDbEntity
  8
0
  6
Continuous
 62
     7
100
AcDbLine
 10
100.0292854382
 20
16.6612788158
 30
0.0
 11
98.3181085682
 21
19.7033710291
 31
0.0
  0
LINE
  5
2BA5
330
2B73
100
AcDbEntity
  8
0
  6
Continuous
 62
     7
100
AcDbLine
 10
98.91226720360002
 20
21.4145478991
 30
0.0
 11
100.5996777282
 21
18.4675210675
 31
0.0
  0
LINE
  5
2BA6
330
2B73
100
AcDbEntity
  8
0
  6
Continuous
 62
     7
100
AcDbLine
 10
100.5996777282
 20
21.4145478991
 30
0.0
 11
100.5996777282
 21
18.4675210675
 31
0.0
  0
LINE
  5
2BA7
330
2B73
100
AcDbEntity
  8
0
  6
Continuous
 62
     7
100
AcDbLine
 10
98.3181085682
 20
16.6612788158
 30
0.0
 11
98.3181085682
 21
19.7033710291
 31
0.0
  0
LINE
  5
2BA8
330
2B73
100
AcDbEntity
  8
0
  6
Continuous
 62
     7
100
AcDbLine
 10
102.358387289
 20
16.7563441975
 30
0.0
 11
102.358387289
 21
17.7069980142
 31
0.0
  0
LINE
  5
2BA9
330
2B73
100
AcDbEntity
  8
0
  6
Continuous
 62
     7
100
AcDbLine
 10
105.6856756473
 20
20.4163613916
 30
0.0
 11
105.6856756473
 21
21.3670152083
 31
0.0
  0
ARC
  5
2BAA
330
2B73
100
AcDbEntity
  8
0
  6
Continuous
 62
     7
100
AcDbCircle
 10
104.063028414
 20
18.6184373609
 30
0.0
 40
1.111619360599997
100
AcDbArc
 50
277.7099956934
 51
295.6884927746
  0
ARC
  5
2BAB
330
2B73
100
AcDbEntity
  8
0
  6
Continuous
 62
     7
100
AcDbCircle
 10
104.3473383967
 20
17.8936115972
 30
0.0
 40
0.3401689265
100
AcDbArc
 50
305.503221255
 51
72.46528985229999
  0
ARC
  5
2BAC
330
2B73
100
AcDbEntity
  8
0
  6
Continuous
 62
     7
100
AcDbCircle
 10
103.7813445886
 20
21.2953185068
 30
0.0
 40
4.756794641099999
100
AcDbArc
 50
252.5939200548001
 51
280.9816604256
  0
ARC
  5
2BAD
330
2B73
100
AcDbEntity
  8
0
  6
Continuous
 62
     7
100
AcDbCircle
 10
104.2361799517
 20
18.6773047703
 30
0.0
 40
2.100726595299998
100
AcDbArc
 50
282.405835852
 51
311.8644433928
  0
ARC
  5
2BAE
330
2B73
100
AcDbEntity
  8
0
  6
Continuous
 62
     7
100
AcDbCircle
 10
103.9626156046
 20
20.2856464918
 30
0.0
 40
0.3029626476
100
AcDbArc
 50
154.4400348282
 51
221.8201698801
  0
ARC
  5
2BAF
330
2B73
100
AcDbEntity
  8
0
  6
Continuous
 62
     7
100
AcDbCircle
 10
104.0418367559
 20
20.2064253405
 30
0.0
 40
0.4103089737
100
AcDbArc
 50
102.8287828681
 51
149.2259639003
  0
ARC
  5
2BB0
330
2B73
100
AcDbEntity
  8
0
  6
Continuous
 62
     7
100
AcDbCircle
 10
104.4588635916
 20
18.4640900106
 30
0.0
 40
2.201836557
100
AcDbArc
 50
84.0400061857
 51
103.3427657870999
  0
ARC
  5
2BB1
330
2B73
100
AcDbEntity
  8
0
  6
Continuous
 62
     7
100
AcDbCircle
 10
104.1178997669
 20
16.0467260867
 30
0.0
 40
4.642373736499997
100
AcDbArc
 50
70.2625858546
 51
82.95241863799999
  0
ARC
  5
2BB2
330
2B73
100
AcDbEntity
  8
0
  6
Continuous
 62
     7
100
AcDbCircle
 10
103.6038815647
 20
20.7183489764
 30
0.0
 40
3.258755990899997
100
AcDbArc
 50
247.5300206145
 51
280.7579522143
  0
ARC
  5
2BB3
330
2B73
100
AcDbEntity
  8
0
  6
Continuous
 62
     7
100
AcDbCircle
 10
97.21891509270001
 20
2.4668290159
 30
0.0
 40
17.3316084133
100
AcDbArc
 50
65.34146746500001
 51
67.39977707359999
  0
ARC
  5
2BB4
330
2B73
100
AcDbEntity
  8
0
  6
Continuous
 62
     7
100
AcDbCircle
 10
108.0147774981
 20
28.259255379
 30
0.0
 40
10.6291642039
100
AcDbArc
 50
242.8620101252001
 51
247.1042029186
  0
ARC
  5
2BB5
330
2B73
100
AcDbEntity
  8
0
  6
Continuous
 62
     7
100
AcDbCircle
 10
104.1598762715
 20
20.725323882
 30
0.0
 40
2.166291629199998
100
AcDbArc
 50
227.3119280794
 51
242.7040315235
  0
ARC
  5
2BB6
330
2B73
100
AcDbEntity
  8
0
  6
Continuous
 62
     7
100
AcDbCircle
 10
103.5558454619
 20
20.0196462412
 30
0.0
 40
1.238521734
100
AcDbArc
 50
194.7952194236
 51
225.7176549047
  0
ARC
  5
2BB7
330
2B73
100
AcDbEntity
  8
0
  6
Continuous
 62
     7
100
AcDbCircle
 10
103.6180035961
 20
20.0598662104
 30
0.0
 40
1.309092072899999
100
AcDbArc
 50
164.1974860461
 51
195.8025139539
  0
ARC
  5
2BB8
330
2B73
100
AcDbEntity
  8
0
  6
Continuous
 62
     7
100
AcDbCircle
 10
104.1750273167
 20
19.1715990505
 30
0.0
 40
2.366924815299999
100
AcDbArc
 50
86.22180229280001
 51
120.4272602309
  0
ARC
  5
2BB9
330
2B73
100
AcDbEntity
  8
0
  6
Continuous
 62
     7
100
AcDbCircle
 10
103.9061705342
 20
12.4754312294
 30
0.0
 40
9.0679051661
100
AcDbArc
 50
78.68270492259998
 51
87.3147599624
  0
ARC
  5
2BBA
330
2B73
100
AcDbEntity
  8
0
  6
Continuous
 62
     7
100
AcDbCircle
 10
103.4501013558
 20
20.1673739729
 30
0.0
 40
1.119747444
100
AcDbArc
 50
142.813917903
 51
167.1522951417
  0
ARC
  5
2BBB
330
2B73
100
AcDbEntity
  8
0
  6
Continuous
 62
     7
100
AcDbCircle
 10
103.7954106974
 20
19.8607922762
 30
0.0
 40
1.580546684499998
100
AcDbArc
 50
121.2140948535
 51
141.5254768286
  0
ARC
  5
2BBC
330
2B73
100
AcDbEntity
  8
0
  6
Continuous
 62
     7
100
AcDbCircle
 10
104.372585063
 20
20.6718496049
 30
0.0
 40
0.8661276051999998
100
AcDbArc
 50
222.7760387596
 51
239.0362434679
  0
ARC
  5
2BBD
330
2B73
100
AcDbEntity
  8
0
  6
Continuous
 62
     7
100
AcDbCircle
 10
101.8658754847
 20
13.3415774063
 30
0.0
 40
6.858773576299999
100
AcDbArc
 50
59.90202725600001
 51
68.2036481279
  0
ARC
  5
2BBE
330
2B73
100
AcDbEntity
  8
0
  6
Continuous
 62
     7
100
AcDbCircle
 10
105.2743699785
 20
22.2674639135
 30
0.0
 40
2.698741017099999
100
AcDbArc
 50
240.0481997804
 51
251.3779673736999
  0
ARC
  5
2BBF
330
2B73
100
AcDbEntity
  8
0
  6
Continuous
 62
     7
100
AcDbCircle
 10
104.6089128117
 20
18.1105652982
 30
0.0
 40
1.4334474881
100
AcDbArc
 50
315.8904553224
 51
333.5229264373
  0
ARC
  5
2BC0
330
2B73
100
AcDbEntity
  8
0
  6
Continuous
 62
     7
100
AcDbCircle
 10
104.6135510555
 20
18.057158148
 30
0.0
 40
1.406228711899998
100
AcDbArc
 50
335.3867972702
 51
24.3915119402
  0
ARC
  5
2BC1
330
2B73
100
AcDbEntity
  8
0
  6
Continuous
 62
     7
100
AcDbCircle
 10
104.5413461519
 20
17.9793014562
 30
0.0
 40
1.504702514799999
100
AcDbArc
 50
25.95629166050001
 51
59.4834829668
  0
LINE
  5
2BC2
330
2B73
100
AcDbEntity
  8
0
  6
Continuous
 62
     7
100
AcDbLine
 10
74.7656602606
 20
16.7563441975
 30
0.0
 11
74.7656602606
 21
17.7069980142
 31
0.0
  0
LINE
  5
2BC3
330
2B73
100
AcDbEntity
  8
0
  6
Continuous
 62
     7
100
AcDbLine
 10
78.09294861879997
 20
20.4163613916
 30
0.0
 11
78.09294861879997
 21
21.3670152083
 31
0.0
  0
ARC
  5
2BC4
330
2B73
100
AcDbEntity
  8
0
  6
Continuous
 62
     7
100
AcDbCircle
 10
76.4703013855
 20
18.6184373609
 30
0.0
 40
1.111619360599997
100
AcDbArc
 50
277.7099956934
 51
295.6884927746
  0
ARC
  5
2BC5
330
2B73
100
AcDbEntity
  8
0
  6
Continuous
 62
     7
100
AcDbCircle
 10
76.7546113683
 20
17.8936115972
 30
0.0
 40
0.3401689265
100
AcDbArc
 50
305.5032212556
 51
72.4652898515
  0
ARC
  5
2BC6
330
2B73
100
AcDbEntity
  8
0
  6
Continuous
 62
     7
100
AcDbCircle
 10
76.1886175602
 20
21.2953185068
 30
0.0
 40
4.756794641099999
100
AcDbArc
 50
252.5939200545
 51
280.9816604253
  0
ARC
  5
2BC7
330
2B73
100
AcDbEntity
  8
0
  6
Continuous
 62
     7
100
AcDbCircle
 10
76.64345292330001
 20
18.6773047703
 30
0.0
 40
2.100726595299998
100
AcDbArc
 50
282.4058358513
 51
311.8644433923
  0
ARC
  5
2BC8
330
2B73
100
AcDbEntity
  8
0
  6
Continuous
 62
     7
100
AcDbCircle
 10
76.3698885762
 20
20.2856464918
 30
0.0
 40
0.3029626476
100
AcDbArc
 50
154.4400348282
 51
221.8201698801
  0
ARC
  5
2BC9
330
2B73
100
AcDbEntity
  8
0
  6
Continuous
 62
     7
100
AcDbCircle
 10
76.4491097276
 20
20.2064253405
 30
0.0
 40
0.4103089737
100
AcDbArc
 50
102.8287828727
 51
149.2259639027
  0
ARC
  5
2BCA
330
2B73
100
AcDbEntity
  8
0
  6
Continuous
 62
     7
100
AcDbCircle
 10
76.8661365632
 20
18.4640900106
 30
0.0
 40
2.201836557
100
AcDbArc
 50
84.0400061859
 51
103.3427657872
  0
ARC
  5
2BCB
330
2B73
100
AcDbEntity
  8
0
  6
Continuous
 62
     7
100
AcDbCircle
 10
76.5251727384
 20
16.0467260867
 30
0.0
 40
4.642373736499997
100
AcDbArc
 50
70.2625858546
 51
82.9524186379
  0
ARC
  5
2BCC
330
2B73
100
AcDbEntity
  8
0
  6
Continuous
 62
     7
100
AcDbCircle
 10
76.0111545363
 20
20.7183489764
 30
0.0
 40
3.258755990899997
100
AcDbArc
 50
247.5300206148
 51
280.7579522145
  0
ARC
  5
2BCD
330
2B73
100
AcDbEntity
  8
0
  6
Continuous
 62
     7
100
AcDbCircle
 10
69.6261880643
 20
2.4668290159
 30
0.0
 40
17.3316084133
100
AcDbArc
 50
65.34146746500001
 51
67.39977707359999
  0
ARC
  5
2BCE
330
2B73
100
AcDbEntity
  8
0
  6
Continuous
 62
     7
100
AcDbCircle
 10
80.4220504697
 20
28.259255379
 30
0.0
 40
10.6291642039
100
AcDbArc
 50
242.8620101252001
 51
247.1042029185
  0
ARC
  5
2BCF
330
2B73
100
AcDbEntity
  8
0
  6
Continuous
 62
     7
100
AcDbCircle
 10
76.56714924310001
 20
20.725323882
 30
0.0
 40
2.166291629199998
100
AcDbArc
 50
227.3119280794
 51
242.7040315235
  0
ARC
  5
2BD0
330
2B73
100
AcDbEntity
  8
0
  6
Continuous
 62
     7
100
AcDbCircle
 10
75.9631184335
 20
20.0196462412
 30
0.0
 40
1.238521734
100
AcDbArc
 50
194.7952194234
 51
225.7176549042
  0
ARC
  5
2BD1
330
2B73
100
AcDbEntity
  8
0
  6
Continuous
 62
     7
100
AcDbCircle
 10
76.58230028830002
 20
19.1715990505
 30
0.0
 40
2.366924815299999
100
AcDbArc
 50
86.22180229280001
 51
120.4272602309
  0
ARC
  5
2BD2
330
2B73
100
AcDbEntity
  8
0
  6
Continuous
 62
     7
100
AcDbCircle
 10
76.3134435058
 20
12.4754312294
 30
0.0
 40
9.0679051661
100
AcDbArc
 50
78.68270492259998
 51
87.3147599624
  0
ARC
  5
2BD3
330
2B73
100
AcDbEntity
  8
0
  6
Continuous
 62
     7
100
AcDbCircle
 10
76.20268366899998
 20
19.8607922762
 30
0.0
 40
1.580546684599998
100
AcDbArc
 50
121.2140948541
 51
141.525476829
  0
ARC
  5
2BD4
330
2B73
100
AcDbEntity
  8
0
  6
Continuous
 62
     7
100
AcDbCircle
 10
76.7798580346
 20
20.6718496049
 30
0.0
 40
0.8661276051999998
100
AcDbArc
 50
222.7760387596
 51
239.0362434679
  0
ARC
  5
2BD5
330
2B73
100
AcDbEntity
  8
0
  6
Continuous
 62
     7
100
AcDbCircle
 10
74.2731484563
 20
13.3415774063
 30
0.0
 40
6.858773576299999
100
AcDbArc
 50
59.90202725620001
 51
68.20364812820002
  0
ARC
  5
2BD6
330
2B73
100
AcDbEntity
  8
0
  6
Continuous
 62
     7
100
AcDbCircle
 10
77.6816429501
 20
22.2674639135
 30
0.0
 40
2.698741017099999
100
AcDbArc
 50
240.0481997804
 51
251.3779673734
  0
ARC
  5
2BD7
330
2B73
100
AcDbEntity
  8
0
  6
Continuous
 62
     7
100
AcDbCircle
 10
77.0161857833
 20
18.1105652982
 30
0.0
 40
1.4334474881
100
AcDbArc
 50
315.8904553226
 51
333.5229264375
  0
ARC
  5
2BD8
330
2B73
100
AcDbEntity
  8
0
  6
Continuous
 62
     7
100
AcDbCircle
 10
77.020824027
 20
18.057158148
 30
0.0
 40
1.406228711899998
100
AcDbArc
 50
335.3867972703
 51
24.3915119403
  0
ARC
  5
2BD9
330
2B73
100
AcDbEntity
  8
0
  6
Continuous
 62
     7
100
AcDbCircle
 10
76.94861912350001
 20
17.9793014562
 30
0.0
 40
1.504702514699999
100
AcDbArc
 50
25.9562916611
 51
59.4834829676
  0
LINE
  5
2BDA
330
2B73
100
AcDbEntity
  8
0
  6
Continuous
 62
     7
100
AcDbLine
 10
74.9574888499
 20
20.8337423583
 30
0.0
 11
75.2315546745
 21
21.1078154358
 31
0.0
  0
ARC
  5
2BDB
330
2B73
100
AcDbEntity
  8
0
  6
Continuous
 62
     7
100
AcDbCircle
 10
76.0252765676
 20
20.0598662104
 30
0.0
 40
1.309092072899999
100
AcDbArc
 50
164.1974860461
 51
195.8025139539
  0
ARC
  5
2BDC
330
2B73
100
AcDbEntity
  8
0
  6
Continuous
 62
     7
100
AcDbCircle
 10
75.8573743274
 20
20.1673739729
 30
0.0
 40
1.119747444
100
AcDbArc
 50
142.813917903
 51
167.1522951417
  0
ENDBLK
  5
2BDD
330
2B73
100
AcDbEntity
  8
0
100
AcDbBlockEnd
  0
BLOCK
  5
4446
330
443C
100
AcDbEntity
  8
0
100
AcDbBlockBegin
  2
*D2
 70
     1
 10
0.0
 20
0.0
 30
0.0
  3
*D2
  1

  0
LINE
  5
498E
330
443C
100
AcDbEntity
  8
10100_Front_Dim
  6
Continuous
370
    -2
100
AcDbLine
 10
74.81037089305532
 20
227.734617811874
 30
0.0
 11
74.81037089305532
 21
246.0505439663962
 31
0.0
  0
LINE
  5
498F
330
443C
100
AcDbEntity
  8
10100_Front_Dim
  6
Continuous
370
    -2
100
AcDbLine
 10
102.8103708930553
 20
227.734617811874
 30
0.0
 11
102.8103708930553
 21
246.0505439663962
 31
0.0
  0
LINE
  5
4990
330
443C
100
AcDbEntity
  8
10100_Front_Dim
  6
Continuous
370
    -2
100
AcDbLine
 10
77.31037089305532
 20
244.0505439663962
 30
0.0
 11
83.64370422638865
 21
244.0505439663962
 31
0.0
  0
LINE
  5
4991
330
443C
100
AcDbEntity
  8
10100_Front_Dim
  6
Continuous
370
    -2
100
AcDbLine
 10
100.3103708930553
 20
244.0505439663962
 30
0.0
 11
93.977037559722
 21
244.0505439663962
 31
0.0
  0
MTEXT
  5
4992
330
443C
100
AcDbEntity
  8
10100_Front_Dim
  6
Continuous
 62
     7
370
    13
100
AcDbMText
 10
88.81037089305531
 20
244.0505439663962
 30
0.0
 40
5.0
 41
0.0
 71
     5
 72
     1
  1
\A1;28
 73
     1
 44
1.0
1001
ACAD
1000
MTEXTBEGIN
1070
    73
1070
     1
1070
    44
1040
1.0
1070
    74
1070
     0
1000
MTEXTEND
  0
SOLID
  5
4993
330
443C
100
AcDbEntity
  8
10100_Front_Dim
  6
Continuous
100
AcDbTrace
 10
77.31037089305532
 20
244.4672106330629
 30
0.0
 11
77.31037089305532
 21
243.6338772997296
 31
0.0
 12
74.81037089305532
 22
244.0505439663962
 32
0.0
 13
74.81037089305532
 23
244.0505439663962
 33
0.0
  0
SOLID
  5
4994
330
443C
100
AcDbEntity
  8
10100_Front_Dim
  6
Continuous
100
AcDbTrace
 10
100.3103708930553
 20
244.4672106330629
 30
0.0
 11
100.3103708930553
 21
243.6338772997296
 31
0.0
 12
102.8103708930553
 22
244.0505439663962
 32
0.0
 13
102.8103708930553
 23
244.0505439663962
 33
0.0
  0
POINT
  5
4995
330
443C
100
AcDbEntity
  8
Defpoints
  6
Continuous
 62
     0
100
AcDbPoint
 10
74.81037089305532
 20
227.734617811874
 30
0.0
  0
POINT
  5
4996
330
443C
100
AcDbEntity
  8
Defpoints
  6
Continuous
 62
     0
100
AcDbPoint
 10
102.8103708930553
 20
227.734617811874
 30
0.0
  0
POINT
  5
4997
330
443C
100
AcDbEntity
  8
Defpoints
  6
Continuous
 62
     0
100
AcDbPoint
 10
102.8103708930553
 20
244.0505439663962
 30
0.0
  0
ENDBLK
  5
4447
330
443C
100
AcDbEntity
  8
0
100
AcDbBlockEnd
  0
BLOCK
  5
4452
330
4448
100
AcDbEntity
  8
0
100
AcDbBlockBegin
  2
*D3
 70
     1
 10
0.0
 20
0.0
 30
0.0
  3
*D3
  1

  0
LINE
  5
4984
330
4448
100
AcDbEntity
  8
10100_Front_Dim
  6
Continuous
370
    -2
100
AcDbLine
 10
107.8136407354816
 20
235.966567586595
 30
0.0
 11
138.0402763460589
 21
235.966567586595
 31
0.0
  0
LINE
  5
4985
330
4448
100
AcDbEntity
  8
10100_Front_Dim
  6
Continuous
370
    -2
100
AcDbLine
 10
107.8136407354816
 20
150.8664680371528
 30
0.0
 11
138.0402763460589
 21
150.8664680371528
 31
0.0
  0
LINE
  5
4986
330
4448
100
AcDbEntity
  8
10100_Front_Dim
  6
Continuous
370
    -2
100
AcDbLine
 10
136.0402763460589
 20
233.466567586595
 30
0.0
 11
136.0402763460589
 21
198.9919791992408
 31
0.0
  0
LINE
  5
4987
330
4448
100
AcDbEntity
  8
10100_Front_Dim
  6
Continuous
370
    -2
100
AcDbLine
 10
136.0402763460589
 20
153.3664680371528
 30
0.0
 11
136.0402763460589
 21
188.6586458659074
 31
0.0
  0
MTEXT
  5
4988
330
4448
100
AcDbEntity
  8
10100_Front_Dim
  6
Continuous
 62
     7
370
    13
100
AcDbMText
 10
136.0402763460589
 20
193.8253125325742
 30
0.0
 40
5.0
 41
0.0
 71
     5
 72
     1
  1
\A1;85
 11
0.0000000000000001
 21
1.0
 31
0.0
 73
     1
 44
1.0
1001
ACAD
1000
MTEXTBEGIN
1070
    73
1070
     1
1070
    44
1040
1.0
1070
    74
1070
     0
1000
MTEXTEND
  0
SOLID
  5
4989
330
4448
100
AcDbEntity
  8
10100_Front_Dim
  6
Continuous
100
AcDbTrace
 10
135.6236096793923
 20
233.466567586595
 30
0.0
 11
136.4569430127256
 21
233.466567586595
 31
0.0
 12
136.0402763460589
 22
235.966567586595
 32
0.0
 13
136.0402763460589
 23
235.966567586595
 33
0.0
  0
SOLID
  5
498A
330
4448
100
AcDbEntity
  8
10100_Front_Dim
  6
Continuous
100
AcDbTrace
 10
135.6236096793923
 20
153.3664680371528
 30
0.0
 11
136.4569430127256
 21
153.3664680371528
 31
0.0
 12
136.0402763460589
 22
150.8664680371528
 32
0.0
 13
136.0402763460589
 23
150.8664680371528
 33
0.0
  0
POINT
  5
498B
330
4448
100
AcDbEntity
  8
Defpoints
  6
Continuous
 62
     0
100
AcDbPoint
 10
107.8136407354816
 20
235.966567586595
 30
0.0
  0
POINT
  5
498C
330
4448
100
AcDbEntity
  8
Defpoints
  6
Continuous
 62
     0
100
AcDbPoint
 10
107.8136407354816
 20
150.8664680371528
 30
0.0
  0
POINT
  5
498D
330
4448
100
AcDbEntity
  8
Defpoints
  6
Continuous
 62
     0
100
AcDbPoint
 10
136.0402763460589
 20
150.8664680371528
 30
0.0
  0
ENDBLK
  5
4453
330
4448
100
AcDbEntity
  8
0
100
AcDbBlockEnd
  0
BLOCK
  5
4486
330
447A
100
AcDbEntity
  8
0
100
AcDbBlockBegin
  2
*D4
 70
     1
 10
0.0
 20
0.0
 30
0.0
  3
*D4
  1

  0
LINE
  5
4979
330
447A
100
AcDbEntity
  8
11100_Left_Dim
  6
Continuous
370
    -2
100
AcDbLine
 10
158.3701805044525
 20
227.0729335252589
 30
0.0
 11
158.3701805044525
 21
246.671508673722
 31
0.0
  0
LINE
  5
497A
330
447A
100
AcDbEntity
  8
11100_Left_Dim
  6
Continuous
370
    -2
100
AcDbLine
 10
163.470280504443
 20
214.8338438444229
 30
0.0
 11
163.470280504443
 21
246.671508673722
 31
0.0
  0
LINE
  5
497B
330
447A
100
AcDbEntity
  8
11100_Left_Dim
  6
Continuous
370
    -2
100
AcDbLine
 10
155.8701805044525
 20
244.671508673722
 30
0.0
 11
153.3701805044525
 21
244.671508673722
 31
0.0
  0
LINE
  5
497C
330
447A
100
AcDbEntity
  8
11100_Left_Dim
  6
Continuous
370
    -2
100
AcDbLine
 10
165.970280504443
 20
244.671508673722
 30
0.0
 11
168.470280504443
 21
244.671508673722
 31
0.0
  0
MTEXT
  5
497D
330
447A
100
AcDbEntity
  8
11100_Left_Dim
  6
Continuous
 62
     7
370
    13
100
AcDbMText
 10
146.7035138377859
 20
244.671508673722
 30
0.0
 40
5.0
 41
0.0
 71
     5
 72
     1
  1
\A1;5
 73
     1
 44
1.0
1001
ACAD
1000
MTEXTBEGIN
1070
    73
1070
     1
1070
    44
1040
1.0
1070
    74
1070
     0
1000
MTEXTEND
  0
LINE
  5
497E
330
447A
100
AcDbEntity
  8
11100_Left_Dim
  6
Continuous
370
    -2
100
AcDbLine
 10
158.3701805044525
 20
244.671508673722
 30
0.0
 11
163.470280504443
 21
244.671508673722
 31
0.0
  0
SOLID
  5
497F
330
447A
100
AcDbEntity
  8
11100_Left_Dim
  6
Continuous
100
AcDbTrace
 10
155.8701805044525
 20
245.0881753403887
 30
0.0
 11
155.8701805044525
 21
244.2548420070554
 31
0.0
 12
158.3701805044525
 22
244.671508673722
 32
0.0
 13
158.3701805044525
 23
244.671508673722
 33
0.0
  0
SOLID
  5
4980
330
447A
100
AcDbEntity
  8
11100_Left_Dim
  6
Continuous
100
AcDbTrace
 10
165.970280504443
 20
245.0881753403887
 30
0.0
 11
165.970280504443
 21
244.2548420070554
 31
0.0
 12
163.470280504443
 22
244.671508673722
 32
0.0
 13
163.470280504443
 23
244.671508673722
 33
0.0
  0
POINT
  5
4981
330
447A
100
AcDbEntity
  8
Defpoints
  6
Continuous
 62
     0
100
AcDbPoint
 10
158.3701805044525
 20
227.0729335252589
 30
0.0
  0
POINT
  5
4982
330
447A
100
AcDbEntity
  8
Defpoints
  6
Continuous
 62
     0
100
AcDbPoint
 10
163.470280504443
 20
214.8338438444229
 30
0.0
  0
POINT
  5
4983
330
447A
100
AcDbEntity
  8
Defpoints
  6
Continuous
 62
     0
100
AcDbPoint
 10
163.470280504443
 20
244.671508673722
 30
0.0
  0
ENDBLK
  5
4487
330
447A
100
AcDbEntity
  8
0
100
AcDbBlockEnd
  0
BLOCK
  5
4492
330
4488
100
AcDbEntity
  8
0
100
AcDbBlockBegin
  2
*D5
 70
     1
 10
0.0
 20
0.0
 30
0.0
  3
*D5
  1

  0
LINE
  5
496F
330
4488
100
AcDbEntity
  8
11100_Left_Dim
  6
Continuous
370
    -2
100
AcDbLine
 10
163.470280504443
 20
214.8338438444229
 30
0.0
 11
163.470280504443
 21
246.671508673722
 31
0.0
  0
LINE
  5
4970
330
4488
100
AcDbEntity
  8
11100_Left_Dim
  6
Continuous
370
    -2
100
AcDbLine
 10
225.470180504443
 20
229.884023844423
 30
0.0
 11
225.470180504443
 21
246.671508673722
 31
0.0
  0
LINE
  5
4971
330
4488
100
AcDbEntity
  8
11100_Left_Dim
  6
Continuous
370
    -2
100
AcDbLine
 10
165.970280504443
 20
244.671508673722
 30
0.0
 11
189.3035638377763
 21
244.671508673722
 31
0.0
  0
LINE
  5
4972
330
4488
100
AcDbEntity
  8
11100_Left_Dim
  6
Continuous
370
    -2
100
AcDbLine
 10
222.970180504443
 20
244.671508673722
 30
0.0
 11
199.6368971711096
 21
244.671508673722
 31
0.0
  0
MTEXT
  5
4973
330
4488
100
AcDbEntity
  8
11100_Left_Dim
  6
Continuous
 62
     7
370
    13
100
AcDbMText
 10
194.4702305044429
 20
244.671508673722
 30
0.0
 40
5.0
 41
0.0
 71
     5
 72
     1
  1
\A1;62
 73
     1
 44
1.0
1001
ACAD
1000
MTEXTBEGIN
1070
    73
1070
     1
1070
    44
1040
1.0
1070
    74
1070
     0
1000
MTEXTEND
  0
SOLID
  5
4974
330
4488
100
AcDbEntity
  8
11100_Left_Dim
  6
Continuous
100
AcDbTrace
 10
165.970280504443
 20
245.0881753403887
 30
0.0
 11
165.970280504443
 21
244.2548420070554
 31
0.0
 12
163.470280504443
 22
244.671508673722
 32
0.0
 13
163.470280504443
 23
244.671508673722
 33
0.0
  0
SOLID
  5
4975
330
4488
100
AcDbEntity
  8
11100_Left_Dim
  6
Continuous
100
AcDbTrace
 10
222.970180504443
 20
245.0881753403887
 30
0.0
 11
222.970180504443
 21
244.2548420070554
 31
0.0
 12
225.470180504443
 22
244.671508673722
 32
0.0
 13
225.470180504443
 23
244.671508673722
 33
0.0
  0
POINT
  5
4976
330
4488
100
AcDbEntity
  8
Defpoints
  6
Continuous
 62
     0
100
AcDbPoint
 10
163.470280504443
 20
214.8338438444229
 30
0.0
  0
POINT
  5
4977
330
4488
100
AcDbEntity
  8
Defpoints
  6
Continuous
 62
     0
100
AcDbPoint
 10
225.470180504443
 20
229.884023844423
 30
0.0
  0
POINT
  5
4978
330
4488
100
AcDbEntity
  8
Defpoints
  6
Continuous
 62
     0
100
AcDbPoint
 10
225.470180504443
 20
244.671508673722
 30
0.0
  0
ENDBLK
  5
4493
330
4488
100
AcDbEntity
  8
0
100
AcDbBlockEnd
  0
BLOCK
  5
449E
330
4494
100
AcDbEntity
  8
0
100
AcDbBlockBegin
  2
*D6
 70
     1
 10
0.0
 20
0.0
 30
0.0
  3
*D6
  1

  0
LINE
  5
4965
330
4494
100
AcDbEntity
  8
11000_Left
  6
DASHED
370
    -2
100
AcDbLine
 10
163.470280504443
 20
214.8338438444229
 30
0.0
 11
163.470280504443
 21
254.1367172345302
 31
0.0
  0
LINE
  5
4966
330
4494
100
AcDbEntity
  8
11000_Left
  6
DASHED
370
    -2
100
AcDbLine
 10
249.170180504443
 20
213.3840238444228
 30
0.0
 11
249.170180504443
 21
254.1367172345302
 31
0.0
  0
LINE
  5
4967
330
4494
100
AcDbEntity
  8
11000_Left
  6
DASHED
370
    -2
100
AcDbLine
 10
165.970280504443
 20
252.1367172345302
 30
0.0
 11
201.1535638377763
 21
252.1367172345302
 31
0.0
  0
LINE
  5
4968
330
4494
100
AcDbEntity
  8
11000_Left
  6
DASHED
370
    -2
100
AcDbLine
 10
246.670180504443
 20
252.1367172345302
 30
0.0
 11
211.4868971711096
 21
252.1367172345302
 31
0.0
  0
SOLID
  5
4969
330
4494
100
AcDbEntity
  8
11000_Left
  6
DASHED
100
AcDbTrace
 10
165.970280504443
 20
252.5533839011969
 30
0.0
 11
165.970280504443
 21
251.7200505678635
 31
0.0
 12
163.470280504443
 22
252.1367172345302
 32
0.0
 13
163.470280504443
 23
252.1367172345302
 33
0.0
  0
SOLID
  5
496A
330
4494
100
AcDbEntity
  8
11000_Left
  6
DASHED
100
AcDbTrace
 10
246.670180504443
 20
252.5533839011969
 30
0.0
 11
246.670180504443
 21
251.7200505678635
 31
0.0
 12
249.170180504443
 22
252.1367172345302
 32
0.0
 13
249.170180504443
 23
252.1367172345302
 33
0.0
  0
MTEXT
  5
496B
330
4494
100
AcDbEntity
  8
11000_Left
  6
DASHED
 62
     7
370
     9
100
AcDbMText
 10
206.320230504443
 20
252.1367172345302
 30
0.0
 40
5.0
 41
0.0
 71
     5
 72
     1
  1
\A1;86
 73
     1
 44
1.0
1001
ACAD
1000
MTEXTBEGIN
1070
    73
1070
     1
1070
    44
1040
1.0
1070
    74
1070
     0
1000
MTEXTEND
  0
POINT
  5
496C
330
4494
100
AcDbEntity
  8
Defpoints
  6
DASHED
 62
     0
100
AcDbPoint
 10
163.470280504443
 20
214.8338438444229
 30
0.0
  0
POINT
  5
496D
330
4494
100
AcDbEntity
  8
Defpoints
  6
DASHED
 62
     0
100
AcDbPoint
 10
249.170180504443
 20
213.3840238444228
 30
0.0
  0
POINT
  5
496E
330
4494
100
AcDbEntity
  8
Defpoints
  6
DASHED
 62
     0
100
AcDbPoint
 10
249.170180504443
 20
252.1367172345302
 30
0.0
  0
ENDBLK
  5
449F
330
4494
100
AcDbEntity
  8
0
100
AcDbBlockEnd
  0
BLOCK
  5
44AA
330
44A0
100
AcDbEntity
  8
0
100
AcDbBlockBegin
  2
*D7
 70
     1
 10
0.0
 20
0.0
 30
0.0
  3
*D7
  1

  0
LINE
  5
495B
330
44A0
100
AcDbEntity
  8
11100_Left_Dim
  6
Continuous
370
    -2
100
AcDbLine
 10
163.470280504443
 20
214.8338438444229
 30
0.0
 11
163.470280504443
 21
261.8685389382902
 31
0.0
  0
LINE
  5
495C
330
44A0
100
AcDbEntity
  8
11100_Left_Dim
  6
Continuous
370
    -2
100
AcDbLine
 10
298.070180504443
 20
195.384023844423
 30
0.0
 11
298.070180504443
 21
261.8685389382902
 31
0.0
  0
LINE
  5
495D
330
44A0
100
AcDbEntity
  8
11100_Left_Dim
  6
Continuous
370
    -2
100
AcDbLine
 10
165.970280504443
 20
259.8685389382902
 30
0.0
 11
223.9368971711097
 21
259.8685389382902
 31
0.0
  0
LINE
  5
495E
330
44A0
100
AcDbEntity
  8
11100_Left_Dim
  6
Continuous
370
    -2
100
AcDbLine
 10
295.570180504443
 20
259.8685389382902
 30
0.0
 11
237.6035638377764
 21
259.8685389382902
 31
0.0
  0
MTEXT
  5
495F
330
44A0
100
AcDbEntity
  8
11100_Left_Dim
  6
Continuous
 62
     7
370
    13
100
AcDbMText
 10
230.770230504443
 20
259.8685389382902
 30
0.0
 40
5.0
 41
0.0
 71
     5
 72
     1
  1
\A1;135
 73
     1
 44
1.0
1001
ACAD
1000
MTEXTBEGIN
1070
    73
1070
     1
1070
    44
1040
1.0
1070
    74
1070
     0
1000
MTEXTEND
  0
SOLID
  5
4960
330
44A0
100
AcDbEntity
  8
11100_Left_Dim
  6
Continuous
100
AcDbTrace
 10
165.970280504443
 20
260.2852056049569
 30
0.0
 11
165.970280504443
 21
259.4518722716235
 31
0.0
 12
163.470280504443
 22
259.8685389382902
 32
0.0
 13
163.470280504443
 23
259.8685389382902
 33
0.0
  0
SOLID
  5
4961
330
44A0
100
AcDbEntity
  8
11100_Left_Dim
  6
Continuous
100
AcDbTrace
 10
295.570180504443
 20
260.2852056049569
 30
0.0
 11
295.570180504443
 21
259.4518722716235
 31
0.0
 12
298.070180504443
 22
259.8685389382902
 32
0.0
 13
298.070180504443
 23
259.8685389382902
 33
0.0
  0
POINT
  5
4962
330
44A0
100
AcDbEntity
  8
Defpoints
  6
Continuous
 62
     0
100
AcDbPoint
 10
163.470280504443
 20
214.8338438444229
 30
0.0
  0
POINT
  5
4963
330
44A0
100
AcDbEntity
  8
Defpoints
  6
Continuous
 62
     0
100
AcDbPoint
 10
298.070180504443
 20
195.384023844423
 30
0.0
  0
POINT
  5
4964
330
44A0
100
AcDbEntity
  8
Defpoints
  6
Continuous
 62
     0
100
AcDbPoint
 10
298.070180504443
 20
259.8685389382902
 30
0.0
  0
ENDBLK
  5
44AB
330
44A0
100
AcDbEntity
  8
0
100
AcDbBlockEnd
  0
BLOCK
  5
4629
330
461F
100
AcDbEntity
  8
0
100
AcDbBlockBegin
  2
*D8
 70
     1
 10
0.0
 20
0.0
 30
0.0
  3
*D8
  1

  0
LINE
  5
4951
330
461F
100
AcDbEntity
  8
10100_Front_Dim
  6
Continuous
370
    -2
100
AcDbLine
 10
109.6103508930553
 20
212.466517811874
 30
0.0
 11
129.7561978070182
 21
212.466517811874
 31
0.0
  0
LINE
  5
4952
330
461F
100
AcDbEntity
  8
10100_Front_Dim
  6
Continuous
370
    -2
100
AcDbLine
 10
109.6103508930553
 20
174.466517811874
 30
0.0
 11
129.7561978070182
 21
174.466517811874
 31
0.0
  0
LINE
  5
4953
330
461F
100
AcDbEntity
  8
10100_Front_Dim
  6
Continuous
370
    -2
100
AcDbLine
 10
127.7561978070182
 20
209.966517811874
 30
0.0
 11
127.7561978070182
 21
198.6331844785406
 31
0.0
  0
LINE
  5
4954
330
461F
100
AcDbEntity
  8
10100_Front_Dim
  6
Continuous
370
    -2
100
AcDbLine
 10
127.7561978070182
 20
176.966517811874
 30
0.0
 11
127.7561978070182
 21
188.2998511452073
 31
0.0
  0
SOLID
  5
4955
330
461F
100
AcDbEntity
  8
10100_Front_Dim
  6
Continuous
100
AcDbTrace
 10
127.3395311403515
 20
209.966517811874
 30
0.0
 11
128.1728644736849
 21
209.966517811874
 31
0.0
 12
127.7561978070182
 22
212.466517811874
 32
0.0
 13
127.7561978070182
 23
212.466517811874
 33
0.0
  0
SOLID
  5
4956
330
461F
100
AcDbEntity
  8
10100_Front_Dim
  6
Continuous
100
AcDbTrace
 10
127.3395311403515
 20
176.966517811874
 30
0.0
 11
128.1728644736848
 21
176.966517811874
 31
0.0
 12
127.7561978070182
 22
174.466517811874
 32
0.0
 13
127.7561978070182
 23
174.466517811874
 33
0.0
  0
MTEXT
  5
4957
330
461F
100
AcDbEntity
  8
10100_Front_Dim
  6
Continuous
 62
     7
370
    13
100
AcDbMText
 10
127.7561978070182
 20
193.466517811874
 30
0.0
 40
5.0
 41
0.0
 71
     5
 72
     1
  1
\A1;38
 11
0.0000000000000001
 21
1.0
 31
0.0
 73
     1
 44
1.0
1001
ACAD
1000
MTEXTBEGIN
1070
    73
1070
     1
1070
    44
1040
1.0
1070
    74
1070
     0
1000
MTEXTEND
  0
POINT
  5
4958
330
461F
100
AcDbEntity
  8
Defpoints
  6
Continuous
 62
     0
100
AcDbPoint
 10
109.6103508930553
 20
212.466517811874
 30
0.0
  0
POINT
  5
4959
330
461F
100
AcDbEntity
  8
Defpoints
  6
Continuous
 62
     0
100
AcDbPoint
 10
109.6103508930553
 20
174.466517811874
 30
0.0
  0
POINT
  5
495A
330
461F
100
AcDbEntity
  8
Defpoints
  6
Continuous
 62
     0
100
AcDbPoint
 10
127.7561978070182
 20
174.466517811874
 30
0.0
  0
ENDBLK
  5
462A
330
461F
100
AcDbEntity
  8
0
100
AcDbBlockEnd
  0
BLOCK
  5
4653
330
4649
100
AcDbEntity
  8
0
100
AcDbBlockBegin
  2
*D9
 70
     1
 10
0.0
 20
0.0
 30
0.0
  3
*D9
  1

  0
LINE
  5
4947
330
4649
100
AcDbEntity
  8
10100_Front_Dim
  6
Continuous
370
    -2
100
AcDbLine
 10
108.7604508930553
 20
202.466517811874
 30
0.0
 11
122.3261526925229
 21
202.466517811874
 31
0.0
  0
LINE
  5
4948
330
4649
100
AcDbEntity
  8
10100_Front_Dim
  6
Continuous
370
    -2
100
AcDbLine
 10
108.7604508930553
 20
184.466517811874
 30
0.0
 11
122.3261526925229
 21
184.466517811874
 31
0.0
  0
LINE
  5
4949
330
4649
100
AcDbEntity
  8
10100_Front_Dim
  6
Continuous
370
    -2
100
AcDbLine
 10
120.3261526925229
 20
199.9665178118739
 30
0.0
 11
120.3261526925229
 21
197.7998511452073
 31
0.0
  0
LINE
  5
494A
330
4649
100
AcDbEntity
  8
10100_Front_Dim
  6
Continuous
370
    -2
100
AcDbLine
 10
120.3261526925229
 20
186.966517811874
 30
0.0
 11
120.3261526925229
 21
189.1331844785406
 31
0.0
  0
SOLID
  5
494B
330
4649
100
AcDbEntity
  8
10100_Front_Dim
  6
Continuous
100
AcDbTrace
 10
119.9094860258562
 20
199.9665178118739
 30
0.0
 11
120.7428193591896
 21
199.9665178118739
 31
0.0
 12
120.3261526925229
 22
202.466517811874
 32
0.0
 13
120.3261526925229
 23
202.466517811874
 33
0.0
  0
SOLID
  5
494C
330
4649
100
AcDbEntity
  8
10100_Front_Dim
  6
Continuous
100
AcDbTrace
 10
119.9094860258562
 20
186.966517811874
 30
0.0
 11
120.7428193591896
 21
186.966517811874
 31
0.0
 12
120.3261526925229
 22
184.466517811874
 32
0.0
 13
120.3261526925229
 23
184.466517811874
 33
0.0
  0
MTEXT
  5
494D
330
4649
100
AcDbEntity
  8
10100_Front_Dim
  6
Continuous
 62
     7
370
    13
100
AcDbMText
 10
120.3261526925229
 20
193.466517811874
 30
0.0
 40
5.0
 41
0.0
 71
     5
 72
     1
  1
\A1;18
 11
0.0000000000000001
 21
1.0
 31
0.0
 73
     1
 44
1.0
1001
ACAD
1000
MTEXTBEGIN
1070
    73
1070
     1
1070
    44
1040
1.0
1070
    74
1070
     0
1000
MTEXTEND
  0
POINT
  5
494E
330
4649
100
AcDbEntity
  8
Defpoints
  6
Continuous
 62
     0
100
AcDbPoint
 10
108.7604508930553
 20
202.466517811874
 30
0.0
  0
POINT
  5
494F
330
4649
100
AcDbEntity
  8
Defpoints
  6
Continuous
 62
     0
100
AcDbPoint
 10
108.7604508930553
 20
184.466517811874
 30
0.0
  0
POINT
  5
4950
330
4649
100
AcDbEntity
  8
Defpoints
  6
Continuous
 62
     0
100
AcDbPoint
 10
120.3261526925229
 20
184.466517811874
 30
0.0
  0
ENDBLK
  5
4654
330
4649
100
AcDbEntity
  8
0
100
AcDbBlockEnd
  0
BLOCK
  5
47DB
330
47D1
100
AcDbEntity
  8
0
100
AcDbBlockBegin
  2
*D10
 70
     1
 10
0.0
 20
0.0
 30
0.0
  3
*D10
  1

  0
LINE
  5
493D
330
47D1
100
AcDbEntity
  8
10100_Front_Dim
  6
Continuous
370
    -2
100
AcDbLine
 10
67.21038089305531
 20
211.666717811874
 30
0.0
 11
67.21038089305531
 21
253.263093930632
 31
0.0
  0
LINE
  5
493E
330
47D1
100
AcDbEntity
  8
10100_Front_Dim
  6
Continuous
370
    -2
100
AcDbLine
 10
110.4103508930553
 20
211.666717811874
 30
0.0
 11
110.4103508930553
 21
253.263093930632
 31
0.0
  0
LINE
  5
493F
330
47D1
100
AcDbEntity
  8
10100_Front_Dim
  6
Continuous
370
    -2
100
AcDbLine
 10
69.71038089305531
 20
251.263093930632
 30
0.0
 11
83.64369922638864
 21
251.263093930632
 31
0.0
  0
LINE
  5
4940
330
47D1
100
AcDbEntity
  8
10100_Front_Dim
  6
Continuous
370
    -2
100
AcDbLine
 10
107.9103508930553
 20
251.263093930632
 30
0.0
 11
93.97703255972201
 21
251.263093930632
 31
0.0
  0
SOLID
  5
4941
330
47D1
100
AcDbEntity
  8
10100_Front_Dim
  6
Continuous
100
AcDbTrace
 10
69.71038089305531
 20
251.6797605972987
 30
0.0
 11
69.71038089305531
 21
250.8464272639653
 31
0.0
 12
67.21038089305531
 22
251.263093930632
 32
0.0
 13
67.21038089305531
 23
251.263093930632
 33
0.0
  0
SOLID
  5
4942
330
47D1
100
AcDbEntity
  8
10100_Front_Dim
  6
Continuous
100
AcDbTrace
 10
107.9103508930553
 20
251.6797605972987
 30
0.0
 11
107.9103508930553
 21
250.8464272639653
 31
0.0
 12
110.4103508930553
 22
251.263093930632
 32
0.0
 13
110.4103508930553
 23
251.263093930632
 33
0.0
  0
MTEXT
  5
4943
330
47D1
100
AcDbEntity
  8
10100_Front_Dim
  6
Continuous
 62
     7
370
    13
100
AcDbMText
 10
88.8103658930553
 20
251.263093930632
 30
0.0
 40
5.0
 41
0.0
 71
     5
 72
     1
  1
\A1;43
 73
     1
 44
1.0
1001
ACAD
1000
MTEXTBEGIN
1070
    73
1070
     1
1070
    44
1040
1.0
1070
    74
1070
     0
1000
MTEXTEND
  0
POINT
  5
4944
330
47D1
100
AcDbEntity
  8
Defpoints
  6
Continuous
 62
     0
100
AcDbPoint
 10
67.21038089305531
 20
211.666717811874
 30
0.0
  0
POINT
  5
4945
330
47D1
100
AcDbEntity
  8
Defpoints
  6
Continuous
 62
     0
100
AcDbPoint
 10
110.4103508930553
 20
211.666717811874
 30
0.0
  0
POINT
  5
4946
330
47D1
100
AcDbEntity
  8
Defpoints
  6
Continuous
 62
     0
100
AcDbPoint
 10
110.4103508930553
 20
251.263093930632
 30
0.0
  0
ENDBLK
  5
47DC
330
47D1
100
AcDbEntity
  8
0
100
AcDbBlockEnd
  0
BLOCK
  5
4806
330
47FC
100
AcDbEntity
  8
0
100
AcDbBlockBegin
  2
*D11
 70
     1
 10
0.0
 20
0.0
 30
0.0
  3
*D11
  1

  0
LINE
  5
4933
330
47FC
100
AcDbEntity
  8
10100_Front_Dim
  6
Continuous
370
    -2
100
AcDbLine
 10
66.35757089305528
 20
228.666517811874
 30
0.0
 11
66.35757089305528
 21
262.0682249568631
 31
0.0
  0
LINE
  5
4934
330
47FC
100
AcDbEntity
  8
10100_Front_Dim
  6
Continuous
370
    -2
100
AcDbLine
 10
111.2575708930553
 20
228.666517811874
 30
0.0
 11
111.2575708930553
 21
262.0682249568631
 31
0.0
  0
LINE
  5
4935
330
47FC
100
AcDbEntity
  8
10100_Front_Dim
  6
Continuous
370
    -2
100
AcDbLine
 10
68.85757089305528
 20
260.0682249568631
 30
0.0
 11
83.64090422638861
 21
260.0682249568631
 31
0.0
  0
LINE
  5
4936
330
47FC
100
AcDbEntity
  8
10100_Front_Dim
  6
Continuous
370
    -2
100
AcDbLine
 10
108.7575708930552
 20
260.0682249568631
 30
0.0
 11
93.97423755972194
 21
260.0682249568631
 31
0.0
  0
SOLID
  5
4937
330
47FC
100
AcDbEntity
  8
10100_Front_Dim
  6
Continuous
100
AcDbTrace
 10
68.85757089305528
 20
260.4848916235298
 30
0.0
 11
68.85757089305528
 21
259.6515582901965
 31
0.0
 12
66.35757089305528
 22
260.0682249568631
 32
0.0
 13
66.35757089305528
 23
260.0682249568631
 33
0.0
  0
SOLID
  5
4938
330
47FC
100
AcDbEntity
  8
10100_Front_Dim
  6
Continuous
100
AcDbTrace
 10
108.7575708930552
 20
260.4848916235298
 30
0.0
 11
108.7575708930552
 21
259.6515582901965
 31
0.0
 12
111.2575708930553
 22
260.0682249568631
 32
0.0
 13
111.2575708930553
 23
260.0682249568631
 33
0.0
  0
MTEXT
  5
4939
330
47FC
100
AcDbEntity
  8
10100_Front_Dim
  6
Continuous
 62
     7
370
    13
100
AcDbMText
 10
88.8075708930553
 20
260.0682249568631
 30
0.0
 40
5.0
 41
0.0
 71
     5
 72
     1
  1
\A1;45
 73
     1
 44
1.0
1001
ACAD
1000
MTEXTBEGIN
1070
    73
1070
     1
1070
    44
1040
1.0
1070
    74
1070
     0
1000
MTEXTEND
  0
POINT
  5
493A
330
47FC
100
AcDbEntity
  8
Defpoints
  6
Continuous
 62
     0
100
AcDbPoint
 10
66.35757089305528
 20
228.666517811874
 30
0.0
  0
POINT
  5
493B
330
47FC
100
AcDbEntity
  8
Defpoints
  6
Continuous
 62
     0
100
AcDbPoint
 10
111.2575708930553
 20
228.666517811874
 30
0.0
  0
POINT
  5
493C
330
47FC
100
AcDbEntity
  8
Defpoints
  6
Continuous
 62
     0
100
AcDbPoint
 10
111.2575708930553
 20
260.0682249568631
 30
0.0
  0
ENDBLK
  5
4807
330
47FC
100
AcDbEntity
  8
0
100
AcDbBlockEnd
  0
ENDSEC
  0
SECTION
  2
ENTITIES
  0
LINE
  5
2BFE
330
1F
100
AcDbEntity
  8
90000_FRAME
  6
Continuous
 62
     7
100
AcDbLine
 10
316.4444837220524
 20
283.6397225845828
 30
0.0
 11
46.44448372205238
 21
283.6397225845828
 31
0.0
  0
INSERT
  5
2BFF
330
1F
100
AcDbEntity
  8
90000_FRAME
  6
Continuous
 62
     7
100
AcDbBlockReference
  2
SIEMENS_OUTLINE_BL0
 10
109.0903811059734
 20
78.3014633569795
 30
0.0
  0
LINE
  5
2C00
330
1F
100
AcDbEntity
  8
90000_FRAME
  6
Continuous
 62
     7
100
AcDbLine
 10
176.4444837220525
 20
88.6397225845828
 30
0.0
 11
311.4444837220524
 21
88.6397225845828
 31
0.0
  0
LINE
  5
2C01
330
1F
100
AcDbEntity
  8
90000_FRAME
  6
Continuous
 62
     7
100
AcDbLine
 10
176.4444837220525
 20
88.6397225845828
 30
0.0
 11
176.4444837220525
 21
106.6397225845828
 31
0.0
  0
LINE
  5
2C02
330
1F
100
AcDbEntity
  8
90000_FRAME
  6
Continuous
 62
     7
100
AcDbLine
 10
226.4444837220524
 20
94.63972258458278
 30
0.0
 11
311.4444837220524
 21
94.63972258458278
 31
0.0
  0
LINE
  5
2C03
330
1F
100
AcDbEntity
  8
90000_FRAME
  6
Continuous
 62
     7
100
AcDbLine
 10
176.4444837220525
 20
106.6397225845828
 30
0.0
 11
311.4444837220524
 21
106.6397225845828
 31
0.0
  0
LINE
  5
2C04
330
1F
100
AcDbEntity
  8
90000_FRAME
  6
Continuous
 62
     7
100
AcDbLine
 10
226.4444837220524
 20
88.6397225845828
 30
0.0
 11
226.4444837220524
 21
106.6397225845828
 31
0.0
  0
LINE
  5
2C05
330
1F
100
AcDbEntity
  8
90000_FRAME
  6
Continuous
 62
     7
100
AcDbLine
 10
268.9444837220526
 20
88.6397225845828
 30
0.0
 11
268.9444837220526
 21
94.63972258458278
 31
0.0
  0
LINE
  5
2C06
330
1F
100
AcDbEntity
  8
90000_FRAME
  6
Continuous
 62
     7
100
AcDbLine
 10
311.4444837220524
 20
88.6397225845828
 30
0.0
 11
311.4444837220524
 21
106.6397225845828
 31
0.0
  0
TEXT
  5
2C07
330
1F
100
AcDbEntity
  8
90000_FRAME
  6
Continuous
 62
     7
100
AcDbText
 10
227.1044837220525
 20
90.53972258458269
 30
0.0
 40
2.2
  1
Format / Size: DIN A4
 41
0.7994987468660258
 72
     5
 11
260.5235313410524
 21
90.53972258458269
 31
0.0
100
AcDbText
  0
TEXT
  5
2C08
330
1F
100
AcDbEntity
  8
90000_FRAME
  6
Continuous
 62
     7
100
AcDbText
 10
269.6044837220525
 20
90.53972258458269
 30
0.0
 40
2.2
  1
Massstab / Scale: 1:1
 41
0.7732634338148415
 72
     5
 11
300.5092456268524
 21
90.53972258458269
 31
0.0
100
AcDbText
  0
TEXT
  5
2C09
330
1F
100
AcDbEntity
  8
90000_FRAME
  6
Continuous
 62
     7
100
AcDbText
 10
239.7504082460032
 20
101.514045083679
 30
0.0
 40
3.5
  1
3RH1921_00001079_000_ALL
 41
0.7488237511497771
 72
     5
 11
295.6625816651865
 21
101.514045083679
 31
0.0
100
AcDbText
  0
TEXT
  5
2C0A
330
1F
100
AcDbEntity
  8
91000_TIP
  6
Continuous
 62
     7
100
AcDbText
 10
51.94479148218397
 20
95.68167073935819
 30
0.0
 40
2.5
  1
Alle Bemassungswerte sind in Millimeter (mm) angegeben.
 41
0.6056311217924572
 72
     5
 11
125.6299113002663
 21
95.68167073935819
 31
0.0
100
AcDbText
  0
TEXT
  5
2C0B
330
1F
100
AcDbEntity
  8
91000_TIP
  6
Continuous
 62
     7
100
AcDbText
 10
51.94479148218397
 20
90.4316707393581
 30
0.0
 40
2.5
  1
All dimensions are in millimeters (mm).
 41
0.7513350295680277
 72
     5
 11
112.0515938476261
 21
90.4316707393581
 31
0.0
100
AcDbText
  0
LINE
  5
2C0C
330
1F
100
AcDbEntity
  8
91000_TIP
  6
Continuous
 62
     7
100
AcDbLine
 10
151.2591538260784
 20
99.9634601069534
 30
0.0
 11
161.2591536218785
 21
102.4634600559534
 31
0.0
  0
LINE
  5
2C0D
330
1F
100
AcDbEntity
  8
91000_TIP
  6
CENTER
 62
     7
100
AcDbLine
 10
149.9796433540775
 20
97.46346015805338
 30
0.0
 11
173.5816326181774
 21
97.46346015805338
 31
0.0
  0
LINE
  5
2C0E
330
1F
100
AcDbEntity
  8
91000_TIP
  6
Continuous
 62
     7
100
AcDbLine
 10
151.2591538260784
 20
94.96346020915341
 30
0.0
 11
161.2591536218785
 21
92.46346026015327
 31
0.0
  0
LINE
  5
2C0F
330
1F
100
AcDbEntity
  8
91000_TIP
  6
Continuous
 62
     7
100
AcDbLine
 10
151.2591538260784
 20
99.9634601069534
 30
0.0
 11
151.2591538260784
 21
94.96346020915341
 31
0.0
  0
LINE
  5
2C10
330
1F
100
AcDbEntity
  8
91000_TIP
  6
Continuous
 62
     7
100
AcDbLine
 10
161.2591536218785
 20
102.4634600559534
 30
0.0
 11
161.2591536218785
 21
92.46346026015327
 31
0.0
  0
LINE
  5
2C11
330
1F
100
AcDbEntity
  8
91000_TIP
  6
CENTER
 62
     7
100
AcDbLine
 10
167.7591534890785
 20
91.74197895165336
 30
0.0
 11
167.7591534890785
 21
103.0253649516534
 31
0.0
  0
CIRCLE
  5
2C12
330
1F
100
AcDbEntity
  8
91000_TIP
  6
Continuous
 62
     7
100
AcDbCircle
 10
167.7591534890785
 20
97.46346015805338
 30
0.0
 40
4.9999998979
  0
CIRCLE
  5
2C13
330
1F
100
AcDbEntity
  8
91000_TIP
  6
Continuous
 62
     7
100
AcDbCircle
 10
167.7591534890785
 20
97.46346015805338
 30
0.0
 40
2.499999948899997
  0
LINE
  5
2C14
330
1F
100
AcDbEntity
  8
90000_FRAME
  6
Continuous
 62
     7
100
AcDbLine
 10
46.44448372205238
 20
83.6397225845828
 30
0.0
 11
46.44448372205238
 21
283.6397225845828
 31
0.0
  0
LINE
  5
2C15
330
1F
100
AcDbEntity
  8
90000_FRAME
  6
Continuous
 62
     7
100
AcDbLine
 10
316.4444837220524
 20
83.6397225845828
 30
0.0
 11
46.44448372205238
 21
83.6397225845828
 31
0.0
  0
LINE
  5
2C16
330
1F
100
AcDbEntity
  8
90000_FRAME
  6
Continuous
 62
     7
100
AcDbLine
 10
316.4444837220524
 20
83.6397225845828
 30
0.0
 11
316.4444837220526
 21
283.6397225845828
 31
0.0
  0
TEXT
  5
32DD
330
1F
100
AcDbEntity
  8
90000_FRAME
  6
Continuous
 62
     7
100
AcDbText
 10
239.7504082460032
 20
95.93736000806606
 30
0.0
 40
3.5
  1
HILFSSCHALTERBLOCK, 4POL
 41
0.6996309499793534
 72
     5
 11
295.6625816651865
 21
95.93736000806606
 31
0.0
100
AcDbText
  0
LINE
  5
3C16
330
1F
100
AcDbEntity
  8
11000_Left
  6
Continuous
 62
     7
 48
10.0
370
    50
100
AcDbLine
 39
0.35
 10
262.170180504443
 20
212.884023844423
 30
0.4
 11
290.5201805044431
 21
212.884023844423
 31
0.4
1001
AUSTER_ANSICHT
1002
{
1000
Det03
1002
}
1001
AUSTER_FOLIE
1002
{
1000
NSB00753_S0
1002
}
  0
DIMENSION
  5
3C1D
330
1F
100
AcDbEntity
  8
10100_Front_Dim
  6
Continuous
 62
     7
370
    13
100
AcDbDimension
  2
*D2
 10
102.8103708930553
 20
244.0505439663962
 30
0.4
 11
88.81037089305531
 21
244.0505439663962
 31
0.4
 70
   160
 71
     5
 42
28.0
  3
H035
100
AcDbAlignedDimension
 13
74.81037089305532
 23
227.734617811874
 33
0.4
 14
102.8103708930553
 24
227.734617811874
 34
0.4
100
AcDbRotatedDimension
1001
AUSTER_FOLIE
1002
{
1000
NSB00753_S0
1002
}
1001
AUSTER_ANSICHT
1002
{
1000
Det03
1002
}
1001
ACAD
1000
DSTYLE
1002
{
1070
   279
1070
     2
1070
   178
1070
     7
1070
    40
1040
1.0
1002
}
  0
DIMENSION
  5
3C1E
330
1F
100
AcDbEntity
  8
10100_Front_Dim
  6
Continuous
 62
     7
370
    13
100
AcDbDimension
  2
*D3
 10
136.0402763460589
 20
150.8664680371528
 30
0.4
 11
136.0402763460589
 21
193.8253125325742
 31
0.4
 70
   160
 71
     5
 42
85.10009954944219
  3
H035
100
AcDbAlignedDimension
 13
107.8136407354816
 23
235.966567586595
 33
0.4
 14
107.8136407354816
 24
150.8664680371528
 34
0.4
 50
90.0
100
AcDbRotatedDimension
1001
AUSTER_FOLIE
1002
{
1000
NSB00753_S0
1002
}
1001
AUSTER_ANSICHT
1002
{
1000
Det03
1002
}
1001
ACAD
1000
DSTYLE
1002
{
1070
    40
1040
1.0
1070
   178
1070
     7
1070
   279
1070
     2
1002
}
  0
DIMENSION
  5
3C22
330
1F
100
AcDbEntity
  8
11100_Left_Dim
  6
Continuous
 62
     7
370
    13
100
AcDbDimension
  2
*D4
 10
163.470280504443
 20
244.671508673722
 30
0.4
 11
146.7035138377859
 21
244.671508673722
 31
0.4
 70
   160
 71
     5
 42
5.100099999990447
  3
H035
100
AcDbAlignedDimension
 13
158.3701805044525
 23
227.0729335252589
 33
0.4
 14
163.470280504443
 24
214.8338438444229
 34
0.4
100
AcDbRotatedDimension
1001
AUSTER_FOLIE
1002
{
1000
NSB00753_S0
1002
}
1001
AUSTER_ANSICHT
1002
{
1000
Det03
1002
}
1001
ACAD
1000
DSTYLE
1002
{
1070
    40
1040
1.0
1070
   178
1070
     7
1070
   279
1070
     2
1002
}
  0
DIMENSION
  5
3C23
330
1F
100
AcDbEntity
  8
11100_Left_Dim
  6
Continuous
 62
     7
370
    13
100
AcDbDimension
  2
*D5
 10
225.470180504443
 20
244.671508673722
 30
0.4
 11
194.4702305044429
 21
244.671508673722
 31
0.4
 70
   160
 71
     5
 42
61.99989999999997
  3
H035
100
AcDbAlignedDimension
 13
163.470280504443
 23
214.8338438444229
 33
0.4
 14
225.470180504443
 24
229.884023844423
 34
0.4
100
AcDbRotatedDimension
1001
AUSTER_FOLIE
1002
{
1000
NSB00753_S0
1002
}
1001
AUSTER_ANSICHT
1002
{
1000
Det03
1002
}
1001
ACAD
1000
DSTYLE
1002
{
1070
    40
1040
1.0
1070
   178
1070
     7
1070
   279
1070
     2
1002
}
  0
DIMENSION
  5
3C24
330
1F
100
AcDbEntity
  8
11000_Left
  6
DASHED
 62
     7
 48
10.0
370
     9
100
AcDbDimension
  2
*D6
 10
249.170180504443
 20
252.1367172345302
 30
0.4
 11
206.320230504443
 21
252.1367172345302
 31
0.4
 70
    32
 71
     5
 42
85.69990000000002
  3
H035
100
AcDbAlignedDimension
 13
163.470280504443
 23
214.8338438444229
 33
0.4
 14
249.170180504443
 24
213.3840238444228
 34
0.4
100
AcDbRotatedDimension
1001
AUSTER_FOLIE
1002
{
1000
NSB00753_S0
1002
}
1001
AUSTER_ANSICHT
1002
{
1000
Det03
1002
}
1001
ACAD
1000
DSTYLE
1002
{
1070
    77
1070
     0
1070
    40
1040
1.0
1070
   178
1070
     7
1070
   279
1070
     2
1002
}
  0
LINE
  5
3C25
330
1F
100
AcDbEntity
  8
11000_Left
  6
Continuous
 62
     7
 48
10.0
370
    13
100
AcDbLine
 39
0.35
 10
298.070180504443
 20
195.384023844423
 30
0.4
 11
298.070180504443
 21
192.384023844423
 31
0.4
1001
AUSTER_ANSICHT
1002
{
1000
Det03
1002
}
1001
AUSTER_FOLIE
1002
{
1000
NSB00753_S0
1002
}
  0
DIMENSION
  5
3C26
330
1F
100
AcDbEntity
  8
11100_Left_Dim
  6
Continuous
 62
     7
370
    13
100
AcDbDimension
  2
*D7
 10
298.070180504443
 20
259.8685389382902
 30
0.4
 11
230.770230504443
 21
259.8685389382902
 31
0.4
 70
   160
 71
     5
 42
134.5999
  3
H035
100
AcDbAlignedDimension
 13
163.470280504443
 23
214.8338438444229
 33
0.4
 14
298.070180504443
 24
195.384023844423
 34
0.4
100
AcDbRotatedDimension
1001
AUSTER_FOLIE
1002
{
1000
NSB00753_S0
1002
}
1001
AUSTER_ANSICHT
1002
{
1000
Det03
1002
}
1001
ACAD
1000
DSTYLE
1002
{
1070
   178
1070
     7
1070
   279
1070
     2
1070
   271
1070
     0
1070
    40
1040
1.0
1002
}
  0
LINE
  5
3C3B
330
1F
100
AcDbEntity
  8
10000_Front
  6
DASHED
 62
     7
 48
10.0
370
     9
100
AcDbLine
 39
0.35
 10
106.8575708910286
 20
235.9665628309236
 30
0.4
 11
107.8136407354816
 21
235.966567586595
 31
0.4
1001
AUSTER_ANSICHT
1002
{
1000
Det03
1002
}
1001
AUSTER_FOLIE
1002
{
1000
NSB00753_S0
1002
}
  0
LINE
  5
3C3C
330
1F
100
AcDbEntity
  8
10000_Front
  6
DASHED
 62
     7
 48
10.0
370
     9
100
AcDbLine
 39
0.35
 10
79.81373027736562
 20
233.4663402946968
 30
0.4
 11
97.80703917526551
 21
233.466517811874
 31
0.4
1001
AUSTER_ANSICHT
1002
{
1000
Det03
1002
}
1001
AUSTER_FOLIE
1002
{
1000
NSB00753_S0
1002
}
  0
LINE
  5
3C3D
330
1F
100
AcDbEntity
  8
10000_Front
  6
DASHED
 62
     7
 48
10.0
370
     9
100
AcDbLine
 39
0.35
 10
107.8137302710081
 20
233.466517811874
 30
0.4
 11
97.80703917526551
 21
233.466517811874
 31
0.4
1001
AUSTER_ANSICHT
1002
{
1000
Det03
1002
}
1001
AUSTER_FOLIE
1002
{
1000
NSB00753_S0
1002
}
  0
LINE
  5
3C3E
330
1F
100
AcDbEntity
  8
10000_Front
  6
DASHED
 62
     7
 48
10.0
370
     9
100
AcDbLine
 39
0.35
 10
97.80703917526558
 20
150.8665178118739
 30
0.4
 11
107.8136407354816
 21
150.8664680371528
 31
0.4
1001
AUSTER_ANSICHT
1002
{
1000
Det03
1002
}
1001
AUSTER_FOLIE
1002
{
1000
NSB00753_S0
1002
}
  0
LINE
  5
3C3F
330
1F
100
AcDbEntity
  8
10000_Front
  6
DASHED
 62
     7
 48
10.0
370
     9
100
AcDbLine
 39
0.35
 10
79.81364073548165
 20
150.8664680371528
 30
0.4
 11
69.85757089305538
 21
150.8665178118738
 31
0.4
1001
AUSTER_ANSICHT
1002
{
1000
Det03
1002
}
1001
AUSTER_FOLIE
1002
{
1000
NSB00753_S0
1002
}
  0
LINE
  5
3C40
330
1F
100
AcDbEntity
  8
10000_Front
  6
DASHED
 62
     7
 48
10.0
370
     9
100
AcDbLine
 39
0.35
 10
107.8137302710082
 20
153.3665178118739
 30
0.4
 11
107.8136407354816
 21
150.8664680371528
 31
0.4
1001
AUSTER_ANSICHT
1002
{
1000
Det03
1002
}
1001
AUSTER_FOLIE
1002
{
1000
NSB00753_S0
1002
}
  0
LINE
  5
3C41
330
1F
100
AcDbEntity
  8
10000_Front
  6
DASHED
 62
     7
 48
10.0
370
     9
100
AcDbLine
 39
0.35
 10
97.80703917526558
 20
153.3665178118739
 30
0.4
 11
97.80703917526558
 21
150.8665178118739
 31
0.4
1001
AUSTER_ANSICHT
1002
{
1000
Det03
1002
}
1001
AUSTER_FOLIE
1002
{
1000
NSB00753_S0
1002
}
  0
LINE
  5
3C42
330
1F
100
AcDbEntity
  8
10000_Front
  6
DASHED
 62
     7
 48
10.0
370
     9
100
AcDbLine
 39
0.35
 10
79.81373027100817
 20
153.3665178118739
 30
0.4
 11
79.81364073548165
 21
150.8664680371528
 31
0.4
1001
AUSTER_ANSICHT
1002
{
1000
Det03
1002
}
1001
AUSTER_FOLIE
1002
{
1000
NSB00753_S0
1002
}
  0
LINE
  5
3C43
330
1F
100
AcDbEntity
  8
10000_Front
  6
DASHED
 62
     7
 48
10.0
370
     9
100
AcDbLine
 39
0.35
 10
69.80703917526557
 20
153.3665178118738
 30
0.4
 11
69.80703917526557
 21
150.8665178118738
 31
0.4
1001
AUSTER_ANSICHT
1002
{
1000
Det03
1002
}
1001
AUSTER_FOLIE
1002
{
1000
NSB00753_S0
1002
}
  0
LINE
  5
3C44
330
1F
100
AcDbEntity
  8
10000_Front
  6
DASHED
 62
     7
 48
10.0
370
     9
100
AcDbLine
 39
0.35
 10
79.8136407354816
 20
235.966567586595
 30
0.4
 11
69.85757089305533
 21
235.966517811874
 31
0.4
1001
AUSTER_ANSICHT
1002
{
1000
Det03
1002
}
1001
AUSTER_FOLIE
1002
{
1000
NSB00753_S0
1002
}
  0
LINE
  5
3C45
330
1F
100
AcDbEntity
  8
10000_Front
  6
DASHED
 62
     7
 48
10.0
370
     9
100
AcDbLine
 39
0.35
 10
97.80703917526551
 20
235.966517811874
 30
0.4
 11
106.8575708930553
 21
235.966517811874
 31
0.4
1001
AUSTER_ANSICHT
1002
{
1000
Det03
1002
}
1001
AUSTER_FOLIE
1002
{
1000
NSB00753_S0
1002
}
  0
LINE
  5
3C46
330
1F
100
AcDbEntity
  8
10000_Front
  6
DASHED
 62
     7
 48
10.0
370
     9
100
AcDbLine
 39
0.35
 10
69.80703917526553
 20
233.466517811874
 30
0.4
 11
69.80703917526553
 21
235.966517811874
 31
0.4
1001
AUSTER_ANSICHT
1002
{
1000
Det03
1002
}
1001
AUSTER_FOLIE
1002
{
1000
NSB00753_S0
1002
}
  0
LINE
  5
3C47
330
1F
100
AcDbEntity
  8
10000_Front
  6
DASHED
 62
     7
 48
10.0
370
     9
100
AcDbLine
 39
0.35
 10
79.81373027100811
 20
233.466517811874
 30
0.4
 11
79.8136407354816
 21
235.966567586595
 31
0.4
1001
AUSTER_ANSICHT
1002
{
1000
Det03
1002
}
1001
AUSTER_FOLIE
1002
{
1000
NSB00753_S0
1002
}
  0
LINE
  5
3C48
330
1F
100
AcDbEntity
  8
10000_Front
  6
DASHED
 62
     7
 48
10.0
370
     9
100
AcDbLine
 39
0.35
 10
107.8137302710081
 20
233.466517811874
 30
0.4
 11
107.8136407354816
 21
235.966567586595
 31
0.4
1001
AUSTER_ANSICHT
1002
{
1000
Det03
1002
}
1001
AUSTER_FOLIE
1002
{
1000
NSB00753_S0
1002
}
  0
LINE
  5
3C49
330
1F
100
AcDbEntity
  8
10000_Front
  6
DASHED
 62
     7
 48
10.0
370
     9
100
AcDbLine
 39
0.35
 10
97.80703917526551
 20
233.466517811874
 30
0.4
 11
97.80703917526551
 21
235.966517811874
 31
0.4
1001
AUSTER_ANSICHT
1002
{
1000
Det03
1002
}
1001
AUSTER_FOLIE
1002
{
1000
NSB00753_S0
1002
}
  0
LINE
  5
3C4A
330
1F
100
AcDbEntity
  8
10000_Front
  6
DASHED
 62
     7
 48
10.0
370
     9
100
AcDbLine
 39
0.35
 10
68.80757089305529
 20
153.7665178118739
 30
0.4
 11
68.80757089305531
 21
157.466517811874
 31
0.4
1001
AUSTER_ANSICHT
1002
{
1000
Det03
1002
}
1001
AUSTER_FOLIE
1002
{
1000
NSB00753_S0
1002
}
  0
ARC
  5
3C4B
330
1F
100
AcDbEntity
  8
10000_Front
  6
DASHED
 62
     7
 48
10.0
370
     9
100
AcDbCircle
 39
0.35
 10
69.1075708930553
 20
153.7665178118739
 30
0.4
 40
0.3000000000000078
100
AcDbArc
 50
180.0
 51
270.0
1001
AUSTER_ANSICHT
1002
{
1000
Det03
1002
}
1001
AUSTER_FOLIE
1002
{
1000
NSB00753_S0
1002
}
  0
LINE
  5
3C4C
330
1F
100
AcDbEntity
  8
10000_Front
  6
DASHED
 62
     7
 48
10.0
370
     9
100
AcDbLine
 39
0.35
 10
108.5075708930553
 20
153.4665178118739
 30
0.4
 11
69.1075708930553
 21
153.466517811874
 31
0.4
1001
AUSTER_ANSICHT
1002
{
1000
Det03
1002
}
1001
AUSTER_FOLIE
1002
{
1000
NSB00753_S0
1002
}
  0
ARC
  5
3C4D
330
1F
100
AcDbEntity
  8
10000_Front
  6
DASHED
 62
     7
 48
10.0
370
     9
100
AcDbCircle
 39
0.35
 10
108.5075708930553
 20
153.7665178118739
 30
0.4
 40
0.3000000000000114
100
AcDbArc
 50
270.0
 51
0.0
1001
AUSTER_ANSICHT
1002
{
1000
Det03
1002
}
1001
AUSTER_FOLIE
1002
{
1000
NSB00753_S0
1002
}
  0
LINE
  5
3C4E
330
1F
100
AcDbEntity
  8
10000_Front
  6
DASHED
 62
     7
 48
10.0
370
     9
100
AcDbLine
 39
0.35
 10
108.8099708930553
 20
157.466517811874
 30
0.4
 11
108.8075708930553
 21
153.7665178118739
 31
0.4
1001
AUSTER_ANSICHT
1002
{
1000
Det03
1002
}
1001
AUSTER_FOLIE
1002
{
1000
NSB00753_S0
1002
}
  0
LINE
  5
3C4F
330
1F
100
AcDbEntity
  8
10000_Front
  6
DASHED
 62
     7
 48
10.0
370
     9
100
AcDbLine
 39
0.35
 10
110.4575708930553
 20
157.4665178118739
 30
0.4
 11
108.8099708930553
 21
157.466517811874
 31
0.4
1001
AUSTER_ANSICHT
1002
{
1000
Det03
1002
}
1001
AUSTER_FOLIE
1002
{
1000
NSB00753_S0
1002
}
  0
ARC
  5
3C50
330
1F
100
AcDbEntity
  8
10000_Front
  6
DASHED
 62
     7
 48
10.0
370
     9
100
AcDbCircle
 39
0.35
 10
110.4575708930553
 20
158.2665178118739
 30
0.4
 40
0.8000000000000111
100
AcDbArc
 50
270.0000000000017
 51
0.0
1001
AUSTER_ANSICHT
1002
{
1000
Det03
1002
}
1001
AUSTER_FOLIE
1002
{
1000
NSB00753_S0
1002
}
  0
LINE
  5
3C51
330
1F
100
AcDbEntity
  8
10000_Front
  6
DASHED
 62
     7
 48
10.0
370
     9
100
AcDbLine
 39
0.35
 10
111.2575708930553
 20
228.666517811874
 30
0.4
 11
111.2575708930553
 21
158.2665178118739
 31
0.4
1001
AUSTER_ANSICHT
1002
{
1000
Det03
1002
}
1001
AUSTER_FOLIE
1002
{
1000
NSB00753_S0
1002
}
  0
ARC
  5
3C52
102
{ACAD_REACTORS
330
4812
102
}
330
1F
100
AcDbEntity
  8
10000_Front
  6
DASHED
 62
     7
 48
10.0
370
     9
100
AcDbCircle
 39
0.35
 10
110.4575708930553
 20
228.666517811874
 30
0.4
 40
0.7999999999999829
100
AcDbArc
 50
0.0
 51
89.99999999999756
1001
AUSTER_ANSICHT
1002
{
1000
Det03
1002
}
1001
AUSTER_FOLIE
1002
{
1000
NSB00753_S0
1002
}
  0
LINE
  5
3C53
330
1F
100
AcDbEntity
  8
10000_Front
  6
DASHED
 62
     7
 48
10.0
370
     9
100
AcDbLine
 39
0.35
 10
108.8099708930553
 20
229.466517811874
 30
0.4
 11
110.4575708930553
 21
229.466517811874
 31
0.4
1001
AUSTER_ANSICHT
1002
{
1000
Det03
1002
}
1001
AUSTER_FOLIE
1002
{
1000
NSB00753_S0
1002
}
  0
LINE
  5
3C54
330
1F
100
AcDbEntity
  8
10000_Front
  6
DASHED
 62
     7
 48
10.0
370
     9
100
AcDbLine
 39
0.35
 10
108.8075708930553
 20
233.166517811874
 30
0.4
 11
108.8099708930553
 21
229.466517811874
 31
0.4
1001
AUSTER_ANSICHT
1002
{
1000
Det03
1002
}
1001
AUSTER_FOLIE
1002
{
1000
NSB00753_S0
1002
}
  0
ARC
  5
3C55
330
1F
100
AcDbEntity
  8
10000_Front
  6
DASHED
 62
     7
 48
10.0
370
     9
100
AcDbCircle
 39
0.35
 10
108.5075708930553
 20
233.1665178118739
 30
0.4
 40
0.3000000000000114
100
AcDbArc
 50
0.0000000000032569
 51
90.0
1001
AUSTER_ANSICHT
1002
{
1000
Det03
1002
}
1001
AUSTER_FOLIE
1002
{
1000
NSB00753_S0
1002
}
  0
LINE
  5
3C56
330
1F
100
AcDbEntity
  8
10000_Front
  6
DASHED
 62
     7
 48
10.0
370
     9
100
AcDbLine
 39
0.35
 10
107.8137302697817
 20
233.4665520552854
 30
0.4
 11
108.5075708930553
 21
233.466517811874
 31
0.4
1001
AUSTER_ANSICHT
1002
{
1000
Det03
1002
}
1001
AUSTER_FOLIE
1002
{
1000
NSB00753_S0
1002
}
  0
LINE
  5
3C5A
330
1F
100
AcDbEntity
  8
10000_Front
  6
DASHED
 62
     7
 48
10.0
370
     9
100
AcDbLine
 39
0.35
 10
69.1075708930553
 20
233.466517811874
 30
0.4
 11
69.85757089305528
 21
233.466517811874
 31
0.4
1001
AUSTER_ANSICHT
1002
{
1000
Det03
1002
}
1001
AUSTER_FOLIE
1002
{
1000
NSB00753_S0
1002
}
  0
ARC
  5
3C5B
330
1F
100
AcDbEntity
  8
10000_Front
  6
DASHED
 62
     7
 48
10.0
370
     9
100
AcDbCircle
 39
0.35
 10
69.10757089305525
 20
233.166517811874
 30
0.4
 40
0.2999999999999829
100
AcDbArc
 50
89.99999999999429
 51
180.0
1001
AUSTER_ANSICHT
1002
{
1000
Det03
1002
}
1001
AUSTER_FOLIE
1002
{
1000
NSB00753_S0
1002
}
  0
LINE
  5
3C5C
330
1F
100
AcDbEntity
  8
10000_Front
  6
DASHED
 62
     7
 48
10.0
370
     9
100
AcDbLine
 39
0.35
 10
68.80517089305532
 20
229.466517811874
 30
0.4
 11
68.80757089305529
 21
233.166517811874
 31
0.4
1001
AUSTER_ANSICHT
1002
{
1000
Det03
1002
}
1001
AUSTER_FOLIE
1002
{
1000
NSB00753_S0
1002
}
  0
LINE
  5
3C5D
330
1F
100
AcDbEntity
  8
10000_Front
  6
DASHED
 62
     7
 48
10.0
370
     9
100
AcDbLine
 39
0.35
 10
67.1575708930553
 20
229.466517811874
 30
0.4
 11
68.80517089305532
 21
229.466517811874
 31
0.4
1001
AUSTER_ANSICHT
1002
{
1000
Det03
1002
}
1001
AUSTER_FOLIE
1002
{
1000
NSB00753_S0
1002
}
  0
ARC
  5
3C5E
330
1F
100
AcDbEntity
  8
10000_Front
  6
DASHED
 62
     7
 48
10.0
370
     9
100
AcDbCircle
 39
0.35
 10
67.15757089305528
 20
228.666517811874
 30
0.4
 40
0.7999999999999829
100
AcDbArc
 50
89.99999999999756
 51
180.0
1001
AUSTER_ANSICHT
1002
{
1000
Det03
1002
}
1001
AUSTER_FOLIE
1002
{
1000
NSB00753_S0
1002
}
  0
LINE
  5
3C5F
102
{ACAD_REACTORS
330
4812
102
}
330
1F
100
AcDbEntity
  8
10000_Front
  6
DASHED
 62
     7
 48
10.0
370
     9
100
AcDbLine
 39
0.35
 10
66.35757089305528
 20
225.466517811874
 30
0.4
 11
66.35757089305528
 21
228.666517811874
 31
0.4
1001
AUSTER_ANSICHT
1002
{
1000
Det03
1002
}
1001
AUSTER_FOLIE
1002
{
1000
NSB00753_S0
1002
}
  0
LINE
  5
3C60
330
1F
100
AcDbEntity
  8
10000_Front
  6
DASHED
 62
     7
 48
10.0
370
     9
100
AcDbLine
 39
0.35
 10
66.35757089305528
 20
212.966517811874
 30
0.4
 11
66.35757089305528
 21
225.466517811874
 31
0.4
1001
AUSTER_ANSICHT
1002
{
1000
Det03
1002
}
1001
AUSTER_FOLIE
1002
{
1000
NSB00753_S0
1002
}
  0
LINE
  5
3C61
330
1F
100
AcDbEntity
  8
10000_Front
  6
DASHED
 62
     7
 48
10.0
370
     9
100
AcDbLine
 39
0.35
 10
66.35757089305528
 20
173.9665178118739
 30
0.4
 11
66.35757089305528
 21
212.966517811874
 31
0.4
1001
AUSTER_ANSICHT
1002
{
1000
Det03
1002
}
1001
AUSTER_FOLIE
1002
{
1000
NSB00753_S0
1002
}
  0
LINE
  5
3C62
330
1F
100
AcDbEntity
  8
10000_Front
  6
DASHED
 62
     7
 48
10.0
370
     9
100
AcDbLine
 39
0.35
 10
66.35757089305528
 20
161.4665178118739
 30
0.4
 11
66.35757089305528
 21
173.9665178118739
 31
0.4
1001
AUSTER_ANSICHT
1002
{
1000
Det03
1002
}
1001
AUSTER_FOLIE
1002
{
1000
NSB00753_S0
1002
}
  0
LINE
  5
3C63
330
1F
100
AcDbEntity
  8
10000_Front
  6
DASHED
 62
     7
 48
10.0
370
     9
100
AcDbLine
 39
0.35
 10
66.35757089305528
 20
158.2665178118739
 30
0.4
 11
66.35757089305528
 21
161.4665178118739
 31
0.4
1001
AUSTER_ANSICHT
1002
{
1000
Det03
1002
}
1001
AUSTER_FOLIE
1002
{
1000
NSB00753_S0
1002
}
  0
ARC
  5
3C64
330
1F
100
AcDbEntity
  8
10000_Front
  6
DASHED
 62
     7
 48
10.0
370
     9
100
AcDbCircle
 39
0.35
 10
67.1575708930553
 20
158.2665178118739
 30
0.4
 40
0.8000000000000078
100
AcDbArc
 50
180.0
 51
270.0
1001
AUSTER_ANSICHT
1002
{
1000
Det03
1002
}
1001
AUSTER_FOLIE
1002
{
1000
NSB00753_S0
1002
}
  0
LINE
  5
3C65
330
1F
100
AcDbEntity
  8
10000_Front
  6
DASHED
 62
     7
 48
10.0
370
     9
100
AcDbLine
 39
0.35
 10
68.80517089305532
 20
157.466517811874
 30
0.4
 11
67.1575708930553
 21
157.466517811874
 31
0.4
1001
AUSTER_ANSICHT
1002
{
1000
Det03
1002
}
1001
AUSTER_FOLIE
1002
{
1000
NSB00753_S0
1002
}
  0
LINE
  5
3C66
330
1F
100
AcDbEntity
  8
11000_Left
  6
DASHED
 62
     7
 48
10.0
370
     9
100
AcDbLine
 39
0.35
 10
201.370180504443
 20
167.081653844423
 30
0.4
 11
204.370180504443
 21
167.081653844423
 31
0.4
1001
AUSTER_ANSICHT
1002
{
1000
Det03
1002
}
1001
AUSTER_FOLIE
1002
{
1000
NSB00753_S0
1002
}
  0
LINE
  5
3C67
330
1F
100
AcDbEntity
  8
11000_Left
  6
DASHED
 62
     7
 48
10.0
370
     9
100
AcDbLine
 39
0.35
 10
201.370180504443
 20
167.081653844423
 30
0.4
 11
201.370180504443
 21
151.3840238444229
 31
0.4
1001
AUSTER_ANSICHT
1002
{
1000
Det03
1002
}
1001
AUSTER_FOLIE
1002
{
1000
NSB00753_S0
1002
}
  0
LINE
  5
3C68
330
1F
100
AcDbEntity
  8
11000_Left
  6
DASHED
 62
     7
 48
10.0
370
     9
100
AcDbLine
 39
0.35
 10
204.370180504443
 20
167.081653844423
 30
0.4
 11
204.370180504443
 21
151.3840238444229
 31
0.4
1001
AUSTER_ANSICHT
1002
{
1000
Det03
1002
}
1001
AUSTER_FOLIE
1002
{
1000
NSB00753_S0
1002
}
  0
LINE
  5
3C69
330
1F
100
AcDbEntity
  8
11000_Left
  6
DASHED
 62
     7
 48
10.0
370
     9
100
AcDbLine
 39
0.35
 10
199.370180504443
 20
151.3840238444229
 30
0.4
 11
206.370180504443
 21
151.3840238444229
 31
0.4
1001
AUSTER_ANSICHT
1002
{
1000
Det03
1002
}
1001
AUSTER_FOLIE
1002
{
1000
NSB00753_S0
1002
}
  0
LINE
  5
3C6A
330
1F
100
AcDbEntity
  8
11000_Left
  6
DASHED
 62
     7
 48
10.0
370
     9
100
AcDbLine
 39
0.35
 10
199.370180504443
 20
153.884023844423
 30
0.4
 11
199.370180504443
 21
151.3840238444229
 31
0.4
1001
AUSTER_ANSICHT
1002
{
1000
Det03
1002
}
1001
AUSTER_FOLIE
1002
{
1000
NSB00753_S0
1002
}
  0
LINE
  5
3C6B
330
1F
100
AcDbEntity
  8
11000_Left
  6
DASHED
 62
     7
 48
10.0
370
     9
100
AcDbLine
 39
0.35
 10
206.370180504443
 20
153.884023844423
 30
0.4
 11
206.370180504443
 21
151.3840238444229
 31
0.4
1001
AUSTER_ANSICHT
1002
{
1000
Det03
1002
}
1001
AUSTER_FOLIE
1002
{
1000
NSB00753_S0
1002
}
  0
LINE
  5
3C6C
330
1F
100
AcDbEntity
  8
11000_Left
  6
DASHED
 62
     7
 48
10.0
370
     9
100
AcDbLine
 39
0.35
 10
199.370180504443
 20
236.384023844423
 30
0.4
 11
206.370180504443
 21
236.3840238444229
 31
0.4
1001
AUSTER_ANSICHT
1002
{
1000
Det03
1002
}
1001
AUSTER_FOLIE
1002
{
1000
NSB00753_S0
1002
}
  0
LINE
  5
3C6D
330
1F
100
AcDbEntity
  8
11000_Left
  6
DASHED
 62
     7
 48
10.0
370
     9
100
AcDbLine
 39
0.35
 10
206.370180504443
 20
233.8840238444229
 30
0.4
 11
206.370180504443
 21
236.3840238444229
 31
0.4
1001
AUSTER_ANSICHT
1002
{
1000
Det03
1002
}
1001
AUSTER_FOLIE
1002
{
1000
NSB00753_S0
1002
}
  0
LINE
  5
3C6E
330
1F
100
AcDbEntity
  8
11000_Left
  6
DASHED
 62
     7
 48
10.0
370
     9
100
AcDbLine
 39
0.35
 10
199.370180504443
 20
233.884023844423
 30
0.4
 11
199.370180504443
 21
236.384023844423
 31
0.4
1001
AUSTER_ANSICHT
1002
{
1000
Det03
1002
}
1001
AUSTER_FOLIE
1002
{
1000
NSB00753_S0
1002
}
  0
LINE
  5
3C6F
330
1F
100
AcDbEntity
  8
11000_Left
  6
DASHED
 62
     7
 48
10.0
370
     9
100
AcDbLine
 39
0.35
 10
204.370180504443
 20
220.686393844423
 30
0.4
 11
204.370180504443
 21
236.3840238444229
 31
0.4
1001
AUSTER_ANSICHT
1002
{
1000
Det03
1002
}
1001
AUSTER_FOLIE
1002
{
1000
NSB00753_S0
1002
}
  0
LINE
  5
3C70
330
1F
100
AcDbEntity
  8
11000_Left
  6
DASHED
 62
     7
 48
10.0
370
     9
100
AcDbLine
 39
0.35
 10
201.370180504443
 20
220.686393844423
 30
0.4
 11
204.370180504443
 21
220.686393844423
 31
0.4
1001
AUSTER_ANSICHT
1002
{
1000
Det03
1002
}
1001
AUSTER_FOLIE
1002
{
1000
NSB00753_S0
1002
}
  0
LINE
  5
3C71
330
1F
100
AcDbEntity
  8
11000_Left
  6
DASHED
 62
     7
 48
10.0
370
     9
100
AcDbLine
 39
0.35
 10
201.370180504443
 20
220.686393844423
 30
0.4
 11
201.370180504443
 21
236.384023844423
 31
0.4
1001
AUSTER_ANSICHT
1002
{
1000
Det03
1002
}
1001
AUSTER_FOLIE
1002
{
1000
NSB00753_S0
1002
}
  0
ARC
  5
3C72
330
1F
100
AcDbEntity
  8
11000_Left
  6
DASHED
 62
     7
 48
10.0
370
     9
100
AcDbCircle
 39
0.35
 10
158.670180504443
 20
220.684223844423
 30
0.4
 40
0.30019759999999
100
AcDbArc
 50
179.9999999999966
 51
269.9999999999943
1001
AUSTER_ANSICHT
1002
{
1000
Det03
1002
}
1001
AUSTER_FOLIE
1002
{
1000
NSB00753_S0
1002
}
  0
LINE
  5
3C73
330
1F
100
AcDbEntity
  8
11000_Left
  6
DASHED
 62
     7
 48
10.0
370
     9
100
AcDbLine
 39
0.35
 10
159.170180504443
 20
220.384023844423
 30
0.4
 11
158.670180504443
 21
220.3840262444229
 31
0.4
1001
AUSTER_ANSICHT
1002
{
1000
Det03
1002
}
1001
AUSTER_FOLIE
1002
{
1000
NSB00753_S0
1002
}
  0
LINE
  5
3C74
330
1F
100
AcDbEntity
  8
11000_Left
  6
DASHED
 62
     7
 48
10.0
370
     9
100
AcDbLine
 39
0.35
 10
159.170180504443
 20
214.834023844423
 30
0.4
 11
159.170180504443
 21
220.384023844423
 31
0.4
1001
AUSTER_ANSICHT
1002
{
1000
Det03
1002
}
1001
AUSTER_FOLIE
1002
{
1000
NSB00753_S0
1002
}
  0
LINE
  5
3C75
330
1F
100
AcDbEntity
  8
11000_Left
  6
DASHED
 62
     7
 48
10.0
370
     9
100
AcDbLine
 39
0.35
 10
159.470180504443
 20
214.834023844423
 30
0.4
 11
159.170180504443
 21
214.834023844423
 31
0.4
1001
AUSTER_ANSICHT
1002
{
1000
Det03
1002
}
1001
AUSTER_FOLIE
1002
{
1000
NSB00753_S0
1002
}
  0
LINE
  5
3C76
330
1F
100
AcDbEntity
  8
11000_Left
  6
DASHED
 62
     7
 48
10.0
370
     9
100
AcDbLine
 39
0.35
 10
160.870180504443
 20
209.834023844423
 30
0.4
 11
159.470180504443
 21
214.834023844423
 31
0.4
1001
AUSTER_ANSICHT
1002
{
1000
Det03
1002
}
1001
AUSTER_FOLIE
1002
{
1000
NSB00753_S0
1002
}
  0
LINE
  5
3C77
330
1F
100
AcDbEntity
  8
11000_Left
  6
DASHED
 62
     7
 48
10.0
370
     9
100
AcDbLine
 39
0.35
 10
161.770180504443
 20
209.834023844423
 30
0.4
 11
160.870180504443
 21
209.834023844423
 31
0.4
1001
AUSTER_ANSICHT
1002
{
1000
Det03
1002
}
1001
AUSTER_FOLIE
1002
{
1000
NSB00753_S0
1002
}
  0
LINE
  5
3C78
330
1F
100
AcDbEntity
  8
11000_Left
  6
DASHED
 62
     7
 48
10.0
370
     9
100
AcDbLine
 39
0.35
 10
162.2701805044429
 20
210.5483138444229
 30
0.4
 11
161.770180504443
 21
209.834023844423
 31
0.4
1001
AUSTER_ANSICHT
1002
{
1000
Det03
1002
}
1001
AUSTER_FOLIE
1002
{
1000
NSB00753_S0
1002
}
  0
LINE
  5
3C79
330
1F
100
AcDbEntity
  8
11000_Left
  6
DASHED
 62
     7
 48
10.0
370
     9
100
AcDbLine
 39
0.35
 10
162.2701805044429
 20
214.834023844423
 30
0.4
 11
162.2701805044429
 21
210.5483138444229
 31
0.4
1001
AUSTER_ANSICHT
1002
{
1000
Det03
1002
}
1001
AUSTER_FOLIE
1002
{
1000
NSB00753_S0
1002
}
  0
LINE
  5
3C7A
330
1F
100
AcDbEntity
  8
11000_Left
  6
DASHED
 62
     7
 48
10.0
370
     9
100
AcDbLine
 39
0.35
 10
163.4701805044429
 20
214.834023844423
 30
0.4
 11
162.2701805044429
 21
214.834023844423
 31
0.4
1001
AUSTER_ANSICHT
1002
{
1000
Det03
1002
}
1001
AUSTER_FOLIE
1002
{
1000
NSB00753_S0
1002
}
  0
LINE
  5
3C7B
330
1F
100
AcDbEntity
  8
11000_Left
  6
DASHED
 62
     7
 48
10.0
370
     9
100
AcDbLine
 39
0.35
 10
163.470180504443
 20
174.3340238444229
 30
0.4
 11
163.4701805044429
 21
214.834023844423
 31
0.4
1001
AUSTER_ANSICHT
1002
{
1000
Det03
1002
}
1001
AUSTER_FOLIE
1002
{
1000
NSB00753_S0
1002
}
  0
LINE
  5
3C7C
330
1F
100
AcDbEntity
  8
11000_Left
  6
DASHED
 62
     7
 48
10.0
370
     9
100
AcDbLine
 39
0.35
 10
162.370180504443
 20
176.3340238444229
 30
0.4
 11
163.4701805044429
 21
176.3340238444229
 31
0.4
1001
AUSTER_ANSICHT
1002
{
1000
Det03
1002
}
1001
AUSTER_FOLIE
1002
{
1000
NSB00753_S0
1002
}
  0
LINE
  5
3C7D
330
1F
100
AcDbEntity
  8
11000_Left
  6
DASHED
 62
     7
 48
10.0
370
     9
100
AcDbLine
 39
0.35
 10
162.102280504443
 20
177.3340238444229
 30
0.4
 11
162.370180504443
 21
176.3340238444229
 31
0.4
1001
AUSTER_ANSICHT
1002
{
1000
Det03
1002
}
1001
AUSTER_FOLIE
1002
{
1000
NSB00753_S0
1002
}
  0
LINE
  5
3C7E
330
1F
100
AcDbEntity
  8
11000_Left
  6
DASHED
 62
     7
 48
10.0
370
     9
100
AcDbLine
 39
0.35
 10
161.602280504443
 20
177.3340238444229
 30
0.4
 11
162.102280504443
 21
177.3340238444229
 31
0.4
1001
AUSTER_ANSICHT
1002
{
1000
Det03
1002
}
1001
AUSTER_FOLIE
1002
{
1000
NSB00753_S0
1002
}
  0
LINE
  5
3C7F
330
1F
100
AcDbEntity
  8
11000_Left
  6
DASHED
 62
     7
 48
10.0
370
     9
100
AcDbLine
 39
0.35
 10
159.1701805044429
 20
174.3340238444229
 30
0.4
 11
161.602280504443
 21
177.3340238444229
 31
0.4
1001
AUSTER_ANSICHT
1002
{
1000
Det03
1002
}
1001
AUSTER_FOLIE
1002
{
1000
NSB00753_S0
1002
}
  0
LINE
  5
3C80
330
1F
100
AcDbEntity
  8
11000_Left
  6
DASHED
 62
     7
 48
10.0
370
     9
100
AcDbLine
 39
0.35
 10
159.170180504443
 20
167.8840238444229
 30
0.4
 11
159.1701805044429
 21
174.3340238444229
 31
0.4
1001
AUSTER_ANSICHT
1002
{
1000
Det03
1002
}
1001
AUSTER_FOLIE
1002
{
1000
NSB00753_S0
1002
}
  0
LINE
  5
3C81
330
1F
100
AcDbEntity
  8
11000_Left
  6
DASHED
 62
     7
 48
10.0
370
     9
100
AcDbLine
 39
0.35
 10
158.670180504443
 20
167.8840238444229
 30
0.4
 11
159.170180504443
 21
167.8840238444229
 31
0.4
1001
AUSTER_ANSICHT
1002
{
1000
Det03
1002
}
1001
AUSTER_FOLIE
1002
{
1000
NSB00753_S0
1002
}
  0
ARC
  5
3C82
330
1F
100
AcDbEntity
  8
11000_Left
  6
DASHED
 62
     7
 48
10.0
370
     9
100
AcDbCircle
 39
0.35
 10
158.670180504443
 20
167.5840238444229
 30
0.4
 40
0.3000000000000114
100
AcDbArc
 50
90.0000000000057
 51
180.0
1001
AUSTER_ANSICHT
1002
{
1000
Det03
1002
}
1001
AUSTER_FOLIE
1002
{
1000
NSB00753_S0
1002
}
  0
LINE
  5
3C83
330
1F
100
AcDbEntity
  8
11000_Left
  6
DASHED
 62
     7
 48
10.0
370
     9
100
AcDbLine
 39
0.35
 10
158.370180504443
 20
160.1840238444229
 30
0.4
 11
158.370180504443
 21
167.5840238444229
 31
0.4
1001
AUSTER_ANSICHT
1002
{
1000
Det03
1002
}
1001
AUSTER_FOLIE
1002
{
1000
NSB00753_S0
1002
}
  0
ARC
  5
3C84
330
1F
100
AcDbEntity
  8
11000_Left
  6
DASHED
 62
     7
 48
10.0
370
     9
100
AcDbCircle
 39
0.35
 10
158.670180504443
 20
160.1840238444229
 30
0.4
 40
0.3000000000000114
100
AcDbArc
 50
180.0
 51
270.0
1001
AUSTER_ANSICHT
1002
{
1000
Det03
1002
}
1001
AUSTER_FOLIE
1002
{
1000
NSB00753_S0
1002
}
  0
LINE
  5
3C85
330
1F
100
AcDbEntity
  8
11000_Left
  6
DASHED
 62
     7
 48
10.0
370
     9
100
AcDbLine
 39
0.35
 10
159.170180504443
 20
159.884023844423
 30
0.4
 11
158.670180504443
 21
159.884023844423
 31
0.4
1001
AUSTER_ANSICHT
1002
{
1000
Det03
1002
}
1001
AUSTER_FOLIE
1002
{
1000
NSB00753_S0
1002
}
  0
LINE
  5
3C86
330
1F
100
AcDbEntity
  8
11000_Left
  6
DASHED
 62
     7
 48
10.0
370
     9
100
AcDbLine
 39
0.35
 10
159.170180504443
 20
158.644023844423
 30
0.4
 11
159.170180504443
 21
159.884023844423
 31
0.4
1001
AUSTER_ANSICHT
1002
{
1000
Det03
1002
}
1001
AUSTER_FOLIE
1002
{
1000
NSB00753_S0
1002
}
  0
ARC
  5
3C87
330
1F
100
AcDbEntity
  8
11000_Left
  6
DASHED
 62
     7
 48
10.0
370
     9
100
AcDbCircle
 39
0.35
 10
159.930180504443
 20
158.644023844423
 30
0.4
 40
0.7599999999999927
100
AcDbArc
 50
180.0
 51
270.0
1001
AUSTER_ANSICHT
1002
{
1000
Det03
1002
}
1001
AUSTER_FOLIE
1002
{
1000
NSB00753_S0
1002
}
  0
LINE
  5
3C88
330
1F
100
AcDbEntity
  8
11000_Left
  6
DASHED
 62
     7
 48
10.0
370
     9
100
AcDbLine
 39
0.35
 10
165.870180504443
 20
157.884023844423
 30
0.4
 11
159.930180504443
 21
157.884023844423
 31
0.4
1001
AUSTER_ANSICHT
1002
{
1000
Det03
1002
}
1001
AUSTER_FOLIE
1002
{
1000
NSB00753_S0
1002
}
  0
LINE
  5
3C89
330
1F
100
AcDbEntity
  8
11000_Left
  6
DASHED
 62
     7
 48
10.0
370
     9
100
AcDbLine
 39
0.35
 10
165.870180504443
 20
161.384023844423
 30
0.4
 11
165.870180504443
 21
157.884023844423
 31
0.4
1001
AUSTER_ANSICHT
1002
{
1000
Det03
1002
}
1001
AUSTER_FOLIE
1002
{
1000
NSB00753_S0
1002
}
  0
LINE
  5
3C8A
330
1F
100
AcDbEntity
  8
11000_Left
  6
DASHED
 62
     7
 48
10.0
370
     9
100
AcDbLine
 39
0.35
 10
186.070180504443
 20
161.3839038444229
 30
0.4
 11
165.870180504443
 21
161.384023844423
 31
0.4
1001
AUSTER_ANSICHT
1002
{
1000
Det03
1002
}
1001
AUSTER_FOLIE
1002
{
1000
NSB00753_S0
1002
}
  0
LINE
  5
3C8B
330
1F
100
AcDbEntity
  8
11000_Left
  6
DASHED
 62
     7
 48
10.0
370
     9
100
AcDbLine
 39
0.35
 10
186.070180504443
 20
159.384023844423
 30
0.4
 11
186.070180504443
 21
161.3839038444229
 31
0.4
1001
AUSTER_ANSICHT
1002
{
1000
Det03
1002
}
1001
AUSTER_FOLIE
1002
{
1000
NSB00753_S0
1002
}
  0
ARC
  5
3C8C
330
1F
100
AcDbEntity
  8
11000_Left
  6
DASHED
 62
     7
 48
10.0
370
     9
100
AcDbCircle
 39
0.35
 10
187.570180504443
 20
159.384023844423
 30
0.4
 40
1.499999999999998
100
AcDbArc
 50
180.0
 51
270.0
1001
AUSTER_ANSICHT
1002
{
1000
Det03
1002
}
1001
AUSTER_FOLIE
1002
{
1000
NSB00753_S0
1002
}
  0
LINE
  5
3C8D
330
1F
100
AcDbEntity
  8
11000_Left
  6
DASHED
 62
     7
 48
10.0
370
     9
100
AcDbLine
 39
0.35
 10
192.070180504443
 20
157.884023844423
 30
0.4
 11
187.570180504443
 21
157.884023844423
 31
0.4
1001
AUSTER_ANSICHT
1002
{
1000
Det03
1002
}
1001
AUSTER_FOLIE
1002
{
1000
NSB00753_S0
1002
}
  0
LINE
  5
3C8E
330
1F
100
AcDbEntity
  8
11000_Left
  6
DASHED
 62
     7
 48
10.0
370
     9
100
AcDbLine
 39
0.35
 10
192.070180504443
 20
155.3840238444229
 30
0.4
 11
192.070180504443
 21
157.884023844423
 31
0.4
1001
AUSTER_ANSICHT
1002
{
1000
Det03
1002
}
1001
AUSTER_FOLIE
1002
{
1000
NSB00753_S0
1002
}
  0
ARC
  5
3C8F
330
1F
100
AcDbEntity
  8
11000_Left
  6
DASHED
 62
     7
 48
10.0
370
     9
100
AcDbCircle
 39
0.35
 10
193.570180504443
 20
155.3840238444229
 30
0.4
 40
1.5
100
AcDbArc
 50
180.0
 51
270.0
1001
AUSTER_ANSICHT
1002
{
1000
Det03
1002
}
1001
AUSTER_FOLIE
1002
{
1000
NSB00753_S0
1002
}
  0
LINE
  5
3C90
330
1F
100
AcDbEntity
  8
11000_Left
  6
DASHED
 62
     7
 48
10.0
370
     9
100
AcDbLine
 39
0.35
 10
216.070180504443
 20
153.884023844423
 30
0.4
 11
193.570180504443
 21
153.884023844423
 31
0.4
1001
AUSTER_ANSICHT
1002
{
1000
Det03
1002
}
1001
AUSTER_FOLIE
1002
{
1000
NSB00753_S0
1002
}
  0
LINE
  5
3C91
330
1F
100
AcDbEntity
  8
11000_Left
  6
DASHED
 62
     7
 48
10.0
370
     9
100
AcDbLine
 39
0.35
 10
216.0701805044429
 20
157.884023844423
 30
0.4
 11
216.070180504443
 21
153.884023844423
 31
0.4
1001
AUSTER_ANSICHT
1002
{
1000
Det03
1002
}
1001
AUSTER_FOLIE
1002
{
1000
NSB00753_S0
1002
}
  0
LINE
  5
3C92
330
1F
100
AcDbEntity
  8
11000_Left
  6
DASHED
 62
     7
 48
10.0
370
     9
100
AcDbLine
 39
0.35
 10
242.670180504443
 20
157.884023844423
 30
0.4
 11
216.0701805044429
 21
157.884023844423
 31
0.4
1001
AUSTER_ANSICHT
1002
{
1000
Det03
1002
}
1001
AUSTER_FOLIE
1002
{
1000
NSB00753_S0
1002
}
  0
ARC
  5
3C93
330
1F
100
AcDbEntity
  8
11000_Left
  6
DASHED
 62
     7
 48
10.0
370
     9
100
AcDbCircle
 39
0.35
 10
242.670180504443
 20
159.384023844423
 30
0.4
 40
1.5
100
AcDbArc
 50
270.0
 51
0.0
1001
AUSTER_ANSICHT
1002
{
1000
Det03
1002
}
1001
AUSTER_FOLIE
1002
{
1000
NSB00753_S0
1002
}
  0
LINE
  5
3C94
330
1F
100
AcDbEntity
  8
11000_Left
  6
DASHED
 62
     7
 48
10.0
370
     9
100
AcDbLine
 39
0.35
 10
244.370180504443
 20
160.384023844423
 30
0.4
 11
244.170180504443
 21
159.384023844423
 31
0.4
1001
AUSTER_ANSICHT
1002
{
1000
Det03
1002
}
1001
AUSTER_FOLIE
1002
{
1000
NSB00753_S0
1002
}
  0
LINE
  5
3C95
330
1F
100
AcDbEntity
  8
11000_Left
  6
DASHED
 62
     7
 48
10.0
370
     9
100
AcDbLine
 39
0.35
 10
247.9913507042571
 20
160.384023844422
 30
0.4
 11
244.370180504443
 21
160.384023844423
 31
0.4
1001
AUSTER_ANSICHT
1002
{
1000
Det03
1002
}
1001
AUSTER_FOLIE
1002
{
1000
NSB00753_S0
1002
}
  0
ARC
  5
3C96
330
1F
100
AcDbEntity
  8
11000_Left
  6
DASHED
 62
     7
 48
10.0
370
     9
100
AcDbCircle
 39
0.35
 10
248.0057805044431
 20
161.1954138444227
 30
0.4
 40
0.8115182999998751
100
AcDbArc
 50
268.9811564041352
 51
359.9999999999902
1001
AUSTER_ANSICHT
1002
{
1000
Det03
1002
}
1001
AUSTER_FOLIE
1002
{
1000
NSB00753_S0
1002
}
  0
ARC
  5
3C97
330
1F
100
AcDbEntity
  8
11000_Left
  6
DASHED
 62
     7
 48
10.0
370
     9
100
AcDbCircle
 39
0.35
 10
5.511387304925165
 20
174.3044665257249
 30
0.4
 40
243.6588061876943
100
AcDbArc
 50
356.9159489016576
 51
0.0187077115874814
1001
AUSTER_ANSICHT
1002
{
1000
Det03
1002
}
1001
AUSTER_FOLIE
1002
{
1000
NSB00753_S0
1002
}
  0
LINE
  5
3C98
330
1F
100
AcDbEntity
  8
11000_Left
  6
DASHED
 62
     7
 48
10.0
370
     9
100
AcDbLine
 39
0.35
 10
249.170180504443
 20
213.384023844423
 30
0.4
 11
249.170180504443
 21
174.384023844423
 31
0.4
1001
AUSTER_ANSICHT
1002
{
1000
Det03
1002
}
1001
AUSTER_FOLIE
1002
{
1000
NSB00753_S0
1002
}
  0
ARC
  5
3C99
330
1F
100
AcDbEntity
  8
11000_Left
  6
DASHED
 62
     7
 48
10.0
370
     9
100
AcDbCircle
 39
0.35
 10
5.511371725989476
 20
213.4635807462822
 30
0.4
 40
243.658821766493
100
AcDbArc
 50
359.9812923876271
 51
3.084050999127398
1001
AUSTER_ANSICHT
1002
{
1000
Det03
1002
}
1001
AUSTER_FOLIE
1002
{
1000
NSB00753_S0
1002
}
  0
ARC
  5
3C9A
330
1F
100
AcDbEntity
  8
11000_Left
  6
DASHED
 62
     7
370
     9
100
AcDbCircle
 39
0.7
 10
248.005780504443
 20
226.572633844423
 30
0.4
 40
0.8115182999999872
100
AcDbArc
 50
0.0
 51
91.03076274511707
1001
AUSTER_ANSICHT
1002
{
1000
Det03
1002
}
1001
AUSTER_FOLIE
1002
{
1000
NSB00753_S0
1002
}
  0
LINE
  5
3C9B
330
1F
100
AcDbEntity
  8
11000_Left
  6
DASHED
 62
     7
 48
10.0
370
     9
100
AcDbLine
 39
0.35
 10
244.370180504443
 20
227.384023844423
 30
0.4
 11
247.9911819124081
 21
227.3840208250589
 31
0.4
1001
AUSTER_ANSICHT
1002
{
1000
Det03
1002
}
1001
AUSTER_FOLIE
1002
{
1000
NSB00753_S0
1002
}
  0
LINE
  5
3C9C
330
1F
100
AcDbEntity
  8
11000_Left
  6
DASHED
 62
     7
 48
10.0
370
     9
100
AcDbLine
 39
0.35
 10
244.170180504443
 20
228.384023844423
 30
0.4
 11
244.370180504443
 21
227.384023844423
 31
0.4
1001
AUSTER_ANSICHT
1002
{
1000
Det03
1002
}
1001
AUSTER_FOLIE
1002
{
1000
NSB00753_S0
1002
}
  0
ARC
  5
3C9D
330
1F
100
AcDbEntity
  8
11000_Left
  6
DASHED
 62
     7
 48
10.0
370
     9
100
AcDbCircle
 39
0.35
 10
242.670180504443
 20
228.384023844423
 30
0.4
 40
1.5
100
AcDbArc
 50
0.0
 51
90.0
1001
AUSTER_ANSICHT
1002
{
1000
Det03
1002
}
1001
AUSTER_FOLIE
1002
{
1000
NSB00753_S0
1002
}
  0
LINE
  5
3C9E
330
1F
100
AcDbEntity
  8
11000_Left
  6
DASHED
 62
     7
 48
10.0
370
     9
100
AcDbLine
 39
0.35
 10
216.0701805044429
 20
229.884023844423
 30
0.4
 11
242.670180504443
 21
229.884023844423
 31
0.4
1001
AUSTER_ANSICHT
1002
{
1000
Det03
1002
}
1001
AUSTER_FOLIE
1002
{
1000
NSB00753_S0
1002
}
  0
LINE
  5
3C9F
330
1F
100
AcDbEntity
  8
11000_Left
  6
DASHED
 62
     7
 48
10.0
370
     9
100
AcDbLine
 39
0.35
 10
216.070180504443
 20
233.884023844423
 30
0.4
 11
216.0701805044429
 21
229.884023844423
 31
0.4
1001
AUSTER_ANSICHT
1002
{
1000
Det03
1002
}
1001
AUSTER_FOLIE
1002
{
1000
NSB00753_S0
1002
}
  0
LINE
  5
3CA0
330
1F
100
AcDbEntity
  8
11000_Left
  6
DASHED
 62
     7
 48
10.0
370
     9
100
AcDbLine
 39
0.35
 10
193.570180504443
 20
233.884023844423
 30
0.4
 11
216.070180504443
 21
233.884023844423
 31
0.4
1001
AUSTER_ANSICHT
1002
{
1000
Det03
1002
}
1001
AUSTER_FOLIE
1002
{
1000
NSB00753_S0
1002
}
  0
ARC
  5
3CA1
330
1F
100
AcDbEntity
  8
11000_Left
  6
DASHED
 62
     7
 48
10.0
370
     9
100
AcDbCircle
 39
0.35
 10
193.570180504443
 20
232.384023844423
 30
0.4
 40
1.5
100
AcDbArc
 50
90.0
 51
180.0
1001
AUSTER_ANSICHT
1002
{
1000
Det03
1002
}
1001
AUSTER_FOLIE
1002
{
1000
NSB00753_S0
1002
}
  0
ARC
  5
3CA5
330
1F
100
AcDbEntity
  8
11000_Left
  6
DASHED
 62
     7
 48
10.0
370
     9
100
AcDbCircle
 39
0.35
 10
165.4701805044429
 20
229.484023844423
 30
0.4
 40
0.3999999999999772
100
AcDbArc
 50
359.9999999999968
 51
90.0
1001
AUSTER_ANSICHT
1002
{
1000
Det03
1002
}
1001
AUSTER_FOLIE
1002
{
1000
NSB00753_S0
1002
}
  0
LINE
  5
3CA6
330
1F
100
AcDbEntity
  8
11000_Left
  6
DASHED
 62
     7
 48
10.0
370
     9
100
AcDbLine
 39
0.35
 10
159.930180504443
 20
229.884023844423
 30
0.4
 11
165.4701805044429
 21
229.884023844423
 31
0.4
1001
AUSTER_ANSICHT
1002
{
1000
Det03
1002
}
1001
AUSTER_FOLIE
1002
{
1000
NSB00753_S0
1002
}
  0
ARC
  5
3CA7
330
1F
100
AcDbEntity
  8
11000_Left
  6
DASHED
 62
     7
 48
10.0
370
     9
100
AcDbCircle
 39
0.35
 10
159.930180504443
 20
229.124023844423
 30
0.4
 40
0.7599999999999909
100
AcDbArc
 50
90.0
 51
180.0
1001
AUSTER_ANSICHT
1002
{
1000
Det03
1002
}
1001
AUSTER_FOLIE
1002
{
1000
NSB00753_S0
1002
}
  0
LINE
  5
3CA8
330
1F
100
AcDbEntity
  8
11000_Left
  6
DASHED
 62
     7
 48
10.0
370
     9
100
AcDbLine
 39
0.35
 10
159.170180504443
 20
227.384023844423
 30
0.4
 11
159.170180504443
 21
229.124023844423
 31
0.4
1001
AUSTER_ANSICHT
1002
{
1000
Det03
1002
}
1001
AUSTER_FOLIE
1002
{
1000
NSB00753_S0
1002
}
  0
LINE
  5
3CA9
330
1F
100
AcDbEntity
  8
11000_Left
  6
DASHED
 62
     7
 48
10.0
370
     9
100
AcDbLine
 39
0.35
 10
158.670180504443
 20
227.384021444423
 30
0.4
 11
159.170180504443
 21
227.384023844423
 31
0.4
1001
AUSTER_ANSICHT
1002
{
1000
Det03
1002
}
1001
AUSTER_FOLIE
1002
{
1000
NSB00753_S0
1002
}
  0
ARC
  5
3CAA
330
1F
100
AcDbEntity
  8
11000_Left
  6
DASHED
 62
     7
370
     9
100
AcDbCircle
 39
0.7
 10
158.670180504443
 20
227.083823844423
 30
0.4
 40
0.300197599999998
100
AcDbArc
 50
90.0
 51
182.0789848669027
1001
AUSTER_ANSICHT
1002
{
1000
Det03
1002
}
1001
AUSTER_FOLIE
1002
{
1000
NSB00753_S0
1002
}
  0
LINE
  5
3CAB
330
1F
100
AcDbEntity
  8
11000_Left
  6
DASHED
 62
     7
 48
10.0
370
     9
100
AcDbLine
 39
0.35
 10
158.370180504443
 20
220.686393844423
 30
0.4
 11
158.3701805044525
 21
227.0729335252589
 31
0.4
1001
AUSTER_ANSICHT
1002
{
1000
Det03
1002
}
1001
AUSTER_FOLIE
1002
{
1000
NSB00753_S0
1002
}
  0
POINT
  5
3CAC
330
1F
100
AcDbEntity
  8
11000_Left
  6
DASHED
 62
     7
370
     9
100
AcDbPoint
 10
225.470180504443
 20
229.884023844423
 30
0.4
 39
0.7
1001
AUSTER_ANSICHT
1002
{
1000
Det03
1002
}
1001
AUSTER_FOLIE
1002
{
1000
NSB00753_S0
1002
}
  0
LINE
  5
3CAD
330
1F
100
AcDbEntity
  8
11000_Left
  6
DASHED
 62
     7
 48
10.0
370
     9
100
AcDbLine
 39
0.35
 10
230.350380504443
 20
229.834023844423
 30
0.4
 11
230.350380504443
 21
212.3540238444229
 31
0.4
1001
AUSTER_ANSICHT
1002
{
1000
Det03
1002
}
1001
AUSTER_FOLIE
1002
{
1000
NSB00753_S0
1002
}
  0
LINE
  5
3CAE
330
1F
100
AcDbEntity
  8
11000_Left
  6
DASHED
 62
     7
 48
10.0
370
     9
100
AcDbLine
 39
0.35
 10
225.470180504443
 20
212.3540238444229
 30
0.4
 11
225.470180504443
 21
229.884023844423
 31
0.4
1001
AUSTER_FOLIE
1002
{
1000
NSB00753_S0
1002
}
1001
AUSTER_ANSICHT
1002
{
1000
Det03
1002
}
  0
LINE
  5
3CAF
330
1F
100
AcDbEntity
  8
11000_Left
  6
DASHED
 62
     7
 48
10.0
370
     9
100
AcDbLine
 39
0.35
 10
227.845480504443
 20
212.3540238444229
 30
0.4
 11
226.045480504443
 21
212.3540238444229
 31
0.4
1001
AUSTER_ANSICHT
1002
{
1000
Det03
1002
}
1001
AUSTER_FOLIE
1002
{
1000
NSB00753_S0
1002
}
  0
LINE
  5
3CB0
330
1F
100
AcDbEntity
  8
11000_Left
  6
DASHED
 62
     7
 48
10.0
370
     9
100
AcDbLine
 39
0.35
 10
230.350380504443
 20
212.3540238444229
 30
0.4
 11
225.470180504443
 21
212.3540238444229
 31
0.4
1001
AUSTER_ANSICHT
1002
{
1000
Det03
1002
}
1001
AUSTER_FOLIE
1002
{
1000
NSB00753_S0
1002
}
  0
LINE
  5
3DB8
330
1F
100
AcDbEntity
  8
11000_Left
  6
DASHED
 62
     7
 48
10.0
370
     9
100
AcDbLine
 39
0.35
 10
159.470180504443
 20
214.834023844423
 30
0.4
 11
162.2701805044429
 21
214.834023844423
 31
0.4
1001
AUSTER_ANSICHT
1002
{
1000
Det03
1002
}
1001
AUSTER_FOLIE
1002
{
1000
NSB00753_S0
1002
}
  0
LINE
  5
3DBA
330
1F
100
AcDbEntity
  8
10000_Front
  6
DASHED
 62
     7
 48
10.0
370
     9
100
AcDbLine
 39
0.35
 10
68.80757089305531
 20
157.466517811874
 30
0.4
 11
68.80755629119853
 21
159.9663556973027
 31
0.4
1001
AUSTER_ANSICHT
1002
{
1000
Det03
1002
}
1001
AUSTER_FOLIE
1002
{
1000
NSB00753_S0
1002
}
  0
LINE
  5
3DBB
330
1F
100
AcDbEntity
  8
10000_Front
  6
DASHED
 62
     7
 48
10.0
370
     9
100
AcDbLine
 39
0.35
 10
108.8099708930553
 20
157.466517811874
 30
0.4
 11
108.8099562898337
 21
159.9665893561811
 31
0.4
1001
AUSTER_ANSICHT
1002
{
1000
Det03
1002
}
1001
AUSTER_FOLIE
1002
{
1000
NSB00753_S0
1002
}
  0
LINE
  5
3DBC
330
1F
100
AcDbEntity
  8
10000_Front
  6
DASHED
 62
     7
 48
10.0
370
     9
100
AcDbLine
 39
0.35
 10
68.80517089305532
 20
229.466517811874
 30
0.4
 11
68.80516611978219
 21
226.9665160026229
 31
0.4
1001
AUSTER_ANSICHT
1002
{
1000
Det03
1002
}
1001
AUSTER_FOLIE
1002
{
1000
NSB00753_S0
1002
}
  0
LINE
  5
3DBD
330
1F
100
AcDbEntity
  8
10000_Front
  6
DASHED
 62
     7
 48
10.0
370
     9
100
AcDbLine
 39
0.35
 10
108.8099708930553
 20
229.466517811874
 30
0.4
 11
108.8099661196363
 21
226.9664396211432
 31
0.4
1001
AUSTER_ANSICHT
1002
{
1000
Det03
1002
}
1001
AUSTER_FOLIE
1002
{
1000
NSB00753_S0
1002
}
  0
LINE
  5
4037
330
1F
100
AcDbEntity
  8
10000_Front
  6
DASHED
 62
     7
 48
10.0
370
     9
100
AcDbLine
 39
0.35
 10
69.85757089305528
 20
233.466517811874
 30
0.4
 11
79.813729082266
 21
233.466517811874
 31
0.4
1001
AUSTER_ANSICHT
1002
{
1000
Det03
1002
}
1001
AUSTER_FOLIE
1002
{
1000
NSB00753_S0
1002
}
  0
LINE
  5
4038
330
1F
100
AcDbEntity
  8
11000_Left
  6
DASHED
 62
     7
 48
10.0
370
     9
100
AcDbLine
 39
0.35
 10
181.170180504443
 20
162.884023844423
 30
0.4
 11
181.170180504443
 21
166.0840238444229
 31
0.4
1001
AUSTER_ANSICHT
1002
{
1000
Det03
1002
}
1001
AUSTER_FOLIE
1002
{
1000
NSB00753_S0
1002
}
  0
LINE
  5
4039
330
1F
100
AcDbEntity
  8
11000_Left
  6
DASHED
 62
     7
 48
10.0
370
     9
100
AcDbLine
 39
0.35
 10
211.170180504443
 20
226.384023844423
 30
0.4
 11
165.870180504443
 21
226.384023844423
 31
0.4
1001
AUSTER_ANSICHT
1002
{
1000
Det03
1002
}
1001
AUSTER_FOLIE
1002
{
1000
NSB00753_S0
1002
}
  0
LINE
  5
403A
330
1F
100
AcDbEntity
  8
11000_Left
  6
DASHED
 62
     7
 48
10.0
370
     9
100
AcDbLine
 39
0.35
 10
244.170180504443
 20
228.384023844423
 30
0.4
 11
244.170180504443
 21
159.384023844423
 31
0.4
1001
AUSTER_ANSICHT
1002
{
1000
Det03
1002
}
1001
AUSTER_FOLIE
1002
{
1000
NSB00753_S0
1002
}
  0
LINE
  5
403B
330
1F
100
AcDbEntity
  8
11000_Left
  6
DASHED
 62
     7
 48
10.0
370
     9
100
AcDbLine
 39
0.35
 10
183.770180504443
 20
225.534023844423
 30
0.4
 11
183.770180504443
 21
220.9840238444229
 31
0.4
1001
AUSTER_ANSICHT
1002
{
1000
Det03
1002
}
1001
AUSTER_FOLIE
1002
{
1000
NSB00753_S0
1002
}
  0
LINE
  5
403C
330
1F
100
AcDbEntity
  8
11000_Left
  6
DASHED
 62
     7
 48
10.0
370
     9
100
AcDbLine
 39
0.35
 10
183.770180504443
 20
220.9840238444229
 30
0.4
 11
192.670180504443
 21
220.9840238444229
 31
0.4
1001
AUSTER_ANSICHT
1002
{
1000
Det03
1002
}
1001
AUSTER_FOLIE
1002
{
1000
NSB00753_S0
1002
}
  0
LINE
  5
403D
330
1F
100
AcDbEntity
  8
11000_Left
  6
DASHED
 62
     7
 48
10.0
370
     9
100
AcDbLine
 39
0.35
 10
192.670180504443
 20
220.9840238444229
 30
0.4
 11
192.670180504443
 21
225.534023844423
 31
0.4
1001
AUSTER_ANSICHT
1002
{
1000
Det03
1002
}
1001
AUSTER_FOLIE
1002
{
1000
NSB00753_S0
1002
}
  0
LINE
  5
403E
330
1F
100
AcDbEntity
  8
11000_Left
  6
DASHED
 62
     7
 48
10.0
370
     9
100
AcDbLine
 39
0.35
 10
192.670180504443
 20
225.534023844423
 30
0.4
 11
183.770180504443
 21
225.534023844423
 31
0.4
1001
AUSTER_ANSICHT
1002
{
1000
Det03
1002
}
1001
AUSTER_FOLIE
1002
{
1000
NSB00753_S0
1002
}
  0
LINE
  5
4043
330
1F
100
AcDbEntity
  8
11000_Left
  6
DASHED
 62
     7
 48
10.0
370
     9
100
AcDbLine
 39
0.35
 10
165.870180504443
 20
229.4840238444229
 30
0.4
 11
165.870180504443
 21
226.384023844423
 31
0.4
1001
AUSTER_ANSICHT
1002
{
1000
Det03
1002
}
1001
AUSTER_FOLIE
1002
{
1000
NSB00753_S0
1002
}
  0
LINE
  5
4044
330
1F
100
AcDbEntity
  8
11000_Left
  6
DASHED
 62
     7
 48
10.0
370
     9
100
AcDbLine
 39
0.35
 10
165.870180504443
 20
167.0840238444229
 30
0.4
 11
180.170180504443
 21
167.0840238444229
 31
0.4
1001
AUSTER_ANSICHT
1002
{
1000
Det03
1002
}
1001
AUSTER_FOLIE
1002
{
1000
NSB00753_S0
1002
}
  0
LINE
  5
4045
330
1F
100
AcDbEntity
  8
11000_Left
  6
DASHED
 62
     7
 48
10.0
370
     9
100
AcDbLine
 39
0.35
 10
209.170180504443
 20
227.384023844423
 30
0.4
 11
209.170180504443
 21
229.084023844423
 31
0.4
1001
AUSTER_ANSICHT
1002
{
1000
Det03
1002
}
1001
AUSTER_FOLIE
1002
{
1000
NSB00753_S0
1002
}
  0
LINE
  5
4046
330
1F
100
AcDbEntity
  8
11000_Left
  6
DASHED
 62
     7
 48
10.0
370
     9
100
AcDbLine
 39
0.35
 10
216.070180504443
 20
229.884023844423
 30
0.4
 11
209.970180504443
 21
229.884023844423
 31
0.4
1001
AUSTER_ANSICHT
1002
{
1000
Det03
1002
}
1001
AUSTER_FOLIE
1002
{
1000
NSB00753_S0
1002
}
  0
LINE
  5
4047
330
1F
100
AcDbEntity
  8
11000_Left
  6
DASHED
 62
     7
 48
10.0
370
     9
100
AcDbLine
 39
0.35
 10
209.170180504443
 20
160.384023844423
 30
0.4
 11
209.170180504443
 21
158.6840238444229
 31
0.4
1001
AUSTER_ANSICHT
1002
{
1000
Det03
1002
}
1001
AUSTER_FOLIE
1002
{
1000
NSB00753_S0
1002
}
  0
LINE
  5
4048
330
1F
100
AcDbEntity
  8
11000_Left
  6
DASHED
 62
     7
 48
10.0
370
     9
100
AcDbLine
 39
0.35
 10
209.970180504443
 20
157.884023844423
 30
0.4
 11
216.070180504443
 21
157.884023844423
 31
0.4
1001
AUSTER_ANSICHT
1002
{
1000
Det03
1002
}
1001
AUSTER_FOLIE
1002
{
1000
NSB00753_S0
1002
}
  0
LINE
  5
4049
330
1F
100
AcDbEntity
  8
11000_Left
  6
DASHED
 62
     7
 48
10.0
370
     9
100
AcDbLine
 39
0.35
 10
183.770180504443
 20
162.2340238444229
 30
0.4
 11
183.770180504443
 21
166.7840238444229
 31
0.4
1001
AUSTER_ANSICHT
1002
{
1000
Det03
1002
}
1001
AUSTER_FOLIE
1002
{
1000
NSB00753_S0
1002
}
  0
LINE
  5
404A
330
1F
100
AcDbEntity
  8
11000_Left
  6
DASHED
 62
     7
 48
10.0
370
     9
100
AcDbLine
 39
0.35
 10
183.770180504443
 20
166.7840238444229
 30
0.4
 11
192.670180504443
 21
166.7840238444229
 31
0.4
1001
AUSTER_ANSICHT
1002
{
1000
Det03
1002
}
1001
AUSTER_FOLIE
1002
{
1000
NSB00753_S0
1002
}
  0
LINE
  5
404B
330
1F
100
AcDbEntity
  8
11000_Left
  6
DASHED
 62
     7
 48
10.0
370
     9
100
AcDbLine
 39
0.35
 10
192.670180504443
 20
166.7840238444229
 30
0.4
 11
192.670180504443
 21
162.2340238444229
 31
0.4
1001
AUSTER_ANSICHT
1002
{
1000
Det03
1002
}
1001
AUSTER_FOLIE
1002
{
1000
NSB00753_S0
1002
}
  0
LINE
  5
404C
330
1F
100
AcDbEntity
  8
11000_Left
  6
DASHED
 62
     7
 48
10.0
370
     9
100
AcDbLine
 39
0.35
 10
192.670180504443
 20
162.2340238444229
 30
0.4
 11
183.770180504443
 21
162.2340238444229
 31
0.4
1001
AUSTER_ANSICHT
1002
{
1000
Det03
1002
}
1001
AUSTER_FOLIE
1002
{
1000
NSB00753_S0
1002
}
  0
LINE
  5
4051
330
1F
100
AcDbEntity
  8
11000_Left
  6
DASHED
 62
     7
 48
10.0
370
     9
100
AcDbLine
 39
0.35
 10
211.170180504443
 20
157.8855038444229
 30
0.4
 11
211.170180504443
 21
155.3840238444229
 31
0.4
1001
AUSTER_ANSICHT
1002
{
1000
Det03
1002
}
1001
AUSTER_FOLIE
1002
{
1000
NSB00753_S0
1002
}
  0
LINE
  5
4052
330
1F
100
AcDbEntity
  8
11000_Left
  6
DASHED
 62
     7
 48
10.0
370
     9
100
AcDbLine
 39
0.35
 10
186.070180504443
 20
161.3839038444229
 30
0.4
 11
211.170180504443
 21
161.384023844423
 31
0.4
1001
AUSTER_ANSICHT
1002
{
1000
Det03
1002
}
1001
AUSTER_FOLIE
1002
{
1000
NSB00753_S0
1002
}
  0
LINE
  5
4053
330
1F
100
AcDbEntity
  8
11000_Left
  6
DASHED
 62
     7
 48
10.0
370
     9
100
AcDbLine
 39
0.35
 10
211.170180504443
 20
232.384023844423
 30
0.4
 11
211.170180504443
 21
229.882543844423
 31
0.4
1001
AUSTER_ANSICHT
1002
{
1000
Det03
1002
}
1001
AUSTER_FOLIE
1002
{
1000
NSB00753_S0
1002
}
  0
LINE
  5
4054
330
1F
100
AcDbEntity
  8
11000_Left
  6
DASHED
 62
     7
 48
10.0
370
     9
100
AcDbLine
 39
0.35
 10
192.070180504443
 20
232.384023844423
 30
0.4
 11
192.070180504443
 21
226.384023844423
 31
0.4
1001
AUSTER_ANSICHT
1002
{
1000
Det03
1002
}
1001
AUSTER_FOLIE
1002
{
1000
NSB00753_S0
1002
}
  0
LINE
  5
4055
330
1F
100
AcDbEntity
  8
11000_Left
  6
DASHED
 62
     7
 48
10.0
370
     9
100
AcDbLine
 39
0.35
 10
211.170180504443
 20
160.884023844423
 30
0.4
 11
211.170180504443
 21
226.884023844423
 31
0.4
1001
AUSTER_ANSICHT
1002
{
1000
Det03
1002
}
1001
AUSTER_FOLIE
1002
{
1000
NSB00753_S0
1002
}
  0
LINE
  5
4056
330
1F
100
AcDbEntity
  8
11000_Left
  6
DASHED
 62
     7
 48
10.0
370
     9
100
AcDbLine
 39
0.35
 10
209.170180504443
 20
227.384023844423
 30
0.4
 11
209.670180504443
 21
226.884023844423
 31
0.4
1001
AUSTER_ANSICHT
1002
{
1000
Det03
1002
}
1001
AUSTER_FOLIE
1002
{
1000
NSB00753_S0
1002
}
  0
LINE
  5
4057
330
1F
100
AcDbEntity
  8
11000_Left
  6
DASHED
 62
     7
 48
10.0
370
     9
100
AcDbLine
 39
0.35
 10
209.670180504443
 20
226.884023844423
 30
0.4
 11
211.170180504443
 21
226.884023844423
 31
0.4
1001
AUSTER_ANSICHT
1002
{
1000
Det03
1002
}
1001
AUSTER_FOLIE
1002
{
1000
NSB00753_S0
1002
}
  0
LINE
  5
4058
330
1F
100
AcDbEntity
  8
11000_Left
  6
DASHED
 62
     7
 48
10.0
370
     9
100
AcDbLine
 39
0.35
 10
211.170180504443
 20
160.884023844423
 30
0.4
 11
209.670180504443
 21
160.884023844423
 31
0.4
1001
AUSTER_ANSICHT
1002
{
1000
Det03
1002
}
1001
AUSTER_FOLIE
1002
{
1000
NSB00753_S0
1002
}
  0
LINE
  5
4059
330
1F
100
AcDbEntity
  8
11000_Left
  6
DASHED
 62
     7
 48
10.0
370
     9
100
AcDbLine
 39
0.35
 10
209.670180504443
 20
160.884023844423
 30
0.4
 11
209.170180504443
 21
160.384023844423
 31
0.4
1001
AUSTER_ANSICHT
1002
{
1000
Det03
1002
}
1001
AUSTER_FOLIE
1002
{
1000
NSB00753_S0
1002
}
  0
LINE
  5
406E
330
1F
100
AcDbEntity
  8
11000_Left
  6
DASHED
 62
     7
 48
10.0
370
     9
100
AcDbLine
 39
0.35
 10
165.870180504443
 20
161.4840238444229
 30
0.4
 11
165.870180504443
 21
158.2840238444229
 31
0.4
1001
AUSTER_ANSICHT
1002
{
1000
Det03
1002
}
1001
AUSTER_FOLIE
1002
{
1000
NSB00753_S0
1002
}
  0
LINE
  5
406F
330
1F
100
AcDbEntity
  8
11000_Left
  6
DASHED
 62
     7
 48
10.0
370
     9
100
AcDbLine
 39
0.35
 10
163.4701805044429
 20
174.3340238444229
 30
0.4
 11
159.170180504443
 21
174.3340238444229
 31
0.4
1001
AUSTER_ANSICHT
1002
{
1000
Det03
1002
}
1001
AUSTER_FOLIE
1002
{
1000
NSB00753_S0
1002
}
  0
LINE
  5
4070
330
1F
100
AcDbEntity
  8
11000_Left
  6
DASHED
 62
     7
 48
10.0
370
     9
100
AcDbLine
 39
0.35
 10
165.870180504443
 20
167.0840238444229
 30
0.4
 11
165.870180504443
 21
161.384023844423
 31
0.4
1001
AUSTER_ANSICHT
1002
{
1000
Det03
1002
}
1001
AUSTER_FOLIE
1002
{
1000
NSB00753_S0
1002
}
  0
LINE
  5
4071
330
1F
100
AcDbEntity
  8
11000_Left
  6
Continuous
 62
     7
 48
10.0
370
    50
100
AcDbLine
 39
0.35
 10
250.170180504443
 20
209.484023844423
 30
0.4
 11
252.670180504443
 21
209.484023844423
 31
0.4
1001
AUSTER_ANSICHT
1002
{
1000
Det03
1002
}
1001
AUSTER_FOLIE
1002
{
1000
NSB00753_S0
1002
}
  0
LINE
  5
4072
330
1F
100
AcDbEntity
  8
11000_Left
  6
Continuous
 62
     7
 48
10.0
370
    50
100
AcDbLine
 39
0.35
 10
250.170180504443
 20
179.884023844423
 30
0.4
 11
252.670180504443
 21
179.884023844423
 31
0.4
1001
AUSTER_ANSICHT
1002
{
1000
Det03
1002
}
1001
AUSTER_FOLIE
1002
{
1000
NSB00753_S0
1002
}
  0
LINE
  5
4073
330
1F
100
AcDbEntity
  8
11000_Left
  6
Continuous
 62
     7
 48
10.0
370
    13
100
AcDbLine
 39
0.35
 10
257.170180504443
 20
213.9840138444229
 30
0.4
 11
257.170180504443
 21
211.3839138444229
 31
0.4
1001
AUSTER_ANSICHT
1002
{
1000
Det03
1002
}
1001
AUSTER_FOLIE
1002
{
1000
NSB00753_S0
1002
}
  0
LINE
  5
4074
330
1F
100
AcDbEntity
  8
11000_Left
  6
Continuous
 62
     7
 48
10.0
370
    13
100
AcDbLine
 39
0.35
 10
253.470180504443
 20
210.884023844423
 30
0.4
 11
249.670180504443
 21
210.8839138444229
 31
0.4
1001
AUSTER_ANSICHT
1002
{
1000
Det03
1002
}
1001
AUSTER_FOLIE
1002
{
1000
NSB00753_S0
1002
}
  0
LINE
  5
4075
330
1F
100
AcDbEntity
  8
11000_Left
  6
DASHED
 62
     7
 48
10.0
370
     9
100
AcDbLine
 39
0.35
 10
249.170180504443
 20
210.3839138444229
 30
0.4
 11
249.170180504443
 21
209.8840138444229
 31
0.4
1001
AUSTER_ANSICHT
1002
{
1000
Det03
1002
}
1001
AUSTER_FOLIE
1002
{
1000
NSB00753_S0
1002
}
  0
LINE
  5
4076
330
1F
100
AcDbEntity
  8
11000_Left
  6
Continuous
 62
     7
 48
10.0
370
    13
100
AcDbLine
 39
0.35
 10
293.021580504443
 20
195.384023844423
 30
0.4
 11
298.070180504443
 21
195.384023844423
 31
0.4
1001
AUSTER_ANSICHT
1002
{
1000
Det03
1002
}
1001
AUSTER_FOLIE
1002
{
1000
NSB00753_S0
1002
}
  0
LINE
  5
4077
330
1F
100
AcDbEntity
  8
11000_Left
  6
Continuous
 62
     7
 48
10.0
370
    13
100
AcDbLine
 39
0.35
 10
298.070180504443
 20
192.384023844423
 30
0.4
 11
293.021580504443
 21
192.384023844423
 31
0.4
1001
AUSTER_ANSICHT
1002
{
1000
Det03
1002
}
1001
AUSTER_FOLIE
1002
{
1000
NSB00753_S0
1002
}
  0
LINE
  5
4078
330
1F
100
AcDbEntity
  8
11000_Left
  6
Continuous
 62
     7
 48
10.0
370
    13
100
AcDbLine
 39
0.35
 10
259.170180504443
 20
210.9139038444229
 30
0.4
 11
259.170180504443
 21
213.9840138444229
 31
0.4
1001
AUSTER_ANSICHT
1002
{
1000
Det03
1002
}
1001
AUSTER_FOLIE
1002
{
1000
NSB00753_S0
1002
}
  0
LINE
  5
4079
330
1F
100
AcDbEntity
  8
11000_Left
  6
Continuous
 62
     7
 48
10.0
370
    13
100
AcDbLine
 39
0.35
 10
259.170180504443
 20
213.9840138444229
 30
0.4
 11
258.670180504443
 21
214.4840138444229
 31
0.4
1001
AUSTER_ANSICHT
1002
{
1000
Det03
1002
}
1001
AUSTER_FOLIE
1002
{
1000
NSB00753_S0
1002
}
  0
LINE
  5
407A
330
1F
100
AcDbEntity
  8
11000_Left
  6
Continuous
 62
     7
 48
10.0
370
    13
100
AcDbLine
 39
0.35
 10
258.670180504443
 20
214.4840138444229
 30
0.4
 11
257.670180504443
 21
214.4840138444229
 31
0.4
1001
AUSTER_ANSICHT
1002
{
1000
Det03
1002
}
1001
AUSTER_FOLIE
1002
{
1000
NSB00753_S0
1002
}
  0
LINE
  5
407B
330
1F
100
AcDbEntity
  8
11000_Left
  6
Continuous
 62
     7
 48
10.0
370
    13
100
AcDbLine
 39
0.35
 10
257.670180504443
 20
214.4840138444229
 30
0.4
 11
257.170180504443
 21
213.9840138444229
 31
0.4
1001
AUSTER_ANSICHT
1002
{
1000
Det03
1002
}
1001
AUSTER_FOLIE
1002
{
1000
NSB00753_S0
1002
}
  0
LINE
  5
407C
330
1F
100
AcDbEntity
  8
11000_Left
  6
Continuous
 62
     7
 48
10.0
370
    50
100
AcDbLine
 39
0.35
 10
293.0201805044429
 20
198.384023844423
 30
0.4
 11
293.0201805044429
 21
189.384023844423
 31
0.4
1001
AUSTER_ANSICHT
1002
{
1000
Det03
1002
}
1001
AUSTER_FOLIE
1002
{
1000
NSB00753_S0
1002
}
  0
LINE
  5
407D
330
1F
100
AcDbEntity
  8
11000_Left
  6
Continuous
 62
     7
 48
10.0
370
    50
100
AcDbLine
 39
0.35
 10
290.5201805044431
 20
212.884023844423
 30
0.4
 11
291.437680504443
 21
212.884023844423
 31
0.4
1001
AUSTER_ANSICHT
1002
{
1000
Det03
1002
}
1001
AUSTER_FOLIE
1002
{
1000
NSB00753_S0
1002
}
  0
LINE
  5
407E
330
1F
100
AcDbEntity
  8
11000_Left
  6
Continuous
 62
     7
 48
10.0
370
    50
100
AcDbLine
 39
0.35
 10
291.437680504443
 20
174.884023844423
 30
0.4
 11
290.5201805044431
 21
174.884023844423
 31
0.4
1001
AUSTER_ANSICHT
1002
{
1000
Det03
1002
}
1001
AUSTER_FOLIE
1002
{
1000
NSB00753_S0
1002
}
  0
LINE
  5
407F
330
1F
100
AcDbEntity
  8
11000_Left
  6
Continuous
 62
     7
 48
10.0
370
    13
100
AcDbLine
 39
0.35
 10
290.5201805044431
 20
175.6840238444229
 30
0.4
 11
290.5201805044431
 21
174.884023844423
 31
0.4
1001
AUSTER_ANSICHT
1002
{
1000
Det03
1002
}
1001
AUSTER_FOLIE
1002
{
1000
NSB00753_S0
1002
}
  0
LINE
  5
4080
330
1F
100
AcDbEntity
  8
11000_Left
  6
Continuous
 62
     7
 48
10.0
370
    13
100
AcDbLine
 39
0.35
 10
290.5201805044431
 20
212.884023844423
 30
0.4
 11
290.5201805044431
 21
212.084023844423
 31
0.4
1001
AUSTER_ANSICHT
1002
{
1000
Det03
1002
}
1001
AUSTER_FOLIE
1002
{
1000
NSB00753_S0
1002
}
  0
LINE
  5
4081
330
1F
100
AcDbEntity
  8
11000_Left
  6
Continuous
 62
     7
 48
10.0
370
    13
100
AcDbLine
 39
0.35
 10
290.5201805044431
 20
212.084023844423
 30
0.4
 11
290.5201805044431
 21
175.6840238444229
 31
0.4
1001
AUSTER_ANSICHT
1002
{
1000
Det03
1002
}
1001
AUSTER_FOLIE
1002
{
1000
NSB00753_S0
1002
}
  0
LINE
  5
4082
330
1F
100
AcDbEntity
  8
11000_Left
  6
Continuous
 62
     7
 48
10.0
370
    50
100
AcDbLine
 39
0.35
 10
290.5201805044431
 20
174.884023844423
 30
0.4
 11
262.170180504443
 21
174.884023844423
 31
0.4
1001
AUSTER_ANSICHT
1002
{
1000
Det03
1002
}
1001
AUSTER_FOLIE
1002
{
1000
NSB00753_S0
1002
}
  0
LINE
  5
4083
330
1F
100
AcDbEntity
  8
11000_Left
  6
Continuous
 62
     7
 48
10.0
370
    50
100
AcDbLine
 39
0.35
 10
253.670180504443
 20
176.884023844423
 30
0.4
 11
258.927580504443
 21
176.884023844423
 31
0.4
1001
AUSTER_ANSICHT
1002
{
1000
Det03
1002
}
1001
AUSTER_FOLIE
1002
{
1000
NSB00753_S0
1002
}
  0
LINE
  5
4084
330
1F
100
AcDbEntity
  8
11000_Left
  6
DASHED
 62
     7
 48
10.0
370
     9
100
AcDbLine
 39
0.35
 10
249.170180504443
 20
181.0082838444229
 30
0.4
 11
249.170180504443
 21
208.4840238444229
 31
0.4
1001
AUSTER_ANSICHT
1002
{
1000
Det03
1002
}
1001
AUSTER_FOLIE
1002
{
1000
NSB00753_S0
1002
}
  0
LINE
  5
4085
330
1F
100
AcDbEntity
  8
11000_Left
  6
Continuous
 62
     7
 48
10.0
370
    13
100
AcDbLine
 39
0.35
 10
255.670180504443
 20
207.884023844423
 30
0.4
 11
254.170180504443
 21
207.884023844423
 31
0.4
1001
AUSTER_ANSICHT
1002
{
1000
Det03
1002
}
1001
AUSTER_FOLIE
1002
{
1000
NSB00753_S0
1002
}
  0
LINE
  5
4086
330
1F
100
AcDbEntity
  8
11000_Left
  6
Continuous
 62
     7
 48
10.0
370
    13
100
AcDbLine
 39
0.35
 10
254.170180504443
 20
207.884023844423
 30
0.4
 11
254.170180504443
 21
208.9840238444229
 31
0.4
1001
AUSTER_ANSICHT
1002
{
1000
Det03
1002
}
1001
AUSTER_FOLIE
1002
{
1000
NSB00753_S0
1002
}
  0
LINE
  5
4087
330
1F
100
AcDbEntity
  8
11000_Left
  6
Continuous
 62
     7
 48
10.0
370
    13
100
AcDbLine
 39
0.35
 10
254.170180504443
 20
208.9840238444229
 30
0.4
 11
255.670180504443
 21
208.9840238444229
 31
0.4
1001
AUSTER_ANSICHT
1002
{
1000
Det03
1002
}
1001
AUSTER_FOLIE
1002
{
1000
NSB00753_S0
1002
}
  0
LINE
  5
4088
330
1F
100
AcDbEntity
  8
11000_Left
  6
Continuous
 62
     7
 48
10.0
370
    13
100
AcDbLine
 39
0.35
 10
255.670180504443
 20
208.9840238444229
 30
0.4
 11
255.670180504443
 21
207.884023844423
 31
0.4
1001
AUSTER_ANSICHT
1002
{
1000
Det03
1002
}
1001
AUSTER_FOLIE
1002
{
1000
NSB00753_S0
1002
}
  0
LINE
  5
4089
330
1F
100
AcDbEntity
  8
11000_Left
  6
Continuous
 62
     7
 48
10.0
370
    50
100
AcDbLine
 39
0.35
 10
250.170180504443
 20
209.484023844423
 30
0.4
 11
249.170180504443
 21
208.4840238444229
 31
0.4
1001
AUSTER_ANSICHT
1002
{
1000
Det03
1002
}
1001
AUSTER_FOLIE
1002
{
1000
NSB00753_S0
1002
}
  0
LINE
  5
408A
330
1F
100
AcDbEntity
  8
11000_Left
  6
Continuous
 62
     7
 48
10.0
370
    50
100
AcDbLine
 39
0.35
 10
249.258080504443
 20
180.7961538444229
 30
0.4
 11
250.170180504443
 21
179.884023844423
 31
0.4
1001
AUSTER_ANSICHT
1002
{
1000
Det03
1002
}
1001
AUSTER_FOLIE
1002
{
1000
NSB00753_S0
1002
}
  0
LINE
  5
408B
330
1F
100
AcDbEntity
  8
11000_Left
  6
Continuous
 62
     7
 48
10.0
370
    13
100
AcDbLine
 39
0.35
 10
255.670180504443
 20
178.7840238444229
 30
0.4
 11
254.172780504443
 21
178.7840238444229
 31
0.4
1001
AUSTER_ANSICHT
1002
{
1000
Det03
1002
}
1001
AUSTER_FOLIE
1002
{
1000
NSB00753_S0
1002
}
  0
LINE
  5
408C
330
1F
100
AcDbEntity
  8
11000_Left
  6
Continuous
 62
     7
 48
10.0
370
    13
100
AcDbLine
 39
0.35
 10
254.172780504443
 20
178.7840238444229
 30
0.4
 11
254.172780504443
 21
179.884023844423
 31
0.4
1001
AUSTER_ANSICHT
1002
{
1000
Det03
1002
}
1001
AUSTER_FOLIE
1002
{
1000
NSB00753_S0
1002
}
  0
LINE
  5
408D
330
1F
100
AcDbEntity
  8
11000_Left
  6
Continuous
 62
     7
 48
10.0
370
    13
100
AcDbLine
 39
0.35
 10
254.172780504443
 20
179.884023844423
 30
0.4
 11
255.670180504443
 21
179.884023844423
 31
0.4
1001
AUSTER_ANSICHT
1002
{
1000
Det03
1002
}
1001
AUSTER_FOLIE
1002
{
1000
NSB00753_S0
1002
}
  0
LINE
  5
408E
330
1F
100
AcDbEntity
  8
11000_Left
  6
Continuous
 62
     7
 48
10.0
370
    13
100
AcDbLine
 39
0.35
 10
255.670180504443
 20
179.884023844423
 30
0.4
 11
255.670180504443
 21
178.7840238444229
 31
0.4
1001
AUSTER_ANSICHT
1002
{
1000
Det03
1002
}
1001
AUSTER_FOLIE
1002
{
1000
NSB00753_S0
1002
}
  0
LINE
  5
408F
330
1F
100
AcDbEntity
  8
11000_Left
  6
Continuous
 62
     7
 48
10.0
370
    50
100
AcDbLine
 39
0.35
 10
252.670180504443
 20
179.884023844423
 30
0.4
 11
252.670180504443
 21
177.884023844423
 31
0.4
1001
AUSTER_ANSICHT
1002
{
1000
Det03
1002
}
1001
AUSTER_FOLIE
1002
{
1000
NSB00753_S0
1002
}
  0
LINE
  5
4090
330
1F
100
AcDbEntity
  8
11000_Left
  6
Continuous
 62
     7
 48
10.0
370
    50
100
AcDbLine
 39
0.35
 10
259.634680504443
 20
176.5911338444229
 30
0.4
 11
260.755980504443
 21
175.4698138444229
 31
0.4
1001
AUSTER_ANSICHT
1002
{
1000
Det03
1002
}
1001
AUSTER_FOLIE
1002
{
1000
NSB00753_S0
1002
}
  0
LINE
  5
4091
330
1F
100
AcDbEntity
  8
11000_Left
  6
Continuous
 62
     7
 48
10.0
370
    50
100
AcDbLine
 39
0.35
 10
258.927580504443
 20
210.884023844423
 30
0.4
 11
253.470180504443
 21
210.884023844423
 31
0.4
1001
AUSTER_ANSICHT
1002
{
1000
Det03
1002
}
1001
AUSTER_FOLIE
1002
{
1000
NSB00753_S0
1002
}
  0
LINE
  5
4092
330
1F
100
AcDbEntity
  8
11000_Left
  6
Continuous
 62
     7
 48
10.0
370
    50
100
AcDbLine
 39
0.35
 10
252.670180504443
 20
210.084023844423
 30
0.4
 11
252.670180504443
 21
209.484023844423
 31
0.4
1001
AUSTER_ANSICHT
1002
{
1000
Det03
1002
}
1001
AUSTER_FOLIE
1002
{
1000
NSB00753_S0
1002
}
  0
LINE
  5
4093
330
1F
100
AcDbEntity
  8
11000_Left
  6
Continuous
 62
     7
 48
10.0
370
    50
100
AcDbLine
 39
0.35
 10
260.755980504443
 20
212.2982338444229
 30
0.4
 11
259.634680504443
 21
211.1769138444229
 31
0.4
1001
AUSTER_ANSICHT
1002
{
1000
Det03
1002
}
1001
AUSTER_FOLIE
1002
{
1000
NSB00753_S0
1002
}
  0
LINE
  5
4094
330
1F
100
AcDbEntity
  8
10000_Front
  6
DASHED
 62
     7
 48
10.0
370
     9
100
AcDbLine
 39
0.35
 10
67.8575708930553
 20
226.966517811874
 30
0.4
 11
109.7575708930553
 21
226.966437811874
 31
0.4
1001
AUSTER_ANSICHT
1002
{
1000
Det03
1002
}
1001
AUSTER_FOLIE
1002
{
1000
NSB00753_S0
1002
}
  0
LINE
  5
4095
330
1F
100
AcDbEntity
  8
10000_Front
  6
DASHED
 62
     7
 48
10.0
370
     9
100
AcDbLine
 39
0.35
 10
71.62187089305532
 20
168.8622078118739
 30
0.4
 11
73.89257089305532
 21
168.8622078118739
 31
0.4
1001
AUSTER_ANSICHT
1002
{
1000
Det03
1002
}
1001
AUSTER_FOLIE
1002
{
1000
NSB00753_S0
1002
}
  0
LINE
  5
4096
330
1F
100
AcDbEntity
  8
10000_Front
  6
DASHED
 62
     7
 48
10.0
370
     9
100
AcDbLine
 39
0.35
 10
74.92257089305529
 20
168.8622078118739
 30
0.4
 11
77.19327089305529
 21
168.8622078118739
 31
0.4
1001
AUSTER_ANSICHT
1002
{
1000
Det03
1002
}
1001
AUSTER_FOLIE
1002
{
1000
NSB00753_S0
1002
}
  0
LINE
  5
4097
330
1F
100
AcDbEntity
  8
10000_Front
  6
DASHED
 62
     7
 48
10.0
370
     9
100
AcDbLine
 39
0.35
 10
77.19327089305529
 20
170.0708278118739
 30
0.4
 11
74.92257089305529
 21
170.0708278118739
 31
0.4
1001
AUSTER_ANSICHT
1002
{
1000
Det03
1002
}
1001
AUSTER_FOLIE
1002
{
1000
NSB00753_S0
1002
}
  0
LINE
  5
4098
330
1F
100
AcDbEntity
  8
10000_Front
  6
DASHED
 62
     7
 48
10.0
370
     9
100
AcDbLine
 39
0.35
 10
73.89257089305532
 20
170.0708278118739
 30
0.4
 11
71.62187089305532
 21
170.0708278118739
 31
0.4
1001
AUSTER_ANSICHT
1002
{
1000
Det03
1002
}
1001
AUSTER_FOLIE
1002
{
1000
NSB00753_S0
1002
}
  0
LINE
  5
4099
330
1F
100
AcDbEntity
  8
10000_Front
  6
DASHED
 62
     7
 48
10.0
370
     9
100
AcDbLine
 39
0.35
 10
73.89257089305532
 20
171.2433878118739
 30
0.4
 11
73.89257089305532
 21
170.2510878118739
 31
0.4
1001
AUSTER_ANSICHT
1002
{
1000
Det03
1002
}
1001
AUSTER_FOLIE
1002
{
1000
NSB00753_S0
1002
}
  0
LINE
  5
409A
330
1F
100
AcDbEntity
  8
10000_Front
  6
DASHED
 62
     7
 48
10.0
370
     9
100
AcDbLine
 39
0.35
 10
74.92257089305529
 20
170.2510878118739
 30
0.4
 11
74.92257089305529
 21
171.2433878118739
 31
0.4
1001
AUSTER_ANSICHT
1002
{
1000
Det03
1002
}
1001
AUSTER_FOLIE
1002
{
1000
NSB00753_S0
1002
}
  0
LINE
  5
409B
330
1F
100
AcDbEntity
  8
10000_Front
  6
DASHED
 62
     7
 48
10.0
370
     9
100
AcDbLine
 39
0.35
 10
74.92257089305529
 20
167.6896478118739
 30
0.4
 11
74.92257089305529
 21
168.6819478118739
 31
0.4
1001
AUSTER_ANSICHT
1002
{
1000
Det03
1002
}
1001
AUSTER_FOLIE
1002
{
1000
NSB00753_S0
1002
}
  0
LINE
  5
409C
330
1F
100
AcDbEntity
  8
10000_Front
  6
DASHED
 62
     7
 48
10.0
370
     9
100
AcDbLine
 39
0.35
 10
73.89257089305532
 20
168.6819378118739
 30
0.4
 11
73.89257089305532
 21
167.6896478118739
 31
0.4
1001
AUSTER_ANSICHT
1002
{
1000
Det03
1002
}
1001
AUSTER_FOLIE
1002
{
1000
NSB00753_S0
1002
}
  0
LINE
  5
409D
330
1F
100
AcDbEntity
  8
10000_Front
  6
DASHED
 62
     7
 48
10.0
370
     9
100
AcDbLine
 39
0.35
 10
74.92257089305529
 20
170.2510978118739
 30
0.4
 11
74.92257089305529
 21
170.0708278118739
 31
0.4
1001
AUSTER_ANSICHT
1002
{
1000
Det03
1002
}
1001
AUSTER_FOLIE
1002
{
1000
NSB00753_S0
1002
}
  0
LINE
  5
409E
330
1F
100
AcDbEntity
  8
10000_Front
  6
DASHED
 62
     7
 48
10.0
370
     9
100
AcDbLine
 39
0.35
 10
74.92257089305529
 20
168.6819378118739
 30
0.4
 11
74.92257089305529
 21
168.8622078118739
 31
0.4
1001
AUSTER_ANSICHT
1002
{
1000
Det03
1002
}
1001
AUSTER_FOLIE
1002
{
1000
NSB00753_S0
1002
}
  0
LINE
  5
409F
330
1F
100
AcDbEntity
  8
10000_Front
  6
DASHED
 62
     7
 48
10.0
370
     9
100
AcDbLine
 39
0.35
 10
73.89257089305532
 20
170.2510878118739
 30
0.4
 11
73.89257089305532
 21
170.0708278118739
 31
0.4
1001
AUSTER_ANSICHT
1002
{
1000
Det03
1002
}
1001
AUSTER_FOLIE
1002
{
1000
NSB00753_S0
1002
}
  0
LINE
  5
40A0
330
1F
100
AcDbEntity
  8
10000_Front
  6
DASHED
 62
     7
 48
10.0
370
     9
100
AcDbLine
 39
0.35
 10
73.89257089305532
 20
168.6819378118739
 30
0.4
 11
73.89257089305532
 21
168.8622078118739
 31
0.4
1001
AUSTER_ANSICHT
1002
{
1000
Det03
1002
}
1001
AUSTER_FOLIE
1002
{
1000
NSB00753_S0
1002
}
  0
LINE
  5
40A1
330
1F
100
AcDbEntity
  8
10000_Front
  6
DASHED
 62
     7
 48
10.0
370
     9
100
AcDbLine
 39
0.35
 10
86.02187089305528
 20
168.8622078118739
 30
0.4
 11
88.2925708930553
 21
168.8622078118739
 31
0.4
1001
AUSTER_ANSICHT
1002
{
1000
Det03
1002
}
1001
AUSTER_FOLIE
1002
{
1000
NSB00753_S0
1002
}
  0
LINE
  5
40A2
330
1F
100
AcDbEntity
  8
10000_Front
  6
DASHED
 62
     7
 48
10.0
370
     9
100
AcDbLine
 39
0.35
 10
89.32257089305529
 20
168.8622078118739
 30
0.4
 11
91.59327089305531
 21
168.8622078118739
 31
0.4
1001
AUSTER_ANSICHT
1002
{
1000
Det03
1002
}
1001
AUSTER_FOLIE
1002
{
1000
NSB00753_S0
1002
}
  0
LINE
  5
40A3
330
1F
100
AcDbEntity
  8
10000_Front
  6
DASHED
 62
     7
 48
10.0
370
     9
100
AcDbLine
 39
0.35
 10
91.59327089305531
 20
170.0708278118739
 30
0.4
 11
89.32257089305529
 21
170.0708278118739
 31
0.4
1001
AUSTER_ANSICHT
1002
{
1000
Det03
1002
}
1001
AUSTER_FOLIE
1002
{
1000
NSB00753_S0
1002
}
  0
LINE
  5
40A4
330
1F
100
AcDbEntity
  8
10000_Front
  6
DASHED
 62
     7
 48
10.0
370
     9
100
AcDbLine
 39
0.35
 10
88.2925708930553
 20
170.0708278118739
 30
0.4
 11
86.02187089305528
 21
170.0708278118739
 31
0.4
1001
AUSTER_ANSICHT
1002
{
1000
Det03
1002
}
1001
AUSTER_FOLIE
1002
{
1000
NSB00753_S0
1002
}
  0
LINE
  5
40A5
330
1F
100
AcDbEntity
  8
10000_Front
  6
DASHED
 62
     7
 48
10.0
370
     9
100
AcDbLine
 39
0.35
 10
88.2925708930553
 20
171.2433878118739
 30
0.4
 11
88.2925708930553
 21
170.2510878118739
 31
0.4
1001
AUSTER_ANSICHT
1002
{
1000
Det03
1002
}
1001
AUSTER_FOLIE
1002
{
1000
NSB00753_S0
1002
}
  0
LINE
  5
40A6
330
1F
100
AcDbEntity
  8
10000_Front
  6
DASHED
 62
     7
 48
10.0
370
     9
100
AcDbLine
 39
0.35
 10
89.32257089305529
 20
170.2510878118739
 30
0.4
 11
89.32257089305529
 21
171.2433878118739
 31
0.4
1001
AUSTER_ANSICHT
1002
{
1000
Det03
1002
}
1001
AUSTER_FOLIE
1002
{
1000
NSB00753_S0
1002
}
  0
LINE
  5
40A7
330
1F
100
AcDbEntity
  8
10000_Front
  6
DASHED
 62
     7
 48
10.0
370
     9
100
AcDbLine
 39
0.35
 10
88.2925708930553
 20
168.6819378118739
 30
0.4
 11
88.2925708930553
 21
167.6896478118739
 31
0.4
1001
AUSTER_ANSICHT
1002
{
1000
Det03
1002
}
1001
AUSTER_FOLIE
1002
{
1000
NSB00753_S0
1002
}
  0
LINE
  5
40A8
330
1F
100
AcDbEntity
  8
10000_Front
  6
DASHED
 62
     7
 48
10.0
370
     9
100
AcDbLine
 39
0.35
 10
89.32257089305529
 20
170.2510978118739
 30
0.4
 11
89.32257089305529
 21
170.0708278118739
 31
0.4
1001
AUSTER_ANSICHT
1002
{
1000
Det03
1002
}
1001
AUSTER_FOLIE
1002
{
1000
NSB00753_S0
1002
}
  0
LINE
  5
40A9
330
1F
100
AcDbEntity
  8
10000_Front
  6
DASHED
 62
     7
 48
10.0
370
     9
100
AcDbLine
 39
0.35
 10
89.32257089305529
 20
168.6819378118739
 30
0.4
 11
89.32257089305529
 21
168.8622078118739
 31
0.4
1001
AUSTER_ANSICHT
1002
{
1000
Det03
1002
}
1001
AUSTER_FOLIE
1002
{
1000
NSB00753_S0
1002
}
  0
LINE
  5
40AA
330
1F
100
AcDbEntity
  8
10000_Front
  6
DASHED
 62
     7
 48
10.0
370
     9
100
AcDbLine
 39
0.35
 10
88.2925708930553
 20
170.2510878118739
 30
0.4
 11
88.2925708930553
 21
170.0708278118739
 31
0.4
1001
AUSTER_ANSICHT
1002
{
1000
Det03
1002
}
1001
AUSTER_FOLIE
1002
{
1000
NSB00753_S0
1002
}
  0
LINE
  5
40AB
330
1F
100
AcDbEntity
  8
10000_Front
  6
DASHED
 62
     7
 48
10.0
370
     9
100
AcDbLine
 39
0.35
 10
88.2925708930553
 20
168.6819378118739
 30
0.4
 11
88.2925708930553
 21
168.8622078118739
 31
0.4
1001
AUSTER_ANSICHT
1002
{
1000
Det03
1002
}
1001
AUSTER_FOLIE
1002
{
1000
NSB00753_S0
1002
}
  0
LINE
  5
40AC
330
1F
100
AcDbEntity
  8
10000_Front
  6
DASHED
 62
     7
 48
10.0
370
     9
100
AcDbLine
 39
0.35
 10
100.4218708930553
 20
168.8622078118739
 30
0.4
 11
102.6925708930553
 21
168.8622078118739
 31
0.4
1001
AUSTER_ANSICHT
1002
{
1000
Det03
1002
}
1001
AUSTER_FOLIE
1002
{
1000
NSB00753_S0
1002
}
  0
LINE
  5
40AD
330
1F
100
AcDbEntity
  8
10000_Front
  6
DASHED
 62
     7
 48
10.0
370
     9
100
AcDbLine
 39
0.35
 10
103.7225708930553
 20
168.8622078118739
 30
0.4
 11
105.9932708930553
 21
168.8622078118739
 31
0.4
1001
AUSTER_ANSICHT
1002
{
1000
Det03
1002
}
1001
AUSTER_FOLIE
1002
{
1000
NSB00753_S0
1002
}
  0
LINE
  5
40AE
330
1F
100
AcDbEntity
  8
10000_Front
  6
DASHED
 62
     7
 48
10.0
370
     9
100
AcDbLine
 39
0.35
 10
105.9932708930553
 20
170.0708278118739
 30
0.4
 11
103.7225708930553
 21
170.0708278118739
 31
0.4
1001
AUSTER_ANSICHT
1002
{
1000
Det03
1002
}
1001
AUSTER_FOLIE
1002
{
1000
NSB00753_S0
1002
}
  0
LINE
  5
40AF
330
1F
100
AcDbEntity
  8
10000_Front
  6
DASHED
 62
     7
 48
10.0
370
     9
100
AcDbLine
 39
0.35
 10
102.6925708930553
 20
170.0708278118739
 30
0.4
 11
100.4218708930553
 21
170.0708278118739
 31
0.4
1001
AUSTER_ANSICHT
1002
{
1000
Det03
1002
}
1001
AUSTER_FOLIE
1002
{
1000
NSB00753_S0
1002
}
  0
LINE
  5
40B0
330
1F
100
AcDbEntity
  8
10000_Front
  6
DASHED
 62
     7
 48
10.0
370
     9
100
AcDbLine
 39
0.35
 10
102.6925708930553
 20
171.2433878118739
 30
0.4
 11
102.6925708930553
 21
170.2510878118739
 31
0.4
1001
AUSTER_ANSICHT
1002
{
1000
Det03
1002
}
1001
AUSTER_FOLIE
1002
{
1000
NSB00753_S0
1002
}
  0
LINE
  5
40B1
330
1F
100
AcDbEntity
  8
10000_Front
  6
DASHED
 62
     7
 48
10.0
370
     9
100
AcDbLine
 39
0.35
 10
103.7225708930553
 20
170.2510878118739
 30
0.4
 11
103.7225708930553
 21
171.2433878118739
 31
0.4
1001
AUSTER_ANSICHT
1002
{
1000
Det03
1002
}
1001
AUSTER_FOLIE
1002
{
1000
NSB00753_S0
1002
}
  0
LINE
  5
40B2
330
1F
100
AcDbEntity
  8
10000_Front
  6
DASHED
 62
     7
 48
10.0
370
     9
100
AcDbLine
 39
0.35
 10
103.7225708930553
 20
167.6896478118739
 30
0.4
 11
103.7225708930553
 21
168.6819478118739
 31
0.4
1001
AUSTER_ANSICHT
1002
{
1000
Det03
1002
}
1001
AUSTER_FOLIE
1002
{
1000
NSB00753_S0
1002
}
  0
LINE
  5
40B3
330
1F
100
AcDbEntity
  8
10000_Front
  6
DASHED
 62
     7
 48
10.0
370
     9
100
AcDbLine
 39
0.35
 10
102.6925708930553
 20
168.6819378118739
 30
0.4
 11
102.6925708930553
 21
167.6896478118739
 31
0.4
1001
AUSTER_ANSICHT
1002
{
1000
Det03
1002
}
1001
AUSTER_FOLIE
1002
{
1000
NSB00753_S0
1002
}
  0
LINE
  5
40B4
330
1F
100
AcDbEntity
  8
10000_Front
  6
DASHED
 62
     7
 48
10.0
370
     9
100
AcDbLine
 39
0.35
 10
103.7225708930553
 20
170.2510978118739
 30
0.4
 11
103.7225708930553
 21
170.0708278118739
 31
0.4
1001
AUSTER_ANSICHT
1002
{
1000
Det03
1002
}
1001
AUSTER_FOLIE
1002
{
1000
NSB00753_S0
1002
}
  0
LINE
  5
40B5
330
1F
100
AcDbEntity
  8
10000_Front
  6
DASHED
 62
     7
 48
10.0
370
     9
100
AcDbLine
 39
0.35
 10
103.7225708930553
 20
168.6819378118739
 30
0.4
 11
103.7225708930553
 21
168.8622078118739
 31
0.4
1001
AUSTER_ANSICHT
1002
{
1000
Det03
1002
}
1001
AUSTER_FOLIE
1002
{
1000
NSB00753_S0
1002
}
  0
LINE
  5
40B6
330
1F
100
AcDbEntity
  8
10000_Front
  6
DASHED
 62
     7
 48
10.0
370
     9
100
AcDbLine
 39
0.35
 10
102.6925708930553
 20
170.2510878118739
 30
0.4
 11
102.6925708930553
 21
170.0708278118739
 31
0.4
1001
AUSTER_ANSICHT
1002
{
1000
Det03
1002
}
1001
AUSTER_FOLIE
1002
{
1000
NSB00753_S0
1002
}
  0
LINE
  5
40B7
330
1F
100
AcDbEntity
  8
10000_Front
  6
DASHED
 62
     7
 48
10.0
370
     9
100
AcDbLine
 39
0.35
 10
102.6925708930553
 20
168.6819378118739
 30
0.4
 11
102.6925708930553
 21
168.8622078118739
 31
0.4
1001
AUSTER_ANSICHT
1002
{
1000
Det03
1002
}
1001
AUSTER_FOLIE
1002
{
1000
NSB00753_S0
1002
}
  0
LINE
  5
40B8
330
1F
100
AcDbEntity
  8
10000_Front
  6
DASHED
 62
     7
 48
10.0
370
     9
100
AcDbLine
 39
0.35
 10
71.62187089305532
 20
218.0708278118739
 30
0.4
 11
73.89257089305532
 21
218.0708278118739
 31
0.4
1001
AUSTER_ANSICHT
1002
{
1000
Det03
1002
}
1001
AUSTER_FOLIE
1002
{
1000
NSB00753_S0
1002
}
  0
LINE
  5
40B9
330
1F
100
AcDbEntity
  8
10000_Front
  6
DASHED
 62
     7
 48
10.0
370
     9
100
AcDbLine
 39
0.35
 10
74.92257089305529
 20
218.0708278118739
 30
0.4
 11
77.19327089305529
 21
218.0708278118739
 31
0.4
1001
AUSTER_ANSICHT
1002
{
1000
Det03
1002
}
1001
AUSTER_FOLIE
1002
{
1000
NSB00753_S0
1002
}
  0
LINE
  5
40BA
330
1F
100
AcDbEntity
  8
10000_Front
  6
DASHED
 62
     7
 48
10.0
370
     9
100
AcDbLine
 39
0.35
 10
77.19327089305529
 20
216.8622078118739
 30
0.4
 11
74.92257089305529
 21
216.8622078118739
 31
0.4
1001
AUSTER_ANSICHT
1002
{
1000
Det03
1002
}
1001
AUSTER_FOLIE
1002
{
1000
NSB00753_S0
1002
}
  0
LINE
  5
40BB
330
1F
100
AcDbEntity
  8
10000_Front
  6
DASHED
 62
     7
 48
10.0
370
     9
100
AcDbLine
 39
0.35
 10
73.89257089305532
 20
216.8622078118739
 30
0.4
 11
71.62187089305532
 21
216.8622078118739
 31
0.4
1001
AUSTER_ANSICHT
1002
{
1000
Det03
1002
}
1001
AUSTER_FOLIE
1002
{
1000
NSB00753_S0
1002
}
  0
LINE
  5
40BC
330
1F
100
AcDbEntity
  8
10000_Front
  6
DASHED
 62
     7
 48
10.0
370
     9
100
AcDbLine
 39
0.35
 10
73.89257089305532
 20
215.6896478118739
 30
0.4
 11
73.89257089305532
 21
216.6819478118739
 31
0.4
1001
AUSTER_ANSICHT
1002
{
1000
Det03
1002
}
1001
AUSTER_FOLIE
1002
{
1000
NSB00753_S0
1002
}
  0
LINE
  5
40BD
330
1F
100
AcDbEntity
  8
10000_Front
  6
DASHED
 62
     7
 48
10.0
370
     9
100
AcDbLine
 39
0.35
 10
74.92257089305529
 20
216.6819478118739
 30
0.4
 11
74.92257089305529
 21
215.6896478118739
 31
0.4
1001
AUSTER_ANSICHT
1002
{
1000
Det03
1002
}
1001
AUSTER_FOLIE
1002
{
1000
NSB00753_S0
1002
}
  0
LINE
  5
40BE
330
1F
100
AcDbEntity
  8
10000_Front
  6
DASHED
 62
     7
 48
10.0
370
     9
100
AcDbLine
 39
0.35
 10
74.92257089305529
 20
219.243387811874
 30
0.4
 11
74.92257089305529
 21
218.251087811874
 31
0.4
1001
AUSTER_ANSICHT
1002
{
1000
Det03
1002
}
1001
AUSTER_FOLIE
1002
{
1000
NSB00753_S0
1002
}
  0
LINE
  5
40BF
330
1F
100
AcDbEntity
  8
10000_Front
  6
DASHED
 62
     7
 48
10.0
370
     9
100
AcDbLine
 39
0.35
 10
73.89257089305532
 20
218.2510978118739
 30
0.4
 11
73.89257089305532
 21
219.243387811874
 31
0.4
1001
AUSTER_ANSICHT
1002
{
1000
Det03
1002
}
1001
AUSTER_FOLIE
1002
{
1000
NSB00753_S0
1002
}
  0
LINE
  5
40C0
330
1F
100
AcDbEntity
  8
10000_Front
  6
DASHED
 62
     7
 48
10.0
370
     9
100
AcDbLine
 39
0.35
 10
74.92257089305529
 20
216.681937811874
 30
0.4
 11
74.92257089305529
 21
216.8622078118739
 31
0.4
1001
AUSTER_ANSICHT
1002
{
1000
Det03
1002
}
1001
AUSTER_FOLIE
1002
{
1000
NSB00753_S0
1002
}
  0
LINE
  5
40C1
330
1F
100
AcDbEntity
  8
10000_Front
  6
DASHED
 62
     7
 48
10.0
370
     9
100
AcDbLine
 39
0.35
 10
74.92257089305529
 20
218.2510978118739
 30
0.4
 11
74.92257089305529
 21
218.0708278118739
 31
0.4
1001
AUSTER_ANSICHT
1002
{
1000
Det03
1002
}
1001
AUSTER_FOLIE
1002
{
1000
NSB00753_S0
1002
}
  0
LINE
  5
40C2
330
1F
100
AcDbEntity
  8
10000_Front
  6
DASHED
 62
     7
 48
10.0
370
     9
100
AcDbLine
 39
0.35
 10
73.89257089305532
 20
216.6819478118739
 30
0.4
 11
73.89257089305532
 21
216.8622078118739
 31
0.4
1001
AUSTER_ANSICHT
1002
{
1000
Det03
1002
}
1001
AUSTER_FOLIE
1002
{
1000
NSB00753_S0
1002
}
  0
LINE
  5
40C3
330
1F
100
AcDbEntity
  8
10000_Front
  6
DASHED
 62
     7
 48
10.0
370
     9
100
AcDbLine
 39
0.35
 10
73.89257089305532
 20
218.2510978118739
 30
0.4
 11
73.89257089305532
 21
218.0708278118739
 31
0.4
1001
AUSTER_ANSICHT
1002
{
1000
Det03
1002
}
1001
AUSTER_FOLIE
1002
{
1000
NSB00753_S0
1002
}
  0
LINE
  5
40C4
330
1F
100
AcDbEntity
  8
10000_Front
  6
DASHED
 62
     7
 48
10.0
370
     9
100
AcDbLine
 39
0.35
 10
86.02187089305528
 20
218.0708278118739
 30
0.4
 11
88.2925708930553
 21
218.0708278118739
 31
0.4
1001
AUSTER_ANSICHT
1002
{
1000
Det03
1002
}
1001
AUSTER_FOLIE
1002
{
1000
NSB00753_S0
1002
}
  0
LINE
  5
40C5
330
1F
100
AcDbEntity
  8
10000_Front
  6
DASHED
 62
     7
 48
10.0
370
     9
100
AcDbLine
 39
0.35
 10
89.32257089305529
 20
218.0708278118739
 30
0.4
 11
91.59327089305531
 21
218.0708278118739
 31
0.4
1001
AUSTER_ANSICHT
1002
{
1000
Det03
1002
}
1001
AUSTER_FOLIE
1002
{
1000
NSB00753_S0
1002
}
  0
LINE
  5
40C6
330
1F
100
AcDbEntity
  8
10000_Front
  6
DASHED
 62
     7
 48
10.0
370
     9
100
AcDbLine
 39
0.35
 10
91.59327089305531
 20
216.8622078118739
 30
0.4
 11
89.32257089305529
 21
216.8622078118739
 31
0.4
1001
AUSTER_ANSICHT
1002
{
1000
Det03
1002
}
1001
AUSTER_FOLIE
1002
{
1000
NSB00753_S0
1002
}
  0
LINE
  5
40C7
330
1F
100
AcDbEntity
  8
10000_Front
  6
DASHED
 62
     7
 48
10.0
370
     9
100
AcDbLine
 39
0.35
 10
88.2925708930553
 20
216.8622078118739
 30
0.4
 11
86.02187089305528
 21
216.8622078118739
 31
0.4
1001
AUSTER_ANSICHT
1002
{
1000
Det03
1002
}
1001
AUSTER_FOLIE
1002
{
1000
NSB00753_S0
1002
}
  0
LINE
  5
40C8
330
1F
100
AcDbEntity
  8
10000_Front
  6
DASHED
 62
     7
 48
10.0
370
     9
100
AcDbLine
 39
0.35
 10
88.2925708930553
 20
215.6896478118739
 30
0.4
 11
88.2925708930553
 21
216.6819478118739
 31
0.4
1001
AUSTER_ANSICHT
1002
{
1000
Det03
1002
}
1001
AUSTER_FOLIE
1002
{
1000
NSB00753_S0
1002
}
  0
LINE
  5
40C9
330
1F
100
AcDbEntity
  8
10000_Front
  6
DASHED
 62
     7
 48
10.0
370
     9
100
AcDbLine
 39
0.35
 10
89.32257089305529
 20
216.6819478118739
 30
0.4
 11
89.32257089305529
 21
215.6896478118739
 31
0.4
1001
AUSTER_ANSICHT
1002
{
1000
Det03
1002
}
1001
AUSTER_FOLIE
1002
{
1000
NSB00753_S0
1002
}
  0
LINE
  5
40CA
330
1F
100
AcDbEntity
  8
10000_Front
  6
DASHED
 62
     7
 48
10.0
370
     9
100
AcDbLine
 39
0.35
 10
89.32257089305529
 20
219.243387811874
 30
0.4
 11
89.32257089305529
 21
218.251087811874
 31
0.4
1001
AUSTER_ANSICHT
1002
{
1000
Det03
1002
}
1001
AUSTER_FOLIE
1002
{
1000
NSB00753_S0
1002
}
  0
LINE
  5
40CB
330
1F
100
AcDbEntity
  8
10000_Front
  6
DASHED
 62
     7
 48
10.0
370
     9
100
AcDbLine
 39
0.35
 10
88.2925708930553
 20
218.2510978118739
 30
0.4
 11
88.2925708930553
 21
219.243387811874
 31
0.4
1001
AUSTER_ANSICHT
1002
{
1000
Det03
1002
}
1001
AUSTER_FOLIE
1002
{
1000
NSB00753_S0
1002
}
  0
LINE
  5
40CC
330
1F
100
AcDbEntity
  8
10000_Front
  6
DASHED
 62
     7
 48
10.0
370
     9
100
AcDbLine
 39
0.35
 10
89.32257089305529
 20
216.681937811874
 30
0.4
 11
89.32257089305529
 21
216.8622078118739
 31
0.4
1001
AUSTER_ANSICHT
1002
{
1000
Det03
1002
}
1001
AUSTER_FOLIE
1002
{
1000
NSB00753_S0
1002
}
  0
LINE
  5
40CD
330
1F
100
AcDbEntity
  8
10000_Front
  6
DASHED
 62
     7
 48
10.0
370
     9
100
AcDbLine
 39
0.35
 10
89.32257089305529
 20
218.2510978118739
 30
0.4
 11
89.32257089305529
 21
218.0708278118739
 31
0.4
1001
AUSTER_ANSICHT
1002
{
1000
Det03
1002
}
1001
AUSTER_FOLIE
1002
{
1000
NSB00753_S0
1002
}
  0
LINE
  5
40CE
330
1F
100
AcDbEntity
  8
10000_Front
  6
DASHED
 62
     7
 48
10.0
370
     9
100
AcDbLine
 39
0.35
 10
88.2925708930553
 20
216.6819478118739
 30
0.4
 11
88.2925708930553
 21
216.8622078118739
 31
0.4
1001
AUSTER_ANSICHT
1002
{
1000
Det03
1002
}
1001
AUSTER_FOLIE
1002
{
1000
NSB00753_S0
1002
}
  0
LINE
  5
40CF
330
1F
100
AcDbEntity
  8
10000_Front
  6
DASHED
 62
     7
 48
10.0
370
     9
100
AcDbLine
 39
0.35
 10
88.2925708930553
 20
218.2510978118739
 30
0.4
 11
88.2925708930553
 21
218.0708278118739
 31
0.4
1001
AUSTER_ANSICHT
1002
{
1000
Det03
1002
}
1001
AUSTER_FOLIE
1002
{
1000
NSB00753_S0
1002
}
  0
LINE
  5
40D0
330
1F
100
AcDbEntity
  8
10000_Front
  6
DASHED
 62
     7
 48
10.0
370
     9
100
AcDbLine
 39
0.35
 10
100.4218708930553
 20
218.0708278118739
 30
0.4
 11
102.6925708930553
 21
218.0708278118739
 31
0.4
1001
AUSTER_ANSICHT
1002
{
1000
Det03
1002
}
1001
AUSTER_FOLIE
1002
{
1000
NSB00753_S0
1002
}
  0
LINE
  5
40D1
330
1F
100
AcDbEntity
  8
10000_Front
  6
DASHED
 62
     7
 48
10.0
370
     9
100
AcDbLine
 39
0.35
 10
103.7225708930553
 20
218.0708278118739
 30
0.4
 11
105.9932708930553
 21
218.0708278118739
 31
0.4
1001
AUSTER_ANSICHT
1002
{
1000
Det03
1002
}
1001
AUSTER_FOLIE
1002
{
1000
NSB00753_S0
1002
}
  0
LINE
  5
40D2
330
1F
100
AcDbEntity
  8
10000_Front
  6
DASHED
 62
     7
 48
10.0
370
     9
100
AcDbLine
 39
0.35
 10
105.9932708930553
 20
216.8622078118739
 30
0.4
 11
103.7225708930553
 21
216.8622078118739
 31
0.4
1001
AUSTER_ANSICHT
1002
{
1000
Det03
1002
}
1001
AUSTER_FOLIE
1002
{
1000
NSB00753_S0
1002
}
  0
LINE
  5
40D3
330
1F
100
AcDbEntity
  8
10000_Front
  6
DASHED
 62
     7
 48
10.0
370
     9
100
AcDbLine
 39
0.35
 10
102.6925708930553
 20
216.8622078118739
 30
0.4
 11
100.4218708930553
 21
216.8622078118739
 31
0.4
1001
AUSTER_ANSICHT
1002
{
1000
Det03
1002
}
1001
AUSTER_FOLIE
1002
{
1000
NSB00753_S0
1002
}
  0
LINE
  5
40D4
330
1F
100
AcDbEntity
  8
10000_Front
  6
DASHED
 62
     7
 48
10.0
370
     9
100
AcDbLine
 39
0.35
 10
102.6925708930553
 20
215.6896478118739
 30
0.4
 11
102.6925708930553
 21
216.6819478118739
 31
0.4
1001
AUSTER_ANSICHT
1002
{
1000
Det03
1002
}
1001
AUSTER_FOLIE
1002
{
1000
NSB00753_S0
1002
}
  0
LINE
  5
40D5
330
1F
100
AcDbEntity
  8
10000_Front
  6
DASHED
 62
     7
 48
10.0
370
     9
100
AcDbLine
 39
0.35
 10
103.7225708930553
 20
216.6819478118739
 30
0.4
 11
103.7225708930553
 21
215.6896478118739
 31
0.4
1001
AUSTER_ANSICHT
1002
{
1000
Det03
1002
}
1001
AUSTER_FOLIE
1002
{
1000
NSB00753_S0
1002
}
  0
LINE
  5
40D6
330
1F
100
AcDbEntity
  8
10000_Front
  6
DASHED
 62
     7
 48
10.0
370
     9
100
AcDbLine
 39
0.35
 10
103.7225708930553
 20
219.243387811874
 30
0.4
 11
103.7225708930553
 21
218.251087811874
 31
0.4
1001
AUSTER_ANSICHT
1002
{
1000
Det03
1002
}
1001
AUSTER_FOLIE
1002
{
1000
NSB00753_S0
1002
}
  0
LINE
  5
40D7
330
1F
100
AcDbEntity
  8
10000_Front
  6
DASHED
 62
     7
 48
10.0
370
     9
100
AcDbLine
 39
0.35
 10
102.6925708930553
 20
218.2510978118739
 30
0.4
 11
102.6925708930553
 21
219.243387811874
 31
0.4
1001
AUSTER_ANSICHT
1002
{
1000
Det03
1002
}
1001
AUSTER_FOLIE
1002
{
1000
NSB00753_S0
1002
}
  0
LINE
  5
40D8
330
1F
100
AcDbEntity
  8
10000_Front
  6
DASHED
 62
     7
 48
10.0
370
     9
100
AcDbLine
 39
0.35
 10
103.7225708930553
 20
216.681937811874
 30
0.4
 11
103.7225708930553
 21
216.8622078118739
 31
0.4
1001
AUSTER_ANSICHT
1002
{
1000
Det03
1002
}
1001
AUSTER_FOLIE
1002
{
1000
NSB00753_S0
1002
}
  0
LINE
  5
40D9
330
1F
100
AcDbEntity
  8
10000_Front
  6
DASHED
 62
     7
 48
10.0
370
     9
100
AcDbLine
 39
0.35
 10
103.7225708930553
 20
218.2510978118739
 30
0.4
 11
103.7225708930553
 21
218.0708278118739
 31
0.4
1001
AUSTER_ANSICHT
1002
{
1000
Det03
1002
}
1001
AUSTER_FOLIE
1002
{
1000
NSB00753_S0
1002
}
  0
LINE
  5
40DA
330
1F
100
AcDbEntity
  8
10000_Front
  6
DASHED
 62
     7
 48
10.0
370
     9
100
AcDbLine
 39
0.35
 10
102.6925708930553
 20
216.6819478118739
 30
0.4
 11
102.6925708930553
 21
216.8622078118739
 31
0.4
1001
AUSTER_ANSICHT
1002
{
1000
Det03
1002
}
1001
AUSTER_FOLIE
1002
{
1000
NSB00753_S0
1002
}
  0
LINE
  5
40DB
330
1F
100
AcDbEntity
  8
10000_Front
  6
DASHED
 62
     7
 48
10.0
370
     9
100
AcDbLine
 39
0.35
 10
102.6925708930553
 20
218.2510978118739
 30
0.4
 11
102.6925708930553
 21
218.0708278118739
 31
0.4
1001
AUSTER_ANSICHT
1002
{
1000
Det03
1002
}
1001
AUSTER_FOLIE
1002
{
1000
NSB00753_S0
1002
}
  0
LINE
  5
40DC
330
1F
100
AcDbEntity
  8
10000_Front
  6
DASHED
 62
     7
 48
10.0
370
     9
100
AcDbLine
 39
0.35
 10
72.0246708930553
 20
228.3389178118739
 30
0.4
 11
74.29537089305529
 21
228.3389178118739
 31
0.4
1001
AUSTER_ANSICHT
1002
{
1000
Det03
1002
}
1001
AUSTER_FOLIE
1002
{
1000
NSB00753_S0
1002
}
  0
LINE
  5
40DD
330
1F
100
AcDbEntity
  8
10000_Front
  6
DASHED
 62
     7
 48
10.0
370
     9
100
AcDbLine
 39
0.35
 10
75.32537089305532
 20
228.3389178118739
 30
0.4
 11
77.59607089305531
 21
228.3389178118739
 31
0.4
1001
AUSTER_ANSICHT
1002
{
1000
Det03
1002
}
1001
AUSTER_FOLIE
1002
{
1000
NSB00753_S0
1002
}
  0
LINE
  5
40DE
330
1F
100
AcDbEntity
  8
10000_Front
  6
DASHED
 62
     7
 48
10.0
370
     9
100
AcDbLine
 39
0.35
 10
77.59607089305531
 20
227.1303078118739
 30
0.4
 11
75.32537089305532
 21
227.1303078118739
 31
0.4
1001
AUSTER_ANSICHT
1002
{
1000
Det03
1002
}
1001
AUSTER_FOLIE
1002
{
1000
NSB00753_S0
1002
}
  0
LINE
  5
40DF
330
1F
100
AcDbEntity
  8
10000_Front
  6
DASHED
 62
     7
 48
10.0
370
     9
100
AcDbLine
 39
0.35
 10
74.29537089305529
 20
227.1303078118739
 30
0.4
 11
72.0246708930553
 21
227.1303078118739
 31
0.4
1001
AUSTER_ANSICHT
1002
{
1000
Det03
1002
}
1001
AUSTER_FOLIE
1002
{
1000
NSB00753_S0
1002
}
  0
LINE
  5
40E0
330
1F
100
AcDbEntity
  8
10000_Front
  6
DASHED
 62
     7
 48
10.0
370
     9
100
AcDbLine
 39
0.35
 10
75.32537089305532
 20
229.511487811874
 30
0.4
 11
75.32537089305532
 21
228.519187811874
 31
0.4
1001
AUSTER_ANSICHT
1002
{
1000
Det03
1002
}
1001
AUSTER_FOLIE
1002
{
1000
NSB00753_S0
1002
}
  0
LINE
  5
40E1
330
1F
100
AcDbEntity
  8
10000_Front
  6
DASHED
 62
     7
 48
10.0
370
     9
100
AcDbLine
 39
0.35
 10
74.29537089305529
 20
228.519187811874
 30
0.4
 11
74.29537089305529
 21
229.511487811874
 31
0.4
1001
AUSTER_ANSICHT
1002
{
1000
Det03
1002
}
1001
AUSTER_FOLIE
1002
{
1000
NSB00753_S0
1002
}
  0
LINE
  5
40E2
330
1F
100
AcDbEntity
  8
10000_Front
  6
DASHED
 62
     7
 48
10.0
370
     9
100
AcDbLine
 39
0.35
 10
75.32537089305532
 20
226.950037811874
 30
0.4
 11
75.32537089305532
 21
227.1303078118739
 31
0.4
1001
AUSTER_ANSICHT
1002
{
1000
Det03
1002
}
1001
AUSTER_FOLIE
1002
{
1000
NSB00753_S0
1002
}
  0
LINE
  5
40E3
330
1F
100
AcDbEntity
  8
10000_Front
  6
DASHED
 62
     7
 48
10.0
370
     9
100
AcDbLine
 39
0.35
 10
75.32537089305532
 20
228.519187811874
 30
0.4
 11
75.32537089305532
 21
228.3389178118739
 31
0.4
1001
AUSTER_ANSICHT
1002
{
1000
Det03
1002
}
1001
AUSTER_FOLIE
1002
{
1000
NSB00753_S0
1002
}
  0
LINE
  5
40E4
330
1F
100
AcDbEntity
  8
10000_Front
  6
DASHED
 62
     7
 48
10.0
370
     9
100
AcDbLine
 39
0.35
 10
74.29537089305529
 20
226.950037811874
 30
0.4
 11
74.29537089305529
 21
227.1303078118739
 31
0.4
1001
AUSTER_ANSICHT
1002
{
1000
Det03
1002
}
1001
AUSTER_FOLIE
1002
{
1000
NSB00753_S0
1002
}
  0
LINE
  5
40E5
330
1F
100
AcDbEntity
  8
10000_Front
  6
DASHED
 62
     7
 48
10.0
370
     9
100
AcDbLine
 39
0.35
 10
74.29537089305529
 20
228.519187811874
 30
0.4
 11
74.29537089305529
 21
228.3389178118739
 31
0.4
1001
AUSTER_ANSICHT
1002
{
1000
Det03
1002
}
1001
AUSTER_FOLIE
1002
{
1000
NSB00753_S0
1002
}
  0
LINE
  5
40E6
330
1F
100
AcDbEntity
  8
10000_Front
  6
DASHED
 62
     7
 48
10.0
370
     9
100
AcDbLine
 39
0.35
 10
105.5960708930553
 20
228.3389178118739
 30
0.4
 11
103.3253708930553
 21
228.3389178118739
 31
0.4
1001
AUSTER_ANSICHT
1002
{
1000
Det03
1002
}
1001
AUSTER_FOLIE
1002
{
1000
NSB00753_S0
1002
}
  0
LINE
  5
40E7
330
1F
100
AcDbEntity
  8
10000_Front
  6
DASHED
 62
     7
 48
10.0
370
     9
100
AcDbLine
 39
0.35
 10
102.2953708930553
 20
228.3389178118739
 30
0.4
 11
100.0246708930553
 21
228.3389178118739
 31
0.4
1001
AUSTER_ANSICHT
1002
{
1000
Det03
1002
}
1001
AUSTER_FOLIE
1002
{
1000
NSB00753_S0
1002
}
  0
LINE
  5
40E8
330
1F
100
AcDbEntity
  8
10000_Front
  6
DASHED
 62
     7
 48
10.0
370
     9
100
AcDbLine
 39
0.35
 10
100.0246708930553
 20
227.1303078118739
 30
0.4
 11
102.2953708930553
 21
227.1303078118739
 31
0.4
1001
AUSTER_ANSICHT
1002
{
1000
Det03
1002
}
1001
AUSTER_FOLIE
1002
{
1000
NSB00753_S0
1002
}
  0
LINE
  5
40E9
330
1F
100
AcDbEntity
  8
10000_Front
  6
DASHED
 62
     7
 48
10.0
370
     9
100
AcDbLine
 39
0.35
 10
103.3253708930553
 20
227.1303078118739
 30
0.4
 11
105.5960708930553
 21
227.1303078118739
 31
0.4
1001
AUSTER_ANSICHT
1002
{
1000
Det03
1002
}
1001
AUSTER_FOLIE
1002
{
1000
NSB00753_S0
1002
}
  0
LINE
  5
40EA
330
1F
100
AcDbEntity
  8
10000_Front
  6
DASHED
 62
     7
 48
10.0
370
     9
100
AcDbLine
 39
0.35
 10
102.2953708930553
 20
229.511487811874
 30
0.4
 11
102.2953708930553
 21
228.519187811874
 31
0.4
1001
AUSTER_ANSICHT
1002
{
1000
Det03
1002
}
1001
AUSTER_FOLIE
1002
{
1000
NSB00753_S0
1002
}
  0
LINE
  5
40EB
330
1F
100
AcDbEntity
  8
10000_Front
  6
DASHED
 62
     7
 48
10.0
370
     9
100
AcDbLine
 39
0.35
 10
103.3253708930553
 20
228.519187811874
 30
0.4
 11
103.3253708930553
 21
229.511487811874
 31
0.4
1001
AUSTER_ANSICHT
1002
{
1000
Det03
1002
}
1001
AUSTER_FOLIE
1002
{
1000
NSB00753_S0
1002
}
  0
LINE
  5
40EC
330
1F
100
AcDbEntity
  8
10000_Front
  6
DASHED
 62
     7
 48
10.0
370
     9
100
AcDbLine
 39
0.35
 10
102.2953708930553
 20
226.950037811874
 30
0.4
 11
102.2953708930553
 21
227.1303078118739
 31
0.4
1001
AUSTER_ANSICHT
1002
{
1000
Det03
1002
}
1001
AUSTER_FOLIE
1002
{
1000
NSB00753_S0
1002
}
  0
LINE
  5
40ED
330
1F
100
AcDbEntity
  8
10000_Front
  6
DASHED
 62
     7
 48
10.0
370
     9
100
AcDbLine
 39
0.35
 10
102.2953708930553
 20
228.519187811874
 30
0.4
 11
102.2953708930553
 21
228.3389178118739
 31
0.4
1001
AUSTER_ANSICHT
1002
{
1000
Det03
1002
}
1001
AUSTER_FOLIE
1002
{
1000
NSB00753_S0
1002
}
  0
LINE
  5
40EE
330
1F
100
AcDbEntity
  8
10000_Front
  6
DASHED
 62
     7
 48
10.0
370
     9
100
AcDbLine
 39
0.35
 10
103.3253708930553
 20
226.950037811874
 30
0.4
 11
103.3253708930553
 21
227.1303078118739
 31
0.4
1001
AUSTER_ANSICHT
1002
{
1000
Det03
1002
}
1001
AUSTER_FOLIE
1002
{
1000
NSB00753_S0
1002
}
  0
LINE
  5
40EF
330
1F
100
AcDbEntity
  8
10000_Front
  6
DASHED
 62
     7
 48
10.0
370
     9
100
AcDbLine
 39
0.35
 10
103.3253708930553
 20
228.519187811874
 30
0.4
 11
103.3253708930553
 21
228.3389178118739
 31
0.4
1001
AUSTER_ANSICHT
1002
{
1000
Det03
1002
}
1001
AUSTER_FOLIE
1002
{
1000
NSB00753_S0
1002
}
  0
LINE
  5
40F0
330
1F
100
AcDbEntity
  8
10000_Front
  6
DASHED
 62
     7
 48
10.0
370
     9
100
AcDbLine
 39
0.35
 10
72.0246708930553
 20
158.5941178118739
 30
0.4
 11
74.29537089305529
 21
158.5941178118739
 31
0.4
1001
AUSTER_ANSICHT
1002
{
1000
Det03
1002
}
1001
AUSTER_FOLIE
1002
{
1000
NSB00753_S0
1002
}
  0
LINE
  5
40F1
330
1F
100
AcDbEntity
  8
10000_Front
  6
DASHED
 62
     7
 48
10.0
370
     9
100
AcDbLine
 39
0.35
 10
75.32537089305532
 20
158.5941178118739
 30
0.4
 11
77.59607089305531
 21
158.5941178118739
 31
0.4
1001
AUSTER_ANSICHT
1002
{
1000
Det03
1002
}
1001
AUSTER_FOLIE
1002
{
1000
NSB00753_S0
1002
}
  0
LINE
  5
40F2
330
1F
100
AcDbEntity
  8
10000_Front
  6
DASHED
 62
     7
 48
10.0
370
     9
100
AcDbLine
 39
0.35
 10
77.59607089305531
 20
159.8027278118739
 30
0.4
 11
75.32537089305532
 21
159.8027278118739
 31
0.4
1001
AUSTER_ANSICHT
1002
{
1000
Det03
1002
}
1001
AUSTER_FOLIE
1002
{
1000
NSB00753_S0
1002
}
  0
LINE
  5
40F3
330
1F
100
AcDbEntity
  8
10000_Front
  6
DASHED
 62
     7
 48
10.0
370
     9
100
AcDbLine
 39
0.35
 10
74.29537089305529
 20
159.8027278118739
 30
0.4
 11
72.0246708930553
 21
159.8027278118739
 31
0.4
1001
AUSTER_ANSICHT
1002
{
1000
Det03
1002
}
1001
AUSTER_FOLIE
1002
{
1000
NSB00753_S0
1002
}
  0
LINE
  5
40F4
330
1F
100
AcDbEntity
  8
10000_Front
  6
DASHED
 62
     7
 48
10.0
370
     9
100
AcDbLine
 39
0.35
 10
75.32537089305532
 20
157.4215478118739
 30
0.4
 11
75.32537089305532
 21
158.4138478118739
 31
0.4
1001
AUSTER_ANSICHT
1002
{
1000
Det03
1002
}
1001
AUSTER_FOLIE
1002
{
1000
NSB00753_S0
1002
}
  0
LINE
  5
40F5
330
1F
100
AcDbEntity
  8
10000_Front
  6
DASHED
 62
     7
 48
10.0
370
     9
100
AcDbLine
 39
0.35
 10
74.29537089305529
 20
158.4138478118739
 30
0.4
 11
74.29537089305529
 21
157.4215478118739
 31
0.4
1001
AUSTER_ANSICHT
1002
{
1000
Det03
1002
}
1001
AUSTER_FOLIE
1002
{
1000
NSB00753_S0
1002
}
  0
LINE
  5
40F6
330
1F
100
AcDbEntity
  8
10000_Front
  6
DASHED
 62
     7
 48
10.0
370
     9
100
AcDbLine
 39
0.35
 10
75.32537089305532
 20
159.982997811874
 30
0.4
 11
75.32537089305532
 21
159.8027278118739
 31
0.4
1001
AUSTER_ANSICHT
1002
{
1000
Det03
1002
}
1001
AUSTER_FOLIE
1002
{
1000
NSB00753_S0
1002
}
  0
LINE
  5
40F7
330
1F
100
AcDbEntity
  8
10000_Front
  6
DASHED
 62
     7
 48
10.0
370
     9
100
AcDbLine
 39
0.35
 10
75.32537089305532
 20
158.4138478118739
 30
0.4
 11
75.32537089305532
 21
158.5941178118739
 31
0.4
1001
AUSTER_ANSICHT
1002
{
1000
Det03
1002
}
1001
AUSTER_FOLIE
1002
{
1000
NSB00753_S0
1002
}
  0
LINE
  5
40F8
330
1F
100
AcDbEntity
  8
10000_Front
  6
DASHED
 62
     7
 48
10.0
370
     9
100
AcDbLine
 39
0.35
 10
74.29537089305529
 20
159.982997811874
 30
0.4
 11
74.29537089305529
 21
159.8027278118739
 31
0.4
1001
AUSTER_ANSICHT
1002
{
1000
Det03
1002
}
1001
AUSTER_FOLIE
1002
{
1000
NSB00753_S0
1002
}
  0
LINE
  5
40F9
330
1F
100
AcDbEntity
  8
10000_Front
  6
DASHED
 62
     7
 48
10.0
370
     9
100
AcDbLine
 39
0.35
 10
74.29537089305529
 20
158.4138478118739
 30
0.4
 11
74.29537089305529
 21
158.5941178118739
 31
0.4
1001
AUSTER_ANSICHT
1002
{
1000
Det03
1002
}
1001
AUSTER_FOLIE
1002
{
1000
NSB00753_S0
1002
}
  0
LINE
  5
40FA
330
1F
100
AcDbEntity
  8
10000_Front
  6
DASHED
 62
     7
 48
10.0
370
     9
100
AcDbLine
 39
0.35
 10
105.5960708930553
 20
158.5941178118739
 30
0.4
 11
103.3253708930553
 21
158.5941178118739
 31
0.4
1001
AUSTER_ANSICHT
1002
{
1000
Det03
1002
}
1001
AUSTER_FOLIE
1002
{
1000
NSB00753_S0
1002
}
  0
LINE
  5
40FB
330
1F
100
AcDbEntity
  8
10000_Front
  6
DASHED
 62
     7
 48
10.0
370
     9
100
AcDbLine
 39
0.35
 10
102.2953708930553
 20
158.5941178118739
 30
0.4
 11
100.0246708930553
 21
158.5941178118739
 31
0.4
1001
AUSTER_ANSICHT
1002
{
1000
Det03
1002
}
1001
AUSTER_FOLIE
1002
{
1000
NSB00753_S0
1002
}
  0
LINE
  5
40FC
330
1F
100
AcDbEntity
  8
10000_Front
  6
DASHED
 62
     7
 48
10.0
370
     9
100
AcDbLine
 39
0.35
 10
100.0246708930553
 20
159.8027278118739
 30
0.4
 11
102.2953708930553
 21
159.8027278118739
 31
0.4
1001
AUSTER_ANSICHT
1002
{
1000
Det03
1002
}
1001
AUSTER_FOLIE
1002
{
1000
NSB00753_S0
1002
}
  0
LINE
  5
40FD
330
1F
100
AcDbEntity
  8
10000_Front
  6
DASHED
 62
     7
 48
10.0
370
     9
100
AcDbLine
 39
0.35
 10
103.3253708930553
 20
159.8027278118739
 30
0.4
 11
105.5960708930553
 21
159.8027278118739
 31
0.4
1001
AUSTER_ANSICHT
1002
{
1000
Det03
1002
}
1001
AUSTER_FOLIE
1002
{
1000
NSB00753_S0
1002
}
  0
LINE
  5
40FE
330
1F
100
AcDbEntity
  8
10000_Front
  6
DASHED
 62
     7
 48
10.0
370
     9
100
AcDbLine
 39
0.35
 10
102.2953708930553
 20
157.4215478118739
 30
0.4
 11
102.2953708930553
 21
158.4138478118739
 31
0.4
1001
AUSTER_ANSICHT
1002
{
1000
Det03
1002
}
1001
AUSTER_FOLIE
1002
{
1000
NSB00753_S0
1002
}
  0
LINE
  5
40FF
330
1F
100
AcDbEntity
  8
10000_Front
  6
DASHED
 62
     7
 48
10.0
370
     9
100
AcDbLine
 39
0.35
 10
103.3253708930553
 20
158.4138478118739
 30
0.4
 11
103.3253708930553
 21
157.4215478118739
 31
0.4
1001
AUSTER_ANSICHT
1002
{
1000
Det03
1002
}
1001
AUSTER_FOLIE
1002
{
1000
NSB00753_S0
1002
}
  0
LINE
  5
4100
330
1F
100
AcDbEntity
  8
10000_Front
  6
DASHED
 62
     7
 48
10.0
370
     9
100
AcDbLine
 39
0.35
 10
102.2953708930553
 20
159.982997811874
 30
0.4
 11
102.2953708930553
 21
159.8027278118739
 31
0.4
1001
AUSTER_ANSICHT
1002
{
1000
Det03
1002
}
1001
AUSTER_FOLIE
1002
{
1000
NSB00753_S0
1002
}
  0
LINE
  5
4101
330
1F
100
AcDbEntity
  8
10000_Front
  6
DASHED
 62
     7
 48
10.0
370
     9
100
AcDbLine
 39
0.35
 10
102.2953708930553
 20
158.4138478118739
 30
0.4
 11
102.2953708930553
 21
158.5941178118739
 31
0.4
1001
AUSTER_ANSICHT
1002
{
1000
Det03
1002
}
1001
AUSTER_FOLIE
1002
{
1000
NSB00753_S0
1002
}
  0
LINE
  5
4102
330
1F
100
AcDbEntity
  8
10000_Front
  6
DASHED
 62
     7
 48
10.0
370
     9
100
AcDbLine
 39
0.35
 10
103.3253708930553
 20
159.982997811874
 30
0.4
 11
103.3253708930553
 21
159.8027278118739
 31
0.4
1001
AUSTER_ANSICHT
1002
{
1000
Det03
1002
}
1001
AUSTER_FOLIE
1002
{
1000
NSB00753_S0
1002
}
  0
LINE
  5
4103
330
1F
100
AcDbEntity
  8
10000_Front
  6
DASHED
 62
     7
 48
10.0
370
     9
100
AcDbLine
 39
0.35
 10
103.3253708930553
 20
158.4138478118739
 30
0.4
 11
103.3253708930553
 21
158.5941178118739
 31
0.4
1001
AUSTER_ANSICHT
1002
{
1000
Det03
1002
}
1001
AUSTER_FOLIE
1002
{
1000
NSB00753_S0
1002
}
  0
LINE
  5
4104
330
1F
100
AcDbEntity
  8
10000_Front
  6
DASHED
 62
     7
 48
10.0
370
     9
100
AcDbLine
 39
0.35
 10
95.48597089305529
 20
229.191517811874
 30
0.4
 11
95.3111708930553
 21
226.966617811874
 31
0.4
1001
AUSTER_ANSICHT
1002
{
1000
Det03
1002
}
1001
AUSTER_FOLIE
1002
{
1000
NSB00753_S0
1002
}
  0
LINE
  5
4105
330
1F
100
AcDbEntity
  8
10000_Front
  6
DASHED
 62
     7
 48
10.0
370
     9
100
AcDbLine
 39
0.35
 10
96.5324708930553
 20
229.150057811874
 30
0.4
 11
96.70397089305531
 21
226.966457811874
 31
0.4
1001
AUSTER_ANSICHT
1002
{
1000
Det03
1002
}
1001
AUSTER_FOLIE
1002
{
1000
NSB00753_S0
1002
}
  0
LINE
  5
4106
330
1F
100
AcDbEntity
  8
10000_Front
  6
DASHED
 62
     7
 48
10.0
370
     9
100
AcDbLine
 39
0.35
 10
95.7849708930553
 20
229.466517811874
 30
0.4
 11
96.2302708930553
 21
229.466517811874
 31
0.4
1001
AUSTER_ANSICHT
1002
{
1000
Det03
1002
}
1001
AUSTER_FOLIE
1002
{
1000
NSB00753_S0
1002
}
  0
LINE
  5
4107
330
1F
100
AcDbEntity
  8
10000_Front
  6
DASHED
 62
     7
 48
10.0
370
     9
100
AcDbLine
 39
0.35
 10
67.7369708930553
 20
229.199317811874
 30
0.4
 11
67.87257089305531
 21
227.966517811874
 31
0.4
1001
AUSTER_ANSICHT
1002
{
1000
Det03
1002
}
1001
AUSTER_FOLIE
1002
{
1000
NSB00753_S0
1002
}
  0
LINE
  5
4108
330
1F
100
AcDbEntity
  8
10000_Front
  6
DASHED
 62
     7
 48
10.0
370
     9
100
AcDbLine
 39
0.35
 10
67.87257089305531
 20
227.966517811874
 30
0.4
 11
67.98247089305532
 21
226.9679578118739
 31
0.4
1001
AUSTER_ANSICHT
1002
{
1000
Det03
1002
}
1001
AUSTER_FOLIE
1002
{
1000
NSB00753_S0
1002
}
  0
LINE
  5
4109
330
1F
100
AcDbEntity
  8
10000_Front
  6
DASHED
 62
     7
 48
10.0
370
     9
100
AcDbLine
 39
0.35
 10
82.1291708930553
 20
229.191517811874
 30
0.4
 11
82.30397089305531
 21
226.966617811874
 31
0.4
1001
AUSTER_ANSICHT
1002
{
1000
Det03
1002
}
1001
AUSTER_FOLIE
1002
{
1000
NSB00753_S0
1002
}
  0
LINE
  5
410A
330
1F
100
AcDbEntity
  8
10000_Front
  6
DASHED
 62
     7
 48
10.0
370
     9
100
AcDbLine
 39
0.35
 10
81.08277089305529
 20
229.150057811874
 30
0.4
 11
80.91117089305532
 21
226.966457811874
 31
0.4
1001
AUSTER_ANSICHT
1002
{
1000
Det03
1002
}
1001
AUSTER_FOLIE
1002
{
1000
NSB00753_S0
1002
}
  0
LINE
  5
410B
330
1F
100
AcDbEntity
  8
10000_Front
  6
DASHED
 62
     7
 48
10.0
370
     9
100
AcDbLine
 39
0.35
 10
81.83027089305531
 20
229.466517811874
 30
0.4
 11
81.38497089305529
 21
229.466517811874
 31
0.4
1001
AUSTER_ANSICHT
1002
{
1000
Det03
1002
}
1001
AUSTER_FOLIE
1002
{
1000
NSB00753_S0
1002
}
  0
LINE
  5
410C
330
1F
100
AcDbEntity
  8
10000_Front
  6
DASHED
 62
     7
 48
10.0
370
     9
100
AcDbLine
 39
0.35
 10
95.48597089305529
 20
157.7415178118739
 30
0.4
 11
95.3111708930553
 21
159.9664178118739
 31
0.4
1001
AUSTER_ANSICHT
1002
{
1000
Det03
1002
}
1001
AUSTER_FOLIE
1002
{
1000
NSB00753_S0
1002
}
  0
LINE
  5
410D
330
1F
100
AcDbEntity
  8
10000_Front
  6
DASHED
 62
     7
 48
10.0
370
     9
100
AcDbLine
 39
0.35
 10
96.5324708930553
 20
157.7829778118739
 30
0.4
 11
96.70397089305531
 21
159.9665778118739
 31
0.4
1001
AUSTER_ANSICHT
1002
{
1000
Det03
1002
}
1001
AUSTER_FOLIE
1002
{
1000
NSB00753_S0
1002
}
  0
LINE
  5
410E
330
1F
100
AcDbEntity
  8
10000_Front
  6
DASHED
 62
     7
 48
10.0
370
     9
100
AcDbLine
 39
0.35
 10
95.7849708930553
 20
157.466517811874
 30
0.4
 11
96.2302708930553
 21
157.466517811874
 31
0.4
1001
AUSTER_ANSICHT
1002
{
1000
Det03
1002
}
1001
AUSTER_FOLIE
1002
{
1000
NSB00753_S0
1002
}
  0
LINE
  5
410F
330
1F
100
AcDbEntity
  8
10000_Front
  6
DASHED
 62
     7
 48
10.0
370
     9
100
AcDbLine
 39
0.35
 10
82.1291708930553
 20
157.7415178118739
 30
0.4
 11
82.30397089305531
 21
159.9664178118739
 31
0.4
1001
AUSTER_ANSICHT
1002
{
1000
Det03
1002
}
1001
AUSTER_FOLIE
1002
{
1000
NSB00753_S0
1002
}
  0
LINE
  5
4110
330
1F
100
AcDbEntity
  8
10000_Front
  6
DASHED
 62
     7
 48
10.0
370
     9
100
AcDbLine
 39
0.35
 10
81.08277089305529
 20
157.7829778118739
 30
0.4
 11
80.91117089305532
 21
159.9665778118739
 31
0.4
1001
AUSTER_ANSICHT
1002
{
1000
Det03
1002
}
1001
AUSTER_FOLIE
1002
{
1000
NSB00753_S0
1002
}
  0
LINE
  5
4111
330
1F
100
AcDbEntity
  8
10000_Front
  6
DASHED
 62
     7
 48
10.0
370
     9
100
AcDbLine
 39
0.35
 10
81.83027089305531
 20
157.466517811874
 30
0.4
 11
81.38497089305529
 21
157.466517811874
 31
0.4
1001
AUSTER_ANSICHT
1002
{
1000
Det03
1002
}
1001
AUSTER_FOLIE
1002
{
1000
NSB00753_S0
1002
}
  0
LINE
  5
4112
330
1F
100
AcDbEntity
  8
10000_Front
  6
DASHED
 62
     7
 48
10.0
370
     9
100
AcDbLine
 39
0.35
 10
109.8781708930553
 20
229.199317811874
 30
0.4
 11
109.7425708930553
 21
227.966517811874
 31
0.4
1001
AUSTER_ANSICHT
1002
{
1000
Det03
1002
}
1001
AUSTER_FOLIE
1002
{
1000
NSB00753_S0
1002
}
  0
LINE
  5
4113
330
1F
100
AcDbEntity
  8
10000_Front
  6
DASHED
 62
     7
 48
10.0
370
     9
100
AcDbLine
 39
0.35
 10
109.7425708930553
 20
227.966517811874
 30
0.4
 11
109.6327708930553
 21
226.9679578118739
 31
0.4
1001
AUSTER_ANSICHT
1002
{
1000
Det03
1002
}
1001
AUSTER_FOLIE
1002
{
1000
NSB00753_S0
1002
}
  0
LINE
  5
418A
330
1F
100
AcDbEntity
  8
11000_Left
  6
DASHED
 62
     7
 48
10.0
370
     9
100
AcDbLine
 39
0.35
 10
194.070180504443
 20
233.884023844423
 30
0.4
 11
207.570180504443
 21
233.884023844423
 31
0.4
1001
AUSTER_ANSICHT
1002
{
1000
Det03
1002
}
1001
AUSTER_FOLIE
1002
{
1000
NSB00753_S0
1002
}
  0
LINE
  5
418B
330
1F
100
AcDbEntity
  8
11000_Left
  6
DASHED
 62
     7
 48
10.0
370
     9
100
AcDbLine
 39
0.35
 10
193.070180504443
 20
226.384023844423
 30
0.4
 11
179.970180504443
 21
226.384023844423
 31
0.4
1001
AUSTER_ANSICHT
1002
{
1000
Det03
1002
}
1001
AUSTER_FOLIE
1002
{
1000
NSB00753_S0
1002
}
  0
LINE
  5
418C
330
1F
100
AcDbEntity
  8
11000_Left
  6
DASHED
 62
     7
 48
10.0
370
     9
100
AcDbLine
 39
0.35
 10
194.070180504443
 20
153.884023844423
 30
0.4
 11
207.570180504443
 21
153.884023844423
 31
0.4
1001
AUSTER_ANSICHT
1002
{
1000
Det03
1002
}
1001
AUSTER_FOLIE
1002
{
1000
NSB00753_S0
1002
}
  0
LINE
  5
41FC
330
1F
100
AcDbEntity
  8
10000_Front
  6
DASHED
 62
     7
 48
10.0
370
     9
100
AcDbLine
 39
0.35
 10
89.32257089305529
 20
167.6896478118739
 30
0.4
 11
89.32257089305529
 21
168.6819478118739
 31
0.4
1001
AUSTER_ANSICHT
1002
{
1000
Det03
1002
}
1001
AUSTER_FOLIE
1002
{
1000
NSB00753_S0
1002
}
  0
LINE
  5
42BC
330
1F
100
AcDbEntity
  8
10000_Front
  6
DASHED
 62
     7
 48
10.0
370
     9
100
AcDbLine
 39
0.35
 10
67.85756666798384
 20
159.9666038410405
 30
0.4
 11
109.7575751181268
 21
159.9666038410405
 31
0.4
1001
AUSTER_ANSICHT
1002
{
1000
Det03
1002
}
1001
AUSTER_FOLIE
1002
{
1000
NSB00753_S0
1002
}
  0
ARC
  5
42F3
330
1F
100
AcDbEntity
  8
11000_Left
  6
DASHED
 62
     7
 48
10.0
370
     9
100
AcDbCircle
 39
0.35
 10
182.670180504443
 20
162.8840438444229
 30
0.4
 40
1.5
100
AcDbArc
 50
180.0
 51
270.0
1001
AUSTER_ANSICHT
1002
{
1000
Det03
1002
}
1001
AUSTER_FOLIE
1002
{
1000
NSB00753_S0
1002
}
  0
ARC
  5
42F4
330
1F
100
AcDbEntity
  8
11000_Left
  6
DASHED
 62
     7
 48
10.0
370
     9
100
AcDbCircle
 39
0.35
 10
180.170180504443
 20
166.0840238444229
 30
0.4
 40
1.0
100
AcDbArc
 50
0.0
 51
90.0
1001
AUSTER_ANSICHT
1002
{
1000
Det03
1002
}
1001
AUSTER_FOLIE
1002
{
1000
NSB00753_S0
1002
}
  0
ARC
  5
42F5
330
1F
100
AcDbEntity
  8
11000_Left
  6
DASHED
 62
     7
 48
10.0
370
     9
100
AcDbCircle
 39
0.35
 10
209.970180504443
 20
229.084023844423
 30
0.4
 40
0.8
100
AcDbArc
 50
90.0
 51
180.0
1001
AUSTER_ANSICHT
1002
{
1000
Det03
1002
}
1001
AUSTER_FOLIE
1002
{
1000
NSB00753_S0
1002
}
  0
ARC
  5
42F6
330
1F
100
AcDbEntity
  8
11000_Left
  6
DASHED
 62
     7
 48
10.0
370
     9
100
AcDbCircle
 39
0.35
 10
209.970180504443
 20
158.6840238444229
 30
0.4
 40
0.8
100
AcDbArc
 50
180.0
 51
270.0
1001
AUSTER_ANSICHT
1002
{
1000
Det03
1002
}
1001
AUSTER_FOLIE
1002
{
1000
NSB00753_S0
1002
}
  0
ARC
  5
42F7
330
1F
100
AcDbEntity
  8
11000_Left
  6
DASHED
 62
     7
 48
10.0
370
     9
100
AcDbCircle
 39
0.35
 10
209.670180504443
 20
155.3840238444229
 30
0.4
 40
1.5
100
AcDbArc
 50
270.0
 51
0.0
1001
AUSTER_ANSICHT
1002
{
1000
Det03
1002
}
1001
AUSTER_FOLIE
1002
{
1000
NSB00753_S0
1002
}
  0
ARC
  5
42F8
330
1F
100
AcDbEntity
  8
11000_Left
  6
DASHED
 62
     7
 48
10.0
370
     9
100
AcDbCircle
 39
0.35
 10
209.670180504443
 20
232.384023844423
 30
0.4
 40
1.5
100
AcDbArc
 50
0.0
 51
90.0
1001
AUSTER_ANSICHT
1002
{
1000
Det03
1002
}
1001
AUSTER_FOLIE
1002
{
1000
NSB00753_S0
1002
}
  0
ARC
  5
42F9
330
1F
100
AcDbEntity
  8
11000_Left
  6
DASHED
 62
     7
 48
10.0
370
     9
100
AcDbCircle
 39
0.35
 10
165.4701805044429
 20
158.2840238444229
 30
0.4
 40
0.4
100
AcDbArc
 50
270.0
 51
0.0
1001
AUSTER_ANSICHT
1002
{
1000
Det03
1002
}
1001
AUSTER_FOLIE
1002
{
1000
NSB00753_S0
1002
}
  0
ARC
  5
42FE
330
1F
100
AcDbEntity
  8
11000_Left
  6
Continuous
 62
     7
 48
10.0
370
    13
100
AcDbCircle
 39
0.35
 10
249.670180504443
 20
210.3839138444229
 30
0.4
 40
0.5
100
AcDbArc
 50
90.0
 51
180.0
1001
AUSTER_ANSICHT
1002
{
1000
Det03
1002
}
1001
AUSTER_FOLIE
1002
{
1000
NSB00753_S0
1002
}
  0
ARC
  5
42FF
330
1F
100
AcDbEntity
  8
11000_Left
  6
Continuous
 62
     7
 48
10.0
370
    13
100
AcDbCircle
 39
0.35
 10
256.670180504443
 20
211.3839138444229
 30
0.4
 40
0.5
100
AcDbArc
 50
268.3634000000001
 51
0.0
1001
AUSTER_ANSICHT
1002
{
1000
Det03
1002
}
1001
AUSTER_FOLIE
1002
{
1000
NSB00753_S0
1002
}
  0
ARC
  5
4300
330
1F
100
AcDbEntity
  8
11000_Left
  6
Continuous
 62
     7
 48
10.0
370
    50
100
AcDbCircle
 39
0.35
 10
93.070780504443
 20
193.884023844423
 30
0.4
 40
200.0
100
AcDbArc
 50
1.289263999999884
 51
5.242094999999411
1001
AUSTER_ANSICHT
1002
{
1000
Det03
1002
}
1001
AUSTER_FOLIE
1002
{
1000
NSB00753_S0
1002
}
  0
ARC
  5
4301
330
1F
100
AcDbEntity
  8
11000_Left
  6
Continuous
 62
     7
 48
10.0
370
    50
100
AcDbCircle
 39
0.35
 10
93.070780504443
 20
193.884023844423
 30
0.4
 40
200.0
100
AcDbArc
 50
354.7579000000003
 51
358.7107000000005
1001
AUSTER_ANSICHT
1002
{
1000
Det03
1002
}
1001
AUSTER_FOLIE
1002
{
1000
NSB00753_S0
1002
}
  0
ARC
  5
4302
330
1F
100
AcDbEntity
  8
11000_Left
  6
Continuous
 62
     7
 48
10.0
370
    50
100
AcDbCircle
 39
0.35
 10
291.437680504443
 20
212.084023844423
 30
0.4
 40
0.8
100
AcDbArc
 50
5.224302000001058
 51
90.0
1001
AUSTER_ANSICHT
1002
{
1000
Det03
1002
}
1001
AUSTER_FOLIE
1002
{
1000
NSB00753_S0
1002
}
  0
ARC
  5
4303
330
1F
100
AcDbEntity
  8
11000_Left
  6
Continuous
 62
     7
 48
10.0
370
    50
100
AcDbCircle
 39
0.35
 10
291.437680504443
 20
175.6840238444229
 30
0.4
 40
0.8
100
AcDbArc
 50
270.0
 51
354.7757000000016
1001
AUSTER_ANSICHT
1002
{
1000
Det03
1002
}
1001
AUSTER_FOLIE
1002
{
1000
NSB00753_S0
1002
}
  0
ARC
  5
4304
330
1F
100
AcDbEntity
  8
11000_Left
  6
DASHED
 62
     7
 48
10.0
370
     9
100
AcDbCircle
 39
0.35
 10
249.470180504443
 20
181.0082838444229
 30
0.4
 40
0.3
100
AcDbArc
 50
180.0
 51
225.0000000000003
1001
AUSTER_ANSICHT
1002
{
1000
Det03
1002
}
1001
AUSTER_FOLIE
1002
{
1000
NSB00753_S0
1002
}
  0
ARC
  5
4305
330
1F
100
AcDbEntity
  8
11000_Left
  6
Continuous
 62
     7
 48
10.0
370
    50
100
AcDbCircle
 39
0.35
 10
253.670180504443
 20
177.884023844423
 30
0.4
 40
1.0
100
AcDbArc
 50
180.0
 51
270.0
1001
AUSTER_ANSICHT
1002
{
1000
Det03
1002
}
1001
AUSTER_FOLIE
1002
{
1000
NSB00753_S0
1002
}
  0
ARC
  5
4306
330
1F
100
AcDbEntity
  8
11000_Left
  6
Continuous
 62
     7
 48
10.0
370
    50
100
AcDbCircle
 39
0.35
 10
258.927580504443
 20
175.884023844423
 30
0.4
 40
1.0
100
AcDbArc
 50
45.00000000000028
 51
90.0
1001
AUSTER_ANSICHT
1002
{
1000
Det03
1002
}
1001
AUSTER_FOLIE
1002
{
1000
NSB00753_S0
1002
}
  0
ARC
  5
4307
330
1F
100
AcDbEntity
  8
11000_Left
  6
Continuous
 62
     7
 48
10.0
370
    50
100
AcDbCircle
 39
0.35
 10
262.170180504443
 20
176.884023844423
 30
0.4
 40
2.0
100
AcDbArc
 50
225.0000000000003
 51
270.0
1001
AUSTER_ANSICHT
1002
{
1000
Det03
1002
}
1001
AUSTER_FOLIE
1002
{
1000
NSB00753_S0
1002
}
  0
ARC
  5
4308
330
1F
100
AcDbEntity
  8
11000_Left
  6
Continuous
 62
     7
 48
10.0
370
    50
100
AcDbCircle
 39
0.35
 10
253.470180504443
 20
210.084023844423
 30
0.4
 40
0.8
100
AcDbArc
 50
90.0
 51
180.0
1001
AUSTER_ANSICHT
1002
{
1000
Det03
1002
}
1001
AUSTER_FOLIE
1002
{
1000
NSB00753_S0
1002
}
  0
ARC
  5
4309
330
1F
100
AcDbEntity
  8
11000_Left
  6
Continuous
 62
     7
 48
10.0
370
    50
100
AcDbCircle
 39
0.35
 10
258.927580504443
 20
211.884023844423
 30
0.4
 40
1.0
100
AcDbArc
 50
270.0
 51
314.9999999999998
1001
AUSTER_ANSICHT
1002
{
1000
Det03
1002
}
1001
AUSTER_FOLIE
1002
{
1000
NSB00753_S0
1002
}
  0
ARC
  5
430A
330
1F
100
AcDbEntity
  8
11000_Left
  6
Continuous
 62
     7
 48
10.0
370
    50
100
AcDbCircle
 39
0.35
 10
262.170180504443
 20
210.884023844423
 30
0.4
 40
2.0
100
AcDbArc
 50
90.0
 51
134.9999999999997
1001
AUSTER_ANSICHT
1002
{
1000
Det03
1002
}
1001
AUSTER_FOLIE
1002
{
1000
NSB00753_S0
1002
}
  0
CIRCLE
  5
430B
330
1F
100
AcDbEntity
  8
10000_Front
  6
DASHED
 62
     7
 48
10.0
370
     9
100
AcDbCircle
 39
0.35
 10
74.40757089305532
 20
169.466517811874
 30
0.4
 40
3.1
1001
AUSTER_ANSICHT
1002
{
1000
Det03
1002
}
1001
AUSTER_FOLIE
1002
{
1000
NSB00753_S0
1002
}
  0
CIRCLE
  5
430C
330
1F
100
AcDbEntity
  8
10000_Front
  6
DASHED
 62
     7
 48
10.0
370
     9
100
AcDbCircle
 39
0.35
 10
74.40757089305532
 20
217.466517811874
 30
0.4
 40
3.1
1001
AUSTER_ANSICHT
1002
{
1000
Det03
1002
}
1001
AUSTER_FOLIE
1002
{
1000
NSB00753_S0
1002
}
  0
ARC
  5
430D
330
1F
100
AcDbEntity
  8
10000_Front
  6
DASHED
 62
     7
 48
10.0
370
     9
100
AcDbCircle
 39
0.35
 10
109.7578708930553
 20
225.466727811874
 30
0.4
 40
1.499704
100
AcDbArc
 50
359.9918999999981
 51
90.01129999999976
1001
AUSTER_ANSICHT
1002
{
1000
Det03
1002
}
1001
AUSTER_FOLIE
1002
{
1000
NSB00753_S0
1002
}
  0
ARC
  5
430E
330
1F
100
AcDbEntity
  8
10000_Front
  6
DASHED
 62
     7
 48
10.0
370
     9
100
AcDbCircle
 39
0.35
 10
74.40757089305532
 20
169.466517811874
 30
0.4
 40
2.850490999999998
100
AcDbArc
 50
167.7603999999988
 51
192.2396000000011
1001
AUSTER_ANSICHT
1002
{
1000
Det03
1002
}
1001
AUSTER_FOLIE
1002
{
1000
NSB00753_S0
1002
}
  0
ARC
  5
430F
330
1F
100
AcDbEntity
  8
10000_Front
  6
DASHED
 62
     7
 48
10.0
370
     9
100
AcDbCircle
 39
0.35
 10
74.40757089305532
 20
169.466517811874
 30
0.4
 40
1.85
100
AcDbArc
 50
73.8365499999998
 51
106.1634000000003
1001
AUSTER_ANSICHT
1002
{
1000
Det03
1002
}
1001
AUSTER_FOLIE
1002
{
1000
NSB00753_S0
1002
}
  0
ARC
  5
4310
330
1F
100
AcDbEntity
  8
10000_Front
  6
DASHED
 62
     7
 48
10.0
370
     9
100
AcDbCircle
 39
0.35
 10
74.40757089305532
 20
169.466517811874
 30
0.4
 40
1.85
100
AcDbArc
 50
253.8365999999997
 51
286.1634000000003
1001
AUSTER_ANSICHT
1002
{
1000
Det03
1002
}
1001
AUSTER_FOLIE
1002
{
1000
NSB00753_S0
1002
}
  0
ARC
  5
4311
330
1F
100
AcDbEntity
  8
10000_Front
  6
DASHED
 62
     7
 48
10.0
370
     9
100
AcDbCircle
 39
0.35
 10
74.40757089305532
 20
169.466517811874
 30
0.4
 40
2.850490999999998
100
AcDbArc
 50
347.7603999999987
 51
12.23960000000117
1001
AUSTER_ANSICHT
1002
{
1000
Det03
1002
}
1001
AUSTER_FOLIE
1002
{
1000
NSB00753_S0
1002
}
  0
CIRCLE
  5
4312
330
1F
100
AcDbEntity
  8
10000_Front
  6
DASHED
 62
     7
 48
10.0
370
     9
100
AcDbCircle
 39
0.35
 10
74.40757089305532
 20
169.466517811874
 30
0.4
 40
3.1
1001
AUSTER_ANSICHT
1002
{
1000
Det03
1002
}
1001
AUSTER_FOLIE
1002
{
1000
NSB00753_S0
1002
}
  0
CIRCLE
  5
4313
330
1F
100
AcDbEntity
  8
10000_Front
  6
DASHED
 62
     7
 48
10.0
370
     9
100
AcDbCircle
 39
0.35
 10
88.8075708930553
 20
169.466517811874
 30
0.4
 40
3.1
1001
AUSTER_ANSICHT
1002
{
1000
Det03
1002
}
1001
AUSTER_FOLIE
1002
{
1000
NSB00753_S0
1002
}
  0
ARC
  5
4314
330
1F
100
AcDbEntity
  8
10000_Front
  6
DASHED
 62
     7
 48
10.0
370
     9
100
AcDbCircle
 39
0.35
 10
88.8075708930553
 20
169.466517811874
 30
0.4
 40
2.850490999999998
100
AcDbArc
 50
167.7603999999988
 51
192.2396000000011
1001
AUSTER_ANSICHT
1002
{
1000
Det03
1002
}
1001
AUSTER_FOLIE
1002
{
1000
NSB00753_S0
1002
}
  0
ARC
  5
4315
330
1F
100
AcDbEntity
  8
10000_Front
  6
DASHED
 62
     7
 48
10.0
370
     9
100
AcDbCircle
 39
0.35
 10
88.8075708930553
 20
169.466517811874
 30
0.4
 40
1.85
100
AcDbArc
 50
73.8365499999998
 51
106.1634000000003
1001
AUSTER_ANSICHT
1002
{
1000
Det03
1002
}
1001
AUSTER_FOLIE
1002
{
1000
NSB00753_S0
1002
}
  0
ARC
  5
4316
330
1F
100
AcDbEntity
  8
10000_Front
  6
DASHED
 62
     7
 48
10.0
370
     9
100
AcDbCircle
 39
0.35
 10
88.8075708930553
 20
169.466517811874
 30
0.4
 40
1.85
100
AcDbArc
 50
253.8365999999997
 51
286.1634000000003
1001
AUSTER_ANSICHT
1002
{
1000
Det03
1002
}
1001
AUSTER_FOLIE
1002
{
1000
NSB00753_S0
1002
}
  0
ARC
  5
4317
330
1F
100
AcDbEntity
  8
10000_Front
  6
DASHED
 62
     7
 48
10.0
370
     9
100
AcDbCircle
 39
0.35
 10
88.8075708930553
 20
169.466517811874
 30
0.4
 40
2.850490999999998
100
AcDbArc
 50
347.7603999999987
 51
12.23960000000117
1001
AUSTER_ANSICHT
1002
{
1000
Det03
1002
}
1001
AUSTER_FOLIE
1002
{
1000
NSB00753_S0
1002
}
  0
CIRCLE
  5
4318
330
1F
100
AcDbEntity
  8
10000_Front
  6
DASHED
 62
     7
 48
10.0
370
     9
100
AcDbCircle
 39
0.35
 10
88.8075708930553
 20
169.466517811874
 30
0.4
 40
3.1
1001
AUSTER_ANSICHT
1002
{
1000
Det03
1002
}
1001
AUSTER_FOLIE
1002
{
1000
NSB00753_S0
1002
}
  0
CIRCLE
  5
4319
330
1F
100
AcDbEntity
  8
10000_Front
  6
DASHED
 62
     7
 48
10.0
370
     9
100
AcDbCircle
 39
0.35
 10
103.2075708930553
 20
169.466517811874
 30
0.4
 40
3.1
1001
AUSTER_ANSICHT
1002
{
1000
Det03
1002
}
1001
AUSTER_FOLIE
1002
{
1000
NSB00753_S0
1002
}
  0
ARC
  5
431A
330
1F
100
AcDbEntity
  8
10000_Front
  6
DASHED
 62
     7
 48
10.0
370
     9
100
AcDbCircle
 39
0.35
 10
103.2075708930553
 20
169.466517811874
 30
0.4
 40
2.850490999999998
100
AcDbArc
 50
167.7603999999988
 51
192.2396000000011
1001
AUSTER_ANSICHT
1002
{
1000
Det03
1002
}
1001
AUSTER_FOLIE
1002
{
1000
NSB00753_S0
1002
}
  0
ARC
  5
431B
330
1F
100
AcDbEntity
  8
10000_Front
  6
DASHED
 62
     7
 48
10.0
370
     9
100
AcDbCircle
 39
0.35
 10
103.2075708930553
 20
169.466517811874
 30
0.4
 40
1.85
100
AcDbArc
 50
73.8365499999998
 51
106.1634000000003
1001
AUSTER_ANSICHT
1002
{
1000
Det03
1002
}
1001
AUSTER_FOLIE
1002
{
1000
NSB00753_S0
1002
}
  0
ARC
  5
431C
330
1F
100
AcDbEntity
  8
10000_Front
  6
DASHED
 62
     7
 48
10.0
370
     9
100
AcDbCircle
 39
0.35
 10
103.2075708930553
 20
169.466517811874
 30
0.4
 40
1.85
100
AcDbArc
 50
253.8365999999997
 51
286.1634000000003
1001
AUSTER_ANSICHT
1002
{
1000
Det03
1002
}
1001
AUSTER_FOLIE
1002
{
1000
NSB00753_S0
1002
}
  0
ARC
  5
431D
330
1F
100
AcDbEntity
  8
10000_Front
  6
DASHED
 62
     7
 48
10.0
370
     9
100
AcDbCircle
 39
0.35
 10
103.2075708930553
 20
169.466517811874
 30
0.4
 40
2.850490999999998
100
AcDbArc
 50
347.7603999999987
 51
12.23960000000117
1001
AUSTER_ANSICHT
1002
{
1000
Det03
1002
}
1001
AUSTER_FOLIE
1002
{
1000
NSB00753_S0
1002
}
  0
CIRCLE
  5
431E
330
1F
100
AcDbEntity
  8
10000_Front
  6
DASHED
 62
     7
 48
10.0
370
     9
100
AcDbCircle
 39
0.35
 10
103.2075708930553
 20
169.466517811874
 30
0.4
 40
3.1
1001
AUSTER_ANSICHT
1002
{
1000
Det03
1002
}
1001
AUSTER_FOLIE
1002
{
1000
NSB00753_S0
1002
}
  0
ARC
  5
431F
330
1F
100
AcDbEntity
  8
10000_Front
  6
DASHED
 62
     7
 48
10.0
370
     9
100
AcDbCircle
 39
0.35
 10
74.40757089305532
 20
217.466517811874
 30
0.4
 40
2.850490999999998
100
AcDbArc
 50
167.7603999999988
 51
192.2396000000011
1001
AUSTER_ANSICHT
1002
{
1000
Det03
1002
}
1001
AUSTER_FOLIE
1002
{
1000
NSB00753_S0
1002
}
  0
ARC
  5
4320
330
1F
100
AcDbEntity
  8
10000_Front
  6
DASHED
 62
     7
 48
10.0
370
     9
100
AcDbCircle
 39
0.35
 10
74.40757089305532
 20
217.466517811874
 30
0.4
 40
1.85
100
AcDbArc
 50
253.8365999999997
 51
286.1634000000003
1001
AUSTER_ANSICHT
1002
{
1000
Det03
1002
}
1001
AUSTER_FOLIE
1002
{
1000
NSB00753_S0
1002
}
  0
ARC
  5
4321
330
1F
100
AcDbEntity
  8
10000_Front
  6
DASHED
 62
     7
 48
10.0
370
     9
100
AcDbCircle
 39
0.35
 10
74.40757089305532
 20
217.466517811874
 30
0.4
 40
1.85
100
AcDbArc
 50
73.8365499999998
 51
106.1634000000003
1001
AUSTER_ANSICHT
1002
{
1000
Det03
1002
}
1001
AUSTER_FOLIE
1002
{
1000
NSB00753_S0
1002
}
  0
ARC
  5
4322
330
1F
100
AcDbEntity
  8
10000_Front
  6
DASHED
 62
     7
 48
10.0
370
     9
100
AcDbCircle
 39
0.35
 10
74.40757089305532
 20
217.466517811874
 30
0.4
 40
2.850490999999998
100
AcDbArc
 50
347.7603999999987
 51
12.23960000000117
1001
AUSTER_ANSICHT
1002
{
1000
Det03
1002
}
1001
AUSTER_FOLIE
1002
{
1000
NSB00753_S0
1002
}
  0
CIRCLE
  5
4323
330
1F
100
AcDbEntity
  8
10000_Front
  6
DASHED
 62
     7
 48
10.0
370
     9
100
AcDbCircle
 39
0.35
 10
74.40757089305532
 20
217.466517811874
 30
0.4
 40
3.1
1001
AUSTER_ANSICHT
1002
{
1000
Det03
1002
}
1001
AUSTER_FOLIE
1002
{
1000
NSB00753_S0
1002
}
  0
CIRCLE
  5
4324
330
1F
100
AcDbEntity
  8
10000_Front
  6
DASHED
 62
     7
 48
10.0
370
     9
100
AcDbCircle
 39
0.35
 10
88.8075708930553
 20
217.466517811874
 30
0.4
 40
3.1
1001
AUSTER_ANSICHT
1002
{
1000
Det03
1002
}
1001
AUSTER_FOLIE
1002
{
1000
NSB00753_S0
1002
}
  0
ARC
  5
4325
330
1F
100
AcDbEntity
  8
10000_Front
  6
DASHED
 62
     7
 48
10.0
370
     9
100
AcDbCircle
 39
0.35
 10
88.8075708930553
 20
217.466517811874
 30
0.4
 40
2.850490999999998
100
AcDbArc
 50
167.7603999999988
 51
192.2396000000011
1001
AUSTER_ANSICHT
1002
{
1000
Det03
1002
}
1001
AUSTER_FOLIE
1002
{
1000
NSB00753_S0
1002
}
  0
ARC
  5
4326
330
1F
100
AcDbEntity
  8
10000_Front
  6
DASHED
 62
     7
 48
10.0
370
     9
100
AcDbCircle
 39
0.35
 10
88.8075708930553
 20
217.466517811874
 30
0.4
 40
1.85
100
AcDbArc
 50
253.8365999999997
 51
286.1634000000003
1001
AUSTER_ANSICHT
1002
{
1000
Det03
1002
}
1001
AUSTER_FOLIE
1002
{
1000
NSB00753_S0
1002
}
  0
ARC
  5
4327
330
1F
100
AcDbEntity
  8
10000_Front
  6
DASHED
 62
     7
 48
10.0
370
     9
100
AcDbCircle
 39
0.35
 10
88.8075708930553
 20
217.466517811874
 30
0.4
 40
1.85
100
AcDbArc
 50
73.8365499999998
 51
106.1634000000003
1001
AUSTER_ANSICHT
1002
{
1000
Det03
1002
}
1001
AUSTER_FOLIE
1002
{
1000
NSB00753_S0
1002
}
  0
ARC
  5
4328
330
1F
100
AcDbEntity
  8
10000_Front
  6
DASHED
 62
     7
 48
10.0
370
     9
100
AcDbCircle
 39
0.35
 10
88.8075708930553
 20
217.466517811874
 30
0.4
 40
2.850490999999998
100
AcDbArc
 50
347.7603999999987
 51
12.23960000000117
1001
AUSTER_ANSICHT
1002
{
1000
Det03
1002
}
1001
AUSTER_FOLIE
1002
{
1000
NSB00753_S0
1002
}
  0
CIRCLE
  5
4329
330
1F
100
AcDbEntity
  8
10000_Front
  6
DASHED
 62
     7
 48
10.0
370
     9
100
AcDbCircle
 39
0.35
 10
88.8075708930553
 20
217.466517811874
 30
0.4
 40
3.1
1001
AUSTER_ANSICHT
1002
{
1000
Det03
1002
}
1001
AUSTER_FOLIE
1002
{
1000
NSB00753_S0
1002
}
  0
CIRCLE
  5
432A
330
1F
100
AcDbEntity
  8
10000_Front
  6
DASHED
 62
     7
 48
10.0
370
     9
100
AcDbCircle
 39
0.35
 10
103.2075708930553
 20
217.466517811874
 30
0.4
 40
3.1
1001
AUSTER_ANSICHT
1002
{
1000
Det03
1002
}
1001
AUSTER_FOLIE
1002
{
1000
NSB00753_S0
1002
}
  0
ARC
  5
432B
330
1F
100
AcDbEntity
  8
10000_Front
  6
DASHED
 62
     7
 48
10.0
370
     9
100
AcDbCircle
 39
0.35
 10
103.2075708930553
 20
217.466517811874
 30
0.4
 40
2.850490999999998
100
AcDbArc
 50
167.7603999999988
 51
192.2396000000011
1001
AUSTER_ANSICHT
1002
{
1000
Det03
1002
}
1001
AUSTER_FOLIE
1002
{
1000
NSB00753_S0
1002
}
  0
ARC
  5
432C
330
1F
100
AcDbEntity
  8
10000_Front
  6
DASHED
 62
     7
 48
10.0
370
     9
100
AcDbCircle
 39
0.35
 10
103.2075708930553
 20
217.466517811874
 30
0.4
 40
1.85
100
AcDbArc
 50
253.8365999999997
 51
286.1634000000003
1001
AUSTER_ANSICHT
1002
{
1000
Det03
1002
}
1001
AUSTER_FOLIE
1002
{
1000
NSB00753_S0
1002
}
  0
ARC
  5
432D
330
1F
100
AcDbEntity
  8
10000_Front
  6
DASHED
 62
     7
 48
10.0
370
     9
100
AcDbCircle
 39
0.35
 10
103.2075708930553
 20
217.466517811874
 30
0.4
 40
1.85
100
AcDbArc
 50
73.8365499999998
 51
106.1634000000003
1001
AUSTER_ANSICHT
1002
{
1000
Det03
1002
}
1001
AUSTER_FOLIE
1002
{
1000
NSB00753_S0
1002
}
  0
ARC
  5
432E
330
1F
100
AcDbEntity
  8
10000_Front
  6
DASHED
 62
     7
 48
10.0
370
     9
100
AcDbCircle
 39
0.35
 10
103.2075708930553
 20
217.466517811874
 30
0.4
 40
2.850490999999998
100
AcDbArc
 50
347.7603999999987
 51
12.23960000000117
1001
AUSTER_ANSICHT
1002
{
1000
Det03
1002
}
1001
AUSTER_FOLIE
1002
{
1000
NSB00753_S0
1002
}
  0
CIRCLE
  5
432F
330
1F
100
AcDbEntity
  8
10000_Front
  6
DASHED
 62
     7
 48
10.0
370
     9
100
AcDbCircle
 39
0.35
 10
103.2075708930553
 20
217.466517811874
 30
0.4
 40
3.1
1001
AUSTER_ANSICHT
1002
{
1000
Det03
1002
}
1001
AUSTER_FOLIE
1002
{
1000
NSB00753_S0
1002
}
  0
ARC
  5
4330
330
1F
100
AcDbEntity
  8
10000_Front
  6
DASHED
 62
     7
 48
10.0
370
     9
100
AcDbCircle
 39
0.35
 10
74.81037089305532
 20
227.734617811874
 30
0.4
 40
2.850490999999998
100
AcDbArc
 50
167.7603999999988
 51
192.2396000000011
1001
AUSTER_ANSICHT
1002
{
1000
Det03
1002
}
1001
AUSTER_FOLIE
1002
{
1000
NSB00753_S0
1002
}
  0
ARC
  5
4331
330
1F
100
AcDbEntity
  8
10000_Front
  6
DASHED
 62
     7
 48
10.0
370
     9
100
AcDbCircle
 39
0.35
 10
74.81037089305532
 20
227.734617811874
 30
0.4
 40
1.85
100
AcDbArc
 50
73.8365499999998
 51
106.1634000000003
1001
AUSTER_ANSICHT
1002
{
1000
Det03
1002
}
1001
AUSTER_FOLIE
1002
{
1000
NSB00753_S0
1002
}
  0
ARC
  5
4332
330
1F
100
AcDbEntity
  8
10000_Front
  6
DASHED
 62
     7
 48
10.0
370
     9
100
AcDbCircle
 39
0.35
 10
74.81037089305532
 20
227.734617811874
 30
0.4
 40
2.850490999999998
100
AcDbArc
 50
347.7603999999987
 51
12.23960000000117
1001
AUSTER_ANSICHT
1002
{
1000
Det03
1002
}
1001
AUSTER_FOLIE
1002
{
1000
NSB00753_S0
1002
}
  0
ARC
  5
4333
330
1F
100
AcDbEntity
  8
10000_Front
  6
DASHED
 62
     7
 48
10.0
370
     9
100
AcDbCircle
 39
0.35
 10
74.81037089305532
 20
227.734617811874
 30
0.4
 40
3.1
100
AcDbArc
 50
345.6538999999992
 51
194.3458999999992
1001
AUSTER_ANSICHT
1002
{
1000
Det03
1002
}
1001
AUSTER_FOLIE
1002
{
1000
NSB00753_S0
1002
}
  0
ARC
  5
4334
330
1F
100
AcDbEntity
  8
10000_Front
  6
DASHED
 62
     7
 48
10.0
370
     9
100
AcDbCircle
 39
0.35
 10
102.8103708930553
 20
227.734617811874
 30
0.4
 40
2.850490999999998
100
AcDbArc
 50
347.7603999999987
 51
12.23960000000117
1001
AUSTER_ANSICHT
1002
{
1000
Det03
1002
}
1001
AUSTER_FOLIE
1002
{
1000
NSB00753_S0
1002
}
  0
ARC
  5
4335
330
1F
100
AcDbEntity
  8
10000_Front
  6
DASHED
 62
     7
 48
10.0
370
     9
100
AcDbCircle
 39
0.35
 10
102.8103708930553
 20
227.734617811874
 30
0.4
 40
1.85
100
AcDbArc
 50
73.8365499999998
 51
106.1634000000003
1001
AUSTER_ANSICHT
1002
{
1000
Det03
1002
}
1001
AUSTER_FOLIE
1002
{
1000
NSB00753_S0
1002
}
  0
ARC
  5
4336
330
1F
100
AcDbEntity
  8
10000_Front
  6
DASHED
 62
     7
 48
10.0
370
     9
100
AcDbCircle
 39
0.35
 10
102.8103708930553
 20
227.734617811874
 30
0.4
 40
2.850490999999998
100
AcDbArc
 50
167.7603999999988
 51
192.2396000000011
1001
AUSTER_ANSICHT
1002
{
1000
Det03
1002
}
1001
AUSTER_FOLIE
1002
{
1000
NSB00753_S0
1002
}
  0
ARC
  5
4337
330
1F
100
AcDbEntity
  8
10000_Front
  6
DASHED
 62
     7
 48
10.0
370
     9
100
AcDbCircle
 39
0.35
 10
102.8103708930553
 20
227.734617811874
 30
0.4
 40
3.1
100
AcDbArc
 50
345.6541000000008
 51
194.3461000000008
1001
AUSTER_ANSICHT
1002
{
1000
Det03
1002
}
1001
AUSTER_FOLIE
1002
{
1000
NSB00753_S0
1002
}
  0
ARC
  5
4338
330
1F
100
AcDbEntity
  8
10000_Front
  6
DASHED
 62
     7
 48
10.0
370
     9
100
AcDbCircle
 39
0.35
 10
74.81037089305532
 20
159.198417811874
 30
0.4
 40
2.850490999999998
100
AcDbArc
 50
167.7603999999988
 51
192.2396000000011
1001
AUSTER_ANSICHT
1002
{
1000
Det03
1002
}
1001
AUSTER_FOLIE
1002
{
1000
NSB00753_S0
1002
}
  0
ARC
  5
4339
330
1F
100
AcDbEntity
  8
10000_Front
  6
DASHED
 62
     7
 48
10.0
370
     9
100
AcDbCircle
 39
0.35
 10
74.81037089305532
 20
159.198417811874
 30
0.4
 40
1.85
100
AcDbArc
 50
253.8365999999997
 51
286.1634000000003
1001
AUSTER_ANSICHT
1002
{
1000
Det03
1002
}
1001
AUSTER_FOLIE
1002
{
1000
NSB00753_S0
1002
}
  0
ARC
  5
433A
330
1F
100
AcDbEntity
  8
10000_Front
  6
DASHED
 62
     7
 48
10.0
370
     9
100
AcDbCircle
 39
0.35
 10
74.81037089305532
 20
159.198417811874
 30
0.4
 40
2.850490999999998
100
AcDbArc
 50
347.7603999999987
 51
12.23960000000117
1001
AUSTER_ANSICHT
1002
{
1000
Det03
1002
}
1001
AUSTER_FOLIE
1002
{
1000
NSB00753_S0
1002
}
  0
ARC
  5
433B
330
1F
100
AcDbEntity
  8
10000_Front
  6
DASHED
 62
     7
 48
10.0
370
     9
100
AcDbCircle
 39
0.35
 10
74.81037089305532
 20
159.198417811874
 30
0.4
 40
3.1
100
AcDbArc
 50
165.6541000000007
 51
14.34610000000087
1001
AUSTER_ANSICHT
1002
{
1000
Det03
1002
}
1001
AUSTER_FOLIE
1002
{
1000
NSB00753_S0
1002
}
  0
ARC
  5
433C
330
1F
100
AcDbEntity
  8
10000_Front
  6
DASHED
 62
     7
 48
10.0
370
     9
100
AcDbCircle
 39
0.35
 10
102.8103708930553
 20
159.198417811874
 30
0.4
 40
2.850490999999998
100
AcDbArc
 50
347.7603999999987
 51
12.23960000000117
1001
AUSTER_ANSICHT
1002
{
1000
Det03
1002
}
1001
AUSTER_FOLIE
1002
{
1000
NSB00753_S0
1002
}
  0
ARC
  5
433D
330
1F
100
AcDbEntity
  8
10000_Front
  6
DASHED
 62
     7
 48
10.0
370
     9
100
AcDbCircle
 39
0.35
 10
102.8103708930553
 20
159.198417811874
 30
0.4
 40
1.85
100
AcDbArc
 50
253.8365999999997
 51
286.1634000000003
1001
AUSTER_ANSICHT
1002
{
1000
Det03
1002
}
1001
AUSTER_FOLIE
1002
{
1000
NSB00753_S0
1002
}
  0
ARC
  5
433E
330
1F
100
AcDbEntity
  8
10000_Front
  6
DASHED
 62
     7
 48
10.0
370
     9
100
AcDbCircle
 39
0.35
 10
102.8103708930553
 20
159.198417811874
 30
0.4
 40
2.850490999999998
100
AcDbArc
 50
167.7603999999988
 51
192.2396000000011
1001
AUSTER_ANSICHT
1002
{
1000
Det03
1002
}
1001
AUSTER_FOLIE
1002
{
1000
NSB00753_S0
1002
}
  0
ARC
  5
433F
330
1F
100
AcDbEntity
  8
10000_Front
  6
DASHED
 62
     7
 48
10.0
370
     9
100
AcDbCircle
 39
0.35
 10
102.8103708930553
 20
159.198417811874
 30
0.4
 40
3.1
100
AcDbArc
 50
165.6538999999991
 51
14.34589999999922
1001
AUSTER_ANSICHT
1002
{
1000
Det03
1002
}
1001
AUSTER_FOLIE
1002
{
1000
NSB00753_S0
1002
}
  0
ARC
  5
4340
330
1F
100
AcDbEntity
  8
10000_Front
  6
DASHED
 62
     7
 48
10.0
370
     9
100
AcDbCircle
 39
0.35
 10
67.43877089305532
 20
229.166517811874
 30
0.4
 40
0.3
100
AcDbArc
 50
6.277298000000412
 51
90.0
1001
AUSTER_ANSICHT
1002
{
1000
Det03
1002
}
1001
AUSTER_FOLIE
1002
{
1000
NSB00753_S0
1002
}
  0
ARC
  5
4341
330
1F
100
AcDbEntity
  8
10000_Front
  6
DASHED
 62
     7
 48
10.0
370
     9
100
AcDbCircle
 39
0.35
 10
67.85727089305531
 20
225.466727811874
 30
0.4
 40
1.499704
100
AcDbArc
 50
89.98866999999988
 51
180.0080999999986
1001
AUSTER_ANSICHT
1002
{
1000
Det03
1002
}
1001
AUSTER_FOLIE
1002
{
1000
NSB00753_S0
1002
}
  0
ARC
  5
4342
330
1F
100
AcDbEntity
  8
10000_Front
  6
DASHED
 62
     7
 48
10.0
370
     9
100
AcDbCircle
 39
0.35
 10
81.38497089305529
 20
229.166517811874
 30
0.4
 40
0.3
100
AcDbArc
 50
90.0
 51
175.507400000001
1001
AUSTER_ANSICHT
1002
{
1000
Det03
1002
}
1001
AUSTER_FOLIE
1002
{
1000
NSB00753_S0
1002
}
  0
ARC
  5
4343
330
1F
100
AcDbEntity
  8
10000_Front
  6
DASHED
 62
     7
 48
10.0
370
     9
100
AcDbCircle
 39
0.35
 10
81.83027089305531
 20
229.166517811874
 30
0.4
 40
0.3
100
AcDbArc
 50
4.780087999999842
 51
90.0
1001
AUSTER_ANSICHT
1002
{
1000
Det03
1002
}
1001
AUSTER_FOLIE
1002
{
1000
NSB00753_S0
1002
}
  0
ARC
  5
4344
330
1F
100
AcDbEntity
  8
10000_Front
  6
DASHED
 62
     7
 48
10.0
370
     9
100
AcDbCircle
 39
0.35
 10
67.85727089305531
 20
161.4663078118739
 30
0.4
 40
1.499704
100
AcDbArc
 50
179.9919000000013
 51
270.0112999999998
1001
AUSTER_ANSICHT
1002
{
1000
Det03
1002
}
1001
AUSTER_FOLIE
1002
{
1000
NSB00753_S0
1002
}
  0
ARC
  5
4345
330
1F
100
AcDbEntity
  8
10000_Front
  6
DASHED
 62
     7
 48
10.0
370
     9
100
AcDbCircle
 39
0.35
 10
81.38497089305529
 20
157.7665178118739
 30
0.4
 40
0.3
100
AcDbArc
 50
184.4925999999989
 51
270.0
1001
AUSTER_ANSICHT
1002
{
1000
Det03
1002
}
1001
AUSTER_FOLIE
1002
{
1000
NSB00753_S0
1002
}
  0
ARC
  5
4346
330
1F
100
AcDbEntity
  8
10000_Front
  6
DASHED
 62
     7
 48
10.0
370
     9
100
AcDbCircle
 39
0.35
 10
81.83027089305531
 20
157.7665178118739
 30
0.4
 40
0.3
100
AcDbArc
 50
270.0
 51
355.2198999999991
1001
AUSTER_ANSICHT
1002
{
1000
Det03
1002
}
1001
AUSTER_FOLIE
1002
{
1000
NSB00753_S0
1002
}
  0
ARC
  5
4347
330
1F
100
AcDbEntity
  8
10000_Front
  6
DASHED
 62
     7
 48
10.0
370
     9
100
AcDbCircle
 39
0.35
 10
96.2302708930553
 20
157.7665178118739
 30
0.4
 40
0.3
100
AcDbArc
 50
270.0
 51
355.5074000000012
1001
AUSTER_ANSICHT
1002
{
1000
Det03
1002
}
1001
AUSTER_FOLIE
1002
{
1000
NSB00753_S0
1002
}
  0
ARC
  5
4348
330
1F
100
AcDbEntity
  8
10000_Front
  6
DASHED
 62
     7
 48
10.0
370
     9
100
AcDbCircle
 39
0.35
 10
95.7849708930553
 20
157.7665178118739
 30
0.4
 40
0.3
100
AcDbArc
 50
184.7801000000009
 51
270.0
1001
AUSTER_ANSICHT
1002
{
1000
Det03
1002
}
1001
AUSTER_FOLIE
1002
{
1000
NSB00753_S0
1002
}
  0
ARC
  5
4349
330
1F
100
AcDbEntity
  8
10000_Front
  6
DASHED
 62
     7
 48
10.0
370
     9
100
AcDbCircle
 39
0.35
 10
109.7578708930553
 20
161.4663078118739
 30
0.4
 40
1.499704
100
AcDbArc
 50
269.9887000000002
 51
0.0080999999986542
1001
AUSTER_ANSICHT
1002
{
1000
Det03
1002
}
1001
AUSTER_FOLIE
1002
{
1000
NSB00753_S0
1002
}
  0
ARC
  5
434A
330
1F
100
AcDbEntity
  8
10000_Front
  6
DASHED
 62
     7
 48
10.0
370
     9
100
AcDbCircle
 39
0.35
 10
110.1763708930553
 20
229.166517811874
 30
0.4
 40
0.3
100
AcDbArc
 50
90.0
 51
173.7227000000005
1001
AUSTER_ANSICHT
1002
{
1000
Det03
1002
}
1001
AUSTER_FOLIE
1002
{
1000
NSB00753_S0
1002
}
  0
ARC
  5
434B
330
1F
100
AcDbEntity
  8
10000_Front
  6
DASHED
 62
     7
 48
10.0
370
     9
100
AcDbCircle
 39
0.35
 10
96.2302708930553
 20
229.166517811874
 30
0.4
 40
0.3
100
AcDbArc
 50
4.492580999999962
 51
90.0
1001
AUSTER_ANSICHT
1002
{
1000
Det03
1002
}
1001
AUSTER_FOLIE
1002
{
1000
NSB00753_S0
1002
}
  0
ARC
  5
434C
330
1F
100
AcDbEntity
  8
10000_Front
  6
DASHED
 62
     7
 48
10.0
370
     9
100
AcDbCircle
 39
0.35
 10
95.7849708930553
 20
229.166517811874
 30
0.4
 40
0.3
100
AcDbArc
 50
90.0
 51
175.2198999999991
1001
AUSTER_ANSICHT
1002
{
1000
Det03
1002
}
1001
AUSTER_FOLIE
1002
{
1000
NSB00753_S0
1002
}
  0
CIRCLE
  5
454C
330
1F
100
AcDbEntity
  8
10000_Front
  6
Continuous
 62
     7
100
AcDbCircle
 39
0.45
 10
105.6604508930553
 20
202.466517811874
 30
0.4
 40
3.1
1001
AUSTER_ANSICHT
1002
{
1000
V
1002
}
1001
AUSTER_FOLIE
1002
{
1000
4_POL_AUFSATZ
1002
}
  0
ARC
  5
454D
330
1F
100
AcDbEntity
  8
10000_Front
  6
Continuous
 62
     7
100
AcDbCircle
 39
0.45
 10
105.6604508930553
 20
202.466517811874
 30
0.4
 40
2.850490999999998
100
AcDbArc
 50
347.7603999999987
 51
12.23960000000117
1001
AUSTER_ANSICHT
1002
{
1000
V
1002
}
1001
AUSTER_FOLIE
1002
{
1000
4_POL_AUFSATZ
1002
}
  0
ARC
  5
454E
330
1F
100
AcDbEntity
  8
10000_Front
  6
Continuous
 62
     7
100
AcDbCircle
 39
0.45
 10
105.6604508930553
 20
202.466517811874
 30
0.4
 40
1.85
100
AcDbArc
 50
73.8365499999998
 51
106.1634000000003
1001
AUSTER_ANSICHT
1002
{
1000
V
1002
}
1001
AUSTER_FOLIE
1002
{
1000
4_POL_AUFSATZ
1002
}
  0
ARC
  5
454F
330
1F
100
AcDbEntity
  8
10000_Front
  6
Continuous
 62
     7
100
AcDbCircle
 39
0.45
 10
105.6604508930553
 20
202.466517811874
 30
0.4
 40
1.85
100
AcDbArc
 50
253.8365999999997
 51
286.1634000000003
1001
AUSTER_ANSICHT
1002
{
1000
V
1002
}
1001
AUSTER_FOLIE
1002
{
1000
4_POL_AUFSATZ
1002
}
  0
ARC
  5
4550
330
1F
100
AcDbEntity
  8
10000_Front
  6
Continuous
 62
     7
100
AcDbCircle
 39
0.45
 10
105.6604508930553
 20
202.466517811874
 30
0.4
 40
2.850490999999998
100
AcDbArc
 50
167.7603999999988
 51
192.2396000000011
1001
AUSTER_ANSICHT
1002
{
1000
V
1002
}
1001
AUSTER_FOLIE
1002
{
1000
4_POL_AUFSATZ
1002
}
  0
CIRCLE
  5
4551
102
{ACAD_REACTORS
330
465F
102
}
330
1F
100
AcDbEntity
  8
10000_Front
  6
Continuous
 62
     7
100
AcDbCircle
 39
0.45
 10
105.6604508930553
 20
202.466517811874
 30
0.4
 40
3.1
1001
AUSTER_ANSICHT
1002
{
1000
V
1002
}
1001
AUSTER_FOLIE
1002
{
1000
4_POL_AUFSATZ
1002
}
  0
CIRCLE
  5
4552
330
1F
100
AcDbEntity
  8
10000_Front
  6
Continuous
 62
     7
100
AcDbCircle
 39
0.45
 10
94.66040089305531
 20
202.466517811874
 30
0.4
 40
3.1
1001
AUSTER_ANSICHT
1002
{
1000
V
1002
}
1001
AUSTER_FOLIE
1002
{
1000
4_POL_AUFSATZ
1002
}
  0
ARC
  5
4553
330
1F
100
AcDbEntity
  8
10000_Front
  6
Continuous
 62
     7
100
AcDbCircle
 39
0.45
 10
94.66040089305531
 20
202.466517811874
 30
0.4
 40
2.850490999999998
100
AcDbArc
 50
347.7603999999987
 51
12.23960000000117
1001
AUSTER_ANSICHT
1002
{
1000
V
1002
}
1001
AUSTER_FOLIE
1002
{
1000
4_POL_AUFSATZ
1002
}
  0
ARC
  5
4554
330
1F
100
AcDbEntity
  8
10000_Front
  6
Continuous
 62
     7
100
AcDbCircle
 39
0.45
 10
94.66040089305531
 20
202.466517811874
 30
0.4
 40
1.85
100
AcDbArc
 50
73.8365499999998
 51
106.1634000000003
1001
AUSTER_ANSICHT
1002
{
1000
V
1002
}
1001
AUSTER_FOLIE
1002
{
1000
4_POL_AUFSATZ
1002
}
  0
ARC
  5
4555
330
1F
100
AcDbEntity
  8
10000_Front
  6
Continuous
 62
     7
100
AcDbCircle
 39
0.45
 10
94.66040089305531
 20
202.466517811874
 30
0.4
 40
1.85
100
AcDbArc
 50
253.8365999999997
 51
286.1634000000003
1001
AUSTER_ANSICHT
1002
{
1000
V
1002
}
1001
AUSTER_FOLIE
1002
{
1000
4_POL_AUFSATZ
1002
}
  0
ARC
  5
4556
330
1F
100
AcDbEntity
  8
10000_Front
  6
Continuous
 62
     7
100
AcDbCircle
 39
0.45
 10
94.66040089305531
 20
202.466517811874
 30
0.4
 40
2.850490999999998
100
AcDbArc
 50
167.7603999999988
 51
192.2396000000011
1001
AUSTER_ANSICHT
1002
{
1000
V
1002
}
1001
AUSTER_FOLIE
1002
{
1000
4_POL_AUFSATZ
1002
}
  0
CIRCLE
  5
4557
330
1F
100
AcDbEntity
  8
10000_Front
  6
Continuous
 62
     7
100
AcDbCircle
 39
0.45
 10
94.66040089305531
 20
202.466517811874
 30
0.4
 40
3.1
1001
AUSTER_ANSICHT
1002
{
1000
V
1002
}
1001
AUSTER_FOLIE
1002
{
1000
4_POL_AUFSATZ
1002
}
  0
CIRCLE
  5
4558
330
1F
100
AcDbEntity
  8
10000_Front
  6
Continuous
 62
     7
100
AcDbCircle
 39
0.45
 10
83.66038089305531
 20
202.466517811874
 30
0.4
 40
3.1
1001
AUSTER_ANSICHT
1002
{
1000
V
1002
}
1001
AUSTER_FOLIE
1002
{
1000
4_POL_AUFSATZ
1002
}
  0
ARC
  5
4559
330
1F
100
AcDbEntity
  8
10000_Front
  6
Continuous
 62
     7
100
AcDbCircle
 39
0.45
 10
83.66038089305531
 20
202.466517811874
 30
0.4
 40
2.850490999999998
100
AcDbArc
 50
347.7603999999987
 51
12.23960000000117
1001
AUSTER_ANSICHT
1002
{
1000
V
1002
}
1001
AUSTER_FOLIE
1002
{
1000
4_POL_AUFSATZ
1002
}
  0
ARC
  5
455A
330
1F
100
AcDbEntity
  8
10000_Front
  6
Continuous
 62
     7
100
AcDbCircle
 39
0.45
 10
83.66038089305531
 20
202.466517811874
 30
0.4
 40
1.85
100
AcDbArc
 50
73.8365499999998
 51
106.1634000000003
1001
AUSTER_ANSICHT
1002
{
1000
V
1002
}
1001
AUSTER_FOLIE
1002
{
1000
4_POL_AUFSATZ
1002
}
  0
ARC
  5
455B
330
1F
100
AcDbEntity
  8
10000_Front
  6
Continuous
 62
     7
100
AcDbCircle
 39
0.45
 10
83.66038089305531
 20
202.466517811874
 30
0.4
 40
1.85
100
AcDbArc
 50
253.8365999999997
 51
286.1634000000003
1001
AUSTER_ANSICHT
1002
{
1000
V
1002
}
1001
AUSTER_FOLIE
1002
{
1000
4_POL_AUFSATZ
1002
}
  0
ARC
  5
455C
330
1F
100
AcDbEntity
  8
10000_Front
  6
Continuous
 62
     7
100
AcDbCircle
 39
0.45
 10
83.66038089305531
 20
202.466517811874
 30
0.4
 40
2.850490999999998
100
AcDbArc
 50
167.7603999999988
 51
192.2396000000011
1001
AUSTER_ANSICHT
1002
{
1000
V
1002
}
1001
AUSTER_FOLIE
1002
{
1000
4_POL_AUFSATZ
1002
}
  0
CIRCLE
  5
455D
330
1F
100
AcDbEntity
  8
10000_Front
  6
Continuous
 62
     7
100
AcDbCircle
 39
0.45
 10
83.66038089305531
 20
202.466517811874
 30
0.4
 40
3.1
1001
AUSTER_ANSICHT
1002
{
1000
V
1002
}
1001
AUSTER_FOLIE
1002
{
1000
4_POL_AUFSATZ
1002
}
  0
CIRCLE
  5
455E
330
1F
100
AcDbEntity
  8
10000_Front
  6
Continuous
 62
     7
100
AcDbCircle
 39
0.45
 10
72.66036089305531
 20
202.466517811874
 30
0.4
 40
3.1
1001
AUSTER_ANSICHT
1002
{
1000
V
1002
}
1001
AUSTER_FOLIE
1002
{
1000
4_POL_AUFSATZ
1002
}
  0
ARC
  5
455F
330
1F
100
AcDbEntity
  8
10000_Front
  6
Continuous
 62
     7
100
AcDbCircle
 39
0.45
 10
72.66036089305531
 20
202.466517811874
 30
0.4
 40
2.850490999999998
100
AcDbArc
 50
347.7603999999987
 51
12.23960000000117
1001
AUSTER_ANSICHT
1002
{
1000
V
1002
}
1001
AUSTER_FOLIE
1002
{
1000
4_POL_AUFSATZ
1002
}
  0
ARC
  5
4560
330
1F
100
AcDbEntity
  8
10000_Front
  6
Continuous
 62
     7
100
AcDbCircle
 39
0.45
 10
72.66036089305531
 20
202.466517811874
 30
0.4
 40
1.85
100
AcDbArc
 50
73.8365499999998
 51
106.1634000000003
1001
AUSTER_ANSICHT
1002
{
1000
V
1002
}
1001
AUSTER_FOLIE
1002
{
1000
4_POL_AUFSATZ
1002
}
  0
ARC
  5
4561
330
1F
100
AcDbEntity
  8
10000_Front
  6
Continuous
 62
     7
100
AcDbCircle
 39
0.45
 10
72.66036089305531
 20
202.466517811874
 30
0.4
 40
1.85
100
AcDbArc
 50
253.8365999999997
 51
286.1634000000003
1001
AUSTER_ANSICHT
1002
{
1000
V
1002
}
1001
AUSTER_FOLIE
1002
{
1000
4_POL_AUFSATZ
1002
}
  0
ARC
  5
4562
330
1F
100
AcDbEntity
  8
10000_Front
  6
Continuous
 62
     7
100
AcDbCircle
 39
0.45
 10
72.66036089305531
 20
202.466517811874
 30
0.4
 40
2.850490999999998
100
AcDbArc
 50
167.7603999999988
 51
192.2396000000011
1001
AUSTER_ANSICHT
1002
{
1000
V
1002
}
1001
AUSTER_FOLIE
1002
{
1000
4_POL_AUFSATZ
1002
}
  0
CIRCLE
  5
4563
330
1F
100
AcDbEntity
  8
10000_Front
  6
Continuous
 62
     7
100
AcDbCircle
 39
0.45
 10
72.66036089305531
 20
202.466517811874
 30
0.4
 40
3.1
1001
AUSTER_ANSICHT
1002
{
1000
V
1002
}
1001
AUSTER_FOLIE
1002
{
1000
4_POL_AUFSATZ
1002
}
  0
CIRCLE
  5
4564
330
1F
100
AcDbEntity
  8
10000_Front
  6
Continuous
 62
     7
100
AcDbCircle
 39
0.45
 10
105.6604508930553
 20
184.466517811874
 30
0.4
 40
3.1
1001
AUSTER_ANSICHT
1002
{
1000
V
1002
}
1001
AUSTER_FOLIE
1002
{
1000
4_POL_AUFSATZ
1002
}
  0
ARC
  5
4565
330
1F
100
AcDbEntity
  8
10000_Front
  6
Continuous
 62
     7
100
AcDbCircle
 39
0.45
 10
105.6604508930553
 20
184.466517811874
 30
0.4
 40
2.850490999999998
100
AcDbArc
 50
347.7603999999987
 51
12.23960000000117
1001
AUSTER_ANSICHT
1002
{
1000
V
1002
}
1001
AUSTER_FOLIE
1002
{
1000
4_POL_AUFSATZ
1002
}
  0
ARC
  5
4566
330
1F
100
AcDbEntity
  8
10000_Front
  6
Continuous
 62
     7
100
AcDbCircle
 39
0.45
 10
105.6604508930553
 20
184.466517811874
 30
0.4
 40
1.85
100
AcDbArc
 50
253.8365999999997
 51
286.1634000000003
1001
AUSTER_ANSICHT
1002
{
1000
V
1002
}
1001
AUSTER_FOLIE
1002
{
1000
4_POL_AUFSATZ
1002
}
  0
ARC
  5
4567
330
1F
100
AcDbEntity
  8
10000_Front
  6
Continuous
 62
     7
100
AcDbCircle
 39
0.45
 10
105.6604508930553
 20
184.466517811874
 30
0.4
 40
1.85
100
AcDbArc
 50
73.8365499999998
 51
106.1634000000003
1001
AUSTER_ANSICHT
1002
{
1000
V
1002
}
1001
AUSTER_FOLIE
1002
{
1000
4_POL_AUFSATZ
1002
}
  0
ARC
  5
4568
330
1F
100
AcDbEntity
  8
10000_Front
  6
Continuous
 62
     7
100
AcDbCircle
 39
0.45
 10
105.6604508930553
 20
184.466517811874
 30
0.4
 40
2.850490999999998
100
AcDbArc
 50
167.7603999999988
 51
192.2396000000011
1001
AUSTER_ANSICHT
1002
{
1000
V
1002
}
1001
AUSTER_FOLIE
1002
{
1000
4_POL_AUFSATZ
1002
}
  0
CIRCLE
  5
4569
102
{ACAD_REACTORS
330
465F
102
}
330
1F
100
AcDbEntity
  8
10000_Front
  6
Continuous
 62
     7
100
AcDbCircle
 39
0.45
 10
105.6604508930553
 20
184.466517811874
 30
0.4
 40
3.1
1001
AUSTER_ANSICHT
1002
{
1000
V
1002
}
1001
AUSTER_FOLIE
1002
{
1000
4_POL_AUFSATZ
1002
}
  0
CIRCLE
  5
456A
330
1F
100
AcDbEntity
  8
10000_Front
  6
Continuous
 62
     7
100
AcDbCircle
 39
0.45
 10
94.66040089305531
 20
184.466517811874
 30
0.4
 40
3.1
1001
AUSTER_ANSICHT
1002
{
1000
V
1002
}
1001
AUSTER_FOLIE
1002
{
1000
4_POL_AUFSATZ
1002
}
  0
ARC
  5
456B
330
1F
100
AcDbEntity
  8
10000_Front
  6
Continuous
 62
     7
100
AcDbCircle
 39
0.45
 10
94.66040089305531
 20
184.466517811874
 30
0.4
 40
2.850490999999998
100
AcDbArc
 50
347.7603999999987
 51
12.23960000000117
1001
AUSTER_ANSICHT
1002
{
1000
V
1002
}
1001
AUSTER_FOLIE
1002
{
1000
4_POL_AUFSATZ
1002
}
  0
ARC
  5
456C
330
1F
100
AcDbEntity
  8
10000_Front
  6
Continuous
 62
     7
100
AcDbCircle
 39
0.45
 10
94.66040089305531
 20
184.466517811874
 30
0.4
 40
1.85
100
AcDbArc
 50
253.8365999999997
 51
286.1634000000003
1001
AUSTER_ANSICHT
1002
{
1000
V
1002
}
1001
AUSTER_FOLIE
1002
{
1000
4_POL_AUFSATZ
1002
}
  0
ARC
  5
456D
330
1F
100
AcDbEntity
  8
10000_Front
  6
Continuous
 62
     7
100
AcDbCircle
 39
0.45
 10
94.66040089305531
 20
184.466517811874
 30
0.4
 40
1.85
100
AcDbArc
 50
73.8365499999998
 51
106.1634000000003
1001
AUSTER_ANSICHT
1002
{
1000
V
1002
}
1001
AUSTER_FOLIE
1002
{
1000
4_POL_AUFSATZ
1002
}
  0
ARC
  5
456E
330
1F
100
AcDbEntity
  8
10000_Front
  6
Continuous
 62
     7
100
AcDbCircle
 39
0.45
 10
94.66040089305531
 20
184.466517811874
 30
0.4
 40
2.850490999999998
100
AcDbArc
 50
167.7603999999988
 51
192.2396000000011
1001
AUSTER_ANSICHT
1002
{
1000
V
1002
}
1001
AUSTER_FOLIE
1002
{
1000
4_POL_AUFSATZ
1002
}
  0
CIRCLE
  5
456F
330
1F
100
AcDbEntity
  8
10000_Front
  6
Continuous
 62
     7
100
AcDbCircle
 39
0.45
 10
94.66040089305531
 20
184.466517811874
 30
0.4
 40
3.1
1001
AUSTER_ANSICHT
1002
{
1000
V
1002
}
1001
AUSTER_FOLIE
1002
{
1000
4_POL_AUFSATZ
1002
}
  0
CIRCLE
  5
4570
330
1F
100
AcDbEntity
  8
10000_Front
  6
Continuous
 62
     7
100
AcDbCircle
 39
0.45
 10
83.66038089305531
 20
184.466517811874
 30
0.4
 40
3.1
1001
AUSTER_ANSICHT
1002
{
1000
V
1002
}
1001
AUSTER_FOLIE
1002
{
1000
4_POL_AUFSATZ
1002
}
  0
ARC
  5
4571
330
1F
100
AcDbEntity
  8
10000_Front
  6
Continuous
 62
     7
100
AcDbCircle
 39
0.45
 10
83.66038089305531
 20
184.466517811874
 30
0.4
 40
2.850490999999998
100
AcDbArc
 50
347.7603999999987
 51
12.23960000000117
1001
AUSTER_ANSICHT
1002
{
1000
V
1002
}
1001
AUSTER_FOLIE
1002
{
1000
4_POL_AUFSATZ
1002
}
  0
ARC
  5
4572
330
1F
100
AcDbEntity
  8
10000_Front
  6
Continuous
 62
     7
100
AcDbCircle
 39
0.45
 10
83.66038089305531
 20
184.466517811874
 30
0.4
 40
1.85
100
AcDbArc
 50
253.8365999999997
 51
286.1634000000003
1001
AUSTER_ANSICHT
1002
{
1000
V
1002
}
1001
AUSTER_FOLIE
1002
{
1000
4_POL_AUFSATZ
1002
}
  0
ARC
  5
4573
330
1F
100
AcDbEntity
  8
10000_Front
  6
Continuous
 62
     7
100
AcDbCircle
 39
0.45
 10
83.66038089305531
 20
184.466517811874
 30
0.4
 40
1.85
100
AcDbArc
 50
73.8365499999998
 51
106.1634000000003
1001
AUSTER_ANSICHT
1002
{
1000
V
1002
}
1001
AUSTER_FOLIE
1002
{
1000
4_POL_AUFSATZ
1002
}
  0
ARC
  5
4574
330
1F
100
AcDbEntity
  8
10000_Front
  6
Continuous
 62
     7
100
AcDbCircle
 39
0.45
 10
83.66038089305531
 20
184.466517811874
 30
0.4
 40
2.850490999999998
100
AcDbArc
 50
167.7603999999988
 51
192.2396000000011
1001
AUSTER_ANSICHT
1002
{
1000
V
1002
}
1001
AUSTER_FOLIE
1002
{
1000
4_POL_AUFSATZ
1002
}
  0
CIRCLE
  5
4575
330
1F
100
AcDbEntity
  8
10000_Front
  6
Continuous
 62
     7
100
AcDbCircle
 39
0.45
 10
83.66038089305531
 20
184.466517811874
 30
0.4
 40
3.1
1001
AUSTER_ANSICHT
1002
{
1000
V
1002
}
1001
AUSTER_FOLIE
1002
{
1000
4_POL_AUFSATZ
1002
}
  0
CIRCLE
  5
4576
330
1F
100
AcDbEntity
  8
10000_Front
  6
Continuous
 62
     7
100
AcDbCircle
 39
0.45
 10
72.66036089305531
 20
184.466517811874
 30
0.4
 40
3.1
1001
AUSTER_ANSICHT
1002
{
1000
V
1002
}
1001
AUSTER_FOLIE
1002
{
1000
4_POL_AUFSATZ
1002
}
  0
ARC
  5
4577
330
1F
100
AcDbEntity
  8
10000_Front
  6
Continuous
 62
     7
100
AcDbCircle
 39
0.45
 10
72.66036089305531
 20
184.466517811874
 30
0.4
 40
2.850490999999998
100
AcDbArc
 50
347.7603999999987
 51
12.23960000000117
1001
AUSTER_ANSICHT
1002
{
1000
V
1002
}
1001
AUSTER_FOLIE
1002
{
1000
4_POL_AUFSATZ
1002
}
  0
ARC
  5
4578
330
1F
100
AcDbEntity
  8
10000_Front
  6
Continuous
 62
     7
100
AcDbCircle
 39
0.45
 10
72.66036089305531
 20
184.466517811874
 30
0.4
 40
1.85
100
AcDbArc
 50
253.8365999999997
 51
286.1634000000003
1001
AUSTER_ANSICHT
1002
{
1000
V
1002
}
1001
AUSTER_FOLIE
1002
{
1000
4_POL_AUFSATZ
1002
}
  0
ARC
  5
4579
330
1F
100
AcDbEntity
  8
10000_Front
  6
Continuous
 62
     7
100
AcDbCircle
 39
0.45
 10
72.66036089305531
 20
184.466517811874
 30
0.4
 40
1.85
100
AcDbArc
 50
73.8365499999998
 51
106.1634000000003
1001
AUSTER_ANSICHT
1002
{
1000
V
1002
}
1001
AUSTER_FOLIE
1002
{
1000
4_POL_AUFSATZ
1002
}
  0
ARC
  5
457A
330
1F
100
AcDbEntity
  8
10000_Front
  6
Continuous
 62
     7
100
AcDbCircle
 39
0.45
 10
72.66036089305531
 20
184.466517811874
 30
0.4
 40
2.850490999999998
100
AcDbArc
 50
167.7603999999988
 51
192.2396000000011
1001
AUSTER_ANSICHT
1002
{
1000
V
1002
}
1001
AUSTER_FOLIE
1002
{
1000
4_POL_AUFSATZ
1002
}
  0
CIRCLE
  5
457B
330
1F
100
AcDbEntity
  8
10000_Front
  6
Continuous
 62
     7
100
AcDbCircle
 39
0.45
 10
72.66036089305531
 20
184.466517811874
 30
0.4
 40
3.1
1001
AUSTER_ANSICHT
1002
{
1000
V
1002
}
1001
AUSTER_FOLIE
1002
{
1000
4_POL_AUFSATZ
1002
}
  0
ARC
  5
457C
330
1F
100
AcDbEntity
  8
10000_Front
  6
Continuous
 62
     7
370
    50
100
AcDbCircle
 39
0.45
 10
68.01038089305531
 20
175.266517811874
 30
0.4
 40
0.8
100
AcDbArc
 50
180.0
 51
270.0
1001
AUSTER_ANSICHT
1002
{
1000
V
1002
}
1001
AUSTER_FOLIE
1002
{
1000
4_POL_AUFSATZ
1002
}
  0
ARC
  5
457D
330
1F
100
AcDbEntity
  8
10000_Front
  6
Continuous
 62
     7
370
    50
100
AcDbCircle
 39
0.45
 10
68.01038089305531
 20
211.666517811874
 30
0.4
 40
0.8
100
AcDbArc
 50
90.0
 51
179.9822
1001
AUSTER_ANSICHT
1002
{
1000
V
1002
}
1001
AUSTER_FOLIE
1002
{
1000
4_POL_AUFSATZ
1002
}
  0
ARC
  5
457E
330
1F
100
AcDbEntity
  8
10000_Front
  6
Continuous
 62
     7
370
    50
100
AcDbCircle
 39
0.45
 10
109.6103508930553
 20
175.266517811874
 30
0.4
 40
0.8
100
AcDbArc
 50
270.0
 51
0.0
1001
AUSTER_ANSICHT
1002
{
1000
V
1002
}
1001
AUSTER_FOLIE
1002
{
1000
4_POL_AUFSATZ
1002
}
  0
ARC
  5
457F
102
{ACAD_REACTORS
330
4635
102
}
330
1F
100
AcDbEntity
  8
10000_Front
  6
Continuous
 62
     7
370
    50
100
AcDbCircle
 39
0.45
 10
109.6103508930553
 20
211.666517811874
 30
0.4
 40
0.8
100
AcDbArc
 50
0.0177743599980925
 51
90.0
1001
AUSTER_ANSICHT
1002
{
1000
V
1002
}
1001
AUSTER_FOLIE
1002
{
1000
4_POL_AUFSATZ
1002
}
  0
LINE
  5
4580
330
1F
100
AcDbEntity
  8
10000_Front
  6
Continuous
 62
     7
100
AcDbLine
 39
0.45
 10
105.1454508930553
 20
203.2511178118741
 30
0.4
 11
105.1454508930553
 21
203.0708178118741
 31
0.4
1001
AUSTER_ANSICHT
1002
{
1000
V
1002
}
1001
AUSTER_FOLIE
1002
{
1000
4_POL_AUFSATZ
1002
}
  0
LINE
  5
4581
330
1F
100
AcDbEntity
  8
10000_Front
  6
Continuous
 62
     7
100
AcDbLine
 39
0.45
 10
105.1454508930553
 20
201.681917811874
 30
0.4
 11
105.1454508930553
 21
201.862217811874
 31
0.4
1001
AUSTER_ANSICHT
1002
{
1000
V
1002
}
1001
AUSTER_FOLIE
1002
{
1000
4_POL_AUFSATZ
1002
}
  0
LINE
  5
4582
330
1F
100
AcDbEntity
  8
10000_Front
  6
Continuous
 62
     7
100
AcDbLine
 39
0.45
 10
106.1754508930553
 20
203.2511178118741
 30
0.4
 11
106.1754508930553
 21
203.0708178118741
 31
0.4
1001
AUSTER_ANSICHT
1002
{
1000
V
1002
}
1001
AUSTER_FOLIE
1002
{
1000
4_POL_AUFSATZ
1002
}
  0
LINE
  5
4583
330
1F
100
AcDbEntity
  8
10000_Front
  6
Continuous
 62
     7
100
AcDbLine
 39
0.45
 10
106.1754508930553
 20
201.681917811874
 30
0.4
 11
106.1754508930553
 21
201.862217811874
 31
0.4
1001
AUSTER_ANSICHT
1002
{
1000
V
1002
}
1001
AUSTER_FOLIE
1002
{
1000
4_POL_AUFSATZ
1002
}
  0
LINE
  5
4584
330
1F
100
AcDbEntity
  8
10000_Front
  6
Continuous
 62
     7
100
AcDbLine
 39
0.45
 10
105.1454508930553
 20
203.2511178118741
 30
0.4
 11
105.1454508930553
 21
204.2434178118739
 31
0.4
1001
AUSTER_ANSICHT
1002
{
1000
V
1002
}
1001
AUSTER_FOLIE
1002
{
1000
4_POL_AUFSATZ
1002
}
  0
LINE
  5
4585
330
1F
100
AcDbEntity
  8
10000_Front
  6
Continuous
 62
     7
100
AcDbLine
 39
0.45
 10
106.1754508930553
 20
204.2434178118739
 30
0.4
 11
106.1754508930553
 21
203.2511178118741
 31
0.4
1001
AUSTER_ANSICHT
1002
{
1000
V
1002
}
1001
AUSTER_FOLIE
1002
{
1000
4_POL_AUFSATZ
1002
}
  0
LINE
  5
4586
330
1F
100
AcDbEntity
  8
10000_Front
  6
Continuous
 62
     7
100
AcDbLine
 39
0.45
 10
106.1754508930553
 20
201.681917811874
 30
0.4
 11
106.1754508930553
 21
200.689617811874
 31
0.4
1001
AUSTER_ANSICHT
1002
{
1000
V
1002
}
1001
AUSTER_FOLIE
1002
{
1000
4_POL_AUFSATZ
1002
}
  0
LINE
  5
4587
330
1F
100
AcDbEntity
  8
10000_Front
  6
Continuous
 62
     7
100
AcDbLine
 39
0.45
 10
105.1454508930553
 20
200.689617811874
 30
0.4
 11
105.1454508930553
 21
201.681917811874
 31
0.4
1001
AUSTER_ANSICHT
1002
{
1000
V
1002
}
1001
AUSTER_FOLIE
1002
{
1000
4_POL_AUFSATZ
1002
}
  0
LINE
  5
4588
330
1F
100
AcDbEntity
  8
10000_Front
  6
Continuous
 62
     7
100
AcDbLine
 39
0.45
 10
105.1454508930553
 20
201.862217811874
 30
0.4
 11
102.8747508930553
 21
201.862217811874
 31
0.4
1001
AUSTER_ANSICHT
1002
{
1000
V
1002
}
1001
AUSTER_FOLIE
1002
{
1000
4_POL_AUFSATZ
1002
}
  0
LINE
  5
4589
330
1F
100
AcDbEntity
  8
10000_Front
  6
Continuous
 62
     7
100
AcDbLine
 39
0.45
 10
108.4461508930553
 20
201.862217811874
 30
0.4
 11
106.1754508930553
 21
201.862217811874
 31
0.4
1001
AUSTER_ANSICHT
1002
{
1000
V
1002
}
1001
AUSTER_FOLIE
1002
{
1000
4_POL_AUFSATZ
1002
}
  0
LINE
  5
458A
330
1F
100
AcDbEntity
  8
10000_Front
  6
Continuous
 62
     7
100
AcDbLine
 39
0.45
 10
106.1754508930553
 20
203.0708178118741
 30
0.4
 11
108.4461508930553
 21
203.0708178118741
 31
0.4
1001
AUSTER_ANSICHT
1002
{
1000
V
1002
}
1001
AUSTER_FOLIE
1002
{
1000
4_POL_AUFSATZ
1002
}
  0
LINE
  5
458B
330
1F
100
AcDbEntity
  8
10000_Front
  6
Continuous
 62
     7
100
AcDbLine
 39
0.45
 10
102.8747508930553
 20
203.0708178118741
 30
0.4
 11
105.1454508930553
 21
203.0708178118741
 31
0.4
1001
AUSTER_ANSICHT
1002
{
1000
V
1002
}
1001
AUSTER_FOLIE
1002
{
1000
4_POL_AUFSATZ
1002
}
  0
LINE
  5
458C
330
1F
100
AcDbEntity
  8
10000_Front
  6
Continuous
 62
     7
100
AcDbLine
 39
0.45
 10
94.1454008930553
 20
203.2511178118741
 30
0.4
 11
94.1454008930553
 21
203.0708178118741
 31
0.4
1001
AUSTER_ANSICHT
1002
{
1000
V
1002
}
1001
AUSTER_FOLIE
1002
{
1000
4_POL_AUFSATZ
1002
}
  0
LINE
  5
458D
330
1F
100
AcDbEntity
  8
10000_Front
  6
Continuous
 62
     7
100
AcDbLine
 39
0.45
 10
94.1454008930553
 20
201.681917811874
 30
0.4
 11
94.1454008930553
 21
201.862217811874
 31
0.4
1001
AUSTER_ANSICHT
1002
{
1000
V
1002
}
1001
AUSTER_FOLIE
1002
{
1000
4_POL_AUFSATZ
1002
}
  0
LINE
  5
458E
330
1F
100
AcDbEntity
  8
10000_Front
  6
Continuous
 62
     7
100
AcDbLine
 39
0.45
 10
95.17540089305532
 20
203.2511178118741
 30
0.4
 11
95.17540089305532
 21
203.0708178118741
 31
0.4
1001
AUSTER_ANSICHT
1002
{
1000
V
1002
}
1001
AUSTER_FOLIE
1002
{
1000
4_POL_AUFSATZ
1002
}
  0
LINE
  5
458F
330
1F
100
AcDbEntity
  8
10000_Front
  6
Continuous
 62
     7
100
AcDbLine
 39
0.45
 10
95.17540089305532
 20
201.681917811874
 30
0.4
 11
95.17540089305532
 21
201.862217811874
 31
0.4
1001
AUSTER_ANSICHT
1002
{
1000
V
1002
}
1001
AUSTER_FOLIE
1002
{
1000
4_POL_AUFSATZ
1002
}
  0
LINE
  5
4590
330
1F
100
AcDbEntity
  8
10000_Front
  6
Continuous
 62
     7
100
AcDbLine
 39
0.45
 10
94.1454008930553
 20
203.2511178118741
 30
0.4
 11
94.1454008930553
 21
204.2434178118739
 31
0.4
1001
AUSTER_ANSICHT
1002
{
1000
V
1002
}
1001
AUSTER_FOLIE
1002
{
1000
4_POL_AUFSATZ
1002
}
  0
LINE
  5
4591
330
1F
100
AcDbEntity
  8
10000_Front
  6
Continuous
 62
     7
100
AcDbLine
 39
0.45
 10
95.17540089305532
 20
204.2434178118739
 30
0.4
 11
95.17540089305532
 21
203.2511178118741
 31
0.4
1001
AUSTER_ANSICHT
1002
{
1000
V
1002
}
1001
AUSTER_FOLIE
1002
{
1000
4_POL_AUFSATZ
1002
}
  0
LINE
  5
4592
330
1F
100
AcDbEntity
  8
10000_Front
  6
Continuous
 62
     7
100
AcDbLine
 39
0.45
 10
95.17540089305532
 20
201.681917811874
 30
0.4
 11
95.17540089305532
 21
200.689617811874
 31
0.4
1001
AUSTER_ANSICHT
1002
{
1000
V
1002
}
1001
AUSTER_FOLIE
1002
{
1000
4_POL_AUFSATZ
1002
}
  0
LINE
  5
4593
330
1F
100
AcDbEntity
  8
10000_Front
  6
Continuous
 62
     7
100
AcDbLine
 39
0.45
 10
94.1454008930553
 20
200.689617811874
 30
0.4
 11
94.1454008930553
 21
201.681917811874
 31
0.4
1001
AUSTER_ANSICHT
1002
{
1000
V
1002
}
1001
AUSTER_FOLIE
1002
{
1000
4_POL_AUFSATZ
1002
}
  0
LINE
  5
4594
330
1F
100
AcDbEntity
  8
10000_Front
  6
Continuous
 62
     7
100
AcDbLine
 39
0.45
 10
94.1454008930553
 20
201.862217811874
 30
0.4
 11
91.87470089305531
 21
201.862217811874
 31
0.4
1001
AUSTER_ANSICHT
1002
{
1000
V
1002
}
1001
AUSTER_FOLIE
1002
{
1000
4_POL_AUFSATZ
1002
}
  0
LINE
  5
4595
330
1F
100
AcDbEntity
  8
10000_Front
  6
Continuous
 62
     7
100
AcDbLine
 39
0.45
 10
97.44610089305531
 20
201.862217811874
 30
0.4
 11
95.17540089305532
 21
201.862217811874
 31
0.4
1001
AUSTER_ANSICHT
1002
{
1000
V
1002
}
1001
AUSTER_FOLIE
1002
{
1000
4_POL_AUFSATZ
1002
}
  0
LINE
  5
4596
330
1F
100
AcDbEntity
  8
10000_Front
  6
Continuous
 62
     7
100
AcDbLine
 39
0.45
 10
95.17540089305532
 20
203.0708178118741
 30
0.4
 11
97.44610089305531
 21
203.0708178118741
 31
0.4
1001
AUSTER_ANSICHT
1002
{
1000
V
1002
}
1001
AUSTER_FOLIE
1002
{
1000
4_POL_AUFSATZ
1002
}
  0
LINE
  5
4597
330
1F
100
AcDbEntity
  8
10000_Front
  6
Continuous
 62
     7
100
AcDbLine
 39
0.45
 10
91.87470089305531
 20
203.0708178118741
 30
0.4
 11
94.1454008930553
 21
203.0708178118741
 31
0.4
1001
AUSTER_ANSICHT
1002
{
1000
V
1002
}
1001
AUSTER_FOLIE
1002
{
1000
4_POL_AUFSATZ
1002
}
  0
LINE
  5
4598
330
1F
100
AcDbEntity
  8
10000_Front
  6
Continuous
 62
     7
100
AcDbLine
 39
0.45
 10
83.14538089305532
 20
203.2511178118741
 30
0.4
 11
83.14538089305532
 21
203.0708178118741
 31
0.4
1001
AUSTER_ANSICHT
1002
{
1000
V
1002
}
1001
AUSTER_FOLIE
1002
{
1000
4_POL_AUFSATZ
1002
}
  0
LINE
  5
4599
330
1F
100
AcDbEntity
  8
10000_Front
  6
Continuous
 62
     7
100
AcDbLine
 39
0.45
 10
83.14538089305532
 20
201.681917811874
 30
0.4
 11
83.14538089305532
 21
201.862217811874
 31
0.4
1001
AUSTER_ANSICHT
1002
{
1000
V
1002
}
1001
AUSTER_FOLIE
1002
{
1000
4_POL_AUFSATZ
1002
}
  0
LINE
  5
459A
330
1F
100
AcDbEntity
  8
10000_Front
  6
Continuous
 62
     7
100
AcDbLine
 39
0.45
 10
84.17538089305532
 20
203.2511178118741
 30
0.4
 11
84.17538089305532
 21
203.0708178118741
 31
0.4
1001
AUSTER_ANSICHT
1002
{
1000
V
1002
}
1001
AUSTER_FOLIE
1002
{
1000
4_POL_AUFSATZ
1002
}
  0
LINE
  5
459B
330
1F
100
AcDbEntity
  8
10000_Front
  6
Continuous
 62
     7
100
AcDbLine
 39
0.45
 10
84.17538089305532
 20
201.681917811874
 30
0.4
 11
84.17538089305532
 21
201.862217811874
 31
0.4
1001
AUSTER_ANSICHT
1002
{
1000
V
1002
}
1001
AUSTER_FOLIE
1002
{
1000
4_POL_AUFSATZ
1002
}
  0
LINE
  5
459C
330
1F
100
AcDbEntity
  8
10000_Front
  6
Continuous
 62
     7
100
AcDbLine
 39
0.45
 10
83.14538089305532
 20
203.2511178118741
 30
0.4
 11
83.14538089305532
 21
204.2434178118739
 31
0.4
1001
AUSTER_ANSICHT
1002
{
1000
V
1002
}
1001
AUSTER_FOLIE
1002
{
1000
4_POL_AUFSATZ
1002
}
  0
LINE
  5
459D
330
1F
100
AcDbEntity
  8
10000_Front
  6
Continuous
 62
     7
100
AcDbLine
 39
0.45
 10
84.17538089305532
 20
204.2434178118739
 30
0.4
 11
84.17538089305532
 21
203.2511178118741
 31
0.4
1001
AUSTER_ANSICHT
1002
{
1000
V
1002
}
1001
AUSTER_FOLIE
1002
{
1000
4_POL_AUFSATZ
1002
}
  0
LINE
  5
459E
330
1F
100
AcDbEntity
  8
10000_Front
  6
Continuous
 62
     7
100
AcDbLine
 39
0.45
 10
84.17538089305532
 20
201.681917811874
 30
0.4
 11
84.17538089305532
 21
200.689617811874
 31
0.4
1001
AUSTER_ANSICHT
1002
{
1000
V
1002
}
1001
AUSTER_FOLIE
1002
{
1000
4_POL_AUFSATZ
1002
}
  0
LINE
  5
459F
330
1F
100
AcDbEntity
  8
10000_Front
  6
Continuous
 62
     7
100
AcDbLine
 39
0.45
 10
83.14538089305532
 20
200.689617811874
 30
0.4
 11
83.14538089305532
 21
201.681917811874
 31
0.4
1001
AUSTER_ANSICHT
1002
{
1000
V
1002
}
1001
AUSTER_FOLIE
1002
{
1000
4_POL_AUFSATZ
1002
}
  0
LINE
  5
45A0
330
1F
100
AcDbEntity
  8
10000_Front
  6
Continuous
 62
     7
100
AcDbLine
 39
0.45
 10
83.14538089305532
 20
201.862217811874
 30
0.4
 11
80.87468089305531
 21
201.862217811874
 31
0.4
1001
AUSTER_ANSICHT
1002
{
1000
V
1002
}
1001
AUSTER_FOLIE
1002
{
1000
4_POL_AUFSATZ
1002
}
  0
LINE
  5
45A1
330
1F
100
AcDbEntity
  8
10000_Front
  6
Continuous
 62
     7
100
AcDbLine
 39
0.45
 10
86.44608089305533
 20
201.862217811874
 30
0.4
 11
84.17538089305532
 21
201.862217811874
 31
0.4
1001
AUSTER_ANSICHT
1002
{
1000
V
1002
}
1001
AUSTER_FOLIE
1002
{
1000
4_POL_AUFSATZ
1002
}
  0
LINE
  5
45A2
330
1F
100
AcDbEntity
  8
10000_Front
  6
Continuous
 62
     7
100
AcDbLine
 39
0.45
 10
84.17538089305532
 20
203.0708178118741
 30
0.4
 11
86.44608089305533
 21
203.0708178118741
 31
0.4
1001
AUSTER_ANSICHT
1002
{
1000
V
1002
}
1001
AUSTER_FOLIE
1002
{
1000
4_POL_AUFSATZ
1002
}
  0
LINE
  5
45A3
330
1F
100
AcDbEntity
  8
10000_Front
  6
Continuous
 62
     7
100
AcDbLine
 39
0.45
 10
80.87468089305531
 20
203.0708178118741
 30
0.4
 11
83.14538089305532
 21
203.0708178118741
 31
0.4
1001
AUSTER_ANSICHT
1002
{
1000
V
1002
}
1001
AUSTER_FOLIE
1002
{
1000
4_POL_AUFSATZ
1002
}
  0
LINE
  5
45A4
330
1F
100
AcDbEntity
  8
10000_Front
  6
Continuous
 62
     7
100
AcDbLine
 39
0.45
 10
72.14536089305531
 20
203.2511178118741
 30
0.4
 11
72.14536089305531
 21
203.0708178118741
 31
0.4
1001
AUSTER_ANSICHT
1002
{
1000
V
1002
}
1001
AUSTER_FOLIE
1002
{
1000
4_POL_AUFSATZ
1002
}
  0
LINE
  5
45A5
330
1F
100
AcDbEntity
  8
10000_Front
  6
Continuous
 62
     7
100
AcDbLine
 39
0.45
 10
72.14536089305531
 20
201.681917811874
 30
0.4
 11
72.14536089305531
 21
201.862217811874
 31
0.4
1001
AUSTER_ANSICHT
1002
{
1000
V
1002
}
1001
AUSTER_FOLIE
1002
{
1000
4_POL_AUFSATZ
1002
}
  0
LINE
  5
45A6
330
1F
100
AcDbEntity
  8
10000_Front
  6
Continuous
 62
     7
100
AcDbLine
 39
0.45
 10
73.17536089305531
 20
203.2511178118741
 30
0.4
 11
73.17536089305531
 21
203.0708178118741
 31
0.4
1001
AUSTER_ANSICHT
1002
{
1000
V
1002
}
1001
AUSTER_FOLIE
1002
{
1000
4_POL_AUFSATZ
1002
}
  0
LINE
  5
45A7
330
1F
100
AcDbEntity
  8
10000_Front
  6
Continuous
 62
     7
100
AcDbLine
 39
0.45
 10
73.17536089305531
 20
201.681917811874
 30
0.4
 11
73.17536089305531
 21
201.862217811874
 31
0.4
1001
AUSTER_ANSICHT
1002
{
1000
V
1002
}
1001
AUSTER_FOLIE
1002
{
1000
4_POL_AUFSATZ
1002
}
  0
LINE
  5
45A8
330
1F
100
AcDbEntity
  8
10000_Front
  6
Continuous
 62
     7
100
AcDbLine
 39
0.45
 10
72.14536089305531
 20
203.2511178118741
 30
0.4
 11
72.14536089305531
 21
204.2434178118739
 31
0.4
1001
AUSTER_ANSICHT
1002
{
1000
V
1002
}
1001
AUSTER_FOLIE
1002
{
1000
4_POL_AUFSATZ
1002
}
  0
LINE
  5
45A9
330
1F
100
AcDbEntity
  8
10000_Front
  6
Continuous
 62
     7
100
AcDbLine
 39
0.45
 10
73.17536089305531
 20
204.2434178118739
 30
0.4
 11
73.17536089305531
 21
203.2511178118741
 31
0.4
1001
AUSTER_ANSICHT
1002
{
1000
V
1002
}
1001
AUSTER_FOLIE
1002
{
1000
4_POL_AUFSATZ
1002
}
  0
LINE
  5
45AA
330
1F
100
AcDbEntity
  8
10000_Front
  6
Continuous
 62
     7
100
AcDbLine
 39
0.45
 10
73.17536089305531
 20
201.681917811874
 30
0.4
 11
73.17536089305531
 21
200.689617811874
 31
0.4
1001
AUSTER_ANSICHT
1002
{
1000
V
1002
}
1001
AUSTER_FOLIE
1002
{
1000
4_POL_AUFSATZ
1002
}
  0
LINE
  5
45AB
330
1F
100
AcDbEntity
  8
10000_Front
  6
Continuous
 62
     7
100
AcDbLine
 39
0.45
 10
72.14536089305531
 20
200.689617811874
 30
0.4
 11
72.14536089305531
 21
201.681917811874
 31
0.4
1001
AUSTER_ANSICHT
1002
{
1000
V
1002
}
1001
AUSTER_FOLIE
1002
{
1000
4_POL_AUFSATZ
1002
}
  0
LINE
  5
45AC
330
1F
100
AcDbEntity
  8
10000_Front
  6
Continuous
 62
     7
100
AcDbLine
 39
0.45
 10
72.14536089305531
 20
201.862217811874
 30
0.4
 11
69.87466089305532
 21
201.862217811874
 31
0.4
1001
AUSTER_ANSICHT
1002
{
1000
V
1002
}
1001
AUSTER_FOLIE
1002
{
1000
4_POL_AUFSATZ
1002
}
  0
LINE
  5
45AD
330
1F
100
AcDbEntity
  8
10000_Front
  6
Continuous
 62
     7
100
AcDbLine
 39
0.45
 10
75.44606089305531
 20
201.862217811874
 30
0.4
 11
73.17536089305531
 21
201.862217811874
 31
0.4
1001
AUSTER_ANSICHT
1002
{
1000
V
1002
}
1001
AUSTER_FOLIE
1002
{
1000
4_POL_AUFSATZ
1002
}
  0
LINE
  5
45AE
330
1F
100
AcDbEntity
  8
10000_Front
  6
Continuous
 62
     7
100
AcDbLine
 39
0.45
 10
73.17536089305531
 20
203.0708178118741
 30
0.4
 11
75.44606089305531
 21
203.0708178118741
 31
0.4
1001
AUSTER_ANSICHT
1002
{
1000
V
1002
}
1001
AUSTER_FOLIE
1002
{
1000
4_POL_AUFSATZ
1002
}
  0
LINE
  5
45AF
330
1F
100
AcDbEntity
  8
10000_Front
  6
Continuous
 62
     7
100
AcDbLine
 39
0.45
 10
69.87466089305532
 20
203.0708178118741
 30
0.4
 11
72.14536089305531
 21
203.0708178118741
 31
0.4
1001
AUSTER_ANSICHT
1002
{
1000
V
1002
}
1001
AUSTER_FOLIE
1002
{
1000
4_POL_AUFSATZ
1002
}
  0
LINE
  5
45B0
330
1F
100
AcDbEntity
  8
10000_Front
  6
Continuous
 62
     7
100
AcDbLine
 39
0.45
 10
105.1454508930553
 20
183.681917811874
 30
0.4
 11
105.1454508930553
 21
183.862217811874
 31
0.4
1001
AUSTER_ANSICHT
1002
{
1000
V
1002
}
1001
AUSTER_FOLIE
1002
{
1000
4_POL_AUFSATZ
1002
}
  0
LINE
  5
45B1
330
1F
100
AcDbEntity
  8
10000_Front
  6
Continuous
 62
     7
100
AcDbLine
 39
0.45
 10
105.1454508930553
 20
185.251117811874
 30
0.4
 11
105.1454508930553
 21
185.070817811874
 31
0.4
1001
AUSTER_ANSICHT
1002
{
1000
V
1002
}
1001
AUSTER_FOLIE
1002
{
1000
4_POL_AUFSATZ
1002
}
  0
LINE
  5
45B2
330
1F
100
AcDbEntity
  8
10000_Front
  6
Continuous
 62
     7
100
AcDbLine
 39
0.45
 10
106.1754508930553
 20
183.681917811874
 30
0.4
 11
106.1754508930553
 21
183.862217811874
 31
0.4
1001
AUSTER_ANSICHT
1002
{
1000
V
1002
}
1001
AUSTER_FOLIE
1002
{
1000
4_POL_AUFSATZ
1002
}
  0
LINE
  5
45B3
330
1F
100
AcDbEntity
  8
10000_Front
  6
Continuous
 62
     7
100
AcDbLine
 39
0.45
 10
106.1754508930553
 20
185.251117811874
 30
0.4
 11
106.1754508930553
 21
185.070817811874
 31
0.4
1001
AUSTER_ANSICHT
1002
{
1000
V
1002
}
1001
AUSTER_FOLIE
1002
{
1000
4_POL_AUFSATZ
1002
}
  0
LINE
  5
45B4
330
1F
100
AcDbEntity
  8
10000_Front
  6
Continuous
 62
     7
100
AcDbLine
 39
0.45
 10
105.1454508930553
 20
183.681917811874
 30
0.4
 11
105.1454508930553
 21
182.689617811874
 31
0.4
1001
AUSTER_ANSICHT
1002
{
1000
V
1002
}
1001
AUSTER_FOLIE
1002
{
1000
4_POL_AUFSATZ
1002
}
  0
LINE
  5
45B5
330
1F
100
AcDbEntity
  8
10000_Front
  6
Continuous
 62
     7
100
AcDbLine
 39
0.45
 10
106.1754508930553
 20
182.689617811874
 30
0.4
 11
106.1754508930553
 21
183.681917811874
 31
0.4
1001
AUSTER_ANSICHT
1002
{
1000
V
1002
}
1001
AUSTER_FOLIE
1002
{
1000
4_POL_AUFSATZ
1002
}
  0
LINE
  5
45B6
330
1F
100
AcDbEntity
  8
10000_Front
  6
Continuous
 62
     7
100
AcDbLine
 39
0.45
 10
106.1754508930553
 20
185.251117811874
 30
0.4
 11
106.1754508930553
 21
186.2434178118738
 31
0.4
1001
AUSTER_ANSICHT
1002
{
1000
V
1002
}
1001
AUSTER_FOLIE
1002
{
1000
4_POL_AUFSATZ
1002
}
  0
LINE
  5
45B7
330
1F
100
AcDbEntity
  8
10000_Front
  6
Continuous
 62
     7
100
AcDbLine
 39
0.45
 10
105.1454508930553
 20
186.2434178118738
 30
0.4
 11
105.1454508930553
 21
185.251117811874
 31
0.4
1001
AUSTER_ANSICHT
1002
{
1000
V
1002
}
1001
AUSTER_FOLIE
1002
{
1000
4_POL_AUFSATZ
1002
}
  0
LINE
  5
45B8
330
1F
100
AcDbEntity
  8
10000_Front
  6
Continuous
 62
     7
100
AcDbLine
 39
0.45
 10
105.1454508930553
 20
185.070817811874
 30
0.4
 11
102.8747508930553
 21
185.070817811874
 31
0.4
1001
AUSTER_ANSICHT
1002
{
1000
V
1002
}
1001
AUSTER_FOLIE
1002
{
1000
4_POL_AUFSATZ
1002
}
  0
LINE
  5
45B9
330
1F
100
AcDbEntity
  8
10000_Front
  6
Continuous
 62
     7
100
AcDbLine
 39
0.45
 10
108.4461508930553
 20
185.070817811874
 30
0.4
 11
106.1754508930553
 21
185.070817811874
 31
0.4
1001
AUSTER_ANSICHT
1002
{
1000
V
1002
}
1001
AUSTER_FOLIE
1002
{
1000
4_POL_AUFSATZ
1002
}
  0
LINE
  5
45BA
330
1F
100
AcDbEntity
  8
10000_Front
  6
Continuous
 62
     7
100
AcDbLine
 39
0.45
 10
106.1754508930553
 20
183.862217811874
 30
0.4
 11
108.4461508930553
 21
183.862217811874
 31
0.4
1001
AUSTER_ANSICHT
1002
{
1000
V
1002
}
1001
AUSTER_FOLIE
1002
{
1000
4_POL_AUFSATZ
1002
}
  0
LINE
  5
45BB
330
1F
100
AcDbEntity
  8
10000_Front
  6
Continuous
 62
     7
100
AcDbLine
 39
0.45
 10
102.8747508930553
 20
183.862217811874
 30
0.4
 11
105.1454508930553
 21
183.862217811874
 31
0.4
1001
AUSTER_ANSICHT
1002
{
1000
V
1002
}
1001
AUSTER_FOLIE
1002
{
1000
4_POL_AUFSATZ
1002
}
  0
LINE
  5
45BC
330
1F
100
AcDbEntity
  8
10000_Front
  6
Continuous
 62
     7
100
AcDbLine
 39
0.45
 10
94.1454008930553
 20
183.681917811874
 30
0.4
 11
94.1454008930553
 21
183.862217811874
 31
0.4
1001
AUSTER_ANSICHT
1002
{
1000
V
1002
}
1001
AUSTER_FOLIE
1002
{
1000
4_POL_AUFSATZ
1002
}
  0
LINE
  5
45BD
330
1F
100
AcDbEntity
  8
10000_Front
  6
Continuous
 62
     7
100
AcDbLine
 39
0.45
 10
94.1454008930553
 20
185.251117811874
 30
0.4
 11
94.1454008930553
 21
185.070817811874
 31
0.4
1001
AUSTER_ANSICHT
1002
{
1000
V
1002
}
1001
AUSTER_FOLIE
1002
{
1000
4_POL_AUFSATZ
1002
}
  0
LINE
  5
45BE
330
1F
100
AcDbEntity
  8
10000_Front
  6
Continuous
 62
     7
100
AcDbLine
 39
0.45
 10
95.17540089305532
 20
183.681917811874
 30
0.4
 11
95.17540089305532
 21
183.862217811874
 31
0.4
1001
AUSTER_ANSICHT
1002
{
1000
V
1002
}
1001
AUSTER_FOLIE
1002
{
1000
4_POL_AUFSATZ
1002
}
  0
LINE
  5
45BF
330
1F
100
AcDbEntity
  8
10000_Front
  6
Continuous
 62
     7
100
AcDbLine
 39
0.45
 10
95.17540089305532
 20
185.251117811874
 30
0.4
 11
95.17540089305532
 21
185.070817811874
 31
0.4
1001
AUSTER_ANSICHT
1002
{
1000
V
1002
}
1001
AUSTER_FOLIE
1002
{
1000
4_POL_AUFSATZ
1002
}
  0
LINE
  5
45C0
330
1F
100
AcDbEntity
  8
10000_Front
  6
Continuous
 62
     7
100
AcDbLine
 39
0.45
 10
94.1454008930553
 20
183.681917811874
 30
0.4
 11
94.1454008930553
 21
182.689617811874
 31
0.4
1001
AUSTER_ANSICHT
1002
{
1000
V
1002
}
1001
AUSTER_FOLIE
1002
{
1000
4_POL_AUFSATZ
1002
}
  0
LINE
  5
45C1
330
1F
100
AcDbEntity
  8
10000_Front
  6
Continuous
 62
     7
100
AcDbLine
 39
0.45
 10
95.17540089305532
 20
182.689617811874
 30
0.4
 11
95.17540089305532
 21
183.681917811874
 31
0.4
1001
AUSTER_ANSICHT
1002
{
1000
V
1002
}
1001
AUSTER_FOLIE
1002
{
1000
4_POL_AUFSATZ
1002
}
  0
LINE
  5
45C2
330
1F
100
AcDbEntity
  8
10000_Front
  6
Continuous
 62
     7
100
AcDbLine
 39
0.45
 10
95.17540089305532
 20
185.251117811874
 30
0.4
 11
95.17540089305532
 21
186.2434178118738
 31
0.4
1001
AUSTER_ANSICHT
1002
{
1000
V
1002
}
1001
AUSTER_FOLIE
1002
{
1000
4_POL_AUFSATZ
1002
}
  0
LINE
  5
45C3
330
1F
100
AcDbEntity
  8
10000_Front
  6
Continuous
 62
     7
100
AcDbLine
 39
0.45
 10
94.1454008930553
 20
186.2434178118738
 30
0.4
 11
94.1454008930553
 21
185.251117811874
 31
0.4
1001
AUSTER_ANSICHT
1002
{
1000
V
1002
}
1001
AUSTER_FOLIE
1002
{
1000
4_POL_AUFSATZ
1002
}
  0
LINE
  5
45C4
330
1F
100
AcDbEntity
  8
10000_Front
  6
Continuous
 62
     7
100
AcDbLine
 39
0.45
 10
94.1454008930553
 20
185.070817811874
 30
0.4
 11
91.87470089305531
 21
185.070817811874
 31
0.4
1001
AUSTER_ANSICHT
1002
{
1000
V
1002
}
1001
AUSTER_FOLIE
1002
{
1000
4_POL_AUFSATZ
1002
}
  0
LINE
  5
45C5
330
1F
100
AcDbEntity
  8
10000_Front
  6
Continuous
 62
     7
100
AcDbLine
 39
0.45
 10
97.44610089305531
 20
185.070817811874
 30
0.4
 11
95.17540089305532
 21
185.070817811874
 31
0.4
1001
AUSTER_ANSICHT
1002
{
1000
V
1002
}
1001
AUSTER_FOLIE
1002
{
1000
4_POL_AUFSATZ
1002
}
  0
LINE
  5
45C6
330
1F
100
AcDbEntity
  8
10000_Front
  6
Continuous
 62
     7
100
AcDbLine
 39
0.45
 10
95.17540089305532
 20
183.862217811874
 30
0.4
 11
97.44610089305531
 21
183.862217811874
 31
0.4
1001
AUSTER_ANSICHT
1002
{
1000
V
1002
}
1001
AUSTER_FOLIE
1002
{
1000
4_POL_AUFSATZ
1002
}
  0
LINE
  5
45C7
330
1F
100
AcDbEntity
  8
10000_Front
  6
Continuous
 62
     7
100
AcDbLine
 39
0.45
 10
91.87470089305531
 20
183.862217811874
 30
0.4
 11
94.1454008930553
 21
183.862217811874
 31
0.4
1001
AUSTER_ANSICHT
1002
{
1000
V
1002
}
1001
AUSTER_FOLIE
1002
{
1000
4_POL_AUFSATZ
1002
}
  0
LINE
  5
45C8
330
1F
100
AcDbEntity
  8
10000_Front
  6
Continuous
 62
     7
100
AcDbLine
 39
0.45
 10
83.14538089305532
 20
183.681917811874
 30
0.4
 11
83.14538089305532
 21
183.862217811874
 31
0.4
1001
AUSTER_ANSICHT
1002
{
1000
V
1002
}
1001
AUSTER_FOLIE
1002
{
1000
4_POL_AUFSATZ
1002
}
  0
LINE
  5
45C9
330
1F
100
AcDbEntity
  8
10000_Front
  6
Continuous
 62
     7
100
AcDbLine
 39
0.45
 10
83.14538089305532
 20
185.251117811874
 30
0.4
 11
83.14538089305532
 21
185.070817811874
 31
0.4
1001
AUSTER_ANSICHT
1002
{
1000
V
1002
}
1001
AUSTER_FOLIE
1002
{
1000
4_POL_AUFSATZ
1002
}
  0
LINE
  5
45CA
330
1F
100
AcDbEntity
  8
10000_Front
  6
Continuous
 62
     7
100
AcDbLine
 39
0.45
 10
84.17538089305532
 20
183.681917811874
 30
0.4
 11
84.17538089305532
 21
183.862217811874
 31
0.4
1001
AUSTER_ANSICHT
1002
{
1000
V
1002
}
1001
AUSTER_FOLIE
1002
{
1000
4_POL_AUFSATZ
1002
}
  0
LINE
  5
45CB
330
1F
100
AcDbEntity
  8
10000_Front
  6
Continuous
 62
     7
100
AcDbLine
 39
0.45
 10
84.17538089305532
 20
185.251117811874
 30
0.4
 11
84.17538089305532
 21
185.070817811874
 31
0.4
1001
AUSTER_ANSICHT
1002
{
1000
V
1002
}
1001
AUSTER_FOLIE
1002
{
1000
4_POL_AUFSATZ
1002
}
  0
LINE
  5
45CC
330
1F
100
AcDbEntity
  8
10000_Front
  6
Continuous
 62
     7
100
AcDbLine
 39
0.45
 10
83.14538089305532
 20
183.681917811874
 30
0.4
 11
83.14538089305532
 21
182.689617811874
 31
0.4
1001
AUSTER_ANSICHT
1002
{
1000
V
1002
}
1001
AUSTER_FOLIE
1002
{
1000
4_POL_AUFSATZ
1002
}
  0
LINE
  5
45CD
330
1F
100
AcDbEntity
  8
10000_Front
  6
Continuous
 62
     7
100
AcDbLine
 39
0.45
 10
84.17538089305532
 20
182.689617811874
 30
0.4
 11
84.17538089305532
 21
183.681917811874
 31
0.4
1001
AUSTER_ANSICHT
1002
{
1000
V
1002
}
1001
AUSTER_FOLIE
1002
{
1000
4_POL_AUFSATZ
1002
}
  0
LINE
  5
45CE
330
1F
100
AcDbEntity
  8
10000_Front
  6
Continuous
 62
     7
100
AcDbLine
 39
0.45
 10
84.17538089305532
 20
185.251117811874
 30
0.4
 11
84.17538089305532
 21
186.2434178118738
 31
0.4
1001
AUSTER_ANSICHT
1002
{
1000
V
1002
}
1001
AUSTER_FOLIE
1002
{
1000
4_POL_AUFSATZ
1002
}
  0
LINE
  5
45CF
330
1F
100
AcDbEntity
  8
10000_Front
  6
Continuous
 62
     7
100
AcDbLine
 39
0.45
 10
83.14538089305532
 20
186.2434178118738
 30
0.4
 11
83.14538089305532
 21
185.251117811874
 31
0.4
1001
AUSTER_ANSICHT
1002
{
1000
V
1002
}
1001
AUSTER_FOLIE
1002
{
1000
4_POL_AUFSATZ
1002
}
  0
LINE
  5
45D0
330
1F
100
AcDbEntity
  8
10000_Front
  6
Continuous
 62
     7
100
AcDbLine
 39
0.45
 10
83.14538089305532
 20
185.070817811874
 30
0.4
 11
80.87468089305531
 21
185.070817811874
 31
0.4
1001
AUSTER_ANSICHT
1002
{
1000
V
1002
}
1001
AUSTER_FOLIE
1002
{
1000
4_POL_AUFSATZ
1002
}
  0
LINE
  5
45D1
330
1F
100
AcDbEntity
  8
10000_Front
  6
Continuous
 62
     7
100
AcDbLine
 39
0.45
 10
86.44608089305533
 20
185.070817811874
 30
0.4
 11
84.17538089305532
 21
185.070817811874
 31
0.4
1001
AUSTER_ANSICHT
1002
{
1000
V
1002
}
1001
AUSTER_FOLIE
1002
{
1000
4_POL_AUFSATZ
1002
}
  0
LINE
  5
45D2
330
1F
100
AcDbEntity
  8
10000_Front
  6
Continuous
 62
     7
100
AcDbLine
 39
0.45
 10
84.17538089305532
 20
183.862217811874
 30
0.4
 11
86.44608089305533
 21
183.862217811874
 31
0.4
1001
AUSTER_ANSICHT
1002
{
1000
V
1002
}
1001
AUSTER_FOLIE
1002
{
1000
4_POL_AUFSATZ
1002
}
  0
LINE
  5
45D3
330
1F
100
AcDbEntity
  8
10000_Front
  6
Continuous
 62
     7
100
AcDbLine
 39
0.45
 10
80.87468089305531
 20
183.862217811874
 30
0.4
 11
83.14538089305532
 21
183.862217811874
 31
0.4
1001
AUSTER_ANSICHT
1002
{
1000
V
1002
}
1001
AUSTER_FOLIE
1002
{
1000
4_POL_AUFSATZ
1002
}
  0
LINE
  5
45D4
330
1F
100
AcDbEntity
  8
10000_Front
  6
Continuous
 62
     7
100
AcDbLine
 39
0.45
 10
72.14536089305531
 20
183.681917811874
 30
0.4
 11
72.14536089305531
 21
183.862217811874
 31
0.4
1001
AUSTER_ANSICHT
1002
{
1000
V
1002
}
1001
AUSTER_FOLIE
1002
{
1000
4_POL_AUFSATZ
1002
}
  0
LINE
  5
45D5
330
1F
100
AcDbEntity
  8
10000_Front
  6
Continuous
 62
     7
100
AcDbLine
 39
0.45
 10
72.14536089305531
 20
185.251117811874
 30
0.4
 11
72.14536089305531
 21
185.070817811874
 31
0.4
1001
AUSTER_ANSICHT
1002
{
1000
V
1002
}
1001
AUSTER_FOLIE
1002
{
1000
4_POL_AUFSATZ
1002
}
  0
LINE
  5
45D6
330
1F
100
AcDbEntity
  8
10000_Front
  6
Continuous
 62
     7
100
AcDbLine
 39
0.45
 10
73.17536089305531
 20
183.681917811874
 30
0.4
 11
73.17536089305531
 21
183.862217811874
 31
0.4
1001
AUSTER_ANSICHT
1002
{
1000
V
1002
}
1001
AUSTER_FOLIE
1002
{
1000
4_POL_AUFSATZ
1002
}
  0
LINE
  5
45D7
330
1F
100
AcDbEntity
  8
10000_Front
  6
Continuous
 62
     7
100
AcDbLine
 39
0.45
 10
73.17536089305531
 20
185.251117811874
 30
0.4
 11
73.17536089305531
 21
185.070817811874
 31
0.4
1001
AUSTER_ANSICHT
1002
{
1000
V
1002
}
1001
AUSTER_FOLIE
1002
{
1000
4_POL_AUFSATZ
1002
}
  0
LINE
  5
45D8
330
1F
100
AcDbEntity
  8
10000_Front
  6
Continuous
 62
     7
100
AcDbLine
 39
0.45
 10
72.14536089305531
 20
183.681917811874
 30
0.4
 11
72.14536089305531
 21
182.689617811874
 31
0.4
1001
AUSTER_ANSICHT
1002
{
1000
V
1002
}
1001
AUSTER_FOLIE
1002
{
1000
4_POL_AUFSATZ
1002
}
  0
LINE
  5
45D9
330
1F
100
AcDbEntity
  8
10000_Front
  6
Continuous
 62
     7
100
AcDbLine
 39
0.45
 10
73.17536089305531
 20
182.689617811874
 30
0.4
 11
73.17536089305531
 21
183.681917811874
 31
0.4
1001
AUSTER_ANSICHT
1002
{
1000
V
1002
}
1001
AUSTER_FOLIE
1002
{
1000
4_POL_AUFSATZ
1002
}
  0
LINE
  5
45DA
330
1F
100
AcDbEntity
  8
10000_Front
  6
Continuous
 62
     7
100
AcDbLine
 39
0.45
 10
73.17536089305531
 20
185.251117811874
 30
0.4
 11
73.17536089305531
 21
186.2434178118738
 31
0.4
1001
AUSTER_ANSICHT
1002
{
1000
V
1002
}
1001
AUSTER_FOLIE
1002
{
1000
4_POL_AUFSATZ
1002
}
  0
LINE
  5
45DB
330
1F
100
AcDbEntity
  8
10000_Front
  6
Continuous
 62
     7
100
AcDbLine
 39
0.45
 10
72.14536089305531
 20
186.2434178118738
 30
0.4
 11
72.14536089305531
 21
185.251117811874
 31
0.4
1001
AUSTER_ANSICHT
1002
{
1000
V
1002
}
1001
AUSTER_FOLIE
1002
{
1000
4_POL_AUFSATZ
1002
}
  0
LINE
  5
45DC
330
1F
100
AcDbEntity
  8
10000_Front
  6
Continuous
 62
     7
100
AcDbLine
 39
0.45
 10
72.14536089305531
 20
185.070817811874
 30
0.4
 11
69.87466089305532
 21
185.070817811874
 31
0.4
1001
AUSTER_ANSICHT
1002
{
1000
V
1002
}
1001
AUSTER_FOLIE
1002
{
1000
4_POL_AUFSATZ
1002
}
  0
LINE
  5
45DD
330
1F
100
AcDbEntity
  8
10000_Front
  6
Continuous
 62
     7
100
AcDbLine
 39
0.45
 10
75.44606089305531
 20
185.070817811874
 30
0.4
 11
73.17536089305531
 21
185.070817811874
 31
0.4
1001
AUSTER_ANSICHT
1002
{
1000
V
1002
}
1001
AUSTER_FOLIE
1002
{
1000
4_POL_AUFSATZ
1002
}
  0
LINE
  5
45DE
330
1F
100
AcDbEntity
  8
10000_Front
  6
Continuous
 62
     7
100
AcDbLine
 39
0.45
 10
73.17536089305531
 20
183.862217811874
 30
0.4
 11
75.44606089305531
 21
183.862217811874
 31
0.4
1001
AUSTER_ANSICHT
1002
{
1000
V
1002
}
1001
AUSTER_FOLIE
1002
{
1000
4_POL_AUFSATZ
1002
}
  0
LINE
  5
45DF
330
1F
100
AcDbEntity
  8
10000_Front
  6
Continuous
 62
     7
100
AcDbLine
 39
0.45
 10
69.87466089305532
 20
183.862217811874
 30
0.4
 11
72.14536089305531
 21
183.862217811874
 31
0.4
1001
AUSTER_ANSICHT
1002
{
1000
V
1002
}
1001
AUSTER_FOLIE
1002
{
1000
4_POL_AUFSATZ
1002
}
  0
LINE
  5
45E0
330
1F
100
AcDbEntity
  8
10000_Front
  6
Continuous
 62
     7
100
AcDbLine
 39
0.45
 10
93.21038089305529
 20
191.966517811874
 30
0.4
 11
93.21038089305529
 21
194.966517811874
 31
0.4
1001
AUSTER_ANSICHT
1002
{
1000
V
1002
}
1001
AUSTER_FOLIE
1002
{
1000
4_POL_AUFSATZ
1002
}
  0
LINE
  5
45E1
330
1F
100
AcDbEntity
  8
10000_Front
  6
Continuous
 62
     7
100
AcDbLine
 39
0.45
 10
93.21038089305529
 20
194.966517811874
 30
0.4
 11
96.2103808930553
 21
194.966517811874
 31
0.4
1001
AUSTER_ANSICHT
1002
{
1000
V
1002
}
1001
AUSTER_FOLIE
1002
{
1000
4_POL_AUFSATZ
1002
}
  0
LINE
  5
45E2
330
1F
100
AcDbEntity
  8
10000_Front
  6
Continuous
 62
     7
100
AcDbLine
 39
0.45
 10
96.2103808930553
 20
194.966517811874
 30
0.4
 11
96.2103808930553
 21
191.966517811874
 31
0.4
1001
AUSTER_ANSICHT
1002
{
1000
V
1002
}
1001
AUSTER_FOLIE
1002
{
1000
4_POL_AUFSATZ
1002
}
  0
LINE
  5
45E3
330
1F
100
AcDbEntity
  8
10000_Front
  6
Continuous
 62
     7
100
AcDbLine
 39
0.45
 10
96.2103808930553
 20
191.966517811874
 30
0.4
 11
93.21038089305529
 21
191.966517811874
 31
0.4
1001
AUSTER_ANSICHT
1002
{
1000
V
1002
}
1001
AUSTER_FOLIE
1002
{
1000
4_POL_AUFSATZ
1002
}
  0
LINE
  5
45E4
102
{ACAD_REACTORS
330
47E7
102
}
330
1F
100
AcDbEntity
  8
10000_Front
  6
Continuous
 62
     7
370
    50
100
AcDbLine
 39
0.45
 10
67.21038089305531
 20
197.957517811874
 30
0.4
 11
67.21038089305531
 21
211.666717811874
 31
0.4
1001
AUSTER_ANSICHT
1002
{
1000
V
1002
}
1001
AUSTER_FOLIE
1002
{
1000
4_POL_AUFSATZ
1002
}
  0
LINE
  5
45E5
330
1F
100
AcDbEntity
  8
10000_Front
  6
Continuous
 62
     7
370
    50
100
AcDbLine
 39
0.45
 10
67.21038089305531
 20
188.975517811874
 30
0.4
 11
67.21038089305531
 21
197.957517811874
 31
0.4
1001
AUSTER_ANSICHT
1002
{
1000
V
1002
}
1001
AUSTER_FOLIE
1002
{
1000
4_POL_AUFSATZ
1002
}
  0
LINE
  5
45E6
330
1F
100
AcDbEntity
  8
10000_Front
  6
Continuous
 62
     7
370
    50
100
AcDbLine
 39
0.45
 10
67.21038089305531
 20
175.266517811874
 30
0.4
 11
67.21038089305531
 21
188.975517811874
 31
0.4
1001
AUSTER_ANSICHT
1002
{
1000
V
1002
}
1001
AUSTER_FOLIE
1002
{
1000
4_POL_AUFSATZ
1002
}
  0
LINE
  5
45E7
330
1F
100
AcDbEntity
  8
10000_Front
  6
Continuous
 62
     7
370
    50
100
AcDbLine
 39
0.45
 10
110.4103508930553
 20
175.1936178118739
 30
0.4
 11
110.4103508930553
 21
188.966517811874
 31
0.4
1001
AUSTER_ANSICHT
1002
{
1000
V
1002
}
1001
AUSTER_FOLIE
1002
{
1000
4_POL_AUFSATZ
1002
}
  0
LINE
  5
45E8
330
1F
100
AcDbEntity
  8
10000_Front
  6
Continuous
 62
     7
100
AcDbLine
 39
0.45
 10
110.0103508930553
 20
190.816517811874
 30
0.4
 11
110.0103508930553
 21
189.829917811874
 31
0.4
1001
AUSTER_ANSICHT
1002
{
1000
V
1002
}
1001
AUSTER_FOLIE
1002
{
1000
4_POL_AUFSATZ
1002
}
  0
LINE
  5
45E9
330
1F
100
AcDbEntity
  8
10000_Front
  6
Continuous
 62
     7
370
    50
100
AcDbLine
 39
0.45
 10
110.4103508930553
 20
197.103117811874
 30
0.4
 11
110.4103508930553
 21
197.966517811874
 31
0.4
1001
AUSTER_ANSICHT
1002
{
1000
V
1002
}
1001
AUSTER_FOLIE
1002
{
1000
4_POL_AUFSATZ
1002
}
  0
LINE
  5
45EA
330
1F
100
AcDbEntity
  8
10000_Front
  6
Continuous
 62
     7
100
AcDbLine
 39
0.45
 10
68.96038089305531
 20
189.829917811874
 30
0.4
 11
68.96038089305531
 21
197.103117811874
 31
0.4
1001
AUSTER_ANSICHT
1002
{
1000
V
1002
}
1001
AUSTER_FOLIE
1002
{
1000
4_POL_AUFSATZ
1002
}
  0
LINE
  5
45EB
102
{ACAD_REACTORS
330
47E7
102
}
330
1F
100
AcDbEntity
  8
10000_Front
  6
Continuous
 62
     7
370
    50
100
AcDbLine
 39
0.45
 10
110.4103508930553
 20
197.966517811874
 30
0.4
 11
110.4103508930553
 21
211.739317811874
 31
0.4
1001
AUSTER_ANSICHT
1002
{
1000
V
1002
}
1001
AUSTER_FOLIE
1002
{
1000
4_POL_AUFSATZ
1002
}
  0
LINE
  5
45EC
330
1F
100
AcDbEntity
  8
10000_Front
  6
Continuous
 62
     7
100
AcDbLine
 39
0.45
 10
96.81038089305531
 20
195.566517811874
 30
0.4
 11
92.61038089305531
 21
195.566517811874
 31
0.4
1001
AUSTER_ANSICHT
1002
{
1000
V
1002
}
1001
AUSTER_FOLIE
1002
{
1000
4_POL_AUFSATZ
1002
}
  0
LINE
  5
45ED
330
1F
100
AcDbEntity
  8
10000_Front
  6
Continuous
 62
     7
100
AcDbLine
 39
0.45
 10
92.61038089305531
 20
195.566517811874
 30
0.4
 11
92.61038089305531
 21
191.3665178118739
 31
0.4
1001
AUSTER_ANSICHT
1002
{
1000
V
1002
}
1001
AUSTER_FOLIE
1002
{
1000
4_POL_AUFSATZ
1002
}
  0
LINE
  5
45EE
330
1F
100
AcDbEntity
  8
10000_Front
  6
Continuous
 62
     7
100
AcDbLine
 39
0.45
 10
92.61038089305531
 20
191.3665178118739
 30
0.4
 11
96.81038089305531
 21
191.3665178118739
 31
0.4
1001
AUSTER_ANSICHT
1002
{
1000
V
1002
}
1001
AUSTER_FOLIE
1002
{
1000
4_POL_AUFSATZ
1002
}
  0
LINE
  5
45EF
330
1F
100
AcDbEntity
  8
10000_Front
  6
Continuous
 62
     7
100
AcDbLine
 39
0.45
 10
96.81038089305531
 20
191.3665178118739
 30
0.4
 11
96.81038089305531
 21
195.566517811874
 31
0.4
1001
AUSTER_ANSICHT
1002
{
1000
V
1002
}
1001
AUSTER_FOLIE
1002
{
1000
4_POL_AUFSATZ
1002
}
  0
LINE
  5
45F0
330
1F
100
AcDbEntity
  8
10000_Front
  6
Continuous
 62
     7
100
AcDbLine
 39
0.45
 10
110.0003508930553
 20
197.103117811874
 30
0.4
 11
110.0003508930553
 21
190.816417811874
 31
0.4
1001
AUSTER_ANSICHT
1002
{
1000
V
1002
}
1001
AUSTER_FOLIE
1002
{
1000
4_POL_AUFSATZ
1002
}
  0
LINE
  5
45F1
330
1F
100
AcDbEntity
  8
10000_Front
  6
Continuous
 62
     7
100
AcDbLine
 39
0.45
 10
80.21038089305532
 20
214.066517811874
 30
0.4
 11
87.2103808930553
 21
214.066517811874
 31
0.4
1001
AUSTER_ANSICHT
1002
{
1000
V
1002
}
1001
AUSTER_FOLIE
1002
{
1000
4_POL_AUFSATZ
1002
}
  0
LINE
  5
45F2
330
1F
100
AcDbEntity
  8
10000_Front
  6
Continuous
 62
     7
100
AcDbLine
 39
0.45
 10
87.2103808930553
 20
214.066517811874
 30
0.4
 11
87.2103808930553
 21
213.566517811874
 31
0.4
1001
AUSTER_ANSICHT
1002
{
1000
V
1002
}
1001
AUSTER_FOLIE
1002
{
1000
4_POL_AUFSATZ
1002
}
  0
LINE
  5
45F3
330
1F
100
AcDbEntity
  8
10000_Front
  6
Continuous
 62
     7
100
AcDbLine
 39
0.45
 10
80.21038089305532
 20
213.566517811874
 30
0.4
 11
80.21038089305532
 21
214.066517811874
 31
0.4
1001
AUSTER_ANSICHT
1002
{
1000
V
1002
}
1001
AUSTER_FOLIE
1002
{
1000
4_POL_AUFSATZ
1002
}
  0
LINE
  5
45F4
330
1F
100
AcDbEntity
  8
10000_Front
  6
Continuous
 62
     7
100
AcDbLine
 39
0.45
 10
80.21038089305532
 20
212.466017811874
 30
0.4
 11
80.21038089305532
 21
213.566517811874
 31
0.4
1001
AUSTER_ANSICHT
1002
{
1000
V
1002
}
1001
AUSTER_FOLIE
1002
{
1000
4_POL_AUFSATZ
1002
}
  0
LINE
  5
45F5
330
1F
100
AcDbEntity
  8
10000_Front
  6
Continuous
 62
     7
100
AcDbLine
 39
0.45
 10
87.2103808930553
 20
213.566517811874
 30
0.4
 11
80.21038089305532
 21
213.566517811874
 31
0.4
1001
AUSTER_ANSICHT
1002
{
1000
V
1002
}
1001
AUSTER_FOLIE
1002
{
1000
4_POL_AUFSATZ
1002
}
  0
LINE
  5
45F6
330
1F
100
AcDbEntity
  8
10000_Front
  6
Continuous
 62
     7
100
AcDbLine
 39
0.45
 10
87.2103808930553
 20
213.566517811874
 30
0.4
 11
87.2103808930553
 21
212.466017811874
 31
0.4
1001
AUSTER_ANSICHT
1002
{
1000
V
1002
}
1001
AUSTER_FOLIE
1002
{
1000
4_POL_AUFSATZ
1002
}
  0
LINE
  5
45F7
330
1F
100
AcDbEntity
  8
10000_Front
  6
Continuous
 62
     7
370
    50
100
AcDbLine
 39
0.45
 10
110.4103508930553
 20
197.103117811874
 30
0.4
 11
110.4103508930553
 21
190.816517811874
 31
0.4
1001
AUSTER_ANSICHT
1002
{
1000
V
1002
}
1001
AUSTER_FOLIE
1002
{
1000
4_POL_AUFSATZ
1002
}
  0
LINE
  5
45F8
330
1F
100
AcDbEntity
  8
10000_Front
  6
Continuous
 62
     7
100
AcDbLine
 39
0.45
 10
88.9598808930553
 20
197.103117811874
 30
0.4
 11
88.9603108930553
 21
189.829917811874
 31
0.4
1001
AUSTER_ANSICHT
1002
{
1000
V
1002
}
1001
AUSTER_FOLIE
1002
{
1000
4_POL_AUFSATZ
1002
}
  0
LINE
  5
45F9
330
1F
100
AcDbEntity
  8
10000_Front
  6
Continuous
 62
     7
100
AcDbLine
 39
0.45
 10
100.0003508930553
 20
197.103117811874
 30
0.4
 11
100.0003508930553
 21
189.829917811874
 31
0.4
1001
AUSTER_ANSICHT
1002
{
1000
V
1002
}
1001
AUSTER_FOLIE
1002
{
1000
4_POL_AUFSATZ
1002
}
  0
LINE
  5
45FA
102
{ACAD_REACTORS
330
4635
102
}
330
1F
100
AcDbEntity
  8
10000_Front
  6
Continuous
 62
     7
370
    50
100
AcDbLine
 39
0.45
 10
109.6103508930553
 20
174.466517811874
 30
0.4
 11
68.01038089305531
 21
174.466517811874
 31
0.4
1001
AUSTER_ANSICHT
1002
{
1000
V
1002
}
1001
AUSTER_FOLIE
1002
{
1000
4_POL_AUFSATZ
1002
}
  0
LINE
  5
45FB
330
1F
100
AcDbEntity
  8
10000_Front
  6
Continuous
 62
     7
370
    50
100
AcDbLine
 39
0.45
 10
68.01038089305531
 20
212.466517811874
 30
0.4
 11
109.6103508930553
 21
212.466517811874
 31
0.4
1001
AUSTER_ANSICHT
1002
{
1000
V
1002
}
1001
AUSTER_FOLIE
1002
{
1000
4_POL_AUFSATZ
1002
}
  0
LINE
  5
45FC
330
1F
100
AcDbEntity
  8
10000_Front
  6
Continuous
 62
     7
370
    50
100
AcDbLine
 39
0.45
 10
110.4103508930553
 20
188.966517811874
 30
0.4
 11
110.4103508930553
 21
190.816517811874
 31
0.4
1001
AUSTER_ANSICHT
1002
{
1000
V
1002
}
1001
AUSTER_FOLIE
1002
{
1000
4_POL_AUFSATZ
1002
}
  0
LINE
  5
45FD
330
1F
100
AcDbEntity
  8
10000_Front
  6
Continuous
 62
     7
100
AcDbLine
 39
0.45
 10
110.0103508930553
 20
189.829917811874
 30
0.4
 11
68.96038089305531
 21
189.829917811874
 31
0.4
1001
AUSTER_ANSICHT
1002
{
1000
V
1002
}
1001
AUSTER_FOLIE
1002
{
1000
4_POL_AUFSATZ
1002
}
  0
LINE
  5
45FE
330
1F
100
AcDbEntity
  8
10000_Front
  6
Continuous
 62
     7
100
AcDbLine
 39
0.45
 10
68.96038089305531
 20
197.103117811874
 30
0.4
 11
110.0003508930553
 21
197.103117811874
 31
0.4
1001
AUSTER_ANSICHT
1002
{
1000
V
1002
}
1001
AUSTER_FOLIE
1002
{
1000
4_POL_AUFSATZ
1002
}
  0
ARC
  5
45FF
330
1F
100
AcDbEntity
  8
11000_Left
  6
DASHED
 62
     7
 48
10.0
370
     9
100
AcDbCircle
 39
0.35
 10
159.470180504443
 20
184.4840238444229
 30
0.0500000000000001
 40
1.0
100
AcDbArc
 50
180.0
 51
270.0
1001
AUSTER_ANSICHT
1002
{
1000
Det03
1002
}
1001
AUSTER_FOLIE
1002
{
1000
NSB00753_S0
1002
}
  0
ARC
  5
4600
330
1F
100
AcDbEntity
  8
11000_Left
  6
DASHED
 62
     7
 48
10.0
370
     9
100
AcDbCircle
 39
0.35
 10
159.570180504443
 20
179.5840238444229
 30
0.0500000000000001
 40
1.9
100
AcDbArc
 50
0.0000000107542442
 51
90.0
1001
AUSTER_ANSICHT
1002
{
1000
Det03
1002
}
1001
AUSTER_FOLIE
1002
{
1000
NSB00753_S0
1002
}
  0
ARC
  5
4601
330
1F
100
AcDbEntity
  8
11000_Left
  6
DASHED
 62
     7
 48
10.0
370
     9
100
AcDbCircle
 39
0.35
 10
156.970180504443
 20
182.4840238444229
 30
1.05
 40
1.0
100
AcDbArc
 50
180.0
 51
270.0
1001
AUSTER_ANSICHT
1002
{
1000
Det03
1002
}
1001
AUSTER_FOLIE
1002
{
1000
NSB00753_S0
1002
}
  0
LINE
  5
4602
330
1F
100
AcDbEntity
  8
11000_Left
  6
DASHED
 62
     7
 48
10.0
370
     9
100
AcDbLine
 39
0.35
 10
162.470180504443
 20
178.8340238444229
 30
0.0500000000000001
 11
162.470180504443
 21
176.3340238444229
 31
0.0500000000000001
1001
AUSTER_ANSICHT
1002
{
1000
Det03
1002
}
1001
AUSTER_FOLIE
1002
{
1000
NSB00753_S0
1002
}
  0
LINE
  5
4603
330
1F
100
AcDbEntity
  8
11000_Left
  6
DASHED
 62
     7
 48
10.0
370
     9
100
AcDbLine
 39
0.35
 10
158.470180504443
 20
184.4840238444229
 30
0.0500000000000001
 11
158.470180504443
 21
203.484023844423
 31
0.0500000000000001
1001
AUSTER_ANSICHT
1002
{
1000
Det03
1002
}
1001
AUSTER_FOLIE
1002
{
1000
NSB00753_S0
1002
}
  0
LINE
  5
4604
330
1F
100
AcDbEntity
  8
11000_Left
  6
DASHED
 62
     7
 48
10.0
370
     9
100
AcDbLine
 39
0.35
 10
161.470180504443
 20
179.5840238444229
 30
0.0500000000000001
 11
161.470180504443
 21
179.3340238444229
 31
0.0500000000000001
1001
AUSTER_ANSICHT
1002
{
1000
Det03
1002
}
1001
AUSTER_FOLIE
1002
{
1000
NSB00753_S0
1002
}
  0
LINE
  5
4605
330
1F
100
AcDbEntity
  8
11000_Left
  6
DASHED
 62
     7
 48
10.0
370
     9
100
AcDbLine
 39
0.35
 10
161.970180504443
 20
179.3340238444229
 30
0.0500000000000001
 11
161.470180504443
 21
179.3340238444229
 31
0.0500000000000001
1001
AUSTER_ANSICHT
1002
{
1000
Det03
1002
}
1001
AUSTER_FOLIE
1002
{
1000
NSB00753_S0
1002
}
  0
LINE
  5
4606
330
1F
100
AcDbEntity
  8
11000_Left
  6
DASHED
 62
     7
 48
10.0
370
     9
100
AcDbLine
 39
0.35
 10
163.470180504443
 20
181.4840238444229
 30
0.0500000000000001
 11
161.470180504443
 21
183.4840238444229
 31
0.0500000000000001
1001
AUSTER_ANSICHT
1002
{
1000
Det03
1002
}
1001
AUSTER_FOLIE
1002
{
1000
NSB00753_S0
1002
}
  0
LINE
  5
4607
330
1F
100
AcDbEntity
  8
11000_Left
  6
DASHED
 62
     7
 48
10.0
370
     9
100
AcDbLine
 39
0.35
 10
159.470180504443
 20
183.4840238444229
 30
0.0500000000000001
 11
161.470180504443
 21
183.4840238444229
 31
0.0500000000000001
1001
AUSTER_ANSICHT
1002
{
1000
Det03
1002
}
1001
AUSTER_FOLIE
1002
{
1000
NSB00753_S0
1002
}
  0
LINE
  5
4608
330
1F
100
AcDbEntity
  8
11000_Left
  6
DASHED
 62
     7
 48
10.0
370
     9
100
AcDbLine
 39
0.35
 10
159.570180504443
 20
181.4840238444229
 30
1.05
 11
156.970180504443
 21
181.4840238444229
 31
1.05
1001
AUSTER_ANSICHT
1002
{
1000
Det03
1002
}
1001
AUSTER_FOLIE
1002
{
1000
NSB00753_S0
1002
}
  0
LINE
  5
4609
330
1F
100
AcDbEntity
  8
11000_Left
  6
DASHED
 62
     7
 48
10.0
370
     9
100
AcDbLine
 39
0.35
 10
155.970180504443
 20
182.4840238444229
 30
0.8
 11
155.970180504443
 21
205.484023844423
 31
0.8
1001
AUSTER_ANSICHT
1002
{
1000
Det03
1002
}
1001
AUSTER_FOLIE
1002
{
1000
NSB00753_S0
1002
}
  0
ARC
  5
460A
330
1F
100
AcDbEntity
  8
11000_Left
  6
DASHED
 62
     7
 48
10.0
370
     9
100
AcDbCircle
 39
0.35
 10
159.470180504443
 20
203.484023844423
 30
0.0500000000000001
 40
1.0
100
AcDbArc
 50
90.0
 51
180.0
1001
AUSTER_ANSICHT
1002
{
1000
Det03
1002
}
1001
AUSTER_FOLIE
1002
{
1000
NSB00753_S0
1002
}
  0
ARC
  5
460B
330
1F
100
AcDbEntity
  8
11000_Left
  6
DASHED
 62
     7
 48
10.0
370
     9
100
AcDbCircle
 39
0.35
 10
159.570180504443
 20
208.3840238444229
 30
0.0500000000000001
 40
1.9
100
AcDbArc
 50
270.0
 51
0.0
1001
AUSTER_ANSICHT
1002
{
1000
Det03
1002
}
1001
AUSTER_FOLIE
1002
{
1000
NSB00753_S0
1002
}
  0
ARC
  5
460C
330
1F
100
AcDbEntity
  8
11000_Left
  6
DASHED
 62
     7
 48
10.0
370
     9
100
AcDbCircle
 39
0.35
 10
161.970180504443
 20
209.1340238444229
 30
0.0500000000000001
 40
0.5
100
AcDbArc
 50
270.0
 51
0.0
1001
AUSTER_ANSICHT
1002
{
1000
Det03
1002
}
1001
AUSTER_FOLIE
1002
{
1000
NSB00753_S0
1002
}
  0
ARC
  5
460D
330
1F
100
AcDbEntity
  8
11000_Left
  6
DASHED
 62
     7
 48
10.0
370
     9
100
AcDbCircle
 39
0.35
 10
156.970180504443
 20
205.484023844423
 30
1.05
 40
1.0
100
AcDbArc
 50
90.0
 51
180.0
1001
AUSTER_ANSICHT
1002
{
1000
Det03
1002
}
1001
AUSTER_FOLIE
1002
{
1000
NSB00753_S0
1002
}
  0
LINE
  5
460E
330
1F
100
AcDbEntity
  8
11000_Left
  6
DASHED
 62
     7
 48
10.0
370
     9
100
AcDbLine
 39
0.35
 10
161.470180504443
 20
208.3840238444229
 30
0.0500000000000001
 11
161.470180504443
 21
208.6340238444229
 31
0.0500000000000001
1001
AUSTER_ANSICHT
1002
{
1000
Det03
1002
}
1001
AUSTER_FOLIE
1002
{
1000
NSB00753_S0
1002
}
  0
LINE
  5
460F
330
1F
100
AcDbEntity
  8
11000_Left
  6
DASHED
 62
     7
 48
10.0
370
     9
100
AcDbLine
 39
0.35
 10
161.970180504443
 20
208.6340238444229
 30
0.0500000000000001
 11
161.470180504443
 21
208.6340238444229
 31
0.0500000000000001
1001
AUSTER_ANSICHT
1002
{
1000
Det03
1002
}
1001
AUSTER_FOLIE
1002
{
1000
NSB00753_S0
1002
}
  0
LINE
  5
4610
330
1F
100
AcDbEntity
  8
11000_Left
  6
DASHED
 62
     7
 48
10.0
370
     9
100
AcDbLine
 39
0.35
 10
163.470180504443
 20
206.4840238444229
 30
0.0500000000000001
 11
161.470180504443
 21
204.4840238444229
 31
0.0500000000000001
1001
AUSTER_ANSICHT
1002
{
1000
Det03
1002
}
1001
AUSTER_FOLIE
1002
{
1000
NSB00753_S0
1002
}
  0
LINE
  5
4611
330
1F
100
AcDbEntity
  8
11000_Left
  6
DASHED
 62
     7
 48
10.0
370
     9
100
AcDbLine
 39
0.35
 10
159.470180504443
 20
204.4840238444229
 30
0.0500000000000001
 11
161.470180504443
 21
204.4840238444229
 31
0.0500000000000001
1001
AUSTER_ANSICHT
1002
{
1000
Det03
1002
}
1001
AUSTER_FOLIE
1002
{
1000
NSB00753_S0
1002
}
  0
LINE
  5
4612
330
1F
100
AcDbEntity
  8
11000_Left
  6
DASHED
 62
     7
 48
10.0
370
     9
100
AcDbLine
 39
0.35
 10
159.570180504443
 20
206.4840238444229
 30
1.05
 11
156.970180504443
 21
206.4840238444229
 31
1.05
1001
AUSTER_ANSICHT
1002
{
1000
Det03
1002
}
1001
AUSTER_FOLIE
1002
{
1000
NSB00753_S0
1002
}
  0
LINE
  5
4613
330
1F
100
AcDbEntity
  8
11000_Left
  6
DASHED
 62
     7
 48
10.0
370
     9
100
AcDbLine
 39
0.35
 10
162.470180504443
 20
211.6340238444229
 30
0.0500000000000001
 11
163.470180504443
 21
211.6340238444229
 31
0.0500000000000001
1001
AUSTER_ANSICHT
1002
{
1000
Det03
1002
}
1001
AUSTER_FOLIE
1002
{
1000
NSB00753_S0
1002
}
  0
LINE
  5
4614
330
1F
100
AcDbEntity
  8
11000_Left
  6
DASHED
 62
     7
 48
10.0
370
     9
100
AcDbLine
 39
0.35
 10
162.470180504443
 20
209.1340238444229
 30
0.0500000000000001
 11
162.470180504443
 21
211.6340238444229
 31
0.0500000000000001
1001
AUSTER_ANSICHT
1002
{
1000
Det03
1002
}
1001
AUSTER_FOLIE
1002
{
1000
NSB00753_S0
1002
}
  0
DIMENSION
  5
461E
102
{ACAD_XDICTIONARY
360
462B
102
}
102
{ACAD_REACTORS
330
4635
102
}
330
1F
100
AcDbEntity
  8
10100_Front_Dim
  6
Continuous
 62
     7
370
    13
100
AcDbDimension
  2
*D8
 10
127.7561978070182
 20
174.466517811874
 30
0.4
 11
127.7561978070182
 21
193.466517811874
 31
0.4
 70
    32
 71
     5
 42
38.00000000000006
  3
H035
100
AcDbAlignedDimension
 13
109.6103508930553
 23
212.466517811874
 33
0.4
 14
109.6103508930553
 24
174.466517811874
 34
0.4
 50
90.0
100
AcDbRotatedDimension
1001
ACAD
1000
DSTYLE
1002
{
1070
    77
1070
     0
1070
    40
1040
1.0
1070
   178
1070
     7
1070
   279
1070
     2
1002
}
  0
DIMENSION
  5
4648
102
{ACAD_XDICTIONARY
360
4655
102
}
102
{ACAD_REACTORS
330
465F
102
}
330
1F
100
AcDbEntity
  8
10100_Front_Dim
  6
Continuous
 62
     7
370
    13
100
AcDbDimension
  2
*D9
 10
120.3261526925229
 20
184.466517811874
 30
0.4
 11
120.3261526925229
 21
193.466517811874
 31
0.4
 70
    32
 71
     5
 42
18.0
  3
H035
100
AcDbAlignedDimension
 13
108.7604508930553
 23
202.466517811874
 33
0.4
 14
108.7604508930553
 24
184.466517811874
 34
0.4
 50
90.0
100
AcDbRotatedDimension
1001
ACAD
1000
DSTYLE
1002
{
1070
    77
1070
     0
1070
    40
1040
1.0
1070
   178
1070
     7
1070
   279
1070
     2
1002
}
  0
DIMENSION
  5
47D0
102
{ACAD_XDICTIONARY
360
47DD
102
}
102
{ACAD_REACTORS
330
47E7
102
}
330
1F
100
AcDbEntity
  8
10100_Front_Dim
  6
Continuous
 62
     7
370
    13
100
AcDbDimension
  2
*D10
 10
110.4103508930553
 20
251.263093930632
 30
0.4
 11
88.8103658930553
 21
251.263093930632
 31
0.4
 70
    32
 71
     5
 42
43.19996999999999
  3
H035
100
AcDbAlignedDimension
 13
67.21038089305531
 23
211.666717811874
 33
0.4
 14
110.4103508930553
 24
211.666717811874
 34
0.4
100
AcDbRotatedDimension
1001
ACAD
1000
DSTYLE
1002
{
1070
    77
1070
     0
1070
    40
1040
1.0
1070
   178
1070
     7
1070
   279
1070
     2
1002
}
  0
DIMENSION
  5
47FB
102
{ACAD_XDICTIONARY
360
4808
102
}
102
{ACAD_REACTORS
330
4812
102
}
330
1F
100
AcDbEntity
  8
10100_Front_Dim
  6
Continuous
 62
     7
370
    13
100
AcDbDimension
  2
*D11
 10
111.2575708930553
 20
260.0682249568631
 30
0.4
 11
88.8075708930553
 21
260.0682249568631
 31
0.4
 70
    32
 71
     5
 42
44.89999999999997
  3
H035
100
AcDbAlignedDimension
 13
66.35757089305528
 23
228.666517811874
 33
0.4
 14
111.2575708930553
 24
228.666517811874
 34
0.4
100
AcDbRotatedDimension
1001
ACAD
1000
DSTYLE
1002
{
1070
    40
1040
1.0
1070
    77
1070
     0
1070
   178
1070
     7
1070
   279
1070
     2
1002
}
  0
LINE
  5
489E
330
1F
100
AcDbEntity
  8
11000_Left
  6
DASHED
 62
     7
 48
10.0
370
     9
100
AcDbLine
 39
0.35
 10
283.370180504443
 20
189.8840238444229
 30
0.4
 11
283.370180504443
 21
178.884023844423
 31
0.4
1001
AUSTER_ANSICHT
1002
{
1000
SL
1002
}
1001
AUSTER_FOLIE
1002
{
1000
4_POL_AUFSATZ
1002
}
  0
LINE
  5
489F
330
1F
100
AcDbEntity
  8
11000_Left
  6
DASHED
 62
     7
 48
10.0
370
     9
100
AcDbLine
 39
0.35
 10
280.370180504443
 20
189.8840238444229
 30
0.4
 11
283.370180504443
 21
189.8840238444229
 31
0.4
1001
AUSTER_ANSICHT
1002
{
1000
SL
1002
}
1001
AUSTER_FOLIE
1002
{
1000
4_POL_AUFSATZ
1002
}
  0
LINE
  5
48A0
330
1F
100
AcDbEntity
  8
11000_Left
  6
DASHED
 62
     7
 48
10.0
370
     9
100
AcDbLine
 39
0.35
 10
280.370180504443
 20
178.884023844423
 30
0.4
 11
280.370180504443
 21
189.8840238444229
 31
0.4
1001
AUSTER_ANSICHT
1002
{
1000
SL
1002
}
1001
AUSTER_FOLIE
1002
{
1000
4_POL_AUFSATZ
1002
}
  0
LINE
  5
48A1
330
1F
100
AcDbEntity
  8
11000_Left
  6
DASHED
 62
     7
 48
10.0
370
     9
100
AcDbLine
 39
0.35
 10
280.370180504443
 20
197.8840238444229
 30
0.4
 11
283.370180504443
 21
197.8840238444229
 31
0.4
1001
AUSTER_ANSICHT
1002
{
1000
SL
1002
}
1001
AUSTER_FOLIE
1002
{
1000
4_POL_AUFSATZ
1002
}
  0
LINE
  5
48A2
330
1F
100
AcDbEntity
  8
11000_Left
  6
DASHED
 62
     7
 48
10.0
370
     9
100
AcDbLine
 39
0.35
 10
283.370180504443
 20
197.8840238444229
 30
0.4
 11
283.370180504443
 21
208.884023844423
 31
0.4
1001
AUSTER_ANSICHT
1002
{
1000
SL
1002
}
1001
AUSTER_FOLIE
1002
{
1000
4_POL_AUFSATZ
1002
}
  0
LINE
  5
48A3
330
1F
100
AcDbEntity
  8
11000_Left
  6
DASHED
 62
     7
 48
10.0
370
     9
100
AcDbLine
 39
0.35
 10
280.370180504443
 20
208.884023844423
 30
0.4
 11
280.370180504443
 21
197.8840238444229
 31
0.4
1001
AUSTER_ANSICHT
1002
{
1000
SL
1002
}
1001
AUSTER_FOLIE
1002
{
1000
4_POL_AUFSATZ
1002
}
  0
ENDSEC
  0
SECTION
  2
OBJECTS
  0
DICTIONARY
  5
C
330
0
100
AcDbDictionary
281
     1
  3
ACAD_COLOR
350
6B
  3
ACAD_GROUP
350
D
  3
ACAD_LAYOUT
350
1A
  3
ACAD_MATERIAL
350
6A
  3
ACAD_MLINESTYLE
350
17
  3
ACAD_PLOTSETTINGS
350
19
  3
ACAD_PLOTSTYLENAME
350
E
  3
ACDBHEADERROUNDTRIPXREC
350
49B4
  3
AcDbVariableDictionary
350
5E
  3
DWGPROPS
350
49B3
  0
DICTIONARY
  5
462B
330
461E
100
AcDbDictionary
280
     1
281
     1
  3
ACAD_DIMASSOC
360
4635
  0
DICTIONARY
  5
4655
330
4648
100
AcDbDictionary
280
     1
281
     1
  3
ACAD_DIMASSOC
360
465F
  0
DICTIONARY
  5
47DD
330
47D0
100
AcDbDictionary
280
     1
281
     1
  3
ACAD_DIMASSOC
360
47E7
  0
DICTIONARY
  5
4808
330
47FB
100
AcDbDictionary
280
     1
281
     1
  3
ACAD_DIMASSOC
360
4812
  0
DICTIONARY
  5
6B
102
{ACAD_REACTORS
330
C
102
}
330
C
100
AcDbDictionary
281
     1
  0
DICTIONARY
  5
D
102
{ACAD_REACTORS
330
C
102
}
330
C
100
AcDbDictionary
281
     1
  0
DICTIONARY
  5
1A
102
{ACAD_REACTORS
330
C
102
}
330
C
100
AcDbDictionary
281
     1
  3
Layout1
350
51
  3
Layout2
350
56
  3
Model
350
22
  0
DICTIONARY
  5
6A
102
{ACAD_REACTORS
330
C
102
}
330
C
100
AcDbDictionary
281
     1
  0
DICTIONARY
  5
17
102
{ACAD_REACTORS
330
C
102
}
330
C
100
AcDbDictionary
281
     1
  3
Standard
350
18
  0
DICTIONARY
  5
19
102
{ACAD_REACTORS
330
C
102
}
330
C
100
AcDbDictionary
281
     1
  0
ACDBDICTIONARYWDFLT
  5
E
102
{ACAD_REACTORS
330
C
102
}
330
C
100
AcDbDictionary
281
     1
  3
Normal
350
F
100
AcDbDictionaryWithDefault
340
F
  0
DICTIONARY
  5
49B4
102
{ACAD_REACTORS
330
C
102
}
330
C
100
AcDbDictionary
281
     1
  3
COLORDICT
350
49B6
  3
MATERIALDICT
350
49B5
  0
DICTIONARY
  5
5E
102
{ACAD_REACTORS
330
C
102
}
330
C
100
AcDbDictionary
281
     1
  3
DIMASSOC
350
5F
  3
HIDETEXT
350
63
  3
PROJECTNAME
350
2C50
  0
XRECORD
  5
49B3
102
{ACAD_REACTORS
330
C
102
}
330
C
100
AcDbXrecord
280
     1
  1
DWGPROPS COOKIE
  2

  3

  4

  6

  7

  8

  9

300
=
301
=
302
=
303
=
304
=
305
=
306
=
307
=
308
=
309
=
 40
0.1024130324074074
 41
2453453.645911123
 42
2453780.575458704
  1

 90
        0
  0
DIMASSOC
  5
4635
102
{ACAD_REACTORS
330
462B
102
}
330
462B
100
AcDbDimAssoc
330
461E
 90
        3
 70
     0
 71
     0
  1
AcDbOsnapPointRef
 72
     1
331
457F
 73
     2
 91
        0
 40
1.570796326794896
 10
0.0
 20
0.0
 30
2.000000000000000E+50
 75
     0
  1
AcDbOsnapPointRef
 72
    13
331
45FA
 73
     2
 91
        0
 40
0.0
 10
0.0
 20
0.0
 30
2.000000000000000E+50
 75
     0
  0
DIMASSOC
  5
465F
102
{ACAD_REACTORS
330
4655
102
}
330
4655
100
AcDbDimAssoc
330
4648
 90
        3
 70
     0
 71
     0
  1
AcDbOsnapPointRef
 72
     5
331
4551
 73
     2
 91
        0
 40
0.0
 10
0.0
 20
0.0
 30
0.0
 75
     0
  1
AcDbOsnapPointRef
 72
     5
331
4569
 73
     2
 91
        0
 40
0.0
 10
0.0
 20
0.0
 30
0.0
 75
     0
  0
DIMASSOC
  5
47E7
102
{ACAD_REACTORS
330
47DD
102
}
330
47DD
100
AcDbDimAssoc
330
47D0
 90
        3
 70
     0
 71
     0
  1
AcDbOsnapPointRef
 72
     1
331
45E4
 73
     2
 91
        0
 40
1.0
 10
0.0
 20
0.0
 30
2.000000000000000E+50
 75
     0
  1
AcDbOsnapPointRef
 72
     8
331
45EB
 73
     2
 91
        0
 40
0.9947287407063139
 10
0.0
 20
0.0
 30
0.0
 75
     1
  1
AcDbOsnapPointRef
 72
     1
331
45E4
 73
     2
 91
        0
 40
1.0
 10
0.0
 20
0.0
 30
2.000000000000000E+50
 75
     0
  0
DIMASSOC
  5
4812
102
{ACAD_REACTORS
330
4808
102
}
330
4808
100
AcDbDimAssoc
330
47FB
 90
        3
 70
     0
 71
     0
  1
AcDbOsnapPointRef
 72
     1
331
3C5F
 73
     2
 91
        0
 40
1.0
 10
0.0
 20
0.0
 30
2.000000000000000E+50
 75
     0
  1
AcDbOsnapPointRef
 72
    13
331
3C52
 73
     2
 91
        0
 40
0.0
 10
0.0
 20
0.0
 30
2.000000000000000E+50
 75
     0
  0
LAYOUT
  5
51
102
{ACAD_XDICTIONARY
360
49B9
102
}
102
{ACAD_REACTORS
330
1A
102
}
330
1A
100
AcDbPlotSettings
  1

  2
None
  4

  6

 40
0.0
 41
0.0
 42
0.0
 43
0.0
 44
0.0
 45
0.0
 46
0.0
 47
0.0
 48
0.0
 49
0.0
140
0.0
141
0.0
142
1.0
143
1.0
 70
   688
 72
     0
 73
     0
 74
     5
  7

 75
    16
147
1.0
148
0.0
149
0.0
100
AcDbLayout
  1
Layout1
 70
     1
 71
     1
 10
0.0
 20
0.0
 11
12.0
 21
9.0
 12
0.0
 22
0.0
 32
0.0
 14
0.0
 24
0.0
 34
0.0
 15
0.0
 25
0.0
 35
0.0
146
0.0
 13
0.0
 23
0.0
 33
0.0
 16
1.0
 26
0.0
 36
0.0
 17
0.0
 27
1.0
 37
0.0
 76
     0
330
50
  0
LAYOUT
  5
56
102
{ACAD_XDICTIONARY
360
49BB
102
}
102
{ACAD_REACTORS
330
1A
102
}
330
1A
100
AcDbPlotSettings
  1

  2
None
  4

  6

 40
0.0
 41
0.0
 42
0.0
 43
0.0
 44
0.0
 45
0.0
 46
0.0
 47
0.0
 48
0.0
 49
0.0
140
0.0
141
0.0
142
1.0
143
1.0
 70
   688
 72
     0
 73
     0
 74
     5
  7

 75
    16
147
1.0
148
0.0
149
0.0
100
AcDbLayout
  1
Layout2
 70
     1
 71
     2
 10
0.0
 20
0.0
 11
12.0
 21
9.0
 12
0.0
 22
0.0
 32
0.0
 14
0.0
 24
0.0
 34
0.0
 15
0.0
 25
0.0
 35
0.0
146
0.0
 13
0.0
 23
0.0
 33
0.0
 16
1.0
 26
0.0
 36
0.0
 17
0.0
 27
1.0
 37
0.0
 76
     0
330
55
  0
LAYOUT
  5
22
102
{ACAD_XDICTIONARY
360
49B7
102
}
102
{ACAD_REACTORS
330
1A
102
}
330
1A
100
AcDbPlotSettings
  1

  2
\\ambw779a\A_P00390 (HP LaserJet 5000 Series PCL 6)
  4
A4
  6

 40
4.233333110809326
 41
4.233341693878172
 42
7.789321899414062
 43
4.23333740234375
 44
209.9733276367186
 45
296.9259948730469
 46
0.0
 47
0.0
 48
0.0
 49
0.0
140
0.0
141
0.0
142
1.0
143
1.010421706829464
 70
 11952
 72
     1
 73
     1
 74
     1
  7

 75
     0
147
0.9896857848965199
148
-46.41815288739531
149
-83.62641985624383
100
AcDbLayout
  1
Model
 70
     1
 71
     0
 10
0.0
 20
0.0
 11
12.0
 21
9.0
 12
0.0
 22
0.0
 32
0.0
 14
0.0
 24
0.0
 34
0.0
 15
0.0
 25
0.0
 35
0.0
146
0.0
 13
0.0
 23
0.0
 33
0.0
 16
1.0
 26
0.0
 36
0.0
 17
0.0
 27
1.0
 37
0.0
 76
     0
330
1F
  0
MLINESTYLE
  5
18
102
{ACAD_REACTORS
330
17
102
}
330
17
100
AcDbMlineStyle
  2
STANDARD
 70
     0
  3

 62
   256
 51
90.0
 52
90.0
 71
     2
 49
0.5
 62
   256
  6
BYLAYER
 49
-0.5
 62
   256
  6
BYLAYER
  0
ACDBPLACEHOLDER
  5
F
102
{ACAD_REACTORS
330
E
102
}
330
E
  0
XRECORD
  5
49B6
102
{ACAD_REACTORS
330
49B4
102
}
330
49B4
100
AcDbXrecord
280
     1
340
6B
  0
XRECORD
  5
49B5
102
{ACAD_REACTORS
330
49B4
102
}
330
49B4
100
AcDbXrecord
280
     1
340
6A
  0
DICTIONARYVAR
  5
5F
102
{ACAD_REACTORS
330
5E
102
}
330
5E
100
DictionaryVariables
280
     0
  1
2
  0
DICTIONARYVAR
  5
63
102
{ACAD_REACTORS
330
5E
102
}
330
5E
100
DictionaryVariables
280
     0
  1
1
  0
DICTIONARYVAR
  5
2C50
102
{ACAD_REACTORS
330
5E
102
}
330
5E
100
DictionaryVariables
280
     0
  1

  0
DICTIONARY
  5
49B9
330
51
100
AcDbDictionary
280
     1
281
     1
  3
ACAD_XREC_ROUNDTRIP
360
49BA
  0
DICTIONARY
  5
49BB
330
56
100
AcDbDictionary
280
     1
281
     1
  3
ACAD_XREC_ROUNDTRIP
360
49BC
  0
DICTIONARY
  5
49B7
330
22
100
AcDbDictionary
280
     1
281
     1
  3
ACAD_XREC_ROUNDTRIP
360
49B8
  0
XRECORD
  5
49BA
102
{ACAD_REACTORS
330
49B9
102
}
330
49B9
100
AcDbXrecord
280
     1
102
SHADEPLOT
 70
     0
102
SHADEPLOTRESLEVEL
 70
     2
102
SHADEPLOTCUSTOMDPI
 70
   300
  0
XRECORD
  5
49BC
102
{ACAD_REACTORS
330
49BB
102
}
330
49BB
100
AcDbXrecord
280
     1
102
SHADEPLOT
 70
     0
102
SHADEPLOTRESLEVEL
 70
     2
102
SHADEPLOTCUSTOMDPI
 70
   300
  0
XRECORD
  5
49B8
102
{ACAD_REACTORS
330
49B7
102
}
330
49B7
100
AcDbXrecord
280
     1
102
SHADEPLOT
 70
     0
102
SHADEPLOTRESLEVEL
 70
     2
102
SHADEPLOTCUSTOMDPI
 70
   300
  0
ENDSEC
  0
EOF
