  0
SECTION
  2
HEADER
  9
$ACADVER
  1
AC1015
  9
$ACADMAINTVER
 70
    14
  9
$DWGCODEPAGE
  3
ANSI_1252
  9
$INSBASE
 10
0.0
 20
0.0
 30
0.0
  9
$EXTMIN
 10
46.41815288739531
 20
83.62641985624383
 30
-0.0015258207003583
  9
$EXTMAX
 10
316.4483651151513
 20
283.6400763595477
 30
0.0000000349246037
  9
$LIMMIN
 10
0.0
 20
0.0
  9
$LIMMAX
 10
420.0
 20
297.0
  9
$ORTHOMODE
 70
     1
  9
$REGENMODE
 70
     1
  9
$FILLMODE
 70
     1
  9
$QTEXTMODE
 70
     0
  9
$MIRRTEXT
 70
     0
  9
$LTSCALE
 40
1.0
  9
$ATTMODE
 70
     1
  9
$TEXTSIZE
 40
4.945867574227346
  9
$TRACEWID
 40
1.0
  9
$TEXTSTYLE
  7
Standard
  9
$CLAYER
  8
11100_Left_Dim
  9
$CELTYPE
  6
ByLayer
  9
$CECOLOR
 62
     7
  9
$CELTSCALE
 40
1.0
  9
$DISPSILH
 70
     0
  9
$DIMSCALE
 40
1.0
  9
$DIMASZ
 40
2.5
  9
$DIMEXO
 40
0.625
  9
$DIMDLI
 40
3.75
  9
$DIMRND
 40
0.0
  9
$DIMDLE
 40
0.0
  9
$DIMEXE
 40
1.25
  9
$DIMTP
 40
0.0
  9
$DIMTM
 40
0.0
  9
$DIMTXT
 40
2.5
  9
$DIMCEN
 40
2.5
  9
$DIMTSZ
 40
0.0
  9
$DIMTOL
 70
     0
  9
$DIMLIM
 70
     0
  9
$DIMTIH
 70
     0
  9
$DIMTOH
 70
     0
  9
$DIMSE1
 70
     0
  9
$DIMSE2
 70
     0
  9
$DIMTAD
 70
     1
  9
$DIMZIN
 70
     8
  9
$DIMBLK
  1

  9
$DIMASO
 70
     1
  9
$DIMSHO
 70
     1
  9
$DIMPOST
  1

  9
$DIMAPOST
  1

  9
$DIMALT
 70
     0
  9
$DIMALTD
 70
     3
  9
$DIMALTF
 40
0.03937007874016
  9
$DIMLFAC
 40
1.0
  9
$DIMTOFL
 70
     1
  9
$DIMTVP
 40
0.0
  9
$DIMTIX
 70
     0
  9
$DIMSOXD
 70
     0
  9
$DIMSAH
 70
     0
  9
$DIMBLK1
  1

  9
$DIMBLK2
  1

  9
$DIMSTYLE
  2
ISO-25
  9
$DIMCLRD
 70
     0
  9
$DIMCLRE
 70
     0
  9
$DIMCLRT
 70
     0
  9
$DIMTFAC
 40
1.0
  9
$DIMGAP
 40
0.625
  9
$DIMJUST
 70
     0
  9
$DIMSD1
 70
     0
  9
$DIMSD2
 70
     0
  9
$DIMTOLJ
 70
     0
  9
$DIMTZIN
 70
     8
  9
$DIMALTZ
 70
     0
  9
$DIMALTTZ
 70
     0
  9
$DIMUPT
 70
     0
  9
$DIMDEC
 70
     2
  9
$DIMTDEC
 70
     2
  9
$DIMALTU
 70
     2
  9
$DIMALTTD
 70
     3
  9
$DIMTXSTY
  7
Standard
  9
$DIMAUNIT
 70
     0
  9
$DIMADEC
 70
     0
  9
$DIMALTRND
 40
0.0
  9
$DIMAZIN
 70
     0
  9
$DIMDSEP
 70
    44
  9
$DIMATFIT
 70
     3
  9
$DIMFRAC
 70
     0
  9
$DIMLDRBLK
  1

  9
$DIMLUNIT
 70
     2
  9
$DIMLWD
 70
    -2
  9
$DIMLWE
 70
    -2
  9
$DIMTMOVE
 70
     0
  9
$LUNITS
 70
     2
  9
$LUPREC
 70
     4
  9
$SKETCHINC
 40
1.0
  9
$FILLETRAD
 40
10.0
  9
$AUNITS
 70
     0
  9
$AUPREC
 70
     0
  9
$MENU
  1
.
  9
$ELEVATION
 40
0.0
  9
$PELEVATION
 40
0.0
  9
$THICKNESS
 40
0.0
  9
$LIMCHECK
 70
     0
  9
$CHAMFERA
 40
10.0
  9
$CHAMFERB
 40
10.0
  9
$CHAMFERC
 40
20.0
  9
$CHAMFERD
 40
0.0
  9
$SKPOLY
 70
     0
  9
$TDCREATE
 40
2453453.687577789
  9
$TDUCREATE
 40
2453453.604244456
  9
$TDUPDATE
 40
2453822.592977882
  9
$TDUUPDATE
 40
2453822.509644548
  9
$TDINDWG
 40
1.1594825694
  9
$TDUSRTIMER
 40
1.1594783912
  9
$USRTIMER
 70
     1
  9
$ANGBASE
 50
0.0
  9
$ANGDIR
 70
     0
  9
$PDMODE
 70
     0
  9
$PDSIZE
 40
0.0
  9
$PLINEWID
 40
0.0
  9
$SPLFRAME
 70
     0
  9
$SPLINETYPE
 70
     6
  9
$SPLINESEGS
 70
     8
  9
$HANDSEED
  5
85A9E
  9
$SURFTAB1
 70
     6
  9
$SURFTAB2
 70
     6
  9
$SURFTYPE
 70
     6
  9
$SURFU
 70
     6
  9
$SURFV
 70
     6
  9
$UCSBASE
  2

  9
$UCSNAME
  2

  9
$UCSORG
 10
0.0
 20
0.0
 30
0.0
  9
$UCSXDIR
 10
1.0
 20
0.0
 30
0.0
  9
$UCSYDIR
 10
0.0
 20
1.0
 30
0.0
  9
$UCSORTHOREF
  2

  9
$UCSORTHOVIEW
 70
     0
  9
$UCSORGTOP
 10
0.0
 20
0.0
 30
0.0
  9
$UCSORGBOTTOM
 10
0.0
 20
0.0
 30
0.0
  9
$UCSORGLEFT
 10
0.0
 20
0.0
 30
0.0
  9
$UCSORGRIGHT
 10
0.0
 20
0.0
 30
0.0
  9
$UCSORGFRONT
 10
0.0
 20
0.0
 30
0.0
  9
$UCSORGBACK
 10
0.0
 20
0.0
 30
0.0
  9
$PUCSBASE
  2

  9
$PUCSNAME
  2

  9
$PUCSORG
 10
0.0
 20
0.0
 30
0.0
  9
$PUCSXDIR
 10
1.0
 20
0.0
 30
0.0
  9
$PUCSYDIR
 10
0.0
 20
1.0
 30
0.0
  9
$PUCSORTHOREF
  2

  9
$PUCSORTHOVIEW
 70
     0
  9
$PUCSORGTOP
 10
0.0
 20
0.0
 30
0.0
  9
$PUCSORGBOTTOM
 10
0.0
 20
0.0
 30
0.0
  9
$PUCSORGLEFT
 10
0.0
 20
0.0
 30
0.0
  9
$PUCSORGRIGHT
 10
0.0
 20
0.0
 30
0.0
  9
$PUCSORGFRONT
 10
0.0
 20
0.0
 30
0.0
  9
$PUCSORGBACK
 10
0.0
 20
0.0
 30
0.0
  9
$USERI1
 70
     0
  9
$USERI2
 70
     0
  9
$USERI3
 70
     0
  9
$USERI4
 70
     0
  9
$USERI5
 70
     0
  9
$USERR1
 40
0.0
  9
$USERR2
 40
0.0
  9
$USERR3
 40
0.0
  9
$USERR4
 40
0.0
  9
$USERR5
 40
0.0
  9
$WORLDVIEW
 70
     1
  9
$SHADEDGE
 70
     3
  9
$SHADEDIF
 70
    70
  9
$TILEMODE
 70
     1
  9
$MAXACTVP
 70
    64
  9
$PINSBASE
 10
0.0
 20
0.0
 30
0.0
  9
$PLIMCHECK
 70
     0
  9
$PEXTMIN
 10
0.0
 20
0.0
 30
0.0
  9
$PEXTMAX
 10
0.0
 20
0.0
 30
0.0
  9
$PLIMMIN
 10
0.0
 20
0.0
  9
$PLIMMAX
 10
12.0
 20
9.0
  9
$UNITMODE
 70
     0
  9
$VISRETAIN
 70
     1
  9
$PLINEGEN
 70
     0
  9
$PSLTSCALE
 70
     1
  9
$TREEDEPTH
 70
  3020
  9
$CMLSTYLE
  2
Standard
  9
$CMLJUST
 70
     0
  9
$CMLSCALE
 40
20.0
  9
$PROXYGRAPHICS
 70
     1
  9
$MEASUREMENT
 70
     1
  9
$CELWEIGHT
370
    13
  9
$ENDCAPS
280
     0
  9
$JOINSTYLE
280
     0
  9
$LWDISPLAY
290
     0
  9
$INSUNITS
 70
     4
  9
$HYPERLINKBASE
  1

  9
$STYLESHEET
  1

  9
$XEDIT
290
     1
  9
$CEPSNTYPE
380
     0
  9
$PSTYLEMODE
290
     1
  9
$FINGERPRINTGUID
  2
{FDEAD578-A652-11D2-9A35-0060089B3A3F}
  9
$VERSIONGUID
  2
{1C6AFD2A-6E24-4690-9733-A8BAC5AE6A98}
  9
$EXTNAMES
290
     1
  9
$PSVPSCALE
 40
0.0
  9
$OLESTARTUP
290
     0
  0
ENDSEC
  0
SECTION
  2
CLASSES
  0
CLASS
  1
ACDBDICTIONARYWDFLT
  2
AcDbDictionaryWithDefault
  3
AutoCAD 2000
 90
        0
280
     0
281
     0
  0
CLASS
  1
DICTIONARYVAR
  2
AcDbDictionaryVar
  3
AutoCAD 2000
 90
        0
280
     0
281
     0
  0
CLASS
  1
DIMASSOC
  2
AcDbDimAssoc
  3
"AcDbDimAssoc|Product Desc:     AcDim ARX App For Dimension|Company:          Autodesk, Inc.|WEB Address:      www.autodesk.com"
 90
        0
280
     0
281
     0
  0
CLASS
  1
ACDBPLACEHOLDER
  2
AcDbPlaceHolder
  3
AutoCAD 2000
 90
        0
280
     0
281
     0
  0
CLASS
  1
LAYOUT
  2
AcDbLayout
  3
AutoCAD 2000
 90
        0
280
     0
281
     0
  0
ENDSEC
  0
SECTION
  2
TABLES
  0
TABLE
  2
VPORT
  5
8
330
0
100
AcDbSymbolTable
 70
     6
  0
VPORT
  5
85A9D
330
8
100
AcDbSymbolTableRecord
100
AcDbViewportTableRecord
  2
*Active
 70
     0
 10
0.0
 20
0.0
 11
1.0
 21
1.0
 12
179.7453459354558
 22
183.8351974251808
 13
0.0
 23
0.0
 14
10.0
 24
10.0
 15
10.0
 25
10.0
 16
0.0
 26
0.0
 36
1.0
 17
0.0
 27
0.0
 37
0.0
 40
204.8732831604038
 41
1.541927409261576
 42
50.0
 43
0.0
 44
0.0
 50
0.0
 51
0.0
 71
     0
 72
  1000
 73
     1
 74
     3
 75
     0
 76
     0
 77
     0
 78
     0
281
     0
 65
     1
110
0.0
120
0.0
130
0.0
111
1.0
121
0.0
131
0.0
112
0.0
122
1.0
132
0.0
 79
     0
146
0.0
  0
ENDTAB
  0
TABLE
  2
LTYPE
  5
5
330
0
100
AcDbSymbolTable
 70
     2
  0
LTYPE
  5
14
330
5
100
AcDbSymbolTableRecord
100
AcDbLinetypeTableRecord
  2
ByBlock
 70
     0
  3

 72
    65
 73
     0
 40
0.0
  0
LTYPE
  5
15
330
5
100
AcDbSymbolTableRecord
100
AcDbLinetypeTableRecord
  2
ByLayer
 70
     0
  3

 72
    65
 73
     0
 40
0.0
  0
LTYPE
  5
16
330
5
100
AcDbSymbolTableRecord
100
AcDbLinetypeTableRecord
  2
Continuous
 70
     0
  3
Solid line
 72
    65
 73
     0
 40
0.0
  0
LTYPE
  5
2BDE
330
5
100
AcDbSymbolTableRecord
100
AcDbLinetypeTableRecord
  2
CENTER
 70
     0
  3
____ _ ____ _ ____ _ ____ _ ____ _ ____ _ ____
 72
    65
 73
     4
 40
2.0
 49
1.25
 74
     0
 49
-0.25
 74
     0
 49
0.25
 74
     0
 49
-0.25
 74
     0
  0
ENDTAB
  0
TABLE
  2
LAYER
  5
2
330
0
100
AcDbSymbolTable
 70
     8
  0
LAYER
  5
10
330
2
100
AcDbSymbolTableRecord
100
AcDbLayerTableRecord
  2
0
 70
     0
 62
     7
  6
Continuous
370
    -3
390
F
  0
LAYER
  5
171B
330
2
100
AcDbSymbolTableRecord
100
AcDbLayerTableRecord
  2
Defpoints
 70
     0
 62
     7
  6
Continuous
290
     0
370
    -3
390
F
  0
LAYER
  5
2BDF
330
2
100
AcDbSymbolTableRecord
100
AcDbLayerTableRecord
  2
90000_FRAME
 70
     0
 62
     7
  6
Continuous
370
    -3
390
F
  0
LAYER
  5
2BE0
330
2
100
AcDbSymbolTableRecord
100
AcDbLayerTableRecord
  2
91000_TIP
 70
     0
 62
     7
  6
Continuous
370
    -3
390
F
  0
LAYER
  5
2F55
330
2
100
AcDbSymbolTableRecord
100
AcDbLayerTableRecord
  2
11100_Left_Dim
 70
     0
 62
     7
  6
Continuous
370
    -3
390
F
  0
LAYER
  5
79106
330
2
100
AcDbSymbolTableRecord
100
AcDbLayerTableRecord
  2
10000_Front
 70
     0
 62
     7
  6
Continuous
370
    -3
390
F
  0
LAYER
  5
79107
330
2
100
AcDbSymbolTableRecord
100
AcDbLayerTableRecord
  2
10100_Front_Dim
 70
     0
 62
     7
  6
Continuous
370
    -3
390
F
  0
LAYER
  5
79108
330
2
100
AcDbSymbolTableRecord
100
AcDbLayerTableRecord
  2
11000_Left
 70
     0
 62
     7
  6
Continuous
370
    -3
390
F
  0
ENDTAB
  0
TABLE
  2
STYLE
  5
3
330
0
100
AcDbSymbolTable
 70
     1
  0
STYLE
  5
11
330
3
100
AcDbSymbolTableRecord
100
AcDbTextStyleTableRecord
  2
Standard
 70
     0
 40
0.0
 41
1.0
 50
0.0
 71
     0
 42
4.945867574227346
  3
txt
  4

  0
ENDTAB
  0
TABLE
  2
VIEW
  5
6
330
0
100
AcDbSymbolTable
 70
     0
  0
ENDTAB
  0
TABLE
  2
UCS
  5
7
330
0
100
AcDbSymbolTable
 70
     0
  0
ENDTAB
  0
TABLE
  2
APPID
  5
9
330
0
100
AcDbSymbolTable
 70
     3
  0
APPID
  5
12
330
9
100
AcDbSymbolTableRecord
100
AcDbRegAppTableRecord
  2
ACAD
 70
     0
  0
APPID
  5
344C
330
9
100
AcDbSymbolTableRecord
100
AcDbRegAppTableRecord
  2
AUSTER_ANSICHT
 70
     0
  0
APPID
  5
344D
330
9
100
AcDbSymbolTableRecord
100
AcDbRegAppTableRecord
  2
AUSTER_FOLIE
 70
     0
  0
ENDTAB
  0
TABLE
  2
DIMSTYLE
  5
A
330
0
100
AcDbSymbolTable
 70
     3
100
AcDbDimStyleTable
 71
     2
340
8596D
340
27
  0
DIMSTYLE
105
27
330
A
100
AcDbSymbolTableRecord
100
AcDbDimStyleTableRecord
  2
ISO-25
 70
     0
 41
2.5
 42
0.625
 43
3.75
 44
1.25
 73
     0
 74
     0
 77
     1
 78
     8
140
2.5
141
2.5
143
0.03937007874016
147
0.625
171
     3
172
     1
271
     2
272
     2
274
     3
278
    44
283
     0
284
     8
340
11
  0
DIMSTYLE
105
49B5
330
A
100
AcDbSymbolTableRecord
100
AcDbDimStyleTableRecord
  2
STANDARD
 70
     0
 41
0.125
 43
0.25
 44
0.125
 47
0.005
 48
-0.005
140
3.0
147
0.0625
171
     0
172
     1
271
     3
272
     3
274
     0
279
     2
340
11
  0
DIMSTYLE
105
8596D
102
{ACAD_REACTORS
330
8581A
330
85802
330
85832
330
85886
330
85865
102
}
330
A
100
AcDbSymbolTableRecord
100
AcDbDimStyleTableRecord
  2
H035
 70
     0
 40
0.0
 41
2.5
 42
0.0
 43
3.75
 44
2.0
 73
     0
 74
     0
 77
     1
 78
     8
140
5.0
141
2.5
143
0.0394
147
1.0
171
     4
172
     1
176
   256
177
   256
178
     2
271
     0
272
     2
273
     8
274
     4
277
     6
340
11
  0
ENDTAB
  0
TABLE
  2
BLOCK_RECORD
  5
1
330
0
100
AcDbSymbolTable
 70
    12
  0
BLOCK_RECORD
  5
1F
330
1
100
AcDbSymbolTableRecord
100
AcDbBlockTableRecord
  2
*Model_Space
340
22
  0
BLOCK_RECORD
  5
50
330
1
100
AcDbSymbolTableRecord
100
AcDbBlockTableRecord
  2
*Paper_Space
340
51
  0
BLOCK_RECORD
  5
55
330
1
100
AcDbSymbolTableRecord
100
AcDbBlockTableRecord
  2
*Paper_Space0
340
56
  0
BLOCK_RECORD
  5
2B73
330
1
100
AcDbSymbolTableRecord
100
AcDbBlockTableRecord
  2
SIEMENS_OUTLINE_BL0
340
0
102
{BLKREFS
331
2BFF
102
}
  0
BLOCK_RECORD
  5
85803
330
1
100
AcDbSymbolTableRecord
100
AcDbBlockTableRecord
  2
*D2
340
0
  0
BLOCK_RECORD
  5
8581B
330
1
100
AcDbSymbolTableRecord
100
AcDbBlockTableRecord
  2
*D3
340
0
  0
BLOCK_RECORD
  5
85833
330
1
100
AcDbSymbolTableRecord
100
AcDbBlockTableRecord
  2
*D4
340
0
  0
BLOCK_RECORD
  5
85866
330
1
100
AcDbSymbolTableRecord
100
AcDbBlockTableRecord
  2
*D5
340
0
  0
BLOCK_RECORD
  5
85887
330
1
100
AcDbSymbolTableRecord
100
AcDbBlockTableRecord
  2
*D6
340
0
  0
BLOCK_RECORD
  5
859FE
330
1
100
AcDbSymbolTableRecord
100
AcDbBlockTableRecord
  2
*D9
340
0
  0
BLOCK_RECORD
  5
85A11
330
1
100
AcDbSymbolTableRecord
100
AcDbBlockTableRecord
  2
*D11
340
0
  0
ENDTAB
  0
ENDSEC
  0
SECTION
  2
BLOCKS
  0
BLOCK
  5
20
330
1F
100
AcDbEntity
  8
0
100
AcDbBlockBegin
  2
*Model_Space
 70
     0
 10
0.0
 20
0.0
 30
0.0
  3
*Model_Space
  1

  0
ENDBLK
  5
21
330
1F
100
AcDbEntity
  8
0
100
AcDbBlockEnd
  0
BLOCK
  5
52
330
50
100
AcDbEntity
 67
     1
  8
0
100
AcDbBlockBegin
  2
*Paper_Space
 70
     0
 10
0.0
 20
0.0
 30
0.0
  3
*Paper_Space
  1

  0
ENDBLK
  5
53
330
50
100
AcDbEntity
 67
     1
  8
0
100
AcDbBlockEnd
  0
BLOCK
  5
57
330
55
100
AcDbEntity
  8
0
100
AcDbBlockBegin
  2
*Paper_Space0
 70
     0
 10
0.0
 20
0.0
 30
0.0
  3
*Paper_Space0
  1

  0
ENDBLK
  5
58
330
55
100
AcDbEntity
  8
0
100
AcDbBlockEnd
  0
BLOCK
  5
2B74
330
2B73
100
AcDbEntity
  8
0
  6
Continuous
 62
     7
100
AcDbBlockBegin
  2
SIEMENS_OUTLINE_BL0
 70
     0
 10
0.0
 20
0.0
 30
0.0
  3
SIEMENS_OUTLINE_BL0
  1

  0
LINE
  5
2B75
330
2B73
100
AcDbEntity
  8
0
  6
Continuous
 62
     7
100
AcDbLine
 10
79.186200508
 20
21.4145478991
 30
0.0
 11
79.186200508
 21
16.6612788158
 31
0.0
  0
LINE
  5
2B76
330
2B73
100
AcDbEntity
  8
0
  6
Continuous
 62
     7
100
AcDbLine
 10
80.61218123299999
 20
21.4145478991
 30
0.0
 11
80.61218123299999
 21
16.6612788158
 31
0.0
  0
LINE
  5
2B77
330
2B73
100
AcDbEntity
  8
0
  6
Continuous
 62
     7
100
AcDbLine
 10
79.186200508
 20
16.6612788158
 30
0.0
 11
80.61218123299999
 21
16.6612788158
 31
0.0
  0
LINE
  5
2B78
330
2B73
100
AcDbEntity
  8
0
  6
Continuous
 62
     7
100
AcDbLine
 10
79.186200508
 20
21.4145478991
 30
0.0
 11
80.61218123299999
 21
21.4145478991
 31
0.0
  0
LINE
  5
2B79
330
2B73
100
AcDbEntity
  8
0
  6
Continuous
 62
     7
100
AcDbLine
 10
81.7054331221
 20
21.4145478991
 30
0.0
 11
81.7054331221
 21
16.6612788158
 31
0.0
  0
LINE
  5
2B7A
330
2B73
100
AcDbEntity
  8
0
  6
Continuous
 62
     7
100
AcDbLine
 10
81.7054331221
 20
16.6612788158
 30
0.0
 11
85.2703849346
 21
16.6612788158
 31
0.0
  0
LINE
  5
2B7B
330
2B73
100
AcDbEntity
  8
0
  6
Continuous
 62
     7
100
AcDbLine
 10
85.2703849346
 20
17.56439994169999
 30
0.0
 11
83.0838811563
 21
17.56439994169999
 31
0.0
  0
LINE
  5
2B7C
330
2B73
100
AcDbEntity
  8
0
  6
Continuous
 62
     7
100
AcDbLine
 10
85.2703849346
 20
17.56439994169999
 30
0.0
 11
85.2703849346
 21
16.6612788158
 31
0.0
  0
LINE
  5
2B7D
330
2B73
100
AcDbEntity
  8
0
  6
Continuous
 62
     7
100
AcDbLine
 10
85.2228522438
 20
21.4145478991
 30
0.0
 11
81.7054331221
 21
21.4145478991
 31
0.0
  0
LINE
  5
2B7E
330
2B73
100
AcDbEntity
  8
0
  6
Continuous
 62
     7
100
AcDbLine
 10
85.2228522438
 20
20.5351931187
 30
0.0
 11
83.0838811563
 21
20.5351931187
 31
0.0
  0
LINE
  5
2B7F
330
2B73
100
AcDbEntity
  8
0
  6
Continuous
 62
     7
100
AcDbLine
 10
85.2228522438
 20
21.4145478991
 30
0.0
 11
85.2228522438
 21
20.5351931187
 31
0.0
  0
LINE
  5
2B80
330
2B73
100
AcDbEntity
  8
0
  6
Continuous
 62
     7
100
AcDbLine
 10
84.9376560988
 20
18.68141817619999
 30
0.0
 11
83.0838811563
 21
18.68141817619999
 31
0.0
  0
LINE
  5
2B81
330
2B73
100
AcDbEntity
  8
0
  6
Continuous
 62
     7
100
AcDbLine
 10
84.9376560988
 20
19.46570757499999
 30
0.0
 11
84.9376560988
 21
18.68141817619999
 31
0.0
  0
LINE
  5
2B82
330
2B73
100
AcDbEntity
  8
0
  6
Continuous
 62
     7
100
AcDbLine
 10
84.9376560988
 20
19.46570757499999
 30
0.0
 11
83.0838811563
 21
19.46570757499999
 31
0.0
  0
LINE
  5
2B83
330
2B73
100
AcDbEntity
  8
0
  6
Continuous
 62
     7
100
AcDbLine
 10
83.0838811563
 20
20.5351931187
 30
0.0
 11
83.0838811563
 21
19.46570757499999
 31
0.0
  0
LINE
  5
2B84
330
2B73
100
AcDbEntity
  8
0
  6
Continuous
 62
     7
100
AcDbLine
 10
83.0838811563
 20
18.68141817619999
 30
0.0
 11
83.0838811563
 21
17.56439994169999
 31
0.0
  0
LINE
  5
2B85
330
2B73
100
AcDbEntity
  8
0
  6
Continuous
 62
     7
100
AcDbLine
 10
86.0784406788
 20
16.6612788158
 30
0.0
 11
86.0784406788
 21
21.4145478991
 31
0.0
  0
LINE
  5
2B86
330
2B73
100
AcDbEntity
  8
0
  6
Continuous
 62
     7
100
AcDbLine
 10
86.0784406788
 20
16.6612788158
 30
0.0
 11
87.02909449539999
 21
16.6612788158
 31
0.0
  0
LINE
  5
2B87
330
2B73
100
AcDbEntity
  8
0
  6
Continuous
 62
     7
100
AcDbLine
 10
91.92496165120001
 20
21.4145478991
 30
0.0
 11
91.92496165120001
 21
16.6612788158
 31
0.0
  0
LINE
  5
2B88
330
2B73
100
AcDbEntity
  8
0
  6
Continuous
 62
     7
100
AcDbLine
 10
91.92496165120001
 20
16.6612788158
 30
0.0
 11
90.54651361700001
 21
16.6612788158
 31
0.0
  0
LINE
  5
2B89
330
2B73
100
AcDbEntity
  8
0
  6
Continuous
 62
     7
100
AcDbLine
 10
88.3600098387
 20
16.61374612499999
 30
0.0
 11
89.21559827370002
 21
16.61374612499999
 31
0.0
  0
LINE
  5
2B8A
330
2B73
100
AcDbEntity
  8
0
  6
Continuous
 62
     7
100
AcDbLine
 10
88.3600098387
 20
16.61374612499999
 30
0.0
 11
87.02909449539999
 21
19.7033710291
 31
0.0
  0
LINE
  5
2B8B
330
2B73
100
AcDbEntity
  8
0
  6
Continuous
 62
     7
100
AcDbLine
 10
87.02909449539999
 20
16.6612788158
 30
0.0
 11
87.02909449539999
 21
19.7033710291
 31
0.0
  0
LINE
  5
2B8C
330
2B73
100
AcDbEntity
  8
0
  6
Continuous
 62
     7
100
AcDbLine
 10
90.54651361700001
 20
19.75090372
 30
0.0
 11
89.21559827370002
 21
16.61374612499999
 31
0.0
  0
LINE
  5
2B8D
330
2B73
100
AcDbEntity
  8
0
  6
Continuous
 62
     7
100
AcDbLine
 10
87.78961754870001
 20
21.4145478991
 30
0.0
 11
86.0784406788
 21
21.4145478991
 31
0.0
  0
LINE
  5
2B8E
330
2B73
100
AcDbEntity
  8
0
  6
Continuous
 62
     7
100
AcDbLine
 10
91.92496165120001
 20
21.4145478991
 30
0.0
 11
90.2137847812
 21
21.4145478991
 31
0.0
  0
LINE
  5
2B8F
330
2B73
100
AcDbEntity
  8
0
  6
Continuous
 62
     7
100
AcDbLine
 10
87.78961754870001
 20
21.4145478991
 30
0.0
 11
89.0254675104
 21
18.51505375829998
 31
0.0
  0
LINE
  5
2B90
330
2B73
100
AcDbEntity
  8
0
  6
Continuous
 62
     7
100
AcDbLine
 10
90.2137847812
 20
21.4145478991
 30
0.0
 11
89.0254675104
 21
18.51505375829998
 31
0.0
  0
LINE
  5
2B91
330
2B73
100
AcDbEntity
  8
0
  6
Continuous
 62
     7
100
AcDbLine
 10
90.54651361700001
 20
19.75090372
 30
0.0
 11
90.54651361700001
 21
16.6612788158
 31
0.0
  0
LINE
  5
2B92
330
2B73
100
AcDbEntity
  8
0
  6
Continuous
 62
     7
100
AcDbLine
 10
93.01821354030002
 20
21.4145478991
 30
0.0
 11
93.01821354030002
 21
16.6612788158
 31
0.0
  0
LINE
  5
2B93
330
2B73
100
AcDbEntity
  8
0
  6
Continuous
 62
     7
100
AcDbLine
 10
93.01821354030002
 20
16.6612788158
 30
0.0
 11
96.5831653528
 21
16.6612788158
 31
0.0
  0
LINE
  5
2B94
330
2B73
100
AcDbEntity
  8
0
  6
Continuous
 62
     7
100
AcDbLine
 10
96.5831653528
 20
17.56439994169999
 30
0.0
 11
94.3966615745
 21
17.56439994169999
 31
0.0
  0
LINE
  5
2B95
330
2B73
100
AcDbEntity
  8
0
  6
Continuous
 62
     7
100
AcDbLine
 10
96.5831653528
 20
17.56439994169999
 30
0.0
 11
96.5831653528
 21
16.6612788158
 31
0.0
  0
LINE
  5
2B96
330
2B73
100
AcDbEntity
  8
0
  6
Continuous
 62
     7
100
AcDbLine
 10
96.53563266200002
 20
21.4145478991
 30
0.0
 11
93.01821354030002
 21
21.4145478991
 31
0.0
  0
LINE
  5
2B97
330
2B73
100
AcDbEntity
  8
0
  6
Continuous
 62
     7
100
AcDbLine
 10
96.53563266200002
 20
20.5351931187
 30
0.0
 11
94.3966615745
 21
20.5351931187
 31
0.0
  0
LINE
  5
2B98
330
2B73
100
AcDbEntity
  8
0
  6
Continuous
 62
     7
100
AcDbLine
 10
96.53563266200002
 20
21.4145478991
 30
0.0
 11
96.53563266200002
 21
20.5351931187
 31
0.0
  0
LINE
  5
2B99
330
2B73
100
AcDbEntity
  8
0
  6
Continuous
 62
     7
100
AcDbLine
 10
96.25043651700002
 20
18.68141817619999
 30
0.0
 11
94.3966615745
 21
18.68141817619999
 31
0.0
  0
LINE
  5
2B9A
330
2B73
100
AcDbEntity
  8
0
  6
Continuous
 62
     7
100
AcDbLine
 10
96.25043651700002
 20
19.46570757499999
 30
0.0
 11
96.25043651700002
 21
18.68141817619999
 31
0.0
  0
LINE
  5
2B9B
330
2B73
100
AcDbEntity
  8
0
  6
Continuous
 62
     7
100
AcDbLine
 10
96.25043651700002
 20
19.46570757499999
 30
0.0
 11
94.3966615745
 21
19.46570757499999
 31
0.0
  0
LINE
  5
2B9C
330
2B73
100
AcDbEntity
  8
0
  6
Continuous
 62
     7
100
AcDbLine
 10
94.3966615745
 20
20.5351931187
 30
0.0
 11
94.3966615745
 21
19.46570757499999
 31
0.0
  0
LINE
  5
2B9D
330
2B73
100
AcDbEntity
  8
0
  6
Continuous
 62
     7
100
AcDbLine
 10
94.3966615745
 20
18.68141817619999
 30
0.0
 11
94.3966615745
 21
17.56439994169999
 31
0.0
  0
LINE
  5
2B9E
330
2B73
100
AcDbEntity
  8
0
  6
Continuous
 62
     7
100
AcDbLine
 10
97.3674547515
 20
16.6612788158
 30
0.0
 11
97.3674547515
 21
21.4145478991
 31
0.0
  0
LINE
  5
2B9F
330
2B73
100
AcDbEntity
  8
0
  6
Continuous
 62
     7
100
AcDbLine
 10
101.5503315447999
 20
21.4145478991
 30
0.0
 11
101.5503315447999
 21
16.6612788158
 31
0.0
  0
LINE
  5
2BA0
330
2B73
100
AcDbEntity
  8
0
  6
Continuous
 62
     7
100
AcDbLine
 10
97.3674547515
 20
16.6612788158
 30
0.0
 11
98.3181085682
 21
16.6612788158
 31
0.0
  0
LINE
  5
2BA1
330
2B73
100
AcDbEntity
  8
0
  6
Continuous
 62
     7
100
AcDbLine
 10
101.5503315447999
 20
21.4145478991
 30
0.0
 11
100.5996777281999
 21
21.4145478991
 31
0.0
  0
LINE
  5
2BA2
330
2B73
100
AcDbEntity
  8
0
  6
Continuous
 62
     7
100
AcDbLine
 10
98.91226720360002
 20
21.4145478991
 30
0.0
 11
97.3674547515
 21
21.4145478991
 31
0.0
  0
LINE
  5
2BA3
330
2B73
100
AcDbEntity
  8
0
  6
Continuous
 62
     7
100
AcDbLine
 10
101.5503315447999
 20
16.6612788158
 30
0.0
 11
100.0292854381999
 21
16.6612788158
 31
0.0
  0
LINE
  5
2BA4
330
2B73
100
AcDbEntity
  8
0
  6
Continuous
 62
     7
100
AcDbLine
 10
100.0292854381999
 20
16.6612788158
 30
0.0
 11
98.3181085682
 21
19.7033710291
 31
0.0
  0
LINE
  5
2BA5
330
2B73
100
AcDbEntity
  8
0
  6
Continuous
 62
     7
100
AcDbLine
 10
98.91226720360002
 20
21.4145478991
 30
0.0
 11
100.5996777281999
 21
18.4675210675
 31
0.0
  0
LINE
  5
2BA6
330
2B73
100
AcDbEntity
  8
0
  6
Continuous
 62
     7
100
AcDbLine
 10
100.5996777281999
 20
21.4145478991
 30
0.0
 11
100.5996777281999
 21
18.4675210675
 31
0.0
  0
LINE
  5
2BA7
330
2B73
100
AcDbEntity
  8
0
  6
Continuous
 62
     7
100
AcDbLine
 10
98.3181085682
 20
16.6612788158
 30
0.0
 11
98.3181085682
 21
19.7033710291
 31
0.0
  0
LINE
  5
2BA8
330
2B73
100
AcDbEntity
  8
0
  6
Continuous
 62
     7
100
AcDbLine
 10
102.3583872889999
 20
16.75634419749999
 30
0.0
 11
102.3583872889999
 21
17.7069980142
 31
0.0
  0
LINE
  5
2BA9
330
2B73
100
AcDbEntity
  8
0
  6
Continuous
 62
     7
100
AcDbLine
 10
105.6856756473
 20
20.4163613916
 30
0.0
 11
105.6856756473
 21
21.36701520829995
 31
0.0
  0
ARC
  5
2BAA
330
2B73
100
AcDbEntity
  8
0
  6
Continuous
 62
     7
100
AcDbCircle
 10
104.063028414
 20
18.61843736089998
 30
0.0
 40
1.111619360599997
100
AcDbArc
 50
277.7099956934
 51
295.6884927745998
  0
ARC
  5
2BAB
330
2B73
100
AcDbEntity
  8
0
  6
Continuous
 62
     7
100
AcDbCircle
 10
104.3473383967
 20
17.8936115972
 30
0.0
 40
0.3401689265
100
AcDbArc
 50
305.503221255
 51
72.46528985229999
  0
ARC
  5
2BAC
330
2B73
100
AcDbEntity
  8
0
  6
Continuous
 62
     7
100
AcDbCircle
 10
103.7813445885999
 20
21.2953185068
 30
0.0
 40
4.756794641099999
100
AcDbArc
 50
252.5939200548001
 51
280.9816604255999
  0
ARC
  5
2BAD
330
2B73
100
AcDbEntity
  8
0
  6
Continuous
 62
     7
100
AcDbCircle
 10
104.2361799517
 20
18.6773047703
 30
0.0
 40
2.100726595299998
100
AcDbArc
 50
282.4058358519998
 51
311.8644433928
  0
ARC
  5
2BAE
330
2B73
100
AcDbEntity
  8
0
  6
Continuous
 62
     7
100
AcDbCircle
 10
103.9626156045999
 20
20.2856464918
 30
0.0
 40
0.3029626476
100
AcDbArc
 50
154.4400348282
 51
221.8201698800999
  0
ARC
  5
2BAF
330
2B73
100
AcDbEntity
  8
0
  6
Continuous
 62
     7
100
AcDbCircle
 10
104.0418367559
 20
20.2064253405
 30
0.0
 40
0.4103089737
100
AcDbArc
 50
102.8287828680998
 51
149.2259639003
  0
ARC
  5
2BB0
330
2B73
100
AcDbEntity
  8
0
  6
Continuous
 62
     7
100
AcDbCircle
 10
104.4588635915999
 20
18.46409001059998
 30
0.0
 40
2.201836557
100
AcDbArc
 50
84.0400061857
 51
103.3427657870999
  0
ARC
  5
2BB1
330
2B73
100
AcDbEntity
  8
0
  6
Continuous
 62
     7
100
AcDbCircle
 10
104.1178997669
 20
16.0467260867
 30
0.0
 40
4.642373736499997
100
AcDbArc
 50
70.2625858546
 51
82.95241863799999
  0
ARC
  5
2BB2
330
2B73
100
AcDbEntity
  8
0
  6
Continuous
 62
     7
100
AcDbCircle
 10
103.6038815646999
 20
20.7183489764
 30
0.0
 40
3.258755990899997
100
AcDbArc
 50
247.5300206145
 51
280.7579522143
  0
ARC
  5
2BB3
330
2B73
100
AcDbEntity
  8
0
  6
Continuous
 62
     7
100
AcDbCircle
 10
97.21891509270001
 20
2.4668290159
 30
0.0
 40
17.3316084133
100
AcDbArc
 50
65.34146746500001
 51
67.39977707359999
  0
ARC
  5
2BB4
330
2B73
100
AcDbEntity
  8
0
  6
Continuous
 62
     7
100
AcDbCircle
 10
108.0147774981
 20
28.259255379
 30
0.0
 40
10.6291642039
100
AcDbArc
 50
242.8620101252
 51
247.1042029186
  0
ARC
  5
2BB5
330
2B73
100
AcDbEntity
  8
0
  6
Continuous
 62
     7
100
AcDbCircle
 10
104.1598762715
 20
20.725323882
 30
0.0
 40
2.166291629199998
100
AcDbArc
 50
227.3119280793999
 51
242.7040315235
  0
ARC
  5
2BB6
330
2B73
100
AcDbEntity
  8
0
  6
Continuous
 62
     7
100
AcDbCircle
 10
103.5558454618999
 20
20.0196462412
 30
0.0
 40
1.238521734
100
AcDbArc
 50
194.7952194236
 51
225.7176549047
  0
ARC
  5
2BB7
330
2B73
100
AcDbEntity
  8
0
  6
Continuous
 62
     7
100
AcDbCircle
 10
103.6180035961
 20
20.05986621039999
 30
0.0
 40
1.309092072899999
100
AcDbArc
 50
164.1974860461
 51
195.8025139539
  0
ARC
  5
2BB8
330
2B73
100
AcDbEntity
  8
0
  6
Continuous
 62
     7
100
AcDbCircle
 10
104.1750273167
 20
19.1715990505
 30
0.0
 40
2.366924815299999
100
AcDbArc
 50
86.22180229280001
 51
120.4272602309
  0
ARC
  5
2BB9
330
2B73
100
AcDbEntity
  8
0
  6
Continuous
 62
     7
100
AcDbCircle
 10
103.9061705341999
 20
12.4754312294
 30
0.0
 40
9.0679051661
100
AcDbArc
 50
78.68270492259998
 51
87.3147599624
  0
ARC
  5
2BBA
330
2B73
100
AcDbEntity
  8
0
  6
Continuous
 62
     7
100
AcDbCircle
 10
103.4501013557999
 20
20.1673739729
 30
0.0
 40
1.119747444
100
AcDbArc
 50
142.8139179029998
 51
167.1522951416999
  0
ARC
  5
2BBB
330
2B73
100
AcDbEntity
  8
0
  6
Continuous
 62
     7
100
AcDbCircle
 10
103.7954106973999
 20
19.86079227619999
 30
0.0
 40
1.580546684499998
100
AcDbArc
 50
121.2140948535
 51
141.5254768286
  0
ARC
  5
2BBC
330
2B73
100
AcDbEntity
  8
0
  6
Continuous
 62
     7
100
AcDbCircle
 10
104.372585063
 20
20.6718496049
 30
0.0
 40
0.8661276051999998
100
AcDbArc
 50
222.7760387596
 51
239.0362434679
  0
ARC
  5
2BBD
330
2B73
100
AcDbEntity
  8
0
  6
Continuous
 62
     7
100
AcDbCircle
 10
101.8658754847
 20
13.3415774063
 30
0.0
 40
6.858773576299999
100
AcDbArc
 50
59.90202725600001
 51
68.2036481279
  0
ARC
  5
2BBE
330
2B73
100
AcDbEntity
  8
0
  6
Continuous
 62
     7
100
AcDbCircle
 10
105.2743699785
 20
22.26746391349998
 30
0.0
 40
2.698741017099999
100
AcDbArc
 50
240.0481997804
 51
251.3779673736999
  0
ARC
  5
2BBF
330
2B73
100
AcDbEntity
  8
0
  6
Continuous
 62
     7
100
AcDbCircle
 10
104.6089128116999
 20
18.1105652982
 30
0.0
 40
1.4334474881
100
AcDbArc
 50
315.8904553224
 51
333.5229264372998
  0
ARC
  5
2BC0
330
2B73
100
AcDbEntity
  8
0
  6
Continuous
 62
     7
100
AcDbCircle
 10
104.6135510555
 20
18.057158148
 30
0.0
 40
1.406228711899998
100
AcDbArc
 50
335.3867972702
 51
24.3915119402
  0
ARC
  5
2BC1
330
2B73
100
AcDbEntity
  8
0
  6
Continuous
 62
     7
100
AcDbCircle
 10
104.5413461519
 20
17.97930145619999
 30
0.0
 40
1.504702514799999
100
AcDbArc
 50
25.95629166050001
 51
59.4834829668
  0
LINE
  5
2BC2
330
2B73
100
AcDbEntity
  8
0
  6
Continuous
 62
     7
100
AcDbLine
 10
74.7656602606
 20
16.75634419749999
 30
0.0
 11
74.7656602606
 21
17.7069980142
 31
0.0
  0
LINE
  5
2BC3
330
2B73
100
AcDbEntity
  8
0
  6
Continuous
 62
     7
100
AcDbLine
 10
78.09294861879997
 20
20.4163613916
 30
0.0
 11
78.09294861879997
 21
21.36701520829995
 31
0.0
  0
ARC
  5
2BC4
330
2B73
100
AcDbEntity
  8
0
  6
Continuous
 62
     7
100
AcDbCircle
 10
76.4703013855
 20
18.61843736089998
 30
0.0
 40
1.111619360599997
100
AcDbArc
 50
277.7099956934
 51
295.6884927745998
  0
ARC
  5
2BC5
330
2B73
100
AcDbEntity
  8
0
  6
Continuous
 62
     7
100
AcDbCircle
 10
76.7546113683
 20
17.8936115972
 30
0.0
 40
0.3401689265
100
AcDbArc
 50
305.5032212556
 51
72.4652898515
  0
ARC
  5
2BC6
330
2B73
100
AcDbEntity
  8
0
  6
Continuous
 62
     7
100
AcDbCircle
 10
76.1886175602
 20
21.2953185068
 30
0.0
 40
4.756794641099999
100
AcDbArc
 50
252.5939200545
 51
280.9816604253
  0
ARC
  5
2BC7
330
2B73
100
AcDbEntity
  8
0
  6
Continuous
 62
     7
100
AcDbCircle
 10
76.64345292330001
 20
18.6773047703
 30
0.0
 40
2.100726595299998
100
AcDbArc
 50
282.4058358513
 51
311.8644433923
  0
ARC
  5
2BC8
330
2B73
100
AcDbEntity
  8
0
  6
Continuous
 62
     7
100
AcDbCircle
 10
76.3698885762
 20
20.2856464918
 30
0.0
 40
0.3029626476
100
AcDbArc
 50
154.4400348282
 51
221.8201698800999
  0
ARC
  5
2BC9
330
2B73
100
AcDbEntity
  8
0
  6
Continuous
 62
     7
100
AcDbCircle
 10
76.4491097276
 20
20.2064253405
 30
0.0
 40
0.4103089737
100
AcDbArc
 50
102.8287828727
 51
149.2259639027
  0
ARC
  5
2BCA
330
2B73
100
AcDbEntity
  8
0
  6
Continuous
 62
     7
100
AcDbCircle
 10
76.8661365632
 20
18.46409001059998
 30
0.0
 40
2.201836557
100
AcDbArc
 50
84.0400061859
 51
103.3427657871998
  0
ARC
  5
2BCB
330
2B73
100
AcDbEntity
  8
0
  6
Continuous
 62
     7
100
AcDbCircle
 10
76.5251727384
 20
16.0467260867
 30
0.0
 40
4.642373736499997
100
AcDbArc
 50
70.2625858546
 51
82.9524186379
  0
ARC
  5
2BCC
330
2B73
100
AcDbEntity
  8
0
  6
Continuous
 62
     7
100
AcDbCircle
 10
76.0111545363
 20
20.7183489764
 30
0.0
 40
3.258755990899997
100
AcDbArc
 50
247.5300206148
 51
280.7579522145
  0
ARC
  5
2BCD
330
2B73
100
AcDbEntity
  8
0
  6
Continuous
 62
     7
100
AcDbCircle
 10
69.6261880643
 20
2.4668290159
 30
0.0
 40
17.3316084133
100
AcDbArc
 50
65.34146746500001
 51
67.39977707359999
  0
ARC
  5
2BCE
330
2B73
100
AcDbEntity
  8
0
  6
Continuous
 62
     7
100
AcDbCircle
 10
80.4220504697
 20
28.259255379
 30
0.0
 40
10.6291642039
100
AcDbArc
 50
242.8620101252
 51
247.1042029184999
  0
ARC
  5
2BCF
330
2B73
100
AcDbEntity
  8
0
  6
Continuous
 62
     7
100
AcDbCircle
 10
76.56714924310001
 20
20.725323882
 30
0.0
 40
2.166291629199998
100
AcDbArc
 50
227.3119280793999
 51
242.7040315235
  0
ARC
  5
2BD0
330
2B73
100
AcDbEntity
  8
0
  6
Continuous
 62
     7
100
AcDbCircle
 10
75.9631184335
 20
20.0196462412
 30
0.0
 40
1.238521734
100
AcDbArc
 50
194.7952194234
 51
225.7176549041999
  0
ARC
  5
2BD1
330
2B73
100
AcDbEntity
  8
0
  6
Continuous
 62
     7
100
AcDbCircle
 10
76.58230028830002
 20
19.1715990505
 30
0.0
 40
2.366924815299999
100
AcDbArc
 50
86.22180229280001
 51
120.4272602309
  0
ARC
  5
2BD2
330
2B73
100
AcDbEntity
  8
0
  6
Continuous
 62
     7
100
AcDbCircle
 10
76.3134435058
 20
12.4754312294
 30
0.0
 40
9.0679051661
100
AcDbArc
 50
78.68270492259998
 51
87.3147599624
  0
ARC
  5
2BD3
330
2B73
100
AcDbEntity
  8
0
  6
Continuous
 62
     7
100
AcDbCircle
 10
76.20268366899998
 20
19.86079227619999
 30
0.0
 40
1.580546684599998
100
AcDbArc
 50
121.2140948540999
 51
141.5254768289998
  0
ARC
  5
2BD4
330
2B73
100
AcDbEntity
  8
0
  6
Continuous
 62
     7
100
AcDbCircle
 10
76.7798580346
 20
20.6718496049
 30
0.0
 40
0.8661276051999998
100
AcDbArc
 50
222.7760387596
 51
239.0362434679
  0
ARC
  5
2BD5
330
2B73
100
AcDbEntity
  8
0
  6
Continuous
 62
     7
100
AcDbCircle
 10
74.2731484563
 20
13.3415774063
 30
0.0
 40
6.858773576299999
100
AcDbArc
 50
59.90202725620001
 51
68.20364812820002
  0
ARC
  5
2BD6
330
2B73
100
AcDbEntity
  8
0
  6
Continuous
 62
     7
100
AcDbCircle
 10
77.6816429501
 20
22.26746391349998
 30
0.0
 40
2.698741017099999
100
AcDbArc
 50
240.0481997804
 51
251.3779673734
  0
ARC
  5
2BD7
330
2B73
100
AcDbEntity
  8
0
  6
Continuous
 62
     7
100
AcDbCircle
 10
77.0161857833
 20
18.1105652982
 30
0.0
 40
1.4334474881
100
AcDbArc
 50
315.8904553225998
 51
333.5229264375
  0
ARC
  5
2BD8
330
2B73
100
AcDbEntity
  8
0
  6
Continuous
 62
     7
100
AcDbCircle
 10
77.020824027
 20
18.057158148
 30
0.0
 40
1.406228711899998
100
AcDbArc
 50
335.3867972703
 51
24.3915119403
  0
ARC
  5
2BD9
330
2B73
100
AcDbEntity
  8
0
  6
Continuous
 62
     7
100
AcDbCircle
 10
76.94861912350001
 20
17.97930145619999
 30
0.0
 40
1.504702514699999
100
AcDbArc
 50
25.9562916611
 51
59.4834829676
  0
LINE
  5
2BDA
330
2B73
100
AcDbEntity
  8
0
  6
Continuous
 62
     7
100
AcDbLine
 10
74.9574888499
 20
20.8337423583
 30
0.0
 11
75.2315546745
 21
21.10781543579999
 31
0.0
  0
ARC
  5
2BDB
330
2B73
100
AcDbEntity
  8
0
  6
Continuous
 62
     7
100
AcDbCircle
 10
76.0252765676
 20
20.05986621039999
 30
0.0
 40
1.309092072899999
100
AcDbArc
 50
164.1974860461
 51
195.8025139539
  0
ARC
  5
2BDC
330
2B73
100
AcDbEntity
  8
0
  6
Continuous
 62
     7
100
AcDbCircle
 10
75.8573743274
 20
20.1673739729
 30
0.0
 40
1.119747444
100
AcDbArc
 50
142.8139179029998
 51
167.1522951416999
  0
ENDBLK
  5
2BDD
330
2B73
100
AcDbEntity
  8
0
100
AcDbBlockEnd
  0
BLOCK
  5
8580D
330
85803
100
AcDbEntity
  8
0
 62
     7
100
AcDbBlockBegin
  2
*D2
 70
     1
 10
0.0
 20
0.0
 30
0.0
  3
*D2
  1

  0
LINE
  5
85A79
330
85803
100
AcDbEntity
  8
11100_Left_Dim
  6
Continuous
370
    -2
100
AcDbLine
 10
157.0316359468705
 20
209.1393918109245
 30
0.0
 11
168.065652823979
 21
209.1393918109245
 31
0.0
  0
LINE
  5
85A7A
330
85803
100
AcDbEntity
  8
11100_Left_Dim
  6
Continuous
370
    -2
100
AcDbLine
 10
157.0316359468705
 20
171.1393918109245
 30
0.0
 11
168.065652823979
 21
171.1393918109245
 31
0.0
  0
LINE
  5
85A7B
330
85803
100
AcDbEntity
  8
11100_Left_Dim
  6
Continuous
370
    -2
100
AcDbLine
 10
166.065652823979
 20
206.6393918109245
 30
0.0
 11
166.065652823979
 21
195.8060584775912
 31
0.0
  0
LINE
  5
85A7C
330
85803
100
AcDbEntity
  8
11100_Left_Dim
  6
Continuous
370
    -2
100
AcDbLine
 10
166.065652823979
 20
173.6393918109245
 30
0.0
 11
166.065652823979
 21
184.4727251442579
 31
0.0
  0
SOLID
  5
85A7D
330
85803
100
AcDbEntity
  8
11100_Left_Dim
  6
Continuous
100
AcDbTrace
 10
165.6489861573124
 20
206.6393918109245
 30
0.0
 11
166.4823194906457
 21
206.6393918109245
 31
0.0
 12
166.065652823979
 22
209.1393918109245
 32
0.0
 13
166.065652823979
 23
209.1393918109245
 33
0.0
  0
SOLID
  5
85A7E
330
85803
100
AcDbEntity
  8
11100_Left_Dim
  6
Continuous
100
AcDbTrace
 10
165.6489861573124
 20
173.6393918109245
 30
0.0
 11
166.4823194906457
 21
173.6393918109245
 31
0.0
 12
166.065652823979
 22
171.1393918109245
 32
0.0
 13
166.065652823979
 23
171.1393918109245
 33
0.0
  0
MTEXT
  5
85A7F
330
85803
100
AcDbEntity
  8
11100_Left_Dim
  6
Continuous
 62
     7
370
    13
100
AcDbMText
 10
166.065652823979
 20
190.1393918109246
 30
0.0
 40
5.0
 41
0.0
 71
     5
 72
     1
  1
\A1;38
 11
0.0000000000000001
 21
1.0
 31
0.0
 73
     1
 44
1.0
  0
POINT
  5
85A80
330
85803
100
AcDbEntity
  8
Defpoints
  6
Continuous
 62
     0
100
AcDbPoint
 10
157.0316359468705
 20
209.1393918109245
 30
0.0
  0
POINT
  5
85A81
330
85803
100
AcDbEntity
  8
Defpoints
  6
Continuous
 62
     0
100
AcDbPoint
 10
157.0316359468705
 20
171.1393918109245
 30
0.0
  0
POINT
  5
85A82
330
85803
100
AcDbEntity
  8
Defpoints
  6
Continuous
 62
     0
100
AcDbPoint
 10
166.065652823979
 20
171.1393918109245
 30
0.0
  0
ENDBLK
  5
8580E
330
85803
100
AcDbEntity
  8
0
 62
     7
100
AcDbBlockEnd
  0
BLOCK
  5
85825
330
8581B
100
AcDbEntity
  8
0
 62
     7
100
AcDbBlockBegin
  2
*D3
 70
     1
 10
0.0
 20
0.0
 30
0.0
  3
*D3
  1

  0
LINE
  5
85A6F
330
8581B
100
AcDbEntity
  8
11100_Left_Dim
  6
Continuous
370
    -2
100
AcDbLine
 10
133.7816359468704
 20
210.6393918109245
 30
0.0
 11
175.3458799855235
 21
210.6393918109245
 31
0.0
  0
LINE
  5
85A70
330
8581B
100
AcDbEntity
  8
11100_Left_Dim
  6
Continuous
370
    -2
100
AcDbLine
 10
157.0316359468705
 20
171.1393918109245
 30
0.0
 11
175.3458799855234
 21
171.1393918109245
 31
0.0
  0
LINE
  5
85A71
330
8581B
100
AcDbEntity
  8
11100_Left_Dim
  6
Continuous
370
    -2
100
AcDbLine
 10
173.3458799855235
 20
208.1393918109245
 30
0.0
 11
173.3458799855235
 21
196.1393918109245
 31
0.0
  0
LINE
  5
85A72
330
8581B
100
AcDbEntity
  8
11100_Left_Dim
  6
Continuous
370
    -2
100
AcDbLine
 10
173.3458799855234
 20
173.6393918109245
 30
0.0
 11
173.3458799855234
 21
185.6393918109245
 31
0.0
  0
SOLID
  5
85A73
330
8581B
100
AcDbEntity
  8
11100_Left_Dim
  6
Continuous
100
AcDbTrace
 10
172.9292133188568
 20
208.1393918109245
 30
0.0
 11
173.7625466521901
 21
208.1393918109245
 31
0.0
 12
173.3458799855235
 22
210.6393918109245
 32
0.0
 13
173.3458799855235
 23
210.6393918109245
 33
0.0
  0
SOLID
  5
85A74
330
8581B
100
AcDbEntity
  8
11100_Left_Dim
  6
Continuous
100
AcDbTrace
 10
172.9292133188568
 20
173.6393918109245
 30
0.0
 11
173.7625466521901
 21
173.6393918109245
 31
0.0
 12
173.3458799855234
 22
171.1393918109245
 32
0.0
 13
173.3458799855234
 23
171.1393918109245
 33
0.0
  0
MTEXT
  5
85A75
330
8581B
100
AcDbEntity
  8
11100_Left_Dim
  6
Continuous
 62
     7
370
    13
100
AcDbMText
 10
173.3458799855234
 20
190.8893918109246
 30
0.0
 40
5.0
 41
0.0
 71
     5
 72
     1
  1
\A1;40
 11
0.0000000000000001
 21
1.0
 31
0.0
 73
     1
 44
1.0
  0
POINT
  5
85A76
330
8581B
100
AcDbEntity
  8
Defpoints
  6
Continuous
 62
     0
100
AcDbPoint
 10
133.7816359468704
 20
210.6393918109245
 30
0.0
  0
POINT
  5
85A77
330
8581B
100
AcDbEntity
  8
Defpoints
  6
Continuous
 62
     0
100
AcDbPoint
 10
157.0316359468705
 20
171.1393918109245
 30
0.0
  0
POINT
  5
85A78
330
8581B
100
AcDbEntity
  8
Defpoints
  6
Continuous
 62
     0
100
AcDbPoint
 10
173.3458799855234
 20
171.1393918109245
 30
0.0
  0
ENDBLK
  5
85826
330
8581B
100
AcDbEntity
  8
0
 62
     7
100
AcDbBlockEnd
  0
BLOCK
  5
8583D
330
85833
100
AcDbEntity
  8
0
 62
     7
100
AcDbBlockBegin
  2
*D4
 70
     1
 10
0.0
 20
0.0
 30
0.0
  3
*D4
  1

  0
LINE
  5
85A65
330
85833
100
AcDbEntity
  8
11100_Left_Dim
  6
Continuous
370
    -2
100
AcDbLine
 10
113.8316359468704
 20
171.9391518109245
 30
0.0
 11
113.8316359468704
 21
161.5093190455609
 31
0.0
  0
LINE
  5
85A66
330
85833
100
AcDbEntity
  8
11100_Left_Dim
  6
Continuous
370
    -2
100
AcDbLine
 10
157.8316359468705
 20
171.9391518109245
 30
0.0
 11
157.8316359468705
 21
161.5093190455609
 31
0.0
  0
LINE
  5
85A67
330
85833
100
AcDbEntity
  8
11100_Left_Dim
  6
Continuous
370
    -2
100
AcDbLine
 10
116.3316359468705
 20
163.5093190455609
 30
0.0
 11
130.1649692802038
 21
163.5093190455609
 31
0.0
  0
LINE
  5
85A68
330
85833
100
AcDbEntity
  8
11100_Left_Dim
  6
Continuous
370
    -2
100
AcDbLine
 10
155.3316359468705
 20
163.5093190455609
 30
0.0
 11
141.4983026135371
 21
163.5093190455609
 31
0.0
  0
SOLID
  5
85A69
330
85833
100
AcDbEntity
  8
11100_Left_Dim
  6
Continuous
100
AcDbTrace
 10
116.3316359468705
 20
163.9259857122275
 30
0.0
 11
116.3316359468705
 21
163.0926523788942
 31
0.0
 12
113.8316359468704
 22
163.5093190455609
 32
0.0
 13
113.8316359468704
 23
163.5093190455609
 33
0.0
  0
SOLID
  5
85A6A
330
85833
100
AcDbEntity
  8
11100_Left_Dim
  6
Continuous
100
AcDbTrace
 10
155.3316359468705
 20
163.9259857122275
 30
0.0
 11
155.3316359468705
 21
163.0926523788942
 31
0.0
 12
157.8316359468705
 22
163.5093190455609
 32
0.0
 13
157.8316359468705
 23
163.5093190455609
 33
0.0
  0
MTEXT
  5
85A6B
330
85833
100
AcDbEntity
  8
11100_Left_Dim
  6
Continuous
 62
     7
370
    13
100
AcDbMText
 10
135.8316359468705
 20
163.5093190455609
 30
0.0
 40
5.0
 41
0.0
 71
     5
 72
     1
  1
\A1;44
 73
     1
 44
1.0
  0
POINT
  5
85A6C
330
85833
100
AcDbEntity
  8
Defpoints
  6
Continuous
 62
     0
100
AcDbPoint
 10
113.8316359468704
 20
171.9391518109245
 30
0.0
  0
POINT
  5
85A6D
330
85833
100
AcDbEntity
  8
Defpoints
  6
Continuous
 62
     0
100
AcDbPoint
 10
157.8316359468705
 20
171.9391518109245
 30
0.0
  0
POINT
  5
85A6E
330
85833
100
AcDbEntity
  8
Defpoints
  6
Continuous
 62
     0
100
AcDbPoint
 10
157.8316359468705
 20
163.5093190455609
 30
0.0
  0
ENDBLK
  5
8583E
330
85833
100
AcDbEntity
  8
0
 62
     7
100
AcDbBlockEnd
  0
BLOCK
  5
85870
330
85866
100
AcDbEntity
  8
0
 62
     7
100
AcDbBlockBegin
  2
*D5
 70
     1
 10
0.0
 20
0.0
 30
0.0
  3
*D5
  1

  0
LINE
  5
85A8D
330
85866
100
AcDbEntity
  8
11100_Left_Dim
  6
Continuous
370
    -2
100
AcDbLine
 10
206.546177151254
 20
177.1147838348101
 30
0.0
 11
206.546177151254
 21
161.5093190455609
 31
0.0
  0
LINE
  5
85A8E
330
85866
100
AcDbEntity
  8
11100_Left_Dim
  6
Continuous
370
    -2
100
AcDbLine
 10
247.896177151254
 20
171.0319338348101
 30
0.0
 11
247.896177151254
 21
161.5093190455609
 31
0.0
  0
LINE
  5
85A8F
330
85866
100
AcDbEntity
  8
11100_Left_Dim
  6
Continuous
370
    -2
100
AcDbLine
 10
209.046177151254
 20
163.5093190455609
 30
0.0
 11
222.3878438179207
 21
163.5093190455609
 31
0.0
  0
LINE
  5
85A90
330
85866
100
AcDbEntity
  8
11100_Left_Dim
  6
Continuous
370
    -2
100
AcDbLine
 10
245.396177151254
 20
163.5093190455609
 30
0.0
 11
232.0545104845873
 21
163.5093190455609
 31
0.0
  0
SOLID
  5
85A91
330
85866
100
AcDbEntity
  8
11100_Left_Dim
  6
Continuous
100
AcDbTrace
 10
209.046177151254
 20
163.9259857122275
 30
0.0
 11
209.046177151254
 21
163.0926523788942
 31
0.0
 12
206.546177151254
 22
163.5093190455609
 32
0.0
 13
206.546177151254
 23
163.5093190455609
 33
0.0
  0
SOLID
  5
85A92
330
85866
100
AcDbEntity
  8
11100_Left_Dim
  6
Continuous
100
AcDbTrace
 10
245.396177151254
 20
163.9259857122275
 30
0.0
 11
245.396177151254
 21
163.0926523788942
 31
0.0
 12
247.896177151254
 22
163.5093190455609
 32
0.0
 13
247.896177151254
 23
163.5093190455609
 33
0.0
  0
MTEXT
  5
85A93
330
85866
100
AcDbEntity
  8
11100_Left_Dim
  6
Continuous
 62
     7
370
    13
100
AcDbMText
 10
227.221177151254
 20
163.5093190455609
 30
0.0
 40
5.0
 41
0.0
 71
     5
 72
     1
  1
\A1;41
 73
     1
 44
1.0
  0
POINT
  5
85A94
330
85866
100
AcDbEntity
  8
Defpoints
  6
Continuous
 62
     0
100
AcDbPoint
 10
206.546177151254
 20
177.1147838348101
 30
0.0
  0
POINT
  5
85A95
330
85866
100
AcDbEntity
  8
Defpoints
  6
Continuous
 62
     0
100
AcDbPoint
 10
247.896177151254
 20
171.0319338348101
 30
0.0
  0
POINT
  5
85A96
330
85866
100
AcDbEntity
  8
Defpoints
  6
Continuous
 62
     0
100
AcDbPoint
 10
247.896177151254
 20
163.5093190455609
 30
0.0
  0
ENDBLK
  5
85871
330
85866
100
AcDbEntity
  8
0
 62
     7
100
AcDbBlockEnd
  0
BLOCK
  5
85891
330
85887
100
AcDbEntity
  8
0
 62
     7
100
AcDbBlockBegin
  2
*D6
 70
     1
 10
0.0
 20
0.0
 30
0.0
  3
*D6
  1

  0
LINE
  5
85A83
330
85887
100
AcDbEntity
  8
11100_Left_Dim
  6
Continuous
370
    -2
100
AcDbLine
 10
206.546177151254
 20
177.1147838697167
 30
0.0
 11
206.546177151254
 21
153.9244312832389
 31
0.0
  0
LINE
  5
85A84
330
85887
100
AcDbEntity
  8
11100_Left_Dim
  6
Continuous
370
    -2
100
AcDbLine
 10
250.396177151254
 20
185.5320408689339
 30
0.0
 11
250.396177151254
 21
153.9244312832389
 31
0.0
  0
LINE
  5
85A85
330
85887
100
AcDbEntity
  8
11100_Left_Dim
  6
Continuous
370
    -2
100
AcDbLine
 10
209.046177151254
 20
155.9244312832389
 30
0.0
 11
222.8045104845874
 21
155.9244312832389
 31
0.0
  0
LINE
  5
85A86
330
85887
100
AcDbEntity
  8
11100_Left_Dim
  6
Continuous
370
    -2
100
AcDbLine
 10
247.896177151254
 20
155.9244312832389
 30
0.0
 11
234.1378438179207
 21
155.9244312832389
 31
0.0
  0
SOLID
  5
85A87
330
85887
100
AcDbEntity
  8
11100_Left_Dim
  6
Continuous
100
AcDbTrace
 10
209.046177151254
 20
156.3410979499056
 30
0.0
 11
209.046177151254
 21
155.5077646165722
 31
0.0
 12
206.546177151254
 22
155.9244312832389
 32
0.0
 13
206.546177151254
 23
155.9244312832389
 33
0.0
  0
SOLID
  5
85A88
330
85887
100
AcDbEntity
  8
11100_Left_Dim
  6
Continuous
100
AcDbTrace
 10
247.896177151254
 20
156.3410979499056
 30
0.0
 11
247.896177151254
 21
155.5077646165722
 31
0.0
 12
250.396177151254
 22
155.9244312832389
 32
0.0
 13
250.396177151254
 23
155.9244312832389
 33
0.0
  0
MTEXT
  5
85A89
330
85887
100
AcDbEntity
  8
11100_Left_Dim
  6
Continuous
 62
     7
370
    13
100
AcDbMText
 10
228.471177151254
 20
155.9244312832389
 30
0.0
 40
5.0
 41
0.0
 71
     5
 72
     1
  1
\A1;44
 73
     1
 44
1.0
  0
POINT
  5
85A8A
330
85887
100
AcDbEntity
  8
Defpoints
  6
Continuous
 62
     0
100
AcDbPoint
 10
206.546177151254
 20
177.1147838697167
 30
0.0
  0
POINT
  5
85A8B
330
85887
100
AcDbEntity
  8
Defpoints
  6
Continuous
 62
     0
100
AcDbPoint
 10
250.396177151254
 20
185.5320408689339
 30
0.0
  0
POINT
  5
85A8C
330
85887
100
AcDbEntity
  8
Defpoints
  6
Continuous
 62
     0
100
AcDbPoint
 10
250.396177151254
 20
155.9244312832389
 30
0.0
  0
ENDBLK
  5
85892
330
85887
100
AcDbEntity
  8
0
 62
     7
100
AcDbBlockEnd
  0
BLOCK
  5
85A09
330
859FE
100
AcDbEntity
  8
0
 62
     7
100
AcDbBlockBegin
  2
*D9
 70
     1
 10
0.0
 20
0.0
 30
0.0
  3
*D9
  1

  0
LINE
  5
859FF
330
859FE
100
AcDbEntity
  8
11100_Left_Dim
  6
Continuous
370
    -2
100
AcDbLine
 10
152.1349285329341
 20
210.6777968386129
 30
0.0
 11
181.8671252034185
 21
210.6777968386129
 31
0.0
  0
LINE
  5
85A00
330
859FE
100
AcDbEntity
  8
11100_Left_Dim
  6
Continuous
370
    -2
100
AcDbLine
 10
152.1349285329341
 20
173.1777967740295
 30
0.0
 11
181.8671252034185
 21
173.1777967740295
 31
0.0
  0
LINE
  5
85A01
330
859FE
100
AcDbEntity
  8
11100_Left_Dim
  6
Continuous
370
    -2
100
AcDbLine
 10
179.8671252034186
 20
208.1777968386129
 30
0.0
 11
179.8671252034186
 21
197.5944634729879
 31
0.0
  0
LINE
  5
85A02
330
859FE
100
AcDbEntity
  8
11100_Left_Dim
  6
Continuous
370
    -2
100
AcDbLine
 10
179.8671252034185
 20
175.6777967740295
 30
0.0
 11
179.8671252034185
 21
186.2611301396546
 31
0.0
  0
SOLID
  5
85A03
330
859FE
100
AcDbEntity
  8
11100_Left_Dim
  6
Continuous
100
AcDbTrace
 10
179.4504585367519
 20
208.1777968386129
 30
0.0
 11
180.2837918700852
 21
208.1777968386129
 31
0.0
 12
179.8671252034186
 22
210.6777968386129
 32
0.0
 13
179.8671252034186
 23
210.6777968386129
 33
0.0
  0
SOLID
  5
85A04
330
859FE
100
AcDbEntity
  8
11100_Left_Dim
  6
Continuous
100
AcDbTrace
 10
179.4504585367519
 20
175.6777967740295
 30
0.0
 11
180.2837918700852
 21
175.6777967740295
 31
0.0
 12
179.8671252034185
 22
173.1777967740295
 32
0.0
 13
179.8671252034185
 23
173.1777967740295
 33
0.0
  0
MTEXT
  5
85A05
330
859FE
100
AcDbEntity
  8
11100_Left_Dim
  6
Continuous
 62
     7
370
    13
100
AcDbMText
 10
179.8671252034185
 20
191.9277968063212
 30
0.0
 40
5.0
 41
0.0
 71
     5
 72
     1
  1
\A1;38
 11
0.0000000000000001
 21
1.0
 31
0.0
 73
     1
 44
1.0
  0
POINT
  5
85A06
330
859FE
100
AcDbEntity
  8
Defpoints
  6
Continuous
 62
     0
100
AcDbPoint
 10
152.1349285329341
 20
210.6777968386129
 30
0.0
  0
POINT
  5
85A07
330
859FE
100
AcDbEntity
  8
Defpoints
  6
Continuous
 62
     0
100
AcDbPoint
 10
152.1349285329341
 20
173.1777967740295
 30
0.0
  0
POINT
  5
85A08
330
859FE
100
AcDbEntity
  8
Defpoints
  6
Continuous
 62
     0
100
AcDbPoint
 10
179.8671252034185
 20
173.1777967740295
 30
0.0
  0
ENDBLK
  5
85A0A
330
859FE
100
AcDbEntity
  8
0
 62
     7
100
AcDbBlockEnd
  0
BLOCK
  5
85A1C
330
85A11
100
AcDbEntity
  8
0
 62
     7
100
AcDbBlockBegin
  2
*D11
 70
     1
 10
0.0
 20
0.0
 30
0.0
  3
*D11
  1

  0
LINE
  5
85A1E
330
85A11
100
AcDbEntity
  8
11100_Left_Dim
  6
Continuous
370
    -2
100
AcDbLine
 10
206.0038344692979
 20
265.3285919534543
 30
0.0
 11
235.7360311397823
 21
265.3285919534543
 31
0.0
  0
LINE
  5
85A1F
330
85A11
100
AcDbEntity
  8
11100_Left_Dim
  6
Continuous
370
    -2
100
AcDbLine
 10
206.0038344692979
 20
227.828591888871
 30
0.0
 11
235.7360311397823
 21
227.828591888871
 31
0.0
  0
LINE
  5
85A20
330
85A11
100
AcDbEntity
  8
11100_Left_Dim
  6
Continuous
370
    -2
100
AcDbLine
 10
233.7360311397823
 20
262.8285919534544
 30
0.0
 11
233.7360311397823
 21
252.2452585878294
 31
0.0
  0
LINE
  5
85A21
330
85A11
100
AcDbEntity
  8
11100_Left_Dim
  6
Continuous
370
    -2
100
AcDbLine
 10
233.7360311397823
 20
230.328591888871
 30
0.0
 11
233.7360311397823
 21
240.911925254496
 31
0.0
  0
SOLID
  5
85A22
330
85A11
100
AcDbEntity
  8
11100_Left_Dim
  6
Continuous
100
AcDbTrace
 10
233.3193644731157
 20
262.8285919534544
 30
0.0
 11
234.152697806449
 21
262.8285919534544
 31
0.0
 12
233.7360311397823
 22
265.3285919534543
 32
0.0
 13
233.7360311397823
 23
265.3285919534543
 33
0.0
  0
SOLID
  5
85A23
330
85A11
100
AcDbEntity
  8
11100_Left_Dim
  6
Continuous
100
AcDbTrace
 10
233.3193644731157
 20
230.328591888871
 30
0.0
 11
234.152697806449
 21
230.328591888871
 31
0.0
 12
233.7360311397823
 22
227.828591888871
 32
0.0
 13
233.7360311397823
 23
227.828591888871
 33
0.0
  0
MTEXT
  5
85A24
330
85A11
100
AcDbEntity
  8
11100_Left_Dim
  6
Continuous
 62
     7
370
    13
100
AcDbMText
 10
233.7360311397823
 20
246.5785919211627
 30
0.0
 40
5.0
 41
0.0
 71
     5
 72
     1
  1
\A1;38
 11
0.0000000000000001
 21
1.0
 31
0.0
 73
     1
 44
1.0
  0
POINT
  5
85A25
330
85A11
100
AcDbEntity
  8
Defpoints
  6
Continuous
 62
     0
100
AcDbPoint
 10
206.0038344692979
 20
265.3285919534543
 30
0.0
  0
POINT
  5
85A26
330
85A11
100
AcDbEntity
  8
Defpoints
  6
Continuous
 62
     0
100
AcDbPoint
 10
206.0038344692979
 20
227.828591888871
 30
0.0
  0
POINT
  5
85A27
330
85A11
100
AcDbEntity
  8
Defpoints
  6
Continuous
 62
     0
100
AcDbPoint
 10
233.7360311397823
 20
227.828591888871
 30
0.0
  0
ENDBLK
  5
85A1D
330
85A11
100
AcDbEntity
  8
0
 62
     7
100
AcDbBlockEnd
  0
ENDSEC
  0
SECTION
  2
ENTITIES
  0
LINE
  5
2BFE
330
1F
100
AcDbEntity
  8
90000_FRAME
  6
Continuous
 62
     7
100
AcDbLine
 10
316.4444837220524
 20
283.6397225845828
 30
0.0
 11
46.44448372205238
 21
283.6397225845828
 31
0.0
  0
INSERT
  5
2BFF
330
1F
100
AcDbEntity
  8
90000_FRAME
  6
Continuous
 62
     7
100
AcDbBlockReference
  2
SIEMENS_OUTLINE_BL0
 10
109.0903811059734
 20
78.3014633569795
 30
0.0
  0
LINE
  5
2C00
330
1F
100
AcDbEntity
  8
90000_FRAME
  6
Continuous
 62
     7
100
AcDbLine
 10
176.4444837220525
 20
88.6397225845828
 30
0.0
 11
311.4444837220523
 21
88.6397225845828
 31
0.0
  0
LINE
  5
2C01
330
1F
100
AcDbEntity
  8
90000_FRAME
  6
Continuous
 62
     7
100
AcDbLine
 10
176.4444837220525
 20
88.6397225845828
 30
0.0
 11
176.4444837220525
 21
106.6397225845828
 31
0.0
  0
LINE
  5
2C02
330
1F
100
AcDbEntity
  8
90000_FRAME
  6
Continuous
 62
     7
100
AcDbLine
 10
226.4444837220524
 20
94.63972258458278
 30
0.0
 11
311.4444837220523
 21
94.63972258458278
 31
0.0
  0
LINE
  5
2C03
330
1F
100
AcDbEntity
  8
90000_FRAME
  6
Continuous
 62
     7
100
AcDbLine
 10
176.4444837220525
 20
106.6397225845828
 30
0.0
 11
311.4444837220523
 21
106.6397225845828
 31
0.0
  0
LINE
  5
2C04
330
1F
100
AcDbEntity
  8
90000_FRAME
  6
Continuous
 62
     7
100
AcDbLine
 10
226.4444837220524
 20
88.6397225845828
 30
0.0
 11
226.4444837220524
 21
106.6397225845828
 31
0.0
  0
LINE
  5
2C05
330
1F
100
AcDbEntity
  8
90000_FRAME
  6
Continuous
 62
     7
100
AcDbLine
 10
268.9444837220526
 20
88.6397225845828
 30
0.0
 11
268.9444837220526
 21
94.63972258458278
 31
0.0
  0
LINE
  5
2C06
330
1F
100
AcDbEntity
  8
90000_FRAME
  6
Continuous
 62
     7
100
AcDbLine
 10
311.4444837220523
 20
88.6397225845828
 30
0.0
 11
311.4444837220523
 21
106.6397225845828
 31
0.0
  0
TEXT
  5
2C07
330
1F
100
AcDbEntity
  8
90000_FRAME
  6
Continuous
 62
     7
100
AcDbText
 10
227.1044837220525
 20
90.53972258458269
 30
0.0
 40
2.2
  1
Format / Size: DIN A4
 41
0.7994987468660241
 72
     5
 11
260.5235313410523
 21
90.53972258458269
 31
0.0
100
AcDbText
  0
TEXT
  5
2C08
330
1F
100
AcDbEntity
  8
90000_FRAME
  6
Continuous
 62
     7
100
AcDbText
 10
269.6044837220525
 20
90.53972258458269
 30
0.0
 40
2.2
  1
Massstab / Scale: 1:1
 41
0.7732634338148409
 72
     5
 11
300.5092456268523
 21
90.53972258458269
 31
0.0
100
AcDbText
  0
TEXT
  5
2C09
330
1F
100
AcDbEntity
  8
90000_FRAME
  6
Continuous
 62
     7
100
AcDbText
 10
239.7504082460029
 20
101.514045083679
 30
0.0
 40
3.5
  1
3RH1921_00001237_000_ALL
 41
0.7430189158695488
 72
     5
 11
295.6625816651865
 21
101.514045083679
 31
0.0
100
AcDbText
  0
TEXT
  5
2C0A
330
1F
100
AcDbEntity
  8
91000_TIP
  6
Continuous
 62
     7
100
AcDbText
 10
51.75059397854511
 20
95.95746017596686
 30
0.0
 40
2.5
  1
Alle Bemassungswerte sind in Millimeter (mm) angegeben.
 41
0.6056311217924572
 72
     5
 11
125.4357137966274
 21
95.95746017596686
 31
0.0
100
AcDbText
  0
TEXT
  5
2C0B
330
1F
100
AcDbEntity
  8
91000_TIP
  6
Continuous
 62
     7
100
AcDbText
 10
51.75059397854511
 20
90.70746017596674
 30
0.0
 40
2.5
  1
All dimensions are in millimeters (mm).
 41
0.7513350295680272
 72
     5
 11
111.8573963439872
 21
90.70746017596674
 31
0.0
100
AcDbText
  0
LINE
  5
2C0C
330
1F
100
AcDbEntity
  8
91000_TIP
  6
Continuous
 62
     7
100
AcDbLine
 10
151.2591538260783
 20
99.9634601069534
 30
0.0
 11
161.2591536218785
 21
102.4634600559534
 31
0.0
  0
LINE
  5
2C0D
330
1F
100
AcDbEntity
  8
91000_TIP
  6
CENTER
 62
     7
100
AcDbLine
 10
149.9796433540774
 20
97.46346015805338
 30
0.0
 11
173.5816326181774
 21
97.46346015805338
 31
0.0
  0
LINE
  5
2C0E
330
1F
100
AcDbEntity
  8
91000_TIP
  6
Continuous
 62
     7
100
AcDbLine
 10
151.2591538260783
 20
94.96346020915341
 30
0.0
 11
161.2591536218785
 21
92.46346026015327
 31
0.0
  0
LINE
  5
2C0F
330
1F
100
AcDbEntity
  8
91000_TIP
  6
Continuous
 62
     7
100
AcDbLine
 10
151.2591538260783
 20
99.9634601069534
 30
0.0
 11
151.2591538260783
 21
94.96346020915341
 31
0.0
  0
LINE
  5
2C10
330
1F
100
AcDbEntity
  8
91000_TIP
  6
Continuous
 62
     7
100
AcDbLine
 10
161.2591536218785
 20
102.4634600559534
 30
0.0
 11
161.2591536218785
 21
92.46346026015327
 31
0.0
  0
LINE
  5
2C11
330
1F
100
AcDbEntity
  8
91000_TIP
  6
CENTER
 62
     7
100
AcDbLine
 10
167.7591534890785
 20
91.74197895165336
 30
0.0
 11
167.7591534890785
 21
103.0253649516531
 31
0.0
  0
CIRCLE
  5
2C12
330
1F
100
AcDbEntity
  8
91000_TIP
  6
Continuous
 62
     7
100
AcDbCircle
 10
167.7591534890785
 20
97.46346015805338
 30
0.0
 40
4.9999998979
  0
CIRCLE
  5
2C13
330
1F
100
AcDbEntity
  8
91000_TIP
  6
Continuous
 62
     7
100
AcDbCircle
 10
167.7591534890785
 20
97.46346015805338
 30
0.0
 40
2.499999948899997
  0
LINE
  5
2C14
330
1F
100
AcDbEntity
  8
90000_FRAME
  6
Continuous
 62
     7
100
AcDbLine
 10
46.44448372205238
 20
83.6397225845828
 30
0.0
 11
46.44448372205238
 21
283.6397225845828
 31
0.0
  0
LINE
  5
2C15
330
1F
100
AcDbEntity
  8
90000_FRAME
  6
Continuous
 62
     7
100
AcDbLine
 10
316.4444837220524
 20
83.6397225845828
 30
0.0
 11
46.44448372205238
 21
83.6397225845828
 31
0.0
  0
LINE
  5
2C16
330
1F
100
AcDbEntity
  8
90000_FRAME
  6
Continuous
 62
     7
100
AcDbLine
 10
316.4444837220524
 20
83.6397225845828
 30
0.0
 11
316.4444837220526
 21
283.6397225845828
 31
0.0
  0
TEXT
  5
32DD
330
1F
100
AcDbEntity
  8
90000_FRAME
  6
Continuous
 62
     7
100
AcDbText
 10
239.7504082460029
 20
95.93736000806606
 30
0.0
 40
3.5
  1
Hilfsschalter CC
 41
1.141064763656807
 72
     5
 11
295.6625816651865
 21
95.93736000806606
 31
0.0
100
AcDbText
  0
LINE
  5
7F659
330
1F
100
AcDbEntity
  8
10000_Front
  6
Continuous
 62
     7
370
    13
100
AcDbLine
 10
145.0816359468705
 20
195.3393918109245
 30
0.0
 11
141.4816359468705
 21
195.3393918109245
 31
0.0
  0
LINE
  5
7F65C
330
1F
100
AcDbEntity
  8
10000_Front
  6
Continuous
 62
     7
370
    13
100
AcDbLine
 10
141.4816359468705
 20
199.0393918109245
 30
0.0
 11
145.0816359468705
 21
199.0393918109245
 31
0.0
  0
LINE
  5
7FA79
330
1F
100
AcDbEntity
  8
10000_Front
  6
Continuous
 62
     7
370
    13
100
AcDbLine
 10
145.0816359468705
 20
181.2393918109245
 30
0.0
 11
141.4816359468705
 21
181.2393918109245
 31
0.0
  0
LINE
  5
7FA7A
330
1F
100
AcDbEntity
  8
10000_Front
  6
Continuous
 62
     7
370
    13
100
AcDbLine
 10
141.4816359468705
 20
184.9393918109245
 30
0.0
 11
145.0816359468705
 21
184.9393918109245
 31
0.0
  0
LINE
  5
7FA7B
102
{ACAD_REACTORS
330
85819
330
85831
102
}
330
1F
100
AcDbEntity
  8
10000_Front
  6
Continuous
 62
     7
370
    50
100
AcDbLine
 10
157.0316359468705
 20
171.1393918109245
 30
0.0
 11
114.6316359468705
 21
171.1393918109245
 31
0.0
  0
LINE
  5
7FA7D
102
{ACAD_REACTORS
330
85819
102
}
330
1F
100
AcDbEntity
  8
10000_Front
  6
Continuous
 62
     7
370
    50
100
AcDbLine
 10
114.6316359468705
 20
209.1393918109245
 30
0.0
 11
157.0316359468705
 21
209.1393918109245
 31
0.0
  0
LINE
  5
7FA81
330
1F
100
AcDbEntity
  8
10000_Front
  6
Continuous
 62
     7
370
    13
100
AcDbLine
 10
157.0316359468705
 20
185.6393918109245
 30
0.0
 11
114.6316359468705
 21
185.6393918109245
 31
0.0
  0
LINE
  5
7FA82
330
1F
100
AcDbEntity
  8
10000_Front
  6
Continuous
 62
     7
370
    13
100
AcDbLine
 10
114.6316359468705
 20
194.6393918109245
 30
0.0
 11
157.0316359468705
 21
194.6393918109245
 31
0.0
  0
LINE
  5
7FA83
330
1F
100
AcDbEntity
  8
10000_Front
  6
Continuous
 62
     7
370
    13
100
AcDbLine
 10
156.6316359468705
 20
186.5027918109245
 30
0.0
 11
115.6316359468705
 21
186.5027918109245
 31
0.0
  0
LINE
  5
7FA84
330
1F
100
AcDbEntity
  8
10000_Front
  6
Continuous
 62
     7
370
    13
100
AcDbLine
 10
115.6316359468705
 20
193.7760018109245
 30
0.0
 11
157.0316359468705
 21
193.7760018109245
 31
0.0
  0
LINE
  5
7FA85
330
1F
100
AcDbEntity
  8
10000_Front
  6
Continuous
 62
     7
370
    13
100
AcDbLine
 10
135.6316359468705
 20
193.6393918109245
 30
0.0
 11
135.6316359468705
 21
186.6393918109245
 31
0.0
  0
LINE
  5
7FA87
330
1F
100
AcDbEntity
  8
10000_Front
  6
Continuous
 62
     7
370
    13
100
AcDbLine
 10
128.8816359468705
 20
188.7393918109245
 30
0.0
 11
128.8816359468705
 21
191.5393918109245
 31
0.0
  0
LINE
  5
7FA89
330
1F
100
AcDbEntity
  8
10000_Front
  6
Continuous
 62
     7
370
    13
100
AcDbLine
 10
131.6816359468705
 20
191.5393918109245
 30
0.0
 11
131.6816359468705
 21
188.7393918109245
 31
0.0
  0
LINE
  5
7FA8B
330
1F
100
AcDbEntity
  8
10000_Front
  6
Continuous
 62
     7
370
    13
100
AcDbLine
 10
139.8816359468705
 20
188.7393918109245
 30
0.0
 11
139.8816359468705
 21
191.5393918109245
 31
0.0
  0
LINE
  5
7FA8D
330
1F
100
AcDbEntity
  8
10000_Front
  6
Continuous
 62
     7
370
    13
100
AcDbLine
 10
139.1316359468705
 20
192.3393918109245
 30
0.0
 11
139.1316359468705
 21
187.9393918109245
 31
0.0
  0
LINE
  5
7FA8F
330
1F
100
AcDbEntity
  8
10000_Front
  6
Continuous
 62
     7
370
    13
100
AcDbLine
 10
142.6816359468705
 20
191.5393918109245
 30
0.0
 11
142.6816359468705
 21
188.7393918109245
 31
0.0
  0
LINE
  5
7FA92
330
1F
100
AcDbEntity
  8
10000_Front
  6
Continuous
 62
     7
370
    13
100
AcDbLine
 10
143.5316359468705
 20
187.9393918109245
 30
0.0
 11
143.5316359468705
 21
192.3393918109245
 31
0.0
  0
LINE
  5
7FA94
330
1F
100
AcDbEntity
  8
10000_Front
  6
Continuous
 62
     7
370
    50
100
AcDbLine
 10
113.8316359468704
 20
187.4893918109245
 30
0.0
 11
113.8316359468704
 21
193.6893918109245
 31
0.0
  0
LINE
  5
7FA95
330
1F
100
AcDbEntity
  8
10000_Front
  6
Continuous
 62
     7
370
    13
100
AcDbLine
 10
115.6316359468705
 20
187.4894018109245
 30
0.0
 11
115.6316359468705
 21
193.6393918109245
 31
0.0
  0
LINE
  5
7FA98
330
1F
100
AcDbEntity
  8
10000_Front
  6
Continuous
 62
     7
370
    13
100
AcDbLine
 10
117.8816359468705
 20
188.7393918109245
 30
0.0
 11
117.8816359468705
 21
191.5393918109245
 31
0.0
  0
LINE
  5
7FA9A
330
1F
100
AcDbEntity
  8
10000_Front
  6
Continuous
 62
     7
370
    13
100
AcDbLine
 10
120.6816359468705
 20
191.5393918109245
 30
0.0
 11
120.6816359468705
 21
188.7393918109245
 31
0.0
  0
LINE
  5
7FDF4
330
1F
100
AcDbEntity
  8
10000_Front
  6
Continuous
 62
     7
370
    13
100
AcDbLine
 10
130.1816359468705
 20
181.2393918109245
 30
0.0
 11
126.5816359468704
 21
181.2393918109245
 31
0.0
  0
LINE
  5
7FDF5
330
1F
100
AcDbEntity
  8
10000_Front
  6
Continuous
 62
     7
370
    13
100
AcDbLine
 10
126.5816359468704
 20
184.9393918109245
 30
0.0
 11
130.1816359468705
 21
184.9393918109245
 31
0.0
  0
LINE
  5
7FDF6
330
1F
100
AcDbEntity
  8
10000_Front
  6
Continuous
 62
     7
370
    13
100
AcDbLine
 10
135.6316359468705
 20
186.6393918109245
 30
0.0
 11
115.6316359468705
 21
186.6393918109245
 31
0.0
  0
LINE
  5
7FDF8
102
{ACAD_REACTORS
330
85849
102
}
330
1F
100
AcDbEntity
  8
10000_Front
  6
Continuous
 62
     7
370
    50
100
AcDbLine
 10
113.8316359468704
 20
171.9391518109245
 30
0.0
 11
113.8316359468704
 21
185.6483918109246
 31
0.0
  0
ARC
  5
8018B
330
1F
100
AcDbEntity
  8
10000_Front
  6
Continuous
 62
     7
370
    50
100
AcDbCircle
 10
114.6316359468705
 20
171.9393918109246
 30
0.0
 40
0.8
100
AcDbArc
 50
180.0
 51
270.0
  0
LINE
  5
80792
330
1F
100
AcDbEntity
  8
10000_Front
  6
Continuous
 62
     7
370
    13
100
AcDbLine
 10
119.3813239468704
 20
175.6841118109245
 30
0.0
 11
119.3816799468705
 21
177.9819418109245
 31
0.0
  0
LINE
  5
80966
330
1F
100
AcDbEntity
  8
10000_Front
  6
Continuous
 62
     7
370
    13
100
AcDbLine
 10
120.6816359468705
 20
188.7393918109245
 30
0.0
 11
117.8816359468705
 21
188.7393918109245
 31
0.0
  0
LINE
  5
80968
330
1F
100
AcDbEntity
  8
10000_Front
  6
Continuous
 62
     7
370
    13
100
AcDbLine
 10
123.0816359468704
 20
181.2393918109245
 30
0.0
 11
119.4816359468705
 21
181.2393918109245
 31
0.0
  0
LINE
  5
8096B
330
1F
100
AcDbEntity
  8
10000_Front
  6
Continuous
 62
     7
370
    13
100
AcDbLine
 10
119.4816359468705
 20
184.9393918109245
 30
0.0
 11
123.0816359468704
 21
184.9393918109245
 31
0.0
  0
LINE
  5
8096D
330
1F
100
AcDbEntity
  8
10000_Front
  6
Continuous
 62
     7
370
    13
100
AcDbLine
 10
119.1816359468705
 20
181.2393918109245
 30
0.0
 11
115.5816359468704
 21
181.2393918109245
 31
0.0
  0
LINE
  5
80970
330
1F
100
AcDbEntity
  8
10000_Front
  6
Continuous
 62
     7
370
    13
100
AcDbLine
 10
115.5816359468704
 20
184.9393918109246
 30
0.0
 11
119.1816359468705
 21
184.9393918109245
 31
0.0
  0
LINE
  5
80976
330
1F
100
AcDbEntity
  8
10000_Front
  6
Continuous
 62
     7
370
    13
100
AcDbLine
 10
115.5816359468704
 20
181.2393918109245
 30
0.0
 11
115.5816359468704
 21
184.9393918109246
 31
0.0
  0
LINE
  5
80982
330
1F
100
AcDbEntity
  8
10000_Front
  6
Continuous
 62
     7
370
    13
100
AcDbLine
 10
119.1816359468705
 20
184.9393918109245
 30
0.0
 11
119.1816359468705
 21
181.2393918109245
 31
0.0
  0
LINE
  5
80983
330
1F
100
AcDbEntity
  8
10000_Front
  6
Continuous
 62
     7
370
    13
100
AcDbLine
 10
119.4816359468705
 20
181.2393918109245
 30
0.0
 11
119.4816359468705
 21
184.9393918109245
 31
0.0
  0
LINE
  5
80984
330
1F
100
AcDbEntity
  8
10000_Front
  6
Continuous
 62
     7
370
    13
100
AcDbLine
 10
115.6316359468705
 20
186.5027918109245
 30
0.0
 11
115.6316359468705
 21
187.4893918109245
 31
0.0
  0
LINE
  5
80985
330
1F
100
AcDbEntity
  8
10000_Front
  6
Continuous
 62
     7
370
    50
100
AcDbLine
 10
113.8316359468704
 20
185.6483918109246
 30
0.0
 11
113.8316359468704
 21
187.4893918109245
 31
0.0
  0
POLYLINE
  5
80987
330
1F
100
AcDbEntity
  8
10000_Front
  6
Continuous
 62
     7
370
    13
100
AcDb2dPolyline
 66
     1
 10
0.0
 20
0.0
 30
0.0
 70
     2
  0
VERTEX
  5
80988
330
80987
100
AcDbEntity
  8
10000_Front
  6
Continuous
 62
     7
370
    13
100
AcDbVertex
100
AcDb2dVertex
 10
114.6316319468705
 20
185.6394018109245
 30
0.0
  0
VERTEX
  5
80989
330
80987
100
AcDbEntity
  8
10000_Front
  6
Continuous
 62
     7
370
    13
100
AcDbVertex
100
AcDb2dVertex
 10
114.5935129468705
 20
185.6394118109245
 30
0.0
 42
-0.0001441352
 70
     1
  0
VERTEX
  5
8098A
330
80987
100
AcDbEntity
  8
10000_Front
  6
Continuous
 62
     7
370
    13
100
AcDbVertex
100
AcDb2dVertex
 10
114.5548869468705
 20
185.6394418109245
 30
0.0
 42
-0.0001374959
  0
VERTEX
  5
8098B
330
80987
100
AcDbEntity
  8
10000_Front
  6
Continuous
 62
     7
370
    13
100
AcDbVertex
100
AcDb2dVertex
 10
114.5157119468704
 20
185.6394918109245
 30
0.0
 42
-0.0001367376
 70
     1
  0
VERTEX
  5
8098C
330
80987
100
AcDbEntity
  8
10000_Front
  6
Continuous
 62
     7
370
    13
100
AcDbVertex
100
AcDb2dVertex
 10
114.4761579468705
 20
185.6395718109245
 30
0.0
 42
-0.0001445491
  0
VERTEX
  5
8098D
330
80987
100
AcDbEntity
  8
10000_Front
  6
Continuous
 62
     7
370
    13
100
AcDbVertex
100
AcDb2dVertex
 10
114.4363979468705
 20
185.6396718109245
 30
0.0
 42
-0.0001503738
 70
     1
  0
VERTEX
  5
8098E
330
80987
100
AcDbEntity
  8
10000_Front
  6
Continuous
 62
     7
370
    13
100
AcDbVertex
100
AcDb2dVertex
 10
114.3965959468705
 20
185.6397918109245
 30
0.0
 42
-0.0001561267
  0
VERTEX
  5
8098F
330
80987
100
AcDbEntity
  8
10000_Front
  6
Continuous
 62
     7
370
    13
100
AcDbVertex
100
AcDb2dVertex
 10
114.3569169468704
 20
185.6399418109245
 30
0.0
 42
-0.0001625777
 70
     1
  0
VERTEX
  5
80990
330
80987
100
AcDbEntity
  8
10000_Front
  6
Continuous
 62
     7
370
    13
100
AcDbVertex
100
AcDb2dVertex
 10
114.3175319468705
 20
185.6401218109245
 30
0.0
 42
-0.0001715169
  0
VERTEX
  5
80991
330
80987
100
AcDbEntity
  8
10000_Front
  6
Continuous
 62
     7
370
    13
100
AcDbVertex
100
AcDb2dVertex
 10
114.2786439468705
 20
185.6403218109245
 30
0.0
 42
-0.0001811667
 70
     1
  0
VERTEX
  5
80992
330
80987
100
AcDbEntity
  8
10000_Front
  6
Continuous
 62
     7
370
    13
100
AcDbVertex
100
AcDb2dVertex
 10
114.2404199468705
 20
185.6405518109245
 30
0.0
 42
-0.000192869
  0
VERTEX
  5
80993
330
80987
100
AcDbEntity
  8
10000_Front
  6
Continuous
 62
     7
370
    13
100
AcDbVertex
100
AcDb2dVertex
 10
114.2030779468705
 20
185.6408018109245
 30
0.0
 42
-0.000206324
 70
     1
  0
VERTEX
  5
80994
330
80987
100
AcDbEntity
  8
10000_Front
  6
Continuous
 62
     7
370
    13
100
AcDbVertex
100
AcDb2dVertex
 10
114.1667679468705
 20
185.6410718109245
 30
0.0
 42
-0.0002223912
  0
VERTEX
  5
80995
330
80987
100
AcDbEntity
  8
10000_Front
  6
Continuous
 62
     7
370
    13
100
AcDbVertex
100
AcDb2dVertex
 10
114.1317199468705
 20
185.6413718109245
 30
0.0
 42
-0.0002418693
 70
     1
  0
VERTEX
  5
80996
330
80987
100
AcDbEntity
  8
10000_Front
  6
Continuous
 62
     7
370
    13
100
AcDbVertex
100
AcDb2dVertex
 10
114.0980519468705
 20
185.6416918109245
 30
0.0
 42
-0.000265037
  0
VERTEX
  5
80997
330
80987
100
AcDbEntity
  8
10000_Front
  6
Continuous
 62
     7
370
    13
100
AcDbVertex
100
AcDb2dVertex
 10
114.0659899468705
 20
185.6420318109245
 30
0.0
 42
-0.0002930126
 70
     1
  0
VERTEX
  5
80998
330
80987
100
AcDbEntity
  8
10000_Front
  6
Continuous
 62
     7
370
    13
100
AcDbVertex
100
AcDb2dVertex
 10
114.0356159468705
 20
185.6423918109245
 30
0.0
 42
-0.0003248641
  0
VERTEX
  5
80999
330
80987
100
AcDbEntity
  8
10000_Front
  6
Continuous
 62
     7
370
    13
100
AcDbVertex
100
AcDb2dVertex
 10
114.0071409468705
 20
185.6427718109245
 30
0.0
 42
-0.0003702723
 70
     1
  0
VERTEX
  5
8099A
330
80987
100
AcDbEntity
  8
10000_Front
  6
Continuous
 62
     7
370
    13
100
AcDbVertex
100
AcDb2dVertex
 10
113.9805959468705
 20
185.6431718109245
 30
0.0
 42
-0.0004293091
  0
VERTEX
  5
8099B
330
80987
100
AcDbEntity
  8
10000_Front
  6
Continuous
 62
     7
370
    13
100
AcDbVertex
100
AcDb2dVertex
 10
113.9561659468705
 20
185.6435718109246
 30
0.0
 42
-0.000490498
 70
     1
  0
VERTEX
  5
8099C
330
80987
100
AcDbEntity
  8
10000_Front
  6
Continuous
 62
     7
370
    13
100
AcDbVertex
100
AcDb2dVertex
 10
113.9338479468704
 20
185.6439918109245
 30
0.0
 42
-0.000542454
  0
VERTEX
  5
8099D
330
80987
100
AcDbEntity
  8
10000_Front
  6
Continuous
 62
     7
370
    13
100
AcDbVertex
100
AcDb2dVertex
 10
113.9137939468705
 20
185.6444218109245
 30
0.0
 42
-0.0007047287
 70
     1
  0
VERTEX
  5
8099E
330
80987
100
AcDbEntity
  8
10000_Front
  6
Continuous
 62
     7
370
    13
100
AcDbVertex
100
AcDb2dVertex
 10
113.8959029468705
 20
185.6448618109245
 30
0.0
 42
-0.0010263143
  0
VERTEX
  5
8099F
330
80987
100
AcDbEntity
  8
10000_Front
  6
Continuous
 62
     7
370
    13
100
AcDbVertex
100
AcDb2dVertex
 10
113.8802709468705
 20
185.6453218109245
 30
0.0
 42
-0.0010784988
 70
     1
  0
VERTEX
  5
809A0
330
80987
100
AcDbEntity
  8
10000_Front
  6
Continuous
 62
     7
370
    13
100
AcDbVertex
100
AcDb2dVertex
 10
113.8669609468704
 20
185.6457518109245
 30
0.0
 42
-0.000567678
  0
VERTEX
  5
809A1
330
80987
100
AcDbEntity
  8
10000_Front
  6
Continuous
 62
     7
370
    13
100
AcDbVertex
100
AcDb2dVertex
 10
113.8561009468705
 20
185.6461418109246
 30
0.0
 42
-0.0020806454
 70
     1
  0
VERTEX
  5
809A2
330
80987
100
AcDbEntity
  8
10000_Front
  6
Continuous
 62
     7
370
    13
100
AcDbVertex
100
AcDb2dVertex
 10
113.8469029468705
 20
185.6466518109245
 30
0.0
 42
-0.0073559692
  0
VERTEX
  5
809A3
330
80987
100
AcDbEntity
  8
10000_Front
  6
Continuous
 62
     7
370
    13
100
AcDbVertex
100
AcDb2dVertex
 10
113.8387309468705
 20
185.6474118109245
 30
0.0
 42
-0.01066152
 70
     1
  0
VERTEX
  5
809A4
330
80987
100
AcDbEntity
  8
10000_Front
  6
Continuous
 62
     7
370
    13
100
AcDbVertex
100
AcDb2dVertex
 10
113.8316399468705
 20
185.6484018109245
 30
0.0
 42
-0.013006395
  0
SEQEND
  5
809A5
330
80987
100
AcDbEntity
  8
10000_Front
  6
Continuous
 62
     7
370
    13
  0
LINE
  5
80A15
330
1F
100
AcDbEntity
  8
10000_Front
  6
Continuous
 62
     7
370
    13
100
AcDbLine
 10
114.6316359468705
 20
187.4893918109245
 30
0.0
 11
113.8316359468704
 21
187.4893918109245
 31
0.0
  0
LINE
  5
80A16
330
1F
100
AcDbEntity
  8
10000_Front
  6
Continuous
 62
     7
370
    13
100
AcDbLine
 10
115.6316359468705
 20
187.4893918109245
 30
0.0
 11
114.6316359468705
 21
187.4893918109245
 31
0.0
  0
LINE
  5
80A41
330
1F
100
AcDbEntity
  8
10000_Front
  6
Continuous
 62
     7
370
    13
100
AcDbLine
 10
123.0816359468704
 20
184.9393918109245
 30
0.0
 11
123.0816359468704
 21
181.2393918109245
 31
0.0
  0
LINE
  5
80A47
330
1F
100
AcDbEntity
  8
10000_Front
  6
Continuous
 62
     7
370
    13
100
AcDbLine
 10
126.5816359468704
 20
181.2393918109245
 30
0.0
 11
126.5816359468704
 21
184.9393918109245
 31
0.0
  0
LINE
  5
81903
330
1F
100
AcDbEntity
  8
10000_Front
  6
Continuous
 62
     7
370
    13
100
AcDbLine
 10
134.0816359468705
 20
181.2393918109245
 30
0.0
 11
130.4816359468705
 21
181.2393918109245
 31
0.0
  0
LINE
  5
81904
330
1F
100
AcDbEntity
  8
10000_Front
  6
Continuous
 62
     7
370
    13
100
AcDbLine
 10
130.4816359468705
 20
184.9393918109245
 30
0.0
 11
134.0816359468705
 21
184.9393918109245
 31
0.0
  0
LINE
  5
81912
330
1F
100
AcDbEntity
  8
10000_Front
  6
Continuous
 62
     7
370
    13
100
AcDbLine
 10
130.1816359468705
 20
184.9393918109245
 30
0.0
 11
130.1816359468705
 21
181.2393918109245
 31
0.0
  0
LINE
  5
81913
330
1F
100
AcDbEntity
  8
10000_Front
  6
Continuous
 62
     7
370
    13
100
AcDbLine
 10
130.4816359468705
 20
181.2393918109245
 30
0.0
 11
130.4816359468705
 21
184.9393918109245
 31
0.0
  0
LINE
  5
8191A
330
1F
100
AcDbEntity
  8
10000_Front
  6
Continuous
 62
     7
370
    13
100
AcDbLine
 10
134.0816359468705
 20
184.9393918109245
 30
0.0
 11
134.0816359468705
 21
181.2393918109245
 31
0.0
  0
LINE
  5
81962
330
1F
100
AcDbEntity
  8
10000_Front
  6
Continuous
 62
     7
370
    13
100
AcDbLine
 10
131.6816359468705
 20
188.7393918109245
 30
0.0
 11
128.8816359468705
 21
188.7393918109245
 31
0.0
  0
LINE
  5
819D8
330
1F
100
AcDbEntity
  8
10000_Front
  6
Continuous
 62
     7
370
    13
100
AcDbLine
 10
141.1816359468705
 20
181.2393918109245
 30
0.0
 11
137.5816359468705
 21
181.2393918109245
 31
0.0
  0
LINE
  5
819D9
330
1F
100
AcDbEntity
  8
10000_Front
  6
Continuous
 62
     7
370
    13
100
AcDbLine
 10
137.5816359468705
 20
184.9393918109245
 30
0.0
 11
141.1816359468705
 21
184.9393918109245
 31
0.0
  0
LINE
  5
819DA
330
1F
100
AcDbEntity
  8
10000_Front
  6
Continuous
 62
     7
370
    13
100
AcDbLine
 10
137.5816359468705
 20
181.2393918109245
 30
0.0
 11
137.5816359468705
 21
184.9393918109245
 31
0.0
  0
LINE
  5
819EC
330
1F
100
AcDbEntity
  8
10000_Front
  6
Continuous
 62
     7
370
    13
100
AcDbLine
 10
141.1816359468705
 20
184.9393918109245
 30
0.0
 11
141.1816359468705
 21
181.2393918109245
 31
0.0
  0
LINE
  5
819ED
330
1F
100
AcDbEntity
  8
10000_Front
  6
Continuous
 62
     7
370
    13
100
AcDbLine
 10
141.4816359468705
 20
181.2393918109245
 30
0.0
 11
141.4816359468705
 21
184.9393918109245
 31
0.0
  0
LINE
  5
819F7
330
1F
100
AcDbEntity
  8
10000_Front
  6
Continuous
 62
     7
370
    13
100
AcDbLine
 10
142.6816359468705
 20
188.7393918109245
 30
0.0
 11
139.8816359468705
 21
188.7393918109245
 31
0.0
  0
LINE
  5
819FA
330
1F
100
AcDbEntity
  8
10000_Front
  6
Continuous
 62
     7
370
    13
100
AcDbLine
 10
139.1316359468705
 20
187.9393918109245
 30
0.0
 11
143.5316359468705
 21
187.9393918109245
 31
0.0
  0
LINE
  5
81A0D
330
1F
100
AcDbEntity
  8
10000_Front
  6
Continuous
 62
     7
370
    13
100
AcDbLine
 10
130.1816359468705
 20
195.3393918109245
 30
0.0
 11
126.5816359468704
 21
195.3393918109245
 31
0.0
  0
LINE
  5
81BFC
330
1F
100
AcDbEntity
  8
10000_Front
  6
Continuous
 62
     7
370
    13
100
AcDbLine
 10
126.5816359468704
 20
199.0393918109245
 30
0.0
 11
130.1816359468705
 21
199.0393918109245
 31
0.0
  0
LINE
  5
81CC7
330
1F
100
AcDbEntity
  8
10000_Front
  6
Continuous
 62
     7
370
    13
100
AcDbLine
 10
115.6316359468705
 20
193.6393918109245
 30
0.0
 11
135.6316359468705
 21
193.6393918109245
 31
0.0
  0
LINE
  5
81CC9
330
1F
100
AcDbEntity
  8
10000_Front
  6
Continuous
 62
     7
370
    13
100
AcDbLine
 10
126.7816359468704
 20
210.6393918109245
 30
0.0
 11
133.7816359468704
 21
210.6393918109245
 31
0.0
  0
LINE
  5
81D24
330
1F
100
AcDbEntity
  8
10000_Front
  6
Continuous
 62
     7
370
    50
100
AcDbLine
 10
113.8316359468704
 20
194.6303918109245
 30
0.0
 11
113.8316359468704
 21
208.3396418109245
 31
0.0
  0
LINE
  5
81F5D
330
1F
100
AcDbEntity
  8
10000_Front
  6
Continuous
 62
     7
370
    13
100
AcDbLine
 10
117.8816359468705
 20
191.5393918109245
 30
0.0
 11
120.6816359468705
 21
191.5393918109245
 31
0.0
  0
LINE
  5
81F60
330
1F
100
AcDbEntity
  8
10000_Front
  6
Continuous
 62
     7
370
    13
100
AcDbLine
 10
123.0816359468704
 20
195.3393918109245
 30
0.0
 11
119.4816359468705
 21
195.3393918109245
 31
0.0
  0
LINE
  5
81F62
330
1F
100
AcDbEntity
  8
10000_Front
  6
Continuous
 62
     7
370
    13
100
AcDbLine
 10
119.4816359468705
 20
199.0393918109245
 30
0.0
 11
123.0816359468704
 21
199.0393918109245
 31
0.0
  0
LINE
  5
81F66
330
1F
100
AcDbEntity
  8
10000_Front
  6
Continuous
 62
     7
370
    13
100
AcDbLine
 10
119.4816359468705
 20
195.3393918109245
 30
0.0
 11
119.4816359468705
 21
199.0393918109245
 31
0.0
  0
LINE
  5
81F6A
330
1F
100
AcDbEntity
  8
10000_Front
  6
Continuous
 62
     7
370
    13
100
AcDbLine
 10
115.5816359468704
 20
195.3393918109245
 30
0.0
 11
115.5816359468704
 21
199.0393918109245
 31
0.0
  0
LINE
  5
81F6B
330
1F
100
AcDbEntity
  8
10000_Front
  6
Continuous
 62
     7
370
    13
100
AcDbLine
 10
119.1816359468705
 20
199.0393918109245
 30
0.0
 11
119.1816359468705
 21
195.3393918109245
 31
0.0
  0
LINE
  5
81F6E
330
1F
100
AcDbEntity
  8
10000_Front
  6
Continuous
 62
     7
370
    13
100
AcDbLine
 10
119.1816359468705
 20
195.3393918109245
 30
0.0
 11
115.5816359468704
 21
195.3393918109245
 31
0.0
  0
LINE
  5
81F71
330
1F
100
AcDbEntity
  8
10000_Front
  6
Continuous
 62
     7
370
    13
100
AcDbLine
 10
115.6316359468705
 20
193.6893918109245
 30
0.0
 11
115.6316359468705
 21
193.7760018109245
 31
0.0
  0
LINE
  5
81F72
330
1F
100
AcDbEntity
  8
10000_Front
  6
Continuous
 62
     7
370
    50
100
AcDbLine
 10
113.8316359468704
 20
193.6893918109245
 30
0.0
 11
113.8316359468704
 21
194.6303918109245
 31
0.0
  0
LINE
  5
81F73
330
1F
100
AcDbEntity
  8
10000_Front
  6
Continuous
 62
     7
370
    13
100
AcDbLine
 10
113.8316359468704
 20
193.6893918109245
 30
0.0
 11
114.6316359468705
 21
193.6893918109245
 31
0.0
  0
LINE
  5
81F74
330
1F
100
AcDbEntity
  8
10000_Front
  6
Continuous
 62
     7
370
    13
100
AcDbLine
 10
114.6316359468705
 20
193.6893918109245
 30
0.0
 11
115.6316359468705
 21
193.6893918109245
 31
0.0
  0
POLYLINE
  5
81F75
330
1F
100
AcDbEntity
  8
10000_Front
  6
Continuous
 62
     7
370
    13
100
AcDb2dPolyline
 66
     1
 10
0.0
 20
0.0
 30
0.0
 70
     2
  0
VERTEX
  5
81F76
330
81F75
100
AcDbEntity
  8
10000_Front
  6
Continuous
 62
     7
370
    13
100
AcDbVertex
100
AcDb2dVertex
 10
113.8316399468705
 20
194.6303918109245
 30
0.0
  0
VERTEX
  5
81F77
330
81F75
100
AcDbEntity
  8
10000_Front
  6
Continuous
 62
     7
370
    13
100
AcDbVertex
100
AcDb2dVertex
 10
113.8325289468705
 20
194.6308218109245
 30
0.0
 42
-0.26562908
 70
     1
  0
VERTEX
  5
81F78
330
81F75
100
AcDbEntity
  8
10000_Front
  6
Continuous
 62
     7
370
    13
100
AcDbVertex
100
AcDb2dVertex
 10
113.8353349468705
 20
194.6312518109245
 30
0.0
 42
-0.026202195
  0
VERTEX
  5
81F79
330
81F75
100
AcDbEntity
  8
10000_Front
  6
Continuous
 62
     7
370
    13
100
AcDbVertex
100
AcDb2dVertex
 10
113.8401229468704
 20
194.6316918109245
 30
0.0
 42
-0.0091737801
 70
     1
  0
VERTEX
  5
81F7A
330
81F75
100
AcDbEntity
  8
10000_Front
  6
Continuous
 62
     7
370
    13
100
AcDbVertex
100
AcDb2dVertex
 10
113.8469029468705
 20
194.6321418109245
 30
0.0
 42
-0.0049292884
  0
VERTEX
  5
81F7B
330
81F75
100
AcDbEntity
  8
10000_Front
  6
Continuous
 62
     7
370
    13
100
AcDbVertex
100
AcDb2dVertex
 10
113.8558609468705
 20
194.6325918109245
 30
0.0
 42
-0.0029672794
 70
     1
  0
VERTEX
  5
81F7C
330
81F75
100
AcDbEntity
  8
10000_Front
  6
Continuous
 62
     7
370
    13
100
AcDbVertex
100
AcDb2dVertex
 10
113.8669609468704
 20
194.6330418109245
 30
0.0
 42
-0.0020098577
  0
VERTEX
  5
81F7D
330
81F75
100
AcDbEntity
  8
10000_Front
  6
Continuous
 62
     7
370
    13
100
AcDbVertex
100
AcDb2dVertex
 10
113.8803319468705
 20
194.6334818109245
 30
0.0
 42
-0.0014333859
 70
     1
  0
VERTEX
  5
81F7E
330
81F75
100
AcDbEntity
  8
10000_Front
  6
Continuous
 62
     7
370
    13
100
AcDbVertex
100
AcDb2dVertex
 10
113.8959029468705
 20
194.6339318109245
 30
0.0
 42
-0.0010982851
  0
VERTEX
  5
81F7F
330
81F75
100
AcDbEntity
  8
10000_Front
  6
Continuous
 62
     7
370
    13
100
AcDbVertex
100
AcDb2dVertex
 10
113.9137779468705
 20
194.6343618109245
 30
0.0
 42
-0.000858129
 70
     1
  0
VERTEX
  5
81F80
330
81F75
100
AcDbEntity
  8
10000_Front
  6
Continuous
 62
     7
370
    13
100
AcDbVertex
100
AcDb2dVertex
 10
113.9338479468704
 20
194.6347918109245
 30
0.0
 42
-0.0007001686
  0
VERTEX
  5
81F81
330
81F75
100
AcDbEntity
  8
10000_Front
  6
Continuous
 62
     7
370
    13
100
AcDbVertex
100
AcDb2dVertex
 10
113.9561699468705
 20
194.6352118109245
 30
0.0
 42
-0.0005777382
 70
     1
  0
VERTEX
  5
81F82
330
81F75
100
AcDbEntity
  8
10000_Front
  6
Continuous
 62
     7
370
    13
100
AcDbVertex
100
AcDb2dVertex
 10
113.9805959468705
 20
194.6356218109245
 30
0.0
 42
-0.000491736
  0
VERTEX
  5
81F83
330
81F75
100
AcDbEntity
  8
10000_Front
  6
Continuous
 62
     7
370
    13
100
AcDbVertex
100
AcDb2dVertex
 10
114.0071379468705
 20
194.6360218109245
 30
0.0
 42
-0.0004219857
 70
     1
  0
VERTEX
  5
81F84
330
81F75
100
AcDbEntity
  8
10000_Front
  6
Continuous
 62
     7
370
    13
100
AcDbVertex
100
AcDb2dVertex
 10
114.0356159468705
 20
194.6364018109245
 30
0.0
 42
-0.0003706507
  0
VERTEX
  5
81F85
330
81F75
100
AcDbEntity
  8
10000_Front
  6
Continuous
 62
     7
370
    13
100
AcDbVertex
100
AcDb2dVertex
 10
114.0659949468705
 20
194.6367618109245
 30
0.0
 42
-0.0003265182
 70
     1
  0
VERTEX
  5
81F86
330
81F75
100
AcDbEntity
  8
10000_Front
  6
Continuous
 62
     7
370
    13
100
AcDbVertex
100
AcDb2dVertex
 10
114.0980519468705
 20
194.6371018109245
 30
0.0
 42
-0.0002917766
  0
VERTEX
  5
81F87
330
81F75
100
AcDbEntity
  8
10000_Front
  6
Continuous
 62
     7
370
    13
100
AcDbVertex
100
AcDb2dVertex
 10
114.1316999468705
 20
194.6374218109245
 30
0.0
 42
-0.0002652666
 70
     1
  0
VERTEX
  5
81F88
330
81F75
100
AcDbEntity
  8
10000_Front
  6
Continuous
 62
     7
370
    13
100
AcDbVertex
100
AcDb2dVertex
 10
114.1667679468705
 20
194.6377218109245
 30
0.0
 42
-0.0002460504
  0
VERTEX
  5
81F89
330
81F75
100
AcDbEntity
  8
10000_Front
  6
Continuous
 62
     7
370
    13
100
AcDbVertex
100
AcDb2dVertex
 10
114.2031559468705
 20
194.6380018109245
 30
0.0
 42
-0.0002211576
 70
     1
  0
VERTEX
  5
81F8A
330
81F75
100
AcDbEntity
  8
10000_Front
  6
Continuous
 62
     7
370
    13
100
AcDbVertex
100
AcDb2dVertex
 10
114.2404199468705
 20
194.6382518109245
 30
0.0
 42
-0.0001946192
  0
VERTEX
  5
81F8B
330
81F75
100
AcDbEntity
  8
10000_Front
  6
Continuous
 62
     7
370
    13
100
AcDbVertex
100
AcDb2dVertex
 10
114.2783389468705
 20
194.6384718109245
 30
0.0
 42
-0.0001971329
 70
     1
  0
VERTEX
  5
81F8C
330
81F75
100
AcDbEntity
  8
10000_Front
  6
Continuous
 62
     7
370
    13
100
AcDbVertex
100
AcDb2dVertex
 10
114.3175319468705
 20
194.6386718109245
 30
0.0
 42
-0.0002139028
  0
VERTEX
  5
81F8D
330
81F75
100
AcDbEntity
  8
10000_Front
  6
Continuous
 62
     7
370
    13
100
AcDbVertex
100
AcDb2dVertex
 10
114.3581219468705
 20
194.6388518109245
 30
0.0
 42
-0.0001599584
 70
     1
  0
VERTEX
  5
81F8E
330
81F75
100
AcDbEntity
  8
10000_Front
  6
Continuous
 62
     7
370
    13
100
AcDbVertex
100
AcDb2dVertex
 10
114.3965959468705
 20
194.6390018109245
 30
0.0
 42
-0.000067947
  0
VERTEX
  5
81F8F
330
81F75
100
AcDbEntity
  8
10000_Front
  6
Continuous
 62
     7
370
    13
100
AcDbVertex
100
AcDb2dVertex
 10
114.4316409468705
 20
194.6391218109245
 30
0.0
 42
-0.0001996876
 70
     1
  0
VERTEX
  5
81F90
330
81F75
100
AcDbEntity
  8
10000_Front
  6
Continuous
 62
     7
370
    13
100
AcDbVertex
100
AcDb2dVertex
 10
114.4761579468705
 20
194.6392318109245
 30
0.0
 42
-0.000318026
  0
VERTEX
  5
81F91
330
81F75
100
AcDbEntity
  8
10000_Front
  6
Continuous
 62
     7
370
    13
100
AcDbVertex
100
AcDb2dVertex
 10
114.5437219468705
 20
194.6393218109245
 30
0.0
 42
-0.0001584338
 70
     1
  0
VERTEX
  5
81F92
330
81F75
100
AcDbEntity
  8
10000_Front
  6
Continuous
 62
     7
370
    13
100
AcDbVertex
100
AcDb2dVertex
 10
114.6316319468705
 20
194.6394018109245
 30
0.0
 42
-0.0000863888
  0
SEQEND
  5
81F93
330
81F75
100
AcDbEntity
  8
10000_Front
  6
Continuous
 62
     7
370
    13
  0
LINE
  5
8202C
330
1F
100
AcDbEntity
  8
10000_Front
  6
Continuous
 62
     7
370
    13
100
AcDbLine
 10
115.5816359468704
 20
199.0393918109245
 30
0.0
 11
119.1816359468705
 21
199.0393918109245
 31
0.0
  0
LINE
  5
82186
330
1F
100
AcDbEntity
  8
10000_Front
  6
Continuous
 62
     7
370
    13
100
AcDbLine
 10
126.5816359468704
 20
195.3393918109245
 30
0.0
 11
126.5816359468704
 21
199.0393918109245
 31
0.0
  0
LINE
  5
82189
330
1F
100
AcDbEntity
  8
10000_Front
  6
Continuous
 62
     7
370
    13
100
AcDbLine
 10
123.0816359468704
 20
199.0393918109245
 30
0.0
 11
123.0816359468704
 21
195.3393918109245
 31
0.0
  0
ARC
  5
8242A
330
1F
100
AcDbEntity
  8
10000_Front
  6
Continuous
 62
     7
370
    50
100
AcDbCircle
 10
114.6316359468705
 20
208.3393918109245
 30
0.0
 40
0.8
100
AcDbArc
 50
90.0
 51
180.0
  0
LINE
  5
82662
330
1F
100
AcDbEntity
  8
10000_Front
  6
Continuous
 62
     7
370
    13
100
AcDbLine
 10
114.8855389468704
 20
202.2990416624339
 30
0.0
 11
114.8856499468704
 21
204.5712082164601
 31
0.0
  0
LINE
  5
82926
330
1F
100
AcDbEntity
  8
10000_Front
  6
Continuous
 62
     7
370
    13
100
AcDbLine
 10
123.7856599468704
 20
204.5964247748282
 30
0.0
 11
123.7855379468705
 21
202.2967592549438
 31
0.0
  0
LINE
  5
8299E
330
1F
100
AcDbEntity
  8
10000_Front
  6
Continuous
 62
     7
370
    13
100
AcDbLine
 10
126.7816359468704
 20
209.1393918109245
 30
0.0
 11
126.7816359468704
 21
210.1393918109245
 31
0.0
  0
LINE
  5
8299F
330
1F
100
AcDbEntity
  8
10000_Front
  6
Continuous
 62
     7
370
    13
100
AcDbLine
 10
126.7816359468704
 20
210.1393918109245
 30
0.0
 11
126.7816359468704
 21
210.6393918109245
 31
0.0
  0
POLYLINE
  5
82A27
330
1F
100
AcDbEntity
  8
10000_Front
  6
Continuous
 62
     7
370
    13
100
AcDb2dPolyline
 66
     1
 10
0.0
 20
0.0
 30
0.0
 70
     2
  0
VERTEX
  5
82A28
330
82A27
100
AcDbEntity
  8
10000_Front
  6
Continuous
 62
     7
370
    13
100
AcDbVertex
100
AcDb2dVertex
 10
141.3854189468705
 20
202.2973918109245
 30
0.0
  0
VERTEX
  5
82A29
330
82A27
100
AcDbEntity
  8
10000_Front
  6
Continuous
 62
     7
370
    13
100
AcDbVertex
100
AcDb2dVertex
 10
141.3854499468705
 20
202.3548618109245
 30
0.0
 42
0.0000091633
 70
     1
  0
VERTEX
  5
82A2A
330
82A27
100
AcDbEntity
  8
10000_Front
  6
Continuous
 62
     7
370
    13
100
AcDbVertex
100
AcDb2dVertex
 10
141.3854779468705
 20
202.4123318109245
 30
0.0
 42
0.0000093314
  0
VERTEX
  5
82A2B
330
82A27
100
AcDbEntity
  8
10000_Front
  6
Continuous
 62
     7
370
    13
100
AcDbVertex
100
AcDb2dVertex
 10
141.3855049468705
 20
202.4697918109245
 30
0.0
 42
0.0000091681
 70
     1
  0
VERTEX
  5
82A2C
330
82A27
100
AcDbEntity
  8
10000_Front
  6
Continuous
 62
     7
370
    13
100
AcDbVertex
100
AcDb2dVertex
 10
141.3855289468705
 20
202.5272618109245
 30
0.0
 42
0.0000086318
  0
VERTEX
  5
82A2D
330
82A27
100
AcDbEntity
  8
10000_Front
  6
Continuous
 62
     7
370
    13
100
AcDbVertex
100
AcDb2dVertex
 10
141.3855519468705
 20
202.5847218109245
 30
0.0
 42
0.0000082353
 70
     1
  0
VERTEX
  5
82A2E
330
82A27
100
AcDbEntity
  8
10000_Front
  6
Continuous
 62
     7
370
    13
100
AcDbVertex
100
AcDb2dVertex
 10
141.3855719468705
 20
202.6421818109245
 30
0.0
 42
0.0000078774
  0
VERTEX
  5
82A2F
330
82A27
100
AcDbEntity
  8
10000_Front
  6
Continuous
 62
     7
370
    13
100
AcDbVertex
100
AcDb2dVertex
 10
141.3855909468705
 20
202.6996418109245
 30
0.0
 42
0.00000754
 70
     1
  0
VERTEX
  5
82A30
330
82A27
100
AcDbEntity
  8
10000_Front
  6
Continuous
 62
     7
370
    13
100
AcDbVertex
100
AcDb2dVertex
 10
141.3856079468705
 20
202.7571018109245
 30
0.0
 42
0.0000071369
  0
VERTEX
  5
82A31
330
82A27
100
AcDbEntity
  8
10000_Front
  6
Continuous
 62
     7
370
    13
100
AcDbVertex
100
AcDb2dVertex
 10
141.3856239468705
 20
202.8145618109245
 30
0.0
 42
0.0000067843
 70
     1
  0
VERTEX
  5
82A32
330
82A27
100
AcDbEntity
  8
10000_Front
  6
Continuous
 62
     7
370
    13
100
AcDbVertex
100
AcDb2dVertex
 10
141.3856369468705
 20
202.8720218109245
 30
0.0
 42
0.0000063927
  0
VERTEX
  5
82A33
330
82A27
100
AcDbEntity
  8
10000_Front
  6
Continuous
 62
     7
370
    13
100
AcDbVertex
100
AcDb2dVertex
 10
141.3856499468705
 20
202.9294818109245
 30
0.0
 42
0.000006044
 70
     1
  0
VERTEX
  5
82A34
330
82A27
100
AcDbEntity
  8
10000_Front
  6
Continuous
 62
     7
370
    13
100
AcDbVertex
100
AcDb2dVertex
 10
141.3856609468705
 20
202.9869418109245
 30
0.0
 42
0.0000056493
  0
VERTEX
  5
82A35
330
82A27
100
AcDbEntity
  8
10000_Front
  6
Continuous
 62
     7
370
    13
100
AcDbVertex
100
AcDb2dVertex
 10
141.3856709468705
 20
203.0443918109245
 30
0.0
 42
0.0000052997
 70
     1
  0
VERTEX
  5
82A36
330
82A27
100
AcDbEntity
  8
10000_Front
  6
Continuous
 62
     7
370
    13
100
AcDbVertex
100
AcDb2dVertex
 10
141.3856799468705
 20
203.1018518109245
 30
0.0
 42
0.0000049057
  0
VERTEX
  5
82A37
330
82A27
100
AcDbEntity
  8
10000_Front
  6
Continuous
 62
     7
370
    13
100
AcDbVertex
100
AcDb2dVertex
 10
141.3856869468705
 20
203.1593018109245
 30
0.0
 42
0.0000045561
 70
     1
  0
VERTEX
  5
82A38
330
82A27
100
AcDbEntity
  8
10000_Front
  6
Continuous
 62
     7
370
    13
100
AcDbVertex
100
AcDb2dVertex
 10
141.3856939468705
 20
203.2167518109245
 30
0.0
 42
0.000004162
  0
VERTEX
  5
82A39
330
82A27
100
AcDbEntity
  8
10000_Front
  6
Continuous
 62
     7
370
    13
100
AcDbVertex
100
AcDb2dVertex
 10
141.3856999468705
 20
203.2742018109245
 30
0.0
 42
0.0000038124
 70
     1
  0
VERTEX
  5
82A3A
330
82A27
100
AcDbEntity
  8
10000_Front
  6
Continuous
 62
     7
370
    13
100
AcDbVertex
100
AcDb2dVertex
 10
141.3857049468705
 20
203.3316518109245
 30
0.0
 42
0.0000034182
  0
VERTEX
  5
82A3B
330
82A27
100
AcDbEntity
  8
10000_Front
  6
Continuous
 62
     7
370
    13
100
AcDbVertex
100
AcDb2dVertex
 10
141.3857089468705
 20
203.3891018109245
 30
0.0
 42
0.0000030687
 70
     1
  0
VERTEX
  5
82A3C
330
82A27
100
AcDbEntity
  8
10000_Front
  6
Continuous
 62
     7
370
    13
100
AcDbVertex
100
AcDb2dVertex
 10
141.3857119468705
 20
203.4465518109245
 30
0.0
 42
0.0000026742
  0
VERTEX
  5
82A3D
330
82A27
100
AcDbEntity
  8
10000_Front
  6
Continuous
 62
     7
370
    13
100
AcDbVertex
100
AcDb2dVertex
 10
141.3857149468705
 20
203.5040018109245
 30
0.0
 42
0.0000023248
 70
     1
  0
VERTEX
  5
82A3E
330
82A27
100
AcDbEntity
  8
10000_Front
  6
Continuous
 62
     7
370
    13
100
AcDbVertex
100
AcDb2dVertex
 10
141.3857179468705
 20
203.5614418109245
 30
0.0
 42
0.0000019312
  0
VERTEX
  5
82A3F
330
82A27
100
AcDbEntity
  8
10000_Front
  6
Continuous
 62
     7
370
    13
100
AcDbVertex
100
AcDb2dVertex
 10
141.3857199468705
 20
203.6188918109245
 30
0.0
 42
0.0000015807
 70
     1
  0
VERTEX
  5
82A40
330
82A27
100
AcDbEntity
  8
10000_Front
  6
Continuous
 62
     7
370
    13
100
AcDbVertex
100
AcDb2dVertex
 10
141.3857209468705
 20
203.6763318109245
 30
0.0
 42
0.000001183
  0
VERTEX
  5
82A41
330
82A27
100
AcDbEntity
  8
10000_Front
  6
Continuous
 62
     7
370
    13
100
AcDbVertex
100
AcDb2dVertex
 10
141.3857229468705
 20
203.7337818109245
 30
0.0
 42
0.0000008374
 70
     1
  0
VERTEX
  5
82A42
330
82A27
100
AcDbEntity
  8
10000_Front
  6
Continuous
 62
     7
370
    13
100
AcDbVertex
100
AcDb2dVertex
 10
141.3857239468705
 20
203.7912218109245
 30
0.0
 42
0.0000004566
  0
VERTEX
  5
82A43
330
82A27
100
AcDbEntity
  8
10000_Front
  6
Continuous
 62
     7
370
    13
100
AcDbVertex
100
AcDb2dVertex
 10
141.3857249468705
 20
203.8486318109245
 30
0.0
 42
0.0000000893
 70
     1
  0
VERTEX
  5
82A44
330
82A27
100
AcDbEntity
  8
10000_Front
  6
Continuous
 62
     7
370
    13
100
AcDbVertex
100
AcDb2dVertex
 10
141.3857259468705
 20
203.9060918109245
 30
0.0
 42
-0.0000003577
  0
VERTEX
  5
82A45
330
82A27
100
AcDbEntity
  8
10000_Front
  6
Continuous
 62
     7
370
    13
100
AcDbVertex
100
AcDb2dVertex
 10
141.3857279468705
 20
203.9636518109245
 30
0.0
 42
-0.0000006377
 70
     1
  0
VERTEX
  5
82A46
330
82A27
100
AcDbEntity
  8
10000_Front
  6
Continuous
 62
     7
370
    13
100
AcDbVertex
100
AcDb2dVertex
 10
141.3857289468705
 20
204.0209718109245
 30
0.0
 42
-0.0000008364
  0
VERTEX
  5
82A47
330
82A27
100
AcDbEntity
  8
10000_Front
  6
Continuous
 62
     7
370
    13
100
AcDbVertex
100
AcDb2dVertex
 10
141.3857309468705
 20
204.0779518109245
 30
0.0
 42
-0.0000014542
 70
     1
  0
VERTEX
  5
82A48
330
82A27
100
AcDbEntity
  8
10000_Front
  6
Continuous
 62
     7
370
    13
100
AcDbVertex
100
AcDb2dVertex
 10
141.3857329468705
 20
204.1358418109245
 30
0.0
 42
-0.0000025104
  0
VERTEX
  5
82A49
330
82A27
100
AcDbEntity
  8
10000_Front
  6
Continuous
 62
     7
370
    13
100
AcDbVertex
100
AcDb2dVertex
 10
141.3857359468705
 20
204.1950818109245
 30
0.0
 42
-0.000001927
 70
     1
  0
VERTEX
  5
82A4A
330
82A27
100
AcDbEntity
  8
10000_Front
  6
Continuous
 62
     7
370
    13
100
AcDbVertex
100
AcDb2dVertex
 10
141.3857389468704
 20
204.2507118109245
 30
0.0
 42
-0.0000000367
  0
VERTEX
  5
82A4B
330
82A27
100
AcDbEntity
  8
10000_Front
  6
Continuous
 62
     7
370
    13
100
AcDbVertex
100
AcDb2dVertex
 10
141.3857419468705
 20
204.3009918109245
 30
0.0
 42
-0.0000039208
 70
     1
  0
VERTEX
  5
82A4C
330
82A27
100
AcDbEntity
  8
10000_Front
  6
Continuous
 62
     7
370
    13
100
AcDbVertex
100
AcDb2dVertex
 10
141.3857479468705
 20
204.3655718109245
 30
0.0
 42
-0.0000083697
  0
VERTEX
  5
82A4D
330
82A27
100
AcDbEntity
  8
10000_Front
  6
Continuous
 62
     7
370
    13
100
AcDbVertex
100
AcDb2dVertex
 10
141.3857589468705
 20
204.4650318109245
 30
0.0
 42
-0.000004193
 70
     1
  0
VERTEX
  5
82A4E
330
82A27
100
AcDbEntity
  8
10000_Front
  6
Continuous
 62
     7
370
    13
100
AcDbVertex
100
AcDb2dVertex
 10
141.3857749468705
 20
204.5952718109245
 30
0.0
 42
-0.0000021357
  0
SEQEND
  5
82A4F
330
82A27
100
AcDbEntity
  8
10000_Front
  6
Continuous
 62
     7
370
    13
  0
LINE
  5
82C89
330
1F
100
AcDbEntity
  8
10000_Front
  6
Continuous
 62
     7
370
    13
100
AcDbLine
 10
134.0816359468705
 20
199.0393918109245
 30
0.0
 11
134.0816359468705
 21
195.3393918109245
 31
0.0
  0
LINE
  5
82C8C
330
1F
100
AcDbEntity
  8
10000_Front
  6
Continuous
 62
     7
370
    13
100
AcDbLine
 10
130.4816359468705
 20
195.3393918109245
 30
0.0
 11
130.4816359468705
 21
199.0393918109245
 31
0.0
  0
LINE
  5
82C8D
330
1F
100
AcDbEntity
  8
10000_Front
  6
Continuous
 62
     7
370
    13
100
AcDbLine
 10
130.1816359468705
 20
199.0393918109245
 30
0.0
 11
130.1816359468705
 21
195.3393918109245
 31
0.0
  0
LINE
  5
82C91
330
1F
100
AcDbEntity
  8
10000_Front
  6
Continuous
 62
     7
370
    13
100
AcDbLine
 10
134.0816359468705
 20
195.3393918109245
 30
0.0
 11
130.4816359468705
 21
195.3393918109245
 31
0.0
  0
LINE
  5
82C92
330
1F
100
AcDbEntity
  8
10000_Front
  6
Continuous
 62
     7
370
    13
100
AcDbLine
 10
128.8816359468705
 20
191.5393918109245
 30
0.0
 11
131.6816359468705
 21
191.5393918109245
 31
0.0
  0
LINE
  5
82D50
330
1F
100
AcDbEntity
  8
10000_Front
  6
Continuous
 62
     7
370
    13
100
AcDbLine
 10
130.4816359468705
 20
199.0393918109245
 30
0.0
 11
134.0816359468705
 21
199.0393918109245
 31
0.0
  0
LINE
  5
8309D
330
1F
100
AcDbEntity
  8
10000_Front
  6
Continuous
 62
     7
370
    13
100
AcDbLine
 10
137.5816359468705
 20
195.3393918109245
 30
0.0
 11
137.5816359468705
 21
199.0393918109245
 31
0.0
  0
LINE
  5
830A3
330
1F
100
AcDbEntity
  8
10000_Front
  6
Continuous
 62
     7
370
    13
100
AcDbLine
 10
141.4816359468705
 20
195.3393918109245
 30
0.0
 11
141.4816359468705
 21
199.0393918109245
 31
0.0
  0
LINE
  5
830A4
330
1F
100
AcDbEntity
  8
10000_Front
  6
Continuous
 62
     7
370
    13
100
AcDbLine
 10
141.1816359468705
 20
199.0393918109245
 30
0.0
 11
141.1816359468705
 21
195.3393918109245
 31
0.0
  0
LINE
  5
830A5
330
1F
100
AcDbEntity
  8
10000_Front
  6
Continuous
 62
     7
370
    13
100
AcDbLine
 10
139.8816359468705
 20
191.5393918109245
 30
0.0
 11
142.6816359468705
 21
191.5393918109245
 31
0.0
  0
LINE
  5
830A6
330
1F
100
AcDbEntity
  8
10000_Front
  6
Continuous
 62
     7
370
    13
100
AcDbLine
 10
143.5316359468705
 20
192.3393918109245
 30
0.0
 11
139.1316359468705
 21
192.3393918109245
 31
0.0
  0
LINE
  5
830A9
330
1F
100
AcDbEntity
  8
10000_Front
  6
Continuous
 62
     7
370
    13
100
AcDbLine
 10
141.1816359468705
 20
195.3393918109245
 30
0.0
 11
137.5816359468705
 21
195.3393918109245
 31
0.0
  0
LINE
  5
83107
330
1F
100
AcDbEntity
  8
10000_Front
  6
Continuous
 62
     7
370
    13
100
AcDbLine
 10
137.5816359468705
 20
199.0393918109245
 30
0.0
 11
141.1816359468705
 21
199.0393918109245
 31
0.0
  0
LINE
  5
836B1
330
1F
100
AcDbEntity
  8
10000_Front
  6
Continuous
 62
     7
370
    13
100
AcDbLine
 10
133.7816359468704
 20
210.1393918109245
 30
0.0
 11
133.7816359468704
 21
209.1393918109245
 31
0.0
  0
LINE
  5
836B2
102
{ACAD_REACTORS
330
85831
102
}
330
1F
100
AcDbEntity
  8
10000_Front
  6
Continuous
 62
     7
370
    13
100
AcDbLine
 10
133.7816359468704
 20
210.6393918109245
 30
0.0
 11
133.7816359468704
 21
210.1393918109245
 31
0.0
  0
LINE
  5
83B0B
330
1F
100
AcDbEntity
  8
10000_Front
  6
Continuous
 62
     7
370
    13
100
AcDbLine
 10
146.6316359468705
 20
186.6393918109245
 30
0.0
 11
146.6316359468705
 21
193.6393918109245
 31
0.0
  0
LINE
  5
83B0D
330
1F
100
AcDbEntity
  8
10000_Front
  6
Continuous
 62
     7
370
    50
100
AcDbLine
 10
157.8316359468705
 20
193.6893918109245
 30
0.0
 11
157.8316359468705
 21
187.4893918109245
 31
0.0
  0
LINE
  5
83B0E
330
1F
100
AcDbEntity
  8
10000_Front
  6
Continuous
 62
     7
370
    13
100
AcDbLine
 10
156.6316359468705
 20
193.6393918109245
 30
0.0
 11
156.6316359468705
 21
187.4894018109245
 31
0.0
  0
LINE
  5
83B10
330
1F
100
AcDbEntity
  8
10000_Front
  6
Continuous
 62
     7
370
    13
100
AcDbLine
 10
150.8816359468705
 20
188.7393918109245
 30
0.0
 11
150.8816359468705
 21
191.5393918109245
 31
0.0
  0
LINE
  5
83B12
330
1F
100
AcDbEntity
  8
10000_Front
  6
Continuous
 62
     7
370
    13
100
AcDbLine
 10
153.6816359468705
 20
191.5393918109245
 30
0.0
 11
153.6816359468705
 21
188.7393918109245
 31
0.0
  0
LINE
  5
83B14
102
{ACAD_REACTORS
330
85849
102
}
330
1F
100
AcDbEntity
  8
10000_Front
  6
Continuous
 62
     7
370
    50
100
AcDbLine
 10
157.8316359468705
 20
185.6483918109245
 30
0.0
 11
157.8316359468705
 21
171.9391518109245
 31
0.0
  0
ARC
  5
8453D
330
1F
100
AcDbEntity
  8
10000_Front
  6
Continuous
 62
     7
370
    50
100
AcDbCircle
 10
157.0316359468705
 20
171.9393918109245
 30
0.0
 40
0.8
100
AcDbArc
 50
270.0
 51
0.0
  0
LINE
  5
845BD
330
1F
100
AcDbEntity
  8
10000_Front
  6
Continuous
 62
     7
370
    13
100
AcDbLine
 10
153.6816359468705
 20
188.7393918109245
 30
0.0
 11
150.8816359468705
 21
188.7393918109245
 31
0.0
  0
LINE
  5
845C1
330
1F
100
AcDbEntity
  8
10000_Front
  6
Continuous
 62
     7
370
    13
100
AcDbLine
 10
156.0816359468705
 20
181.2393918109245
 30
0.0
 11
152.4816359468705
 21
181.2393918109245
 31
0.0
  0
LINE
  5
845C4
330
1F
100
AcDbEntity
  8
10000_Front
  6
Continuous
 62
     7
370
    13
100
AcDbLine
 10
152.4816359468705
 20
184.9393918109245
 30
0.0
 11
156.0816359468705
 21
184.9393918109245
 31
0.0
  0
LINE
  5
845C5
330
1F
100
AcDbEntity
  8
10000_Front
  6
Continuous
 62
     7
370
    13
100
AcDbLine
 10
156.6316359468705
 20
186.6393918109245
 30
0.0
 11
146.6316359468705
 21
186.6393918109245
 31
0.0
  0
LINE
  5
845C9
330
1F
100
AcDbEntity
  8
10000_Front
  6
Continuous
 62
     7
370
    13
100
AcDbLine
 10
152.1816359468705
 20
181.2393918109245
 30
0.0
 11
148.5816359468705
 21
181.2393918109245
 31
0.0
  0
LINE
  5
845CA
330
1F
100
AcDbEntity
  8
10000_Front
  6
Continuous
 62
     7
370
    13
100
AcDbLine
 10
148.5816359468705
 20
184.9393918109245
 30
0.0
 11
152.1816359468705
 21
184.9393918109245
 31
0.0
  0
LINE
  5
845CC
330
1F
100
AcDbEntity
  8
10000_Front
  6
Continuous
 62
     7
370
    13
100
AcDbLine
 10
145.0816359468705
 20
184.9393918109245
 30
0.0
 11
145.0816359468705
 21
181.2393918109245
 31
0.0
  0
LINE
  5
845CD
330
1F
100
AcDbEntity
  8
10000_Front
  6
Continuous
 62
     7
370
    13
100
AcDbLine
 10
148.5816359468705
 20
181.2393918109245
 30
0.0
 11
148.5816359468705
 21
184.9393918109245
 31
0.0
  0
LINE
  5
845DC
330
1F
100
AcDbEntity
  8
10000_Front
  6
Continuous
 62
     7
370
    13
100
AcDbLine
 10
152.4816359468705
 20
181.2393918109245
 30
0.0
 11
152.4816359468705
 21
184.9393918109245
 31
0.0
  0
LINE
  5
845DD
330
1F
100
AcDbEntity
  8
10000_Front
  6
Continuous
 62
     7
370
    13
100
AcDbLine
 10
152.1816359468705
 20
184.9393918109245
 30
0.0
 11
152.1816359468705
 21
181.2393918109245
 31
0.0
  0
LINE
  5
8467B
330
1F
100
AcDbEntity
  8
10000_Front
  6
Continuous
 62
     7
370
    13
100
AcDbLine
 10
156.0816359468705
 20
184.9393918109245
 30
0.0
 11
156.0816359468705
 21
181.2393918109245
 31
0.0
  0
POLYLINE
  5
8467C
330
1F
100
AcDbEntity
  8
10000_Front
  6
Continuous
 62
     7
370
    13
100
AcDb2dPolyline
 66
     1
 10
0.0
 20
0.0
 30
0.0
 70
     2
  0
VERTEX
  5
8467D
330
8467C
100
AcDbEntity
  8
10000_Front
  6
Continuous
 62
     7
370
    13
100
AcDbVertex
100
AcDb2dVertex
 10
157.8316319468705
 20
185.6484018109245
 30
0.0
  0
VERTEX
  5
8467E
330
8467C
100
AcDbEntity
  8
10000_Front
  6
Continuous
 62
     7
370
    13
100
AcDbVertex
100
AcDb2dVertex
 10
157.8307429468705
 20
185.6479718109245
 30
0.0
 42
-0.26560725
 70
     1
  0
VERTEX
  5
8467F
330
8467C
100
AcDbEntity
  8
10000_Front
  6
Continuous
 62
     7
370
    13
100
AcDbVertex
100
AcDb2dVertex
 10
157.8279369468705
 20
185.6475318109245
 30
0.0
 42
-0.026192247
  0
VERTEX
  5
84680
330
8467C
100
AcDbEntity
  8
10000_Front
  6
Continuous
 62
     7
370
    13
100
AcDbVertex
100
AcDb2dVertex
 10
157.8231489468705
 20
185.6470918109245
 30
0.0
 42
-0.0091700288
 70
     1
  0
VERTEX
  5
84681
330
8467C
100
AcDbEntity
  8
10000_Front
  6
Continuous
 62
     7
370
    13
100
AcDbVertex
100
AcDb2dVertex
 10
157.8163689468705
 20
185.6466518109245
 30
0.0
 42
-0.0049272233
  0
VERTEX
  5
84682
330
8467C
100
AcDbEntity
  8
10000_Front
  6
Continuous
 62
     7
370
    13
100
AcDbVertex
100
AcDb2dVertex
 10
157.8074109468705
 20
185.6462018109245
 30
0.0
 42
-0.0029660204
 70
     1
  0
VERTEX
  5
84683
330
8467C
100
AcDbEntity
  8
10000_Front
  6
Continuous
 62
     7
370
    13
100
AcDbVertex
100
AcDb2dVertex
 10
157.7963109468704
 20
185.6457518109245
 30
0.0
 42
-0.0020089988
  0
VERTEX
  5
84684
330
8467C
100
AcDbEntity
  8
10000_Front
  6
Continuous
 62
     7
370
    13
100
AcDbVertex
100
AcDb2dVertex
 10
157.7829409468705
 20
185.6453018109245
 30
0.0
 42
-0.0014327702
 70
     1
  0
VERTEX
  5
84685
330
8467C
100
AcDbEntity
  8
10000_Front
  6
Continuous
 62
     7
370
    13
100
AcDbVertex
100
AcDb2dVertex
 10
157.7673689468705
 20
185.6448618109245
 30
0.0
 42
-0.0010978119
  0
VERTEX
  5
84686
330
8467C
100
AcDbEntity
  8
10000_Front
  6
Continuous
 62
     7
370
    13
100
AcDbVertex
100
AcDb2dVertex
 10
157.7494939468705
 20
185.6444218109245
 30
0.0
 42
-0.0008577583
 70
     1
  0
VERTEX
  5
84687
330
8467C
100
AcDbEntity
  8
10000_Front
  6
Continuous
 62
     7
370
    13
100
AcDbVertex
100
AcDb2dVertex
 10
157.7294249468705
 20
185.6439918109245
 30
0.0
 42
-0.0006998654
  0
VERTEX
  5
84688
330
8467C
100
AcDbEntity
  8
10000_Front
  6
Continuous
 62
     7
370
    13
100
AcDbVertex
100
AcDb2dVertex
 10
157.7071019468705
 20
185.6435718109245
 30
0.0
 42
-0.0005774878
 70
     1
  0
VERTEX
  5
84689
330
8467C
100
AcDbEntity
  8
10000_Front
  6
Continuous
 62
     7
370
    13
100
AcDbVertex
100
AcDb2dVertex
 10
157.6826759468705
 20
185.6431718109245
 30
0.0
 42
-0.0004915224
  0
VERTEX
  5
8468A
330
8467C
100
AcDbEntity
  8
10000_Front
  6
Continuous
 62
     7
370
    13
100
AcDbVertex
100
AcDb2dVertex
 10
157.6561339468705
 20
185.6427718109245
 30
0.0
 42
-0.0004218021
 70
     1
  0
VERTEX
  5
8468B
330
8467C
100
AcDbEntity
  8
10000_Front
  6
Continuous
 62
     7
370
    13
100
AcDbVertex
100
AcDb2dVertex
 10
157.6276559468705
 20
185.6423918109245
 30
0.0
 42
-0.0003704893
  0
VERTEX
  5
8468C
330
8467C
100
AcDbEntity
  8
10000_Front
  6
Continuous
 62
     7
370
    13
100
AcDbVertex
100
AcDb2dVertex
 10
157.5972769468705
 20
185.6420318109245
 30
0.0
 42
-0.000326376
 70
     1
  0
VERTEX
  5
8468D
330
8467C
100
AcDbEntity
  8
10000_Front
  6
Continuous
 62
     7
370
    13
100
AcDbVertex
100
AcDb2dVertex
 10
157.5652209468705
 20
185.6416918109245
 30
0.0
 42
-0.0002916494
  0
VERTEX
  5
8468E
330
8467C
100
AcDbEntity
  8
10000_Front
  6
Continuous
 62
     7
370
    13
100
AcDbVertex
100
AcDb2dVertex
 10
157.5315719468705
 20
185.6413718109245
 30
0.0
 42
-0.0002651509
 70
     1
  0
VERTEX
  5
8468F
330
8467C
100
AcDbEntity
  8
10000_Front
  6
Continuous
 62
     7
370
    13
100
AcDbVertex
100
AcDb2dVertex
 10
157.4965039468705
 20
185.6410718109245
 30
0.0
 42
-0.000245943
  0
VERTEX
  5
84690
330
8467C
100
AcDbEntity
  8
10000_Front
  6
Continuous
 62
     7
370
    13
100
AcDbVertex
100
AcDb2dVertex
 10
157.4601169468705
 20
185.6408018109245
 30
0.0
 42
-0.000221061
 70
     1
  0
VERTEX
  5
84691
330
8467C
100
AcDbEntity
  8
10000_Front
  6
Continuous
 62
     7
370
    13
100
AcDbVertex
100
AcDb2dVertex
 10
157.4228529468705
 20
185.6405518109245
 30
0.0
 42
-0.0001945342
  0
VERTEX
  5
84692
330
8467C
100
AcDbEntity
  8
10000_Front
  6
Continuous
 62
     7
370
    13
100
AcDbVertex
100
AcDb2dVertex
 10
157.3849339468705
 20
185.6403218109245
 30
0.0
 42
-0.0001970468
 70
     1
  0
VERTEX
  5
84693
330
8467C
100
AcDbEntity
  8
10000_Front
  6
Continuous
 62
     7
370
    13
100
AcDbVertex
100
AcDb2dVertex
 10
157.3457409468705
 20
185.6401218109245
 30
0.0
 42
-0.0002138092
  0
VERTEX
  5
84694
330
8467C
100
AcDbEntity
  8
10000_Front
  6
Continuous
 62
     7
370
    13
100
AcDbVertex
100
AcDb2dVertex
 10
157.3051499468705
 20
185.6399418109245
 30
0.0
 42
-0.0001598886
 70
     1
  0
VERTEX
  5
84695
330
8467C
100
AcDbEntity
  8
10000_Front
  6
Continuous
 62
     7
370
    13
100
AcDbVertex
100
AcDb2dVertex
 10
157.2666759468705
 20
185.6397918109245
 30
0.0
 42
-0.0000679173
  0
VERTEX
  5
84696
330
8467C
100
AcDbEntity
  8
10000_Front
  6
Continuous
 62
     7
370
    13
100
AcDbVertex
100
AcDb2dVertex
 10
157.2316309468705
 20
185.6396718109245
 30
0.0
 42
-0.0001996001
 70
     1
  0
VERTEX
  5
84697
330
8467C
100
AcDbEntity
  8
10000_Front
  6
Continuous
 62
     7
370
    13
100
AcDbVertex
100
AcDb2dVertex
 10
157.1871139468705
 20
185.6395718109245
 30
0.0
 42
-0.0003178869
  0
VERTEX
  5
84698
330
8467C
100
AcDbEntity
  8
10000_Front
  6
Continuous
 62
     7
370
    13
100
AcDbVertex
100
AcDb2dVertex
 10
157.1195499468705
 20
185.6394818109245
 30
0.0
 42
-0.0001583643
 70
     1
  0
VERTEX
  5
84699
330
8467C
100
AcDbEntity
  8
10000_Front
  6
Continuous
 62
     7
370
    13
100
AcDbVertex
100
AcDb2dVertex
 10
157.0316399468705
 20
185.6394018109245
 30
0.0
 42
-0.000086351
  0
SEQEND
  5
8469A
330
8467C
100
AcDbEntity
  8
10000_Front
  6
Continuous
 62
     7
370
    13
  0
LINE
  5
8469B
330
1F
100
AcDbEntity
  8
10000_Front
  6
Continuous
 62
     7
370
    13
100
AcDbLine
 10
157.8316359468705
 20
187.4893918109245
 30
0.0
 11
157.0316359468705
 21
187.4893918109245
 31
0.0
  0
LINE
  5
8469C
330
1F
100
AcDbEntity
  8
10000_Front
  6
Continuous
 62
     7
370
    13
100
AcDbLine
 10
156.6316359468705
 20
187.4893918109245
 30
0.0
 11
156.6316359468705
 21
186.5027918109245
 31
0.0
  0
LINE
  5
84711
330
1F
100
AcDbEntity
  8
10000_Front
  6
Continuous
 62
     7
370
    13
100
AcDbLine
 10
157.0316359468705
 20
187.4893918109245
 30
0.0
 11
156.6316359468705
 21
187.4893918109245
 31
0.0
  0
LINE
  5
84712
330
1F
100
AcDbEntity
  8
10000_Front
  6
Continuous
 62
     7
370
    50
100
AcDbLine
 10
157.8316359468705
 20
187.4893918109245
 30
0.0
 11
157.8316359468705
 21
185.6483918109245
 31
0.0
  0
POLYLINE
  5
84741
330
1F
100
AcDbEntity
  8
10000_Front
  6
Continuous
 62
     7
370
    13
100
AcDb2dPolyline
 66
     1
 10
0.0
 20
0.0
 30
0.0
 70
     2
  0
VERTEX
  5
84742
330
84741
100
AcDbEntity
  8
10000_Front
  6
Continuous
 62
     7
370
    13
100
AcDbVertex
100
AcDb2dVertex
 10
152.3854169468705
 20
202.2973918109245
 30
0.0
  0
VERTEX
  5
84743
330
84741
100
AcDbEntity
  8
10000_Front
  6
Continuous
 62
     7
370
    13
100
AcDbVertex
100
AcDb2dVertex
 10
152.3854479468705
 20
202.3548618109245
 30
0.0
 42
0.0000091981
 70
     1
  0
VERTEX
  5
84744
330
84741
100
AcDbEntity
  8
10000_Front
  6
Continuous
 62
     7
370
    13
100
AcDbVertex
100
AcDb2dVertex
 10
152.3854769468705
 20
202.4123318109245
 30
0.0
 42
0.0000093662
  0
VERTEX
  5
84745
330
84741
100
AcDbEntity
  8
10000_Front
  6
Continuous
 62
     7
370
    13
100
AcDbVertex
100
AcDb2dVertex
 10
152.3855029468705
 20
202.4697918109245
 30
0.0
 42
0.000009203
 70
     1
  0
VERTEX
  5
84746
330
84741
100
AcDbEntity
  8
10000_Front
  6
Continuous
 62
     7
370
    13
100
AcDbVertex
100
AcDb2dVertex
 10
152.3855279468705
 20
202.5272618109245
 30
0.0
 42
0.0000086667
  0
VERTEX
  5
84747
330
84741
100
AcDbEntity
  8
10000_Front
  6
Continuous
 62
     7
370
    13
100
AcDbVertex
100
AcDb2dVertex
 10
152.3855499468705
 20
202.5847218109245
 30
0.0
 42
0.0000082701
 70
     1
  0
VERTEX
  5
84748
330
84741
100
AcDbEntity
  8
10000_Front
  6
Continuous
 62
     7
370
    13
100
AcDbVertex
100
AcDb2dVertex
 10
152.3855709468705
 20
202.6421818109245
 30
0.0
 42
0.0000079122
  0
VERTEX
  5
84749
330
84741
100
AcDbEntity
  8
10000_Front
  6
Continuous
 62
     7
370
    13
100
AcDbVertex
100
AcDb2dVertex
 10
152.3855899468705
 20
202.6996418109245
 30
0.0
 42
0.0000075749
 70
     1
  0
VERTEX
  5
8474A
330
84741
100
AcDbEntity
  8
10000_Front
  6
Continuous
 62
     7
370
    13
100
AcDbVertex
100
AcDb2dVertex
 10
152.3856069468705
 20
202.7571018109245
 30
0.0
 42
0.0000071717
  0
VERTEX
  5
8474B
330
84741
100
AcDbEntity
  8
10000_Front
  6
Continuous
 62
     7
370
    13
100
AcDbVertex
100
AcDb2dVertex
 10
152.3856219468705
 20
202.8145618109245
 30
0.0
 42
0.0000068192
 70
     1
  0
VERTEX
  5
8474C
330
84741
100
AcDbEntity
  8
10000_Front
  6
Continuous
 62
     7
370
    13
100
AcDbVertex
100
AcDb2dVertex
 10
152.3856369468705
 20
202.8720218109245
 30
0.0
 42
0.0000064274
  0
VERTEX
  5
8474D
330
84741
100
AcDbEntity
  8
10000_Front
  6
Continuous
 62
     7
370
    13
100
AcDbVertex
100
AcDb2dVertex
 10
152.3856489468704
 20
202.9294818109245
 30
0.0
 42
0.0000060789
 70
     1
  0
VERTEX
  5
8474E
330
84741
100
AcDbEntity
  8
10000_Front
  6
Continuous
 62
     7
370
    13
100
AcDbVertex
100
AcDb2dVertex
 10
152.3856599468705
 20
202.9869418109245
 30
0.0
 42
0.0000056841
  0
VERTEX
  5
8474F
330
84741
100
AcDbEntity
  8
10000_Front
  6
Continuous
 62
     7
370
    13
100
AcDbVertex
100
AcDb2dVertex
 10
152.3856699468705
 20
203.0443918109245
 30
0.0
 42
0.0000053344
 70
     1
  0
VERTEX
  5
84750
330
84741
100
AcDbEntity
  8
10000_Front
  6
Continuous
 62
     7
370
    13
100
AcDbVertex
100
AcDb2dVertex
 10
152.3856789468705
 20
203.1018518109245
 30
0.0
 42
0.0000049404
  0
VERTEX
  5
84751
330
84741
100
AcDbEntity
  8
10000_Front
  6
Continuous
 62
     7
370
    13
100
AcDbVertex
100
AcDb2dVertex
 10
152.3856869468705
 20
203.1593018109245
 30
0.0
 42
0.000004591
 70
     1
  0
VERTEX
  5
84752
330
84741
100
AcDbEntity
  8
10000_Front
  6
Continuous
 62
     7
370
    13
100
AcDbVertex
100
AcDb2dVertex
 10
152.3856929468704
 20
203.2167518109245
 30
0.0
 42
0.0000041969
  0
VERTEX
  5
84753
330
84741
100
AcDbEntity
  8
10000_Front
  6
Continuous
 62
     7
370
    13
100
AcDbVertex
100
AcDb2dVertex
 10
152.3856989468705
 20
203.2742018109245
 30
0.0
 42
0.0000038472
 70
     1
  0
VERTEX
  5
84754
330
84741
100
AcDbEntity
  8
10000_Front
  6
Continuous
 62
     7
370
    13
100
AcDbVertex
100
AcDb2dVertex
 10
152.3857039468705
 20
203.3316518109245
 30
0.0
 42
0.000003453
  0
VERTEX
  5
84755
330
84741
100
AcDbEntity
  8
10000_Front
  6
Continuous
 62
     7
370
    13
100
AcDbVertex
100
AcDb2dVertex
 10
152.3857079468705
 20
203.3891018109245
 30
0.0
 42
0.0000031034
 70
     1
  0
VERTEX
  5
84756
330
84741
100
AcDbEntity
  8
10000_Front
  6
Continuous
 62
     7
370
    13
100
AcDbVertex
100
AcDb2dVertex
 10
152.3857119468705
 20
203.4465518109245
 30
0.0
 42
0.000002709
  0
VERTEX
  5
84757
330
84741
100
AcDbEntity
  8
10000_Front
  6
Continuous
 62
     7
370
    13
100
AcDbVertex
100
AcDb2dVertex
 10
152.3857149468705
 20
203.5040018109245
 30
0.0
 42
0.0000023596
 70
     1
  0
VERTEX
  5
84758
330
84741
100
AcDbEntity
  8
10000_Front
  6
Continuous
 62
     7
370
    13
100
AcDbVertex
100
AcDb2dVertex
 10
152.3857169468705
 20
203.5614418109245
 30
0.0
 42
0.000001966
  0
VERTEX
  5
84759
330
84741
100
AcDbEntity
  8
10000_Front
  6
Continuous
 62
     7
370
    13
100
AcDbVertex
100
AcDb2dVertex
 10
152.3857189468705
 20
203.6188918109245
 30
0.0
 42
0.0000016154
 70
     1
  0
VERTEX
  5
8475A
330
84741
100
AcDbEntity
  8
10000_Front
  6
Continuous
 62
     7
370
    13
100
AcDbVertex
100
AcDb2dVertex
 10
152.3857209468705
 20
203.6763318109245
 30
0.0
 42
0.000001218
  0
VERTEX
  5
8475B
330
84741
100
AcDbEntity
  8
10000_Front
  6
Continuous
 62
     7
370
    13
100
AcDbVertex
100
AcDb2dVertex
 10
152.3857219468705
 20
203.7337818109245
 30
0.0
 42
0.0000008722
 70
     1
  0
VERTEX
  5
8475C
330
84741
100
AcDbEntity
  8
10000_Front
  6
Continuous
 62
     7
370
    13
100
AcDbVertex
100
AcDb2dVertex
 10
152.3857229468705
 20
203.7912218109245
 30
0.0
 42
0.0000004911
  0
VERTEX
  5
8475D
330
84741
100
AcDbEntity
  8
10000_Front
  6
Continuous
 62
     7
370
    13
100
AcDbVertex
100
AcDb2dVertex
 10
152.3857239468705
 20
203.8486318109245
 30
0.0
 42
0.0000001242
 70
     1
  0
VERTEX
  5
8475E
330
84741
100
AcDbEntity
  8
10000_Front
  6
Continuous
 62
     7
370
    13
100
AcDbVertex
100
AcDb2dVertex
 10
152.3857259468705
 20
203.9060918109245
 30
0.0
 42
-0.000000322
  0
VERTEX
  5
8475F
330
84741
100
AcDbEntity
  8
10000_Front
  6
Continuous
 62
     7
370
    13
100
AcDbVertex
100
AcDb2dVertex
 10
152.3857269468705
 20
203.9636518109245
 30
0.0
 42
-0.000000603
 70
     1
  0
VERTEX
  5
84760
330
84741
100
AcDbEntity
  8
10000_Front
  6
Continuous
 62
     7
370
    13
100
AcDbVertex
100
AcDb2dVertex
 10
152.3857279468705
 20
204.0209718109245
 30
0.0
 42
-0.0000008041
  0
VERTEX
  5
84761
330
84741
100
AcDbEntity
  8
10000_Front
  6
Continuous
 62
     7
370
    13
100
AcDbVertex
100
AcDb2dVertex
 10
152.3857299468705
 20
204.0779518109245
 30
0.0
 42
-0.0000014186
 70
     1
  0
VERTEX
  5
84762
330
84741
100
AcDbEntity
  8
10000_Front
  6
Continuous
 62
     7
370
    13
100
AcDbVertex
100
AcDb2dVertex
 10
152.3857319468705
 20
204.1358418109245
 30
0.0
 42
-0.000002468
  0
VERTEX
  5
84763
330
84741
100
AcDbEntity
  8
10000_Front
  6
Continuous
 62
     7
370
    13
100
AcDbVertex
100
AcDb2dVertex
 10
152.3857349468705
 20
204.1950818109245
 30
0.0
 42
-0.0000018948
 70
     1
  0
VERTEX
  5
84764
330
84741
100
AcDbEntity
  8
10000_Front
  6
Continuous
 62
     7
370
    13
100
AcDbVertex
100
AcDb2dVertex
 10
152.3857379468705
 20
204.2507118109245
 30
0.0
 42
-0.0000000256
  0
VERTEX
  5
84765
330
84741
100
AcDbEntity
  8
10000_Front
  6
Continuous
 62
     7
370
    13
100
AcDbVertex
100
AcDb2dVertex
 10
152.3857409468705
 20
204.3009918109245
 30
0.0
 42
-0.0000038752
 70
     1
  0
VERTEX
  5
84766
330
84741
100
AcDbEntity
  8
10000_Front
  6
Continuous
 62
     7
370
    13
100
AcDbVertex
100
AcDb2dVertex
 10
152.3857459468705
 20
204.3655718109245
 30
0.0
 42
-0.0000082912
  0
VERTEX
  5
84767
330
84741
100
AcDbEntity
  8
10000_Front
  6
Continuous
 62
     7
370
    13
100
AcDbVertex
100
AcDb2dVertex
 10
152.3857569468705
 20
204.4650318109245
 30
0.0
 42
-0.0000041548
 70
     1
  0
VERTEX
  5
84768
330
84741
100
AcDbEntity
  8
10000_Front
  6
Continuous
 62
     7
370
    13
100
AcDbVertex
100
AcDb2dVertex
 10
152.3857719468705
 20
204.5952718109245
 30
0.0
 42
-0.0000021153
  0
SEQEND
  5
84769
330
84741
100
AcDbEntity
  8
10000_Front
  6
Continuous
 62
     7
370
    13
  0
LINE
  5
8476D
330
1F
100
AcDbEntity
  8
10000_Front
  6
Continuous
 62
     7
370
    50
100
AcDbLine
 10
157.8316359468705
 20
208.3396418109245
 30
0.0
 11
157.8316359468705
 21
194.6303918109245
 31
0.0
  0
LINE
  5
849A4
330
1F
100
AcDbEntity
  8
10000_Front
  6
Continuous
 62
     7
370
    13
100
AcDbLine
 10
150.8816359468705
 20
191.5393918109245
 30
0.0
 11
153.6816359468705
 21
191.5393918109245
 31
0.0
  0
LINE
  5
849A8
330
1F
100
AcDbEntity
  8
10000_Front
  6
Continuous
 62
     7
370
    13
100
AcDbLine
 10
156.0816359468705
 20
195.3393918109245
 30
0.0
 11
152.4816359468705
 21
195.3393918109245
 31
0.0
  0
LINE
  5
849A9
330
1F
100
AcDbEntity
  8
10000_Front
  6
Continuous
 62
     7
370
    13
100
AcDbLine
 10
152.4816359468705
 20
199.0393918109245
 30
0.0
 11
156.0816359468705
 21
199.0393918109245
 31
0.0
  0
LINE
  5
849AA
330
1F
100
AcDbEntity
  8
10000_Front
  6
Continuous
 62
     7
370
    13
100
AcDbLine
 10
146.6316359468705
 20
193.6393918109245
 30
0.0
 11
156.6316359468705
 21
193.6393918109245
 31
0.0
  0
LINE
  5
849B1
330
1F
100
AcDbEntity
  8
10000_Front
  6
Continuous
 62
     7
370
    13
100
AcDbLine
 10
152.4816359468705
 20
195.3393918109245
 30
0.0
 11
152.4816359468705
 21
199.0393918109245
 31
0.0
  0
LINE
  5
849B2
330
1F
100
AcDbEntity
  8
10000_Front
  6
Continuous
 62
     7
370
    13
100
AcDbLine
 10
148.5816359468705
 20
195.3393918109245
 30
0.0
 11
148.5816359468705
 21
199.0393918109245
 31
0.0
  0
LINE
  5
849B3
330
1F
100
AcDbEntity
  8
10000_Front
  6
Continuous
 62
     7
370
    13
100
AcDbLine
 10
152.1816359468705
 20
199.0393918109245
 30
0.0
 11
152.1816359468705
 21
195.3393918109245
 31
0.0
  0
LINE
  5
849B5
330
1F
100
AcDbEntity
  8
10000_Front
  6
Continuous
 62
     7
370
    13
100
AcDbLine
 10
145.0816359468705
 20
199.0393918109245
 30
0.0
 11
145.0816359468705
 21
195.3393918109245
 31
0.0
  0
LINE
  5
849B7
330
1F
100
AcDbEntity
  8
10000_Front
  6
Continuous
 62
     7
370
    13
100
AcDbLine
 10
152.1816359468705
 20
195.3393918109245
 30
0.0
 11
148.5816359468705
 21
195.3393918109245
 31
0.0
  0
LINE
  5
84A51
330
1F
100
AcDbEntity
  8
10000_Front
  6
Continuous
 62
     7
370
    13
100
AcDbLine
 10
148.5816359468705
 20
199.0393918109245
 30
0.0
 11
152.1816359468705
 21
199.0393918109245
 31
0.0
  0
LINE
  5
84BAC
330
1F
100
AcDbEntity
  8
10000_Front
  6
Continuous
 62
     7
370
    13
100
AcDbLine
 10
156.0816359468705
 20
199.0393918109245
 30
0.0
 11
156.0816359468705
 21
195.3393918109245
 31
0.0
  0
LINE
  5
84BCC
330
1F
100
AcDbEntity
  8
10000_Front
  6
Continuous
 62
     7
370
    13
100
AcDbLine
 10
157.0316359468705
 20
193.7760018109245
 30
0.0
 11
157.8316359468705
 21
193.7760018109245
 31
0.0
  0
POLYLINE
  5
84BCD
330
1F
100
AcDbEntity
  8
10000_Front
  6
Continuous
 62
     7
370
    13
100
AcDb2dPolyline
 66
     1
 10
0.0
 20
0.0
 30
0.0
 70
     2
  0
VERTEX
  5
84BCE
330
84BCD
100
AcDbEntity
  8
10000_Front
  6
Continuous
 62
     7
370
    13
100
AcDbVertex
100
AcDb2dVertex
 10
157.0316399468705
 20
194.6394018109245
 30
0.0
  0
VERTEX
  5
84BCF
330
84BCD
100
AcDbEntity
  8
10000_Front
  6
Continuous
 62
     7
370
    13
100
AcDbVertex
100
AcDb2dVertex
 10
157.0697589468705
 20
194.6393918109245
 30
0.0
 42
-0.0001441981
 70
     1
  0
VERTEX
  5
84BD0
330
84BCD
100
AcDbEntity
  8
10000_Front
  6
Continuous
 62
     7
370
    13
100
AcDbVertex
100
AcDb2dVertex
 10
157.1083839468705
 20
194.6393618109245
 30
0.0
 42
-0.0001375558
  0
VERTEX
  5
84BD1
330
84BCD
100
AcDbEntity
  8
10000_Front
  6
Continuous
 62
     7
370
    13
100
AcDbVertex
100
AcDb2dVertex
 10
157.1475599468705
 20
194.6393018109245
 30
0.0
 42
-0.0001367972
 70
     1
  0
VERTEX
  5
84BD2
330
84BCD
100
AcDbEntity
  8
10000_Front
  6
Continuous
 62
     7
370
    13
100
AcDbVertex
100
AcDb2dVertex
 10
157.1871139468705
 20
194.6392318109245
 30
0.0
 42
-0.0001446122
  0
VERTEX
  5
84BD3
330
84BCD
100
AcDbEntity
  8
10000_Front
  6
Continuous
 62
     7
370
    13
100
AcDbVertex
100
AcDb2dVertex
 10
157.2268739468705
 20
194.6391318109245
 30
0.0
 42
-0.0001504394
 70
     1
  0
VERTEX
  5
84BD4
330
84BCD
100
AcDbEntity
  8
10000_Front
  6
Continuous
 62
     7
370
    13
100
AcDbVertex
100
AcDb2dVertex
 10
157.2666759468705
 20
194.6390018109245
 30
0.0
 42
-0.0001561949
  0
VERTEX
  5
84BD5
330
84BCD
100
AcDbEntity
  8
10000_Front
  6
Continuous
 62
     7
370
    13
100
AcDbVertex
100
AcDb2dVertex
 10
157.3063559468705
 20
194.6388518109245
 30
0.0
 42
-0.0001626487
 70
     1
  0
VERTEX
  5
84BD6
330
84BCD
100
AcDbEntity
  8
10000_Front
  6
Continuous
 62
     7
370
    13
100
AcDbVertex
100
AcDb2dVertex
 10
157.3457409468705
 20
194.6386718109245
 30
0.0
 42
-0.0001715918
  0
VERTEX
  5
84BD7
330
84BCD
100
AcDbEntity
  8
10000_Front
  6
Continuous
 62
     7
370
    13
100
AcDbVertex
100
AcDb2dVertex
 10
157.3846279468705
 20
194.6384718109245
 30
0.0
 42
-0.0001812459
 70
     1
  0
VERTEX
  5
84BD8
330
84BCD
100
AcDbEntity
  8
10000_Front
  6
Continuous
 62
     7
370
    13
100
AcDbVertex
100
AcDb2dVertex
 10
157.4228529468705
 20
194.6382518109245
 30
0.0
 42
-0.0001929532
  0
VERTEX
  5
84BD9
330
84BCD
100
AcDbEntity
  8
10000_Front
  6
Continuous
 62
     7
370
    13
100
AcDbVertex
100
AcDb2dVertex
 10
157.4601939468705
 20
194.6380018109245
 30
0.0
 42
-0.0002064141
 70
     1
  0
VERTEX
  5
84BDA
330
84BCD
100
AcDbEntity
  8
10000_Front
  6
Continuous
 62
     7
370
    13
100
AcDbVertex
100
AcDb2dVertex
 10
157.4965039468705
 20
194.6377218109245
 30
0.0
 42
-0.0002224886
  0
VERTEX
  5
84BDB
330
84BCD
100
AcDbEntity
  8
10000_Front
  6
Continuous
 62
     7
370
    13
100
AcDbVertex
100
AcDb2dVertex
 10
157.5315519468705
 20
194.6374218109245
 30
0.0
 42
-0.0002419752
 70
     1
  0
VERTEX
  5
84BDC
330
84BCD
100
AcDbEntity
  8
10000_Front
  6
Continuous
 62
     7
370
    13
100
AcDbVertex
100
AcDb2dVertex
 10
157.5652209468705
 20
194.6371018109245
 30
0.0
 42
-0.000265153
  0
VERTEX
  5
84BDD
330
84BCD
100
AcDbEntity
  8
10000_Front
  6
Continuous
 62
     7
370
    13
100
AcDbVertex
100
AcDb2dVertex
 10
157.5972819468705
 20
194.6367618109245
 30
0.0
 42
-0.000293141
 70
     1
  0
VERTEX
  5
84BDE
330
84BCD
100
AcDbEntity
  8
10000_Front
  6
Continuous
 62
     7
370
    13
100
AcDbVertex
100
AcDb2dVertex
 10
157.6276559468705
 20
194.6364018109245
 30
0.0
 42
-0.0003250066
  0
VERTEX
  5
84BDF
330
84BCD
100
AcDbEntity
  8
10000_Front
  6
Continuous
 62
     7
370
    13
100
AcDbVertex
100
AcDb2dVertex
 10
157.6561319468705
 20
194.6360218109245
 30
0.0
 42
-0.0003704348
 70
     1
  0
VERTEX
  5
84BE0
330
84BCD
100
AcDbEntity
  8
10000_Front
  6
Continuous
 62
     7
370
    13
100
AcDbVertex
100
AcDb2dVertex
 10
157.6826759468705
 20
194.6356218109245
 30
0.0
 42
-0.0004294977
  0
VERTEX
  5
84BE1
330
84BCD
100
AcDbEntity
  8
10000_Front
  6
Continuous
 62
     7
370
    13
100
AcDbVertex
100
AcDb2dVertex
 10
157.7071059468705
 20
194.6352118109245
 30
0.0
 42
-0.0004907136
 70
     1
  0
VERTEX
  5
84BE2
330
84BCD
100
AcDbEntity
  8
10000_Front
  6
Continuous
 62
     7
370
    13
100
AcDbVertex
100
AcDb2dVertex
 10
157.7294249468705
 20
194.6347918109245
 30
0.0
 42
-0.0005426926
  0
VERTEX
  5
84BE3
330
84BCD
100
AcDbEntity
  8
10000_Front
  6
Continuous
 62
     7
370
    13
100
AcDbVertex
100
AcDb2dVertex
 10
157.7494779468705
 20
194.6343718109245
 30
0.0
 42
-0.0007050388
 70
     1
  0
VERTEX
  5
84BE4
330
84BCD
100
AcDbEntity
  8
10000_Front
  6
Continuous
 62
     7
370
    13
100
AcDbVertex
100
AcDb2dVertex
 10
157.7673689468705
 20
194.6339318109245
 30
0.0
 42
-0.0010267666
  0
VERTEX
  5
84BE5
330
84BCD
100
AcDbEntity
  8
10000_Front
  6
Continuous
 62
     7
370
    13
100
AcDbVertex
100
AcDb2dVertex
 10
157.7830009468705
 20
194.6334718109245
 30
0.0
 42
-0.0010789747
 70
     1
  0
VERTEX
  5
84BE6
330
84BCD
100
AcDbEntity
  8
10000_Front
  6
Continuous
 62
     7
370
    13
100
AcDbVertex
100
AcDb2dVertex
 10
157.7963109468704
 20
194.6330418109245
 30
0.0
 42
-0.0005679288
  0
VERTEX
  5
84BE7
330
84BCD
100
AcDbEntity
  8
10000_Front
  6
Continuous
 62
     7
370
    13
100
AcDbVertex
100
AcDb2dVertex
 10
157.8071709468705
 20
194.6326418109245
 30
0.0
 42
-0.0020815657
 70
     1
  0
VERTEX
  5
84BE8
330
84BCD
100
AcDbEntity
  8
10000_Front
  6
Continuous
 62
     7
370
    13
100
AcDbVertex
100
AcDb2dVertex
 10
157.8163689468705
 20
194.6321418109245
 30
0.0
 42
-0.0073592392
  0
VERTEX
  5
84BE9
330
84BCD
100
AcDbEntity
  8
10000_Front
  6
Continuous
 62
     7
370
    13
100
AcDbVertex
100
AcDb2dVertex
 10
157.8245409468705
 20
194.6313818109245
 30
0.0
 42
-0.010666289
 70
     1
  0
VERTEX
  5
84BEA
330
84BCD
100
AcDbEntity
  8
10000_Front
  6
Continuous
 62
     7
370
    13
100
AcDbVertex
100
AcDb2dVertex
 10
157.8316319468705
 20
194.6303918109245
 30
0.0
 42
-0.01301221
  0
SEQEND
  5
84BEB
330
84BCD
100
AcDbEntity
  8
10000_Front
  6
Continuous
 62
     7
370
    13
  0
LINE
  5
84C80
330
1F
100
AcDbEntity
  8
10000_Front
  6
Continuous
 62
     7
370
    13
100
AcDbLine
 10
157.8316359468705
 20
193.7760018109245
 30
0.0
 11
157.8316359468705
 21
193.6893918109245
 31
0.0
  0
LINE
  5
84C81
330
1F
100
AcDbEntity
  8
10000_Front
  6
Continuous
 62
     7
370
    50
100
AcDbLine
 10
157.8316359468705
 20
194.6303918109245
 30
0.0
 11
157.8316359468705
 21
193.7760018109245
 31
0.0
  0
ARC
  5
852F9
330
1F
100
AcDbEntity
  8
10000_Front
  6
Continuous
 62
     7
370
    50
100
AcDbCircle
 10
157.0316359468705
 20
208.3393918109245
 30
0.0
 40
0.8
100
AcDbArc
 50
0.0
 51
90.0
  0
LINE
  5
853C5
330
1F
100
AcDbEntity
  8
11000_Left
  6
Continuous
 62
     7
370
    50
100
AcDbLine
 10
219.546177151254
 20
209.0319338348101
 30
0.0
 11
247.896177151254
 21
209.0319338348101
 31
0.0
  0
LINE
  5
853C7
102
{ACAD_REACTORS
330
8587C
102
}
330
1F
100
AcDbEntity
  8
11000_Left
  6
Continuous
 62
     7
370
    50
100
AcDbLine
 10
247.896177151254
 20
171.0319338348101
 30
0.0
 11
219.546177151254
 21
171.0319338348101
 31
0.0
  0
LINE
  5
853C8
330
1F
100
AcDbEntity
  8
11000_Left
  6
Continuous
 62
     7
370
    50
100
AcDbLine
 10
206.546177151254
 20
177.1147838348101
 30
0.0
 11
206.546177151254
 21
205.2319338348101
 31
0.0
  0
LINE
  5
853C9
330
1F
100
AcDbEntity
  8
11000_Left
  6
Continuous
 62
     7
370
    13
100
AcDbLine
 10
203.841007151254
 20
192.2819338348101
 30
0.0
 11
203.841007151254
 21
187.7819338348101
 31
0.0
  0
LINE
  5
853CA
330
1F
100
AcDbEntity
  8
11000_Left
  6
Continuous
 62
     7
370
    13
100
AcDbLine
 10
203.209797151254
 20
187.7819338348101
 30
0.0
 11
203.209797151254
 21
192.2819338348101
 31
0.0
  0
LINE
  5
853CD
330
1F
100
AcDbEntity
  8
11000_Left
  6
Continuous
 62
     7
370
    13
100
AcDbLine
 10
200.521177151254
 20
188.3819338348101
 30
0.0
 11
200.521177151254
 21
191.2819338348101
 31
0.0
  0
LINE
  5
853CE
330
1F
100
AcDbEntity
  8
11000_Left
  6
Continuous
 62
     7
370
    13
100
AcDbLine
 10
200.546177151254
 20
188.3819338348101
 30
0.0
 11
200.546177151254
 21
191.2819338348101
 31
0.0
  0
LINE
  5
853D0
330
1F
100
AcDbEntity
  8
11000_Left
  6
Continuous
 62
     7
370
    50
100
AcDbLine
 10
211.046177151254
 20
173.0319338348101
 30
0.0
 11
216.3035371512539
 21
173.0319338348101
 31
0.0
  0
ARC
  5
853D1
330
1F
100
AcDbEntity
  8
11000_Left
  6
Continuous
 62
     7
370
    13
100
AcDbCircle
 10
203.646177151254
 20
179.0319338348101
 30
0.0
 40
0.5
100
AcDbArc
 50
90.0
 51
126.8699000000011
  0
LINE
  5
853D2
330
1F
100
AcDbEntity
  8
11000_Left
  6
Continuous
 62
     7
370
    13
100
AcDbLine
 10
203.346177151254
 20
179.4319338348101
 30
0.0
 11
203.346177151254
 21
179.8319338348101
 31
0.0
  0
LINE
  5
85408
330
1F
100
AcDbEntity
  8
11000_Left
  6
Continuous
 62
     7
370
    13
100
AcDbLine
 10
201.676177151254
 20
179.5319338348101
 30
0.0
 11
201.646177151254
 21
180.0319338348101
 31
0.0
  0
LINE
  5
85409
330
1F
100
AcDbEntity
  8
11000_Left
  6
Continuous
 62
     7
370
    13
100
AcDbLine
 10
203.646177151254
 20
179.5319338348101
 30
0.0
 11
206.546177151254
 21
179.5319338348101
 31
0.0
  0
LINE
  5
8540A
330
1F
100
AcDbEntity
  8
11000_Left
  6
Continuous
 62
     7
370
    13
100
AcDbLine
 10
203.693237151254
 20
176.4056738348101
 30
0.0
 11
203.157097151254
 21
178.9279838348101
 31
0.0
  0
LINE
  5
8540B
330
1F
100
AcDbEntity
  8
11000_Left
  6
Continuous
 62
     7
370
    13
100
AcDbLine
 10
203.663487151254
 20
175.9279438348101
 30
0.0
 11
203.146177151254
 21
175.0319338348101
 31
0.0
  0
ARC
  5
8540C
330
1F
100
AcDbEntity
  8
11000_Left
  6
Continuous
 62
     7
370
    13
100
AcDbCircle
 10
203.646177151254
 20
179.0319338348101
 30
0.0
 40
0.5
100
AcDbArc
 50
126.8699000000011
 51
191.9999999999998
  0
ARC
  5
8540D
330
1F
100
AcDbEntity
  8
11000_Left
  6
Continuous
 62
     7
370
    13
100
AcDbCircle
 10
203.230467151254
 20
176.1779438348101
 30
0.0
 40
0.5
100
AcDbArc
 50
329.9999999999994
 51
11.99999999999978
  0
LINE
  5
8540E
330
1F
100
AcDbEntity
  8
11000_Left
  6
Continuous
 62
     7
370
    13
100
AcDbLine
 10
203.693237151254
 20
176.4056738348101
 30
0.0
 11
203.719547151254
 21
176.2818938348101
 31
0.0
  0
LINE
  5
8540F
330
1F
100
AcDbEntity
  8
11000_Left
  6
Continuous
 62
     7
370
    13
100
AcDbLine
 10
201.863747151254
 20
176.4056738348101
 30
0.0
 11
201.676177151254
 21
179.5319338348101
 31
0.0
  0
LINE
  5
85410
330
1F
100
AcDbEntity
  8
11000_Left
  6
Continuous
 62
     7
370
    13
100
AcDbLine
 10
201.946177151254
 20
175.0319338348101
 30
0.0
 11
201.863747151254
 21
176.4056738348101
 31
0.0
  0
LINE
  5
85411
330
1F
100
AcDbEntity
  8
11000_Left
  6
Continuous
 62
     7
370
    13
100
AcDbLine
 10
201.863747151254
 20
176.4056738348101
 30
0.0
 11
203.693237151254
 21
176.4056738348101
 31
0.0
  0
LINE
  5
85413
330
1F
100
AcDbEntity
  8
11000_Left
  6
Continuous
 62
     7
370
    13
100
AcDbLine
 10
203.146177151254
 20
175.0319338348101
 30
0.0
 11
201.946177151254
 21
175.0319338348101
 31
0.0
  0
ARC
  5
85415
330
1F
100
AcDbEntity
  8
11000_Left
  6
Continuous
 62
     7
370
    50
100
AcDbCircle
 10
211.0461771512541
 20
174.0319338348101
 30
0.0
 40
1.0
100
AcDbArc
 50
179.9999799999996
 51
270.0000199999987
  0
LINE
  5
85416
330
1F
100
AcDbEntity
  8
11000_Left
  6
Continuous
 62
     7
370
    50
100
AcDbLine
 10
207.546177151254
 20
176.0319338348101
 30
0.0
 11
210.046177151254
 21
176.0319338348101
 31
0.0
  0
ARC
  5
85417
102
{ACAD_REACTORS
330
8589D
102
}
330
1F
100
AcDbEntity
  8
11000_Left
  6
Continuous
 62
     7
370
    13
100
AcDbCircle
 10
206.746177151254
 20
177.1147838348101
 30
0.0
 40
0.2
100
AcDbArc
 50
179.9999899999989
 51
225.0000099999999
  0
LINE
  5
85418
330
1F
100
AcDbEntity
  8
11000_Left
  6
Continuous
 62
     7
370
    50
100
AcDbLine
 10
206.604757151254
 20
176.9733638348101
 30
0.0
 11
207.546177151254
 21
176.0319338348101
 31
0.0
  0
LINE
  5
8541A
330
1F
100
AcDbEntity
  8
11000_Left
  6
Continuous
 62
     7
370
    50
100
AcDbLine
 10
210.046177151254
 20
176.0319338348101
 30
0.0
 11
210.046177151254
 21
174.0319338348101
 31
0.0
  0
LINE
  5
8541D
330
1F
100
AcDbEntity
  8
11000_Left
  6
Continuous
 62
     7
370
    13
100
AcDbLine
 10
203.841007151254
 20
187.7819338348101
 30
0.0
 11
206.546167151254
 21
187.7819338348101
 31
0.0
  0
LINE
  5
8541E
330
1F
100
AcDbEntity
  8
11000_Left
  6
Continuous
 62
     7
370
    13
100
AcDbLine
 10
203.946177151254
 20
181.5319338348101
 30
0.0
 11
203.346177151254
 21
181.5319338348101
 31
0.0
  0
ARC
  5
8541F
330
1F
100
AcDbEntity
  8
11000_Left
  6
Continuous
 62
     7
370
    13
100
AcDbCircle
 10
203.146177151254
 20
180.0319338348101
 30
0.0
 40
1.5
100
AcDbArc
 50
119.9264300000014
 51
180.0000099999993
  0
LINE
  5
85420
330
1F
100
AcDbEntity
  8
11000_Left
  6
Continuous
 62
     7
370
    13
100
AcDbLine
 10
203.346177151254
 20
181.5319338348101
 30
0.0
 11
203.146177151254
 21
181.5319338348101
 31
0.0
  0
LINE
  5
85422
330
1F
100
AcDbEntity
  8
11000_Left
  6
Continuous
 62
     7
370
    13
100
AcDbLine
 10
203.346177151254
 20
181.3319338348101
 30
0.0
 11
203.346177151254
 21
181.5319338348101
 31
0.0
  0
LINE
  5
85423
330
1F
100
AcDbEntity
  8
11000_Left
  6
Continuous
 62
     7
370
    13
100
AcDbLine
 10
203.346177151254
 20
181.3319338348101
 30
0.0
 11
203.346177151254
 21
179.8319338348101
 31
0.0
  0
ARC
  5
85424
330
1F
100
AcDbEntity
  8
11000_Left
  6
Continuous
 62
     7
370
    13
100
AcDbCircle
 10
203.146177151254
 20
180.0319338348101
 30
0.0
 40
1.5
100
AcDbArc
 50
89.99998999999899
 51
119.9264300000014
  0
LINE
  5
85426
330
1F
100
AcDbEntity
  8
11000_Left
  6
Continuous
 62
     7
370
    13
100
AcDbLine
 10
203.209797151254
 20
187.7819338348101
 30
0.0
 11
203.841007151254
 21
187.7819338348101
 31
0.0
  0
LINE
  5
85427
330
1F
100
AcDbEntity
  8
11000_Left
  6
Continuous
 62
     7
370
    13
100
AcDbLine
 10
200.521177151254
 20
188.3819338348101
 30
0.0
 11
201.121177151254
 21
187.7819338348101
 31
0.0
  0
LINE
  5
85428
330
1F
100
AcDbEntity
  8
11000_Left
  6
Continuous
 62
     7
370
    13
100
AcDbLine
 10
200.546177151254
 20
188.3819338348101
 30
0.0
 11
201.146177151254
 21
187.7819338348101
 31
0.0
  0
LINE
  5
85429
330
1F
100
AcDbEntity
  8
11000_Left
  6
Continuous
 62
     7
370
    13
100
AcDbLine
 10
201.121177151254
 20
187.7819338348101
 30
0.0
 11
203.209797151254
 21
187.7819338348101
 31
0.0
  0
LINE
  5
8542B
330
1F
100
AcDbEntity
  8
11000_Left
  6
Continuous
 62
     7
370
    13
100
AcDbLine
 10
206.546167151254
 20
181.5319338348101
 30
0.0
 11
203.946177151254
 21
181.5319338348101
 31
0.0
  0
LINE
  5
85431
330
1F
100
AcDbEntity
  8
11000_Left
  6
Continuous
 62
     7
370
    13
100
AcDbLine
 10
219.546177151254
 20
171.0319338348101
 30
0.0
 11
219.496177151254
 21
171.0319338348101
 31
0.0
  0
LINE
  5
85432
330
1F
100
AcDbEntity
  8
11000_Left
  6
Continuous
 62
     7
370
    13
100
AcDbLine
 10
219.483757151254
 20
171.0443538348101
 30
0.0
 11
219.496177151254
 21
171.0319338348101
 31
0.0
  0
LINE
  5
85433
330
1F
100
AcDbEntity
  8
11000_Left
  6
Continuous
 62
     7
370
    13
100
AcDbLine
 10
219.483757151254
 20
171.0443538348101
 30
0.0
 11
219.483757151254
 21
171.0443538348101
 31
0.0
  0
ARC
  5
85436
330
1F
100
AcDbEntity
  8
11000_Left
  6
Continuous
 62
     7
370
    50
100
AcDbCircle
 10
219.5461771512541
 20
173.0319338348101
 30
0.0
 40
2.0
100
AcDbArc
 50
224.9999900000012
 51
270.0000099999977
  0
ARC
  5
85438
330
1F
100
AcDbEntity
  8
11000_Left
  6
Continuous
 62
     7
370
    50
100
AcDbCircle
 10
216.3035371512539
 20
172.0319338348101
 30
0.0
 40
1.0
100
AcDbArc
 50
44.99999000000118
 51
90.00000999999775
  0
LINE
  5
8543A
330
1F
100
AcDbEntity
  8
11000_Left
  6
Continuous
 62
     7
370
    50
100
AcDbLine
 10
217.010637151254
 20
172.7390438348101
 30
0.0
 11
218.131957151254
 21
171.6177238348101
 31
0.0
  0
LINE
  5
8543C
330
1F
100
AcDbEntity
  8
11000_Left
  6
Continuous
 62
     7
370
    50
100
AcDbLine
 10
216.3035371512539
 20
207.0319338348101
 30
0.0
 11
210.8461771512541
 21
207.0319338348101
 31
0.0
  0
LINE
  5
8543D
330
1F
100
AcDbEntity
  8
11000_Left
  6
Continuous
 62
     7
370
    13
100
AcDbLine
 10
204.3461771512541
 20
202.8319338348101
 30
0.0
 11
204.3461771512541
 21
200.9319338348101
 31
0.0
  0
LINE
  5
8543F
330
1F
100
AcDbEntity
  8
11000_Left
  6
Continuous
 62
     7
370
    13
100
AcDbLine
 10
206.546177151254
 20
200.6319338348101
 30
0.0
 11
203.4461771512539
 21
200.6319338348101
 31
0.0
  0
LINE
  5
85441
330
1F
100
AcDbEntity
  8
11000_Left
  6
Continuous
 62
     7
370
    13
100
AcDbLine
 10
202.546177151254
 20
197.8319338348101
 30
0.0
 11
206.546177151254
 21
197.8319338348101
 31
0.0
  0
LINE
  5
85442
330
1F
100
AcDbEntity
  8
11000_Left
  6
Continuous
 62
     7
370
    13
100
AcDbLine
 10
206.546167151254
 20
192.2819338348101
 30
0.0
 11
203.841007151254
 21
192.2819338348101
 31
0.0
  0
LINE
  5
85443
330
1F
100
AcDbEntity
  8
11000_Left
  6
Continuous
 62
     7
370
    13
100
AcDbLine
 10
203.841007151254
 20
192.2819338348101
 30
0.0
 11
203.209797151254
 21
192.2819338348101
 31
0.0
  0
LINE
  5
85444
330
1F
100
AcDbEntity
  8
11000_Left
  6
Continuous
 62
     7
370
    13
100
AcDbLine
 10
203.209797151254
 20
192.2819338348101
 30
0.0
 11
201.521177151254
 21
192.2819338348101
 31
0.0
  0
LINE
  5
85445
330
1F
100
AcDbEntity
  8
11000_Left
  6
Continuous
 62
     7
370
    13
100
AcDbLine
 10
201.521177151254
 20
192.2819338348101
 30
0.0
 11
200.521177151254
 21
191.2819338348101
 31
0.0
  0
LINE
  5
85446
330
1F
100
AcDbEntity
  8
11000_Left
  6
Continuous
 62
     7
370
    13
100
AcDbLine
 10
201.546177151254
 20
192.2819338348101
 30
0.0
 11
200.546177151254
 21
191.2819338348101
 31
0.0
  0
LINE
  5
85447
330
1F
100
AcDbEntity
  8
11000_Left
  6
Continuous
 62
     7
370
    13
100
AcDbLine
 10
199.846177151254
 20
200.6319338348101
 30
0.0
 11
199.646177151254
 21
200.4319338348101
 31
0.0
  0
LINE
  5
85448
330
1F
100
AcDbEntity
  8
11000_Left
  6
Continuous
 62
     7
370
    13
100
AcDbLine
 10
199.646177151254
 20
197.8319338348101
 30
0.0
 11
202.546177151254
 21
197.8319338348101
 31
0.0
  0
LINE
  5
85449
330
1F
100
AcDbEntity
  8
11000_Left
  6
Continuous
 62
     7
370
    13
100
AcDbLine
 10
199.646177151254
 20
200.4319338348101
 30
0.0
 11
199.3461771512541
 21
200.1319338348101
 31
0.0
  0
LINE
  5
8544A
330
1F
100
AcDbEntity
  8
11000_Left
  6
Continuous
 62
     7
370
    13
100
AcDbLine
 10
199.3461771512541
 20
197.8319338348101
 30
0.0
 11
199.646177151254
 21
197.8319338348101
 31
0.0
  0
LINE
  5
8544C
330
1F
100
AcDbEntity
  8
11000_Left
  6
Continuous
 62
     7
370
    13
100
AcDbLine
 10
199.3461771512541
 20
197.8319338348101
 30
0.0
 11
199.3461771512541
 21
200.1319338348101
 31
0.0
  0
LINE
  5
8544D
330
1F
100
AcDbEntity
  8
11000_Left
  6
Continuous
 62
     7
370
    13
100
AcDbLine
 10
202.8461771512541
 20
200.6319338348101
 30
0.0
 11
203.4461771512539
 21
200.6319338348101
 31
0.0
  0
LINE
  5
85453
330
1F
100
AcDbEntity
  8
11000_Left
  6
Continuous
 62
     7
370
    13
100
AcDbLine
 10
202.546177151254
 20
197.8319338348101
 30
0.0
 11
202.546177151254
 21
198.0319338348101
 31
0.0
  0
LINE
  5
85454
330
1F
100
AcDbEntity
  8
11000_Left
  6
Continuous
 62
     7
370
    13
100
AcDbLine
 10
202.546177151254
 20
198.0319338348101
 30
0.0
 11
202.546177151254
 21
200.6319338348101
 31
0.0
  0
LINE
  5
85455
330
1F
100
AcDbEntity
  8
11000_Left
  6
Continuous
 62
     7
370
    13
100
AcDbLine
 10
202.546177151254
 20
200.6319338348101
 30
0.0
 11
202.8461771512541
 21
200.6319338348101
 31
0.0
  0
LINE
  5
85457
330
1F
100
AcDbEntity
  8
11000_Left
  6
Continuous
 62
     7
370
    13
100
AcDbLine
 10
202.546177151254
 20
200.6319338348101
 30
0.0
 11
199.846177151254
 21
200.6319338348101
 31
0.0
  0
ARC
  5
8545C
330
1F
100
AcDbEntity
  8
11000_Left
  6
Continuous
 62
     7
370
    13
100
AcDbCircle
 10
204.646177151254
 20
200.9319338348101
 30
0.0
 40
0.3
100
AcDbArc
 50
180.0
 51
270.0
  0
LINE
  5
8545F
330
1F
100
AcDbEntity
  8
11000_Left
  6
Continuous
 62
     7
370
    50
100
AcDbLine
 10
210.8461771512541
 20
207.0319338348101
 30
0.0
 11
207.046177151254
 21
207.0319338348101
 31
0.0
  0
LINE
  5
85460
330
1F
100
AcDbEntity
  8
11000_Left
  6
Continuous
 62
     7
370
    50
100
AcDbLine
 10
206.546177151254
 20
205.8319338348101
 30
0.0
 11
207.1461771512539
 21
205.8319338348101
 31
0.0
  0
LINE
  5
85461
330
1F
100
AcDbEntity
  8
11000_Left
  6
Continuous
 62
     7
370
    50
100
AcDbLine
 10
206.546177151254
 20
206.5319338348101
 30
0.0
 11
206.546177151254
 21
205.8319338348101
 31
0.0
  0
ARC
  5
85462
330
1F
100
AcDbEntity
  8
11000_Left
  6
Continuous
 62
     7
370
    50
100
AcDbCircle
 10
207.0461771512541
 20
206.5319338348101
 30
0.0
 40
0.5
100
AcDbArc
 50
90.0
 51
180.0
  0
LINE
  5
85463
330
1F
100
AcDbEntity
  8
11000_Left
  6
Continuous
 62
     7
370
    50
100
AcDbLine
 10
207.1461771512539
 20
205.8319338348101
 30
0.0
 11
206.546177151254
 21
205.2319338348101
 31
0.0
  0
ARC
  5
85464
330
1F
100
AcDbEntity
  8
11000_Left
  6
Continuous
 62
     7
370
    13
100
AcDbCircle
 10
204.4635971512541
 20
205.1319338348101
 30
0.0
 40
0.3
100
AcDbArc
 50
90.0
 51
184.5622500000004
  0
LINE
  5
85465
330
1F
100
AcDbEntity
  8
11000_Left
  6
Continuous
 62
     7
370
    13
100
AcDbLine
 10
204.164547151254
 20
205.1080738348101
 30
0.0
 11
204.3461771512541
 21
202.8319338348101
 31
0.0
  0
LINE
  5
85466
330
1F
100
AcDbEntity
  8
11000_Left
  6
Continuous
 62
     7
370
    13
100
AcDbLine
 10
205.546177151254
 20
205.4319338348101
 30
0.0
 11
204.463597151254
 21
205.4319338348101
 31
0.0
  0
LINE
  5
85467
330
1F
100
AcDbEntity
  8
11000_Left
  6
Continuous
 62
     7
370
    13
100
AcDbLine
 10
206.546177151254
 20
206.1819338348101
 30
0.0
 11
205.546177151254
 21
205.4319338348101
 31
0.0
  0
LINE
  5
85468
330
1F
100
AcDbEntity
  8
11000_Left
  6
Continuous
 62
     7
370
    13
100
AcDbLine
 10
204.3461771512541
 20
202.8319338348101
 30
0.0
 11
206.546177151254
 21
202.8319338348101
 31
0.0
  0
ARC
  5
8546A
330
1F
100
AcDbEntity
  8
11000_Left
  6
Continuous
 62
     7
370
    13
100
AcDbCircle
 10
210.8461771512541
 20
206.2319338348101
 30
0.0
 40
0.8
100
AcDbArc
 50
89.99998999999899
 51
180.0000099999993
  0
LINE
  5
8546B
330
1F
100
AcDbEntity
  8
11000_Left
  6
Continuous
 62
     7
370
    13
100
AcDbLine
 10
210.046177151254
 20
206.2319338348101
 30
0.0
 11
210.046177151254
 21
205.8319338348101
 31
0.0
  0
ARC
  5
8546F
330
1F
100
AcDbEntity
  8
11000_Left
  6
Continuous
 62
     7
370
    50
100
AcDbCircle
 10
219.5461771512541
 20
207.0319338348101
 30
0.0
 40
2.0
100
AcDbArc
 50
89.99998999999899
 51
135.0000099999988
  0
LINE
  5
85470
330
1F
100
AcDbEntity
  8
11000_Left
  6
Continuous
 62
     7
370
    13
100
AcDbLine
 10
214.546177151254
 20
210.0319338348101
 30
0.0
 11
214.546177151254
 21
207.5319338348101
 31
0.0
  0
LINE
  5
85471
330
1F
100
AcDbEntity
  8
11000_Left
  6
Continuous
 62
     7
370
    13
100
AcDbLine
 10
216.546177151254
 20
207.0618238348101
 30
0.0
 11
216.546177151254
 21
210.0319338348101
 31
0.0
  0
ARC
  5
85472
330
1F
100
AcDbEntity
  8
11000_Left
  6
Continuous
 62
     7
370
    13
100
AcDbCircle
 10
214.0461771512541
 20
207.5319338348101
 30
0.0
 40
0.5
100
AcDbArc
 50
270.0
 51
0.0
  0
ARC
  5
85478
330
1F
100
AcDbEntity
  8
11000_Left
  6
Continuous
 62
     7
370
    50
100
AcDbCircle
 10
216.3035371512539
 20
208.0319338348101
 30
0.0
 40
1.0
100
AcDbArc
 50
269.999989999999
 51
315.0000099999988
  0
LINE
  5
8547A
330
1F
100
AcDbEntity
  8
11000_Left
  6
Continuous
 62
     7
370
    50
100
AcDbLine
 10
218.131957151254
 20
208.4461538348101
 30
0.0
 11
217.010637151254
 21
207.3248338348101
 31
0.0
  0
LINE
  5
8547B
330
1F
100
AcDbEntity
  8
11000_Left
  6
Continuous
 62
     7
370
    13
100
AcDbLine
 10
216.546177151254
 20
210.0319338348101
 30
0.0
 11
216.046177151254
 21
210.5319338348101
 31
0.0
  0
LINE
  5
8547C
330
1F
100
AcDbEntity
  8
11000_Left
  6
Continuous
 62
     7
370
    13
100
AcDbLine
 10
215.046177151254
 20
210.5319338348101
 30
0.0
 11
214.546177151254
 21
210.0319338348101
 31
0.0
  0
LINE
  5
8547D
330
1F
100
AcDbEntity
  8
11000_Left
  6
Continuous
 62
     7
370
    13
100
AcDbLine
 10
216.046177151254
 20
210.5319338348101
 30
0.0
 11
215.046177151254
 21
210.5319338348101
 31
0.0
  0
LINE
  5
8547E
330
1F
100
AcDbEntity
  8
11000_Left
  6
Continuous
 62
     7
370
    13
100
AcDbLine
 10
219.496177151254
 20
209.0319338348101
 30
0.0
 11
219.546177151254
 21
209.0319338348101
 31
0.0
  0
LINE
  5
8547F
330
1F
100
AcDbEntity
  8
11000_Left
  6
Continuous
 62
     7
370
    13
100
AcDbLine
 10
219.483757151254
 20
209.0195238348101
 30
0.0
 11
219.483757151254
 21
209.0195238348101
 31
0.0
  0
LINE
  5
85480
330
1F
100
AcDbEntity
  8
11000_Left
  6
Continuous
 62
     7
370
    13
100
AcDbLine
 10
219.496177151254
 20
209.0319338348101
 30
0.0
 11
219.483757151254
 21
209.0195238348101
 31
0.0
  0
LINE
  5
85481
330
1F
100
AcDbEntity
  8
11000_Left
  6
Continuous
 62
     7
370
    13
100
AcDbLine
 10
253.821177151254
 20
188.6319338348101
 30
0.0
 11
253.821177151254
 21
191.4319338348101
 31
0.0
  0
LINE
  5
85482
330
1F
100
AcDbEntity
  8
11000_Left
  6
Continuous
 62
     7
370
    13
100
AcDbLine
 10
253.821177151254
 20
191.4319338348101
 30
0.0
 11
254.221177151254
 21
191.0319338348101
 31
0.0
  0
LINE
  5
85484
330
1F
100
AcDbEntity
  8
11000_Left
  6
Continuous
 62
     7
370
    50
100
AcDbLine
 10
250.296177151254
 20
193.4319338348101
 30
0.0
 11
250.296177151254
 21
187.3809438348101
 31
0.0
  0
LINE
  5
85485
330
1F
100
AcDbEntity
  8
11000_Left
  6
Continuous
 62
     7
370
    13
100
AcDbLine
 10
247.896177151254
 20
208.2319338348101
 30
0.0
 11
247.896177151254
 21
171.8319338348101
 31
0.0
  0
LINE
  5
85486
330
1F
100
AcDbEntity
  8
11000_Left
  6
Continuous
 62
     7
370
    13
100
AcDbLine
 10
248.5961771512541
 20
187.3819338348101
 30
0.0
 11
248.5961771512541
 21
193.5819338348101
 31
0.0
  0
LINE
  5
85487
330
1F
100
AcDbEntity
  8
11000_Left
  6
Continuous
 62
     7
370
    13
100
AcDbLine
 10
249.094827151254
 20
193.5819338348101
 30
0.0
 11
249.094827151254
 21
187.3819338348101
 31
0.0
  0
LINE
  5
85489
330
1F
100
AcDbEntity
  8
11000_Left
  6
Continuous
 62
     7
370
    13
100
AcDbLine
 10
249.296177151254
 20
187.3819338348101
 30
0.0
 11
249.296177151254
 21
193.4519338348101
 31
0.0
  0
ARC
  5
8548B
102
{ACAD_REACTORS
330
8589D
102
}
330
1F
100
AcDbEntity
  8
11000_Left
  6
Continuous
 62
     7
370
    50
100
AcDbCircle
 10
50.446806151254
 20
190.0319338348101
 30
0.0
 40
200.0
100
AcDbArc
 50
354.7578290000007
 51
358.710736
  0
LINE
  5
8548C
330
1F
100
AcDbEntity
  8
11000_Left
  6
Continuous
 62
     7
370
    13
100
AcDbLine
 10
247.896177151254
 20
173.8319338348101
 30
0.0
 11
248.357717151254
 21
172.7242438348101
 31
0.0
  0
ARC
  5
854CA
330
1F
100
AcDbEntity
  8
11000_Left
  6
Continuous
 62
     7
370
    50
100
AcDbCircle
 10
248.8136371512541
 20
171.8319338348101
 30
0.0
 40
0.8
100
AcDbArc
 50
270.0000000031006
 51
354.757834
  0
LINE
  5
85508
330
1F
100
AcDbEntity
  8
11000_Left
  6
Continuous
 62
     7
370
    13
100
AcDbLine
 10
247.896177151254
 20
171.8319338348101
 30
0.0
 11
247.896177151254
 21
171.0319338348101
 31
0.0
  0
ARC
  5
8550A
330
1F
100
AcDbEntity
  8
11000_Left
  6
Continuous
 62
     7
370
    13
100
AcDbCircle
 10
247.896177151254
 20
172.5319338348101
 30
0.0
 40
0.5
100
AcDbArc
 50
269.9999700000002
 51
22.61988999999982
  0
LINE
  5
8550B
330
1F
100
AcDbEntity
  8
11000_Left
  6
Continuous
 62
     7
370
    50
100
AcDbLine
 10
248.813637151254
 20
171.0319338348101
 30
0.0
 11
247.896177151254
 21
171.0319338348101
 31
0.0
  0
LINE
  5
855EF
330
1F
100
AcDbEntity
  8
11000_Left
  6
Continuous
 62
     7
370
    13
100
AcDbLine
 10
253.821177151254
 20
188.6319338348101
 30
0.0
 11
250.296177151254
 21
188.6319338348101
 31
0.0
  0
LINE
  5
855F2
330
1F
100
AcDbEntity
  8
11000_Left
  6
Continuous
 62
     7
370
    13
100
AcDbLine
 10
249.596277151254
 20
187.3819338348101
 30
0.0
 11
248.5961771512541
 21
187.3819338348101
 31
0.0
  0
LINE
  5
855F3
102
{ACAD_REACTORS
330
8589D
102
}
330
1F
100
AcDbEntity
  8
11000_Left
  6
Continuous
 62
     7
370
    50
100
AcDbLine
 10
250.396177151254
 20
187.3819338348101
 30
0.0
 11
250.396177151254
 21
185.5319338348101
 31
0.0
  0
LINE
  5
855F4
330
1F
100
AcDbEntity
  8
11000_Left
  6
Continuous
 62
     7
370
    13
100
AcDbLine
 10
249.596277151254
 20
185.5409338348101
 30
0.0
 11
249.596277151254
 21
187.3819338348101
 31
0.0
  0
LINE
  5
855F5
330
1F
100
AcDbEntity
  8
11000_Left
  6
Continuous
 62
     7
370
    50
100
AcDbLine
 10
250.396177151254
 20
187.3819338348101
 30
0.0
 11
250.296177151254
 21
187.3809438348101
 31
0.0
  0
LINE
  5
855F6
330
1F
100
AcDbEntity
  8
11000_Left
  6
Continuous
 62
     7
370
    13
100
AcDbLine
 10
250.396177151254
 20
185.5319338348101
 30
0.0
 11
249.596277151254
 21
185.5409338348101
 31
0.0
  0
LINE
  5
855F7
330
1F
100
AcDbEntity
  8
11000_Left
  6
Continuous
 62
     7
370
    13
100
AcDbLine
 10
254.221177151254
 20
191.0319338348101
 30
0.0
 11
254.221177151254
 21
189.0319338348101
 31
0.0
  0
LINE
  5
855F8
330
1F
100
AcDbEntity
  8
11000_Left
  6
Continuous
 62
     7
370
    13
100
AcDbLine
 10
253.821177151254
 20
188.6319338348101
 30
0.0
 11
254.221177151254
 21
189.0319338348101
 31
0.0
  0
ARC
  5
855FA
330
1F
100
AcDbEntity
  8
11000_Left
  6
Continuous
 62
     7
370
    50
100
AcDbCircle
 10
50.446806151254
 20
190.0319338348101
 30
0.0
 40
200.0
100
AcDbArc
 50
1.289263999999902
 51
5.242170999999268
  0
LINE
  5
855FB
330
1F
100
AcDbEntity
  8
11000_Left
  6
Continuous
 62
     7
370
    13
100
AcDbLine
 10
250.296177151254
 20
191.4319338348101
 30
0.0
 11
253.821177151254
 21
191.4319338348101
 31
0.0
  0
LINE
  5
855FC
330
1F
100
AcDbEntity
  8
11000_Left
  6
Continuous
 62
     7
370
    13
100
AcDbLine
 10
248.5961771512541
 20
193.5819338348101
 30
0.0
 11
249.596277151254
 21
193.5819338348101
 31
0.0
  0
LINE
  5
855FD
330
1F
100
AcDbEntity
  8
11000_Left
  6
Continuous
 62
     7
370
    50
100
AcDbLine
 10
250.396177151254
 20
194.5319338348101
 30
0.0
 11
250.396177151254
 21
193.5819338348101
 31
0.0
  0
LINE
  5
855FE
330
1F
100
AcDbEntity
  8
11000_Left
  6
Continuous
 62
     7
370
    13
100
AcDbLine
 10
250.0961771512541
 20
193.5819338348101
 30
0.0
 11
250.095417151254
 21
193.5832538348101
 31
0.0
  0
LINE
  5
85604
330
1F
100
AcDbEntity
  8
11000_Left
  6
Continuous
 62
     7
370
    50
100
AcDbLine
 10
250.296177151254
 20
193.4319338348101
 30
0.0
 11
250.1892671512541
 21
193.5319338348101
 31
0.0
  0
ARC
  5
85605
330
1F
100
AcDbEntity
  8
11000_Left
  6
Continuous
 62
     7
370
    50
100
AcDbCircle
 10
250.1892671512541
 20
193.6319338348101
 30
0.0
 40
0.1
100
AcDbArc
 50
209.5747900000002
 51
270.0
  0
LINE
  5
85606
330
1F
100
AcDbEntity
  8
11000_Left
  6
Continuous
 62
     7
370
    13
100
AcDbLine
 10
249.596277151254
 20
193.5819338348101
 30
0.0
 11
249.596277151254
 21
194.5229338348101
 31
0.0
  0
LINE
  5
85607
330
1F
100
AcDbEntity
  8
11000_Left
  6
Continuous
 62
     7
370
    13
100
AcDbLine
 10
249.296177151254
 20
193.4519338348101
 30
0.0
 11
249.296177151254
 21
193.5819338348101
 31
0.0
  0
LINE
  5
8560A
330
1F
100
AcDbEntity
  8
11000_Left
  6
Continuous
 62
     7
370
    13
100
AcDbLine
 10
249.596277151254
 20
194.5229338348101
 30
0.0
 11
250.396127151254
 21
194.5319338348101
 31
0.0
  0
LINE
  5
8560B
330
1F
100
AcDbEntity
  8
11000_Left
  6
Continuous
 62
     7
370
    50
100
AcDbLine
 10
250.095417151254
 20
193.5832538348101
 30
0.0
 11
250.396177151254
 21
193.5819338348101
 31
0.0
  0
LINE
  5
8562D
330
1F
100
AcDbEntity
  8
11000_Left
  6
Continuous
 62
     7
370
    13
100
AcDbLine
 10
247.896177151254
 20
209.0319338348101
 30
0.0
 11
247.896177151254
 21
208.2319338348101
 31
0.0
  0
ARC
  5
8566B
330
1F
100
AcDbEntity
  8
11000_Left
  6
Continuous
 62
     7
370
    50
100
AcDbCircle
 10
248.8136371512541
 20
208.2319338348101
 30
0.0
 40
0.8
100
AcDbArc
 50
5.242166000000006
 51
90.0
  0
ARC
  5
856A9
330
1F
100
AcDbEntity
  8
11000_Left
  6
Continuous
 62
     7
370
    13
100
AcDbCircle
 10
247.896177151254
 20
207.5319338348101
 30
0.0
 40
0.5
100
AcDbArc
 50
337.380109
 51
90.00002999999976
  0
LINE
  5
856AB
330
1F
100
AcDbEntity
  8
11000_Left
  6
Continuous
 62
     7
370
    13
100
AcDbLine
 10
248.357717151254
 20
207.3396338348101
 30
0.0
 11
247.896177151254
 21
206.2319338348101
 31
0.0
  0
LINE
  5
856EA
330
1F
100
AcDbEntity
  8
11000_Left
  6
Continuous
 62
     7
370
    50
100
AcDbLine
 10
247.896177151254
 20
209.0319338348101
 30
0.0
 11
248.813637151254
 21
209.0319338348101
 31
0.0
  0
ARC
  5
85717
330
1F
100
AcDbEntity
  8
10000_Front
 62
     7
370
    13
100
AcDbCircle
 10
117.0885374491035
 20
204.0672072057584
 30
0.0
 40
2.259807594969755
100
AcDbArc
 50
13.51415896477571
 51
167.113038774112
  0
ARC
  5
85718
330
1F
100
AcDbEntity
  8
10000_Front
 62
     7
370
    13
100
AcDbCircle
 10
117.0856802708202
 20
202.8370519147988
 30
0.0
 40
2.264967301530224
100
AcDbArc
 50
193.741132010281
 51
346.2161593045671
  0
ARC
  5
8571C
330
1F
100
AcDbEntity
  8
10000_Front
 62
     7
370
    13
100
AcDbCircle
 10
121.5858683961326
 20
204.0274358506169
 30
0.0
 40
2.272186449782009
100
AcDbArc
 50
14.50205428315249
 51
165.5279737853811
  0
ARC
  5
8571D
330
1F
100
AcDbEntity
  8
10000_Front
 62
     7
370
    13
100
AcDbCircle
 10
121.5855602354209
 20
202.8520917026951
 30
0.0
 40
2.268985689333504
100
AcDbArc
 50
194.1505395569302
 51
345.8329868791956
  0
LINE
  5
85720
330
1F
100
AcDbEntity
  8
10000_Front
 62
     7
370
    13
100
AcDbLine
 10
119.3857789468705
 20
204.5952718109245
 30
0.0
 11
119.3854229468704
 21
202.2973918109245
 31
0.0
  0
LINE
  5
85721
330
1F
100
AcDbEntity
  8
10000_Front
 62
     7
370
    13
100
AcDbLine
 10
119.2857759468705
 20
204.5952918109245
 30
0.0
 11
119.2854199468704
 21
202.2974018109245
 31
0.0
  0
ARC
  5
85722
330
1F
100
AcDbEntity
  8
10000_Front
 62
     7
370
    13
100
AcDbCircle
 10
132.5855582354209
 20
202.8520917026951
 30
0.0
 40
2.268985689333504
100
AcDbArc
 50
194.1505395569302
 51
345.8329868791956
  0
ARC
  5
85723
330
1F
100
AcDbEntity
  8
10000_Front
 62
     7
370
    13
100
AcDbCircle
 10
132.5858663961326
 20
204.0274358506169
 30
0.0
 40
2.272186449782009
100
AcDbArc
 50
14.50205428315249
 51
165.5279737853811
  0
LINE
  5
85724
330
1F
100
AcDbEntity
  8
10000_Front
 62
     7
370
    13
100
AcDbLine
 10
130.2857739468705
 20
204.5952918109245
 30
0.0
 11
130.2854179468704
 21
202.2974018109245
 31
0.0
  0
LINE
  5
85726
330
1F
100
AcDbEntity
  8
10000_Front
  6
Continuous
 62
     7
370
    13
100
AcDbLine
 10
125.8855369468704
 20
202.2990416624339
 30
0.0
 11
125.8856479468704
 21
204.5712082164601
 31
0.0
  0
ARC
  5
85727
330
1F
100
AcDbEntity
  8
10000_Front
 62
     7
370
    13
100
AcDbCircle
 10
128.0856782708202
 20
202.8370519147988
 30
0.0
 40
2.264967301530224
100
AcDbArc
 50
193.741132010281
 51
346.2161593045671
  0
ARC
  5
85728
330
1F
100
AcDbEntity
  8
10000_Front
 62
     7
370
    13
100
AcDbCircle
 10
128.0885354491035
 20
204.0672072057585
 30
0.0
 40
2.259807594969755
100
AcDbArc
 50
13.51415896477571
 51
167.113038774112
  0
LINE
  5
85729
330
1F
100
AcDbEntity
  8
10000_Front
  6
Continuous
 62
     7
370
    13
100
AcDbLine
 10
134.7856579468705
 20
204.5964247748282
 30
0.0
 11
134.7855359468705
 21
202.2967592549438
 31
0.0
  0
LINE
  5
8572A
330
1F
100
AcDbEntity
  8
10000_Front
 62
     7
370
    13
100
AcDbLine
 10
130.3857769468705
 20
204.5952718109245
 30
0.0
 11
130.3854209468705
 21
202.2973918109246
 31
0.0
  0
ARC
  5
8572B
330
1F
100
AcDbEntity
  8
10000_Front
 62
     7
370
    13
100
AcDbCircle
 10
143.5858643961326
 20
204.0274358506169
 30
0.0
 40
2.272186449782009
100
AcDbArc
 50
14.50205428315249
 51
165.5279737853811
  0
ARC
  5
8572C
330
1F
100
AcDbEntity
  8
10000_Front
 62
     7
370
    13
100
AcDbCircle
 10
143.5855562354209
 20
202.8520917026951
 30
0.0
 40
2.268985689333504
100
AcDbArc
 50
194.1505395569302
 51
345.8329868791956
  0
LINE
  5
8572D
330
1F
100
AcDbEntity
  8
10000_Front
 62
     7
370
    13
100
AcDbLine
 10
141.3857749468705
 20
204.5952718109245
 30
0.0
 11
141.3854189468705
 21
202.2973918109246
 31
0.0
  0
LINE
  5
8572E
330
1F
100
AcDbEntity
  8
10000_Front
  6
Continuous
 62
     7
370
    13
100
AcDbLine
 10
136.8855349468705
 20
202.2990416624339
 30
0.0
 11
136.8856459468705
 21
204.5712082164601
 31
0.0
  0
LINE
  5
8572F
330
1F
100
AcDbEntity
  8
10000_Front
 62
     7
370
    13
100
AcDbLine
 10
141.2857719468705
 20
204.5952918109245
 30
0.0
 11
141.2854159468705
 21
202.2974018109245
 31
0.0
  0
ARC
  5
85730
330
1F
100
AcDbEntity
  8
10000_Front
 62
     7
370
    13
100
AcDbCircle
 10
139.0856762708202
 20
202.8370519147988
 30
0.0
 40
2.264967301530224
100
AcDbArc
 50
193.741132010281
 51
346.2161593045671
  0
ARC
  5
85731
330
1F
100
AcDbEntity
  8
10000_Front
 62
     7
370
    13
100
AcDbCircle
 10
139.0885334491035
 20
204.0672072057585
 30
0.0
 40
2.259807594969755
100
AcDbArc
 50
13.51415896477571
 51
167.113038774112
  0
LINE
  5
85732
330
1F
100
AcDbEntity
  8
10000_Front
  6
Continuous
 62
     7
370
    13
100
AcDbLine
 10
145.7856559468705
 20
204.5964247748282
 30
0.0
 11
145.7855339468705
 21
202.2967592549438
 31
0.0
  0
ARC
  5
85733
330
1F
100
AcDbEntity
  8
10000_Front
 62
     7
370
    13
100
AcDbCircle
 10
150.0885304491035
 20
204.0672072057585
 30
0.0
 40
2.259807594969755
100
AcDbArc
 50
13.51415896477571
 51
167.113038774112
  0
ARC
  5
85734
330
1F
100
AcDbEntity
  8
10000_Front
 62
     7
370
    13
100
AcDbCircle
 10
150.0856732708202
 20
202.8370519147988
 30
0.0
 40
2.264967301530224
100
AcDbArc
 50
193.741132010281
 51
346.2161593045671
  0
LINE
  5
85735
330
1F
100
AcDbEntity
  8
10000_Front
  6
Continuous
 62
     7
370
    13
100
AcDbLine
 10
147.8855319468705
 20
202.2990416624339
 30
0.0
 11
147.8856429468705
 21
204.5712082164601
 31
0.0
  0
LINE
  5
85736
330
1F
100
AcDbEntity
  8
10000_Front
  6
Continuous
 62
     7
370
    13
100
AcDbLine
 10
156.7856529468705
 20
204.5964247748282
 30
0.0
 11
156.7855309468705
 21
202.2967592549438
 31
0.0
  0
LINE
  5
85737
330
1F
100
AcDbEntity
  8
10000_Front
 62
     7
370
    13
100
AcDbLine
 10
152.2857689468705
 20
204.5952918109245
 30
0.0
 11
152.2854129468704
 21
202.2974018109245
 31
0.0
  0
LINE
  5
85738
330
1F
100
AcDbEntity
  8
10000_Front
 62
     7
370
    13
100
AcDbLine
 10
152.3857719468705
 20
204.5952718109245
 30
0.0
 11
152.3854159468705
 21
202.2973918109246
 31
0.0
  0
POLYLINE
  5
85739
330
1F
100
AcDbEntity
  8
10000_Front
  6
Continuous
 62
     7
370
    13
100
AcDb2dPolyline
 66
     1
 10
0.0
 20
0.0
 30
0.0
 70
     2
  0
VERTEX
  5
8573A
330
85739
100
AcDbEntity
  8
10000_Front
  6
Continuous
 62
     7
370
    13
100
AcDbVertex
100
AcDb2dVertex
 10
152.3854159468705
 20
202.2973918109245
 30
0.0
  0
VERTEX
  5
8573B
330
85739
100
AcDbEntity
  8
10000_Front
  6
Continuous
 62
     7
370
    13
100
AcDbVertex
100
AcDb2dVertex
 10
152.3854469468705
 20
202.3548618109245
 30
0.0
 42
0.0000091633
 70
     1
  0
VERTEX
  5
8573C
330
85739
100
AcDbEntity
  8
10000_Front
  6
Continuous
 62
     7
370
    13
100
AcDbVertex
100
AcDb2dVertex
 10
152.3854749468705
 20
202.4123318109245
 30
0.0
 42
0.0000093314
  0
VERTEX
  5
8573D
330
85739
100
AcDbEntity
  8
10000_Front
  6
Continuous
 62
     7
370
    13
100
AcDbVertex
100
AcDb2dVertex
 10
152.3855019468705
 20
202.4697918109245
 30
0.0
 42
0.0000091681
 70
     1
  0
VERTEX
  5
8573E
330
85739
100
AcDbEntity
  8
10000_Front
  6
Continuous
 62
     7
370
    13
100
AcDbVertex
100
AcDb2dVertex
 10
152.3855259468705
 20
202.5272618109245
 30
0.0
 42
0.0000086318
  0
VERTEX
  5
8573F
330
85739
100
AcDbEntity
  8
10000_Front
  6
Continuous
 62
     7
370
    13
100
AcDbVertex
100
AcDb2dVertex
 10
152.3855489468705
 20
202.5847218109245
 30
0.0
 42
0.0000082353
 70
     1
  0
VERTEX
  5
85740
330
85739
100
AcDbEntity
  8
10000_Front
  6
Continuous
 62
     7
370
    13
100
AcDbVertex
100
AcDb2dVertex
 10
152.3855689468705
 20
202.6421818109245
 30
0.0
 42
0.0000078774
  0
VERTEX
  5
85741
330
85739
100
AcDbEntity
  8
10000_Front
  6
Continuous
 62
     7
370
    13
100
AcDbVertex
100
AcDb2dVertex
 10
152.3855879468705
 20
202.6996418109245
 30
0.0
 42
0.00000754
 70
     1
  0
VERTEX
  5
85742
330
85739
100
AcDbEntity
  8
10000_Front
  6
Continuous
 62
     7
370
    13
100
AcDbVertex
100
AcDb2dVertex
 10
152.3856049468705
 20
202.7571018109245
 30
0.0
 42
0.0000071369
  0
VERTEX
  5
85743
330
85739
100
AcDbEntity
  8
10000_Front
  6
Continuous
 62
     7
370
    13
100
AcDbVertex
100
AcDb2dVertex
 10
152.3856209468705
 20
202.8145618109245
 30
0.0
 42
0.0000067843
 70
     1
  0
VERTEX
  5
85744
330
85739
100
AcDbEntity
  8
10000_Front
  6
Continuous
 62
     7
370
    13
100
AcDbVertex
100
AcDb2dVertex
 10
152.3856339468705
 20
202.8720218109245
 30
0.0
 42
0.0000063927
  0
VERTEX
  5
85745
330
85739
100
AcDbEntity
  8
10000_Front
  6
Continuous
 62
     7
370
    13
100
AcDbVertex
100
AcDb2dVertex
 10
152.3856469468705
 20
202.9294818109245
 30
0.0
 42
0.000006044
 70
     1
  0
VERTEX
  5
85746
330
85739
100
AcDbEntity
  8
10000_Front
  6
Continuous
 62
     7
370
    13
100
AcDbVertex
100
AcDb2dVertex
 10
152.3856579468705
 20
202.9869418109245
 30
0.0
 42
0.0000056493
  0
VERTEX
  5
85747
330
85739
100
AcDbEntity
  8
10000_Front
  6
Continuous
 62
     7
370
    13
100
AcDbVertex
100
AcDb2dVertex
 10
152.3856679468705
 20
203.0443918109245
 30
0.0
 42
0.0000052997
 70
     1
  0
VERTEX
  5
85748
330
85739
100
AcDbEntity
  8
10000_Front
  6
Continuous
 62
     7
370
    13
100
AcDbVertex
100
AcDb2dVertex
 10
152.3856769468705
 20
203.1018518109245
 30
0.0
 42
0.0000049057
  0
VERTEX
  5
85749
330
85739
100
AcDbEntity
  8
10000_Front
  6
Continuous
 62
     7
370
    13
100
AcDbVertex
100
AcDb2dVertex
 10
152.3856839468705
 20
203.1593018109245
 30
0.0
 42
0.0000045561
 70
     1
  0
VERTEX
  5
8574A
330
85739
100
AcDbEntity
  8
10000_Front
  6
Continuous
 62
     7
370
    13
100
AcDbVertex
100
AcDb2dVertex
 10
152.3856909468705
 20
203.2167518109245
 30
0.0
 42
0.000004162
  0
VERTEX
  5
8574B
330
85739
100
AcDbEntity
  8
10000_Front
  6
Continuous
 62
     7
370
    13
100
AcDbVertex
100
AcDb2dVertex
 10
152.3856969468705
 20
203.2742018109245
 30
0.0
 42
0.0000038124
 70
     1
  0
VERTEX
  5
8574C
330
85739
100
AcDbEntity
  8
10000_Front
  6
Continuous
 62
     7
370
    13
100
AcDbVertex
100
AcDb2dVertex
 10
152.3857019468705
 20
203.3316518109245
 30
0.0
 42
0.0000034182
  0
VERTEX
  5
8574D
330
85739
100
AcDbEntity
  8
10000_Front
  6
Continuous
 62
     7
370
    13
100
AcDbVertex
100
AcDb2dVertex
 10
152.3857059468705
 20
203.3891018109245
 30
0.0
 42
0.0000030687
 70
     1
  0
VERTEX
  5
8574E
330
85739
100
AcDbEntity
  8
10000_Front
  6
Continuous
 62
     7
370
    13
100
AcDbVertex
100
AcDb2dVertex
 10
152.3857089468705
 20
203.4465518109245
 30
0.0
 42
0.0000026742
  0
VERTEX
  5
8574F
330
85739
100
AcDbEntity
  8
10000_Front
  6
Continuous
 62
     7
370
    13
100
AcDbVertex
100
AcDb2dVertex
 10
152.3857119468705
 20
203.5040018109245
 30
0.0
 42
0.0000023248
 70
     1
  0
VERTEX
  5
85750
330
85739
100
AcDbEntity
  8
10000_Front
  6
Continuous
 62
     7
370
    13
100
AcDbVertex
100
AcDb2dVertex
 10
152.3857149468705
 20
203.5614418109245
 30
0.0
 42
0.0000019312
  0
VERTEX
  5
85751
330
85739
100
AcDbEntity
  8
10000_Front
  6
Continuous
 62
     7
370
    13
100
AcDbVertex
100
AcDb2dVertex
 10
152.3857169468705
 20
203.6188918109245
 30
0.0
 42
0.0000015807
 70
     1
  0
VERTEX
  5
85752
330
85739
100
AcDbEntity
  8
10000_Front
  6
Continuous
 62
     7
370
    13
100
AcDbVertex
100
AcDb2dVertex
 10
152.3857179468705
 20
203.6763318109245
 30
0.0
 42
0.000001183
  0
VERTEX
  5
85753
330
85739
100
AcDbEntity
  8
10000_Front
  6
Continuous
 62
     7
370
    13
100
AcDbVertex
100
AcDb2dVertex
 10
152.3857199468705
 20
203.7337818109245
 30
0.0
 42
0.0000008374
 70
     1
  0
VERTEX
  5
85754
330
85739
100
AcDbEntity
  8
10000_Front
  6
Continuous
 62
     7
370
    13
100
AcDbVertex
100
AcDb2dVertex
 10
152.3857209468705
 20
203.7912218109245
 30
0.0
 42
0.0000004566
  0
VERTEX
  5
85755
330
85739
100
AcDbEntity
  8
10000_Front
  6
Continuous
 62
     7
370
    13
100
AcDbVertex
100
AcDb2dVertex
 10
152.3857219468705
 20
203.8486318109245
 30
0.0
 42
0.0000000893
 70
     1
  0
VERTEX
  5
85756
330
85739
100
AcDbEntity
  8
10000_Front
  6
Continuous
 62
     7
370
    13
100
AcDbVertex
100
AcDb2dVertex
 10
152.3857229468705
 20
203.9060918109245
 30
0.0
 42
-0.0000003577
  0
VERTEX
  5
85757
330
85739
100
AcDbEntity
  8
10000_Front
  6
Continuous
 62
     7
370
    13
100
AcDbVertex
100
AcDb2dVertex
 10
152.3857249468705
 20
203.9636518109245
 30
0.0
 42
-0.0000006377
 70
     1
  0
VERTEX
  5
85758
330
85739
100
AcDbEntity
  8
10000_Front
  6
Continuous
 62
     7
370
    13
100
AcDbVertex
100
AcDb2dVertex
 10
152.3857259468705
 20
204.0209718109245
 30
0.0
 42
-0.0000008364
  0
VERTEX
  5
85759
330
85739
100
AcDbEntity
  8
10000_Front
  6
Continuous
 62
     7
370
    13
100
AcDbVertex
100
AcDb2dVertex
 10
152.3857279468705
 20
204.0779518109245
 30
0.0
 42
-0.0000014542
 70
     1
  0
VERTEX
  5
8575A
330
85739
100
AcDbEntity
  8
10000_Front
  6
Continuous
 62
     7
370
    13
100
AcDbVertex
100
AcDb2dVertex
 10
152.3857299468705
 20
204.1358418109245
 30
0.0
 42
-0.0000025104
  0
VERTEX
  5
8575B
330
85739
100
AcDbEntity
  8
10000_Front
  6
Continuous
 62
     7
370
    13
100
AcDbVertex
100
AcDb2dVertex
 10
152.3857329468705
 20
204.1950818109245
 30
0.0
 42
-0.000001927
 70
     1
  0
VERTEX
  5
8575C
330
85739
100
AcDbEntity
  8
10000_Front
  6
Continuous
 62
     7
370
    13
100
AcDbVertex
100
AcDb2dVertex
 10
152.3857359468705
 20
204.2507118109245
 30
0.0
 42
-0.0000000367
  0
VERTEX
  5
8575D
330
85739
100
AcDbEntity
  8
10000_Front
  6
Continuous
 62
     7
370
    13
100
AcDbVertex
100
AcDb2dVertex
 10
152.3857389468705
 20
204.3009918109245
 30
0.0
 42
-0.0000039208
 70
     1
  0
VERTEX
  5
8575E
330
85739
100
AcDbEntity
  8
10000_Front
  6
Continuous
 62
     7
370
    13
100
AcDbVertex
100
AcDb2dVertex
 10
152.3857449468705
 20
204.3655718109245
 30
0.0
 42
-0.0000083697
  0
VERTEX
  5
8575F
330
85739
100
AcDbEntity
  8
10000_Front
  6
Continuous
 62
     7
370
    13
100
AcDbVertex
100
AcDb2dVertex
 10
152.3857559468705
 20
204.4650318109245
 30
0.0
 42
-0.000004193
 70
     1
  0
VERTEX
  5
85760
330
85739
100
AcDbEntity
  8
10000_Front
  6
Continuous
 62
     7
370
    13
100
AcDbVertex
100
AcDb2dVertex
 10
152.3857719468705
 20
204.5952718109245
 30
0.0
 42
-0.0000021357
  0
SEQEND
  5
85761
330
85739
100
AcDbEntity
  8
10000_Front
  6
Continuous
 62
     7
370
    13
  0
ARC
  5
85762
330
1F
100
AcDbEntity
  8
10000_Front
 62
     7
370
    13
100
AcDbCircle
 10
154.5855532354209
 20
202.8520917026951
 30
0.0
 40
2.268985689333504
100
AcDbArc
 50
194.1505395569302
 51
345.8329868791956
  0
ARC
  5
85763
330
1F
100
AcDbEntity
  8
10000_Front
 62
     7
370
    13
100
AcDbCircle
 10
154.5858613961326
 20
204.0274358506169
 30
0.0
 40
2.272186449782009
100
AcDbArc
 50
14.50205428315249
 51
165.5279737853811
  0
ARC
  5
85764
330
1F
100
AcDbEntity
  8
10000_Front
 62
     7
370
    13
100
AcDbCircle
 10
154.5817623961326
 20
177.4141558506168
 30
0.0
 40
2.272186449782009
100
AcDbArc
 50
14.50205428315249
 51
165.5279737853811
  0
ARC
  5
85765
330
1F
100
AcDbEntity
  8
10000_Front
 62
     7
370
    13
100
AcDbCircle
 10
154.5814542354209
 20
176.238811702695
 30
0.0
 40
2.268985689333504
100
AcDbArc
 50
194.1505395569302
 51
345.8329868791956
  0
ARC
  5
85766
330
1F
100
AcDbEntity
  8
10000_Front
 62
     7
370
    13
100
AcDbCircle
 10
121.5814612354209
 20
176.238811702695
 30
0.0
 40
2.268985689333504
100
AcDbArc
 50
194.1505395569302
 51
345.8329868791956
  0
ARC
  5
85767
330
1F
100
AcDbEntity
  8
10000_Front
 62
     7
370
    13
100
AcDbCircle
 10
121.5817693961326
 20
177.4141558506168
 30
0.0
 40
2.272186449782009
100
AcDbArc
 50
14.50205428315249
 51
165.5279737853811
  0
LINE
  5
85768
330
1F
100
AcDbEntity
  8
10000_Front
 62
     7
370
    13
100
AcDbLine
 10
119.2816769468705
 20
177.9820118109244
 30
0.0
 11
119.2813209468704
 21
175.6841218109244
 31
0.0
  0
LINE
  5
85769
330
1F
100
AcDbEntity
  8
10000_Front
 62
     7
370
    13
100
AcDbLine
 10
119.3816799468705
 20
177.9819918109244
 30
0.0
 11
119.3813239468704
 21
175.6841118109244
 31
0.0
  0
LINE
  5
8576A
330
1F
100
AcDbEntity
  8
10000_Front
  6
Continuous
 62
     7
370
    13
100
AcDbLine
 10
114.8814399468704
 20
175.6857616624339
 30
0.0
 11
114.8815509468704
 21
177.95792821646
 31
0.0
  0
ARC
  5
8576B
330
1F
100
AcDbEntity
  8
10000_Front
 62
     7
370
    13
100
AcDbCircle
 10
117.0815812708202
 20
176.2237719147987
 30
0.0
 40
2.264967301530224
100
AcDbArc
 50
193.741132010281
 51
346.2161593045671
  0
ARC
  5
8576C
330
1F
100
AcDbEntity
  8
10000_Front
 62
     7
370
    13
100
AcDbCircle
 10
117.0844384491035
 20
177.4539272057583
 30
0.0
 40
2.259807594969755
100
AcDbArc
 50
13.51415896477571
 51
167.113038774112
  0
ARC
  5
8576D
330
1F
100
AcDbEntity
  8
10000_Front
 62
     7
370
    13
100
AcDbCircle
 10
139.0844344491035
 20
177.4539272057584
 30
0.0
 40
2.259807594969755
100
AcDbArc
 50
13.51415896477571
 51
167.113038774112
  0
ARC
  5
8576E
330
1F
100
AcDbEntity
  8
10000_Front
 62
     7
370
    13
100
AcDbCircle
 10
139.0815772708202
 20
176.2237719147987
 30
0.0
 40
2.264967301530224
100
AcDbArc
 50
193.741132010281
 51
346.2161593045671
  0
ARC
  5
8576F
330
1F
100
AcDbEntity
  8
10000_Front
 62
     7
370
    13
100
AcDbCircle
 10
132.5817673961326
 20
177.4141558506168
 30
0.0
 40
2.272186449782009
100
AcDbArc
 50
14.50205428315249
 51
165.5279737853811
  0
ARC
  5
85770
330
1F
100
AcDbEntity
  8
10000_Front
 62
     7
370
    13
100
AcDbCircle
 10
132.5814592354209
 20
176.238811702695
 30
0.0
 40
2.268985689333504
100
AcDbArc
 50
194.1505395569302
 51
345.8329868791956
  0
LINE
  5
85771
330
1F
100
AcDbEntity
  8
10000_Front
 62
     7
370
    13
100
AcDbLine
 10
130.3816779468705
 20
177.9819918109244
 30
0.0
 11
130.3813219468705
 21
175.6841118109245
 31
0.0
  0
LINE
  5
85772
330
1F
100
AcDbEntity
  8
10000_Front
  6
Continuous
 62
     7
370
    13
100
AcDbLine
 10
125.8814379468705
 20
175.6857616624339
 30
0.0
 11
125.8815489468704
 21
177.9579282164601
 31
0.0
  0
LINE
  5
85773
330
1F
100
AcDbEntity
  8
10000_Front
 62
     7
370
    13
100
AcDbLine
 10
130.2816749468705
 20
177.9820118109245
 30
0.0
 11
130.2813189468704
 21
175.6841218109244
 31
0.0
  0
LINE
  5
85774
330
1F
100
AcDbEntity
  8
10000_Front
  6
Continuous
 62
     7
370
    13
100
AcDbLine
 10
123.7815609468704
 20
177.9831447748281
 30
0.0
 11
123.7814389468705
 21
175.6834792549437
 31
0.0
  0
ARC
  5
85775
330
1F
100
AcDbEntity
  8
10000_Front
 62
     7
370
    13
100
AcDbCircle
 10
128.0815792708202
 20
176.2237719147987
 30
0.0
 40
2.264967301530224
100
AcDbArc
 50
193.741132010281
 51
346.2161593045671
  0
ARC
  5
85776
330
1F
100
AcDbEntity
  8
10000_Front
 62
     7
370
    13
100
AcDbCircle
 10
128.0844364491035
 20
177.4539272057584
 30
0.0
 40
2.259807594969755
100
AcDbArc
 50
13.51415896477571
 51
167.113038774112
  0
LINE
  5
85777
330
1F
100
AcDbEntity
  8
10000_Front
  6
Continuous
 62
     7
370
    13
100
AcDbLine
 10
136.8814359468705
 20
175.6857616624339
 30
0.0
 11
136.8815469468705
 21
177.9579282164601
 31
0.0
  0
LINE
  5
85778
330
1F
100
AcDbEntity
  8
10000_Front
  6
Continuous
 62
     7
370
    13
100
AcDbLine
 10
134.7815589468705
 20
177.9831447748282
 30
0.0
 11
134.7814369468705
 21
175.6834792549437
 31
0.0
  0
LINE
  5
85779
330
1F
100
AcDbEntity
  8
10000_Front
  6
Continuous
 62
     7
370
    13
100
AcDbLine
 10
145.7815569468705
 20
177.9831447748282
 30
0.0
 11
145.7814349468705
 21
175.6834792549437
 31
0.0
  0
LINE
  5
8577A
330
1F
100
AcDbEntity
  8
10000_Front
 62
     7
370
    13
100
AcDbLine
 10
141.2816729468705
 20
177.9820118109245
 30
0.0
 11
141.2813169468705
 21
175.6841218109244
 31
0.0
  0
LINE
  5
8577B
330
1F
100
AcDbEntity
  8
10000_Front
 62
     7
370
    13
100
AcDbLine
 10
141.3816759468705
 20
177.9819918109244
 30
0.0
 11
141.3813199468705
 21
175.6841118109245
 31
0.0
  0
POLYLINE
  5
8577C
330
1F
100
AcDbEntity
  8
10000_Front
  6
Continuous
 62
     7
370
    13
100
AcDb2dPolyline
 66
     1
 10
0.0
 20
0.0
 30
0.0
 70
     2
  0
VERTEX
  5
8577D
330
8577C
100
AcDbEntity
  8
10000_Front
  6
Continuous
 62
     7
370
    13
100
AcDbVertex
100
AcDb2dVertex
 10
141.3813199468705
 20
175.6841118109244
 30
0.0
  0
VERTEX
  5
8577E
330
8577C
100
AcDbEntity
  8
10000_Front
  6
Continuous
 62
     7
370
    13
100
AcDbVertex
100
AcDb2dVertex
 10
141.3813509468705
 20
175.7415818109244
 30
0.0
 42
0.0000091633
 70
     1
  0
VERTEX
  5
8577F
330
8577C
100
AcDbEntity
  8
10000_Front
  6
Continuous
 62
     7
370
    13
100
AcDbVertex
100
AcDb2dVertex
 10
141.3813789468705
 20
175.7990518109244
 30
0.0
 42
0.0000093314
  0
VERTEX
  5
85780
330
8577C
100
AcDbEntity
  8
10000_Front
  6
Continuous
 62
     7
370
    13
100
AcDbVertex
100
AcDb2dVertex
 10
141.3814059468705
 20
175.8565118109244
 30
0.0
 42
0.0000091681
 70
     1
  0
VERTEX
  5
85781
330
8577C
100
AcDbEntity
  8
10000_Front
  6
Continuous
 62
     7
370
    13
100
AcDbVertex
100
AcDb2dVertex
 10
141.3814299468705
 20
175.9139818109245
 30
0.0
 42
0.0000086318
  0
VERTEX
  5
85782
330
8577C
100
AcDbEntity
  8
10000_Front
  6
Continuous
 62
     7
370
    13
100
AcDbVertex
100
AcDb2dVertex
 10
141.3814529468705
 20
175.9714418109244
 30
0.0
 42
0.0000082353
 70
     1
  0
VERTEX
  5
85783
330
8577C
100
AcDbEntity
  8
10000_Front
  6
Continuous
 62
     7
370
    13
100
AcDbVertex
100
AcDb2dVertex
 10
141.3814729468705
 20
176.0289018109244
 30
0.0
 42
0.0000078774
  0
VERTEX
  5
85784
330
8577C
100
AcDbEntity
  8
10000_Front
  6
Continuous
 62
     7
370
    13
100
AcDbVertex
100
AcDb2dVertex
 10
141.3814919468705
 20
176.0863618109244
 30
0.0
 42
0.00000754
 70
     1
  0
VERTEX
  5
85785
330
8577C
100
AcDbEntity
  8
10000_Front
  6
Continuous
 62
     7
370
    13
100
AcDbVertex
100
AcDb2dVertex
 10
141.3815089468705
 20
176.1438218109244
 30
0.0
 42
0.0000071369
  0
VERTEX
  5
85786
330
8577C
100
AcDbEntity
  8
10000_Front
  6
Continuous
 62
     7
370
    13
100
AcDbVertex
100
AcDb2dVertex
 10
141.3815249468705
 20
176.2012818109244
 30
0.0
 42
0.0000067843
 70
     1
  0
VERTEX
  5
85787
330
8577C
100
AcDbEntity
  8
10000_Front
  6
Continuous
 62
     7
370
    13
100
AcDbVertex
100
AcDb2dVertex
 10
141.3815379468705
 20
176.2587418109244
 30
0.0
 42
0.0000063927
  0
VERTEX
  5
85788
330
8577C
100
AcDbEntity
  8
10000_Front
  6
Continuous
 62
     7
370
    13
100
AcDbVertex
100
AcDb2dVertex
 10
141.3815509468705
 20
176.3162018109245
 30
0.0
 42
0.000006044
 70
     1
  0
VERTEX
  5
85789
330
8577C
100
AcDbEntity
  8
10000_Front
  6
Continuous
 62
     7
370
    13
100
AcDbVertex
100
AcDb2dVertex
 10
141.3815619468705
 20
176.3736618109244
 30
0.0
 42
0.0000056493
  0
VERTEX
  5
8578A
330
8577C
100
AcDbEntity
  8
10000_Front
  6
Continuous
 62
     7
370
    13
100
AcDbVertex
100
AcDb2dVertex
 10
141.3815719468705
 20
176.4311118109244
 30
0.0
 42
0.0000052997
 70
     1
  0
VERTEX
  5
8578B
330
8577C
100
AcDbEntity
  8
10000_Front
  6
Continuous
 62
     7
370
    13
100
AcDbVertex
100
AcDb2dVertex
 10
141.3815809468705
 20
176.4885718109244
 30
0.0
 42
0.0000049057
  0
VERTEX
  5
8578C
330
8577C
100
AcDbEntity
  8
10000_Front
  6
Continuous
 62
     7
370
    13
100
AcDbVertex
100
AcDb2dVertex
 10
141.3815879468705
 20
176.5460218109244
 30
0.0
 42
0.0000045561
 70
     1
  0
VERTEX
  5
8578D
330
8577C
100
AcDbEntity
  8
10000_Front
  6
Continuous
 62
     7
370
    13
100
AcDbVertex
100
AcDb2dVertex
 10
141.3815949468705
 20
176.6034718109244
 30
0.0
 42
0.000004162
  0
VERTEX
  5
8578E
330
8577C
100
AcDbEntity
  8
10000_Front
  6
Continuous
 62
     7
370
    13
100
AcDbVertex
100
AcDb2dVertex
 10
141.3816009468705
 20
176.6609218109245
 30
0.0
 42
0.0000038124
 70
     1
  0
VERTEX
  5
8578F
330
8577C
100
AcDbEntity
  8
10000_Front
  6
Continuous
 62
     7
370
    13
100
AcDbVertex
100
AcDb2dVertex
 10
141.3816059468705
 20
176.7183718109244
 30
0.0
 42
0.0000034182
  0
VERTEX
  5
85790
330
8577C
100
AcDbEntity
  8
10000_Front
  6
Continuous
 62
     7
370
    13
100
AcDbVertex
100
AcDb2dVertex
 10
141.3816099468705
 20
176.7758218109244
 30
0.0
 42
0.0000030687
 70
     1
  0
VERTEX
  5
85791
330
8577C
100
AcDbEntity
  8
10000_Front
  6
Continuous
 62
     7
370
    13
100
AcDbVertex
100
AcDb2dVertex
 10
141.3816129468705
 20
176.8332718109244
 30
0.0
 42
0.0000026742
  0
VERTEX
  5
85792
330
8577C
100
AcDbEntity
  8
10000_Front
  6
Continuous
 62
     7
370
    13
100
AcDbVertex
100
AcDb2dVertex
 10
141.3816159468705
 20
176.8907218109244
 30
0.0
 42
0.0000023248
 70
     1
  0
VERTEX
  5
85793
330
8577C
100
AcDbEntity
  8
10000_Front
  6
Continuous
 62
     7
370
    13
100
AcDbVertex
100
AcDb2dVertex
 10
141.3816189468705
 20
176.9481618109244
 30
0.0
 42
0.0000019312
  0
VERTEX
  5
85794
330
8577C
100
AcDbEntity
  8
10000_Front
  6
Continuous
 62
     7
370
    13
100
AcDbVertex
100
AcDb2dVertex
 10
141.3816209468705
 20
177.0056118109244
 30
0.0
 42
0.0000015807
 70
     1
  0
VERTEX
  5
85795
330
8577C
100
AcDbEntity
  8
10000_Front
  6
Continuous
 62
     7
370
    13
100
AcDbVertex
100
AcDb2dVertex
 10
141.3816219468705
 20
177.0630518109244
 30
0.0
 42
0.000001183
  0
VERTEX
  5
85796
330
8577C
100
AcDbEntity
  8
10000_Front
  6
Continuous
 62
     7
370
    13
100
AcDbVertex
100
AcDb2dVertex
 10
141.3816239468705
 20
177.1205018109244
 30
0.0
 42
0.0000008374
 70
     1
  0
VERTEX
  5
85797
330
8577C
100
AcDbEntity
  8
10000_Front
  6
Continuous
 62
     7
370
    13
100
AcDbVertex
100
AcDb2dVertex
 10
141.3816249468705
 20
177.1779418109244
 30
0.0
 42
0.0000004566
  0
VERTEX
  5
85798
330
8577C
100
AcDbEntity
  8
10000_Front
  6
Continuous
 62
     7
370
    13
100
AcDbVertex
100
AcDb2dVertex
 10
141.3816259468705
 20
177.2353518109244
 30
0.0
 42
0.0000000893
 70
     1
  0
VERTEX
  5
85799
330
8577C
100
AcDbEntity
  8
10000_Front
  6
Continuous
 62
     7
370
    13
100
AcDbVertex
100
AcDb2dVertex
 10
141.3816269468705
 20
177.2928118109244
 30
0.0
 42
-0.0000003577
  0
VERTEX
  5
8579A
330
8577C
100
AcDbEntity
  8
10000_Front
  6
Continuous
 62
     7
370
    13
100
AcDbVertex
100
AcDb2dVertex
 10
141.3816289468705
 20
177.3503718109244
 30
0.0
 42
-0.0000006377
 70
     1
  0
VERTEX
  5
8579B
330
8577C
100
AcDbEntity
  8
10000_Front
  6
Continuous
 62
     7
370
    13
100
AcDbVertex
100
AcDb2dVertex
 10
141.3816299468705
 20
177.4076918109244
 30
0.0
 42
-0.0000008364
  0
VERTEX
  5
8579C
330
8577C
100
AcDbEntity
  8
10000_Front
  6
Continuous
 62
     7
370
    13
100
AcDbVertex
100
AcDb2dVertex
 10
141.3816319468705
 20
177.4646718109244
 30
0.0
 42
-0.0000014542
 70
     1
  0
VERTEX
  5
8579D
330
8577C
100
AcDbEntity
  8
10000_Front
  6
Continuous
 62
     7
370
    13
100
AcDbVertex
100
AcDb2dVertex
 10
141.3816339468705
 20
177.5225618109244
 30
0.0
 42
-0.0000025104
  0
VERTEX
  5
8579E
330
8577C
100
AcDbEntity
  8
10000_Front
  6
Continuous
 62
     7
370
    13
100
AcDbVertex
100
AcDb2dVertex
 10
141.3816369468705
 20
177.5818018109244
 30
0.0
 42
-0.000001927
 70
     1
  0
VERTEX
  5
8579F
330
8577C
100
AcDbEntity
  8
10000_Front
  6
Continuous
 62
     7
370
    13
100
AcDbVertex
100
AcDb2dVertex
 10
141.3816399468705
 20
177.6374318109244
 30
0.0
 42
-0.0000000367
  0
VERTEX
  5
857A0
330
8577C
100
AcDbEntity
  8
10000_Front
  6
Continuous
 62
     7
370
    13
100
AcDbVertex
100
AcDb2dVertex
 10
141.3816429468705
 20
177.6877118109244
 30
0.0
 42
-0.0000039208
 70
     1
  0
VERTEX
  5
857A1
330
8577C
100
AcDbEntity
  8
10000_Front
  6
Continuous
 62
     7
370
    13
100
AcDbVertex
100
AcDb2dVertex
 10
141.3816489468705
 20
177.7522918109244
 30
0.0
 42
-0.0000083697
  0
VERTEX
  5
857A2
330
8577C
100
AcDbEntity
  8
10000_Front
  6
Continuous
 62
     7
370
    13
100
AcDbVertex
100
AcDb2dVertex
 10
141.3816599468705
 20
177.8517518109244
 30
0.0
 42
-0.000004193
 70
     1
  0
VERTEX
  5
857A3
330
8577C
100
AcDbEntity
  8
10000_Front
  6
Continuous
 62
     7
370
    13
100
AcDbVertex
100
AcDb2dVertex
 10
141.3816759468705
 20
177.9819918109244
 30
0.0
 42
-0.0000021357
  0
SEQEND
  5
857A4
330
8577C
100
AcDbEntity
  8
10000_Front
  6
Continuous
 62
     7
370
    13
  0
ARC
  5
857A5
330
1F
100
AcDbEntity
  8
10000_Front
 62
     7
370
    13
100
AcDbCircle
 10
143.5814572354209
 20
176.238811702695
 30
0.0
 40
2.268985689333504
100
AcDbArc
 50
194.1505395569302
 51
345.8329868791956
  0
ARC
  5
857A6
330
1F
100
AcDbEntity
  8
10000_Front
 62
     7
370
    13
100
AcDbCircle
 10
143.5817653961326
 20
177.4141558506168
 30
0.0
 40
2.272186449782009
100
AcDbArc
 50
14.50205428315249
 51
165.5279737853811
  0
POLYLINE
  5
857A7
330
1F
100
AcDbEntity
  8
10000_Front
  6
Continuous
 62
     7
370
    13
100
AcDb2dPolyline
 66
     1
 10
0.0
 20
0.0
 30
0.0
 70
     2
  0
VERTEX
  5
857A8
330
857A7
100
AcDbEntity
  8
10000_Front
  6
Continuous
 62
     7
370
    13
100
AcDbVertex
100
AcDb2dVertex
 10
152.3813169468705
 20
175.6841118109244
 30
0.0
  0
VERTEX
  5
857A9
330
857A7
100
AcDbEntity
  8
10000_Front
  6
Continuous
 62
     7
370
    13
100
AcDbVertex
100
AcDb2dVertex
 10
152.3813479468705
 20
175.7415818109244
 30
0.0
 42
0.0000091633
 70
     1
  0
VERTEX
  5
857AA
330
857A7
100
AcDbEntity
  8
10000_Front
  6
Continuous
 62
     7
370
    13
100
AcDbVertex
100
AcDb2dVertex
 10
152.3813759468705
 20
175.7990518109244
 30
0.0
 42
0.0000093314
  0
VERTEX
  5
857AB
330
857A7
100
AcDbEntity
  8
10000_Front
  6
Continuous
 62
     7
370
    13
100
AcDbVertex
100
AcDb2dVertex
 10
152.3814029468705
 20
175.8565118109244
 30
0.0
 42
0.0000091681
 70
     1
  0
VERTEX
  5
857AC
330
857A7
100
AcDbEntity
  8
10000_Front
  6
Continuous
 62
     7
370
    13
100
AcDbVertex
100
AcDb2dVertex
 10
152.3814269468705
 20
175.9139818109245
 30
0.0
 42
0.0000086318
  0
VERTEX
  5
857AD
330
857A7
100
AcDbEntity
  8
10000_Front
  6
Continuous
 62
     7
370
    13
100
AcDbVertex
100
AcDb2dVertex
 10
152.3814499468705
 20
175.9714418109244
 30
0.0
 42
0.0000082353
 70
     1
  0
VERTEX
  5
857AE
330
857A7
100
AcDbEntity
  8
10000_Front
  6
Continuous
 62
     7
370
    13
100
AcDbVertex
100
AcDb2dVertex
 10
152.3814699468705
 20
176.0289018109244
 30
0.0
 42
0.0000078774
  0
VERTEX
  5
857AF
330
857A7
100
AcDbEntity
  8
10000_Front
  6
Continuous
 62
     7
370
    13
100
AcDbVertex
100
AcDb2dVertex
 10
152.3814889468705
 20
176.0863618109244
 30
0.0
 42
0.00000754
 70
     1
  0
VERTEX
  5
857B0
330
857A7
100
AcDbEntity
  8
10000_Front
  6
Continuous
 62
     7
370
    13
100
AcDbVertex
100
AcDb2dVertex
 10
152.3815059468705
 20
176.1438218109244
 30
0.0
 42
0.0000071369
  0
VERTEX
  5
857B1
330
857A7
100
AcDbEntity
  8
10000_Front
  6
Continuous
 62
     7
370
    13
100
AcDbVertex
100
AcDb2dVertex
 10
152.3815219468705
 20
176.2012818109244
 30
0.0
 42
0.0000067843
 70
     1
  0
VERTEX
  5
857B2
330
857A7
100
AcDbEntity
  8
10000_Front
  6
Continuous
 62
     7
370
    13
100
AcDbVertex
100
AcDb2dVertex
 10
152.3815349468705
 20
176.2587418109244
 30
0.0
 42
0.0000063927
  0
VERTEX
  5
857B3
330
857A7
100
AcDbEntity
  8
10000_Front
  6
Continuous
 62
     7
370
    13
100
AcDbVertex
100
AcDb2dVertex
 10
152.3815479468705
 20
176.3162018109245
 30
0.0
 42
0.000006044
 70
     1
  0
VERTEX
  5
857B4
330
857A7
100
AcDbEntity
  8
10000_Front
  6
Continuous
 62
     7
370
    13
100
AcDbVertex
100
AcDb2dVertex
 10
152.3815589468705
 20
176.3736618109244
 30
0.0
 42
0.0000056493
  0
VERTEX
  5
857B5
330
857A7
100
AcDbEntity
  8
10000_Front
  6
Continuous
 62
     7
370
    13
100
AcDbVertex
100
AcDb2dVertex
 10
152.3815689468705
 20
176.4311118109244
 30
0.0
 42
0.0000052997
 70
     1
  0
VERTEX
  5
857B6
330
857A7
100
AcDbEntity
  8
10000_Front
  6
Continuous
 62
     7
370
    13
100
AcDbVertex
100
AcDb2dVertex
 10
152.3815779468705
 20
176.4885718109244
 30
0.0
 42
0.0000049057
  0
VERTEX
  5
857B7
330
857A7
100
AcDbEntity
  8
10000_Front
  6
Continuous
 62
     7
370
    13
100
AcDbVertex
100
AcDb2dVertex
 10
152.3815849468705
 20
176.5460218109244
 30
0.0
 42
0.0000045561
 70
     1
  0
VERTEX
  5
857B8
330
857A7
100
AcDbEntity
  8
10000_Front
  6
Continuous
 62
     7
370
    13
100
AcDbVertex
100
AcDb2dVertex
 10
152.3815919468705
 20
176.6034718109244
 30
0.0
 42
0.000004162
  0
VERTEX
  5
857B9
330
857A7
100
AcDbEntity
  8
10000_Front
  6
Continuous
 62
     7
370
    13
100
AcDbVertex
100
AcDb2dVertex
 10
152.3815979468705
 20
176.6609218109245
 30
0.0
 42
0.0000038124
 70
     1
  0
VERTEX
  5
857BA
330
857A7
100
AcDbEntity
  8
10000_Front
  6
Continuous
 62
     7
370
    13
100
AcDbVertex
100
AcDb2dVertex
 10
152.3816029468705
 20
176.7183718109244
 30
0.0
 42
0.0000034182
  0
VERTEX
  5
857BB
330
857A7
100
AcDbEntity
  8
10000_Front
  6
Continuous
 62
     7
370
    13
100
AcDbVertex
100
AcDb2dVertex
 10
152.3816069468705
 20
176.7758218109244
 30
0.0
 42
0.0000030687
 70
     1
  0
VERTEX
  5
857BC
330
857A7
100
AcDbEntity
  8
10000_Front
  6
Continuous
 62
     7
370
    13
100
AcDbVertex
100
AcDb2dVertex
 10
152.3816099468705
 20
176.8332718109244
 30
0.0
 42
0.0000026742
  0
VERTEX
  5
857BD
330
857A7
100
AcDbEntity
  8
10000_Front
  6
Continuous
 62
     7
370
    13
100
AcDbVertex
100
AcDb2dVertex
 10
152.3816129468705
 20
176.8907218109244
 30
0.0
 42
0.0000023248
 70
     1
  0
VERTEX
  5
857BE
330
857A7
100
AcDbEntity
  8
10000_Front
  6
Continuous
 62
     7
370
    13
100
AcDbVertex
100
AcDb2dVertex
 10
152.3816159468705
 20
176.9481618109244
 30
0.0
 42
0.0000019312
  0
VERTEX
  5
857BF
330
857A7
100
AcDbEntity
  8
10000_Front
  6
Continuous
 62
     7
370
    13
100
AcDbVertex
100
AcDb2dVertex
 10
152.3816179468705
 20
177.0056118109244
 30
0.0
 42
0.0000015807
 70
     1
  0
VERTEX
  5
857C0
330
857A7
100
AcDbEntity
  8
10000_Front
  6
Continuous
 62
     7
370
    13
100
AcDbVertex
100
AcDb2dVertex
 10
152.3816189468705
 20
177.0630518109244
 30
0.0
 42
0.000001183
  0
VERTEX
  5
857C1
330
857A7
100
AcDbEntity
  8
10000_Front
  6
Continuous
 62
     7
370
    13
100
AcDbVertex
100
AcDb2dVertex
 10
152.3816209468705
 20
177.1205018109244
 30
0.0
 42
0.0000008374
 70
     1
  0
VERTEX
  5
857C2
330
857A7
100
AcDbEntity
  8
10000_Front
  6
Continuous
 62
     7
370
    13
100
AcDbVertex
100
AcDb2dVertex
 10
152.3816219468705
 20
177.1779418109244
 30
0.0
 42
0.0000004566
  0
VERTEX
  5
857C3
330
857A7
100
AcDbEntity
  8
10000_Front
  6
Continuous
 62
     7
370
    13
100
AcDbVertex
100
AcDb2dVertex
 10
152.3816229468705
 20
177.2353518109244
 30
0.0
 42
0.0000000893
 70
     1
  0
VERTEX
  5
857C4
330
857A7
100
AcDbEntity
  8
10000_Front
  6
Continuous
 62
     7
370
    13
100
AcDbVertex
100
AcDb2dVertex
 10
152.3816239468705
 20
177.2928118109244
 30
0.0
 42
-0.0000003577
  0
VERTEX
  5
857C5
330
857A7
100
AcDbEntity
  8
10000_Front
  6
Continuous
 62
     7
370
    13
100
AcDbVertex
100
AcDb2dVertex
 10
152.3816259468705
 20
177.3503718109244
 30
0.0
 42
-0.0000006377
 70
     1
  0
VERTEX
  5
857C6
330
857A7
100
AcDbEntity
  8
10000_Front
  6
Continuous
 62
     7
370
    13
100
AcDbVertex
100
AcDb2dVertex
 10
152.3816269468705
 20
177.4076918109244
 30
0.0
 42
-0.0000008364
  0
VERTEX
  5
857C7
330
857A7
100
AcDbEntity
  8
10000_Front
  6
Continuous
 62
     7
370
    13
100
AcDbVertex
100
AcDb2dVertex
 10
152.3816289468705
 20
177.4646718109244
 30
0.0
 42
-0.0000014542
 70
     1
  0
VERTEX
  5
857C8
330
857A7
100
AcDbEntity
  8
10000_Front
  6
Continuous
 62
     7
370
    13
100
AcDbVertex
100
AcDb2dVertex
 10
152.3816309468705
 20
177.5225618109244
 30
0.0
 42
-0.0000025104
  0
VERTEX
  5
857C9
330
857A7
100
AcDbEntity
  8
10000_Front
  6
Continuous
 62
     7
370
    13
100
AcDbVertex
100
AcDb2dVertex
 10
152.3816339468705
 20
177.5818018109244
 30
0.0
 42
-0.000001927
 70
     1
  0
VERTEX
  5
857CA
330
857A7
100
AcDbEntity
  8
10000_Front
  6
Continuous
 62
     7
370
    13
100
AcDbVertex
100
AcDb2dVertex
 10
152.3816369468705
 20
177.6374318109244
 30
0.0
 42
-0.0000000367
  0
VERTEX
  5
857CB
330
857A7
100
AcDbEntity
  8
10000_Front
  6
Continuous
 62
     7
370
    13
100
AcDbVertex
100
AcDb2dVertex
 10
152.3816399468705
 20
177.6877118109244
 30
0.0
 42
-0.0000039208
 70
     1
  0
VERTEX
  5
857CC
330
857A7
100
AcDbEntity
  8
10000_Front
  6
Continuous
 62
     7
370
    13
100
AcDbVertex
100
AcDb2dVertex
 10
152.3816459468705
 20
177.7522918109244
 30
0.0
 42
-0.0000083697
  0
VERTEX
  5
857CD
330
857A7
100
AcDbEntity
  8
10000_Front
  6
Continuous
 62
     7
370
    13
100
AcDbVertex
100
AcDb2dVertex
 10
152.3816569468705
 20
177.8517518109244
 30
0.0
 42
-0.000004193
 70
     1
  0
VERTEX
  5
857CE
330
857A7
100
AcDbEntity
  8
10000_Front
  6
Continuous
 62
     7
370
    13
100
AcDbVertex
100
AcDb2dVertex
 10
152.3816729468705
 20
177.9819918109244
 30
0.0
 42
-0.0000021357
  0
SEQEND
  5
857CF
330
857A7
100
AcDbEntity
  8
10000_Front
  6
Continuous
 62
     7
370
    13
  0
LINE
  5
857D0
330
1F
100
AcDbEntity
  8
10000_Front
 62
     7
370
    13
100
AcDbLine
 10
152.3816729468705
 20
177.9819918109244
 30
0.0
 11
152.3813169468705
 21
175.6841118109245
 31
0.0
  0
LINE
  5
857D1
330
1F
100
AcDbEntity
  8
10000_Front
 62
     7
370
    13
100
AcDbLine
 10
152.2816699468705
 20
177.9820118109245
 30
0.0
 11
152.2813139468705
 21
175.6841218109244
 31
0.0
  0
LINE
  5
857D2
330
1F
100
AcDbEntity
  8
10000_Front
  6
Continuous
 62
     7
370
    13
100
AcDbLine
 10
147.8814329468705
 20
175.6857616624339
 30
0.0
 11
147.8815439468705
 21
177.9579282164601
 31
0.0
  0
POLYLINE
  5
857D3
330
1F
100
AcDbEntity
  8
10000_Front
  6
Continuous
 62
     7
370
    13
100
AcDb2dPolyline
 66
     1
 10
0.0
 20
0.0
 30
0.0
 70
     2
  0
VERTEX
  5
857D4
330
857D3
100
AcDbEntity
  8
10000_Front
  6
Continuous
 62
     7
370
    13
100
AcDbVertex
100
AcDb2dVertex
 10
152.3813179468705
 20
175.6841118109244
 30
0.0
  0
VERTEX
  5
857D5
330
857D3
100
AcDbEntity
  8
10000_Front
  6
Continuous
 62
     7
370
    13
100
AcDbVertex
100
AcDb2dVertex
 10
152.3813489468705
 20
175.7415818109244
 30
0.0
 42
0.0000091981
 70
     1
  0
VERTEX
  5
857D6
330
857D3
100
AcDbEntity
  8
10000_Front
  6
Continuous
 62
     7
370
    13
100
AcDbVertex
100
AcDb2dVertex
 10
152.3813779468705
 20
175.7990518109244
 30
0.0
 42
0.0000093662
  0
VERTEX
  5
857D7
330
857D3
100
AcDbEntity
  8
10000_Front
  6
Continuous
 62
     7
370
    13
100
AcDbVertex
100
AcDb2dVertex
 10
152.3814039468705
 20
175.8565118109244
 30
0.0
 42
0.000009203
 70
     1
  0
VERTEX
  5
857D8
330
857D3
100
AcDbEntity
  8
10000_Front
  6
Continuous
 62
     7
370
    13
100
AcDbVertex
100
AcDb2dVertex
 10
152.3814289468705
 20
175.9139818109245
 30
0.0
 42
0.0000086667
  0
VERTEX
  5
857D9
330
857D3
100
AcDbEntity
  8
10000_Front
  6
Continuous
 62
     7
370
    13
100
AcDbVertex
100
AcDb2dVertex
 10
152.3814509468705
 20
175.9714418109244
 30
0.0
 42
0.0000082701
 70
     1
  0
VERTEX
  5
857DA
330
857D3
100
AcDbEntity
  8
10000_Front
  6
Continuous
 62
     7
370
    13
100
AcDbVertex
100
AcDb2dVertex
 10
152.3814719468705
 20
176.0289018109244
 30
0.0
 42
0.0000079122
  0
VERTEX
  5
857DB
330
857D3
100
AcDbEntity
  8
10000_Front
  6
Continuous
 62
     7
370
    13
100
AcDbVertex
100
AcDb2dVertex
 10
152.3814909468705
 20
176.0863618109244
 30
0.0
 42
0.0000075749
 70
     1
  0
VERTEX
  5
857DC
330
857D3
100
AcDbEntity
  8
10000_Front
  6
Continuous
 62
     7
370
    13
100
AcDbVertex
100
AcDb2dVertex
 10
152.3815079468705
 20
176.1438218109244
 30
0.0
 42
0.0000071717
  0
VERTEX
  5
857DD
330
857D3
100
AcDbEntity
  8
10000_Front
  6
Continuous
 62
     7
370
    13
100
AcDbVertex
100
AcDb2dVertex
 10
152.3815229468705
 20
176.2012818109244
 30
0.0
 42
0.0000068192
 70
     1
  0
VERTEX
  5
857DE
330
857D3
100
AcDbEntity
  8
10000_Front
  6
Continuous
 62
     7
370
    13
100
AcDbVertex
100
AcDb2dVertex
 10
152.3815379468705
 20
176.2587418109244
 30
0.0
 42
0.0000064274
  0
VERTEX
  5
857DF
330
857D3
100
AcDbEntity
  8
10000_Front
  6
Continuous
 62
     7
370
    13
100
AcDbVertex
100
AcDb2dVertex
 10
152.3815499468705
 20
176.3162018109245
 30
0.0
 42
0.0000060789
 70
     1
  0
VERTEX
  5
857E0
330
857D3
100
AcDbEntity
  8
10000_Front
  6
Continuous
 62
     7
370
    13
100
AcDbVertex
100
AcDb2dVertex
 10
152.3815609468705
 20
176.3736618109244
 30
0.0
 42
0.0000056841
  0
VERTEX
  5
857E1
330
857D3
100
AcDbEntity
  8
10000_Front
  6
Continuous
 62
     7
370
    13
100
AcDbVertex
100
AcDb2dVertex
 10
152.3815709468705
 20
176.4311118109244
 30
0.0
 42
0.0000053344
 70
     1
  0
VERTEX
  5
857E2
330
857D3
100
AcDbEntity
  8
10000_Front
  6
Continuous
 62
     7
370
    13
100
AcDbVertex
100
AcDb2dVertex
 10
152.3815799468705
 20
176.4885718109244
 30
0.0
 42
0.0000049404
  0
VERTEX
  5
857E3
330
857D3
100
AcDbEntity
  8
10000_Front
  6
Continuous
 62
     7
370
    13
100
AcDbVertex
100
AcDb2dVertex
 10
152.3815879468705
 20
176.5460218109244
 30
0.0
 42
0.000004591
 70
     1
  0
VERTEX
  5
857E4
330
857D3
100
AcDbEntity
  8
10000_Front
  6
Continuous
 62
     7
370
    13
100
AcDbVertex
100
AcDb2dVertex
 10
152.3815939468705
 20
176.6034718109244
 30
0.0
 42
0.0000041969
  0
VERTEX
  5
857E5
330
857D3
100
AcDbEntity
  8
10000_Front
  6
Continuous
 62
     7
370
    13
100
AcDbVertex
100
AcDb2dVertex
 10
152.3815999468705
 20
176.6609218109245
 30
0.0
 42
0.0000038472
 70
     1
  0
VERTEX
  5
857E6
330
857D3
100
AcDbEntity
  8
10000_Front
  6
Continuous
 62
     7
370
    13
100
AcDbVertex
100
AcDb2dVertex
 10
152.3816049468705
 20
176.7183718109244
 30
0.0
 42
0.000003453
  0
VERTEX
  5
857E7
330
857D3
100
AcDbEntity
  8
10000_Front
  6
Continuous
 62
     7
370
    13
100
AcDbVertex
100
AcDb2dVertex
 10
152.3816089468705
 20
176.7758218109244
 30
0.0
 42
0.0000031034
 70
     1
  0
VERTEX
  5
857E8
330
857D3
100
AcDbEntity
  8
10000_Front
  6
Continuous
 62
     7
370
    13
100
AcDbVertex
100
AcDb2dVertex
 10
152.3816129468705
 20
176.8332718109244
 30
0.0
 42
0.000002709
  0
VERTEX
  5
857E9
330
857D3
100
AcDbEntity
  8
10000_Front
  6
Continuous
 62
     7
370
    13
100
AcDbVertex
100
AcDb2dVertex
 10
152.3816159468705
 20
176.8907218109244
 30
0.0
 42
0.0000023596
 70
     1
  0
VERTEX
  5
857EA
330
857D3
100
AcDbEntity
  8
10000_Front
  6
Continuous
 62
     7
370
    13
100
AcDbVertex
100
AcDb2dVertex
 10
152.3816179468705
 20
176.9481618109244
 30
0.0
 42
0.000001966
  0
VERTEX
  5
857EB
330
857D3
100
AcDbEntity
  8
10000_Front
  6
Continuous
 62
     7
370
    13
100
AcDbVertex
100
AcDb2dVertex
 10
152.3816199468705
 20
177.0056118109244
 30
0.0
 42
0.0000016154
 70
     1
  0
VERTEX
  5
857EC
330
857D3
100
AcDbEntity
  8
10000_Front
  6
Continuous
 62
     7
370
    13
100
AcDbVertex
100
AcDb2dVertex
 10
152.3816219468705
 20
177.0630518109244
 30
0.0
 42
0.000001218
  0
VERTEX
  5
857ED
330
857D3
100
AcDbEntity
  8
10000_Front
  6
Continuous
 62
     7
370
    13
100
AcDbVertex
100
AcDb2dVertex
 10
152.3816229468705
 20
177.1205018109244
 30
0.0
 42
0.0000008722
 70
     1
  0
VERTEX
  5
857EE
330
857D3
100
AcDbEntity
  8
10000_Front
  6
Continuous
 62
     7
370
    13
100
AcDbVertex
100
AcDb2dVertex
 10
152.3816239468705
 20
177.1779418109244
 30
0.0
 42
0.0000004911
  0
VERTEX
  5
857EF
330
857D3
100
AcDbEntity
  8
10000_Front
  6
Continuous
 62
     7
370
    13
100
AcDbVertex
100
AcDb2dVertex
 10
152.3816249468705
 20
177.2353518109244
 30
0.0
 42
0.0000001242
 70
     1
  0
VERTEX
  5
857F0
330
857D3
100
AcDbEntity
  8
10000_Front
  6
Continuous
 62
     7
370
    13
100
AcDbVertex
100
AcDb2dVertex
 10
152.3816269468705
 20
177.2928118109244
 30
0.0
 42
-0.000000322
  0
VERTEX
  5
857F1
330
857D3
100
AcDbEntity
  8
10000_Front
  6
Continuous
 62
     7
370
    13
100
AcDbVertex
100
AcDb2dVertex
 10
152.3816279468705
 20
177.3503718109244
 30
0.0
 42
-0.000000603
 70
     1
  0
VERTEX
  5
857F2
330
857D3
100
AcDbEntity
  8
10000_Front
  6
Continuous
 62
     7
370
    13
100
AcDbVertex
100
AcDb2dVertex
 10
152.3816289468705
 20
177.4076918109244
 30
0.0
 42
-0.0000008041
  0
VERTEX
  5
857F3
330
857D3
100
AcDbEntity
  8
10000_Front
  6
Continuous
 62
     7
370
    13
100
AcDbVertex
100
AcDb2dVertex
 10
152.3816309468705
 20
177.4646718109244
 30
0.0
 42
-0.0000014186
 70
     1
  0
VERTEX
  5
857F4
330
857D3
100
AcDbEntity
  8
10000_Front
  6
Continuous
 62
     7
370
    13
100
AcDbVertex
100
AcDb2dVertex
 10
152.3816329468705
 20
177.5225618109244
 30
0.0
 42
-0.000002468
  0
VERTEX
  5
857F5
330
857D3
100
AcDbEntity
  8
10000_Front
  6
Continuous
 62
     7
370
    13
100
AcDbVertex
100
AcDb2dVertex
 10
152.3816359468705
 20
177.5818018109244
 30
0.0
 42
-0.0000018948
 70
     1
  0
VERTEX
  5
857F6
330
857D3
100
AcDbEntity
  8
10000_Front
  6
Continuous
 62
     7
370
    13
100
AcDbVertex
100
AcDb2dVertex
 10
152.3816389468705
 20
177.6374318109244
 30
0.0
 42
-0.0000000256
  0
VERTEX
  5
857F7
330
857D3
100
AcDbEntity
  8
10000_Front
  6
Continuous
 62
     7
370
    13
100
AcDbVertex
100
AcDb2dVertex
 10
152.3816419468705
 20
177.6877118109244
 30
0.0
 42
-0.0000038752
 70
     1
  0
VERTEX
  5
857F8
330
857D3
100
AcDbEntity
  8
10000_Front
  6
Continuous
 62
     7
370
    13
100
AcDbVertex
100
AcDb2dVertex
 10
152.3816469468705
 20
177.7522918109244
 30
0.0
 42
-0.0000082912
  0
VERTEX
  5
857F9
330
857D3
100
AcDbEntity
  8
10000_Front
  6
Continuous
 62
     7
370
    13
100
AcDbVertex
100
AcDb2dVertex
 10
152.3816579468705
 20
177.8517518109244
 30
0.0
 42
-0.0000041548
 70
     1
  0
VERTEX
  5
857FA
330
857D3
100
AcDbEntity
  8
10000_Front
  6
Continuous
 62
     7
370
    13
100
AcDbVertex
100
AcDb2dVertex
 10
152.3816729468705
 20
177.9819918109244
 30
0.0
 42
-0.0000021153
  0
SEQEND
  5
857FB
330
857D3
100
AcDbEntity
  8
10000_Front
  6
Continuous
 62
     7
370
    13
  0
ARC
  5
857FC
330
1F
100
AcDbEntity
  8
10000_Front
 62
     7
370
    13
100
AcDbCircle
 10
150.0815742708202
 20
176.2237719147987
 30
0.0
 40
2.264967301530224
100
AcDbArc
 50
193.741132010281
 51
346.2161593045671
  0
ARC
  5
857FD
330
1F
100
AcDbEntity
  8
10000_Front
 62
     7
370
    13
100
AcDbCircle
 10
150.0844314491035
 20
177.4539272057584
 30
0.0
 40
2.259807594969755
100
AcDbArc
 50
13.51415896477571
 51
167.113038774112
  0
LINE
  5
857FE
330
1F
100
AcDbEntity
  8
10000_Front
  6
Continuous
 62
     7
370
    13
100
AcDbLine
 10
156.7815539468705
 20
177.9831447748282
 30
0.0
 11
156.7814319468705
 21
175.6834792549437
 31
0.0
  0
DIMENSION
  5
85802
102
{ACAD_XDICTIONARY
360
8580F
102
}
102
{ACAD_REACTORS
330
85819
102
}
330
1F
100
AcDbEntity
  8
11100_Left_Dim
  6
Continuous
 62
     7
370
    13
100
AcDbDimension
  2
*D2
 10
166.065652823979
 20
171.1393918109245
 30
0.0
 11
166.065652823979
 21
190.1393918109246
 31
0.0
 70
    32
 71
     5
 42
38.0
  3
H035
100
AcDbAlignedDimension
 13
157.0316359468705
 23
209.1393918109245
 33
0.0
 14
157.0316359468705
 24
171.1393918109245
 34
0.0
 50
90.0
100
AcDbRotatedDimension
1001
ACAD
1000
DSTYLE
1002
{
1070
    40
1040
1.0
1070
    77
1070
     0
1070
   147
1040
1.5
1070
   178
1070
     7
1070
   272
1070
     0
1070
   279
1070
     1
1070
   288
1070
     1
1002
}
  0
DIMENSION
  5
8581A
102
{ACAD_XDICTIONARY
360
85827
102
}
102
{ACAD_REACTORS
330
85831
102
}
330
1F
100
AcDbEntity
  8
11100_Left_Dim
  6
Continuous
 62
     7
370
    13
100
AcDbDimension
  2
*D3
 10
173.3458799855234
 20
171.1393918109245
 30
0.0
 11
173.3458799855234
 21
190.8893918109246
 31
0.0
 70
    32
 71
     5
 42
39.5
  3
H035
100
AcDbAlignedDimension
 13
133.7816359468704
 23
210.6393918109245
 33
0.0
 14
157.0316359468705
 24
171.1393918109245
 34
0.0
 50
90.0
100
AcDbRotatedDimension
1001
ACAD
1000
DSTYLE
1002
{
1070
    40
1040
1.0
1070
    77
1070
     0
1070
   147
1040
1.5
1070
   178
1070
     7
1070
   272
1070
     0
1070
   279
1070
     1
1070
   288
1070
     1
1002
}
  0
DIMENSION
  5
85832
102
{ACAD_XDICTIONARY
360
8583F
102
}
102
{ACAD_REACTORS
330
85849
102
}
330
1F
100
AcDbEntity
  8
11100_Left_Dim
  6
Continuous
 62
     7
370
    13
100
AcDbDimension
  2
*D4
 10
157.8316359468705
 20
163.5093190455609
 30
0.0
 11
135.8316359468705
 21
163.5093190455609
 31
0.0
 70
    32
 71
     5
 42
44.00000000000001
  3
H035
100
AcDbAlignedDimension
 13
113.8316359468704
 23
171.9391518109245
 33
0.0
 14
157.8316359468705
 24
171.9391518109245
 34
0.0
100
AcDbRotatedDimension
1001
ACAD
1000
DSTYLE
1002
{
1070
    40
1040
1.0
1070
    77
1070
     0
1070
   147
1040
1.5
1070
   178
1070
     7
1070
   272
1070
     0
1070
   279
1070
     1
1070
   288
1070
     1
1002
}
  0
DIMENSION
  5
85865
102
{ACAD_XDICTIONARY
360
85872
102
}
102
{ACAD_REACTORS
330
8587C
102
}
330
1F
100
AcDbEntity
  8
11100_Left_Dim
  6
Continuous
 62
     7
370
    13
100
AcDbDimension
  2
*D5
 10
247.896177151254
 20
163.5093190455609
 30
0.0
 11
227.221177151254
 21
163.5093190455609
 31
0.0
 70
    32
 71
     5
 42
41.35000000000002
  3
H035
100
AcDbAlignedDimension
 13
206.546177151254
 23
177.1147838348101
 33
0.0
 14
247.896177151254
 24
171.0319338348101
 34
0.0
100
AcDbRotatedDimension
1001
ACAD
1000
DSTYLE
1002
{
1070
    40
1040
1.0
1070
    77
1070
     0
1070
   147
1040
1.5
1070
   178
1070
     7
1070
   272
1070
     0
1070
   279
1070
     1
1070
   288
1070
     1
1002
}
  0
DIMENSION
  5
85886
102
{ACAD_XDICTIONARY
360
85893
102
}
102
{ACAD_REACTORS
330
8589D
102
}
330
1F
100
AcDbEntity
  8
11100_Left_Dim
  6
Continuous
 62
     7
370
    13
100
AcDbDimension
  2
*D6
 10
250.396177151254
 20
155.9244312832389
 30
0.0
 11
228.471177151254
 21
155.9244312832389
 31
0.0
 70
    32
 71
     5
 42
43.84999999999997
  3
H035
100
AcDbAlignedDimension
 13
206.546177151254
 23
177.1147838697167
 33
0.0
 14
250.396177151254
 24
185.5320408689339
 34
0.0
100
AcDbRotatedDimension
1001
ACAD
1000
DSTYLE
1002
{
1070
    40
1040
1.0
1070
    77
1070
     0
1070
   147
1040
1.5
1070
   178
1070
     7
1070
   272
1070
     0
1070
   279
1070
     1
1070
   288
1070
     1
1002
}
  0
LINE
  5
85A97
330
1F
100
AcDbEntity
  8
11100_Left_Dim
 62
     7
370
    13
100
AcDbLine
 10
210.046177151254
 20
205.8319338348101
 30
0.0
 11
207.1461771512539
 21
205.8319338348101
 31
0.0
  0
LINE
  5
85A98
330
1F
100
AcDbEntity
  8
11100_Left_Dim
 62
     7
370
    13
100
AcDbLine
 10
249.596277151254
 20
194.5229338348101
 30
0.0
 11
247.896177151254
 21
194.5229338348101
 31
0.0
  0
LINE
  5
85A99
330
1F
100
AcDbEntity
  8
11100_Left_Dim
 62
     7
370
    13
100
AcDbLine
 10
249.596277151254
 20
185.5409338348101
 30
0.0
 11
247.896177151254
 21
185.5409338348101
 31
0.0
  0
ENDSEC
  0
SECTION
  2
OBJECTS
  0
DICTIONARY
  5
C
330
0
100
AcDbDictionary
281
     1
  3
ACAD_COLOR
350
6B
  3
ACAD_GROUP
350
D
  3
ACAD_LAYOUT
350
1A
  3
ACAD_MATERIAL
350
6A
  3
ACAD_MLINESTYLE
350
17
  3
ACAD_PLOTSETTINGS
350
19
  3
ACAD_PLOTSTYLENAME
350
E
  3
AcDbVariableDictionary
350
5E
  3
DWGPROPS
350
1D206
  0
DICTIONARY
  5
8580F
330
85802
100
AcDbDictionary
280
     1
281
     1
  3
ACAD_DIMASSOC
360
85819
  0
DICTIONARY
  5
85827
330
8581A
100
AcDbDictionary
280
     1
281
     1
  3
ACAD_DIMASSOC
360
85831
  0
DICTIONARY
  5
8583F
330
85832
100
AcDbDictionary
280
     1
281
     1
  3
ACAD_DIMASSOC
360
85849
  0
DICTIONARY
  5
85872
330
85865
100
AcDbDictionary
280
     1
281
     1
  3
ACAD_DIMASSOC
360
8587C
  0
DICTIONARY
  5
85893
330
85886
100
AcDbDictionary
280
     1
281
     1
  3
ACAD_DIMASSOC
360
8589D
  0
DICTIONARY
  5
6B
102
{ACAD_REACTORS
330
C
102
}
330
C
100
AcDbDictionary
281
     1
  0
DICTIONARY
  5
D
102
{ACAD_REACTORS
330
C
102
}
330
C
100
AcDbDictionary
281
     1
  0
DICTIONARY
  5
1A
102
{ACAD_REACTORS
330
C
102
}
330
C
100
AcDbDictionary
281
     1
  3
Layout1
350
51
  3
Layout2
350
56
  3
Model
350
22
  0
DICTIONARY
  5
6A
102
{ACAD_REACTORS
330
C
102
}
330
C
100
AcDbDictionary
281
     1
  0
DICTIONARY
  5
17
102
{ACAD_REACTORS
330
C
102
}
330
C
100
AcDbDictionary
281
     1
  3
Standard
350
18
  0
DICTIONARY
  5
19
102
{ACAD_REACTORS
330
C
102
}
330
C
100
AcDbDictionary
281
     1
  0
ACDBDICTIONARYWDFLT
  5
E
102
{ACAD_REACTORS
330
C
102
}
330
C
100
AcDbDictionary
281
     1
  3
Normal
350
F
100
AcDbDictionaryWithDefault
340
F
  0
DICTIONARY
  5
5E
102
{ACAD_REACTORS
330
C
102
}
330
C
100
AcDbDictionary
281
     1
  3
DIMASSOC
350
5F
  3
HIDETEXT
350
63
  3
PROJECTNAME
350
2C50
  0
XRECORD
  5
1D206
102
{ACAD_REACTORS
330
C
102
}
330
C
100
AcDbXrecord
280
     1
  1
DWGPROPS COOKIE
  2

  3

  4

  6

  7

  8

  9

300
=
301
=
302
=
303
=
304
=
305
=
306
=
307
=
308
=
309
=
 40
0.4278546412037037
 41
2453453.645911123
 42
2453780.704394618
  1

 90
        0
  0
DIMASSOC
  5
85819
102
{ACAD_REACTORS
330
8580F
102
}
330
8580F
100
AcDbDimAssoc
330
85802
 90
        3
 70
     0
 71
     0
  1
AcDbOsnapPointRef
 72
     1
331
7FA7D
 73
     2
 91
        0
 40
1.0
 10
157.0316359468705
 20
209.1393918109245
 30
0.0
 75
     0
  1
AcDbOsnapPointRef
 72
    13
331
7FA7B
 73
     2
 91
        0
 40
0.0
 10
157.0316359468705
 20
171.1393918109245
 30
0.0
 75
     0
  0
DIMASSOC
  5
85831
102
{ACAD_REACTORS
330
85827
102
}
330
85827
100
AcDbDimAssoc
330
8581A
 90
        3
 70
     0
 71
     0
  1
AcDbOsnapPointRef
 72
    13
331
836B2
 73
     2
 91
        0
 40
0.0
 10
133.7816359468704
 20
210.6393918109245
 30
0.0
 75
     0
  1
AcDbOsnapPointRef
 72
    13
331
7FA7B
 73
     2
 91
        0
 40
0.0
 10
157.0316359468705
 20
171.1393918109245
 30
0.0
 75
     0
  0
DIMASSOC
  5
85849
102
{ACAD_REACTORS
330
8583F
102
}
330
8583F
100
AcDbDimAssoc
330
85832
 90
        3
 70
     0
 71
     0
  1
AcDbOsnapPointRef
 72
    13
331
7FDF8
 73
     2
 91
        0
 40
0.0
 10
113.8316359468704
 20
171.9391518109245
 30
0.0
 75
     0
  1
AcDbOsnapPointRef
 72
     1
331
83B14
 73
     2
 91
        0
 40
1.0
 10
157.8316359468705
 20
171.9391518109245
 30
0.0
 75
     0
  0
DIMASSOC
  5
8587C
102
{ACAD_REACTORS
330
85872
102
}
330
85872
100
AcDbDimAssoc
330
85865
 90
        2
 70
     0
 71
     0
  1
AcDbOsnapPointRef
 72
    13
331
853C7
 73
     2
 91
        0
 40
0.0
 10
247.896177151254
 20
171.0319338348101
 30
0.0
 75
     0
  0
DIMASSOC
  5
8589D
102
{ACAD_REACTORS
330
85893
102
}
330
85893
100
AcDbDimAssoc
330
85886
 90
        3
 70
     0
 71
     0
  1
AcDbOsnapPointRef
 72
    13
331
85417
 73
     2
 91
        0
 40
3.141592479056907
 10
206.546177151254
 20
177.1147838697167
 30
0.0
 75
     0
  1
AcDbOsnapPointRef
 72
     6
331
855F3
 73
     2
 91
        0
 40
0.9999421437168953
 10
250.396177151254
 20
185.5320408689336
 30
0.0
332
8548B
 74
     2
 92
        0
 75
     0
  0
LAYOUT
  5
51
102
{ACAD_XDICTIONARY
360
1D20C
102
}
102
{ACAD_REACTORS
330
1A
102
}
330
1A
100
AcDbPlotSettings
  1

  2
None
  4

  6

 40
0.0
 41
0.0
 42
0.0
 43
0.0
 44
0.0
 45
0.0
 46
0.0
 47
0.0
 48
0.0
 49
0.0
140
0.0
141
0.0
142
1.0
143
1.0
 70
   688
 72
     0
 73
     0
 74
     5
  7

 75
    16
147
1.0
148
0.0
149
0.0
100
AcDbLayout
  1
Layout1
 70
     1
 71
     1
 10
0.0
 20
0.0
 11
12.0
 21
9.0
 12
0.0
 22
0.0
 32
0.0
 14
0.0
 24
0.0
 34
0.0
 15
0.0
 25
0.0
 35
0.0
146
0.0
 13
0.0
 23
0.0
 33
0.0
 16
1.0
 26
0.0
 36
0.0
 17
0.0
 27
1.0
 37
0.0
 76
     0
330
50
  0
LAYOUT
  5
56
102
{ACAD_XDICTIONARY
360
1D20E
102
}
102
{ACAD_REACTORS
330
1A
102
}
330
1A
100
AcDbPlotSettings
  1

  2
None
  4

  6

 40
0.0
 41
0.0
 42
0.0
 43
0.0
 44
0.0
 45
0.0
 46
0.0
 47
0.0
 48
0.0
 49
0.0
140
0.0
141
0.0
142
1.0
143
1.0
 70
   688
 72
     0
 73
     0
 74
     5
  7

 75
    16
147
1.0
148
0.0
149
0.0
100
AcDbLayout
  1
Layout2
 70
     1
 71
     2
 10
0.0
 20
0.0
 11
12.0
 21
9.0
 12
0.0
 22
0.0
 32
0.0
 14
0.0
 24
0.0
 34
0.0
 15
0.0
 25
0.0
 35
0.0
146
0.0
 13
0.0
 23
0.0
 33
0.0
 16
1.0
 26
0.0
 36
0.0
 17
0.0
 27
1.0
 37
0.0
 76
     0
330
55
  0
LAYOUT
  5
22
102
{ACAD_XDICTIONARY
360
1D20A
102
}
102
{ACAD_REACTORS
330
1A
102
}
330
1A
100
AcDbPlotSettings
  1

  2
\\ambw779a\A_P00390 (HP LaserJet 5000 Series PCL 6)
  4
A4
  6

 40
4.233333110809326
 41
4.233341693878172
 42
7.789321899414062
 43
4.23333740234375
 44
209.9733276367186
 45
296.9259948730469
 46
0.0
 47
0.0
 48
0.0
 49
0.0
140
0.0
141
0.0
142
1.0
143
1.010421706829464
 70
 11952
 72
     1
 73
     1
 74
     1
  7

 75
     0
147
0.9896857848965199
148
-46.41815288739531
149
-83.62641985624383
100
AcDbLayout
  1
Model
 70
     1
 71
     0
 10
0.0
 20
0.0
 11
12.0
 21
9.0
 12
0.0
 22
0.0
 32
0.0
 14
0.0
 24
0.0
 34
0.0
 15
0.0
 25
0.0
 35
0.0
146
0.0
 13
0.0
 23
0.0
 33
0.0
 16
1.0
 26
0.0
 36
0.0
 17
0.0
 27
1.0
 37
0.0
 76
     0
330
1F
  0
MLINESTYLE
  5
18
102
{ACAD_REACTORS
330
17
102
}
330
17
100
AcDbMlineStyle
  2
STANDARD
 70
     0
  3

 62
   256
 51
90.0
 52
90.0
 71
     2
 49
0.5
 62
   256
  6
BYLAYER
 49
-0.5
 62
   256
  6
BYLAYER
  0
ACDBPLACEHOLDER
  5
F
102
{ACAD_REACTORS
330
E
102
}
330
E
  0
DICTIONARYVAR
  5
5F
102
{ACAD_REACTORS
330
5E
102
}
330
5E
100
DictionaryVariables
280
     0
  1
2
  0
DICTIONARYVAR
  5
63
102
{ACAD_REACTORS
330
5E
102
}
330
5E
100
DictionaryVariables
280
     0
  1
1
  0
DICTIONARYVAR
  5
2C50
102
{ACAD_REACTORS
330
5E
102
}
330
5E
100
DictionaryVariables
280
     0
  1

  0
DICTIONARY
  5
1D20C
330
51
100
AcDbDictionary
280
     1
281
     1
  3
ACAD_XREC_ROUNDTRIP
360
1D20D
  0
DICTIONARY
  5
1D20E
330
56
100
AcDbDictionary
280
     1
281
     1
  3
ACAD_XREC_ROUNDTRIP
360
1D20F
  0
DICTIONARY
  5
1D20A
330
22
100
AcDbDictionary
280
     1
281
     1
  3
ACAD_XREC_ROUNDTRIP
360
1D20B
  0
XRECORD
  5
1D20D
102
{ACAD_REACTORS
330
1D20C
102
}
330
1D20C
100
AcDbXrecord
280
     1
102
SHADEPLOT
 70
     0
102
SHADEPLOTRESLEVEL
 70
     2
102
SHADEPLOTCUSTOMDPI
 70
   300
  0
XRECORD
  5
1D20F
102
{ACAD_REACTORS
330
1D20E
102
}
330
1D20E
100
AcDbXrecord
280
     1
102
SHADEPLOT
 70
     0
102
SHADEPLOTRESLEVEL
 70
     2
102
SHADEPLOTCUSTOMDPI
 70
   300
  0
XRECORD
  5
1D20B
102
{ACAD_REACTORS
330
1D20A
102
}
330
1D20A
100
AcDbXrecord
280
     1
102
SHADEPLOT
 70
     0
102
SHADEPLOTRESLEVEL
 70
     2
102
SHADEPLOTCUSTOMDPI
 70
   300
  0
ENDSEC
  0
EOF
