  0
SECTION
  2
HEADER
  9
$ACADVER
  1
AC1015
  9
$ACADMAINTVER
 70
    20
  9
$DWGCODEPAGE
  3
ANSI_1252
  9
$INSBASE
 10
0.0
 20
0.0
 30
0.0
  9
$EXTMIN
 10
-7.784565678822445
 20
50.20394972456142
 30
-1.000076290452765
  9
$EXTMAX
 10
262.2488120760868
 20
250.2402655296496
 30
0.250076302094651
  9
$LIMMIN
 10
0.0
 20
0.0
  9
$LIMMAX
 10
420.0
 20
297.0
  9
$ORTHOMODE
 70
     0
  9
$REGENMODE
 70
     1
  9
$FILLMODE
 70
     1
  9
$QTEXTMODE
 70
     0
  9
$MIRRTEXT
 70
     0
  9
$LTSCALE
 40
1.0
  9
$ATTMODE
 70
     1
  9
$TEXTSIZE
 40
2.5
  9
$TRACEWID
 40
1.0
  9
$TEXTSTYLE
  7
Standard
  9
$CLAYER
  8
0
  9
$CELTYPE
  6
ByLayer
  9
$CECOLOR
 62
   256
  9
$CELTSCALE
 40
1.0
  9
$DISPSILH
 70
     0
  9
$DIMSCALE
 40
1.0
  9
$DIMASZ
 40
2.5
  9
$DIMEXO
 40
0.625
  9
$DIMDLI
 40
3.75
  9
$DIMRND
 40
0.0
  9
$DIMDLE
 40
0.0
  9
$DIMEXE
 40
1.25
  9
$DIMTP
 40
0.0
  9
$DIMTM
 40
0.0
  9
$DIMTXT
 40
2.5
  9
$DIMCEN
 40
2.5
  9
$DIMTSZ
 40
0.0
  9
$DIMTOL
 70
     0
  9
$DIMLIM
 70
     0
  9
$DIMTIH
 70
     0
  9
$DIMTOH
 70
     0
  9
$DIMSE1
 70
     0
  9
$DIMSE2
 70
     0
  9
$DIMTAD
 70
     1
  9
$DIMZIN
 70
     8
  9
$DIMBLK
  1

  9
$DIMASO
 70
     1
  9
$DIMSHO
 70
     1
  9
$DIMPOST
  1

  9
$DIMAPOST
  1

  9
$DIMALT
 70
     0
  9
$DIMALTD
 70
     3
  9
$DIMALTF
 40
0.03937007874016
  9
$DIMLFAC
 40
1.0
  9
$DIMTOFL
 70
     1
  9
$DIMTVP
 40
0.0
  9
$DIMTIX
 70
     0
  9
$DIMSOXD
 70
     0
  9
$DIMSAH
 70
     0
  9
$DIMBLK1
  1

  9
$DIMBLK2
  1

  9
$DIMSTYLE
  2
ISO-25
  9
$DIMCLRD
 70
     0
  9
$DIMCLRE
 70
     0
  9
$DIMCLRT
 70
     0
  9
$DIMTFAC
 40
1.0
  9
$DIMGAP
 40
0.625
  9
$DIMJUST
 70
     0
  9
$DIMSD1
 70
     0
  9
$DIMSD2
 70
     0
  9
$DIMTOLJ
 70
     0
  9
$DIMTZIN
 70
     8
  9
$DIMALTZ
 70
     0
  9
$DIMALTTZ
 70
     0
  9
$DIMUPT
 70
     0
  9
$DIMDEC
 70
     2
  9
$DIMTDEC
 70
     2
  9
$DIMALTU
 70
     2
  9
$DIMALTTD
 70
     3
  9
$DIMTXSTY
  7
Standard
  9
$DIMAUNIT
 70
     0
  9
$DIMADEC
 70
     0
  9
$DIMALTRND
 40
0.0
  9
$DIMAZIN
 70
     0
  9
$DIMDSEP
 70
    44
  9
$DIMATFIT
 70
     3
  9
$DIMFRAC
 70
     0
  9
$DIMLDRBLK
  1

  9
$DIMLUNIT
 70
     2
  9
$DIMLWD
 70
    -2
  9
$DIMLWE
 70
    -2
  9
$DIMTMOVE
 70
     0
  9
$LUNITS
 70
     2
  9
$LUPREC
 70
     4
  9
$SKETCHINC
 40
1.0
  9
$FILLETRAD
 40
10.0
  9
$AUNITS
 70
     0
  9
$AUPREC
 70
     0
  9
$MENU
  1
.
  9
$ELEVATION
 40
0.0
  9
$PELEVATION
 40
0.0
  9
$THICKNESS
 40
0.0
  9
$LIMCHECK
 70
     0
  9
$CHAMFERA
 40
10.0
  9
$CHAMFERB
 40
10.0
  9
$CHAMFERC
 40
20.0
  9
$CHAMFERD
 40
0.0
  9
$SKPOLY
 70
     0
  9
$TDCREATE
 40
2453200.479237720
  9
$TDUCREATE
 40
2453200.437571053
  9
$TDUPDATE
 40
2454078.624909734
  9
$TDUUPDATE
 40
2454078.583243067
  9
$TDINDWG
 40
1.0155277083
  9
$TDUSRTIMER
 40
1.0155204514
  9
$USRTIMER
 70
     1
  9
$ANGBASE
 50
0.0
  9
$ANGDIR
 70
     0
  9
$PDMODE
 70
     0
  9
$PDSIZE
 40
0.0
  9
$PLINEWID
 40
0.0
  9
$SPLFRAME
 70
     0
  9
$SPLINETYPE
 70
     6
  9
$SPLINESEGS
 70
     8
  9
$HANDSEED
  5
13889
  9
$SURFTAB1
 70
     6
  9
$SURFTAB2
 70
     6
  9
$SURFTYPE
 70
     6
  9
$SURFU
 70
     6
  9
$SURFV
 70
     6
  9
$UCSBASE
  2

  9
$UCSNAME
  2

  9
$UCSORG
 10
0.0
 20
0.0
 30
0.0
  9
$UCSXDIR
 10
1.0
 20
0.0
 30
0.0
  9
$UCSYDIR
 10
0.0
 20
1.0
 30
0.0
  9
$UCSORTHOREF
  2

  9
$UCSORTHOVIEW
 70
     0
  9
$UCSORGTOP
 10
0.0
 20
0.0
 30
0.0
  9
$UCSORGBOTTOM
 10
0.0
 20
0.0
 30
0.0
  9
$UCSORGLEFT
 10
0.0
 20
0.0
 30
0.0
  9
$UCSORGRIGHT
 10
0.0
 20
0.0
 30
0.0
  9
$UCSORGFRONT
 10
0.0
 20
0.0
 30
0.0
  9
$UCSORGBACK
 10
0.0
 20
0.0
 30
0.0
  9
$PUCSBASE
  2

  9
$PUCSNAME
  2

  9
$PUCSORG
 10
0.0
 20
0.0
 30
0.0
  9
$PUCSXDIR
 10
1.0
 20
0.0
 30
0.0
  9
$PUCSYDIR
 10
0.0
 20
1.0
 30
0.0
  9
$PUCSORTHOREF
  2

  9
$PUCSORTHOVIEW
 70
     0
  9
$PUCSORGTOP
 10
0.0
 20
0.0
 30
0.0
  9
$PUCSORGBOTTOM
 10
0.0
 20
0.0
 30
0.0
  9
$PUCSORGLEFT
 10
0.0
 20
0.0
 30
0.0
  9
$PUCSORGRIGHT
 10
0.0
 20
0.0
 30
0.0
  9
$PUCSORGFRONT
 10
0.0
 20
0.0
 30
0.0
  9
$PUCSORGBACK
 10
0.0
 20
0.0
 30
0.0
  9
$USERI1
 70
     0
  9
$USERI2
 70
     0
  9
$USERI3
 70
     0
  9
$USERI4
 70
     0
  9
$USERI5
 70
     0
  9
$USERR1
 40
0.0
  9
$USERR2
 40
0.0
  9
$USERR3
 40
0.0
  9
$USERR4
 40
0.0
  9
$USERR5
 40
0.0
  9
$WORLDVIEW
 70
     1
  9
$SHADEDGE
 70
     3
  9
$SHADEDIF
 70
    70
  9
$TILEMODE
 70
     1
  9
$MAXACTVP
 70
    64
  9
$PINSBASE
 10
0.0
 20
0.0
 30
0.0
  9
$PLIMCHECK
 70
     0
  9
$PEXTMIN
 10
0.0
 20
0.0
 30
0.0
  9
$PEXTMAX
 10
0.0
 20
0.0
 30
0.0
  9
$PLIMMIN
 10
0.0
 20
0.0
  9
$PLIMMAX
 10
12.0
 20
9.0
  9
$UNITMODE
 70
     0
  9
$VISRETAIN
 70
     1
  9
$PLINEGEN
 70
     0
  9
$PSLTSCALE
 70
     1
  9
$TREEDEPTH
 70
  3020
  9
$CMLSTYLE
  2
Standard
  9
$CMLJUST
 70
     0
  9
$CMLSCALE
 40
20.0
  9
$PROXYGRAPHICS
 70
     1
  9
$MEASUREMENT
 70
     1
  9
$CELWEIGHT
370
    -1
  9
$ENDCAPS
280
     0
  9
$JOINSTYLE
280
     0
  9
$LWDISPLAY
290
     0
  9
$INSUNITS
 70
     4
  9
$HYPERLINKBASE
  1

  9
$STYLESHEET
  1

  9
$XEDIT
290
     1
  9
$CEPSNTYPE
380
     0
  9
$PSTYLEMODE
290
     1
  9
$FINGERPRINTGUID
  2
{FDEAD578-A652-11D2-9A35-0060089B3A3F}
  9
$VERSIONGUID
  2
{3F1A509D-01AB-4501-8784-05A0711CBCE3}
  9
$EXTNAMES
290
     1
  9
$PSVPSCALE
 40
0.0
  9
$OLESTARTUP
290
     0
  0
ENDSEC
  0
SECTION
  2
CLASSES
  0
CLASS
  1
ACDBDICTIONARYWDFLT
  2
AcDbDictionaryWithDefault
  3
ObjectDBX Classes
 90
        0
280
     0
281
     0
  0
CLASS
  1
DICTIONARYVAR
  2
AcDbDictionaryVar
  3
ObjectDBX Classes
 90
        0
280
     0
281
     0
  0
CLASS
  1
DIMASSOC
  2
AcDbDimAssoc
  3
"AcDbDimAssoc|Product Desc:     AcDim ARX App For Dimension|Company:          Autodesk, Inc.|WEB Address:      www.autodesk.com"
 90
    32768
280
     0
281
     0
  0
CLASS
  1
ACDBPLACEHOLDER
  2
AcDbPlaceHolder
  3
ObjectDBX Classes
 90
        0
280
     0
281
     0
  0
CLASS
  1
LAYOUT
  2
AcDbLayout
  3
ObjectDBX Classes
 90
        0
280
     0
281
     0
  0
CLASS
  1
MATERIAL
  2
AcDbMaterial
  3
ObjectDBX Classes
 90
     1024
280
     0
281
     0
  0
CLASS
  1
VISUALSTYLE
  2
AcDbVisualStyle
  3
ObjectDBX Classes
 90
     4095
280
     0
281
     0
  0
CLASS
  1
TABLESTYLE
  2
AcDbTableStyle
  3
ObjectDBX Classes
 90
     4095
280
     0
281
     0
  0
CLASS
  1
SORTENTSTABLE
  2
AcDbSortentsTable
  3
ObjectDBX Classes
 90
        0
280
     0
281
     0
  0
ENDSEC
  0
SECTION
  2
TABLES
  0
TABLE
  2
VPORT
  5
8
330
0
100
AcDbSymbolTable
 70
     1
  0
VPORT
  5
132AE
330
8
100
AcDbSymbolTableRecord
100
AcDbViewportTableRecord
  2
*Active
 70
     0
 10
0.0
 20
0.0
 11
1.0
 21
1.0
 12
127.2321231986322
 22
150.2221076271055
 13
0.0
 23
0.0
 14
10.0
 24
10.0
 15
10.0
 25
10.0
 16
0.0
 26
0.0
 36
1.0
 17
0.0
 27
0.0
 37
0.0
 40
201.3077330665612
 41
1.759278897136797
 42
50.0
 43
0.0
 44
0.0
 50
0.0
 51
0.0
 71
     0
 72
  1000
 73
     1
 74
     3
 75
     0
 76
     0
 77
     0
 78
     0
281
     0
 65
     1
110
0.0
120
0.0
130
0.0
111
1.0
121
0.0
131
0.0
112
0.0
122
1.0
132
0.0
 79
     0
146
0.0
  0
ENDTAB
  0
TABLE
  2
LTYPE
  5
5
330
0
100
AcDbSymbolTable
 70
     3
  0
LTYPE
  5
14
330
5
100
AcDbSymbolTableRecord
100
AcDbLinetypeTableRecord
  2
ByBlock
 70
     0
  3

 72
    65
 73
     0
 40
0.0
  0
LTYPE
  5
15
330
5
100
AcDbSymbolTableRecord
100
AcDbLinetypeTableRecord
  2
ByLayer
 70
     0
  3

 72
    65
 73
     0
 40
0.0
  0
LTYPE
  5
16
330
5
100
AcDbSymbolTableRecord
100
AcDbLinetypeTableRecord
  2
Continuous
 70
     0
  3
Solid line
 72
    65
 73
     0
 40
0.0
  0
LTYPE
  5
118
330
5
100
AcDbSymbolTableRecord
100
AcDbLinetypeTableRecord
  2
CENTER
 70
     0
  3
____ _ ____ _ ____ _ ____ _ ____ _ ____ _ ____
 72
    65
 73
     4
 40
0.6
 49
0.375
 74
     0
 49
-0.075
 74
     0
 49
0.075
 74
     0
 49
-0.075
 74
     0
  0
LTYPE
  5
127D2
330
5
100
AcDbSymbolTableRecord
100
AcDbLinetypeTableRecord
  2
HIDDEN
 70
     0
  3
_ 
 72
    65
 73
     2
 40
4.5
 49
3.0
 74
     0
 49
-1.5
 74
     0
  0
ENDTAB
  0
TABLE
  2
LAYER
  5
2
330
0
100
AcDbSymbolTable
 70
     9
  0
LAYER
  5
10
330
2
100
AcDbSymbolTableRecord
100
AcDbLayerTableRecord
  2
0
 70
     0
 62
     7
  6
Continuous
370
    -3
390
F
  0
LAYER
  5
119
330
2
100
AcDbSymbolTableRecord
100
AcDbLayerTableRecord
  2
Defpoints
 70
     0
 62
     7
  6
Continuous
290
     0
370
    -3
390
F
  0
LAYER
  5
11A
330
2
100
AcDbSymbolTableRecord
100
AcDbLayerTableRecord
  2
91000_TIP
 70
     0
 62
     7
  6
Continuous
370
    -3
390
F
  0
LAYER
  5
11B
330
2
100
AcDbSymbolTableRecord
100
AcDbLayerTableRecord
  2
11000_Left
 70
     0
 62
     7
  6
Continuous
370
    -3
390
F
  0
LAYER
  5
11C
330
2
100
AcDbSymbolTableRecord
100
AcDbLayerTableRecord
  2
10000_FRONT
 70
     0
 62
     7
  6
Continuous
370
    -3
390
F
  0
LAYER
  5
11D
330
2
100
AcDbSymbolTableRecord
100
AcDbLayerTableRecord
  2
10100_FRONT_DIM
 70
     0
 62
     7
  6
Continuous
370
    -3
390
F
  0
LAYER
  5
11E
330
2
100
AcDbSymbolTableRecord
100
AcDbLayerTableRecord
  2
90000_FRAME
 70
     0
 62
     7
  6
Continuous
370
    -3
390
F
  0
LAYER
  5
11F
330
2
100
AcDbSymbolTableRecord
100
AcDbLayerTableRecord
  2
11100_LEFT_DIM
 70
     0
 62
     7
  6
Continuous
370
    -3
390
F
  0
ENDTAB
  0
TABLE
  2
STYLE
  5
3
330
0
100
AcDbSymbolTable
 70
     1
  0
STYLE
  5
11
330
3
100
AcDbSymbolTableRecord
100
AcDbTextStyleTableRecord
  2
Standard
 70
     0
 40
0.0
 41
1.0
 50
0.0
 71
     0
 42
2.5
  3
txt
  4

  0
ENDTAB
  0
TABLE
  2
VIEW
  5
6
330
0
100
AcDbSymbolTable
 70
     0
  0
ENDTAB
  0
TABLE
  2
UCS
  5
7
330
0
100
AcDbSymbolTable
 70
     0
  0
ENDTAB
  0
TABLE
  2
APPID
  5
9
330
0
100
AcDbSymbolTable
 70
     3
  0
APPID
  5
12
330
9
100
AcDbSymbolTableRecord
100
AcDbRegAppTableRecord
  2
ACAD
 70
     0
  0
APPID
  5
121
330
9
100
AcDbSymbolTableRecord
100
AcDbRegAppTableRecord
  2
AUSTER_ANSICHT
 70
     0
  0
APPID
  5
122
330
9
100
AcDbSymbolTableRecord
100
AcDbRegAppTableRecord
  2
AUSTER_FOLIE
 70
     0
  0
ENDTAB
  0
TABLE
  2
DIMSTYLE
  5
A
330
0
100
AcDbSymbolTable
 70
     3
100
AcDbDimStyleTable
 71
     2
340
120
340
27
  0
DIMSTYLE
105
27
330
A
100
AcDbSymbolTableRecord
100
AcDbDimStyleTableRecord
  2
ISO-25
 70
     0
 41
2.5
 42
0.625
 43
3.75
 44
1.25
 73
     0
 74
     0
 77
     1
 78
     8
140
2.5
141
2.5
143
0.03937007874016
147
0.625
171
     3
172
     1
271
     2
272
     2
274
     3
278
    44
283
     0
284
     8
340
11
  0
DIMSTYLE
105
120
102
{ACAD_REACTORS
330
1350F
330
13510
330
13511
330
13512
330
13513
330
13514
330
13515
330
13516
330
13517
330
13518
102
}
330
A
100
AcDbSymbolTableRecord
100
AcDbDimStyleTableRecord
  2
DSTYLE1
 70
     0
 41
3.0
 42
0.0
 44
1.0
 73
     0
 74
     0
 77
     1
 78
     3
140
2.5
143
0.039370079
147
1.0
271
     3
272
     3
274
     0
279
     2
340
11
  0
ENDTAB
  0
TABLE
  2
BLOCK_RECORD
  5
1
330
0
100
AcDbSymbolTable
 70
    34
  0
BLOCK_RECORD
  5
1F
330
1
100
AcDbSymbolTableRecord
100
AcDbBlockTableRecord
  2
*Model_Space
340
22
  0
BLOCK_RECORD
  5
50
330
1
100
AcDbSymbolTableRecord
100
AcDbBlockTableRecord
  2
*Paper_Space
340
51
  0
BLOCK_RECORD
  5
55
330
1
100
AcDbSymbolTableRecord
100
AcDbBlockTableRecord
  2
*Paper_Space0
340
56
  0
BLOCK_RECORD
  5
86
330
1
100
AcDbSymbolTableRecord
100
AcDbBlockTableRecord
  2
SIEMENS_OUTLINE_BL0
340
0
102
{BLKREFS
331
C5B
102
}
  0
BLOCK_RECORD
  5
136C3
330
1
100
AcDbSymbolTableRecord
100
AcDbBlockTableRecord
  2
*D24
340
0
  0
BLOCK_RECORD
  5
136D0
330
1
100
AcDbSymbolTableRecord
100
AcDbBlockTableRecord
  2
*D25
340
0
  0
BLOCK_RECORD
  5
136DD
330
1
100
AcDbSymbolTableRecord
100
AcDbBlockTableRecord
  2
*D26
340
0
  0
BLOCK_RECORD
  5
136EA
330
1
100
AcDbSymbolTableRecord
100
AcDbBlockTableRecord
  2
*D27
340
0
  0
BLOCK_RECORD
  5
136F8
330
1
100
AcDbSymbolTableRecord
100
AcDbBlockTableRecord
  2
*D28
340
0
  0
BLOCK_RECORD
  5
13705
330
1
100
AcDbSymbolTableRecord
100
AcDbBlockTableRecord
  2
*D29
340
0
  0
BLOCK_RECORD
  5
13711
330
1
100
AcDbSymbolTableRecord
100
AcDbBlockTableRecord
  2
*D30
340
0
  0
BLOCK_RECORD
  5
1371C
330
1
100
AcDbSymbolTableRecord
100
AcDbBlockTableRecord
  2
*D31
340
0
  0
BLOCK_RECORD
  5
13729
330
1
100
AcDbSymbolTableRecord
100
AcDbBlockTableRecord
  2
*D32
340
0
  0
BLOCK_RECORD
  5
13736
330
1
100
AcDbSymbolTableRecord
100
AcDbBlockTableRecord
  2
*D33
340
0
  0
ENDTAB
  0
ENDSEC
  0
SECTION
  2
BLOCKS
  0
BLOCK
  5
20
330
1F
100
AcDbEntity
  8
0
100
AcDbBlockBegin
  2
*Model_Space
 70
     0
 10
0.0
 20
0.0
 30
0.0
  3
*Model_Space
  1

  0
ENDBLK
  5
21
330
1F
100
AcDbEntity
  8
0
100
AcDbBlockEnd
  0
BLOCK
  5
52
330
50
100
AcDbEntity
 67
     1
  8
0
100
AcDbBlockBegin
  2
*Paper_Space
 70
     0
 10
0.0
 20
0.0
 30
0.0
  3
*Paper_Space
  1

  0
ENDBLK
  5
53
330
50
100
AcDbEntity
 67
     1
  8
0
100
AcDbBlockEnd
  0
BLOCK
  5
57
330
55
100
AcDbEntity
 67
     1
  8
0
100
AcDbBlockBegin
  2
*Paper_Space0
 70
     0
 10
0.0
 20
0.0
 30
0.0
  3
*Paper_Space0
  1

  0
ENDBLK
  5
58
330
55
100
AcDbEntity
 67
     1
  8
0
100
AcDbBlockEnd
  0
BLOCK
  5
87
330
86
100
AcDbEntity
  8
0
  6
Continuous
 62
     7
100
AcDbBlockBegin
  2
SIEMENS_OUTLINE_BL0
 70
     0
 10
0.0
 20
0.0
 30
0.0
  3
SIEMENS_OUTLINE_BL0
  1

  0
LINE
  5
88
330
86
100
AcDbEntity
  8
0
  6
Continuous
 62
     7
100
AcDbLine
 10
79.186200508
 20
21.4145478991
 30
0.0
 11
79.186200508
 21
16.6612788158
 31
0.0
  0
LINE
  5
89
330
86
100
AcDbEntity
  8
0
  6
Continuous
 62
     7
100
AcDbLine
 10
80.61218123299999
 20
21.4145478991
 30
0.0
 11
80.61218123299999
 21
16.6612788158
 31
0.0
  0
LINE
  5
8A
330
86
100
AcDbEntity
  8
0
  6
Continuous
 62
     7
100
AcDbLine
 10
79.186200508
 20
16.6612788158
 30
0.0
 11
80.61218123299999
 21
16.6612788158
 31
0.0
  0
LINE
  5
8B
330
86
100
AcDbEntity
  8
0
  6
Continuous
 62
     7
100
AcDbLine
 10
79.186200508
 20
21.4145478991
 30
0.0
 11
80.61218123299999
 21
21.4145478991
 31
0.0
  0
LINE
  5
8C
330
86
100
AcDbEntity
  8
0
  6
Continuous
 62
     7
100
AcDbLine
 10
81.7054331221
 20
21.4145478991
 30
0.0
 11
81.7054331221
 21
16.6612788158
 31
0.0
  0
LINE
  5
8D
330
86
100
AcDbEntity
  8
0
  6
Continuous
 62
     7
100
AcDbLine
 10
81.7054331221
 20
16.6612788158
 30
0.0
 11
85.2703849346
 21
16.6612788158
 31
0.0
  0
LINE
  5
8E
330
86
100
AcDbEntity
  8
0
  6
Continuous
 62
     7
100
AcDbLine
 10
85.2703849346
 20
17.56439994169999
 30
0.0
 11
83.0838811563
 21
17.56439994169999
 31
0.0
  0
LINE
  5
8F
330
86
100
AcDbEntity
  8
0
  6
Continuous
 62
     7
100
AcDbLine
 10
85.2703849346
 20
17.56439994169999
 30
0.0
 11
85.2703849346
 21
16.6612788158
 31
0.0
  0
LINE
  5
90
330
86
100
AcDbEntity
  8
0
  6
Continuous
 62
     7
100
AcDbLine
 10
85.2228522438
 20
21.4145478991
 30
0.0
 11
81.7054331221
 21
21.4145478991
 31
0.0
  0
LINE
  5
91
330
86
100
AcDbEntity
  8
0
  6
Continuous
 62
     7
100
AcDbLine
 10
85.2228522438
 20
20.5351931187
 30
0.0
 11
83.0838811563
 21
20.5351931187
 31
0.0
  0
LINE
  5
92
330
86
100
AcDbEntity
  8
0
  6
Continuous
 62
     7
100
AcDbLine
 10
85.2228522438
 20
21.4145478991
 30
0.0
 11
85.2228522438
 21
20.5351931187
 31
0.0
  0
LINE
  5
93
330
86
100
AcDbEntity
  8
0
  6
Continuous
 62
     7
100
AcDbLine
 10
84.9376560988
 20
18.68141817619999
 30
0.0
 11
83.0838811563
 21
18.68141817619999
 31
0.0
  0
LINE
  5
94
330
86
100
AcDbEntity
  8
0
  6
Continuous
 62
     7
100
AcDbLine
 10
84.9376560988
 20
19.46570757499999
 30
0.0
 11
84.9376560988
 21
18.68141817619999
 31
0.0
  0
LINE
  5
95
330
86
100
AcDbEntity
  8
0
  6
Continuous
 62
     7
100
AcDbLine
 10
84.9376560988
 20
19.46570757499999
 30
0.0
 11
83.0838811563
 21
19.46570757499999
 31
0.0
  0
LINE
  5
96
330
86
100
AcDbEntity
  8
0
  6
Continuous
 62
     7
100
AcDbLine
 10
83.0838811563
 20
20.5351931187
 30
0.0
 11
83.0838811563
 21
19.46570757499999
 31
0.0
  0
LINE
  5
97
330
86
100
AcDbEntity
  8
0
  6
Continuous
 62
     7
100
AcDbLine
 10
83.0838811563
 20
18.68141817619999
 30
0.0
 11
83.0838811563
 21
17.56439994169999
 31
0.0
  0
LINE
  5
98
330
86
100
AcDbEntity
  8
0
  6
Continuous
 62
     7
100
AcDbLine
 10
86.0784406788
 20
16.6612788158
 30
0.0
 11
86.0784406788
 21
21.4145478991
 31
0.0
  0
LINE
  5
99
330
86
100
AcDbEntity
  8
0
  6
Continuous
 62
     7
100
AcDbLine
 10
86.0784406788
 20
16.6612788158
 30
0.0
 11
87.02909449539999
 21
16.6612788158
 31
0.0
  0
LINE
  5
9A
330
86
100
AcDbEntity
  8
0
  6
Continuous
 62
     7
100
AcDbLine
 10
91.92496165120001
 20
21.4145478991
 30
0.0
 11
91.92496165120001
 21
16.6612788158
 31
0.0
  0
LINE
  5
9B
330
86
100
AcDbEntity
  8
0
  6
Continuous
 62
     7
100
AcDbLine
 10
91.92496165120001
 20
16.6612788158
 30
0.0
 11
90.54651361700001
 21
16.6612788158
 31
0.0
  0
LINE
  5
9C
330
86
100
AcDbEntity
  8
0
  6
Continuous
 62
     7
100
AcDbLine
 10
88.3600098387
 20
16.61374612499999
 30
0.0
 11
89.21559827370002
 21
16.61374612499999
 31
0.0
  0
LINE
  5
9D
330
86
100
AcDbEntity
  8
0
  6
Continuous
 62
     7
100
AcDbLine
 10
88.3600098387
 20
16.61374612499999
 30
0.0
 11
87.02909449539999
 21
19.7033710291
 31
0.0
  0
LINE
  5
9E
330
86
100
AcDbEntity
  8
0
  6
Continuous
 62
     7
100
AcDbLine
 10
87.02909449539999
 20
16.6612788158
 30
0.0
 11
87.02909449539999
 21
19.7033710291
 31
0.0
  0
LINE
  5
9F
330
86
100
AcDbEntity
  8
0
  6
Continuous
 62
     7
100
AcDbLine
 10
90.54651361700001
 20
19.75090372
 30
0.0
 11
89.21559827370002
 21
16.61374612499999
 31
0.0
  0
LINE
  5
A0
330
86
100
AcDbEntity
  8
0
  6
Continuous
 62
     7
100
AcDbLine
 10
87.78961754870001
 20
21.4145478991
 30
0.0
 11
86.0784406788
 21
21.4145478991
 31
0.0
  0
LINE
  5
A1
330
86
100
AcDbEntity
  8
0
  6
Continuous
 62
     7
100
AcDbLine
 10
91.92496165120001
 20
21.4145478991
 30
0.0
 11
90.2137847812
 21
21.4145478991
 31
0.0
  0
LINE
  5
A2
330
86
100
AcDbEntity
  8
0
  6
Continuous
 62
     7
100
AcDbLine
 10
87.78961754870001
 20
21.4145478991
 30
0.0
 11
89.0254675104
 21
18.51505375829999
 31
0.0
  0
LINE
  5
A3
330
86
100
AcDbEntity
  8
0
  6
Continuous
 62
     7
100
AcDbLine
 10
90.2137847812
 20
21.4145478991
 30
0.0
 11
89.0254675104
 21
18.51505375829999
 31
0.0
  0
LINE
  5
A4
330
86
100
AcDbEntity
  8
0
  6
Continuous
 62
     7
100
AcDbLine
 10
90.54651361700001
 20
19.75090372
 30
0.0
 11
90.54651361700001
 21
16.6612788158
 31
0.0
  0
LINE
  5
A5
330
86
100
AcDbEntity
  8
0
  6
Continuous
 62
     7
100
AcDbLine
 10
93.01821354030002
 20
21.4145478991
 30
0.0
 11
93.01821354030002
 21
16.6612788158
 31
0.0
  0
LINE
  5
A6
330
86
100
AcDbEntity
  8
0
  6
Continuous
 62
     7
100
AcDbLine
 10
93.01821354030002
 20
16.6612788158
 30
0.0
 11
96.5831653528
 21
16.6612788158
 31
0.0
  0
LINE
  5
A7
330
86
100
AcDbEntity
  8
0
  6
Continuous
 62
     7
100
AcDbLine
 10
96.5831653528
 20
17.56439994169999
 30
0.0
 11
94.3966615745
 21
17.56439994169999
 31
0.0
  0
LINE
  5
A8
330
86
100
AcDbEntity
  8
0
  6
Continuous
 62
     7
100
AcDbLine
 10
96.5831653528
 20
17.56439994169999
 30
0.0
 11
96.5831653528
 21
16.6612788158
 31
0.0
  0
LINE
  5
A9
330
86
100
AcDbEntity
  8
0
  6
Continuous
 62
     7
100
AcDbLine
 10
96.53563266200002
 20
21.4145478991
 30
0.0
 11
93.01821354030002
 21
21.4145478991
 31
0.0
  0
LINE
  5
AA
330
86
100
AcDbEntity
  8
0
  6
Continuous
 62
     7
100
AcDbLine
 10
96.53563266200002
 20
20.5351931187
 30
0.0
 11
94.3966615745
 21
20.5351931187
 31
0.0
  0
LINE
  5
AB
330
86
100
AcDbEntity
  8
0
  6
Continuous
 62
     7
100
AcDbLine
 10
96.53563266200002
 20
21.4145478991
 30
0.0
 11
96.53563266200002
 21
20.5351931187
 31
0.0
  0
LINE
  5
AC
330
86
100
AcDbEntity
  8
0
  6
Continuous
 62
     7
100
AcDbLine
 10
96.25043651700002
 20
18.68141817619999
 30
0.0
 11
94.3966615745
 21
18.68141817619999
 31
0.0
  0
LINE
  5
AD
330
86
100
AcDbEntity
  8
0
  6
Continuous
 62
     7
100
AcDbLine
 10
96.25043651700002
 20
19.46570757499999
 30
0.0
 11
96.25043651700002
 21
18.68141817619999
 31
0.0
  0
LINE
  5
AE
330
86
100
AcDbEntity
  8
0
  6
Continuous
 62
     7
100
AcDbLine
 10
96.25043651700002
 20
19.46570757499999
 30
0.0
 11
94.3966615745
 21
19.46570757499999
 31
0.0
  0
LINE
  5
AF
330
86
100
AcDbEntity
  8
0
  6
Continuous
 62
     7
100
AcDbLine
 10
94.3966615745
 20
20.5351931187
 30
0.0
 11
94.3966615745
 21
19.46570757499999
 31
0.0
  0
LINE
  5
B0
330
86
100
AcDbEntity
  8
0
  6
Continuous
 62
     7
100
AcDbLine
 10
94.3966615745
 20
18.68141817619999
 30
0.0
 11
94.3966615745
 21
17.56439994169999
 31
0.0
  0
LINE
  5
B1
330
86
100
AcDbEntity
  8
0
  6
Continuous
 62
     7
100
AcDbLine
 10
97.3674547515
 20
16.6612788158
 30
0.0
 11
97.3674547515
 21
21.4145478991
 31
0.0
  0
LINE
  5
B2
330
86
100
AcDbEntity
  8
0
  6
Continuous
 62
     7
100
AcDbLine
 10
101.5503315447999
 20
21.4145478991
 30
0.0
 11
101.5503315447999
 21
16.6612788158
 31
0.0
  0
LINE
  5
B3
330
86
100
AcDbEntity
  8
0
  6
Continuous
 62
     7
100
AcDbLine
 10
97.3674547515
 20
16.6612788158
 30
0.0
 11
98.3181085682
 21
16.6612788158
 31
0.0
  0
LINE
  5
B4
330
86
100
AcDbEntity
  8
0
  6
Continuous
 62
     7
100
AcDbLine
 10
101.5503315447999
 20
21.4145478991
 30
0.0
 11
100.5996777281999
 21
21.4145478991
 31
0.0
  0
LINE
  5
B5
330
86
100
AcDbEntity
  8
0
  6
Continuous
 62
     7
100
AcDbLine
 10
98.91226720360002
 20
21.4145478991
 30
0.0
 11
97.3674547515
 21
21.4145478991
 31
0.0
  0
LINE
  5
B6
330
86
100
AcDbEntity
  8
0
  6
Continuous
 62
     7
100
AcDbLine
 10
101.5503315447999
 20
16.6612788158
 30
0.0
 11
100.0292854381999
 21
16.6612788158
 31
0.0
  0
LINE
  5
B7
330
86
100
AcDbEntity
  8
0
  6
Continuous
 62
     7
100
AcDbLine
 10
100.0292854381999
 20
16.6612788158
 30
0.0
 11
98.3181085682
 21
19.7033710291
 31
0.0
  0
LINE
  5
B8
330
86
100
AcDbEntity
  8
0
  6
Continuous
 62
     7
100
AcDbLine
 10
98.91226720360002
 20
21.4145478991
 30
0.0
 11
100.5996777281999
 21
18.4675210675
 31
0.0
  0
LINE
  5
B9
330
86
100
AcDbEntity
  8
0
  6
Continuous
 62
     7
100
AcDbLine
 10
100.5996777281999
 20
21.4145478991
 30
0.0
 11
100.5996777281999
 21
18.4675210675
 31
0.0
  0
LINE
  5
BA
330
86
100
AcDbEntity
  8
0
  6
Continuous
 62
     7
100
AcDbLine
 10
98.3181085682
 20
16.6612788158
 30
0.0
 11
98.3181085682
 21
19.7033710291
 31
0.0
  0
LINE
  5
BB
330
86
100
AcDbEntity
  8
0
  6
Continuous
 62
     7
100
AcDbLine
 10
102.3583872889999
 20
16.75634419749999
 30
0.0
 11
102.3583872889999
 21
17.7069980142
 31
0.0
  0
LINE
  5
BC
330
86
100
AcDbEntity
  8
0
  6
Continuous
 62
     7
100
AcDbLine
 10
105.6856756473
 20
20.4163613916
 30
0.0
 11
105.6856756473
 21
21.36701520829999
 31
0.0
  0
ARC
  5
BD
330
86
100
AcDbEntity
  8
0
  6
Continuous
 62
     7
100
AcDbCircle
 10
104.063028414
 20
18.61843736089998
 30
0.0
 40
1.111619360599997
100
AcDbArc
 50
277.7099956934
 51
295.6884927745999
  0
ARC
  5
BE
330
86
100
AcDbEntity
  8
0
  6
Continuous
 62
     7
100
AcDbCircle
 10
104.3473383967
 20
17.8936115972
 30
0.0
 40
0.3401689265
100
AcDbArc
 50
305.503221255
 51
72.46528985229999
  0
ARC
  5
BF
330
86
100
AcDbEntity
  8
0
  6
Continuous
 62
     7
100
AcDbCircle
 10
103.7813445885999
 20
21.2953185068
 30
0.0
 40
4.756794641099999
100
AcDbArc
 50
252.5939200548001
 51
280.9816604255999
  0
ARC
  5
C0
330
86
100
AcDbEntity
  8
0
  6
Continuous
 62
     7
100
AcDbCircle
 10
104.2361799517
 20
18.6773047703
 30
0.0
 40
2.100726595299998
100
AcDbArc
 50
282.4058358519999
 51
311.8644433928
  0
ARC
  5
C1
330
86
100
AcDbEntity
  8
0
  6
Continuous
 62
     7
100
AcDbCircle
 10
103.9626156045999
 20
20.2856464918
 30
0.0
 40
0.3029626476
100
AcDbArc
 50
154.4400348282
 51
221.8201698800999
  0
ARC
  5
C2
330
86
100
AcDbEntity
  8
0
  6
Continuous
 62
     7
100
AcDbCircle
 10
104.0418367559
 20
20.2064253405
 30
0.0
 40
0.4103089737
100
AcDbArc
 50
102.8287828680999
 51
149.2259639003
  0
ARC
  5
C3
330
86
100
AcDbEntity
  8
0
  6
Continuous
 62
     7
100
AcDbCircle
 10
104.4588635915999
 20
18.46409001059999
 30
0.0
 40
2.201836557
100
AcDbArc
 50
84.0400061857
 51
103.3427657870999
  0
ARC
  5
C4
330
86
100
AcDbEntity
  8
0
  6
Continuous
 62
     7
100
AcDbCircle
 10
104.1178997669
 20
16.0467260867
 30
0.0
 40
4.642373736499997
100
AcDbArc
 50
70.2625858546
 51
82.95241863799999
  0
ARC
  5
C5
330
86
100
AcDbEntity
  8
0
  6
Continuous
 62
     7
100
AcDbCircle
 10
103.6038815646999
 20
20.7183489764
 30
0.0
 40
3.258755990899997
100
AcDbArc
 50
247.5300206145
 51
280.7579522143
  0
ARC
  5
C6
330
86
100
AcDbEntity
  8
0
  6
Continuous
 62
     7
100
AcDbCircle
 10
97.21891509270001
 20
2.4668290159
 30
0.0
 40
17.3316084133
100
AcDbArc
 50
65.34146746500001
 51
67.39977707359999
  0
ARC
  5
C7
330
86
100
AcDbEntity
  8
0
  6
Continuous
 62
     7
100
AcDbCircle
 10
108.0147774981
 20
28.259255379
 30
0.0
 40
10.6291642039
100
AcDbArc
 50
242.8620101252001
 51
247.1042029186
  0
ARC
  5
C8
330
86
100
AcDbEntity
  8
0
  6
Continuous
 62
     7
100
AcDbCircle
 10
104.1598762715
 20
20.725323882
 30
0.0
 40
2.166291629199998
100
AcDbArc
 50
227.3119280793999
 51
242.7040315235
  0
ARC
  5
C9
330
86
100
AcDbEntity
  8
0
  6
Continuous
 62
     7
100
AcDbCircle
 10
103.5558454618999
 20
20.0196462412
 30
0.0
 40
1.238521734
100
AcDbArc
 50
194.7952194236
 51
225.7176549047
  0
ARC
  5
CA
330
86
100
AcDbEntity
  8
0
  6
Continuous
 62
     7
100
AcDbCircle
 10
103.6180035961
 20
20.05986621039999
 30
0.0
 40
1.309092072899999
100
AcDbArc
 50
164.1974860461
 51
195.8025139539
  0
ARC
  5
CB
330
86
100
AcDbEntity
  8
0
  6
Continuous
 62
     7
100
AcDbCircle
 10
104.1750273167
 20
19.1715990505
 30
0.0
 40
2.366924815299999
100
AcDbArc
 50
86.22180229280001
 51
120.4272602309
  0
ARC
  5
CC
330
86
100
AcDbEntity
  8
0
  6
Continuous
 62
     7
100
AcDbCircle
 10
103.9061705341999
 20
12.4754312294
 30
0.0
 40
9.0679051661
100
AcDbArc
 50
78.68270492259998
 51
87.3147599624
  0
ARC
  5
CD
330
86
100
AcDbEntity
  8
0
  6
Continuous
 62
     7
100
AcDbCircle
 10
103.4501013557999
 20
20.1673739729
 30
0.0
 40
1.119747444
100
AcDbArc
 50
142.8139179029999
 51
167.1522951416999
  0
ARC
  5
CE
330
86
100
AcDbEntity
  8
0
  6
Continuous
 62
     7
100
AcDbCircle
 10
103.7954106973999
 20
19.86079227619999
 30
0.0
 40
1.580546684499998
100
AcDbArc
 50
121.2140948535
 51
141.5254768286
  0
ARC
  5
CF
330
86
100
AcDbEntity
  8
0
  6
Continuous
 62
     7
100
AcDbCircle
 10
104.372585063
 20
20.6718496049
 30
0.0
 40
0.8661276051999998
100
AcDbArc
 50
222.7760387596
 51
239.0362434679
  0
ARC
  5
D0
330
86
100
AcDbEntity
  8
0
  6
Continuous
 62
     7
100
AcDbCircle
 10
101.8658754847
 20
13.3415774063
 30
0.0
 40
6.858773576299999
100
AcDbArc
 50
59.90202725599999
 51
68.2036481279
  0
ARC
  5
D1
330
86
100
AcDbEntity
  8
0
  6
Continuous
 62
     7
100
AcDbCircle
 10
105.2743699785
 20
22.26746391349999
 30
0.0
 40
2.698741017099999
100
AcDbArc
 50
240.0481997804
 51
251.3779673736999
  0
ARC
  5
D2
330
86
100
AcDbEntity
  8
0
  6
Continuous
 62
     7
100
AcDbCircle
 10
104.6089128116999
 20
18.1105652982
 30
0.0
 40
1.4334474881
100
AcDbArc
 50
315.8904553224
 51
333.5229264372999
  0
ARC
  5
D3
330
86
100
AcDbEntity
  8
0
  6
Continuous
 62
     7
100
AcDbCircle
 10
104.6135510555
 20
18.057158148
 30
0.0
 40
1.406228711899998
100
AcDbArc
 50
335.3867972702
 51
24.39151194019999
  0
ARC
  5
D4
330
86
100
AcDbEntity
  8
0
  6
Continuous
 62
     7
100
AcDbCircle
 10
104.5413461519
 20
17.97930145619999
 30
0.0
 40
1.504702514799999
100
AcDbArc
 50
25.95629166050001
 51
59.4834829668
  0
LINE
  5
D5
330
86
100
AcDbEntity
  8
0
  6
Continuous
 62
     7
100
AcDbLine
 10
74.7656602606
 20
16.75634419749999
 30
0.0
 11
74.7656602606
 21
17.7069980142
 31
0.0
  0
LINE
  5
D6
330
86
100
AcDbEntity
  8
0
  6
Continuous
 62
     7
100
AcDbLine
 10
78.09294861879997
 20
20.4163613916
 30
0.0
 11
78.09294861879997
 21
21.36701520829999
 31
0.0
  0
ARC
  5
D7
330
86
100
AcDbEntity
  8
0
  6
Continuous
 62
     7
100
AcDbCircle
 10
76.4703013855
 20
18.61843736089998
 30
0.0
 40
1.111619360599997
100
AcDbArc
 50
277.7099956934
 51
295.6884927745999
  0
ARC
  5
D8
330
86
100
AcDbEntity
  8
0
  6
Continuous
 62
     7
100
AcDbCircle
 10
76.7546113683
 20
17.8936115972
 30
0.0
 40
0.3401689265
100
AcDbArc
 50
305.5032212556
 51
72.4652898515
  0
ARC
  5
D9
330
86
100
AcDbEntity
  8
0
  6
Continuous
 62
     7
100
AcDbCircle
 10
76.1886175602
 20
21.2953185068
 30
0.0
 40
4.756794641099999
100
AcDbArc
 50
252.5939200545
 51
280.9816604253
  0
ARC
  5
DA
330
86
100
AcDbEntity
  8
0
  6
Continuous
 62
     7
100
AcDbCircle
 10
76.64345292330001
 20
18.6773047703
 30
0.0
 40
2.100726595299998
100
AcDbArc
 50
282.4058358513
 51
311.8644433923
  0
ARC
  5
DB
330
86
100
AcDbEntity
  8
0
  6
Continuous
 62
     7
100
AcDbCircle
 10
76.3698885762
 20
20.2856464918
 30
0.0
 40
0.3029626476
100
AcDbArc
 50
154.4400348282
 51
221.8201698800999
  0
ARC
  5
DC
330
86
100
AcDbEntity
  8
0
  6
Continuous
 62
     7
100
AcDbCircle
 10
76.4491097276
 20
20.2064253405
 30
0.0
 40
0.4103089737
100
AcDbArc
 50
102.8287828727
 51
149.2259639027
  0
ARC
  5
DD
330
86
100
AcDbEntity
  8
0
  6
Continuous
 62
     7
100
AcDbCircle
 10
76.8661365632
 20
18.46409001059999
 30
0.0
 40
2.201836557
100
AcDbArc
 50
84.0400061859
 51
103.3427657871999
  0
ARC
  5
DE
330
86
100
AcDbEntity
  8
0
  6
Continuous
 62
     7
100
AcDbCircle
 10
76.5251727384
 20
16.0467260867
 30
0.0
 40
4.642373736499997
100
AcDbArc
 50
70.2625858546
 51
82.9524186379
  0
ARC
  5
DF
330
86
100
AcDbEntity
  8
0
  6
Continuous
 62
     7
100
AcDbCircle
 10
76.0111545363
 20
20.7183489764
 30
0.0
 40
3.258755990899997
100
AcDbArc
 50
247.5300206148
 51
280.7579522145
  0
ARC
  5
E0
330
86
100
AcDbEntity
  8
0
  6
Continuous
 62
     7
100
AcDbCircle
 10
69.6261880643
 20
2.4668290159
 30
0.0
 40
17.3316084133
100
AcDbArc
 50
65.34146746500001
 51
67.39977707359999
  0
ARC
  5
E1
330
86
100
AcDbEntity
  8
0
  6
Continuous
 62
     7
100
AcDbCircle
 10
80.4220504697
 20
28.259255379
 30
0.0
 40
10.6291642039
100
AcDbArc
 50
242.8620101252001
 51
247.1042029184999
  0
ARC
  5
E2
330
86
100
AcDbEntity
  8
0
  6
Continuous
 62
     7
100
AcDbCircle
 10
76.56714924310001
 20
20.725323882
 30
0.0
 40
2.166291629199998
100
AcDbArc
 50
227.3119280793999
 51
242.7040315235
  0
ARC
  5
E3
330
86
100
AcDbEntity
  8
0
  6
Continuous
 62
     7
100
AcDbCircle
 10
75.9631184335
 20
20.0196462412
 30
0.0
 40
1.238521734
100
AcDbArc
 50
194.7952194234
 51
225.7176549041999
  0
ARC
  5
E4
330
86
100
AcDbEntity
  8
0
  6
Continuous
 62
     7
100
AcDbCircle
 10
76.58230028830002
 20
19.1715990505
 30
0.0
 40
2.366924815299999
100
AcDbArc
 50
86.22180229280001
 51
120.4272602309
  0
ARC
  5
E5
330
86
100
AcDbEntity
  8
0
  6
Continuous
 62
     7
100
AcDbCircle
 10
76.3134435058
 20
12.4754312294
 30
0.0
 40
9.0679051661
100
AcDbArc
 50
78.68270492259998
 51
87.3147599624
  0
ARC
  5
E6
330
86
100
AcDbEntity
  8
0
  6
Continuous
 62
     7
100
AcDbCircle
 10
76.20268366899998
 20
19.86079227619999
 30
0.0
 40
1.580546684599998
100
AcDbArc
 50
121.2140948540999
 51
141.5254768289999
  0
ARC
  5
E7
330
86
100
AcDbEntity
  8
0
  6
Continuous
 62
     7
100
AcDbCircle
 10
76.7798580346
 20
20.6718496049
 30
0.0
 40
0.8661276051999998
100
AcDbArc
 50
222.7760387596
 51
239.0362434679
  0
ARC
  5
E8
330
86
100
AcDbEntity
  8
0
  6
Continuous
 62
     7
100
AcDbCircle
 10
74.2731484563
 20
13.3415774063
 30
0.0
 40
6.858773576299999
100
AcDbArc
 50
59.90202725620001
 51
68.20364812820002
  0
ARC
  5
E9
330
86
100
AcDbEntity
  8
0
  6
Continuous
 62
     7
100
AcDbCircle
 10
77.6816429501
 20
22.26746391349999
 30
0.0
 40
2.698741017099999
100
AcDbArc
 50
240.0481997804
 51
251.3779673734
  0
ARC
  5
EA
330
86
100
AcDbEntity
  8
0
  6
Continuous
 62
     7
100
AcDbCircle
 10
77.0161857833
 20
18.1105652982
 30
0.0
 40
1.4334474881
100
AcDbArc
 50
315.8904553225998
 51
333.5229264375
  0
ARC
  5
EB
330
86
100
AcDbEntity
  8
0
  6
Continuous
 62
     7
100
AcDbCircle
 10
77.020824027
 20
18.057158148
 30
0.0
 40
1.406228711899998
100
AcDbArc
 50
335.3867972703
 51
24.3915119403
  0
ARC
  5
EC
330
86
100
AcDbEntity
  8
0
  6
Continuous
 62
     7
100
AcDbCircle
 10
76.94861912350001
 20
17.97930145619999
 30
0.0
 40
1.504702514699999
100
AcDbArc
 50
25.9562916611
 51
59.4834829676
  0
LINE
  5
ED
330
86
100
AcDbEntity
  8
0
  6
Continuous
 62
     7
100
AcDbLine
 10
74.9574888499
 20
20.8337423583
 30
0.0
 11
75.2315546745
 21
21.10781543579999
 31
0.0
  0
ARC
  5
EE
330
86
100
AcDbEntity
  8
0
  6
Continuous
 62
     7
100
AcDbCircle
 10
76.0252765676
 20
20.05986621039999
 30
0.0
 40
1.309092072899999
100
AcDbArc
 50
164.1974860461
 51
195.8025139539
  0
ARC
  5
EF
330
86
100
AcDbEntity
  8
0
  6
Continuous
 62
     7
100
AcDbCircle
 10
75.8573743274
 20
20.1673739729
 30
0.0
 40
1.119747444
100
AcDbArc
 50
142.8139179029999
 51
167.1522951416999
  0
ENDBLK
  5
F0
330
86
100
AcDbEntity
  8
0
100
AcDbBlockEnd
  0
BLOCK
  5
136CE
330
136C3
100
AcDbEntity
  8
0
100
AcDbBlockBegin
  2
*D24
 70
     1
 10
0.0
 20
0.0
 30
0.0
  3
*D24
  1

  0
LINE
  5
13807
330
136C3
100
AcDbEntity
  8
10100_FRONT_DIM
  6
Continuous
 62
     0
370
    -2
100
AcDbLine
 10
65.2887856994738
 20
212.4824473516891
 30
0.0
 11
80.24762414297802
 21
212.4824473516891
 31
0.0
  0
LINE
  5
13808
330
136C3
100
AcDbEntity
  8
10100_FRONT_DIM
  6
Continuous
 62
     0
370
    -2
100
AcDbLine
 10
50.2887856994738
 20
92.48244735168908
 30
0.0
 11
80.247624142978
 21
92.48244735168908
 31
0.0
  0
LINE
  5
13809
330
136C3
100
AcDbEntity
  8
10100_FRONT_DIM
  6
Continuous
 62
     0
370
    -2
100
AcDbLine
 10
79.24762414297802
 20
210.4824473516891
 30
0.0
 11
79.24762414297801
 21
157.2741140183557
 31
0.0
  0
LINE
  5
1380A
330
136C3
100
AcDbEntity
  8
10100_FRONT_DIM
  6
Continuous
 62
     0
370
    -2
100
AcDbLine
 10
79.24762414297799
 20
94.48244735168907
 30
0.0
 11
79.24762414297801
 21
147.6907806850224
 31
0.0
  0
SOLID
  5
1380B
330
136C3
100
AcDbEntity
  8
10100_FRONT_DIM
  6
Continuous
 62
     0
100
AcDbTrace
 10
78.9142908096447
 20
210.4824473516891
 30
0.0
 11
79.58095747631135
 21
210.4824473516891
 31
0.0
 12
79.24762414297802
 22
212.4824473516891
 32
0.0
 13
79.24762414297802
 23
212.4824473516891
 33
0.0
  0
SOLID
  5
1380C
330
136C3
100
AcDbEntity
  8
10100_FRONT_DIM
  6
Continuous
 62
     0
100
AcDbTrace
 10
78.91429080964467
 20
94.48244735168907
 30
0.0
 11
79.58095747631133
 21
94.48244735168907
 31
0.0
 12
79.24762414297799
 22
92.48244735168908
 32
0.0
 13
79.24762414297799
 23
92.48244735168908
 33
0.0
  0
MTEXT
  5
1380D
330
136C3
100
AcDbEntity
  8
10100_FRONT_DIM
  6
Continuous
 62
     0
370
    13
100
AcDbMText
 10
79.24762414297799
 20
152.4824473516891
 30
0.0
 40
3.5
 41
0.0
 71
     5
 72
     1
  1
\A1;120
 11
0.0000000000000001
 21
1.0
 31
0.0
 73
     1
 44
1.0
1001
ACAD
1000
MTEXTBEGIN
1070
    73
1070
     1
1070
    44
1040
1.0
1070
    74
1070
     0
1000
MTEXTEND
  0
POINT
  5
1380E
330
136C3
100
AcDbEntity
  8
Defpoints
  6
Continuous
 62
     0
100
AcDbPoint
 10
64.2887856994738
 20
212.4824473516891
 30
0.0
  0
POINT
  5
1380F
330
136C3
100
AcDbEntity
  8
Defpoints
  6
Continuous
 62
     0
100
AcDbPoint
 10
49.2887856994738
 20
92.48244735168908
 30
0.0
  0
POINT
  5
13810
330
136C3
100
AcDbEntity
  8
Defpoints
  6
Continuous
 62
     0
100
AcDbPoint
 10
79.24762414297799
 20
92.48244735168908
 30
0.0
  0
ENDBLK
  5
136CF
330
136C3
100
AcDbEntity
  8
0
100
AcDbBlockEnd
  0
BLOCK
  5
136DB
330
136D0
100
AcDbEntity
  8
0
100
AcDbBlockBegin
  2
*D25
 70
     1
 10
0.0
 20
0.0
 30
0.0
  3
*D25
  1

  0
LINE
  5
13811
330
136D0
100
AcDbEntity
  8
11100_LEFT_DIM
  6
Continuous
 62
     0
370
    -2
100
AcDbLine
 10
139.338201858032
 20
191.2839649882982
 30
0.0
 11
139.338201858032
 21
229.5707868527036
 31
0.0
  0
LINE
  5
13812
330
136D0
100
AcDbEntity
  8
11100_LEFT_DIM
  6
Continuous
 62
     0
370
    -2
100
AcDbLine
 10
225.338201858032
 20
195.6339649882982
 30
0.0
 11
225.338201858032
 21
229.5707868527036
 31
0.0
  0
LINE
  5
13813
330
136D0
100
AcDbEntity
  8
11100_LEFT_DIM
  6
Continuous
 62
     0
370
    -2
100
AcDbLine
 10
141.338201858032
 20
228.5707868527036
 30
0.0
 11
178.4215351913653
 21
228.5707868527036
 31
0.0
  0
LINE
  5
13814
330
136D0
100
AcDbEntity
  8
11100_LEFT_DIM
  6
Continuous
 62
     0
370
    -2
100
AcDbLine
 10
223.338201858032
 20
228.5707868527036
 30
0.0
 11
186.2548685246986
 21
228.5707868527036
 31
0.0
  0
SOLID
  5
13815
330
136D0
100
AcDbEntity
  8
11100_LEFT_DIM
  6
Continuous
 62
     0
100
AcDbTrace
 10
141.338201858032
 20
228.9041201860369
 30
0.0
 11
141.338201858032
 21
228.2374535193703
 31
0.0
 12
139.338201858032
 22
228.5707868527036
 32
0.0
 13
139.338201858032
 23
228.5707868527036
 33
0.0
  0
SOLID
  5
13816
330
136D0
100
AcDbEntity
  8
11100_LEFT_DIM
  6
Continuous
 62
     0
100
AcDbTrace
 10
223.338201858032
 20
228.9041201860369
 30
0.0
 11
223.338201858032
 21
228.2374535193703
 31
0.0
 12
225.338201858032
 22
228.5707868527036
 32
0.0
 13
225.338201858032
 23
228.5707868527036
 33
0.0
  0
MTEXT
  5
13817
330
136D0
100
AcDbEntity
  8
11100_LEFT_DIM
  6
Continuous
 62
     0
370
    13
100
AcDbMText
 10
182.338201858032
 20
228.5707868527036
 30
0.0
 40
3.5
 41
0.0
 71
     5
 72
     1
  1
\A1;86
 73
     1
 44
1.0
1001
ACAD
1000
MTEXTBEGIN
1070
    73
1070
     1
1070
    44
1040
1.0
1070
    74
1070
     0
1000
MTEXTEND
  0
POINT
  5
13818
330
136D0
100
AcDbEntity
  8
Defpoints
  6
Continuous
 62
     0
100
AcDbPoint
 10
139.338201858032
 20
190.2839649882982
 30
0.0
  0
POINT
  5
13819
330
136D0
100
AcDbEntity
  8
Defpoints
  6
Continuous
 62
     0
100
AcDbPoint
 10
225.338201858032
 20
194.6339649882982
 30
0.0
  0
POINT
  5
1381A
330
136D0
100
AcDbEntity
  8
Defpoints
  6
Continuous
 62
     0
100
AcDbPoint
 10
225.338201858032
 20
228.5707868527036
 30
0.0
  0
ENDBLK
  5
136DC
330
136D0
100
AcDbEntity
  8
0
100
AcDbBlockEnd
  0
BLOCK
  5
136E8
330
136DD
100
AcDbEntity
  8
0
100
AcDbBlockBegin
  2
*D26
 70
     1
 10
0.0
 20
0.0
 30
0.0
  3
*D26
  1

  0
LINE
  5
1381B
330
136DD
100
AcDbEntity
  8
11100_LEFT_DIM
  6
Continuous
 62
     0
370
    -2
100
AcDbLine
 10
139.338201858032
 20
191.2839649882982
 30
0.0
 11
139.338201858032
 21
223.0301047626256
 31
0.0
  0
LINE
  5
1381C
330
136DD
100
AcDbEntity
  8
11100_LEFT_DIM
  6
Continuous
 62
     0
370
    -2
100
AcDbLine
 10
204.238201858032
 20
195.8339649882981
 30
0.0
 11
204.238201858032
 21
223.0301047626256
 31
0.0
  0
LINE
  5
1381D
330
136DD
100
AcDbEntity
  8
11100_LEFT_DIM
  6
Continuous
 62
     0
370
    -2
100
AcDbLine
 10
141.338201858032
 20
222.0301047626256
 30
0.0
 11
167.8715351913653
 21
222.0301047626256
 31
0.0
  0
LINE
  5
1381E
330
136DD
100
AcDbEntity
  8
11100_LEFT_DIM
  6
Continuous
 62
     0
370
    -2
100
AcDbLine
 10
202.238201858032
 20
222.0301047626256
 30
0.0
 11
175.7048685246986
 21
222.0301047626256
 31
0.0
  0
SOLID
  5
1381F
330
136DD
100
AcDbEntity
  8
11100_LEFT_DIM
  6
Continuous
 62
     0
100
AcDbTrace
 10
141.338201858032
 20
222.3634380959589
 30
0.0
 11
141.338201858032
 21
221.6967714292922
 31
0.0
 12
139.338201858032
 22
222.0301047626256
 32
0.0
 13
139.338201858032
 23
222.0301047626256
 33
0.0
  0
SOLID
  5
13820
330
136DD
100
AcDbEntity
  8
11100_LEFT_DIM
  6
Continuous
 62
     0
100
AcDbTrace
 10
202.238201858032
 20
222.3634380959589
 30
0.0
 11
202.238201858032
 21
221.6967714292922
 31
0.0
 12
204.238201858032
 22
222.0301047626256
 32
0.0
 13
204.238201858032
 23
222.0301047626256
 33
0.0
  0
MTEXT
  5
13821
330
136DD
100
AcDbEntity
  8
11100_LEFT_DIM
  6
Continuous
 62
     0
370
    13
100
AcDbMText
 10
171.788201858032
 20
222.0301047626256
 30
0.0
 40
3.5
 41
0.0
 71
     5
 72
     1
  1
\A1;65
 73
     1
 44
1.0
1001
ACAD
1000
MTEXTBEGIN
1070
    73
1070
     1
1070
    44
1040
1.0
1070
    74
1070
     0
1000
MTEXTEND
  0
POINT
  5
13822
330
136DD
100
AcDbEntity
  8
Defpoints
  6
Continuous
 62
     0
100
AcDbPoint
 10
139.338201858032
 20
190.2839649882982
 30
0.0
  0
POINT
  5
13823
330
136DD
100
AcDbEntity
  8
Defpoints
  6
Continuous
 62
     0
100
AcDbPoint
 10
204.238201858032
 20
194.8339649882981
 30
0.0
  0
POINT
  5
13824
330
136DD
100
AcDbEntity
  8
Defpoints
  6
Continuous
 62
     0
100
AcDbPoint
 10
204.238201858032
 20
222.0301047626256
 30
0.0
  0
ENDBLK
  5
136E9
330
136DD
100
AcDbEntity
  8
0
100
AcDbBlockEnd
  0
BLOCK
  5
136F6
330
136EA
100
AcDbEntity
  8
0
100
AcDbBlockBegin
  2
*D27
 70
     1
 10
0.0
 20
0.0
 30
0.0
  3
*D27
  1

  0
LINE
  5
13825
330
136EA
100
AcDbEntity
  8
11100_LEFT_DIM
  6
Continuous
 62
     0
370
    -2
100
AcDbLine
 10
134.2382018580319
 20
214.2839649882982
 30
0.0
 11
134.2382018580319
 21
223.0301047626256
 31
0.0
  0
LINE
  5
13826
330
136EA
100
AcDbEntity
  8
11100_LEFT_DIM
  6
Continuous
 62
     0
370
    -2
100
AcDbLine
 10
139.338201858032
 20
192.2839649882982
 30
0.0
 11
139.338201858032
 21
223.0301047626256
 31
0.0
  0
LINE
  5
13827
330
136EA
100
AcDbEntity
  8
11100_LEFT_DIM
  6
Continuous
 62
     0
370
    -2
100
AcDbLine
 10
141.338201858032
 20
222.0301047626256
 30
0.0
 11
143.338201858032
 21
222.0301047626256
 31
0.0
  0
LINE
  5
13828
330
136EA
100
AcDbEntity
  8
11100_LEFT_DIM
  6
Continuous
 62
     0
370
    -2
100
AcDbLine
 10
132.2382018580319
 20
222.0301047626256
 30
0.0
 11
128.2382018580317
 21
222.0301047626256
 31
0.0
  0
LINE
  5
13829
330
136EA
100
AcDbEntity
  8
11100_LEFT_DIM
  6
Continuous
 62
     0
370
    -2
100
AcDbLine
 10
139.338201858032
 20
222.0301047626256
 30
0.0
 11
134.2382018580319
 21
222.0301047626256
 31
0.0
  0
SOLID
  5
1382A
330
136EA
100
AcDbEntity
  8
11100_LEFT_DIM
  6
Continuous
 62
     0
100
AcDbTrace
 10
141.338201858032
 20
222.3634380959589
 30
0.0
 11
141.338201858032
 21
221.6967714292922
 31
0.0
 12
139.338201858032
 22
222.0301047626256
 32
0.0
 13
139.338201858032
 23
222.0301047626256
 33
0.0
  0
SOLID
  5
1382B
330
136EA
100
AcDbEntity
  8
11100_LEFT_DIM
  6
Continuous
 62
     0
100
AcDbTrace
 10
132.2382018580319
 20
222.3634380959589
 30
0.0
 11
132.2382018580319
 21
221.6967714292922
 31
0.0
 12
134.2382018580319
 22
222.0301047626256
 32
0.0
 13
134.2382018580319
 23
222.0301047626256
 33
0.0
  0
MTEXT
  5
1382C
330
136EA
100
AcDbEntity
  8
11100_LEFT_DIM
  6
Continuous
 62
     0
370
    50
100
AcDbMText
 10
126.0715351913651
 20
222.0301047626256
 30
0.0
 40
3.5
 41
0.0
 71
     5
 72
     1
  1
\A1;5
 73
     1
 44
1.0
1001
ACAD
1000
MTEXTBEGIN
1070
    73
1070
     1
1070
    44
1040
1.0
1070
    74
1070
     0
1000
MTEXTEND
  0
POINT
  5
1382D
330
136EA
100
AcDbEntity
  8
Defpoints
  6
Continuous
 62
     0
100
AcDbPoint
 10
134.2382018580319
 20
213.2839649882982
 30
0.0
  0
POINT
  5
1382E
330
136EA
100
AcDbEntity
  8
Defpoints
  6
Continuous
 62
     0
100
AcDbPoint
 10
139.338201858032
 20
191.2839649882982
 30
0.0
  0
POINT
  5
1382F
330
136EA
100
AcDbEntity
  8
Defpoints
  6
Continuous
 62
     0
100
AcDbPoint
 10
139.338201858032
 20
222.0301047626256
 30
0.0
  0
ENDBLK
  5
136F7
330
136EA
100
AcDbEntity
  8
0
100
AcDbBlockEnd
  0
BLOCK
  5
13703
330
136F8
100
AcDbEntity
  8
0
100
AcDbBlockBegin
  2
*D28
 70
     1
 10
0.0
 20
0.0
 30
0.0
  3
*D28
  1

  0
LINE
  5
13830
330
136F8
100
AcDbEntity
  8
10100_FRONT_DIM
  6
Continuous
 62
     0
370
    -2
100
AcDbLine
 10
43.73878569947407
 20
186.3404073516891
 30
0.0
 11
33.55015344648327
 21
186.3404073516891
 31
0.0
  0
LINE
  5
13831
330
136F8
100
AcDbEntity
  8
10100_FRONT_DIM
  6
Continuous
 62
     0
370
    -2
100
AcDbLine
 10
43.73878569947385
 20
118.1404073516892
 30
0.0
 11
33.55015344648325
 21
118.1404073516892
 31
0.0
  0
LINE
  5
13832
330
136F8
100
AcDbEntity
  8
10100_FRONT_DIM
  6
Continuous
 62
     0
370
    -2
100
AcDbLine
 10
34.55015344648327
 20
184.3404073516891
 30
0.0
 11
34.55015344648326
 21
156.1570740183558
 31
0.0
  0
LINE
  5
13833
330
136F8
100
AcDbEntity
  8
10100_FRONT_DIM
  6
Continuous
 62
     0
370
    -2
100
AcDbLine
 10
34.55015344648325
 20
120.1404073516892
 30
0.0
 11
34.55015344648326
 21
148.3237406850225
 31
0.0
  0
SOLID
  5
13834
330
136F8
100
AcDbEntity
  8
10100_FRONT_DIM
  6
Continuous
 62
     0
100
AcDbTrace
 10
34.21682011314993
 20
184.3404073516891
 30
0.0
 11
34.8834867798166
 21
184.3404073516891
 31
0.0
 12
34.55015344648327
 22
186.3404073516891
 32
0.0
 13
34.55015344648327
 23
186.3404073516891
 33
0.0
  0
SOLID
  5
13835
330
136F8
100
AcDbEntity
  8
10100_FRONT_DIM
  6
Continuous
 62
     0
100
AcDbTrace
 10
34.21682011314992
 20
120.1404073516892
 30
0.0
 11
34.88348677981659
 21
120.1404073516892
 31
0.0
 12
34.55015344648325
 22
118.1404073516892
 32
0.0
 13
34.55015344648325
 23
118.1404073516892
 33
0.0
  0
MTEXT
  5
13836
330
136F8
100
AcDbEntity
  8
10100_FRONT_DIM
  6
Continuous
 62
     0
370
    13
100
AcDbMText
 10
34.55015344648323
 20
152.2404073516891
 30
0.0
 40
3.5
 41
0.0
 71
     5
 72
     1
  1
\A1;68
 11
0.0000000000000001
 21
1.0
 31
0.0
 73
     1
 44
1.0
1001
ACAD
1000
MTEXTBEGIN
1070
    73
1070
     1
1070
    44
1040
1.0
1070
    74
1070
     0
1000
MTEXTEND
  0
POINT
  5
13837
330
136F8
100
AcDbEntity
  8
Defpoints
  6
Continuous
 62
     0
100
AcDbPoint
 10
44.73878569947408
 20
186.3404073516891
 30
0.0
  0
POINT
  5
13838
330
136F8
100
AcDbEntity
  8
Defpoints
  6
Continuous
 62
     0
100
AcDbPoint
 10
44.73878569947385
 20
118.1404073516892
 30
0.0
  0
POINT
  5
13839
330
136F8
100
AcDbEntity
  8
Defpoints
  6
Continuous
 62
     0
100
AcDbPoint
 10
34.55015344648325
 20
118.1404073516892
 30
0.0
  0
ENDBLK
  5
13704
330
136F8
100
AcDbEntity
  8
0
100
AcDbBlockEnd
  0
BLOCK
  5
1370F
330
13705
100
AcDbEntity
  8
0
100
AcDbBlockBegin
  2
*D29
 70
     1
 10
0.0
 20
0.0
 30
0.0
  3
*D29
  1

  0
LINE
  5
1383A
330
13705
100
AcDbEntity
  8
10100_FRONT_DIM
  6
Continuous
 62
     0
370
    -2
100
AcDbLine
 10
47.83878569947376
 20
193.0404073516893
 30
0.0
 11
47.83878569947376
 21
207.8460480827254
 31
0.0
  0
LINE
  5
1383B
330
13705
100
AcDbEntity
  8
10100_FRONT_DIM
  6
Continuous
 62
     0
370
    -2
100
AcDbLine
 10
55.03878569947381
 20
193.0404073516893
 30
0.0
 11
55.03878569947381
 21
207.8460480827254
 31
0.0
  0
LINE
  5
1383C
330
13705
100
AcDbEntity
  8
10100_FRONT_DIM
  6
Continuous
 62
     0
370
    -2
100
AcDbLine
 10
43.83878569947376
 20
206.8460480827253
 30
0.0
 11
55.03878569947381
 21
206.8460480827253
 31
0.0
  0
LINE
  5
1383D
330
13705
100
AcDbEntity
  8
10100_FRONT_DIM
  6
Continuous
 62
     0
370
    -2
100
AcDbLine
 10
57.03878569947381
 20
206.8460480827253
 30
0.0
 11
59.0387856994738
 21
206.8460480827253
 31
0.0
  0
SOLID
  5
1383E
330
13705
100
AcDbEntity
  8
10100_FRONT_DIM
  6
Continuous
 62
     0
100
AcDbTrace
 10
57.03878569947381
 20
207.1793814160587
 30
0.0
 11
57.03878569947381
 21
206.512714749392
 31
0.0
 12
55.03878569947381
 22
206.8460480827253
 32
0.0
 13
55.03878569947381
 23
206.8460480827253
 33
0.0
  0
MTEXT
  5
1383F
330
13705
100
AcDbEntity
  8
10100_FRONT_DIM
  6
Continuous
 62
     0
370
    13
100
AcDbMText
 10
51.43878569947379
 20
206.8460480827253
 30
0.0
 40
3.5
 41
0.0
 71
     5
 72
     1
  1
\A1;7
 73
     1
 44
1.0
1001
ACAD
1000
MTEXTBEGIN
1070
    73
1070
     1
1070
    44
1040
1.0
1070
    74
1070
     0
1000
MTEXTEND
  0
POINT
  5
13840
330
13705
100
AcDbEntity
  8
Defpoints
  6
Continuous
 62
     0
100
AcDbPoint
 10
47.83878569947376
 20
192.0404073516893
 30
0.0
  0
POINT
  5
13841
330
13705
100
AcDbEntity
  8
Defpoints
  6
Continuous
 62
     0
100
AcDbPoint
 10
55.03878569947381
 20
192.0404073516893
 30
0.0
  0
POINT
  5
13842
330
13705
100
AcDbEntity
  8
Defpoints
  6
Continuous
 62
     0
100
AcDbPoint
 10
55.03878569947381
 20
206.8460480827253
 30
0.0
  0
ENDBLK
  5
13710
330
13705
100
AcDbEntity
  8
0
100
AcDbBlockEnd
  0
BLOCK
  5
1371A
330
13711
100
AcDbEntity
  8
0
100
AcDbBlockBegin
  2
*D30
 70
     1
 10
0.0
 20
0.0
 30
0.0
  3
*D30
  1

  0
LINE
  5
13843
330
13711
100
AcDbEntity
  8
10100_FRONT_DIM
  6
Continuous
 62
     0
370
    -2
100
AcDbLine
 10
43.78878569947358
 20
196.9404073516891
 30
0.0
 11
43.78878569947358
 21
207.8460480827254
 31
0.0
  0
LINE
  5
13844
330
13711
100
AcDbEntity
  8
10100_FRONT_DIM
  6
Continuous
 62
     0
370
    -2
100
AcDbLine
 10
47.83878569947376
 20
193.0404073516893
 30
0.0
 11
47.83878569947376
 21
207.8460480827254
 31
0.0
  0
LINE
  5
13845
330
13711
100
AcDbEntity
  8
10100_FRONT_DIM
  6
Continuous
 62
     0
370
    -2
100
AcDbLine
 10
41.78878569947357
 20
206.8460480827253
 30
0.0
 11
37.7887856994735
 21
206.8460480827253
 31
0.0
  0
SOLID
  5
13846
330
13711
100
AcDbEntity
  8
10100_FRONT_DIM
  6
Continuous
 62
     0
100
AcDbTrace
 10
41.78878569947357
 20
207.1793814160587
 30
0.0
 11
41.78878569947357
 21
206.512714749392
 31
0.0
 12
43.78878569947358
 22
206.8460480827253
 32
0.0
 13
43.78878569947358
 23
206.8460480827253
 33
0.0
  0
MTEXT
  5
13847
330
13711
100
AcDbEntity
  8
10100_FRONT_DIM
  6
Continuous
 62
     0
370
    13
100
AcDbMText
 10
35.62211903280684
 20
206.8460480827253
 30
0.0
 40
3.5
 41
0.0
 71
     5
 72
     1
  1
\A1;4
 73
     1
 44
1.0
1001
ACAD
1000
MTEXTBEGIN
1070
    73
1070
     1
1070
    44
1040
1.0
1070
    74
1070
     0
1000
MTEXTEND
  0
POINT
  5
13848
330
13711
100
AcDbEntity
  8
Defpoints
  6
Continuous
 62
     0
100
AcDbPoint
 10
43.78878569947358
 20
195.9404073516891
 30
0.0
  0
POINT
  5
13849
330
13711
100
AcDbEntity
  8
Defpoints
  6
Continuous
 62
     0
100
AcDbPoint
 10
47.83878569947376
 20
192.0404073516893
 30
0.0
  0
POINT
  5
1384A
330
13711
100
AcDbEntity
  8
Defpoints
  6
Continuous
 62
     0
100
AcDbPoint
 10
47.83878569947376
 20
206.8460480827253
 30
0.0
  0
ENDBLK
  5
1371B
330
13711
100
AcDbEntity
  8
0
100
AcDbBlockEnd
  0
BLOCK
  5
13727
330
1371C
100
AcDbEntity
  8
0
100
AcDbBlockBegin
  2
*D31
 70
     1
 10
0.0
 20
0.0
 30
0.0
  3
*D31
  1

  0
LINE
  5
1384B
330
1371C
100
AcDbEntity
  8
10100_FRONT_DIM
  6
Continuous
 62
     0
370
    -2
100
AcDbLine
 10
43.78878369947358
 20
196.9404073516891
 30
0.0
 11
43.78878369947358
 21
218.1001634834437
 31
0.0
  0
LINE
  5
1384C
330
1371C
100
AcDbEntity
  8
10100_FRONT_DIM
  6
Continuous
 62
     0
370
    -2
100
AcDbLine
 10
66.28878569947358
 20
204.0904073516894
 30
0.0
 11
66.28878569947358
 21
218.1001634834437
 31
0.0
  0
LINE
  5
1384D
330
1371C
100
AcDbEntity
  8
10100_FRONT_DIM
  6
Continuous
 62
     0
370
    -2
100
AcDbLine
 10
45.78878369947358
 20
217.1001634834437
 30
0.0
 11
48.49711803280691
 21
217.1001634834437
 31
0.0
  0
LINE
  5
1384E
330
1371C
100
AcDbEntity
  8
10100_FRONT_DIM
  6
Continuous
 62
     0
370
    -2
100
AcDbLine
 10
64.28878569947357
 20
217.1001634834437
 30
0.0
 11
61.58045136614024
 21
217.1001634834437
 31
0.0
  0
SOLID
  5
1384F
330
1371C
100
AcDbEntity
  8
10100_FRONT_DIM
  6
Continuous
 62
     0
100
AcDbTrace
 10
45.78878369947358
 20
217.433496816777
 30
0.0
 11
45.78878369947358
 21
216.7668301501104
 31
0.0
 12
43.78878369947358
 22
217.1001634834437
 32
0.0
 13
43.78878369947358
 23
217.1001634834437
 33
0.0
  0
SOLID
  5
13850
330
1371C
100
AcDbEntity
  8
10100_FRONT_DIM
  6
Continuous
 62
     0
100
AcDbTrace
 10
64.28878569947357
 20
217.433496816777
 30
0.0
 11
64.28878569947357
 21
216.7668301501104
 31
0.0
 12
66.28878569947358
 22
217.1001634834437
 32
0.0
 13
66.28878569947358
 23
217.1001634834437
 33
0.0
  0
MTEXT
  5
13851
330
1371C
100
AcDbEntity
  8
10100_FRONT_DIM
  6
Continuous
 62
     0
370
    13
100
AcDbMText
 10
55.03878469947358
 20
217.1001634834437
 30
0.0
 40
3.5
 41
0.0
 71
     5
 72
     1
  1
\A1;22,5
 73
     1
 44
1.0
1001
ACAD
1000
MTEXTBEGIN
1070
    73
1070
     1
1070
    44
1040
1.0
1070
    74
1070
     0
1000
MTEXTEND
  0
POINT
  5
13852
330
1371C
100
AcDbEntity
  8
Defpoints
  6
Continuous
 62
     0
100
AcDbPoint
 10
43.78878369947358
 20
195.9404073516891
 30
0.0
  0
POINT
  5
13853
330
1371C
100
AcDbEntity
  8
Defpoints
  6
Continuous
 62
     0
100
AcDbPoint
 10
66.28878569947358
 20
203.0904073516893
 30
0.0
  0
POINT
  5
13854
330
1371C
100
AcDbEntity
  8
Defpoints
  6
Continuous
 62
     0
100
AcDbPoint
 10
66.28878569947358
 20
217.1001634834437
 30
0.0
  0
ENDBLK
  5
13728
330
1371C
100
AcDbEntity
  8
0
100
AcDbBlockEnd
  0
BLOCK
  5
13734
330
13729
100
AcDbEntity
  8
0
100
AcDbBlockBegin
  2
*D32
 70
     1
 10
0.0
 20
0.0
 30
0.0
  3
*D32
  1

  0
LINE
  5
13855
330
13729
100
AcDbEntity
  8
11100_LEFT_DIM
  6
Continuous
 62
     0
370
    -2
100
AcDbLine
 10
133.2382018580318
 20
116.7839649882981
 30
0.0
 11
123.0709644094593
 21
116.7839649882981
 31
0.0
  0
LINE
  5
13856
330
13729
100
AcDbEntity
  8
11100_LEFT_DIM
  6
Continuous
 62
     0
370
    -2
100
AcDbLine
 10
133.2382018580318
 20
190.2839649882982
 30
0.0
 11
123.0709644094593
 21
190.2839649882982
 31
0.0
  0
LINE
  5
13857
330
13729
100
AcDbEntity
  8
11100_LEFT_DIM
  6
Continuous
 62
     0
370
    -2
100
AcDbLine
 10
124.0709644094593
 20
118.7839649882981
 30
0.0
 11
124.0709644094593
 21
149.6172983216317
 31
0.0
  0
LINE
  5
13858
330
13729
100
AcDbEntity
  8
11100_LEFT_DIM
  6
Continuous
 62
     0
370
    -2
100
AcDbLine
 10
124.0709644094593
 20
188.2839649882981
 30
0.0
 11
124.0709644094593
 21
157.450631654965
 31
0.0
  0
SOLID
  5
13859
330
13729
100
AcDbEntity
  8
11100_LEFT_DIM
  6
Continuous
 62
     0
100
AcDbTrace
 10
123.737631076126
 20
118.7839649882981
 30
0.0
 11
124.4042977427927
 21
118.7839649882981
 31
0.0
 12
124.0709644094593
 22
116.7839649882981
 32
0.0
 13
124.0709644094593
 23
116.7839649882981
 33
0.0
  0
SOLID
  5
1385A
330
13729
100
AcDbEntity
  8
11100_LEFT_DIM
  6
Continuous
 62
     0
100
AcDbTrace
 10
123.737631076126
 20
188.2839649882981
 30
0.0
 11
124.4042977427927
 21
188.2839649882981
 31
0.0
 12
124.0709644094593
 22
190.2839649882982
 32
0.0
 13
124.0709644094593
 23
190.2839649882982
 33
0.0
  0
MTEXT
  5
1385B
330
13729
100
AcDbEntity
  8
11100_LEFT_DIM
  6
Continuous
 62
     0
370
    13
100
AcDbMText
 10
124.0709644094593
 20
153.5339649882984
 30
0.0
 40
3.5
 41
0.0
 71
     5
 72
     1
  1
\A1;74
 11
0.0000000000000001
 21
1.0
 31
0.0
 73
     1
 44
1.0
1001
ACAD
1000
MTEXTBEGIN
1070
    73
1070
     1
1070
    44
1040
1.0
1070
    74
1070
     0
1000
MTEXTEND
  0
POINT
  5
1385C
330
13729
100
AcDbEntity
  8
Defpoints
  6
Continuous
 62
     0
100
AcDbPoint
 10
134.2382018580318
 20
116.7839649882981
 30
0.0
  0
POINT
  5
1385D
330
13729
100
AcDbEntity
  8
Defpoints
  6
Continuous
 62
     0
100
AcDbPoint
 10
134.2382018580318
 20
190.2839649882982
 30
0.0
  0
POINT
  5
1385E
330
13729
100
AcDbEntity
  8
Defpoints
  6
Continuous
 62
     0
100
AcDbPoint
 10
124.0709644094593
 20
190.2839649882982
 30
0.0
  0
ENDBLK
  5
13735
330
13729
100
AcDbEntity
  8
0
100
AcDbBlockEnd
  0
BLOCK
  5
13741
330
13736
100
AcDbEntity
  8
0
100
AcDbBlockBegin
  2
*D33
 70
     1
 10
0.0
 20
0.0
 30
0.0
  3
*D33
  1

  0
LINE
  5
1385F
330
13736
100
AcDbEntity
  8
10100_FRONT_DIM
  6
Continuous
 62
     0
370
    -2
100
AcDbLine
 10
66.0387856994738
 20
207.4824473516892
 30
0.0
 11
72.82810453936227
 21
207.4824473516892
 31
0.0
  0
LINE
  5
13860
330
13736
100
AcDbEntity
  8
10100_FRONT_DIM
  6
Continuous
 62
     0
370
    -2
100
AcDbLine
 10
51.0387856994738
 20
97.48244735168908
 30
0.0
 11
72.82810453936225
 21
97.48244735168908
 31
0.0
  0
LINE
  5
13861
330
13736
100
AcDbEntity
  8
10100_FRONT_DIM
  6
Continuous
 62
     0
370
    -2
100
AcDbLine
 10
71.82810453936227
 20
205.4824473516892
 30
0.0
 11
71.82810453936227
 21
161.3574473516894
 31
0.0
  0
LINE
  5
13862
330
13736
100
AcDbEntity
  8
10100_FRONT_DIM
  6
Continuous
 62
     0
370
    -2
100
AcDbLine
 10
71.82810453936226
 20
99.48244735168907
 30
0.0
 11
71.82810453936226
 21
143.6074473516894
 31
0.0
  0
SOLID
  5
13863
330
13736
100
AcDbEntity
  8
10100_FRONT_DIM
  6
Continuous
 62
     0
100
AcDbTrace
 10
71.49477120602894
 20
205.4824473516892
 30
0.0
 11
72.1614378726956
 21
205.4824473516892
 31
0.0
 12
71.82810453936227
 22
207.4824473516892
 32
0.0
 13
71.82810453936227
 23
207.4824473516892
 33
0.0
  0
SOLID
  5
13864
330
13736
100
AcDbEntity
  8
10100_FRONT_DIM
  6
Continuous
 62
     0
100
AcDbTrace
 10
71.49477120602893
 20
99.48244735168907
 30
0.0
 11
72.16143787269558
 21
99.48244735168907
 31
0.0
 12
71.82810453936226
 22
97.48244735168908
 32
0.0
 13
71.82810453936226
 23
97.48244735168908
 33
0.0
  0
MTEXT
  5
13865
330
13736
100
AcDbEntity
  8
10100_FRONT_DIM
  6
Continuous
 62
     0
370
    13
100
AcDbMText
 10
71.82810453936224
 20
152.4824473516894
 30
0.0
 40
3.5
 41
0.0
 71
     5
 72
     1
  1
\A1;110x15
 11
0.0000000000000001
 21
1.0
 31
0.0
 73
     1
 44
1.0
1001
ACAD
1000
MTEXTBEGIN
1070
    73
1070
     1
1070
    44
1040
1.0
1070
    74
1070
     0
1000
MTEXTEND
  0
POINT
  5
13866
330
13736
100
AcDbEntity
  8
Defpoints
  6
Continuous
 62
     0
100
AcDbPoint
 10
65.03878569947381
 20
207.4824473516892
 30
0.0
  0
POINT
  5
13867
330
13736
100
AcDbEntity
  8
Defpoints
  6
Continuous
 62
     0
100
AcDbPoint
 10
50.03878569947381
 20
97.48244735168908
 30
0.0
  0
POINT
  5
13868
330
13736
100
AcDbEntity
  8
Defpoints
  6
Continuous
 62
     0
100
AcDbPoint
 10
71.82810453936226
 20
97.48244735168908
 30
0.0
  0
ENDBLK
  5
13742
330
13736
100
AcDbEntity
  8
0
100
AcDbBlockEnd
  0
ENDSEC
  0
SECTION
  2
ENTITIES
  0
INSERT
  5
C5B
330
1F
100
AcDbEntity
  8
90000_FRAME
  6
Continuous
 62
     7
100
AcDbBlockReference
  2
SIEMENS_OUTLINE_BL0
 10
49.88743841592327
 20
49.88556725432579
 30
0.0
  0
LINE
  5
C5C
330
1F
100
AcDbEntity
  8
90000_FRAME
  6
Continuous
 62
     7
100
AcDbLine
 10
117.2415410320022
 20
60.22382648192911
 30
0.0
 11
252.2415410320022
 21
60.22382648192911
 31
0.0
  0
LINE
  5
C5D
330
1F
100
AcDbEntity
  8
90000_FRAME
  6
Continuous
 62
     7
100
AcDbLine
 10
117.2415410320022
 20
60.22382648192911
 30
0.0
 11
117.2415410320022
 21
78.22382648192911
 31
0.0
  0
LINE
  5
C5E
330
1F
100
AcDbEntity
  8
90000_FRAME
  6
Continuous
 62
     7
100
AcDbLine
 10
167.2415410320021
 20
66.2238264819291
 30
0.0
 11
252.2415410320022
 21
66.2238264819291
 31
0.0
  0
LINE
  5
C5F
330
1F
100
AcDbEntity
  8
90000_FRAME
  6
Continuous
 62
     7
100
AcDbLine
 10
117.2415410320022
 20
78.22382648192911
 30
0.0
 11
252.2415410320022
 21
78.22382648192911
 31
0.0
  0
LINE
  5
C60
330
1F
100
AcDbEntity
  8
90000_FRAME
  6
Continuous
 62
     7
100
AcDbLine
 10
167.2415410320021
 20
60.22382648192911
 30
0.0
 11
167.2415410320021
 21
78.22382648192911
 31
0.0
  0
LINE
  5
C61
330
1F
100
AcDbEntity
  8
90000_FRAME
  6
Continuous
 62
     7
100
AcDbLine
 10
209.7415410320023
 20
60.22382648192911
 30
0.0
 11
209.7415410320023
 21
66.2238264819291
 31
0.0
  0
LINE
  5
C62
330
1F
100
AcDbEntity
  8
90000_FRAME
  6
Continuous
 62
     7
100
AcDbLine
 10
252.2415410320022
 20
60.22382648192911
 30
0.0
 11
252.2415410320022
 21
78.22382648192911
 31
0.0
  0
TEXT
  5
C63
330
1F
100
AcDbEntity
  8
90000_FRAME
  6
Continuous
 62
     7
100
AcDbText
 10
167.9015410320021
 20
62.12382648192908
 30
0.0
 40
2.2
  1
Format / Size: DIN A4
 41
0.7994987468660263
 72
     5
 11
201.320588651002
 21
62.12382648192908
 31
0.0
100
AcDbText
  0
TEXT
  5
C64
330
1F
100
AcDbEntity
  8
90000_FRAME
  6
Continuous
 62
     7
100
AcDbText
 10
210.4015410320021
 20
62.12382648192908
 30
0.0
 40
2.2
  1
Massstab / Scale: 1:1
 41
0.7732634338148424
 72
     5
 11
241.306302936802
 21
62.12382648192908
 31
0.0
100
AcDbText
  0
TEXT
  5
C65
330
1F
100
AcDbEntity
  8
90000_FRAME
  6
Continuous
 62
     7
370
    13
100
AcDbText
 10
180.547465555953
 20
70.47382648192911
 30
0.0
 40
3.5
  1
3RN1000_00000431_000_ALL
 41
0.7547200011588269
 72
     5
 11
236.4596389751361
 21
70.47382648192911
 31
0.0
100
AcDbText
  0
LINE
  5
C66
330
1F
100
AcDbEntity
  8
90000_FRAME
  6
Continuous
 62
     7
100
AcDbLine
 10
-7.758458967996827
 20
50.22382648192911
 30
0.0
 11
262.2415410320032
 21
50.22382648192911
 31
0.0
  0
LINE
  5
C67
330
1F
100
AcDbEntity
  8
90000_FRAME
  6
Continuous
 62
     7
100
AcDbLine
 10
262.2415410320032
 20
50.22382648192911
 30
0.0
 11
262.2415410320032
 21
250.223826481929
 31
0.0
  0
TEXT
  5
C68
330
1F
100
AcDbEntity
  8
91000_TIP
  6
Continuous
 62
     7
100
AcDbText
 10
-3.705109185332958
 20
58.95606310360573
 30
0.0
 40
2.5
  1
Alle Bemassungswerte sind in Millimeter (mm) angegeben.
 41
0.6056311217924568
 72
     5
 11
69.98001063274933
 21
58.95606310360573
 31
0.0
100
AcDbText
  0
TEXT
  5
C69
330
1F
100
AcDbEntity
  8
91000_TIP
  6
Continuous
 62
     7
100
AcDbText
 10
-3.705109185332958
 20
53.70606310360575
 30
0.0
 40
2.5
  1
All dimensions are in millimeters (mm).
 41
0.7513350295680256
 72
     5
 11
56.40169318010908
 21
53.70606310360575
 31
0.0
100
AcDbText
  0
LINE
  5
C6A
330
1F
100
AcDbEntity
  8
91000_TIP
  6
Continuous
 62
     7
100
AcDbLine
 10
92.0562111360282
 20
71.5475640042997
 30
0.0
 11
102.0562109318282
 21
74.04756395329968
 31
0.0
  0
LINE
  5
C6B
330
1F
100
AcDbEntity
  8
91000_TIP
  6
CENTER
 62
     7
100
AcDbLine
 10
90.77670066402719
 20
69.04756405539972
 30
0.0
 11
114.3786899281272
 21
69.04756405539972
 31
0.0
  0
LINE
  5
C6C
330
1F
100
AcDbEntity
  8
91000_TIP
  6
Continuous
 62
     7
100
AcDbLine
 10
92.0562111360282
 20
66.54756410649969
 30
0.0
 11
102.0562109318282
 21
64.04756415749961
 31
0.0
  0
LINE
  5
C6D
330
1F
100
AcDbEntity
  8
91000_TIP
  6
Continuous
 62
     7
100
AcDbLine
 10
92.0562111360282
 20
71.5475640042997
 30
0.0
 11
92.0562111360282
 21
66.54756410649969
 31
0.0
  0
LINE
  5
C6E
330
1F
100
AcDbEntity
  8
91000_TIP
  6
Continuous
 62
     7
100
AcDbLine
 10
102.0562109318282
 20
74.04756395329968
 30
0.0
 11
102.0562109318282
 21
64.04756415749961
 31
0.0
  0
LINE
  5
C6F
330
1F
100
AcDbEntity
  8
91000_TIP
  6
CENTER
 62
     7
100
AcDbLine
 10
108.5562107990281
 20
63.3260828489997
 30
0.0
 11
108.5562107990281
 21
74.60946884899965
 31
0.0
  0
CIRCLE
  5
C70
330
1F
100
AcDbEntity
  8
91000_TIP
  6
Continuous
 62
     7
100
AcDbCircle
 10
108.5562107990281
 20
69.04756405539972
 30
0.0
 40
4.9999998979
  0
CIRCLE
  5
C71
330
1F
100
AcDbEntity
  8
91000_TIP
  6
Continuous
 62
     7
100
AcDbCircle
 10
108.5562107990281
 20
69.04756405539972
 30
0.0
 40
2.499999948899997
  0
LINE
  5
C72
330
1F
100
AcDbEntity
  8
90000_FRAME
  6
Continuous
 62
     7
100
AcDbLine
 10
-7.758458967996827
 20
50.22382648192911
 30
0.0
 11
-7.758458967996827
 21
250.223826481929
 31
0.0
  0
LINE
  5
C73
330
1F
100
AcDbEntity
  8
90000_FRAME
  6
Continuous
 62
     7
100
AcDbLine
 10
-7.758458967996827
 20
250.223826481929
 30
0.0
 11
262.2415410320032
 21
250.223826481929
 31
0.0
  0
DIMENSION
  5
1350F
330
1F
100
AcDbEntity
  8
10100_FRONT_DIM
  6
Continuous
 62
     7
370
    13
100
AcDbDimension
  2
*D24
 10
79.24762414297799
 20
92.48244735168908
 30
0.0
 11
79.24762414297799
 21
152.4824473516891
 31
0.0
 70
    32
 71
     5
 42
120.0
  3
DSTYLE1
100
AcDbAlignedDimension
 13
64.2887856994738
 23
212.4824473516891
 33
0.0
 14
49.2887856994738
 24
92.48244735168908
 34
0.0
 50
90.0
100
AcDbRotatedDimension
1001
ACAD
1000
DSTYLE
1002
{
1070
    41
1040
2.0
1070
    42
1040
1.0
1070
    43
1040
1.0
1070
    47
1040
0.005
1070
    48
1040
-0.005
1070
    77
1070
     0
1070
    78
1070
     0
1070
   140
1040
3.5
1070
   143
1040
25.4
1070
   171
1070
     0
1070
   172
1070
     1
1070
   271
1070
     0
1070
   272
1070
     1
1070
   277
1070
     6
1070
   279
1070
     0
1002
}
  0
DIMENSION
  5
13510
330
1F
100
AcDbEntity
  8
11100_LEFT_DIM
  6
Continuous
 62
     7
370
    13
100
AcDbDimension
  2
*D25
 10
225.338201858032
 20
228.5707868527036
 30
0.0
 11
182.338201858032
 21
228.5707868527036
 31
0.0
 70
    32
 71
     5
 42
86.0
  3
DSTYLE1
100
AcDbAlignedDimension
 13
139.338201858032
 23
190.2839649882982
 33
0.0
 14
225.338201858032
 24
194.6339649882982
 34
0.0
100
AcDbRotatedDimension
1001
ACAD
1000
DSTYLE
1002
{
1070
    41
1040
2.0
1070
    42
1040
1.0
1070
    43
1040
1.0
1070
    47
1040
0.005
1070
    48
1040
-0.005
1070
    77
1070
     0
1070
    78
1070
     0
1070
   140
1040
3.5
1070
   143
1040
25.4
1070
   171
1070
     0
1070
   172
1070
     1
1070
   271
1070
     0
1070
   272
1070
     1
1070
   277
1070
     6
1070
   279
1070
     0
1002
}
  0
DIMENSION
  5
13511
330
1F
100
AcDbEntity
  8
11100_LEFT_DIM
  6
Continuous
 62
     7
370
    13
100
AcDbDimension
  2
*D26
 10
204.238201858032
 20
222.0301047626256
 30
0.0
 11
171.788201858032
 21
222.0301047626256
 31
0.0
 70
    32
 71
     5
 42
64.90000000000003
  3
DSTYLE1
100
AcDbAlignedDimension
 13
139.338201858032
 23
190.2839649882982
 33
0.0
 14
204.238201858032
 24
194.8339649882981
 34
0.0
100
AcDbRotatedDimension
1001
ACAD
1000
DSTYLE
1002
{
1070
    41
1040
2.0
1070
    42
1040
1.0
1070
    43
1040
1.0
1070
    47
1040
0.005
1070
    48
1040
-0.005
1070
    77
1070
     0
1070
    78
1070
     0
1070
   140
1040
3.5
1070
   143
1040
25.4
1070
   171
1070
     0
1070
   172
1070
     1
1070
   271
1070
     0
1070
   272
1070
     1
1070
   277
1070
     6
1070
   279
1070
     0
1002
}
  0
DIMENSION
  5
13512
330
1F
100
AcDbEntity
  8
11100_LEFT_DIM
  6
Continuous
 62
     7
370
    50
100
AcDbDimension
  2
*D27
 10
139.338201858032
 20
222.0301047626256
 30
0.0
 11
126.0715351913651
 21
222.0301047626256
 31
0.0
 70
   160
 71
     5
 42
5.100000000000079
  3
DSTYLE1
100
AcDbAlignedDimension
 13
134.2382018580319
 23
213.2839649882982
 33
0.0
 14
139.338201858032
 24
191.2839649882982
 34
0.0
100
AcDbRotatedDimension
1001
ACAD
1000
DSTYLE
1002
{
1070
    41
1040
2.0
1070
    42
1040
1.0
1070
    43
1040
1.0
1070
    47
1040
0.005
1070
    48
1040
-0.005
1070
    77
1070
     0
1070
    78
1070
     0
1070
   140
1040
3.5
1070
   143
1040
25.4
1070
   171
1070
     0
1070
   172
1070
     1
1070
   271
1070
     0
1070
   272
1070
     1
1070
   277
1070
     6
1070
   279
1070
     0
1002
}
  0
DIMENSION
  5
13513
330
1F
100
AcDbEntity
  8
10100_FRONT_DIM
  6
Continuous
 62
     7
370
    13
100
AcDbDimension
  2
*D28
 10
34.55015344648325
 20
118.1404073516892
 30
0.0
 11
34.55015344648323
 21
152.2404073516891
 31
0.0
 70
    32
 71
     5
 42
68.19999999999992
  3
DSTYLE1
100
AcDbAlignedDimension
 13
44.73878569947408
 23
186.3404073516891
 33
0.0
 14
44.73878569947385
 24
118.1404073516892
 34
0.0
 50
90.0
100
AcDbRotatedDimension
1001
ACAD
1000
DSTYLE
1002
{
1070
    41
1040
2.0
1070
    42
1040
1.0
1070
    43
1040
1.0
1070
    47
1040
0.005
1070
    48
1040
-0.005
1070
    77
1070
     0
1070
    78
1070
     0
1070
   140
1040
3.5
1070
   143
1040
25.4
1070
   171
1070
     0
1070
   172
1070
     1
1070
   271
1070
     0
1070
   272
1070
     1
1070
   277
1070
     6
1070
   279
1070
     0
1002
}
  0
DIMENSION
  5
13514
330
1F
100
AcDbEntity
  8
10100_FRONT_DIM
  6
Continuous
 62
     7
370
    13
100
AcDbDimension
  2
*D29
 10
55.03878569947381
 20
206.8460480827253
 30
0.0
 11
51.43878569947379
 21
206.8460480827253
 31
0.0
 70
   160
 71
     5
 42
7.200000000000045
  3
DSTYLE1
100
AcDbAlignedDimension
 13
47.83878569947376
 23
192.0404073516893
 33
0.0
 14
55.03878569947381
 24
192.0404073516893
 34
0.0
100
AcDbRotatedDimension
1001
ACAD
1000
DSTYLE
1002
{
1070
   175
1070
     0
1070
    75
1070
     0
1070
   281
1070
     1
1070
    41
1040
2.0
1070
    42
1040
1.0
1070
    43
1040
1.0
1070
    47
1040
0.005
1070
    48
1040
-0.005
1070
    77
1070
     0
1070
    78
1070
     0
1070
   140
1040
3.5
1070
   143
1040
25.4
1070
   171
1070
     0
1070
   172
1070
     1
1070
   271
1070
     0
1070
   272
1070
     1
1070
   277
1070
     6
1070
   279
1070
     0
1002
}
  0
DIMENSION
  5
13515
330
1F
100
AcDbEntity
  8
10100_FRONT_DIM
  6
Continuous
 62
     7
370
    13
100
AcDbDimension
  2
*D30
 10
47.83878569947376
 20
206.8460480827253
 30
0.0
 11
35.62211903280684
 21
206.8460480827253
 31
0.0
 70
   160
 71
     5
 42
4.050000000000181
  3
DSTYLE1
100
AcDbAlignedDimension
 13
43.78878569947358
 23
195.9404073516891
 33
0.0
 14
47.83878569947376
 24
192.0404073516893
 34
0.0
100
AcDbRotatedDimension
1001
ACAD
1000
DSTYLE
1002
{
1070
   282
1070
     1
1070
   281
1070
     0
1070
    41
1040
2.0
1070
    42
1040
1.0
1070
    43
1040
1.0
1070
    47
1040
0.005
1070
    48
1040
-0.005
1070
    77
1070
     0
1070
    78
1070
     0
1070
   140
1040
3.5
1070
   143
1040
25.4
1070
   171
1070
     0
1070
   172
1070
     1
1070
   271
1070
     0
1070
   272
1070
     1
1070
   277
1070
     6
1070
   279
1070
     0
1002
}
  0
DIMENSION
  5
13516
330
1F
100
AcDbEntity
  8
10100_FRONT_DIM
  6
Continuous
 62
     7
370
    13
100
AcDbDimension
  2
*D31
 10
66.28878569947358
 20
217.1001634834437
 30
0.0
 11
55.03878469947358
 21
217.1001634834437
 31
0.0
 70
    32
 71
     5
 42
22.500002
  3
DSTYLE1
100
AcDbAlignedDimension
 13
43.78878369947358
 23
195.9404073516891
 33
0.0
 14
66.28878569947358
 24
203.0904073516893
 34
0.0
100
AcDbRotatedDimension
1001
ACAD
1000
DSTYLE
1002
{
1070
    41
1040
2.0
1070
    42
1040
1.0
1070
    43
1040
1.0
1070
    47
1040
0.005
1070
    48
1040
-0.005
1070
    77
1070
     0
1070
    78
1070
     0
1070
   140
1040
3.5
1070
   143
1040
25.4
1070
   171
1070
     0
1070
   172
1070
     1
1070
   271
1070
     1
1070
   272
1070
     1
1070
   277
1070
     6
1070
   279
1070
     0
1002
}
  0
DIMENSION
  5
13517
330
1F
100
AcDbEntity
  8
11100_LEFT_DIM
  6
Continuous
 62
     7
370
    13
100
AcDbDimension
  2
*D32
 10
124.0709644094593
 20
190.2839649882982
 30
0.0
 11
124.0709644094593
 21
153.5339649882984
 31
0.0
 70
   160
 71
     5
 42
73.5
  3
DSTYLE1
100
AcDbAlignedDimension
 13
134.2382018580318
 23
116.7839649882981
 33
0.0
 14
134.2382018580318
 24
190.2839649882982
 34
0.0
 50
90.0
100
AcDbRotatedDimension
1001
ACAD
1000
DSTYLE
1002
{
1070
    41
1040
2.0
1070
    42
1040
1.0
1070
    43
1040
1.0
1070
    47
1040
0.005
1070
    48
1040
-0.005
1070
    77
1070
     0
1070
    78
1070
     0
1070
   140
1040
3.5
1070
   143
1040
25.4
1070
   171
1070
     0
1070
   172
1070
     1
1070
   271
1070
     0
1070
   272
1070
     1
1070
   277
1070
     6
1070
   279
1070
     0
1002
}
  0
DIMENSION
  5
13518
330
1F
100
AcDbEntity
  8
10100_FRONT_DIM
  6
Continuous
 62
     7
370
    13
100
AcDbDimension
  2
*D33
 10
71.82810453936226
 20
97.48244735168908
 30
0.0
 11
71.82810453936224
 21
152.4824473516894
 31
0.0
 70
   160
  1
110x15
 71
     5
 42
110.0000000000001
  3
DSTYLE1
100
AcDbAlignedDimension
 13
65.03878569947381
 23
207.4824473516892
 33
0.0
 14
50.03878569947381
 24
97.48244735168908
 34
0.0
 50
90.0
100
AcDbRotatedDimension
1001
ACAD
1000
DSTYLE
1002
{
1070
    41
1040
2.0
1070
    42
1040
1.0
1070
    43
1040
1.0
1070
    47
1040
0.005
1070
    48
1040
-0.005
1070
    77
1070
     0
1070
    78
1070
     0
1070
   140
1040
3.5
1070
   143
1040
25.4
1070
   171
1070
     0
1070
   172
1070
     1
1070
   271
1070
     0
1070
   272
1070
     1
1070
   277
1070
     6
1070
   279
1070
     0
1002
}
  0
LINE
  5
13519
330
1F
100
AcDbEntity
  8
11000_Left
  6
HIDDEN
 62
     7
370
     9
100
AcDbLine
 10
140.2382018580318
 20
116.2839649882982
 30
0.0
 11
140.2382018580318
 21
93.28396498829818
 31
0.0
1001
AUSTER_FOLIE
1002
{
1000
12_POL_CC
1002
}
1001
AUSTER_ANSICHT
1002
{
1000
SL
1002
}
  0
LINE
  5
1351A
330
1F
100
AcDbEntity
  8
11000_Left
  6
HIDDEN
 62
     7
370
     9
100
AcDbLine
 39
0.25
 10
138.3381405790871
 20
172.1839649882982
 30
-0.0000000000000036
 11
139.3381405790871
 21
172.1839649882982
 31
-0.7500000000000071
1001
AUSTER_ANSICHT
1002
{
1000
Det03
1002
}
1001
AUSTER_FOLIE
1002
{
1000
NSB01341_3RS10_24POL
1002
}
  0
LINE
  5
1351B
330
1F
100
AcDbEntity
  8
11000_Left
  6
HIDDEN
 62
     7
370
     9
100
AcDbLine
 39
0.25
 10
135.4381405790872
 20
142.0339649882982
 30
-0.0000000000000036
 11
133.8381405790871
 21
142.0339649882982
 31
-0.0000000000000036
1001
AUSTER_ANSICHT
1002
{
1000
Det03
1002
}
1001
AUSTER_FOLIE
1002
{
1000
NSB01341_3RS10_24POL
1002
}
  0
ARC
  5
1351C
330
1F
100
AcDbEntity
  8
11000_Left
  6
HIDDEN
 62
     7
370
     9
100
AcDbCircle
 39
0.25
 10
133.8381405790871
 20
144.0339649882982
 30
-0.0000000000000036
 40
2.0
100
AcDbArc
 50
180.0
 51
270.0
1001
AUSTER_ANSICHT
1002
{
1000
Det03
1002
}
1001
AUSTER_FOLIE
1002
{
1000
NSB01341_3RS10_24POL
1002
}
  0
ARC
  5
1351D
330
1F
100
AcDbEntity
  8
11000_Left
  6
HIDDEN
 62
     7
370
     9
100
AcDbCircle
 10
137.8667462073144
 20
139.4125706165255
 30
-0.7500000000000036
 40
0.4722615119880704
100
AcDbArc
 50
356.5273781600839
 51
93.47262183990956
1001
AUSTER_FOLIE
1002
{
1000
NSB01341_3RS10_24POL
1002
}
1001
AUSTER_ANSICHT
1002
{
1000
Det03
1002
}
  0
LINE
  5
1351E
330
1F
100
AcDbEntity
  8
11000_Left
  6
HIDDEN
 62
     7
370
     9
100
AcDbLine
 39
0.25
 10
135.338140579087
 20
144.0339649882982
 30
-1.000000000000001
 11
137.338140579087
 21
144.0339649882982
 31
-1.000000000000001
1001
AUSTER_ANSICHT
1002
{
1000
Det03
1002
}
1001
AUSTER_FOLIE
1002
{
1000
NSB01341_3RS10_24POL
1002
}
  0
LINE
  5
1351F
330
1F
100
AcDbEntity
  8
11000_Left
  6
HIDDEN
 62
     7
370
     9
100
AcDbLine
 39
0.25
 10
135.338140579087
 20
144.0339649882982
 30
-1.000000000000001
 11
137.338140579087
 21
144.0339649882982
 31
-1.000000000000001
1001
AUSTER_ANSICHT
1002
{
1000
Det03
1002
}
1001
AUSTER_FOLIE
1002
{
1000
NSB01341_3RS10_24POL
1002
}
  0
LINE
  5
13520
330
1F
100
AcDbEntity
  8
11000_Left
  6
HIDDEN
 62
     7
370
     9
100
AcDbLine
 39
0.25
 10
134.338140579087
 20
145.0339649882982
 30
-1.000000000000001
 11
134.338140579087
 21
154.5339649882982
 31
-1.000000000000001
1001
AUSTER_ANSICHT
1002
{
1000
Det03
1002
}
1001
AUSTER_FOLIE
1002
{
1000
NSB01341_3RS10_24POL
1002
}
  0
LINE
  5
13521
330
1F
100
AcDbEntity
  8
11000_Left
  6
HIDDEN
 62
     7
370
     9
100
AcDbLine
 39
0.25
 10
134.338140579087
 20
145.0339649882982
 30
-1.000000000000001
 11
134.338140579087
 21
154.5339649882982
 31
-1.000000000000001
1001
AUSTER_ANSICHT
1002
{
1000
Det03
1002
}
1001
AUSTER_FOLIE
1002
{
1000
NSB01341_3RS10_24POL
1002
}
  0
LINE
  5
13522
330
1F
100
AcDbEntity
  8
11000_Left
  6
HIDDEN
 62
     7
370
     9
100
AcDbLine
 39
0.25
 10
137.338140579087
 20
140.1339649882981
 30
-1.000000000000001
 11
137.338140579087
 21
139.8839649882981
 31
-1.000000000000001
1001
AUSTER_ANSICHT
1002
{
1000
Det03
1002
}
1001
AUSTER_FOLIE
1002
{
1000
NSB01341_3RS10_24POL
1002
}
  0
LINE
  5
13523
330
1F
100
AcDbEntity
  8
11000_Left
  6
HIDDEN
 62
     7
370
     9
100
AcDbLine
 39
0.25
 10
137.8381405790871
 20
139.8839649882981
 30
-1.000000000000001
 11
137.338140579087
 21
139.8839649882981
 31
-1.000000000000001
1001
AUSTER_ANSICHT
1002
{
1000
Det03
1002
}
1001
AUSTER_FOLIE
1002
{
1000
NSB01341_3RS10_24POL
1002
}
  0
LINE
  5
13524
330
1F
100
AcDbEntity
  8
11000_Left
  6
HIDDEN
 62
     7
370
     9
100
AcDbLine
 39
0.25
 10
139.3381405790871
 20
142.0339649882982
 30
-1.000000000000001
 11
137.338140579087
 21
144.0339649882982
 31
-1.000000000000001
1001
AUSTER_ANSICHT
1002
{
1000
Det03
1002
}
1001
AUSTER_FOLIE
1002
{
1000
NSB01341_3RS10_24POL
1002
}
  0
LINE
  5
13525
330
1F
100
AcDbEntity
  8
11000_Left
  6
HIDDEN
 62
     7
370
     9
100
AcDbLine
 39
0.25
 10
139.3381405790871
 20
142.0339649882982
 30
-1.000000000000001
 11
137.338140579087
 21
144.0339649882982
 31
-1.000000000000001
1001
AUSTER_ANSICHT
1002
{
1000
Det03
1002
}
1001
AUSTER_FOLIE
1002
{
1000
NSB01341_3RS10_24POL
1002
}
  0
ARC
  5
13526
330
1F
100
AcDbEntity
  8
11000_Left
  6
HIDDEN
 62
     7
370
     9
100
AcDbCircle
 39
0.25
 10
135.4381405790872
 20
140.1339649882981
 30
-1.000000000000001
 40
1.9
100
AcDbArc
 50
0.0000000107477304
 51
90.0
1001
AUSTER_ANSICHT
1002
{
1000
Det03
1002
}
1001
AUSTER_FOLIE
1002
{
1000
NSB01341_3RS10_24POL
1002
}
  0
ARC
  5
13527
330
1F
100
AcDbEntity
  8
11000_Left
  6
HIDDEN
 62
     7
370
     9
100
AcDbCircle
 39
0.25
 10
135.338140579087
 20
145.0339649882982
 30
-1.000000000000001
 40
1.0
100
AcDbArc
 50
180.0
 51
270.0
1001
AUSTER_ANSICHT
1002
{
1000
Det03
1002
}
1001
AUSTER_FOLIE
1002
{
1000
NSB01341_3RS10_24POL
1002
}
  0
ARC
  5
13528
330
1F
100
AcDbEntity
  8
11000_Left
  6
HIDDEN
 62
     7
370
     9
100
AcDbCircle
 39
0.25
 10
135.338140579087
 20
145.0339649882982
 30
-1.000000000000001
 40
1.0
100
AcDbArc
 50
180.0
 51
270.0
1001
AUSTER_ANSICHT
1002
{
1000
Det03
1002
}
1001
AUSTER_FOLIE
1002
{
1000
NSB01341_3RS10_24POL
1002
}
  0
LINE
  5
13529
330
1F
100
AcDbEntity
  8
11000_Left
  6
HIDDEN
 62
     7
370
     9
100
AcDbLine
 39
0.25
 10
138.3381405790871
 20
139.3839649882981
 30
-1.000000000000001
 11
138.338228929014
 21
136.98114990798
 31
-0.5
1001
AUSTER_ANSICHT
1002
{
1000
Det03
1002
}
1001
AUSTER_FOLIE
1002
{
1000
NSB01341_3RS10_24POL
1002
}
  0
LINE
  5
1352A
330
1F
100
AcDbEntity
  8
11000_Left
  6
HIDDEN
 62
     7
370
     9
100
AcDbLine
 39
0.25
 10
135.4381405790872
 20
167.0339649882982
 30
-0.0000000000000036
 11
133.8381405790871
 21
167.0339649882982
 31
-0.0000000000000036
1001
AUSTER_ANSICHT
1002
{
1000
Det03
1002
}
1001
AUSTER_FOLIE
1002
{
1000
NSB01341_3RS10_24POL
1002
}
  0
LINE
  5
1352B
330
1F
100
AcDbEntity
  8
11000_Left
  6
HIDDEN
 62
     7
370
     9
100
AcDbLine
 39
0.25
 10
135.4381405790872
 20
167.0339649882982
 30
-0.0000000000000036
 11
133.8381405790871
 21
167.0339649882982
 31
-0.0000000000000036
1001
AUSTER_ANSICHT
1002
{
1000
Det03
1002
}
1001
AUSTER_FOLIE
1002
{
1000
NSB01341_3RS10_24POL
1002
}
  0
LINE
  5
1352C
330
1F
100
AcDbEntity
  8
11000_Left
  6
HIDDEN
 62
     7
370
     9
100
AcDbLine
 39
0.25
 10
131.8381405790871
 20
165.0339649882982
 30
-0.0000000000000036
 11
131.8381405790871
 21
144.0339649882982
 31
-0.0000000000000036
1001
AUSTER_ANSICHT
1002
{
1000
Det03
1002
}
1001
AUSTER_FOLIE
1002
{
1000
NSB01341_3RS10_24POL
1002
}
  0
ARC
  5
1352D
330
1F
100
AcDbEntity
  8
11000_Left
  6
HIDDEN
 62
     7
370
     9
100
AcDbCircle
 39
0.25
 10
133.8381405790871
 20
165.0339649882982
 30
-0.0000000000000039
 40
2.0
100
AcDbArc
 50
90.0
 51
180.0
1001
AUSTER_ANSICHT
1002
{
1000
Det03
1002
}
1001
AUSTER_FOLIE
1002
{
1000
NSB01341_3RS10_24POL
1002
}
  0
LINE
  5
1352E
330
1F
100
AcDbEntity
  8
11000_Left
  6
HIDDEN
 62
     7
370
     9
100
AcDbLine
 39
0.25
 10
137.8381405790871
 20
169.1839649882983
 30
-1.000000000000001
 11
137.338140579087
 21
169.1839649882983
 31
-1.000000000000001
1001
AUSTER_ANSICHT
1002
{
1000
Det03
1002
}
1001
AUSTER_FOLIE
1002
{
1000
NSB01341_3RS10_24POL
1002
}
  0
LINE
  5
1352F
330
1F
100
AcDbEntity
  8
11000_Left
  6
HIDDEN
 62
     7
370
     9
100
AcDbLine
 39
0.25
 10
137.338140579087
 20
168.9339649882982
 30
-1.000000000000001
 11
137.338140579087
 21
169.1839649882983
 31
-1.000000000000001
1001
AUSTER_ANSICHT
1002
{
1000
Det03
1002
}
1001
AUSTER_FOLIE
1002
{
1000
NSB01341_3RS10_24POL
1002
}
  0
LINE
  5
13530
330
1F
100
AcDbEntity
  8
11000_Left
  6
HIDDEN
 62
     7
370
     9
100
AcDbLine
 39
0.25
 10
138.3381405790871
 20
169.6839649882981
 30
-1.000000000000001
 11
138.3381405790871
 21
172.1839649882982
 31
-1.000000000000001
1001
AUSTER_ANSICHT
1002
{
1000
Det03
1002
}
1001
AUSTER_FOLIE
1002
{
1000
NSB01341_3RS10_24POL
1002
}
  0
LINE
  5
13531
330
1F
100
AcDbEntity
  8
11000_Left
  6
HIDDEN
 62
     7
370
     9
100
AcDbLine
 39
0.25
 10
138.3381405790871
 20
169.6839649882981
 30
-1.000000000000001
 11
138.3381405790871
 21
172.1839649882982
 31
-1.000000000000001
1001
AUSTER_ANSICHT
1002
{
1000
Det03
1002
}
1001
AUSTER_FOLIE
1002
{
1000
NSB01341_3RS10_24POL
1002
}
  0
LINE
  5
13532
330
1F
100
AcDbEntity
  8
11000_Left
  6
HIDDEN
 62
     7
370
     9
100
AcDbLine
 39
0.25
 10
135.338140579087
 20
165.0339649882982
 30
-1.000000000000001
 11
137.338140579087
 21
165.0339649882982
 31
-1.000000000000001
1001
AUSTER_ANSICHT
1002
{
1000
Det03
1002
}
1001
AUSTER_FOLIE
1002
{
1000
NSB01341_3RS10_24POL
1002
}
  0
LINE
  5
13533
330
1F
100
AcDbEntity
  8
11000_Left
  6
HIDDEN
 62
     7
370
     9
100
AcDbLine
 39
0.25
 10
139.3381405790871
 20
167.0339649882982
 30
-1.000000000000001
 11
137.338140579087
 21
165.0339649882982
 31
-1.000000000000001
1001
AUSTER_ANSICHT
1002
{
1000
Det03
1002
}
1001
AUSTER_FOLIE
1002
{
1000
NSB01341_3RS10_24POL
1002
}
  0
LINE
  5
13534
330
1F
100
AcDbEntity
  8
11000_Left
  6
HIDDEN
 62
     7
370
     9
100
AcDbLine
 39
0.25
 10
134.338140579087
 20
164.0339649882982
 30
-1.000000000000001
 11
134.338140579087
 21
154.5339649882982
 31
-1.000000000000001
1001
AUSTER_ANSICHT
1002
{
1000
Det03
1002
}
1001
AUSTER_FOLIE
1002
{
1000
NSB01341_3RS10_24POL
1002
}
  0
ARC
  5
13535
330
1F
100
AcDbEntity
  8
11000_Left
  6
HIDDEN
 62
     7
370
     9
100
AcDbCircle
 39
0.25
 10
135.338140579087
 20
164.0339649882982
 30
-1.000000000000001
 40
1.0
100
AcDbArc
 50
90.0
 51
180.0
1001
AUSTER_ANSICHT
1002
{
1000
Det03
1002
}
1001
AUSTER_FOLIE
1002
{
1000
NSB01341_3RS10_24POL
1002
}
  0
ARC
  5
13536
330
1F
100
AcDbEntity
  8
11000_Left
  6
HIDDEN
 62
     7
370
     9
100
AcDbCircle
 39
0.25
 10
135.4381405790872
 20
168.9339649882982
 30
-1.000000000000001
 40
1.9
100
AcDbArc
 50
270.0
 51
0.0
1001
AUSTER_ANSICHT
1002
{
1000
Det03
1002
}
1001
AUSTER_FOLIE
1002
{
1000
NSB01341_3RS10_24POL
1002
}
  0
ARC
  5
13537
330
1F
100
AcDbEntity
  8
11000_Left
  6
HIDDEN
 62
     7
370
     9
100
AcDbCircle
 39
0.25
 10
137.8381405790871
 20
169.6839649882981
 30
-1.000000000000001
 40
0.5
100
AcDbArc
 50
270.0
 51
0.0
1001
AUSTER_ANSICHT
1002
{
1000
Det03
1002
}
1001
AUSTER_FOLIE
1002
{
1000
NSB01341_3RS10_24POL
1002
}
  0
LINE
  5
13538
330
1F
100
AcDbEntity
  8
11000_Left
  6
HIDDEN
 62
     7
370
     9
100
AcDbLine
 10
134.2382018580319
 20
105.2839649882981
 30
0.0
 11
140.2382018580318
 21
105.2839649882981
 31
0.0
1001
AUSTER_FOLIE
1002
{
1000
12_POL_CC
1002
}
1001
AUSTER_ANSICHT
1002
{
1000
SL
1002
}
  0
LINE
  5
13539
330
1F
100
AcDbEntity
  8
11000_Left
  6
HIDDEN
 62
     7
370
     9
100
AcDbLine
 10
140.2382018580318
 20
111.2839649882982
 30
0.0
 11
134.2382018580319
 21
111.2839649882982
 31
0.0
1001
AUSTER_FOLIE
1002
{
1000
12_POL_CC
1002
}
1001
AUSTER_ANSICHT
1002
{
1000
SL
1002
}
  0
LINE
  5
1353A
330
1F
100
AcDbEntity
  8
11000_Left
  6
HIDDEN
 62
     7
370
     9
100
AcDbLine
 10
134.2382018580319
 20
95.28396498829819
 30
0.0
 11
140.2382018580318
 21
95.28396498829819
 31
0.0
1001
AUSTER_FOLIE
1002
{
1000
12_POL_CC
1002
}
1001
AUSTER_ANSICHT
1002
{
1000
SL
1002
}
  0
LINE
  5
1353B
330
1F
100
AcDbEntity
  8
11000_Left
  6
HIDDEN
 62
     7
370
     9
100
AcDbLine
 10
134.2382018580319
 20
93.28396498829818
 30
0.0
 11
140.2382018580318
 21
93.28396498829818
 31
0.0
1001
AUSTER_FOLIE
1002
{
1000
12_POL_CC
1002
}
1001
AUSTER_ANSICHT
1002
{
1000
SL
1002
}
  0
LINE
  5
1353C
330
1F
100
AcDbEntity
  8
11000_Left
  6
HIDDEN
 62
     7
370
     9
100
AcDbLine
 10
140.2382018580318
 20
101.2839649882982
 30
0.0
 11
134.2382018580319
 21
101.2839649882982
 31
0.0
1001
AUSTER_FOLIE
1002
{
1000
12_POL_CC
1002
}
1001
AUSTER_ANSICHT
1002
{
1000
SL
1002
}
  0
LINE
  5
1353D
330
1F
100
AcDbEntity
  8
11000_Left
  6
HIDDEN
 62
     7
370
     9
100
AcDbLine
 10
134.2382018580319
 20
116.2839649882982
 30
0.0
 11
134.2382018580319
 21
93.28396498829818
 31
0.0
1001
AUSTER_FOLIE
1002
{
1000
12_POL_CC
1002
}
1001
AUSTER_ANSICHT
1002
{
1000
SL
1002
}
  0
LINE
  5
1353E
330
1F
100
AcDbEntity
  8
11000_Left
  6
HIDDEN
 62
     7
370
     9
100
AcDbLine
 10
134.2382018580319
 20
190.2839649882982
 30
0.0
 11
134.2382018580319
 21
213.2839649882982
 31
0.0
1001
AUSTER_FOLIE
1002
{
1000
12_POL_CC
1002
}
1001
AUSTER_ANSICHT
1002
{
1000
SL
1002
}
  0
LINE
  5
1353F
330
1F
100
AcDbEntity
  8
11000_Left
  6
HIDDEN
 62
     7
370
     9
100
AcDbLine
 10
134.2382018580319
 20
211.2839649882982
 30
0.0
 11
140.2382018580318
 21
211.2839649882982
 31
0.0
1001
AUSTER_FOLIE
1002
{
1000
12_POL_CC
1002
}
1001
AUSTER_ANSICHT
1002
{
1000
SL
1002
}
  0
LINE
  5
13540
330
1F
100
AcDbEntity
  8
11000_Left
  6
HIDDEN
 62
     7
370
     9
100
AcDbLine
 10
134.2382018580319
 20
213.2839649882982
 30
0.0
 11
140.2382018580318
 21
213.2839649882982
 31
0.0
1001
AUSTER_FOLIE
1002
{
1000
12_POL_CC
1002
}
1001
AUSTER_ANSICHT
1002
{
1000
SL
1002
}
  0
LINE
  5
13541
330
1F
100
AcDbEntity
  8
11000_Left
  6
HIDDEN
 62
     7
370
     9
100
AcDbLine
 10
140.2382018580318
 20
195.2839649882982
 30
0.0
 11
134.2382018580319
 21
195.2839649882982
 31
0.0
1001
AUSTER_FOLIE
1002
{
1000
12_POL_CC
1002
}
1001
AUSTER_ANSICHT
1002
{
1000
SL
1002
}
  0
LINE
  5
13542
330
1F
100
AcDbEntity
  8
11000_Left
  6
HIDDEN
 62
     7
370
     9
100
AcDbLine
 10
140.2382018580318
 20
205.2839649882982
 30
0.0
 11
134.2382018580319
 21
205.2839649882982
 31
0.0
1001
AUSTER_FOLIE
1002
{
1000
12_POL_CC
1002
}
1001
AUSTER_ANSICHT
1002
{
1000
SL
1002
}
  0
LINE
  5
13543
330
1F
100
AcDbEntity
  8
11000_Left
  6
HIDDEN
 62
     7
370
     9
100
AcDbLine
 10
134.2382018580319
 20
201.2839649882982
 30
0.0
 11
140.2382018580318
 21
201.2839649882982
 31
0.0
1001
AUSTER_FOLIE
1002
{
1000
12_POL_CC
1002
}
1001
AUSTER_ANSICHT
1002
{
1000
SL
1002
}
  0
LINE
  5
13544
330
1F
100
AcDbEntity
  8
11000_Left
  6
HIDDEN
 62
     7
370
     9
100
AcDbLine
 10
134.2382018580319
 20
192.2839649882982
 30
0.0
 11
140.2382018580318
 21
192.2839649882982
 31
0.0
1001
AUSTER_FOLIE
1002
{
1000
12_POL_CC
1002
}
1001
AUSTER_ANSICHT
1002
{
1000
SL
1002
}
  0
LINE
  5
13545
330
1F
100
AcDbEntity
  8
11000_Left
  6
HIDDEN
 62
     7
370
     9
100
AcDbLine
 10
140.2382018580318
 20
213.2839649882982
 30
0.0
 11
140.2382018580318
 21
190.2839649882982
 31
0.0
1001
AUSTER_FOLIE
1002
{
1000
12_POL_CC
1002
}
1001
AUSTER_ANSICHT
1002
{
1000
SL
1002
}
  0
ARC
  5
13546
330
1F
100
AcDbEntity
  8
10000_FRONT
  6
HIDDEN
 62
     7
370
     9
100
AcDbCircle
 10
45.7887856994738
 20
94.48244735168907
 30
0.0
 40
2.0
100
AcDbArc
 50
180.0
 51
270.0
1001
AUSTER_FOLIE
1002
{
1000
6_POL_CC
1002
}
1001
AUSTER_ANSICHT
1002
{
1000
V
1002
}
  0
ARC
  5
13547
330
1F
100
AcDbEntity
  8
10000_FRONT
  6
HIDDEN
 62
     7
370
     9
100
AcDbCircle
 10
49.2887856994738
 20
94.48244735168907
 30
0.0
 40
2.0
100
AcDbArc
 50
270.0
 51
0.0
1001
AUSTER_FOLIE
1002
{
1000
6_POL_CC
1002
}
1001
AUSTER_ANSICHT
1002
{
1000
V
1002
}
  0
LINE
  5
13548
330
1F
100
AcDbEntity
  8
10000_FRONT
  6
HIDDEN
 62
     7
370
     9
100
AcDbLine
 10
49.2887856994738
 20
92.48244735168908
 30
0.0
 11
45.7887856994738
 21
92.48244735168908
 31
0.0
1001
AUSTER_FOLIE
1002
{
1000
6_POL_CC
1002
}
1001
AUSTER_ANSICHT
1002
{
1000
V
1002
}
  0
LINE
  5
13549
330
1F
100
AcDbEntity
  8
10000_FRONT
  6
HIDDEN
 62
     7
370
     9
100
AcDbLine
 10
51.28878569947381
 20
110.940407351689
 30
0.0
 11
51.28878569947381
 21
94.48244735168907
 31
0.0
1001
AUSTER_FOLIE
1002
{
1000
6_POL_CC
1002
}
1001
AUSTER_ANSICHT
1002
{
1000
V
1002
}
  0
LINE
  5
1354A
330
1F
100
AcDbEntity
  8
10000_FRONT
  6
HIDDEN
 62
     7
370
     9
100
AcDbLine
 10
43.78878569947381
 20
111.1404073516891
 30
0.0
 11
43.78878569947381
 21
94.48244735168907
 31
0.0
1001
AUSTER_FOLIE
1002
{
1000
6_POL_CC
1002
}
1001
AUSTER_ANSICHT
1002
{
1000
V
1002
}
  0
LINE
  5
1354B
330
1F
100
AcDbEntity
  8
10000_FRONT
  6
HIDDEN
 62
     7
370
     9
100
AcDbLine
 10
50.03878569947381
 20
97.98244735168907
 30
0.0
 11
50.03878569947381
 21
96.98244735168907
 31
0.0
1001
AUSTER_FOLIE
1002
{
1000
6_POL_CC
1002
}
1001
AUSTER_ANSICHT
1002
{
1000
V
1002
}
  0
LINE
  5
1354C
330
1F
100
AcDbEntity
  8
10000_FRONT
  6
HIDDEN
 62
     7
370
     9
100
AcDbLine
 10
45.03878569947381
 20
97.98244735168907
 30
0.0
 11
45.03878569947381
 21
96.98244735168907
 31
0.0
1001
AUSTER_FOLIE
1002
{
1000
6_POL_CC
1002
}
1001
AUSTER_ANSICHT
1002
{
1000
V
1002
}
  0
ARC
  5
1354D
330
1F
100
AcDbEntity
  8
10000_FRONT
  6
HIDDEN
 62
     7
370
     9
100
AcDbCircle
 10
47.53878569947381
 20
96.98244735168907
 30
0.0
 40
2.5
100
AcDbArc
 50
180.0
 51
0.0
1001
AUSTER_FOLIE
1002
{
1000
6_POL_CC
1002
}
1001
AUSTER_ANSICHT
1002
{
1000
V
1002
}
  0
ARC
  5
1354E
330
1F
100
AcDbEntity
  8
10000_FRONT
  6
HIDDEN
 62
     7
370
     9
100
AcDbCircle
 10
47.53878569947381
 20
97.98244735168907
 30
0.0
 40
2.5
100
AcDbArc
 50
0.0
 51
180.0
1001
AUSTER_FOLIE
1002
{
1000
6_POL_CC
1002
}
1001
AUSTER_ANSICHT
1002
{
1000
V
1002
}
  0
LINE
  5
1354F
330
1F
100
AcDbEntity
  8
10000_FRONT
  6
HIDDEN
 62
     7
370
     9
100
AcDbLine
 10
58.78878569947381
 20
193.5404073516892
 30
0.0
 11
58.78878569947381
 21
210.4824473516891
 31
0.0
1001
AUSTER_FOLIE
1002
{
1000
6_POL_CC
1002
}
1001
AUSTER_ANSICHT
1002
{
1000
V
1002
}
  0
LINE
  5
13550
330
1F
100
AcDbEntity
  8
10000_FRONT
  6
HIDDEN
 62
     7
370
     9
100
AcDbLine
 10
66.28878569947381
 20
193.5404073516892
 30
0.0
 11
66.28878569947381
 21
210.4824473516891
 31
0.0
1001
AUSTER_FOLIE
1002
{
1000
6_POL_CC
1002
}
1001
AUSTER_ANSICHT
1002
{
1000
V
1002
}
  0
ARC
  5
13551
330
1F
100
AcDbEntity
  8
10000_FRONT
  6
HIDDEN
 62
     7
370
     9
100
AcDbCircle
 10
64.2887856994738
 20
210.4824473516891
 30
0.0
 40
2.0
100
AcDbArc
 50
0.0
 51
90.0
1001
AUSTER_FOLIE
1002
{
1000
6_POL_CC
1002
}
1001
AUSTER_ANSICHT
1002
{
1000
V
1002
}
  0
LINE
  5
13552
330
1F
100
AcDbEntity
  8
10000_FRONT
  6
HIDDEN
 62
     7
370
     9
100
AcDbLine
 10
65.03878569947381
 20
206.9824473516892
 30
0.0
 11
65.03878569947381
 21
207.9824473516892
 31
0.0
1001
AUSTER_FOLIE
1002
{
1000
6_POL_CC
1002
}
1001
AUSTER_ANSICHT
1002
{
1000
V
1002
}
  0
ARC
  5
13553
330
1F
100
AcDbEntity
  8
10000_FRONT
  6
HIDDEN
 62
     7
370
     9
100
AcDbCircle
 10
60.78878569947381
 20
210.4824473516891
 30
0.0
 40
2.0
100
AcDbArc
 50
90.0
 51
180.0
1001
AUSTER_FOLIE
1002
{
1000
6_POL_CC
1002
}
1001
AUSTER_ANSICHT
1002
{
1000
V
1002
}
  0
LINE
  5
13554
330
1F
100
AcDbEntity
  8
10000_FRONT
  6
HIDDEN
 62
     7
370
     9
100
AcDbLine
 10
60.03878569947381
 20
206.9824473516892
 30
0.0
 11
60.03878569947381
 21
207.9824473516892
 31
0.0
1001
AUSTER_FOLIE
1002
{
1000
6_POL_CC
1002
}
1001
AUSTER_ANSICHT
1002
{
1000
V
1002
}
  0
ARC
  5
13555
330
1F
100
AcDbEntity
  8
10000_FRONT
  6
HIDDEN
 62
     7
370
     9
100
AcDbCircle
 10
62.53878569947381
 20
206.9824473516892
 30
0.0
 40
2.5
100
AcDbArc
 50
180.0
 51
0.0
1001
AUSTER_FOLIE
1002
{
1000
6_POL_CC
1002
}
1001
AUSTER_ANSICHT
1002
{
1000
V
1002
}
  0
ARC
  5
13556
330
1F
100
AcDbEntity
  8
10000_FRONT
  6
HIDDEN
 62
     7
370
     9
100
AcDbCircle
 10
62.53878569947381
 20
207.9824473516892
 30
0.0
 40
2.5
100
AcDbArc
 50
0.0
 51
180.0
1001
AUSTER_FOLIE
1002
{
1000
6_POL_CC
1002
}
1001
AUSTER_ANSICHT
1002
{
1000
V
1002
}
  0
LINE
  5
13557
330
1F
100
AcDbEntity
  8
10000_FRONT
  6
HIDDEN
 62
     7
370
     9
100
AcDbLine
 10
60.78878569947381
 20
212.4824473516891
 30
0.0
 11
64.2887856994738
 21
212.4824473516891
 31
0.0
1001
AUSTER_FOLIE
1002
{
1000
6_POL_CC
1002
}
1001
AUSTER_ANSICHT
1002
{
1000
V
1002
}
  0
ARC
  5
13558
330
1F
100
AcDbEntity
  8
10000_FRONT
  6
Continuous
 62
     7
370
    50
100
AcDbCircle
 10
66.08878569947376
 20
193.3404073516891
 30
0.0
 40
0.2
100
AcDbArc
 50
0.0
 51
90.0004430000029
  0
LINE
  5
13559
330
1F
100
AcDbEntity
  8
10000_FRONT
  6
Continuous
 62
     7
370
    50
100
AcDbLine
 10
66.08878569947376
 20
193.5404073516892
 30
0.0
 11
66.08878569947376
 21
193.5404073516892
 31
0.0
  0
ARC
  5
1355A
330
1F
100
AcDbEntity
  8
10000_FRONT
  6
Continuous
 62
     7
370
    50
100
AcDbCircle
 10
66.08878569947376
 20
193.3404073516891
 30
0.0
 40
0.2
100
AcDbArc
 50
0.0
 51
90.0004430000029
  0
LINE
  5
1355B
330
1F
100
AcDbEntity
  8
10000_FRONT
  6
Continuous
 62
     7
370
    50
100
AcDbLine
 10
66.08878569947376
 20
193.5404073516892
 30
0.0
 11
66.08878569947376
 21
193.5404073516892
 31
0.0
  0
LINE
  5
1355C
330
1F
100
AcDbEntity
  8
10000_FRONT
  6
Continuous
 62
     7
370
    40
100
AcDbLine
 10
66.28878569947381
 20
179.4904173516892
 30
0.0
 11
66.28878569947381
 21
179.5404073516891
 31
0.0
  0
LINE
  5
1355D
330
1F
100
AcDbEntity
  8
10000_FRONT
  6
Continuous
 62
     7
370
    40
100
AcDbLine
 10
66.28878569947381
 20
179.4904173516892
 30
0.0
 11
66.28878569947381
 21
179.5404073516891
 31
0.0
  0
LINE
  5
1355E
330
1F
100
AcDbEntity
  8
10000_FRONT
  6
Continuous
 62
     7
370
    50
100
AcDbLine
 10
64.4387856994739
 20
193.0404073516891
 30
0.0
 11
60.03878569947381
 21
193.0404073516891
 31
0.0
  0
LINE
  5
1355F
330
1F
100
AcDbEntity
  8
10000_FRONT
  6
Continuous
 62
     7
370
    50
100
AcDbLine
 10
60.03878569947381
 20
193.5404073516892
 30
0.0
 11
57.23878569947385
 21
193.5404073516892
 31
0.0
  0
LINE
  5
13560
330
1F
100
AcDbEntity
  8
10000_FRONT
  6
Continuous
 62
     7
370
    50
100
AcDbLine
 10
52.83878569947376
 20
193.0404073516891
 30
0.0
 11
52.83878569947376
 21
193.5404073516892
 31
0.0
  0
LINE
  5
13561
330
1F
100
AcDbEntity
  8
10000_FRONT
  6
Continuous
 62
     7
370
    50
100
AcDbLine
 10
57.23878569947385
 20
193.0404073516891
 30
0.0
 11
57.23878569947385
 21
193.3404073516891
 31
0.0
  0
LINE
  5
13562
330
1F
100
AcDbEntity
  8
10000_FRONT
  6
Continuous
 62
     7
370
    50
100
AcDbLine
 10
57.23878569947385
 20
193.5404073516892
 30
0.0
 11
57.23878569947385
 21
193.3404073516891
 31
0.0
  0
LINE
  5
13563
330
1F
100
AcDbEntity
  8
10000_FRONT
  6
Continuous
 62
     7
370
    50
100
AcDbLine
 10
60.03878569947381
 20
193.0404073516891
 30
0.0
 11
60.03878569947381
 21
193.5404073516892
 31
0.0
  0
LINE
  5
13564
330
1F
100
AcDbEntity
  8
10000_FRONT
  6
Continuous
 62
     7
370
    50
100
AcDbLine
 10
57.23878569947385
 20
193.0404073516891
 30
0.0
 11
52.83878569947376
 21
193.0404073516891
 31
0.0
  0
LINE
  5
13565
330
1F
100
AcDbEntity
  8
10000_FRONT
  6
Continuous
 62
     7
370
    50
100
AcDbLine
 10
60.03878569947381
 20
193.5404073516892
 30
0.0
 11
57.23878569947385
 21
193.5404073516892
 31
0.0
  0
LINE
  5
13566
330
1F
100
AcDbEntity
  8
10000_FRONT
  6
Continuous
 62
     7
370
    50
100
AcDbLine
 10
57.23878569947385
 20
193.0404073516891
 30
0.0
 11
57.23878569947385
 21
193.3404073516891
 31
0.0
  0
LINE
  5
13567
330
1F
100
AcDbEntity
  8
10000_FRONT
  6
Continuous
 62
     7
370
    50
100
AcDbLine
 10
57.23878569947385
 20
193.5404073516892
 30
0.0
 11
57.23878569947385
 21
193.3404073516891
 31
0.0
  0
LINE
  5
13568
330
1F
100
AcDbEntity
  8
10000_FRONT
  6
Continuous
 62
     7
370
    50
100
AcDbLine
 10
57.23878569947385
 20
193.0404073516891
 30
0.0
 11
52.83878569947376
 21
193.0404073516891
 31
0.0
  0
LINE
  5
13569
330
1F
100
AcDbEntity
  8
10000_FRONT
  6
Continuous
 62
     7
370
    50
100
AcDbLine
 10
64.4387856994739
 20
193.0404073516891
 30
0.0
 11
64.4387856994739
 21
193.5404073516892
 31
0.0
  0
LINE
  5
1356A
330
1F
100
AcDbEntity
  8
10000_FRONT
  6
Continuous
 62
     7
370
    50
100
AcDbLine
 10
45.63878569947371
 20
193.5404073516892
 30
0.0
 11
43.98878569947385
 21
193.5404073516892
 31
0.0
  0
ARC
  5
1356B
330
1F
100
AcDbEntity
  8
10000_FRONT
  6
Continuous
 62
     7
370
    50
100
AcDbCircle
 10
43.98878569947385
 20
193.3404073516891
 30
0.0
 40
0.2
100
AcDbArc
 50
90.0
 51
180.0
  0
LINE
  5
1356C
330
1F
100
AcDbEntity
  8
10000_FRONT
  6
Continuous
 62
     7
370
    50
100
AcDbLine
 10
50.03878569947381
 20
193.0404073516891
 30
0.0
 11
50.03878569947381
 21
193.5404073516892
 31
0.0
  0
LINE
  5
1356D
330
1F
100
AcDbEntity
  8
10000_FRONT
  6
Continuous
 62
     7
370
    50
100
AcDbLine
 10
45.63878569947371
 20
193.0404073516891
 30
0.0
 11
45.63878569947371
 21
193.5404073516892
 31
0.0
  0
LINE
  5
1356E
330
1F
100
AcDbEntity
  8
10000_FRONT
  6
Continuous
 62
     7
370
    50
100
AcDbLine
 10
50.03878569947381
 20
193.0404073516891
 30
0.0
 11
45.63878569947371
 21
193.0404073516891
 31
0.0
  0
LINE
  5
1356F
330
1F
100
AcDbEntity
  8
10000_FRONT
  6
Continuous
 62
     7
370
    50
100
AcDbLine
 10
52.83878569947376
 20
193.5404073516892
 30
0.0
 11
50.03878569947381
 21
193.5404073516892
 31
0.0
  0
LINE
  5
13570
330
1F
100
AcDbEntity
  8
10000_FRONT
  6
Continuous
 62
     7
370
    15
100
AcDbLine
 39
0.25
 10
57.9387856994739
 20
179.5404073516891
 30
0.0
 11
57.9387856994739
 21
182.207437351689
 31
0.0
  0
LINE
  5
13571
330
1F
100
AcDbEntity
  8
10000_FRONT
  6
Continuous
 62
     7
370
    15
100
AcDbLine
 39
0.25
 10
57.9387856994739
 20
182.207437351689
 30
0.0
 11
52.13878569947372
 21
182.207437351689
 31
0.0
  0
LINE
  5
13572
330
1F
100
AcDbEntity
  8
10000_FRONT
  6
Continuous
 62
     7
370
    15
100
AcDbLine
 39
0.25
 10
52.13878569947372
 20
179.5404073516891
 30
0.0
 11
52.13878569947372
 21
182.207437351689
 31
0.0
  0
LINE
  5
13573
330
1F
100
AcDbEntity
  8
10000_FRONT
  6
Continuous
 62
     7
370
    15
100
AcDbLine
 39
0.25
 10
63.33878569947376
 20
178.8904073516892
 30
0.0
 11
64.2887856994738
 21
178.8904073516892
 31
0.0
  0
LINE
  5
13574
330
1F
100
AcDbEntity
  8
10000_FRONT
  6
Continuous
 62
     7
370
    15
100
AcDbLine
 10
65.48878569947385
 20
179.4904073516891
 30
0.0
 11
43.78878569947381
 21
179.4904073516891
 31
0.0
  0
LINE
  5
13575
330
1F
100
AcDbEntity
  8
10000_FRONT
  6
Continuous
 62
     7
370
    30
100
AcDbLine
 10
65.48878569947385
 20
179.4904073516891
 30
0.0
 11
66.28878569947381
 21
179.4904073516891
 31
0.0
  0
LINE
  5
13576
330
1F
100
AcDbEntity
  8
10000_FRONT
  6
Continuous
 62
     7
370
    50
100
AcDbLine
 10
66.08878569947376
 20
193.5404073516892
 30
0.0
 11
64.4387856994739
 21
193.5404073516892
 31
0.0
  0
LINE
  5
13577
330
1F
100
AcDbEntity
  8
10000_FRONT
  6
Continuous
 62
     7
370
    15
100
AcDbLine
 39
0.25
 10
64.2887856994738
 20
174.890407351689
 30
0.0
 11
63.33878569947376
 21
174.890407351689
 31
0.0
  0
LINE
  5
13578
330
1F
100
AcDbEntity
  8
10000_FRONT
  6
Continuous
 62
     7
370
    15
100
AcDbLine
 39
0.25
 10
45.03878569947381
 20
135.2404073516891
 30
0.0
 11
65.03878569947381
 21
135.2404073516891
 31
0.0
  0
LINE
  5
13579
330
1F
100
AcDbEntity
  8
10000_FRONT
  6
Continuous
 62
     7
370
    15
100
AcDbLine
 39
0.25
 10
52.13878569947372
 20
124.9904073516891
 30
0.0
 11
52.13878569947372
 21
122.2733673516891
 31
0.0
  0
LINE
  5
1357A
330
1F
100
AcDbEntity
  8
10000_FRONT
  6
Continuous
 62
     7
370
    15
100
AcDbLine
 39
0.25
 10
57.9387856994739
 20
124.9904073516891
 30
0.0
 11
57.9387856994739
 21
122.2733673516891
 31
0.0
  0
LINE
  5
1357B
330
1F
100
AcDbEntity
  8
10000_FRONT
  6
Continuous
 62
     7
370
    15
100
AcDbLine
 39
0.25
 10
52.13878569947372
 20
122.2733673516891
 30
0.0
 11
57.9387856994739
 21
122.2733673516891
 31
0.0
  0
LINE
  5
1357C
330
1F
100
AcDbEntity
  8
10000_FRONT
  6
Continuous
 62
     7
370
    15
100
AcDbLine
 39
0.25
 10
52.13877569947374
 20
122.273357351689
 30
0.0
 11
52.13901569947381
 21
122.295967351689
 31
0.0
  0
ARC
  5
1357D
330
1F
100
AcDbEntity
  8
10000_FRONT
  6
Continuous
 62
     7
370
    15
100
AcDbCircle
 39
0.25
 10
53.29609569947376
 20
122.2727773516891
 30
0.0
 40
1.157316699999997
100
AcDbArc
 50
177.7499200000015
 51
178.851959999996
  0
ARC
  5
1357E
330
1F
100
AcDbEntity
  8
10000_FRONT
  6
Continuous
 62
     7
370
    15
100
AcDbCircle
 39
0.25
 10
53.23140569947383
 20
122.2742673516891
 30
0.0
 40
1.0926175
100
AcDbArc
 50
176.5464499999982
 51
177.6947600000001
  0
ARC
  5
1357F
330
1F
100
AcDbEntity
  8
10000_FRONT
  6
Continuous
 62
     7
370
    15
100
AcDbCircle
 39
0.25
 10
53.18989569947382
 20
122.276277351689
 30
0.0
 40
1.051062899999998
100
AcDbArc
 50
175.3436500000046
 51
176.5191900000002
  0
LINE
  5
13580
330
1F
100
AcDbEntity
  8
10000_FRONT
  6
Continuous
 62
     7
370
    15
100
AcDbLine
 39
0.25
 10
57.93877569947369
 20
122.273357351689
 30
0.0
 11
57.93854569947382
 21
122.295967351689
 31
0.0
  0
ARC
  5
13581
330
1F
100
AcDbEntity
  8
10000_FRONT
  6
Continuous
 62
     7
370
    15
100
AcDbCircle
 39
0.25
 10
56.78175569947382
 20
122.2727873516892
 30
0.0
 40
1.1570263
100
AcDbArc
 50
1.147902699997636
 51
2.250221299995236
  0
ARC
  5
13582
330
1F
100
AcDbEntity
  8
10000_FRONT
  6
Continuous
 62
     7
370
    15
100
AcDbCircle
 39
0.25
 10
56.84643569947377
 20
122.2742873516891
 30
0.0
 40
1.092336799999998
100
AcDbArc
 50
2.305088800003629
 51
3.453694000000748
  0
ARC
  5
13583
330
1F
100
AcDbEntity
  8
10000_FRONT
  6
Continuous
 62
     7
370
    15
100
AcDbCircle
 39
0.25
 10
56.88793569947382
 20
122.2762873516891
 30
0.0
 40
1.0507933
100
AcDbArc
 50
3.4806582999991
 51
4.656500999999177
  0
LINE
  5
13584
330
1F
100
AcDbEntity
  8
10000_FRONT
  6
Continuous
 62
     7
370
    15
100
AcDbLine
 39
0.25
 10
52.13877569947374
 20
122.273357351689
 30
0.0
 11
52.13901569947381
 21
122.295967351689
 31
0.0
  0
ARC
  5
13585
330
1F
100
AcDbEntity
  8
10000_FRONT
  6
Continuous
 62
     7
370
    15
100
AcDbCircle
 39
0.25
 10
53.29609569947376
 20
122.2727773516891
 30
0.0
 40
1.157316699999997
100
AcDbArc
 50
177.7499200000015
 51
178.851959999996
  0
ARC
  5
13586
330
1F
100
AcDbEntity
  8
10000_FRONT
  6
Continuous
 62
     7
370
    15
100
AcDbCircle
 39
0.25
 10
53.23140569947383
 20
122.2742673516891
 30
0.0
 40
1.0926175
100
AcDbArc
 50
176.5464499999982
 51
177.6947600000001
  0
ARC
  5
13587
330
1F
100
AcDbEntity
  8
10000_FRONT
  6
Continuous
 62
     7
370
    15
100
AcDbCircle
 39
0.25
 10
53.18989569947382
 20
122.276277351689
 30
0.0
 40
1.051062899999998
100
AcDbArc
 50
175.3436500000046
 51
176.5191900000002
  0
LINE
  5
13588
330
1F
100
AcDbEntity
  8
10000_FRONT
  6
Continuous
 62
     7
370
    15
100
AcDbLine
 39
0.25
 10
57.93877569947369
 20
122.273357351689
 30
0.0
 11
57.93854569947382
 21
122.295967351689
 31
0.0
  0
ARC
  5
13589
330
1F
100
AcDbEntity
  8
10000_FRONT
  6
Continuous
 62
     7
370
    15
100
AcDbCircle
 39
0.25
 10
56.78175569947382
 20
122.2727873516892
 30
0.0
 40
1.1570263
100
AcDbArc
 50
1.147902699997636
 51
2.250221299995236
  0
ARC
  5
1358A
330
1F
100
AcDbEntity
  8
10000_FRONT
  6
Continuous
 62
     7
370
    15
100
AcDbCircle
 39
0.25
 10
56.84643569947377
 20
122.2742873516891
 30
0.0
 40
1.092336799999998
100
AcDbArc
 50
2.305088800003629
 51
3.453694000000748
  0
ARC
  5
1358B
330
1F
100
AcDbEntity
  8
10000_FRONT
  6
Continuous
 62
     7
370
    15
100
AcDbCircle
 39
0.25
 10
56.88793569947382
 20
122.2762873516891
 30
0.0
 40
1.0507933
100
AcDbArc
 50
3.4806582999991
 51
4.656500999999177
  0
LINE
  5
1358C
330
1F
100
AcDbEntity
  8
10000_FRONT
  6
Continuous
 62
     7
370
    15
100
AcDbLine
 39
0.25
 10
65.03878569947381
 20
128.2404073516891
 30
0.0
 11
45.03878569947381
 21
128.2404073516891
 31
0.0
  0
LINE
  5
1358D
330
1F
100
AcDbEntity
  8
10000_FRONT
  6
Continuous
 62
     7
370
    15
100
AcDbLine
 39
0.25
 10
65.03878569947381
 20
135.2404073516891
 30
0.0
 11
65.03878569947381
 21
128.2404073516891
 31
0.0
  0
LINE
  5
1358E
330
1F
100
AcDbEntity
  8
10000_FRONT
  6
Continuous
 62
     7
370
    15
100
AcDbLine
 39
0.25
 10
45.03878569947381
 20
128.2404073516891
 30
0.0
 11
45.03878569947381
 21
135.2404073516891
 31
0.0
  0
LINE
  5
1358F
330
1F
100
AcDbEntity
  8
10000_FRONT
  6
Continuous
 62
     7
370
    15
100
AcDbLine
 10
43.78878569947381
 20
124.9904073516891
 30
0.0
 11
66.28878569947358
 21
124.9904073516891
 31
0.0
  0
LINE
  5
13590
330
1F
100
AcDbEntity
  8
10000_FRONT
  6
Continuous
 62
     7
370
    50
100
AcDbLine
 10
43.78878569947386
 20
111.1404073516891
 30
0.0
 11
43.78878569947386
 21
193.3404073516891
 31
0.0
  0
LINE
  5
13591
330
1F
100
AcDbEntity
  8
10000_FRONT
  6
Continuous
 62
     7
370
    15
100
AcDbLine
 39
0.25
 10
64.2887856994738
 20
178.8904073516892
 30
0.0
 11
64.2887856994738
 21
174.890407351689
 31
0.0
  0
LINE
  5
13592
330
1F
100
AcDbEntity
  8
10000_FRONT
  6
Continuous
 62
     7
370
    15
100
AcDbLine
 39
0.25
 10
63.33878569947376
 20
174.890407351689
 30
0.0
 11
63.33878569947376
 21
178.8904073516892
 31
0.0
  0
LINE
  5
13593
330
1F
100
AcDbEntity
  8
10000_FRONT
  6
Continuous
 62
     7
370
    15
100
AcDbLine
 39
0.25
 10
48.35378569947386
 20
185.736107351689
 30
0.0
 11
50.62448569947389
 21
185.736107351689
 31
0.0
1001
AUSTER_ANSICHT
1002
{
1000
Det03
1002
}
1001
AUSTER_FOLIE
1002
{
1000
NSB01341_3RS10_24POL
1002
}
  0
LINE
  5
13594
330
1F
100
AcDbEntity
  8
10000_FRONT
  6
Continuous
 62
     7
370
    15
100
AcDbLine
 39
0.25
 10
50.62448569947389
 20
186.944807351689
 30
0.0
 11
48.35378569947386
 21
186.944807351689
 31
0.0
1001
AUSTER_ANSICHT
1002
{
1000
Det03
1002
}
1001
AUSTER_FOLIE
1002
{
1000
NSB01341_3RS10_24POL
1002
}
  0
LINE
  5
13595
330
1F
100
AcDbEntity
  8
10000_FRONT
  6
Continuous
 62
     7
370
    15
100
AcDbLine
 39
0.25
 10
48.35378569947386
 20
187.1250073516891
 30
0.0
 11
48.35378569947386
 21
188.1173073516889
 31
0.0
1001
AUSTER_ANSICHT
1002
{
1000
Det03
1002
}
1001
AUSTER_FOLIE
1002
{
1000
NSB01341_3RS10_24POL
1002
}
  0
LINE
  5
13596
330
1F
100
AcDbEntity
  8
10000_FRONT
  6
Continuous
 62
     7
370
    15
100
AcDbLine
 39
0.25
 10
48.35378569947386
 20
184.563607351689
 30
0.0
 11
48.35378569947386
 21
185.5559073516891
 31
0.0
1001
AUSTER_ANSICHT
1002
{
1000
Det03
1002
}
1001
AUSTER_FOLIE
1002
{
1000
NSB01341_3RS10_24POL
1002
}
  0
LINE
  5
13597
330
1F
100
AcDbEntity
  8
10000_FRONT
  6
Continuous
 62
     7
370
    15
100
AcDbLine
 39
0.25
 10
48.35378569947386
 20
187.1250073516891
 30
0.0
 11
48.35378569947386
 21
186.944807351689
 31
0.0
1001
AUSTER_ANSICHT
1002
{
1000
Det03
1002
}
1001
AUSTER_FOLIE
1002
{
1000
NSB01341_3RS10_24POL
1002
}
  0
LINE
  5
13598
330
1F
100
AcDbEntity
  8
10000_FRONT
  6
Continuous
 62
     7
370
    15
100
AcDbLine
 39
0.25
 10
48.35378569947386
 20
185.5559073516891
 30
0.0
 11
48.35378569947386
 21
185.736107351689
 31
0.0
1001
AUSTER_ANSICHT
1002
{
1000
Det03
1002
}
1001
AUSTER_FOLIE
1002
{
1000
NSB01341_3RS10_24POL
1002
}
  0
ARC
  5
13599
330
1F
100
AcDbEntity
  8
10000_FRONT
  6
Continuous
 62
     7
370
    15
100
AcDbCircle
 39
0.25
 10
47.83878569947399
 20
186.3404073516891
 30
0.0
 40
2.850490999999998
100
AcDbArc
 50
347.7603999999983
 51
12.23960000000163
1001
AUSTER_ANSICHT
1002
{
1000
Det03
1002
}
1001
AUSTER_FOLIE
1002
{
1000
NSB01341_3RS10_24POL
1002
}
  0
LINE
  5
1359A
330
1F
100
AcDbEntity
  8
10000_FRONT
  6
Continuous
 62
     7
370
    15
100
AcDbLine
 39
0.25
 10
52.2530856994739
 20
185.736107351689
 30
0.0
 11
54.52378569947393
 21
185.736107351689
 31
0.0
1001
AUSTER_ANSICHT
1002
{
1000
Det03
1002
}
1001
AUSTER_FOLIE
1002
{
1000
NSB01341_3RS10_24POL
1002
}
  0
LINE
  5
1359B
330
1F
100
AcDbEntity
  8
10000_FRONT
  6
Continuous
 62
     7
370
    15
100
AcDbLine
 39
0.25
 10
55.55378569947413
 20
185.736107351689
 30
0.0
 11
57.82448569947416
 21
185.736107351689
 31
0.0
1001
AUSTER_ANSICHT
1002
{
1000
Det03
1002
}
1001
AUSTER_FOLIE
1002
{
1000
NSB01341_3RS10_24POL
1002
}
  0
LINE
  5
1359C
330
1F
100
AcDbEntity
  8
10000_FRONT
  6
Continuous
 62
     7
370
    15
100
AcDbLine
 39
0.25
 10
57.82448569947416
 20
186.944807351689
 30
0.0
 11
55.55378569947413
 21
186.944807351689
 31
0.0
1001
AUSTER_ANSICHT
1002
{
1000
Det03
1002
}
1001
AUSTER_FOLIE
1002
{
1000
NSB01341_3RS10_24POL
1002
}
  0
LINE
  5
1359D
330
1F
100
AcDbEntity
  8
10000_FRONT
  6
Continuous
 62
     7
370
    15
100
AcDbLine
 39
0.25
 10
54.52378569947393
 20
186.944807351689
 30
0.0
 11
52.2530856994739
 21
186.944807351689
 31
0.0
1001
AUSTER_ANSICHT
1002
{
1000
Det03
1002
}
1001
AUSTER_FOLIE
1002
{
1000
NSB01341_3RS10_24POL
1002
}
  0
LINE
  5
1359E
330
1F
100
AcDbEntity
  8
10000_FRONT
  6
Continuous
 62
     7
370
    15
100
AcDbLine
 39
0.25
 10
54.52378569947393
 20
188.1173073516889
 30
0.0
 11
54.52378569947393
 21
187.1250073516891
 31
0.0
1001
AUSTER_ANSICHT
1002
{
1000
Det03
1002
}
1001
AUSTER_FOLIE
1002
{
1000
NSB01341_3RS10_24POL
1002
}
  0
LINE
  5
1359F
330
1F
100
AcDbEntity
  8
10000_FRONT
  6
Continuous
 62
     7
370
    15
100
AcDbLine
 39
0.25
 10
55.55378569947413
 20
187.1250073516891
 30
0.0
 11
55.55378569947413
 21
188.1173073516889
 31
0.0
1001
AUSTER_ANSICHT
1002
{
1000
Det03
1002
}
1001
AUSTER_FOLIE
1002
{
1000
NSB01341_3RS10_24POL
1002
}
  0
LINE
  5
135A0
330
1F
100
AcDbEntity
  8
10000_FRONT
  6
Continuous
 62
     7
370
    15
100
AcDbLine
 39
0.25
 10
55.55378569947413
 20
184.563607351689
 30
0.0
 11
55.55378569947413
 21
185.5559073516891
 31
0.0
1001
AUSTER_ANSICHT
1002
{
1000
Det03
1002
}
1001
AUSTER_FOLIE
1002
{
1000
NSB01341_3RS10_24POL
1002
}
  0
LINE
  5
135A1
330
1F
100
AcDbEntity
  8
10000_FRONT
  6
Continuous
 62
     7
370
    15
100
AcDbLine
 39
0.25
 10
54.52378569947393
 20
185.5559073516891
 30
0.0
 11
54.52378569947393
 21
184.563607351689
 31
0.0
1001
AUSTER_ANSICHT
1002
{
1000
Det03
1002
}
1001
AUSTER_FOLIE
1002
{
1000
NSB01341_3RS10_24POL
1002
}
  0
LINE
  5
135A2
330
1F
100
AcDbEntity
  8
10000_FRONT
  6
Continuous
 62
     7
370
    15
100
AcDbLine
 39
0.25
 10
55.55378569947413
 20
187.1250073516891
 30
0.0
 11
55.55378569947413
 21
186.944807351689
 31
0.0
1001
AUSTER_ANSICHT
1002
{
1000
Det03
1002
}
1001
AUSTER_FOLIE
1002
{
1000
NSB01341_3RS10_24POL
1002
}
  0
LINE
  5
135A3
330
1F
100
AcDbEntity
  8
10000_FRONT
  6
Continuous
 62
     7
370
    15
100
AcDbLine
 39
0.25
 10
55.55378569947413
 20
185.5559073516891
 30
0.0
 11
55.55378569947413
 21
185.736107351689
 31
0.0
1001
AUSTER_ANSICHT
1002
{
1000
Det03
1002
}
1001
AUSTER_FOLIE
1002
{
1000
NSB01341_3RS10_24POL
1002
}
  0
LINE
  5
135A4
330
1F
100
AcDbEntity
  8
10000_FRONT
  6
Continuous
 62
     7
370
    15
100
AcDbLine
 39
0.25
 10
54.52378569947393
 20
187.1250073516891
 30
0.0
 11
54.52378569947393
 21
186.944807351689
 31
0.0
1001
AUSTER_ANSICHT
1002
{
1000
Det03
1002
}
1001
AUSTER_FOLIE
1002
{
1000
NSB01341_3RS10_24POL
1002
}
  0
LINE
  5
135A5
330
1F
100
AcDbEntity
  8
10000_FRONT
  6
Continuous
 62
     7
370
    15
100
AcDbLine
 39
0.25
 10
54.52378569947393
 20
185.5559073516891
 30
0.0
 11
54.52378569947393
 21
185.736107351689
 31
0.0
1001
AUSTER_ANSICHT
1002
{
1000
Det03
1002
}
1001
AUSTER_FOLIE
1002
{
1000
NSB01341_3RS10_24POL
1002
}
  0
CIRCLE
  5
135A6
330
1F
100
AcDbEntity
  8
10000_FRONT
  6
Continuous
 62
     7
370
    15
100
AcDbCircle
 39
0.25
 10
55.03878569947403
 20
186.3404073516891
 30
0.0
 40
3.1
1001
AUSTER_ANSICHT
1002
{
1000
Det03
1002
}
1001
AUSTER_FOLIE
1002
{
1000
NSB01341_3RS10_24POL
1002
}
  0
ARC
  5
135A7
330
1F
100
AcDbEntity
  8
10000_FRONT
  6
Continuous
 62
     7
370
    15
100
AcDbCircle
 39
0.25
 10
55.03878569947403
 20
186.3404073516891
 30
0.0
 40
1.85
100
AcDbArc
 50
73.83654999999714
 51
106.1633999999999
1001
AUSTER_ANSICHT
1002
{
1000
Det03
1002
}
1001
AUSTER_FOLIE
1002
{
1000
NSB01341_3RS10_24POL
1002
}
  0
ARC
  5
135A8
330
1F
100
AcDbEntity
  8
10000_FRONT
  6
Continuous
 62
     7
370
    15
100
AcDbCircle
 39
0.25
 10
55.03878569947403
 20
186.3404073516891
 30
0.0
 40
1.85
100
AcDbArc
 50
253.8366000000001
 51
286.1633999999999
1001
AUSTER_ANSICHT
1002
{
1000
Det03
1002
}
1001
AUSTER_FOLIE
1002
{
1000
NSB01341_3RS10_24POL
1002
}
  0
ARC
  5
135A9
330
1F
100
AcDbEntity
  8
10000_FRONT
  6
Continuous
 62
     7
370
    15
100
AcDbCircle
 39
0.25
 10
55.03878569947403
 20
186.3404073516891
 30
0.0
 40
2.850490999999998
100
AcDbArc
 50
347.7603999999983
 51
12.23960000000163
1001
AUSTER_ANSICHT
1002
{
1000
Det03
1002
}
1001
AUSTER_FOLIE
1002
{
1000
NSB01341_3RS10_24POL
1002
}
  0
ARC
  5
135AA
330
1F
100
AcDbEntity
  8
10000_FRONT
  6
Continuous
 62
     7
370
    15
100
AcDbCircle
 39
0.25
 10
55.03878569947403
 20
186.3404073516891
 30
0.0
 40
2.850490999999998
100
AcDbArc
 50
167.7603999999984
 51
192.2396000000016
1001
AUSTER_ANSICHT
1002
{
1000
Det03
1002
}
1001
AUSTER_FOLIE
1002
{
1000
NSB01341_3RS10_24POL
1002
}
  0
LINE
  5
135AB
330
1F
100
AcDbEntity
  8
10000_FRONT
  6
Continuous
 62
     7
370
    15
100
AcDbLine
 39
0.25
 10
59.45308569947394
 20
185.736107351689
 30
0.0
 11
61.72378569947397
 21
185.736107351689
 31
0.0
1001
AUSTER_ANSICHT
1002
{
1000
Det03
1002
}
1001
AUSTER_FOLIE
1002
{
1000
NSB01341_3RS10_24POL
1002
}
  0
LINE
  5
135AC
330
1F
100
AcDbEntity
  8
10000_FRONT
  6
Continuous
 62
     7
370
    15
100
AcDbLine
 39
0.25
 10
62.75378569947395
 20
185.736107351689
 30
0.0
 11
65.02448569947398
 21
185.736107351689
 31
0.0
1001
AUSTER_ANSICHT
1002
{
1000
Det03
1002
}
1001
AUSTER_FOLIE
1002
{
1000
NSB01341_3RS10_24POL
1002
}
  0
LINE
  5
135AD
330
1F
100
AcDbEntity
  8
10000_FRONT
  6
Continuous
 62
     7
370
    15
100
AcDbLine
 39
0.25
 10
65.02448569947398
 20
186.944807351689
 30
0.0
 11
62.75378569947395
 21
186.944807351689
 31
0.0
1001
AUSTER_ANSICHT
1002
{
1000
Det03
1002
}
1001
AUSTER_FOLIE
1002
{
1000
NSB01341_3RS10_24POL
1002
}
  0
LINE
  5
135AE
330
1F
100
AcDbEntity
  8
10000_FRONT
  6
Continuous
 62
     7
370
    15
100
AcDbLine
 39
0.25
 10
61.72378569947397
 20
186.944807351689
 30
0.0
 11
59.45308569947394
 21
186.944807351689
 31
0.0
1001
AUSTER_ANSICHT
1002
{
1000
Det03
1002
}
1001
AUSTER_FOLIE
1002
{
1000
NSB01341_3RS10_24POL
1002
}
  0
LINE
  5
135AF
330
1F
100
AcDbEntity
  8
10000_FRONT
  6
Continuous
 62
     7
370
    15
100
AcDbLine
 39
0.25
 10
61.72378569947397
 20
188.1173073516889
 30
0.0
 11
61.72378569947397
 21
187.1250073516891
 31
0.0
1001
AUSTER_ANSICHT
1002
{
1000
Det03
1002
}
1001
AUSTER_FOLIE
1002
{
1000
NSB01341_3RS10_24POL
1002
}
  0
LINE
  5
135B0
330
1F
100
AcDbEntity
  8
10000_FRONT
  6
Continuous
 62
     7
370
    15
100
AcDbLine
 39
0.25
 10
62.75378569947395
 20
187.1250073516891
 30
0.0
 11
62.75378569947395
 21
188.1173073516889
 31
0.0
1001
AUSTER_ANSICHT
1002
{
1000
Det03
1002
}
1001
AUSTER_FOLIE
1002
{
1000
NSB01341_3RS10_24POL
1002
}
  0
LINE
  5
135B1
330
1F
100
AcDbEntity
  8
10000_FRONT
  6
Continuous
 62
     7
370
    15
100
AcDbLine
 39
0.25
 10
62.75378569947395
 20
184.563607351689
 30
0.0
 11
62.75378569947395
 21
185.5559073516891
 31
0.0
1001
AUSTER_ANSICHT
1002
{
1000
Det03
1002
}
1001
AUSTER_FOLIE
1002
{
1000
NSB01341_3RS10_24POL
1002
}
  0
LINE
  5
135B2
330
1F
100
AcDbEntity
  8
10000_FRONT
  6
Continuous
 62
     7
370
    15
100
AcDbLine
 39
0.25
 10
61.72378569947397
 20
185.5559073516891
 30
0.0
 11
61.72378569947397
 21
184.563607351689
 31
0.0
1001
AUSTER_ANSICHT
1002
{
1000
Det03
1002
}
1001
AUSTER_FOLIE
1002
{
1000
NSB01341_3RS10_24POL
1002
}
  0
LINE
  5
135B3
330
1F
100
AcDbEntity
  8
10000_FRONT
  6
Continuous
 62
     7
370
    15
100
AcDbLine
 39
0.25
 10
62.75378569947395
 20
187.1250073516891
 30
0.0
 11
62.75378569947395
 21
186.944807351689
 31
0.0
1001
AUSTER_ANSICHT
1002
{
1000
Det03
1002
}
1001
AUSTER_FOLIE
1002
{
1000
NSB01341_3RS10_24POL
1002
}
  0
LINE
  5
135B4
330
1F
100
AcDbEntity
  8
10000_FRONT
  6
Continuous
 62
     7
370
    15
100
AcDbLine
 39
0.25
 10
62.75378569947395
 20
185.5559073516891
 30
0.0
 11
62.75378569947395
 21
185.736107351689
 31
0.0
1001
AUSTER_ANSICHT
1002
{
1000
Det03
1002
}
1001
AUSTER_FOLIE
1002
{
1000
NSB01341_3RS10_24POL
1002
}
  0
LINE
  5
135B5
330
1F
100
AcDbEntity
  8
10000_FRONT
  6
Continuous
 62
     7
370
    15
100
AcDbLine
 39
0.25
 10
61.72378569947397
 20
187.1250073516891
 30
0.0
 11
61.72378569947397
 21
186.944807351689
 31
0.0
1001
AUSTER_ANSICHT
1002
{
1000
Det03
1002
}
1001
AUSTER_FOLIE
1002
{
1000
NSB01341_3RS10_24POL
1002
}
  0
LINE
  5
135B6
330
1F
100
AcDbEntity
  8
10000_FRONT
  6
Continuous
 62
     7
370
    15
100
AcDbLine
 39
0.25
 10
61.72378569947397
 20
185.5559073516891
 30
0.0
 11
61.72378569947397
 21
185.736107351689
 31
0.0
1001
AUSTER_ANSICHT
1002
{
1000
Det03
1002
}
1001
AUSTER_FOLIE
1002
{
1000
NSB01341_3RS10_24POL
1002
}
  0
CIRCLE
  5
135B7
330
1F
100
AcDbEntity
  8
10000_FRONT
  6
Continuous
 62
     7
370
    15
100
AcDbCircle
 39
0.25
 10
62.23878569947408
 20
186.3404073516891
 30
0.0
 40
3.1
1001
AUSTER_ANSICHT
1002
{
1000
Det03
1002
}
1001
AUSTER_FOLIE
1002
{
1000
NSB01341_3RS10_24POL
1002
}
  0
ARC
  5
135B8
330
1F
100
AcDbEntity
  8
10000_FRONT
  6
Continuous
 62
     7
370
    15
100
AcDbCircle
 39
0.25
 10
62.23878569947408
 20
186.3404073516891
 30
0.0
 40
2.850490999999998
100
AcDbArc
 50
167.7603999999984
 51
192.2396000000016
1001
AUSTER_ANSICHT
1002
{
1000
Det03
1002
}
1001
AUSTER_FOLIE
1002
{
1000
NSB01341_3RS10_24POL
1002
}
  0
ARC
  5
135B9
330
1F
100
AcDbEntity
  8
10000_FRONT
  6
Continuous
 62
     7
370
    15
100
AcDbCircle
 39
0.25
 10
62.23878569947408
 20
186.3404073516891
 30
0.0
 40
1.85
100
AcDbArc
 50
73.83654999999714
 51
106.1633999999999
1001
AUSTER_ANSICHT
1002
{
1000
Det03
1002
}
1001
AUSTER_FOLIE
1002
{
1000
NSB01341_3RS10_24POL
1002
}
  0
ARC
  5
135BA
330
1F
100
AcDbEntity
  8
10000_FRONT
  6
Continuous
 62
     7
370
    15
100
AcDbCircle
 39
0.25
 10
62.23878569947408
 20
186.3404073516891
 30
0.0
 40
1.85
100
AcDbArc
 50
253.8366000000001
 51
286.1633999999999
1001
AUSTER_ANSICHT
1002
{
1000
Det03
1002
}
1001
AUSTER_FOLIE
1002
{
1000
NSB01341_3RS10_24POL
1002
}
  0
ARC
  5
135BB
330
1F
100
AcDbEntity
  8
10000_FRONT
  6
Continuous
 62
     7
370
    15
100
AcDbCircle
 39
0.25
 10
62.23878569947408
 20
186.3404073516891
 30
0.0
 40
2.850490999999998
100
AcDbArc
 50
347.7603999999983
 51
12.23960000000163
1001
AUSTER_ANSICHT
1002
{
1000
Det03
1002
}
1001
AUSTER_FOLIE
1002
{
1000
NSB01341_3RS10_24POL
1002
}
  0
ARC
  5
135BC
330
1F
100
AcDbEntity
  8
10000_FRONT
  6
Continuous
 62
     7
370
    15
100
AcDbCircle
 39
0.25
 10
62.23878569947385
 20
118.1404073516892
 30
0.0
 40
1.85
100
AcDbArc
 50
73.83654999999714
 51
106.1633999999999
1001
AUSTER_ANSICHT
1002
{
1000
Det03
1002
}
1001
AUSTER_FOLIE
1002
{
1000
NSB01341_3RS10_24POL
1002
}
  0
LINE
  5
135BD
330
1F
100
AcDbEntity
  8
10000_FRONT
  6
Continuous
 62
     7
370
    15
100
AcDbLine
 39
0.25
 10
61.72378569947375
 20
118.9250073516891
 30
0.0
 11
61.72378569947375
 21
118.744807351689
 31
0.0
1001
AUSTER_ANSICHT
1002
{
1000
Det03
1002
}
1001
AUSTER_FOLIE
1002
{
1000
NSB01341_3RS10_24POL
1002
}
  0
LINE
  5
135BE
330
1F
100
AcDbEntity
  8
10000_FRONT
  6
Continuous
 62
     7
370
    15
100
AcDbLine
 39
0.25
 10
62.75378569947372
 20
118.9250073516891
 30
0.0
 11
62.75378569947372
 21
118.744807351689
 31
0.0
1001
AUSTER_ANSICHT
1002
{
1000
Det03
1002
}
1001
AUSTER_FOLIE
1002
{
1000
NSB01341_3RS10_24POL
1002
}
  0
LINE
  5
135BF
330
1F
100
AcDbEntity
  8
10000_FRONT
  6
Continuous
 62
     7
370
    15
100
AcDbLine
 39
0.25
 10
62.75378569947372
 20
118.9250073516891
 30
0.0
 11
62.75378569947372
 21
119.917307351689
 31
0.0
1001
AUSTER_ANSICHT
1002
{
1000
Det03
1002
}
1001
AUSTER_FOLIE
1002
{
1000
NSB01341_3RS10_24POL
1002
}
  0
LINE
  5
135C0
330
1F
100
AcDbEntity
  8
10000_FRONT
  6
Continuous
 62
     7
370
    15
100
AcDbLine
 39
0.25
 10
61.72378569947375
 20
119.917307351689
 30
0.0
 11
61.72378569947375
 21
118.9250073516891
 31
0.0
1001
AUSTER_ANSICHT
1002
{
1000
Det03
1002
}
1001
AUSTER_FOLIE
1002
{
1000
NSB01341_3RS10_24POL
1002
}
  0
LINE
  5
135C1
330
1F
100
AcDbEntity
  8
10000_FRONT
  6
Continuous
 62
     7
370
    15
100
AcDbLine
 39
0.25
 10
61.72378569947375
 20
118.744807351689
 30
0.0
 11
59.45308569947371
 21
118.744807351689
 31
0.0
1001
AUSTER_ANSICHT
1002
{
1000
Det03
1002
}
1001
AUSTER_FOLIE
1002
{
1000
NSB01341_3RS10_24POL
1002
}
  0
LINE
  5
135C2
330
1F
100
AcDbEntity
  8
10000_FRONT
  6
Continuous
 62
     7
370
    15
100
AcDbLine
 39
0.25
 10
65.02448569947375
 20
118.744807351689
 30
0.0
 11
62.75378569947372
 21
118.744807351689
 31
0.0
1001
AUSTER_ANSICHT
1002
{
1000
Det03
1002
}
1001
AUSTER_FOLIE
1002
{
1000
NSB01341_3RS10_24POL
1002
}
  0
ARC
  5
135C3
330
1F
100
AcDbEntity
  8
10000_FRONT
  6
Continuous
 62
     7
370
    15
100
AcDbCircle
 39
0.25
 10
55.03878569947381
 20
118.1404073516892
 30
0.0
 40
1.85
100
AcDbArc
 50
73.83654999999714
 51
106.1633999999999
1001
AUSTER_ANSICHT
1002
{
1000
Det03
1002
}
1001
AUSTER_FOLIE
1002
{
1000
NSB01341_3RS10_24POL
1002
}
  0
LINE
  5
135C4
330
1F
100
AcDbEntity
  8
10000_FRONT
  6
Continuous
 62
     7
370
    15
100
AcDbLine
 39
0.25
 10
54.5237856994737
 20
118.9250073516891
 30
0.0
 11
54.5237856994737
 21
118.744807351689
 31
0.0
1001
AUSTER_ANSICHT
1002
{
1000
Det03
1002
}
1001
AUSTER_FOLIE
1002
{
1000
NSB01341_3RS10_24POL
1002
}
  0
LINE
  5
135C5
330
1F
100
AcDbEntity
  8
10000_FRONT
  6
Continuous
 62
     7
370
    15
100
AcDbLine
 39
0.25
 10
55.5537856994739
 20
118.9250073516891
 30
0.0
 11
55.5537856994739
 21
118.744807351689
 31
0.0
1001
AUSTER_ANSICHT
1002
{
1000
Det03
1002
}
1001
AUSTER_FOLIE
1002
{
1000
NSB01341_3RS10_24POL
1002
}
  0
LINE
  5
135C6
330
1F
100
AcDbEntity
  8
10000_FRONT
  6
Continuous
 62
     7
370
    15
100
AcDbLine
 39
0.25
 10
55.5537856994739
 20
118.9250073516891
 30
0.0
 11
55.5537856994739
 21
119.917307351689
 31
0.0
1001
AUSTER_ANSICHT
1002
{
1000
Det03
1002
}
1001
AUSTER_FOLIE
1002
{
1000
NSB01341_3RS10_24POL
1002
}
  0
LINE
  5
135C7
330
1F
100
AcDbEntity
  8
10000_FRONT
  6
Continuous
 62
     7
370
    15
100
AcDbLine
 39
0.25
 10
54.5237856994737
 20
119.917307351689
 30
0.0
 11
54.5237856994737
 21
118.9250073516891
 31
0.0
1001
AUSTER_ANSICHT
1002
{
1000
Det03
1002
}
1001
AUSTER_FOLIE
1002
{
1000
NSB01341_3RS10_24POL
1002
}
  0
LINE
  5
135C8
330
1F
100
AcDbEntity
  8
10000_FRONT
  6
Continuous
 62
     7
370
    15
100
AcDbLine
 39
0.25
 10
54.5237856994737
 20
118.744807351689
 30
0.0
 11
52.25308569947367
 21
118.744807351689
 31
0.0
1001
AUSTER_ANSICHT
1002
{
1000
Det03
1002
}
1001
AUSTER_FOLIE
1002
{
1000
NSB01341_3RS10_24POL
1002
}
  0
LINE
  5
135C9
330
1F
100
AcDbEntity
  8
10000_FRONT
  6
Continuous
 62
     7
370
    15
100
AcDbLine
 39
0.25
 10
57.82448569947394
 20
118.744807351689
 30
0.0
 11
55.5537856994739
 21
118.744807351689
 31
0.0
1001
AUSTER_ANSICHT
1002
{
1000
Det03
1002
}
1001
AUSTER_FOLIE
1002
{
1000
NSB01341_3RS10_24POL
1002
}
  0
LINE
  5
135CA
330
1F
100
AcDbEntity
  8
10000_FRONT
  6
Continuous
 62
     7
370
    15
100
AcDbLine
 39
0.25
 10
48.35378569947363
 20
118.9250073516891
 30
0.0
 11
48.35378569947363
 21
118.744807351689
 31
0.0
1001
AUSTER_ANSICHT
1002
{
1000
Det03
1002
}
1001
AUSTER_FOLIE
1002
{
1000
NSB01341_3RS10_24POL
1002
}
  0
LINE
  5
135CB
330
1F
100
AcDbEntity
  8
10000_FRONT
  6
Continuous
 62
     7
370
    15
100
AcDbLine
 39
0.25
 10
48.35378569947363
 20
118.9250073516891
 30
0.0
 11
48.35378569947363
 21
119.917307351689
 31
0.0
1001
AUSTER_ANSICHT
1002
{
1000
Det03
1002
}
1001
AUSTER_FOLIE
1002
{
1000
NSB01341_3RS10_24POL
1002
}
  0
LINE
  5
135CC
330
1F
100
AcDbEntity
  8
10000_FRONT
  6
Continuous
 62
     7
370
    15
100
AcDbLine
 39
0.25
 10
50.62448569947367
 20
118.744807351689
 30
0.0
 11
48.35378569947363
 21
118.744807351689
 31
0.0
1001
AUSTER_ANSICHT
1002
{
1000
Det03
1002
}
1001
AUSTER_FOLIE
1002
{
1000
NSB01341_3RS10_24POL
1002
}
  0
LINE
  5
135CD
330
1F
100
AcDbEntity
  8
10000_FRONT
  6
Continuous
 62
     7
370
    15
100
AcDbLine
 39
0.25
 10
45.05308569947408
 20
185.736107351689
 30
0.0
 11
47.32378569947411
 21
185.736107351689
 31
0.0
1001
AUSTER_ANSICHT
1002
{
1000
Det03
1002
}
1001
AUSTER_FOLIE
1002
{
1000
NSB01341_3RS10_24POL
1002
}
  0
LINE
  5
135CE
330
1F
100
AcDbEntity
  8
10000_FRONT
  6
Continuous
 62
     7
370
    15
100
AcDbLine
 39
0.25
 10
47.32378569947411
 20
186.944807351689
 30
0.0
 11
45.05308569947408
 21
186.944807351689
 31
0.0
1001
AUSTER_ANSICHT
1002
{
1000
Det03
1002
}
1001
AUSTER_FOLIE
1002
{
1000
NSB01341_3RS10_24POL
1002
}
  0
LINE
  5
135CF
330
1F
100
AcDbEntity
  8
10000_FRONT
  6
Continuous
 62
     7
370
    15
100
AcDbLine
 39
0.25
 10
47.32378569947411
 20
188.1173073516889
 30
0.0
 11
47.32378569947411
 21
187.1250073516891
 31
0.0
1001
AUSTER_ANSICHT
1002
{
1000
Det03
1002
}
1001
AUSTER_FOLIE
1002
{
1000
NSB01341_3RS10_24POL
1002
}
  0
LINE
  5
135D0
330
1F
100
AcDbEntity
  8
10000_FRONT
  6
Continuous
 62
     7
370
    15
100
AcDbLine
 39
0.25
 10
47.32378569947411
 20
185.5559073516891
 30
0.0
 11
47.32378569947411
 21
184.563607351689
 31
0.0
1001
AUSTER_ANSICHT
1002
{
1000
Det03
1002
}
1001
AUSTER_FOLIE
1002
{
1000
NSB01341_3RS10_24POL
1002
}
  0
LINE
  5
135D1
330
1F
100
AcDbEntity
  8
10000_FRONT
  6
Continuous
 62
     7
370
    15
100
AcDbLine
 39
0.25
 10
47.32378569947411
 20
187.1250073516891
 30
0.0
 11
47.32378569947411
 21
186.944807351689
 31
0.0
1001
AUSTER_ANSICHT
1002
{
1000
Det03
1002
}
1001
AUSTER_FOLIE
1002
{
1000
NSB01341_3RS10_24POL
1002
}
  0
LINE
  5
135D2
330
1F
100
AcDbEntity
  8
10000_FRONT
  6
Continuous
 62
     7
370
    15
100
AcDbLine
 39
0.25
 10
47.32378569947411
 20
185.5559073516891
 30
0.0
 11
47.32378569947411
 21
185.736107351689
 31
0.0
1001
AUSTER_ANSICHT
1002
{
1000
Det03
1002
}
1001
AUSTER_FOLIE
1002
{
1000
NSB01341_3RS10_24POL
1002
}
  0
ARC
  5
135D3
330
1F
100
AcDbEntity
  8
10000_FRONT
  6
Continuous
 62
     7
370
    15
100
AcDbCircle
 39
0.25
 10
47.83878569947399
 20
186.3404073516891
 30
0.0
 40
2.850490999999998
100
AcDbArc
 50
167.7603999999984
 51
192.2396000000016
1001
AUSTER_ANSICHT
1002
{
1000
Det03
1002
}
1001
AUSTER_FOLIE
1002
{
1000
NSB01341_3RS10_24POL
1002
}
  0
LINE
  5
135D4
330
1F
100
AcDbEntity
  8
10000_FRONT
  6
Continuous
 62
     7
370
    15
100
AcDbLine
 39
0.25
 10
47.32378569947388
 20
118.9250073516891
 30
0.0
 11
47.32378569947388
 21
118.744807351689
 31
0.0
1001
AUSTER_ANSICHT
1002
{
1000
Det03
1002
}
1001
AUSTER_FOLIE
1002
{
1000
NSB01341_3RS10_24POL
1002
}
  0
LINE
  5
135D5
330
1F
100
AcDbEntity
  8
10000_FRONT
  6
Continuous
 62
     7
370
    15
100
AcDbLine
 39
0.25
 10
47.32378569947388
 20
119.917307351689
 30
0.0
 11
47.32378569947388
 21
118.9250073516891
 31
0.0
1001
AUSTER_ANSICHT
1002
{
1000
Det03
1002
}
1001
AUSTER_FOLIE
1002
{
1000
NSB01341_3RS10_24POL
1002
}
  0
LINE
  5
135D6
330
1F
100
AcDbEntity
  8
10000_FRONT
  6
Continuous
 62
     7
370
    15
100
AcDbLine
 39
0.25
 10
47.32378569947388
 20
118.744807351689
 30
0.0
 11
45.05308569947385
 21
118.744807351689
 31
0.0
1001
AUSTER_ANSICHT
1002
{
1000
Det03
1002
}
1001
AUSTER_FOLIE
1002
{
1000
NSB01341_3RS10_24POL
1002
}
  0
CIRCLE
  5
135D7
330
1F
100
AcDbEntity
  8
10000_FRONT
  6
Continuous
 62
     7
370
    15
100
AcDbCircle
 39
0.25
 10
47.83878569947399
 20
186.3404073516891
 30
0.0
 40
3.1
1001
AUSTER_ANSICHT
1002
{
1000
Det03
1002
}
1001
AUSTER_FOLIE
1002
{
1000
NSB01341_3RS10_24POL
1002
}
  0
ARC
  5
135D8
330
1F
100
AcDbEntity
  8
10000_FRONT
  6
Continuous
 62
     7
370
    15
100
AcDbCircle
 39
0.25
 10
47.83878569947399
 20
186.3404073516891
 30
0.0
 40
1.85
100
AcDbArc
 50
73.83654999999714
 51
106.1633999999999
1001
AUSTER_ANSICHT
1002
{
1000
Det03
1002
}
1001
AUSTER_FOLIE
1002
{
1000
NSB01341_3RS10_24POL
1002
}
  0
ARC
  5
135D9
330
1F
100
AcDbEntity
  8
10000_FRONT
  6
Continuous
 62
     7
370
    15
100
AcDbCircle
 39
0.25
 10
47.83878569947399
 20
186.3404073516891
 30
0.0
 40
1.85
100
AcDbArc
 50
253.8366000000001
 51
286.1633999999999
1001
AUSTER_ANSICHT
1002
{
1000
Det03
1002
}
1001
AUSTER_FOLIE
1002
{
1000
NSB01341_3RS10_24POL
1002
}
  0
ARC
  5
135DA
330
1F
100
AcDbEntity
  8
10000_FRONT
  6
Continuous
 62
     7
370
    15
100
AcDbCircle
 39
0.25
 10
47.83878569947376
 20
118.1404073516892
 30
0.0
 40
1.85
100
AcDbArc
 50
73.83654999999714
 51
106.1633999999999
1001
AUSTER_ANSICHT
1002
{
1000
Det03
1002
}
1001
AUSTER_FOLIE
1002
{
1000
NSB01341_3RS10_24POL
1002
}
  0
ARC
  5
135DB
330
1F
100
AcDbEntity
  8
10000_FRONT
  6
Continuous
 62
     7
370
    50
100
AcDbCircle
 10
66.08878569947376
 20
111.1404073516891
 30
0.0
 40
0.2
100
AcDbArc
 50
270.0
 51
0.0
  0
LINE
  5
135DC
330
1F
100
AcDbEntity
  8
10000_FRONT
  6
Continuous
 62
     7
370
    50
100
AcDbLine
 10
66.08878569947376
 20
110.940407351689
 30
0.0
 11
66.08878569947376
 21
110.940407351689
 31
0.0
  0
ARC
  5
135DD
330
1F
100
AcDbEntity
  8
10000_FRONT
  6
Continuous
 62
     7
370
    50
100
AcDbCircle
 10
66.08878569947376
 20
111.1404073516891
 30
0.0
 40
0.2
100
AcDbArc
 50
270.0
 51
0.0
  0
LINE
  5
135DE
330
1F
100
AcDbEntity
  8
10000_FRONT
  6
Continuous
 62
     7
370
    50
100
AcDbLine
 10
66.08878569947376
 20
110.940407351689
 30
0.0
 11
66.08878569947376
 21
110.940407351689
 31
0.0
  0
LINE
  5
135DF
330
1F
100
AcDbEntity
  8
10000_FRONT
  6
Continuous
 62
     7
370
    50
100
AcDbLine
 10
60.03878569947381
 20
111.4404073516891
 30
0.0
 11
64.4387856994739
 21
111.4404073516891
 31
0.0
  0
LINE
  5
135E0
330
1F
100
AcDbEntity
  8
10000_FRONT
  6
Continuous
 62
     7
370
    50
100
AcDbLine
 10
60.03878569947381
 20
111.4404073516891
 30
0.0
 11
64.4387856994739
 21
111.4404073516891
 31
0.0
  0
LINE
  5
135E1
330
1F
100
AcDbEntity
  8
10000_FRONT
  6
Continuous
 62
     7
370
    50
100
AcDbLine
 10
57.23878569947385
 20
110.940407351689
 30
0.0
 11
60.03878569947381
 21
110.940407351689
 31
0.0
  0
LINE
  5
135E2
330
1F
100
AcDbEntity
  8
10000_FRONT
  6
Continuous
 62
     7
370
    50
100
AcDbLine
 10
60.03878569947381
 20
110.940407351689
 30
0.0
 11
60.03878569947381
 21
111.4404073516891
 31
0.0
  0
LINE
  5
135E3
330
1F
100
AcDbEntity
  8
10000_FRONT
  6
Continuous
 62
     7
370
    50
100
AcDbLine
 10
57.23878569947385
 20
111.4404073516891
 30
0.0
 11
57.23878569947385
 21
110.940407351689
 31
0.0
  0
LINE
  5
135E4
330
1F
100
AcDbEntity
  8
10000_FRONT
  6
Continuous
 62
     7
370
    50
100
AcDbLine
 10
52.83878569947376
 20
110.940407351689
 30
0.0
 11
52.83878569947376
 21
111.4404073516891
 31
0.0
  0
LINE
  5
135E5
330
1F
100
AcDbEntity
  8
10000_FRONT
  6
Continuous
 62
     7
370
    50
100
AcDbLine
 10
52.83878569947376
 20
111.4404073516891
 30
0.0
 11
57.23878569947385
 21
111.4404073516891
 31
0.0
  0
LINE
  5
135E6
330
1F
100
AcDbEntity
  8
10000_FRONT
  6
Continuous
 62
     7
370
    50
100
AcDbLine
 10
64.4387856994739
 20
111.4404073516891
 30
0.0
 11
64.4387856994739
 21
110.940407351689
 31
0.0
  0
LINE
  5
135E7
330
1F
100
AcDbEntity
  8
10000_FRONT
  6
Continuous
 62
     7
370
    50
100
AcDbLine
 10
64.4387856994739
 20
110.940407351689
 30
0.0
 11
64.4387856994739
 21
110.940407351689
 31
0.0
  0
LINE
  5
135E8
330
1F
100
AcDbEntity
  8
10000_FRONT
  6
Continuous
 62
     7
370
    50
100
AcDbLine
 10
64.4387856994739
 20
110.940407351689
 30
0.0
 11
64.4387856994739
 21
110.940407351689
 31
0.0
  0
LINE
  5
135E9
330
1F
100
AcDbEntity
  8
10000_FRONT
  6
Continuous
 62
     7
370
    50
100
AcDbLine
 10
43.98878569947385
 20
110.940407351689
 30
0.0
 11
44.58878569947375
 21
110.940407351689
 31
0.0
  0
ARC
  5
135EA
330
1F
100
AcDbEntity
  8
10000_FRONT
  6
Continuous
 62
     7
370
    50
100
AcDbCircle
 10
43.98878569947385
 20
111.1404073516891
 30
0.0
 40
0.2
100
AcDbArc
 50
180.0
 51
270.0004400000052
  0
LINE
  5
135EB
330
1F
100
AcDbEntity
  8
10000_FRONT
  6
Continuous
 62
     7
370
    50
100
AcDbLine
 10
43.98878569947385
 20
110.940407351689
 30
0.0
 11
45.63878569947371
 21
110.940407351689
 31
0.0
  0
LINE
  5
135EC
330
1F
100
AcDbEntity
  8
10000_FRONT
  6
Continuous
 62
     7
370
    50
100
AcDbLine
 10
50.03878569947381
 20
111.4404073516891
 30
0.0
 11
50.03878569947381
 21
110.940407351689
 31
0.0
  0
LINE
  5
135ED
330
1F
100
AcDbEntity
  8
10000_FRONT
  6
Continuous
 62
     7
370
    50
100
AcDbLine
 10
45.63878569947371
 20
110.940407351689
 30
0.0
 11
45.63878569947371
 21
111.4404073516891
 31
0.0
  0
LINE
  5
135EE
330
1F
100
AcDbEntity
  8
10000_FRONT
  6
Continuous
 62
     7
370
    50
100
AcDbLine
 10
45.63878569947371
 20
111.4404073516891
 30
0.0
 11
50.03878569947381
 21
111.4404073516891
 31
0.0
  0
LINE
  5
135EF
330
1F
100
AcDbEntity
  8
10000_FRONT
  6
Continuous
 62
     7
370
    50
100
AcDbLine
 10
50.03878569947381
 20
110.940407351689
 30
0.0
 11
52.83878569947376
 21
110.940407351689
 31
0.0
  0
LINE
  5
135F0
330
1F
100
AcDbEntity
  8
10000_FRONT
  6
Continuous
 62
     7
370
    50
100
AcDbLine
 10
50.03878569947381
 20
110.940407351689
 30
0.0
 11
52.83878569947376
 21
110.940407351689
 31
0.0
  0
LINE
  5
135F1
330
1F
100
AcDbEntity
  8
10000_FRONT
  6
Continuous
 62
     7
370
    50
100
AcDbLine
 10
64.4387856994739
 20
110.940407351689
 30
0.0
 11
66.08878569947376
 21
110.940407351689
 31
0.0
  0
ARC
  5
135F2
330
1F
100
AcDbEntity
  8
10000_FRONT
  6
Continuous
 62
     7
370
    15
100
AcDbCircle
 39
0.25
 10
62.23878569947385
 20
118.1404073516892
 30
0.0
 40
1.85
100
AcDbArc
 50
253.8366000000001
 51
286.1633999999999
1001
AUSTER_ANSICHT
1002
{
1000
Det03
1002
}
1001
AUSTER_FOLIE
1002
{
1000
NSB01341_3RS10_24POL
1002
}
  0
LINE
  5
135F3
330
1F
100
AcDbEntity
  8
10000_FRONT
  6
Continuous
 62
     7
370
    15
100
AcDbLine
 39
0.25
 10
61.72378569947375
 20
117.3559073516891
 30
0.0
 11
61.72378569947375
 21
117.5361073516891
 31
0.0
1001
AUSTER_ANSICHT
1002
{
1000
Det03
1002
}
1001
AUSTER_FOLIE
1002
{
1000
NSB01341_3RS10_24POL
1002
}
  0
LINE
  5
135F4
330
1F
100
AcDbEntity
  8
10000_FRONT
  6
Continuous
 62
     7
370
    15
100
AcDbLine
 39
0.25
 10
62.75378569947372
 20
117.3559073516891
 30
0.0
 11
62.75378569947372
 21
117.5361073516891
 31
0.0
1001
AUSTER_ANSICHT
1002
{
1000
Det03
1002
}
1001
AUSTER_FOLIE
1002
{
1000
NSB01341_3RS10_24POL
1002
}
  0
LINE
  5
135F5
330
1F
100
AcDbEntity
  8
10000_FRONT
  6
Continuous
 62
     7
370
    15
100
AcDbLine
 39
0.25
 10
61.72378569947375
 20
117.3559073516891
 30
0.0
 11
61.72378569947375
 21
116.3636073516892
 31
0.0
1001
AUSTER_ANSICHT
1002
{
1000
Det03
1002
}
1001
AUSTER_FOLIE
1002
{
1000
NSB01341_3RS10_24POL
1002
}
  0
LINE
  5
135F6
330
1F
100
AcDbEntity
  8
10000_FRONT
  6
Continuous
 62
     7
370
    15
100
AcDbLine
 39
0.25
 10
62.75378569947372
 20
116.3636073516892
 30
0.0
 11
62.75378569947372
 21
117.3559073516891
 31
0.0
1001
AUSTER_ANSICHT
1002
{
1000
Det03
1002
}
1001
AUSTER_FOLIE
1002
{
1000
NSB01341_3RS10_24POL
1002
}
  0
LINE
  5
135F7
330
1F
100
AcDbEntity
  8
10000_FRONT
  6
Continuous
 62
     7
370
    15
100
AcDbLine
 39
0.25
 10
62.75378569947372
 20
117.5361073516891
 30
0.0
 11
65.02448569947375
 21
117.5361073516891
 31
0.0
1001
AUSTER_ANSICHT
1002
{
1000
Det03
1002
}
1001
AUSTER_FOLIE
1002
{
1000
NSB01341_3RS10_24POL
1002
}
  0
LINE
  5
135F8
330
1F
100
AcDbEntity
  8
10000_FRONT
  6
Continuous
 62
     7
370
    15
100
AcDbLine
 39
0.25
 10
59.45308569947371
 20
117.5361073516891
 30
0.0
 11
61.72378569947375
 21
117.5361073516891
 31
0.0
1001
AUSTER_ANSICHT
1002
{
1000
Det03
1002
}
1001
AUSTER_FOLIE
1002
{
1000
NSB01341_3RS10_24POL
1002
}
  0
ARC
  5
135F9
330
1F
100
AcDbEntity
  8
10000_FRONT
  6
Continuous
 62
     7
370
    15
100
AcDbCircle
 39
0.25
 10
55.03878569947381
 20
118.1404073516892
 30
0.0
 40
1.85
100
AcDbArc
 50
253.8366000000001
 51
286.1633999999999
1001
AUSTER_ANSICHT
1002
{
1000
Det03
1002
}
1001
AUSTER_FOLIE
1002
{
1000
NSB01341_3RS10_24POL
1002
}
  0
LINE
  5
135FA
330
1F
100
AcDbEntity
  8
10000_FRONT
  6
Continuous
 62
     7
370
    15
100
AcDbLine
 39
0.25
 10
54.5237856994737
 20
117.3559073516891
 30
0.0
 11
54.5237856994737
 21
117.5361073516891
 31
0.0
1001
AUSTER_ANSICHT
1002
{
1000
Det03
1002
}
1001
AUSTER_FOLIE
1002
{
1000
NSB01341_3RS10_24POL
1002
}
  0
LINE
  5
135FB
330
1F
100
AcDbEntity
  8
10000_FRONT
  6
Continuous
 62
     7
370
    15
100
AcDbLine
 39
0.25
 10
55.5537856994739
 20
117.3559073516891
 30
0.0
 11
55.5537856994739
 21
117.5361073516891
 31
0.0
1001
AUSTER_ANSICHT
1002
{
1000
Det03
1002
}
1001
AUSTER_FOLIE
1002
{
1000
NSB01341_3RS10_24POL
1002
}
  0
LINE
  5
135FC
330
1F
100
AcDbEntity
  8
10000_FRONT
  6
Continuous
 62
     7
370
    15
100
AcDbLine
 39
0.25
 10
54.5237856994737
 20
117.3559073516891
 30
0.0
 11
54.5237856994737
 21
116.3636073516892
 31
0.0
1001
AUSTER_ANSICHT
1002
{
1000
Det03
1002
}
1001
AUSTER_FOLIE
1002
{
1000
NSB01341_3RS10_24POL
1002
}
  0
LINE
  5
135FD
330
1F
100
AcDbEntity
  8
10000_FRONT
  6
Continuous
 62
     7
370
    15
100
AcDbLine
 39
0.25
 10
55.5537856994739
 20
116.3636073516892
 30
0.0
 11
55.5537856994739
 21
117.3559073516891
 31
0.0
1001
AUSTER_ANSICHT
1002
{
1000
Det03
1002
}
1001
AUSTER_FOLIE
1002
{
1000
NSB01341_3RS10_24POL
1002
}
  0
LINE
  5
135FE
330
1F
100
AcDbEntity
  8
10000_FRONT
  6
Continuous
 62
     7
370
    15
100
AcDbLine
 39
0.25
 10
55.5537856994739
 20
117.5361073516891
 30
0.0
 11
57.82448569947394
 21
117.5361073516891
 31
0.0
1001
AUSTER_ANSICHT
1002
{
1000
Det03
1002
}
1001
AUSTER_FOLIE
1002
{
1000
NSB01341_3RS10_24POL
1002
}
  0
LINE
  5
135FF
330
1F
100
AcDbEntity
  8
10000_FRONT
  6
Continuous
 62
     7
370
    15
100
AcDbLine
 39
0.25
 10
52.25308569947367
 20
117.5361073516891
 30
0.0
 11
54.5237856994737
 21
117.5361073516891
 31
0.0
1001
AUSTER_ANSICHT
1002
{
1000
Det03
1002
}
1001
AUSTER_FOLIE
1002
{
1000
NSB01341_3RS10_24POL
1002
}
  0
LINE
  5
13600
330
1F
100
AcDbEntity
  8
10000_FRONT
  6
Continuous
 62
     7
370
    15
100
AcDbLine
 39
0.25
 10
48.35378569947363
 20
117.3559073516891
 30
0.0
 11
48.35378569947363
 21
117.5361073516891
 31
0.0
1001
AUSTER_ANSICHT
1002
{
1000
Det03
1002
}
1001
AUSTER_FOLIE
1002
{
1000
NSB01341_3RS10_24POL
1002
}
  0
LINE
  5
13601
330
1F
100
AcDbEntity
  8
10000_FRONT
  6
Continuous
 62
     7
370
    15
100
AcDbLine
 39
0.25
 10
48.35378569947363
 20
116.3636073516892
 30
0.0
 11
48.35378569947363
 21
117.3559073516891
 31
0.0
1001
AUSTER_ANSICHT
1002
{
1000
Det03
1002
}
1001
AUSTER_FOLIE
1002
{
1000
NSB01341_3RS10_24POL
1002
}
  0
LINE
  5
13602
330
1F
100
AcDbEntity
  8
10000_FRONT
  6
Continuous
 62
     7
370
    15
100
AcDbLine
 39
0.25
 10
48.35378569947363
 20
117.5361073516891
 30
0.0
 11
50.62448569947367
 21
117.5361073516891
 31
0.0
1001
AUSTER_ANSICHT
1002
{
1000
Det03
1002
}
1001
AUSTER_FOLIE
1002
{
1000
NSB01341_3RS10_24POL
1002
}
  0
LINE
  5
13603
330
1F
100
AcDbEntity
  8
10000_FRONT
  6
Continuous
 62
     7
370
    15
100
AcDbLine
 39
0.25
 10
47.32378569947388
 20
117.3559073516891
 30
0.0
 11
47.32378569947388
 21
117.5361073516891
 31
0.0
1001
AUSTER_ANSICHT
1002
{
1000
Det03
1002
}
1001
AUSTER_FOLIE
1002
{
1000
NSB01341_3RS10_24POL
1002
}
  0
LINE
  5
13604
330
1F
100
AcDbEntity
  8
10000_FRONT
  6
Continuous
 62
     7
370
    15
100
AcDbLine
 39
0.25
 10
47.32378569947388
 20
117.3559073516891
 30
0.0
 11
47.32378569947388
 21
116.3636073516892
 31
0.0
1001
AUSTER_ANSICHT
1002
{
1000
Det03
1002
}
1001
AUSTER_FOLIE
1002
{
1000
NSB01341_3RS10_24POL
1002
}
  0
LINE
  5
13605
330
1F
100
AcDbEntity
  8
10000_FRONT
  6
Continuous
 62
     7
370
    15
100
AcDbLine
 39
0.25
 10
45.05308569947385
 20
117.5361073516891
 30
0.0
 11
47.32378569947388
 21
117.5361073516891
 31
0.0
1001
AUSTER_ANSICHT
1002
{
1000
Det03
1002
}
1001
AUSTER_FOLIE
1002
{
1000
NSB01341_3RS10_24POL
1002
}
  0
ARC
  5
13606
330
1F
100
AcDbEntity
  8
10000_FRONT
  6
Continuous
 62
     7
370
    15
100
AcDbCircle
 39
0.25
 10
47.83878569947376
 20
118.1404073516892
 30
0.0
 40
1.85
100
AcDbArc
 50
253.8366000000001
 51
286.1633999999999
1001
AUSTER_ANSICHT
1002
{
1000
Det03
1002
}
1001
AUSTER_FOLIE
1002
{
1000
NSB01341_3RS10_24POL
1002
}
  0
CIRCLE
  5
13607
330
1F
100
AcDbEntity
  8
10000_FRONT
  6
Continuous
 62
     7
370
    15
100
AcDbCircle
 39
0.25
 10
62.23878569947385
 20
118.1404073516892
 30
0.0
 40
3.1
1001
AUSTER_ANSICHT
1002
{
1000
Det03
1002
}
1001
AUSTER_FOLIE
1002
{
1000
NSB01341_3RS10_24POL
1002
}
  0
ARC
  5
13608
330
1F
100
AcDbEntity
  8
10000_FRONT
  6
Continuous
 62
     7
370
    15
100
AcDbCircle
 39
0.25
 10
62.23878569947385
 20
118.1404073516892
 30
0.0
 40
2.850490999999998
100
AcDbArc
 50
347.7603999999983
 51
12.23960000000163
1001
AUSTER_ANSICHT
1002
{
1000
Det03
1002
}
1001
AUSTER_FOLIE
1002
{
1000
NSB01341_3RS10_24POL
1002
}
  0
ARC
  5
13609
330
1F
100
AcDbEntity
  8
10000_FRONT
  6
Continuous
 62
     7
370
    15
100
AcDbCircle
 39
0.25
 10
62.23878569947385
 20
118.1404073516892
 30
0.0
 40
2.850490999999998
100
AcDbArc
 50
167.7603999999984
 51
192.2396000000016
1001
AUSTER_ANSICHT
1002
{
1000
Det03
1002
}
1001
AUSTER_FOLIE
1002
{
1000
NSB01341_3RS10_24POL
1002
}
  0
CIRCLE
  5
1360A
330
1F
100
AcDbEntity
  8
10000_FRONT
  6
Continuous
 62
     7
370
    15
100
AcDbCircle
 39
0.25
 10
62.23878569947385
 20
118.1404073516892
 30
0.0
 40
3.1
1001
AUSTER_ANSICHT
1002
{
1000
Det03
1002
}
1001
AUSTER_FOLIE
1002
{
1000
NSB01341_3RS10_24POL
1002
}
  0
ARC
  5
1360B
330
1F
100
AcDbEntity
  8
10000_FRONT
  6
Continuous
 62
     7
370
    15
100
AcDbCircle
 39
0.25
 10
55.03878569947381
 20
118.1404073516892
 30
0.0
 40
2.850490999999998
100
AcDbArc
 50
167.7603999999984
 51
192.2396000000016
1001
AUSTER_ANSICHT
1002
{
1000
Det03
1002
}
1001
AUSTER_FOLIE
1002
{
1000
NSB01341_3RS10_24POL
1002
}
  0
ARC
  5
1360C
330
1F
100
AcDbEntity
  8
10000_FRONT
  6
Continuous
 62
     7
370
    15
100
AcDbCircle
 39
0.25
 10
55.03878569947381
 20
118.1404073516892
 30
0.0
 40
2.850490999999998
100
AcDbArc
 50
347.7603999999983
 51
12.23960000000163
1001
AUSTER_ANSICHT
1002
{
1000
Det03
1002
}
1001
AUSTER_FOLIE
1002
{
1000
NSB01341_3RS10_24POL
1002
}
  0
CIRCLE
  5
1360D
330
1F
100
AcDbEntity
  8
10000_FRONT
  6
Continuous
 62
     7
370
    15
100
AcDbCircle
 39
0.25
 10
55.03878569947381
 20
118.1404073516892
 30
0.0
 40
3.1
1001
AUSTER_ANSICHT
1002
{
1000
Det03
1002
}
1001
AUSTER_FOLIE
1002
{
1000
NSB01341_3RS10_24POL
1002
}
  0
CIRCLE
  5
1360E
330
1F
100
AcDbEntity
  8
10000_FRONT
  6
Continuous
 62
     7
370
    15
100
AcDbCircle
 39
0.25
 10
55.03878569947381
 20
118.1404073516892
 30
0.0
 40
3.1
1001
AUSTER_ANSICHT
1002
{
1000
Det03
1002
}
1001
AUSTER_FOLIE
1002
{
1000
NSB01341_3RS10_24POL
1002
}
  0
ARC
  5
1360F
330
1F
100
AcDbEntity
  8
10000_FRONT
  6
Continuous
 62
     7
370
    15
100
AcDbCircle
 39
0.25
 10
47.83878569947376
 20
118.1404073516892
 30
0.0
 40
2.850490999999998
100
AcDbArc
 50
347.7603999999983
 51
12.23960000000163
1001
AUSTER_ANSICHT
1002
{
1000
Det03
1002
}
1001
AUSTER_FOLIE
1002
{
1000
NSB01341_3RS10_24POL
1002
}
  0
ARC
  5
13610
330
1F
100
AcDbEntity
  8
10000_FRONT
  6
Continuous
 62
     7
370
    15
100
AcDbCircle
 39
0.25
 10
47.83878569947376
 20
118.1404073516892
 30
0.0
 40
2.850490999999998
100
AcDbArc
 50
167.7603999999984
 51
192.2396000000016
1001
AUSTER_ANSICHT
1002
{
1000
Det03
1002
}
1001
AUSTER_FOLIE
1002
{
1000
NSB01341_3RS10_24POL
1002
}
  0
CIRCLE
  5
13611
330
1F
100
AcDbEntity
  8
10000_FRONT
  6
Continuous
 62
     7
370
    15
100
AcDbCircle
 39
0.25
 10
47.83878569947376
 20
118.1404073516892
 30
0.0
 40
3.1
1001
AUSTER_ANSICHT
1002
{
1000
Det03
1002
}
1001
AUSTER_FOLIE
1002
{
1000
NSB01341_3RS10_24POL
1002
}
  0
CIRCLE
  5
13612
330
1F
100
AcDbEntity
  8
10000_FRONT
  6
Continuous
 62
     7
370
    15
100
AcDbCircle
 39
0.25
 10
47.83878569947376
 20
118.1404073516892
 30
0.0
 40
3.1
1001
AUSTER_ANSICHT
1002
{
1000
Det03
1002
}
1001
AUSTER_FOLIE
1002
{
1000
NSB01341_3RS10_24POL
1002
}
  0
LINE
  5
13613
330
1F
100
AcDbEntity
  8
10000_FRONT
  6
Continuous
 62
     7
370
    50
100
AcDbLine
 10
66.28878569947381
 20
111.1404073516891
 30
0.0
 11
66.28878569947374
 21
193.3404073516891
 31
0.0
  0
LINE
  5
13614
330
1F
100
AcDbEntity
  8
11000_Left
  6
HIDDEN
 62
     7
370
     9
100
AcDbLine
 10
206.238201858032
 20
112.2339649882981
 30
0.0
 11
206.238201858032
 21
120.2339649882981
 31
0.0
  0
LINE
  5
13615
330
1F
100
AcDbEntity
  8
11000_Left
  6
HIDDEN
 62
     7
370
     9
100
AcDbLine
 10
206.238201858032
 20
120.2339649882981
 30
0.0
 11
204.238201858032
 21
120.2339649882981
 31
0.0
  0
LINE
  5
13616
330
1F
100
AcDbEntity
  8
11000_Left
  6
HIDDEN
 62
     7
370
     9
100
AcDbLine
 10
204.238201858032
 20
112.2339649882981
 30
0.0
 11
204.238201858032
 21
120.2339649882981
 31
0.0
  0
LINE
  5
13617
330
1F
100
AcDbEntity
  8
11000_Left
  6
HIDDEN
 62
     7
370
     9
100
AcDbLine
 10
206.238201858032
 20
194.8339649882981
 30
0.0
 11
206.238201858032
 21
186.8339649882981
 31
0.0
  0
LINE
  5
13618
330
1F
100
AcDbEntity
  8
11000_Left
  6
HIDDEN
 62
     7
370
     9
100
AcDbLine
 10
206.238201858032
 20
186.8339649882981
 30
0.0
 11
204.238201858032
 21
186.8339649882981
 31
0.0
  0
LINE
  5
13619
330
1F
100
AcDbEntity
  8
11000_Left
  6
HIDDEN
 62
     7
370
     9
100
AcDbLine
 10
204.238201858032
 20
194.8339649882981
 30
0.0
 11
204.238201858032
 21
186.8339649882981
 31
0.0
  0
LINE
  5
1361A
330
1F
100
AcDbEntity
  8
11000_Left
  6
Continuous
 62
     7
370
    15
100
AcDbLine
 10
219.338201858032
 20
145.5339649882982
 30
0.0
 11
219.2382018580322
 21
145.5339649882982
 31
0.0
  0
ARC
  5
1361B
330
1F
100
AcDbEntity
  8
11000_Left
  6
Continuous
 62
     7
370
    50
100
AcDbCircle
 10
139.0382018580321
 20
136.3339649882981
 30
0.0
 40
0.3
100
AcDbArc
 50
270.0
 51
0.0
  0
LINE
  5
1361C
330
1F
100
AcDbEntity
  8
11000_Left
  6
Continuous
 62
     7
370
    13
100
AcDbLine
 10
140.338201858032
 20
127.6339649882981
 30
0.0
 11
138.838201858032
 21
127.6339649882981
 31
0.0
  0
LINE
  5
1361D
330
1F
100
AcDbEntity
  8
11000_Left
  6
Continuous
 62
     7
370
    15
100
AcDbLine
 10
140.338201858032
 20
132.1339649882981
 30
0.0
 11
140.338201858032
 21
127.6339649882981
 31
0.0
  0
LINE
  5
1361E
330
1F
100
AcDbEntity
  8
11000_Left
  6
Continuous
 62
     7
370
    15
100
AcDbLine
 10
138.838201858032
 20
127.6339649882981
 30
0.0
 11
138.838201858032
 21
132.1339649882981
 31
0.0
  0
LINE
  5
1361F
330
1F
100
AcDbEntity
  8
11000_Left
  6
Continuous
 62
     7
370
    13
100
AcDbLine
 10
138.838201858032
 20
132.1339649882981
 30
0.0
 11
140.338201858032
 21
132.1339649882981
 31
0.0
  0
LINE
  5
13620
330
1F
100
AcDbEntity
  8
11000_Left
  6
Continuous
 62
     7
370
    50
100
AcDbLine
 10
139.0382018580321
 20
136.0339649882982
 30
0.0
 11
138.5183918580321
 21
136.0339649882982
 31
0.0
  0
LINE
  5
13621
330
1F
100
AcDbEntity
  8
11000_Left
  6
Continuous
 62
     7
370
    15
100
AcDbLine
 10
219.6882018580319
 20
126.2339649882982
 30
0.0
 11
219.2382018580322
 21
126.6839649882981
 31
0.0
  0
LINE
  5
13622
330
1F
100
AcDbEntity
  8
11000_Left
  6
Continuous
 62
     7
370
    50
100
AcDbLine
 10
136.237601858032
 20
137.4339649882981
 30
0.0
 11
134.451411858032
 21
136.1832549882981
 31
0.0
  0
ARC
  5
13623
330
1F
100
AcDbEntity
  8
11000_Left
  6
Continuous
 62
     7
370
    50
100
AcDbCircle
 10
138.5183918580321
 20
136.3339649882981
 30
0.0
 40
0.3
100
AcDbArc
 50
195.0000000000019
 51
270.0
  0
LINE
  5
13624
330
1F
100
AcDbEntity
  8
11000_Left
  6
Continuous
 62
     7
370
    50
100
AcDbLine
 10
138.228621858032
 20
136.2563149882982
 30
0.0
 11
137.913071858032
 21
137.4339649882981
 31
0.0
  0
LINE
  5
13625
330
1F
100
AcDbEntity
  8
11000_Left
  6
Continuous
 62
     7
370
    50
100
AcDbLine
 10
134.2382018580319
 20
135.7736749882981
 30
0.0
 11
134.2382018580319
 21
117.7839649882981
 31
0.0
  0
LINE
  5
13626
330
1F
100
AcDbEntity
  8
11000_Left
  6
Continuous
 62
     7
370
    40
100
AcDbLine
 10
134.2382018580319
 20
117.7839649882981
 30
0.0
 11
134.2382018580319
 21
116.7839649882981
 31
0.0
  0
LINE
  5
13627
330
1F
100
AcDbEntity
  8
11000_Left
  6
Continuous
 62
     7
370
    50
100
AcDbLine
 10
137.913071858032
 20
137.4339649882981
 30
0.0
 11
136.237601858032
 21
137.4339649882981
 31
0.0
  0
LINE
  5
13628
330
1F
100
AcDbEntity
  8
11000_Left
  6
Continuous
 62
     7
370
    13
100
AcDbLine
 10
139.338201858032
 20
145.5339649882982
 30
0.0
 11
139.338201858032
 21
145.6339549882981
 31
0.0
  0
ARC
  5
13629
330
1F
100
AcDbEntity
  8
11000_Left
  6
Continuous
 62
     7
370
    50
100
AcDbCircle
 10
134.7382018580319
 20
135.7736749882981
 30
0.0
 40
0.5
100
AcDbArc
 50
124.9999999999971
 51
180.0
  0
LINE
  5
1362A
330
1F
100
AcDbEntity
  8
11000_Left
  6
Continuous
 62
     7
370
    15
100
AcDbLine
 10
219.2382018580322
 20
145.5339649882982
 30
0.0
 11
139.338201858032
 21
145.5339649882982
 31
0.0
  0
LINE
  5
1362B
330
1F
100
AcDbEntity
  8
11000_Left
  6
Continuous
 62
     7
370
    15
100
AcDbLine
 10
219.2382018580322
 20
130.8839649882981
 30
0.0
 11
219.2382018580322
 21
145.5339649882982
 31
0.0
  0
LINE
  5
1362C
330
1F
100
AcDbEntity
  8
11000_Left
  6
Continuous
 62
     7
370
    40
100
AcDbLine
 10
184.238201858032
 20
116.7839649882981
 30
0.0
 11
134.2382018580319
 21
116.7839649882981
 31
0.0
  0
LINE
  5
1362D
330
1F
100
AcDbEntity
  8
11000_Left
  6
Continuous
 62
     7
370
    13
100
AcDbLine
 10
164.238201858032
 20
116.7839649882981
 30
0.0
 11
164.1382018580319
 21
116.7839649882981
 31
0.0
  0
LINE
  5
1362E
330
1F
100
AcDbEntity
  8
11000_Left
  6
Continuous
 62
     7
370
    40
100
AcDbLine
 10
164.1382018580319
 20
190.2839649882982
 30
0.0
 11
164.238201858032
 21
190.2839649882982
 31
0.0
  0
LINE
  5
1362F
330
1F
100
AcDbEntity
  8
11000_Left
  6
Continuous
 62
     7
370
    50
100
AcDbLine
 10
134.2382018580319
 20
190.2839649882982
 30
0.0
 11
196.5382018580321
 21
190.2839649882984
 31
0.0
  0
LINE
  5
13630
330
1F
100
AcDbEntity
  8
11000_Left
  6
Continuous
 62
     7
370
    15
100
AcDbLine
 10
219.9382018580321
 20
176.1839649882981
 30
0.0
 11
219.9382018580321
 21
180.8339649882981
 31
0.0
  0
LINE
  5
13631
330
1F
100
AcDbEntity
  8
11000_Left
  6
Continuous
 62
     7
370
    13
100
AcDbLine
 10
139.3382018580318
 20
190.2839649882983
 30
0.0
 11
139.3382018580319
 21
173.7839649882982
 31
0.0
  0
LINE
  5
13632
330
1F
100
AcDbEntity
  8
11000_Left
  6
Continuous
 62
     7
370
    50
100
AcDbLine
 10
139.3382018580319
 20
173.7839649882982
 30
0.0
 11
139.3382018580321
 21
136.3339649882981
 31
0.0
  0
ARC
  5
13633
330
1F
100
AcDbEntity
  8
11000_Left
  6
Continuous
 62
     7
370
    50
100
AcDbCircle
 10
138.838201858032
 20
173.7839649882982
 30
0.0
 40
0.5
100
AcDbArc
 50
0.0
 51
90.0
  0
LINE
  5
13634
330
1F
100
AcDbEntity
  8
11000_Left
  6
Continuous
 62
     7
370
    50
100
AcDbLine
 10
134.2382018580319
 20
190.2839649882982
 30
0.0
 11
134.2382018580319
 21
170.8839649882982
 31
0.0
  0
LINE
  5
13635
330
1F
100
AcDbEntity
  8
11000_Left
  6
Continuous
 62
     7
370
    13
100
AcDbLine
 10
134.2382018580319
 20
169.3339649882981
 30
0.0
 11
134.2382018580319
 21
170.8839649882982
 31
0.0
  0
LINE
  5
13636
330
1F
100
AcDbEntity
  8
11000_Left
  6
Continuous
 62
     7
370
    13
100
AcDbLine
 10
134.2382018580319
 20
169.3339649882981
 30
0.0
 11
135.7382018580319
 21
168.1339649882982
 31
0.0
  0
LINE
  5
13637
330
1F
100
AcDbEntity
  8
11000_Left
  6
Continuous
 62
     7
370
    50
100
AcDbLine
 10
136.3453818580319
 20
169.6839649882981
 30
0.0
 11
137.0382018580321
 21
170.8839649882982
 31
0.0
  0
LINE
  5
13638
330
1F
100
AcDbEntity
  8
11000_Left
  6
Continuous
 62
     7
370
    50
100
AcDbLine
 10
137.0382018580321
 20
170.8839649882982
 30
0.0
 11
137.0382018580321
 21
173.7839649882982
 31
0.0
  0
ARC
  5
13639
330
1F
100
AcDbEntity
  8
11000_Left
  6
Continuous
 62
     7
370
    50
100
AcDbCircle
 10
137.5382018580321
 20
173.7839649882982
 30
0.0
 40
0.5
100
AcDbArc
 50
90.0
 51
180.0
  0
LINE
  5
1363A
330
1F
100
AcDbEntity
  8
11000_Left
  6
Continuous
 62
     7
370
    50
100
AcDbLine
 10
134.2382018580319
 20
170.8839649882982
 30
0.0
 11
135.7382018580319
 21
169.6839649882981
 31
0.0
  0
LINE
  5
1363B
330
1F
100
AcDbEntity
  8
11000_Left
  6
Continuous
 62
     7
370
    50
100
AcDbLine
 10
135.7382018580319
 20
169.6839649882981
 30
0.0
 11
136.3453818580319
 21
169.6839649882981
 31
0.0
  0
LINE
  5
1363C
330
1F
100
AcDbEntity
  8
11000_Left
  6
Continuous
 62
     7
370
    50
100
AcDbLine
 10
137.5382018580321
 20
174.2839649882982
 30
0.0
 11
138.838201858032
 21
174.2839649882982
 31
0.0
  0
LINE
  5
1363D
330
1F
100
AcDbEntity
  8
11000_Left
  6
Continuous
 62
     7
370
    13
100
AcDbLine
 10
137.479601858032
 20
168.1339649882982
 30
0.0
 11
137.938201858032
 21
169.6339649882982
 31
0.0
  0
LINE
  5
1363E
330
1F
100
AcDbEntity
  8
11000_Left
  6
Continuous
 62
     7
370
    13
100
AcDbLine
 10
138.738201858032
 20
169.6339649882982
 30
0.0
 11
139.338201858032
 21
169.6339649882982
 31
0.0
  0
LINE
  5
1363F
330
1F
100
AcDbEntity
  8
11000_Left
  6
Continuous
 62
     7
370
    13
100
AcDbLine
 10
137.938201858032
 20
169.6339649882982
 30
0.0
 11
138.738201858032
 21
169.6339649882982
 31
0.0
  0
LINE
  5
13640
330
1F
100
AcDbEntity
  8
11000_Left
  6
Continuous
 62
     7
370
    13
100
AcDbLine
 10
135.7382018580319
 20
168.1339649882982
 30
0.0
 11
136.638201858032
 21
168.1339649882982
 31
0.0
  0
LINE
  5
13641
330
1F
100
AcDbEntity
  8
11000_Left
  6
Continuous
 62
     7
370
    13
100
AcDbLine
 10
137.479601858032
 20
168.1339649882982
 30
0.0
 11
136.638201858032
 21
168.1339649882982
 31
0.0
  0
LINE
  5
13642
330
1F
100
AcDbEntity
  8
11000_Left
  6
Continuous
 62
     7
370
    15
100
AcDbLine
 10
189.6382018580319
 20
149.9339649882981
 30
0.0
 11
182.6382018580319
 21
149.9339649882981
 31
0.0
  0
LINE
  5
13643
330
1F
100
AcDbEntity
  8
11000_Left
  6
Continuous
 62
     7
370
    15
100
AcDbLine
 10
182.6382018580319
 20
149.9339649882981
 30
0.0
 11
182.6382018580319
 21
154.1339649882981
 31
0.0
  0
LINE
  5
13644
330
1F
100
AcDbEntity
  8
11000_Left
  6
Continuous
 62
     7
370
    15
100
AcDbLine
 10
189.6382018580319
 20
154.1339649882981
 30
0.0
 11
189.6382018580319
 21
149.9339649882981
 31
0.0
  0
LINE
  5
13645
330
1F
100
AcDbEntity
  8
11000_Left
  6
Continuous
 62
     7
370
    15
100
AcDbLine
 10
182.6382018580319
 20
154.1339649882981
 30
0.0
 11
189.6382018580319
 21
154.1339649882981
 31
0.0
  0
LINE
  5
13646
330
1F
100
AcDbEntity
  8
11000_Left
  6
Continuous
 62
     7
370
    15
100
AcDbLine
 10
219.2382018580322
 20
176.1839649882981
 30
0.0
 11
219.9382018580321
 21
176.1839649882981
 31
0.0
  0
LINE
  5
13647
330
1F
100
AcDbEntity
  8
11000_Left
  6
Continuous
 62
     7
370
    15
100
AcDbLine
 10
219.2382018580322
 20
145.6339649882981
 30
0.0
 11
219.2382018580322
 21
176.1839649882981
 31
0.0
  0
LINE
  5
13648
330
1F
100
AcDbEntity
  8
11000_Left
  6
Continuous
 62
     7
370
    15
100
AcDbLine
 10
221.4382018580321
 20
168.9339649882981
 30
0.0
 11
221.4382018580321
 21
165.1339649882981
 31
0.0
  0
LINE
  5
13649
330
1F
100
AcDbEntity
  8
11000_Left
  6
Continuous
 62
     7
370
    15
100
AcDbLine
 10
184.238201858032
 20
120.7339649882981
 30
0.0
 11
184.238201858032
 21
116.7339649882981
 31
0.0
  0
LINE
  5
1364A
330
1F
100
AcDbEntity
  8
11000_Left
  6
Continuous
 62
     7
370
    15
100
AcDbLine
 10
164.238201858032
 20
120.7339649882981
 30
0.0
 11
184.238201858032
 21
120.7339649882981
 31
0.0
  0
LINE
  5
1364B
330
1F
100
AcDbEntity
  8
11000_Left
  6
Continuous
 62
     7
370
    40
100
AcDbLine
 10
195.738201858032
 20
116.7339649882981
 30
0.0
 11
184.238201858032
 21
116.7339649882981
 31
0.0
  0
LINE
  5
1364C
330
1F
100
AcDbEntity
  8
11000_Left
  6
Continuous
 62
     7
370
    15
100
AcDbLine
 10
223.238181858032
 20
169.0339649882982
 30
0.0
 11
223.238181858032
 21
165.0339649882982
 31
0.0
  0
LINE
  5
1364D
330
1F
100
AcDbEntity
  8
11000_Left
  6
Continuous
 62
     7
370
    15
100
AcDbLine
 10
221.4381818580319
 20
169.0339649882982
 30
0.0
 11
223.238181858032
 21
169.0339649882982
 31
0.0
  0
LINE
  5
1364E
330
1F
100
AcDbEntity
  8
11000_Left
  6
Continuous
 62
     7
370
    15
100
AcDbLine
 10
221.4381818580319
 20
168.9339649882981
 30
0.0
 11
221.4381818580319
 21
169.0339649882982
 31
0.0
  0
LINE
  5
1364F
330
1F
100
AcDbEntity
  8
11000_Left
  6
Continuous
 62
     7
370
    15
100
AcDbLine
 10
221.4381818580319
 20
165.0339649882982
 30
0.0
 11
221.4381818580319
 21
165.1339649882981
 31
0.0
  0
LINE
  5
13650
330
1F
100
AcDbEntity
  8
11000_Left
  6
Continuous
 62
     7
370
    15
100
AcDbLine
 10
223.238181858032
 20
165.0339649882982
 30
0.0
 11
221.4381818580319
 21
165.0339649882982
 31
0.0
  0
LINE
  5
13651
330
1F
100
AcDbEntity
  8
11000_Left
  6
Continuous
 62
     7
370
    15
100
AcDbLine
 10
223.238181858032
 20
142.0339649882982
 30
0.0
 11
223.238181858032
 21
138.0339649882982
 31
0.0
  0
LINE
  5
13652
330
1F
100
AcDbEntity
  8
11000_Left
  6
Continuous
 62
     7
370
    15
100
AcDbLine
 10
221.4381818580319
 20
142.0339649882982
 30
0.0
 11
223.238181858032
 21
142.0339649882982
 31
0.0
  0
LINE
  5
13653
330
1F
100
AcDbEntity
  8
11000_Left
  6
Continuous
 62
     7
370
    15
100
AcDbLine
 10
221.4381818580319
 20
138.0339649882982
 30
0.0
 11
221.4381818580319
 21
142.0339649882982
 31
0.0
  0
LINE
  5
13654
330
1F
100
AcDbEntity
  8
11000_Left
  6
Continuous
 62
     7
370
    15
100
AcDbLine
 10
223.238181858032
 20
138.0339649882982
 30
0.0
 11
221.4381818580319
 21
138.0339649882982
 31
0.0
  0
LINE
  5
13655
330
1F
100
AcDbEntity
  8
11000_Left
  6
Continuous
 62
     7
370
    50
100
AcDbLine
 10
225.3382018580319
 20
194.6339649882982
 30
0.0
 11
225.3382018580319
 21
112.4339649882981
 31
0.0
  0
LINE
  5
13656
330
1F
100
AcDbEntity
  8
11000_Left
  6
Continuous
 62
     7
370
    40
100
AcDbLine
 10
223.9381818580319
 20
112.2339649882981
 30
0.0
 11
223.9382018580321
 21
112.2339649882981
 31
0.0
  0
ARC
  5
13657
330
1F
100
AcDbEntity
  8
11000_Left
  6
Continuous
 62
     7
370
    40
100
AcDbCircle
 10
225.1382018580319
 20
112.4339649882981
 30
0.0
 40
0.2
100
AcDbArc
 50
269.9997700000029
 51
0.0
  0
LINE
  5
13658
330
1F
100
AcDbEntity
  8
11000_Left
  6
Continuous
 62
     7
370
    15
100
AcDbLine
 10
213.038201858032
 20
130.2339649882982
 30
0.0
 11
213.038201858032
 21
126.2339649882982
 31
0.0
  0
LINE
  5
13659
330
1F
100
AcDbEntity
  8
11000_Left
  6
Continuous
 62
     7
370
    15
100
AcDbLine
 10
193.038201858032
 20
130.2339649882982
 30
0.0
 11
213.038201858032
 21
130.2339649882982
 31
0.0
  0
ARC
  5
1365A
330
1F
100
AcDbEntity
  8
11000_Left
  6
Continuous
 62
     7
370
    40
100
AcDbCircle
 10
196.738201858032
 20
112.4339649882981
 30
0.0
 40
0.2
100
AcDbArc
 50
180.0
 51
270.0
  0
LINE
  5
1365B
330
1F
100
AcDbEntity
  8
11000_Left
  6
Continuous
 62
     7
370
    15
100
AcDbLine
 10
225.3382018580319
 20
126.2339649882982
 30
0.0
 11
213.038201858032
 21
126.2339649882982
 31
0.0
  0
LINE
  5
1365C
330
1F
100
AcDbEntity
  8
11000_Left
  6
Continuous
 62
     7
370
    40
100
AcDbLine
 10
196.538201858032
 20
116.7339649882981
 30
0.0
 11
196.538201858032
 21
112.4339649882981
 31
0.0
  0
LINE
  5
1365D
330
1F
100
AcDbEntity
  8
11000_Left
  6
Continuous
 62
     7
370
    40
100
AcDbLine
 10
223.9382018580321
 20
112.2339649882981
 30
0.0
 11
196.738201858032
 21
112.2339649882981
 31
0.0
  0
LINE
  5
1365E
330
1F
100
AcDbEntity
  8
11000_Left
  6
Continuous
 62
     7
370
    40
100
AcDbLine
 10
223.9382018580321
 20
112.2339649882981
 30
0.0
 11
224.5382018580321
 21
112.2339649882981
 31
0.0
  0
LINE
  5
1365F
330
1F
100
AcDbEntity
  8
11000_Left
  6
Continuous
 62
     7
370
    40
100
AcDbLine
 10
224.5382018580321
 20
112.2339649882981
 30
0.0
 11
225.138191858032
 21
112.2339649882981
 31
0.0
  0
LINE
  5
13660
330
1F
100
AcDbEntity
  8
11000_Left
  6
Continuous
 62
     7
370
    15
100
AcDbLine
 10
193.038201858032
 20
176.8339649882981
 30
0.0
 11
213.038201858032
 21
176.8339649882981
 31
0.0
  0
LINE
  5
13661
330
1F
100
AcDbEntity
  8
11000_Left
  6
Continuous
 62
     7
370
    15
100
AcDbLine
 10
213.038201858032
 20
176.8339649882981
 30
0.0
 11
213.038201858032
 21
180.8339649882981
 31
0.0
  0
ARC
  5
13662
330
1F
100
AcDbEntity
  8
11000_Left
  6
Continuous
 62
     7
370
    50
100
AcDbCircle
 10
225.1382018580319
 20
194.6339649882982
 30
0.0
 40
0.2
100
AcDbArc
 50
0.0
 51
90.0004430000029
  0
ARC
  5
13663
330
1F
100
AcDbEntity
  8
11000_Left
  6
Continuous
 62
     7
370
    50
100
AcDbCircle
 10
196.738201858032
 20
194.6339649882982
 30
0.0
 40
0.2
100
AcDbArc
 50
90.0
 51
180.0
  0
LINE
  5
13664
330
1F
100
AcDbEntity
  8
11000_Left
  6
Continuous
 62
     7
370
    15
100
AcDbLine
 10
225.3382018580319
 20
180.8339649882981
 30
0.0
 11
213.038201858032
 21
180.8339649882981
 31
0.0
  0
LINE
  5
13665
330
1F
100
AcDbEntity
  8
11000_Left
  6
Continuous
 62
     7
370
    15
100
AcDbLine
 10
193.038201858032
 20
176.8339649882981
 30
0.0
 11
193.038201858032
 21
190.2839649882983
 31
0.0
  0
LINE
  5
13666
330
1F
100
AcDbEntity
  8
11000_Left
  6
Continuous
 62
     7
370
    50
100
AcDbLine
 10
196.538201858032
 20
194.6339649882982
 30
0.0
 11
196.538201858032
 21
190.3339649882981
 31
0.0
  0
LINE
  5
13667
330
1F
100
AcDbEntity
  8
11000_Left
  6
Continuous
 62
     7
370
    50
100
AcDbLine
 10
225.1382003116702
 20
194.8339649882922
 30
0.0
 11
196.738201858032
 21
194.8339649882982
 31
0.0
  0
LINE
  5
13668
330
1F
100
AcDbEntity
  8
11000_Left
  6
Continuous
 62
     7
370
    15
100
AcDbLine
 10
164.238201858032
 20
186.3339649882981
 30
0.0
 11
184.238201858032
 21
186.3339649882981
 31
0.0
  0
LINE
  5
13669
330
1F
100
AcDbEntity
  8
11000_Left
  6
Continuous
 62
     7
370
    15
100
AcDbLine
 10
184.238201858032
 20
186.3339649882981
 30
0.0
 11
184.238201858032
 21
190.3339649882981
 31
0.0
  0
LINE
  5
1366A
330
1F
100
AcDbEntity
  8
11000_Left
  6
Continuous
 62
     7
370
    15
100
AcDbLine
 10
164.238201858032
 20
186.3339649882981
 30
0.0
 11
164.238201858032
 21
190.2839649882982
 31
0.0
  0
LINE
  5
1366B
330
1F
100
AcDbEntity
  8
11000_Left
  6
Continuous
 62
     7
370
    15
100
AcDbLine
 10
219.338201858032
 20
145.5339649882982
 30
0.0
 11
219.2382018580322
 21
145.5339649882982
 31
0.0
  0
LINE
  5
1366C
330
1F
100
AcDbEntity
  8
11000_Left
  6
Continuous
 62
     7
370
    13
100
AcDbLine
 10
140.338201858032
 20
127.6339649882981
 30
0.0
 11
138.838201858032
 21
127.6339649882981
 31
0.0
  0
LINE
  5
1366D
330
1F
100
AcDbEntity
  8
11000_Left
  6
Continuous
 62
     7
370
    15
100
AcDbLine
 10
140.338201858032
 20
132.1339649882981
 30
0.0
 11
140.338201858032
 21
127.6339649882981
 31
0.0
  0
LINE
  5
1366E
330
1F
100
AcDbEntity
  8
11000_Left
  6
Continuous
 62
     7
370
    15
100
AcDbLine
 10
138.838201858032
 20
127.6339649882981
 30
0.0
 11
138.838201858032
 21
132.1339649882981
 31
0.0
  0
LINE
  5
1366F
330
1F
100
AcDbEntity
  8
11000_Left
  6
Continuous
 62
     7
370
    13
100
AcDbLine
 10
138.838201858032
 20
132.1339649882981
 30
0.0
 11
140.338201858032
 21
132.1339649882981
 31
0.0
  0
ARC
  5
13670
330
1F
100
AcDbEntity
  8
11000_Left
  6
Continuous
 62
     7
370
    50
100
AcDbCircle
 10
138.5183918580321
 20
136.3339649882981
 30
0.0
 40
0.3
100
AcDbArc
 50
195.0000000000019
 51
270.0
  0
LINE
  5
13671
330
1F
100
AcDbEntity
  8
11000_Left
  6
Continuous
 62
     7
370
    13
100
AcDbLine
 10
139.338201858032
 20
145.5339649882982
 30
0.0
 11
139.338201858032
 21
145.6339549882981
 31
0.0
  0
LINE
  5
13672
330
1F
100
AcDbEntity
  8
11000_Left
  6
Continuous
 62
     7
370
    15
100
AcDbLine
 10
219.2382018580322
 20
126.683964988298
 30
0.0
 11
219.2382018580322
 21
145.5339649882982
 31
0.0
  0
LINE
  5
13673
330
1F
100
AcDbEntity
  8
11000_Left
  6
Continuous
 62
     7
370
    13
100
AcDbLine
 10
164.238201858032
 20
116.7839649882981
 30
0.0
 11
164.1382018580319
 21
116.7839649882981
 31
0.0
  0
LINE
  5
13674
330
1F
100
AcDbEntity
  8
11000_Left
  6
Continuous
 62
     7
370
    40
100
AcDbLine
 10
164.1382018580319
 20
190.2839649882982
 30
0.0
 11
164.238201858032
 21
190.2839649882982
 31
0.0
  0
ARC
  5
13675
330
1F
100
AcDbEntity
  8
11000_Left
  6
Continuous
 62
     7
370
    50
100
AcDbCircle
 10
138.838201858032
 20
173.7839649882982
 30
0.0
 40
0.5
100
AcDbArc
 50
0.0
 51
90.0
  0
LINE
  5
13676
330
1F
100
AcDbEntity
  8
11000_Left
  6
Continuous
 62
     7
370
    13
100
AcDbLine
 10
137.479601858032
 20
168.1339649882982
 30
0.0
 11
137.938201858032
 21
169.6339649882982
 31
0.0
  0
LINE
  5
13677
330
1F
100
AcDbEntity
  8
11000_Left
  6
Continuous
 62
     7
370
    13
100
AcDbLine
 10
138.738201858032
 20
169.6339649882982
 30
0.0
 11
139.338201858032
 21
169.6339649882982
 31
0.0
  0
LINE
  5
13678
330
1F
100
AcDbEntity
  8
11000_Left
  6
Continuous
 62
     7
370
    13
100
AcDbLine
 10
137.938201858032
 20
169.6339649882982
 30
0.0
 11
138.738201858032
 21
169.6339649882982
 31
0.0
  0
LINE
  5
13679
330
1F
100
AcDbEntity
  8
11000_Left
  6
Continuous
 62
     7
370
    40
100
AcDbLine
 10
195.738201858032
 20
116.7339649882981
 30
0.0
 11
184.238201858032
 21
116.7339649882981
 31
0.0
  0
LINE
  5
1367A
330
1F
100
AcDbEntity
  8
11000_Left
  6
Continuous
 62
     7
370
    15
100
AcDbLine
 10
164.238201858032
 20
120.7339649882981
 30
0.0
 11
164.238201858032
 21
116.7839649882981
 31
0.0
  0
LINE
  5
1367B
330
1F
100
AcDbEntity
  8
11000_Left
  6
Continuous
 62
     7
370
    15
100
AcDbLine
 10
221.4381818580319
 20
168.9339649882981
 30
0.0
 11
221.4381818580319
 21
169.0339649882982
 31
0.0
  0
LINE
  5
1367C
330
1F
100
AcDbEntity
  8
11000_Left
  6
Continuous
 62
     7
370
    15
100
AcDbLine
 10
221.4381818580319
 20
165.0339649882982
 30
0.0
 11
221.4381818580319
 21
165.1339649882981
 31
0.0
  0
LINE
  5
1367D
330
1F
100
AcDbEntity
  8
11000_Left
  6
Continuous
 62
     7
370
    15
100
AcDbLine
 10
223.238181858032
 20
142.0339649882982
 30
0.0
 11
223.238181858032
 21
138.0339649882982
 31
0.0
  0
LINE
  5
1367E
330
1F
100
AcDbEntity
  8
11000_Left
  6
Continuous
 62
     7
370
    15
100
AcDbLine
 10
221.4381818580319
 20
142.0339649882982
 30
0.0
 11
223.238181858032
 21
142.0339649882982
 31
0.0
  0
LINE
  5
1367F
330
1F
100
AcDbEntity
  8
11000_Left
  6
Continuous
 62
     7
370
    15
100
AcDbLine
 10
223.238181858032
 20
138.0339649882982
 30
0.0
 11
221.4381818580319
 21
138.0339649882982
 31
0.0
  0
LINE
  5
13680
330
1F
100
AcDbEntity
  8
11000_Left
  6
Continuous
 62
     7
370
    40
100
AcDbLine
 10
223.9381818580319
 20
112.2339649882981
 30
0.0
 11
223.9382018580321
 21
112.2339649882981
 31
0.0
  0
ARC
  5
13681
330
1F
100
AcDbEntity
  8
11000_Left
  6
Continuous
 62
     7
370
    40
100
AcDbCircle
 10
225.1382018580319
 20
112.4339649882981
 30
0.0
 40
0.2
100
AcDbArc
 50
269.9997700000029
 51
0.0
  0
ARC
  5
13682
330
1F
100
AcDbEntity
  8
11000_Left
  6
Continuous
 62
     7
370
    40
100
AcDbCircle
 10
196.738201858032
 20
112.4339649882981
 30
0.0
 40
0.2
100
AcDbArc
 50
180.0
 51
270.0
  0
LINE
  5
13683
330
1F
100
AcDbEntity
  8
11000_Left
  6
Continuous
 62
     7
370
    40
100
AcDbLine
 10
195.738201858032
 20
116.7339649882981
 30
0.0
 11
196.538201858032
 21
116.7339649882981
 31
0.0
  0
LINE
  5
13684
330
1F
100
AcDbEntity
  8
11000_Left
  6
Continuous
 62
     7
370
    15
100
AcDbLine
 10
193.038201858032
 20
130.2339649882982
 30
0.0
 11
193.038201858032
 21
116.7339649882981
 31
0.0
  0
LINE
  5
13685
330
1F
100
AcDbEntity
  8
11000_Left
  6
Continuous
 62
     7
370
    40
100
AcDbLine
 10
196.538201858032
 20
116.7339649882981
 30
0.0
 11
196.538201858032
 21
112.4339649882981
 31
0.0
  0
LINE
  5
13686
330
1F
100
AcDbEntity
  8
11000_Left
  6
Continuous
 62
     7
370
    40
100
AcDbLine
 10
196.738201858032
 20
112.2339649882981
 30
0.0
 11
197.6382018580319
 21
112.2339649882981
 31
0.0
  0
LINE
  5
13687
330
1F
100
AcDbEntity
  8
11000_Left
  6
Continuous
 62
     7
370
    40
100
AcDbLine
 10
223.9382018580321
 20
112.2339649882981
 30
0.0
 11
197.6382018580319
 21
112.2339649882981
 31
0.0
  0
LINE
  5
13688
330
1F
100
AcDbEntity
  8
11000_Left
  6
Continuous
 62
     7
370
    40
100
AcDbLine
 10
223.9382018580321
 20
112.2339649882981
 30
0.0
 11
224.5382018580321
 21
112.2339649882981
 31
0.0
  0
LINE
  5
13689
330
1F
100
AcDbEntity
  8
11000_Left
  6
Continuous
 62
     7
370
    40
100
AcDbLine
 10
224.5382018580321
 20
112.2339649882981
 30
0.0
 11
225.138191858032
 21
112.2339649882981
 31
0.0
  0
ARC
  5
1368A
330
1F
100
AcDbEntity
  8
11000_Left
  6
Continuous
 62
     7
370
    50
100
AcDbCircle
 10
225.1382018580319
 20
194.6339649882982
 30
0.0
 40
0.2
100
AcDbArc
 50
0.0
 51
90.0004430000029
  0
ARC
  5
1368B
330
1F
100
AcDbEntity
  8
10000_FRONT
  6
HIDDEN
 62
     7
370
     9
100
AcDbCircle
 10
47.53878569947381
 20
107.7839649882982
 30
0.0
 40
2.5
100
AcDbArc
 50
180.0
 51
0.0
1001
AUSTER_FOLIE
1002
{
1000
6_POL_CC
1002
}
1001
AUSTER_ANSICHT
1002
{
1000
V
1002
}
  0
LINE
  5
1368C
330
1F
100
AcDbEntity
  8
10000_FRONT
  6
HIDDEN
 62
     7
370
     9
100
AcDbLine
 10
45.03878569947381
 20
108.7839649882982
 30
0.0
 11
45.03878569947381
 21
107.7839649882982
 31
0.0
1001
AUSTER_FOLIE
1002
{
1000
6_POL_CC
1002
}
1001
AUSTER_ANSICHT
1002
{
1000
V
1002
}
  0
LINE
  5
1368D
330
1F
100
AcDbEntity
  8
10000_FRONT
  6
HIDDEN
 62
     7
370
     9
100
AcDbLine
 10
50.03878569947381
 20
108.7839649882982
 30
0.0
 11
50.03878569947381
 21
107.7839649882982
 31
0.0
1001
AUSTER_FOLIE
1002
{
1000
6_POL_CC
1002
}
1001
AUSTER_ANSICHT
1002
{
1000
V
1002
}
  0
ARC
  5
1368E
330
1F
100
AcDbEntity
  8
10000_FRONT
  6
HIDDEN
 62
     7
370
     9
100
AcDbCircle
 10
47.53878569947381
 20
108.7839649882982
 30
0.0
 40
2.5
100
AcDbArc
 50
0.0
 51
180.0
1001
AUSTER_FOLIE
1002
{
1000
6_POL_CC
1002
}
1001
AUSTER_ANSICHT
1002
{
1000
V
1002
}
  0
ARC
  5
1368F
330
1F
100
AcDbEntity
  8
10000_FRONT
  6
HIDDEN
 62
     7
370
     9
100
AcDbCircle
 10
62.53878569947381
 20
198.7839649882982
 30
0.0
 40
2.5
100
AcDbArc
 50
0.0
 51
180.0
1001
AUSTER_FOLIE
1002
{
1000
6_POL_CC
1002
}
1001
AUSTER_ANSICHT
1002
{
1000
V
1002
}
  0
LINE
  5
13690
330
1F
100
AcDbEntity
  8
10000_FRONT
  6
HIDDEN
 62
     7
370
     9
100
AcDbLine
 10
60.03878569947381
 20
197.7839649882982
 30
0.0
 11
60.03878569947381
 21
198.7839649882982
 31
0.0
1001
AUSTER_FOLIE
1002
{
1000
6_POL_CC
1002
}
1001
AUSTER_ANSICHT
1002
{
1000
V
1002
}
  0
ARC
  5
13691
330
1F
100
AcDbEntity
  8
10000_FRONT
  6
HIDDEN
 62
     7
370
     9
100
AcDbCircle
 10
62.53878569947381
 20
197.7839649882982
 30
0.0
 40
2.5
100
AcDbArc
 50
180.0
 51
0.0
1001
AUSTER_FOLIE
1002
{
1000
6_POL_CC
1002
}
1001
AUSTER_ANSICHT
1002
{
1000
V
1002
}
  0
LINE
  5
13692
330
1F
100
AcDbEntity
  8
10000_FRONT
  6
HIDDEN
 62
     7
370
     9
100
AcDbLine
 10
65.03878569947381
 20
197.7839649882982
 30
0.0
 11
65.03878569947381
 21
198.7839649882982
 31
0.0
1001
AUSTER_FOLIE
1002
{
1000
6_POL_CC
1002
}
1001
AUSTER_ANSICHT
1002
{
1000
V
1002
}
  0
ENDSEC
  0
SECTION
  2
OBJECTS
  0
DICTIONARY
  5
C
330
0
100
AcDbDictionary
281
     1
  3
ACAD_COLOR
350
6B
  3
ACAD_GROUP
350
D
  3
ACAD_LAYOUT
350
1A
  3
ACAD_MATERIAL
350
6A
  3
ACAD_MLINESTYLE
350
17
  3
ACAD_PLOTSETTINGS
350
19
  3
ACAD_PLOTSTYLENAME
350
E
  3
ACAD_TABLESTYLE
350
132D0
  3
ACAD_VISUALSTYLE
350
132BF
  3
AcDbVariableDictionary
350
5E
  3
DWGPROPS
350
1387A
  0
DICTIONARY
  5
6B
102
{ACAD_REACTORS
330
C
102
}
330
C
100
AcDbDictionary
281
     1
  0
DICTIONARY
  5
D
102
{ACAD_REACTORS
330
C
102
}
330
C
100
AcDbDictionary
281
     1
  0
DICTIONARY
  5
1A
102
{ACAD_REACTORS
330
C
102
}
330
C
100
AcDbDictionary
281
     1
  3
Layout1
350
51
  3
Layout2
350
56
  3
Model
350
22
  0
DICTIONARY
  5
6A
102
{ACAD_REACTORS
330
C
102
}
330
C
100
AcDbDictionary
281
     1
  3
ByBlock
350
132BD
  3
ByLayer
350
132BC
  3
Global
350
132BE
  0
DICTIONARY
  5
17
102
{ACAD_REACTORS
330
C
102
}
330
C
100
AcDbDictionary
281
     1
  3
Standard
350
18
  0
DICTIONARY
  5
19
102
{ACAD_REACTORS
330
C
102
}
330
C
100
AcDbDictionary
281
     1
  0
ACDBDICTIONARYWDFLT
  5
E
102
{ACAD_REACTORS
330
C
102
}
330
C
100
AcDbDictionary
281
     1
  3
Normal
350
F
100
AcDbDictionaryWithDefault
340
F
  0
DICTIONARY
  5
132D0
102
{ACAD_REACTORS
330
C
102
}
330
C
100
AcDbDictionary
281
     1
  3
Standard
350
132D1
  0
DICTIONARY
  5
132BF
102
{ACAD_REACTORS
330
C
102
}
330
C
100
AcDbDictionary
281
     1
  3
2dWireframe
350
132C5
  3
3dWireframe
350
132C6
  3
Basic
350
132C4
  3
Brighten
350
132CB
  3
ColorChange
350
132CF
  3
Dim
350
132CA
  3
Facepattern
350
132CE
  3
Flat
350
132C0
  3
FlatWithEdges
350
132C1
  3
Gouraud
350
132C2
  3
GouraudWithEdges
350
132C3
  3
Linepattern
350
132CD
  3
Realistic
350
132C9
  3
Thicken
350
132CC
  0
DICTIONARY
  5
5E
102
{ACAD_REACTORS
330
C
102
}
330
C
100
AcDbDictionary
281
     1
  3
CTABLESTYLE
350
132D3
  3
DIMASSOC
350
5F
  3
HIDETEXT
350
63
  3
INDEXCTL
350
1386A
  3
PROJECTNAME
350
876
  3
SORTENTS
350
13869
  0
XRECORD
  5
1387A
102
{ACAD_REACTORS
330
C
102
}
330
C
100
AcDbXrecord
280
     1
  1
DWGPROPS COOKIE
  2

  3

  4

  6

  7

  8
adgsan0
  9

300
=
301
=
302
=
303
=
304
=
305
=
306
=
307
=
308
=
309
=
 40
1.015527523148148
 41
2453200.47923772
 42
2454078.624909734
  1

 90
        0
  0
LAYOUT
  5
51
102
{ACAD_XDICTIONARY
360
1387D
102
}
102
{ACAD_REACTORS
330
1A
102
}
330
1A
100
AcDbPlotSettings
  1

  2
None
  4

  6

 40
0.0
 41
0.0
 42
0.0
 43
0.0
 44
0.0
 45
0.0
 46
0.0
 47
0.0
 48
0.0
 49
0.0
140
0.0
141
0.0
142
1.0
143
1.0
 70
   688
 72
     0
 73
     0
 74
     5
  7

 75
    16
147
1.0
148
0.0
149
0.0
100
AcDbLayout
  1
Layout1
 70
     1
 71
     1
 10
0.0
 20
0.0
 11
12.0
 21
9.0
 12
0.0
 22
0.0
 32
0.0
 14
0.0
 24
0.0
 34
0.0
 15
0.0
 25
0.0
 35
0.0
146
0.0
 13
0.0
 23
0.0
 33
0.0
 16
1.0
 26
0.0
 36
0.0
 17
0.0
 27
1.0
 37
0.0
 76
     0
330
50
  0
LAYOUT
  5
56
102
{ACAD_XDICTIONARY
360
1387F
102
}
102
{ACAD_REACTORS
330
1A
102
}
330
1A
100
AcDbPlotSettings
  1

  2
None
  4

  6

 40
0.0
 41
0.0
 42
0.0
 43
0.0
 44
0.0
 45
0.0
 46
0.0
 47
0.0
 48
0.0
 49
0.0
140
0.0
141
0.0
142
1.0
143
1.0
 70
   688
 72
     0
 73
     0
 74
     5
  7

 75
    16
147
1.0
148
0.0
149
0.0
100
AcDbLayout
  1
Layout2
 70
     1
 71
     2
 10
0.0
 20
0.0
 11
12.0
 21
9.0
 12
0.0
 22
0.0
 32
0.0
 14
0.0
 24
0.0
 34
0.0
 15
0.0
 25
0.0
 35
0.0
146
0.0
 13
0.0
 23
0.0
 33
0.0
 16
1.0
 26
0.0
 36
0.0
 17
0.0
 27
1.0
 37
0.0
 76
     0
330
55
  0
LAYOUT
  5
22
102
{ACAD_XDICTIONARY
360
1387B
102
}
102
{ACAD_REACTORS
330
1A
102
}
330
1A
100
AcDbPlotSettings
  1

  2
\\AMBW779A\A_P00873 (Canon iR2200-3300 PCL6)
  4
A4
  6

 40
4.815416812896728
 41
4.815412044525146
 42
4.815414428710936
 43
4.8154296875
 44
209.9733276367186
 45
296.9259948730469
 46
0.0
 47
0.0
 48
0.0
 49
0.0
140
0.0
141
0.0
142
1.0
143
0.9984717142117519
 70
 11952
 72
     1
 73
     1
 74
     1
  7

 75
     0
147
1.001530625020714
148
7.791089368381902
149
-50.20394972456142
100
AcDbLayout
  1
Model
 70
     1
 71
     0
 10
0.0
 20
0.0
 11
12.0
 21
9.0
 12
0.0
 22
0.0
 32
0.0
 14
0.0
 24
0.0
 34
0.0
 15
0.0
 25
0.0
 35
0.0
146
0.0
 13
0.0
 23
0.0
 33
0.0
 16
1.0
 26
0.0
 36
0.0
 17
0.0
 27
1.0
 37
0.0
 76
     0
330
1F
331
132AE
  0
MATERIAL
  5
132BD
102
{ACAD_XDICTIONARY
360
13883
102
}
102
{ACAD_REACTORS
330
6A
102
}
330
6A
100
AcDbMaterial
  1
ByBlock
  0
MATERIAL
  5
132BC
102
{ACAD_XDICTIONARY
360
13881
102
}
102
{ACAD_REACTORS
330
6A
102
}
330
6A
100
AcDbMaterial
  1
ByLayer
  0
MATERIAL
  5
132BE
102
{ACAD_XDICTIONARY
360
13885
102
}
102
{ACAD_REACTORS
330
6A
102
}
330
6A
100
AcDbMaterial
  1
Global
  0
MLINESTYLE
  5
18
102
{ACAD_REACTORS
330
17
102
}
330
17
100
AcDbMlineStyle
  2
STANDARD
 70
     0
  3

 62
   256
 51
90.0
 52
90.0
 71
     2
 49
0.5
 62
   256
  6
BYLAYER
 49
-0.5
 62
   256
  6
BYLAYER
  0
ACDBPLACEHOLDER
  5
F
102
{ACAD_REACTORS
330
E
102
}
330
E
  0
TABLESTYLE
  5
132D1
102
{ACAD_XDICTIONARY
360
13887
102
}
102
{ACAD_REACTORS
330
132D0
102
}
330
132D0
100
AcDbTableStyle
  3
Standard
 70
     0
 71
     0
 40
1.5
 41
1.5
280
     0
281
     0
  7
Standard
140
4.5
170
     2
 62
     0
 63
     7
283
     0
274
    -2
284
     1
 64
     0
275
    -2
285
     1
 65
     0
276
    -2
286
     1
 66
     0
277
    -2
287
     1
 67
     0
278
    -2
288
     1
 68
     0
279
    -2
289
     1
 69
     0
  7
Standard
140
6.0
170
     5
 62
     0
 63
     7
283
     0
274
    -2
284
     1
 64
     0
275
    -2
285
     1
 65
     0
276
    -2
286
     1
 66
     0
277
    -2
287
     1
 67
     0
278
    -2
288
     1
 68
     0
279
    -2
289
     1
 69
     0
  7
Standard
140
4.5
170
     5
 62
     0
 63
     7
283
     0
274
    -2
284
     1
 64
     0
275
    -2
285
     1
 65
     0
276
    -2
286
     1
 66
     0
277
    -2
287
     1
 67
     0
278
    -2
288
     1
 68
     0
279
    -2
289
     1
 69
     0
  0
VISUALSTYLE
  5
132C5
102
{ACAD_REACTORS
330
132BF
102
}
330
132BF
100
AcDbVisualStyle
  2
2dWireframe
 70
     4
 71
     0
 72
     2
 73
     0
 90
        0
 40
-0.6
 41
-30.0
 62
     5
 63
     7
 74
     1
 91
        4
 64
     7
 65
   257
 75
     1
175
     1
 42
1.0
 92
        0
 66
   257
 43
1.0
 76
     1
 77
     6
 78
     2
 67
     7
 79
     5
170
     0
171
     0
290
     0
174
     0
 93
        1
 44
0.0
173
     0
291
     0
 45
0.0
1001
ACAD
1000
AcDbSavedByObjectVersion
1070
     0
  0
VISUALSTYLE
  5
132C6
102
{ACAD_REACTORS
330
132BF
102
}
330
132BF
100
AcDbVisualStyle
  2
3dWireframe
 70
     5
 71
     0
 72
     2
 73
     0
 90
        0
 40
-0.6
 41
-30.0
 62
     5
 63
     7
 74
     1
 91
        4
 64
     7
 65
   257
 75
     1
175
     1
 42
1.0
 92
        0
 66
   257
 43
1.0
 76
     1
 77
     6
 78
     2
 67
     7
 79
     5
170
     0
171
     0
290
     0
174
     0
 93
        1
 44
0.0
173
     0
291
     0
 45
0.0
1001
ACAD
1000
AcDbSavedByObjectVersion
1070
     0
  0
VISUALSTYLE
  5
132C4
102
{ACAD_REACTORS
330
132BF
102
}
330
132BF
100
AcDbVisualStyle
  2
Basic
 70
     7
 71
     1
 72
     0
 73
     1
 90
        0
 40
-0.6
 41
-30.0
 62
     5
 63
     7
 74
     0
 91
        4
 64
     7
 65
   257
 75
     1
175
     1
 42
1.0
 92
        8
 66
     7
 43
1.0
 76
     1
 77
     6
 78
     2
 67
     7
 79
     5
170
     0
171
     0
290
     0
174
     0
 93
        1
 44
0.0
173
     0
291
     1
 45
0.0
1001
ACAD
1000
AcDbSavedByObjectVersion
1070
     0
  0
VISUALSTYLE
  5
132CB
102
{ACAD_REACTORS
330
132BF
102
}
330
132BF
100
AcDbVisualStyle
  2
Brighten
 70
    12
 71
     2
 72
     2
 73
     0
 90
        0
 40
-0.6
 41
-30.0
 62
     5
 63
     7
 74
     1
 91
        4
 64
     7
 65
   257
 75
     1
175
     1
 42
1.0
 92
        8
 66
     7
 43
1.0
 76
     1
 77
     6
 78
     2
 67
     7
 79
     5
170
     0
171
     0
290
     0
174
     0
 93
        1
 44
50.0
173
     0
291
     1
 45
0.0
1001
ACAD
1000
AcDbSavedByObjectVersion
1070
     0
  0
VISUALSTYLE
  5
132CF
102
{ACAD_REACTORS
330
132BF
102
}
330
132BF
100
AcDbVisualStyle
  2
ColorChange
 70
    16
 71
     2
 72
     2
 73
     3
 90
        0
 40
-0.6
 41
-30.0
 62
     5
 63
     8
 74
     1
 91
        4
 64
     7
 65
   257
 75
     1
175
     1
 42
1.0
 92
        8
 66
     8
 43
1.0
 76
     1
 77
     6
 78
     2
 67
     7
 79
     5
170
     0
171
     0
290
     0
174
     0
 93
        1
 44
0.0
173
     0
291
     1
 45
0.0
1001
ACAD
1000
AcDbSavedByObjectVersion
1070
     0
  0
VISUALSTYLE
  5
132CA
102
{ACAD_REACTORS
330
132BF
102
}
330
132BF
100
AcDbVisualStyle
  2
Dim
 70
    11
 71
     2
 72
     2
 73
     0
 90
        0
 40
-0.6
 41
-30.0
 62
     5
 63
     7
 74
     1
 91
        4
 64
     7
 65
   257
 75
     1
175
     1
 42
1.0
 92
        8
 66
     7
 43
1.0
 76
     1
 77
     6
 78
     2
 67
     7
 79
     5
170
     0
171
     0
290
     0
174
     0
 93
        1
 44
-50.0
173
     0
291
     1
 45
0.0
1001
ACAD
1000
AcDbSavedByObjectVersion
1070
     0
  0
VISUALSTYLE
  5
132CE
102
{ACAD_REACTORS
330
132BF
102
}
330
132BF
100
AcDbVisualStyle
  2
Facepattern
 70
    15
 71
     2
 72
     2
 73
     0
 90
        0
 40
-0.6
 41
-30.0
 62
     5
 63
     7
 74
     1
 91
        4
 64
     7
 65
   257
 75
     1
175
     1
 42
1.0
 92
        8
 66
     7
 43
1.0
 76
     1
 77
     6
 78
     2
 67
     7
 79
     5
170
     0
171
     0
290
     0
174
     0
 93
        1
 44
0.0
173
     0
291
     1
 45
0.0
1001
ACAD
1000
AcDbSavedByObjectVersion
1070
     0
  0
VISUALSTYLE
  5
132C0
102
{ACAD_REACTORS
330
132BF
102
}
330
132BF
100
AcDbVisualStyle
  2
Flat
 70
     0
 71
     2
 72
     1
 73
     1
 90
        2
 40
-0.6
 41
30.0
 62
     5
 63
     7
 74
     0
 91
        4
 64
     7
 65
   257
 75
     1
175
     1
 42
1.0
 92
        8
 66
     7
 43
1.0
 76
     1
 77
     6
 78
     2
 67
     7
 79
     5
170
     0
171
     0
290
     0
174
     0
 93
       13
 44
0.0
173
     0
291
     1
 45
0.0
1001
ACAD
1000
AcDbSavedByObjectVersion
1070
     0
  0
VISUALSTYLE
  5
132C1
102
{ACAD_REACTORS
330
132BF
102
}
330
132BF
100
AcDbVisualStyle
  2
FlatWithEdges
 70
     1
 71
     2
 72
     1
 73
     1
 90
        2
 40
-0.6
 41
30.0
 62
     5
 63
     7
 74
     1
 91
        4
 64
     7
 65
   257
 75
     1
175
     1
 42
1.0
 92
        0
 66
   257
 43
1.0
 76
     1
 77
     6
 78
     2
 67
     7
 79
     5
170
     0
171
     0
290
     0
174
     0
 93
       13
 44
0.0
173
     0
291
     1
 45
0.0
1001
ACAD
1000
AcDbSavedByObjectVersion
1070
     0
  0
VISUALSTYLE
  5
132C2
102
{ACAD_REACTORS
330
132BF
102
}
330
132BF
100
AcDbVisualStyle
  2
Gouraud
 70
     2
 71
     2
 72
     2
 73
     1
 90
        2
 40
-0.6
 41
30.0
 62
     5
 63
     7
 74
     0
 91
        4
 64
     7
 65
   257
 75
     1
175
     1
 42
1.0
 92
        0
 66
     7
 43
1.0
 76
     1
 77
     6
 78
     2
 67
     7
 79
     5
170
     0
171
     0
290
     0
174
     0
 93
       13
 44
0.0
173
     0
291
     1
 45
0.0
1001
ACAD
1000
AcDbSavedByObjectVersion
1070
     0
  0
VISUALSTYLE
  5
132C3
102
{ACAD_REACTORS
330
132BF
102
}
330
132BF
100
AcDbVisualStyle
  2
GouraudWithEdges
 70
     3
 71
     2
 72
     2
 73
     1
 90
        2
 40
-0.6
 41
30.0
 62
     5
 63
     7
 74
     1
 91
        4
 64
     7
 65
   257
 75
     1
175
     1
 42
1.0
 92
        0
 66
   257
 43
1.0
 76
     1
 77
     6
 78
     2
 67
     7
 79
     5
170
     0
171
     0
290
     0
174
     0
 93
       13
 44
0.0
173
     0
291
     1
 45
0.0
1001
ACAD
1000
AcDbSavedByObjectVersion
1070
     0
  0
VISUALSTYLE
  5
132CD
102
{ACAD_REACTORS
330
132BF
102
}
330
132BF
100
AcDbVisualStyle
  2
Linepattern
 70
    14
 71
     2
 72
     2
 73
     0
 90
        0
 40
-0.6
 41
-30.0
 62
     5
 63
     7
 74
     1
 91
        4
 64
     7
 65
   257
 75
     7
175
     7
 42
1.0
 92
        8
 66
     7
 43
1.0
 76
     1
 77
     6
 78
     2
 67
     7
 79
     5
170
     0
171
     0
290
     0
174
     0
 93
        1
 44
0.0
173
     0
291
     1
 45
0.0
1001
ACAD
1000
AcDbSavedByObjectVersion
1070
     0
  0
VISUALSTYLE
  5
132C9
102
{ACAD_REACTORS
330
132BF
102
}
330
132BF
100
AcDbVisualStyle
  2
Realistic
 70
     8
 71
     2
 72
     2
 73
     0
 90
        0
 40
-0.6
 41
-30.0
 62
     5
 63
     7
 74
     1
 91
        0
 64
     7
 65
   257
 75
     1
175
     1
 42
1.0
 92
        8
 66
     8
 43
1.0
 76
     1
 77
     6
 78
     2
 67
     7
 79
     5
170
     0
171
     0
290
     0
174
     0
 93
       13
 44
0.0
173
     0
291
     0
 45
0.0
1001
ACAD
1000
AcDbSavedByObjectVersion
1070
     0
  0
VISUALSTYLE
  5
132CC
102
{ACAD_REACTORS
330
132BF
102
}
330
132BF
100
AcDbVisualStyle
  2
Thicken
 70
    13
 71
     2
 72
     2
 73
     0
 90
        0
 40
-0.6
 41
-30.0
 62
     5
 63
     7
 74
     1
 91
        4
 64
     7
 65
   257
 75
     1
175
     1
 42
1.0
 92
       12
 66
     7
 43
1.0
 76
     1
 77
     6
 78
     2
 67
     7
 79
     5
170
     0
171
     0
290
     0
174
     0
 93
        1
 44
0.0
173
     0
291
     1
 45
0.0
1001
ACAD
1000
AcDbSavedByObjectVersion
1070
     0
  0
DICTIONARYVAR
  5
132D3
102
{ACAD_REACTORS
330
5E
102
}
330
5E
100
DictionaryVariables
280
     0
  1
STANDARD
  0
DICTIONARYVAR
  5
5F
102
{ACAD_REACTORS
330
5E
102
}
330
5E
100
DictionaryVariables
280
     0
  1
2
  0
DICTIONARYVAR
  5
63
102
{ACAD_REACTORS
330
5E
102
}
330
5E
100
DictionaryVariables
280
     0
  1
1
  0
DICTIONARYVAR
  5
1386A
102
{ACAD_REACTORS
330
5E
102
}
330
5E
100
DictionaryVariables
280
     0
  1
0
  0
DICTIONARYVAR
  5
876
102
{ACAD_REACTORS
330
5E
102
}
330
5E
100
DictionaryVariables
280
     0
  1

  0
DICTIONARYVAR
  5
13869
102
{ACAD_REACTORS
330
5E
102
}
330
5E
100
DictionaryVariables
280
     0
  1
127
  0
DICTIONARY
  5
1387D
330
51
100
AcDbDictionary
280
     1
281
     1
  3
ACAD_XREC_ROUNDTRIP
360
1387E
  0
DICTIONARY
  5
1387F
330
56
100
AcDbDictionary
280
     1
281
     1
  3
ACAD_XREC_ROUNDTRIP
360
13880
  0
DICTIONARY
  5
1387B
330
22
100
AcDbDictionary
280
     1
281
     1
  3
ACAD_XREC_ROUNDTRIP
360
1387C
  0
DICTIONARY
  5
13883
330
132BD
100
AcDbDictionary
280
     1
281
     1
  3
ACAD_XREC_ROUNDTRIP
360
13884
  0
DICTIONARY
  5
13881
330
132BC
100
AcDbDictionary
280
     1
281
     1
  3
ACAD_XREC_ROUNDTRIP
360
13882
  0
DICTIONARY
  5
13885
330
132BE
100
AcDbDictionary
280
     1
281
     1
  3
ACAD_XREC_ROUNDTRIP
360
13886
  0
DICTIONARY
  5
13887
330
132D1
100
AcDbDictionary
280
     1
281
     1
  3
ACAD_XREC_ROUNDTRIP
360
13888
  0
XRECORD
  5
1387E
102
{ACAD_REACTORS
330
1387D
102
}
330
1387D
100
AcDbXrecord
280
     1
102
SHADEPLOT
 70
     0
102
SHADEPLOTRESLEVEL
 70
     2
102
SHADEPLOTCUSTOMDPI
 70
   300
  0
XRECORD
  5
13880
102
{ACAD_REACTORS
330
1387F
102
}
330
1387F
100
AcDbXrecord
280
     1
102
SHADEPLOT
 70
     0
102
SHADEPLOTRESLEVEL
 70
     2
102
SHADEPLOTCUSTOMDPI
 70
   300
  0
XRECORD
  5
1387C
102
{ACAD_REACTORS
330
1387B
102
}
330
1387B
100
AcDbXrecord
280
     1
102
SHADEPLOT
 70
     0
102
SHADEPLOTRESLEVEL
 70
     2
102
SHADEPLOTCUSTOMDPI
 70
   300
  0
XRECORD
  5
13884
102
{ACAD_REACTORS
330
13883
102
}
330
13883
100
AcDbXrecord
280
     1
102
MATERIAL
148
0.0
149
0.0
149
0.0
 93
        0
 94
       63
282
     0
 72
     1
 77
     1
171
     1
175
     1
179
     1
273
     0
  0
XRECORD
  5
13882
102
{ACAD_REACTORS
330
13881
102
}
330
13881
100
AcDbXrecord
280
     1
102
MATERIAL
148
0.0
149
0.0
149
0.0
 93
        0
 94
       63
282
     0
 72
     1
 77
     1
171
     1
175
     1
179
     1
273
     0
  0
XRECORD
  5
13886
102
{ACAD_REACTORS
330
13885
102
}
330
13885
100
AcDbXrecord
280
     1
102
MATERIAL
148
0.0
149
0.0
149
0.0
 93
        0
 94
       63
282
     0
 72
     1
 77
     1
171
     1
175
     1
179
     1
273
     0
  0
XRECORD
  5
13888
102
{ACAD_REACTORS
330
13887
102
}
330
13887
100
AcDbXrecord
280
     1
102
ACAD_ROUNDTRIP_PRE2007_TABLESTYLE
 90
      512
 91
        0
  1

 92
      512
 93
        0
  2

 94
      512
 95
        0
  3

  0
ENDSEC
  0
EOF
