  0
SECTION
  2
HEADER
  9
$ACADVER
  1
AC1015
  9
$ACADMAINTVER
 70
    20
  9
$DWGCODEPAGE
  3
ANSI_1252
  9
$INSBASE
 10
0.0
 20
0.0
 30
0.0
  9
$EXTMIN
 10
-7.764982259430553
 20
50.20394972456142
 30
-1.000019060097843
  9
$EXTMAX
 10
262.2439982591725
 20
250.2402655296496
 30
0.2500190775612054
  9
$LIMMIN
 10
0.0
 20
0.0
  9
$LIMMAX
 10
420.0
 20
297.0
  9
$ORTHOMODE
 70
     0
  9
$REGENMODE
 70
     1
  9
$FILLMODE
 70
     1
  9
$QTEXTMODE
 70
     0
  9
$MIRRTEXT
 70
     0
  9
$LTSCALE
 40
1.0
  9
$ATTMODE
 70
     1
  9
$TEXTSIZE
 40
2.5
  9
$TRACEWID
 40
1.0
  9
$TEXTSTYLE
  7
Standard
  9
$CLAYER
  8
0
  9
$CELTYPE
  6
ByLayer
  9
$CECOLOR
 62
   256
  9
$CELTSCALE
 40
1.0
  9
$DISPSILH
 70
     0
  9
$DIMSCALE
 40
1.0
  9
$DIMASZ
 40
2.5
  9
$DIMEXO
 40
0.625
  9
$DIMDLI
 40
3.75
  9
$DIMRND
 40
0.0
  9
$DIMDLE
 40
0.0
  9
$DIMEXE
 40
1.25
  9
$DIMTP
 40
0.0
  9
$DIMTM
 40
0.0
  9
$DIMTXT
 40
2.5
  9
$DIMCEN
 40
2.5
  9
$DIMTSZ
 40
0.0
  9
$DIMTOL
 70
     0
  9
$DIMLIM
 70
     0
  9
$DIMTIH
 70
     0
  9
$DIMTOH
 70
     0
  9
$DIMSE1
 70
     0
  9
$DIMSE2
 70
     0
  9
$DIMTAD
 70
     1
  9
$DIMZIN
 70
     8
  9
$DIMBLK
  1

  9
$DIMASO
 70
     1
  9
$DIMSHO
 70
     1
  9
$DIMPOST
  1

  9
$DIMAPOST
  1

  9
$DIMALT
 70
     0
  9
$DIMALTD
 70
     3
  9
$DIMALTF
 40
0.03937007874016
  9
$DIMLFAC
 40
1.0
  9
$DIMTOFL
 70
     1
  9
$DIMTVP
 40
0.0
  9
$DIMTIX
 70
     0
  9
$DIMSOXD
 70
     0
  9
$DIMSAH
 70
     0
  9
$DIMBLK1
  1

  9
$DIMBLK2
  1

  9
$DIMSTYLE
  2
ISO-25
  9
$DIMCLRD
 70
     0
  9
$DIMCLRE
 70
     0
  9
$DIMCLRT
 70
     0
  9
$DIMTFAC
 40
1.0
  9
$DIMGAP
 40
0.625
  9
$DIMJUST
 70
     0
  9
$DIMSD1
 70
     0
  9
$DIMSD2
 70
     0
  9
$DIMTOLJ
 70
     0
  9
$DIMTZIN
 70
     8
  9
$DIMALTZ
 70
     0
  9
$DIMALTTZ
 70
     0
  9
$DIMUPT
 70
     0
  9
$DIMDEC
 70
     2
  9
$DIMTDEC
 70
     2
  9
$DIMALTU
 70
     2
  9
$DIMALTTD
 70
     3
  9
$DIMTXSTY
  7
Standard
  9
$DIMAUNIT
 70
     0
  9
$DIMADEC
 70
     0
  9
$DIMALTRND
 40
0.0
  9
$DIMAZIN
 70
     0
  9
$DIMDSEP
 70
    44
  9
$DIMATFIT
 70
     3
  9
$DIMFRAC
 70
     0
  9
$DIMLDRBLK
  1

  9
$DIMLUNIT
 70
     2
  9
$DIMLWD
 70
    -2
  9
$DIMLWE
 70
    -2
  9
$DIMTMOVE
 70
     0
  9
$LUNITS
 70
     2
  9
$LUPREC
 70
     4
  9
$SKETCHINC
 40
1.0
  9
$FILLETRAD
 40
10.0
  9
$AUNITS
 70
     0
  9
$AUPREC
 70
     0
  9
$MENU
  1
.
  9
$ELEVATION
 40
0.0
  9
$PELEVATION
 40
0.0
  9
$THICKNESS
 40
0.0
  9
$LIMCHECK
 70
     0
  9
$CHAMFERA
 40
10.0
  9
$CHAMFERB
 40
10.0
  9
$CHAMFERC
 40
20.0
  9
$CHAMFERD
 40
0.0
  9
$SKPOLY
 70
     0
  9
$TDCREATE
 40
2453200.479237720
  9
$TDUCREATE
 40
2453200.437571053
  9
$TDUPDATE
 40
2453434.506064861
  9
$TDUUPDATE
 40
2453434.464398195
  9
$TDINDWG
 40
0.8542315162
  9
$TDUSRTIMER
 40
0.8542060069
  9
$USRTIMER
 70
     1
  9
$ANGBASE
 50
0.0
  9
$ANGDIR
 70
     0
  9
$PDMODE
 70
     0
  9
$PDSIZE
 40
0.0
  9
$PLINEWID
 40
0.0
  9
$SPLFRAME
 70
     0
  9
$SPLINETYPE
 70
     6
  9
$SPLINESEGS
 70
     8
  9
$HANDSEED
  5
1336C
  9
$SURFTAB1
 70
     6
  9
$SURFTAB2
 70
     6
  9
$SURFTYPE
 70
     6
  9
$SURFU
 70
     6
  9
$SURFV
 70
     6
  9
$UCSBASE
  2

  9
$UCSNAME
  2

  9
$UCSORG
 10
0.0
 20
0.0
 30
0.0
  9
$UCSXDIR
 10
1.0
 20
0.0
 30
0.0
  9
$UCSYDIR
 10
0.0
 20
1.0
 30
0.0
  9
$UCSORTHOREF
  2

  9
$UCSORTHOVIEW
 70
     0
  9
$UCSORGTOP
 10
0.0
 20
0.0
 30
0.0
  9
$UCSORGBOTTOM
 10
0.0
 20
0.0
 30
0.0
  9
$UCSORGLEFT
 10
0.0
 20
0.0
 30
0.0
  9
$UCSORGRIGHT
 10
0.0
 20
0.0
 30
0.0
  9
$UCSORGFRONT
 10
0.0
 20
0.0
 30
0.0
  9
$UCSORGBACK
 10
0.0
 20
0.0
 30
0.0
  9
$PUCSBASE
  2

  9
$PUCSNAME
  2

  9
$PUCSORG
 10
0.0
 20
0.0
 30
0.0
  9
$PUCSXDIR
 10
1.0
 20
0.0
 30
0.0
  9
$PUCSYDIR
 10
0.0
 20
1.0
 30
0.0
  9
$PUCSORTHOREF
  2

  9
$PUCSORTHOVIEW
 70
     0
  9
$PUCSORGTOP
 10
0.0
 20
0.0
 30
0.0
  9
$PUCSORGBOTTOM
 10
0.0
 20
0.0
 30
0.0
  9
$PUCSORGLEFT
 10
0.0
 20
0.0
 30
0.0
  9
$PUCSORGRIGHT
 10
0.0
 20
0.0
 30
0.0
  9
$PUCSORGFRONT
 10
0.0
 20
0.0
 30
0.0
  9
$PUCSORGBACK
 10
0.0
 20
0.0
 30
0.0
  9
$USERI1
 70
     0
  9
$USERI2
 70
     0
  9
$USERI3
 70
     0
  9
$USERI4
 70
     0
  9
$USERI5
 70
     0
  9
$USERR1
 40
0.0
  9
$USERR2
 40
0.0
  9
$USERR3
 40
0.0
  9
$USERR4
 40
0.0
  9
$USERR5
 40
0.0
  9
$WORLDVIEW
 70
     1
  9
$SHADEDGE
 70
     3
  9
$SHADEDIF
 70
    70
  9
$TILEMODE
 70
     1
  9
$MAXACTVP
 70
    64
  9
$PINSBASE
 10
0.0
 20
0.0
 30
0.0
  9
$PLIMCHECK
 70
     0
  9
$PEXTMIN
 10
0.0
 20
0.0
 30
0.0
  9
$PEXTMAX
 10
0.0
 20
0.0
 30
0.0
  9
$PLIMMIN
 10
0.0
 20
0.0
  9
$PLIMMAX
 10
12.0
 20
9.0
  9
$UNITMODE
 70
     0
  9
$VISRETAIN
 70
     1
  9
$PLINEGEN
 70
     0
  9
$PSLTSCALE
 70
     1
  9
$TREEDEPTH
 70
  3020
  9
$CMLSTYLE
  2
Standard
  9
$CMLJUST
 70
     0
  9
$CMLSCALE
 40
20.0
  9
$PROXYGRAPHICS
 70
     1
  9
$MEASUREMENT
 70
     1
  9
$CELWEIGHT
370
    -1
  9
$ENDCAPS
280
     0
  9
$JOINSTYLE
280
     0
  9
$LWDISPLAY
290
     0
  9
$INSUNITS
 70
     4
  9
$HYPERLINKBASE
  1

  9
$STYLESHEET
  1

  9
$XEDIT
290
     1
  9
$CEPSNTYPE
380
     0
  9
$PSTYLEMODE
290
     1
  9
$FINGERPRINTGUID
  2
{FDEAD578-A652-11D2-9A35-0060089B3A3F}
  9
$VERSIONGUID
  2
{92E5DE49-2803-42FB-84F2-30FF6C0981A0}
  9
$EXTNAMES
290
     1
  9
$PSVPSCALE
 40
0.0
  9
$OLESTARTUP
290
     0
  0
ENDSEC
  0
SECTION
  2
CLASSES
  0
CLASS
  1
ACDBDICTIONARYWDFLT
  2
AcDbDictionaryWithDefault
  3
ObjectDBX Classes
 90
        0
280
     0
281
     0
  0
CLASS
  1
DICTIONARYVAR
  2
AcDbDictionaryVar
  3
ObjectDBX Classes
 90
        0
280
     0
281
     0
  0
CLASS
  1
DIMASSOC
  2
AcDbDimAssoc
  3
"AcDbDimAssoc|Product Desc:     AcDim ARX App For Dimension|Company:          Autodesk, Inc.|WEB Address:      www.autodesk.com"
 90
    32768
280
     0
281
     0
  0
CLASS
  1
ACDBPLACEHOLDER
  2
AcDbPlaceHolder
  3
ObjectDBX Classes
 90
        0
280
     0
281
     0
  0
CLASS
  1
LAYOUT
  2
AcDbLayout
  3
ObjectDBX Classes
 90
        0
280
     0
281
     0
  0
ENDSEC
  0
SECTION
  2
TABLES
  0
TABLE
  2
VPORT
  5
8
330
0
100
AcDbSymbolTable
 70
     2
  0
VPORT
  5
13361
330
8
100
AcDbSymbolTableRecord
100
AcDbViewportTableRecord
  2
*Active
 70
     0
 10
0.0
 20
0.0
 11
1.0
 21
1.0
 12
127.2321231986323
 22
150.2221076271055
 13
0.0
 23
0.0
 14
10.0
 24
10.0
 15
10.0
 25
10.0
 16
0.0
 26
0.0
 36
1.0
 17
0.0
 27
0.0
 37
0.0
 40
201.5517424399752
 41
1.558786346396965
 42
50.0
 43
0.0
 44
0.0
 50
0.0
 51
0.0
 71
     0
 72
  1000
 73
     1
 74
     3
 75
     0
 76
     0
 77
     0
 78
     0
281
     0
 65
     1
110
0.0
120
0.0
130
0.0
111
1.0
121
0.0
131
0.0
112
0.0
122
1.0
132
0.0
 79
     0
146
0.0
  0
ENDTAB
  0
TABLE
  2
LTYPE
  5
5
330
0
100
AcDbSymbolTable
 70
     3
  0
LTYPE
  5
14
330
5
100
AcDbSymbolTableRecord
100
AcDbLinetypeTableRecord
  2
ByBlock
 70
     0
  3

 72
    65
 73
     0
 40
0.0
  0
LTYPE
  5
15
330
5
100
AcDbSymbolTableRecord
100
AcDbLinetypeTableRecord
  2
ByLayer
 70
     0
  3

 72
    65
 73
     0
 40
0.0
  0
LTYPE
  5
16
330
5
100
AcDbSymbolTableRecord
100
AcDbLinetypeTableRecord
  2
Continuous
 70
     0
  3
Solid line
 72
    65
 73
     0
 40
0.0
  0
LTYPE
  5
118
330
5
100
AcDbSymbolTableRecord
100
AcDbLinetypeTableRecord
  2
CENTER
 70
     0
  3
____ _ ____ _ ____ _ ____ _ ____ _ ____ _ ____
 72
    65
 73
     4
 40
0.6
 49
0.375
 74
     0
 49
-0.075
 74
     0
 49
0.075
 74
     0
 49
-0.075
 74
     0
  0
LTYPE
  5
127D2
330
5
100
AcDbSymbolTableRecord
100
AcDbLinetypeTableRecord
  2
HIDDEN
 70
     0
  3
_ 
 72
    65
 73
     2
 40
4.5
 49
3.0
 74
     0
 49
-1.5
 74
     0
  0
ENDTAB
  0
TABLE
  2
LAYER
  5
2
330
0
100
AcDbSymbolTable
 70
     8
  0
LAYER
  5
10
330
2
100
AcDbSymbolTableRecord
100
AcDbLayerTableRecord
  2
0
 70
     0
 62
     7
  6
Continuous
370
    -3
390
F
  0
LAYER
  5
119
330
2
100
AcDbSymbolTableRecord
100
AcDbLayerTableRecord
  2
Defpoints
 70
     0
 62
     7
  6
Continuous
290
     0
370
    -3
390
F
  0
LAYER
  5
11A
330
2
100
AcDbSymbolTableRecord
100
AcDbLayerTableRecord
  2
91000_TIP
 70
     0
 62
     7
  6
Continuous
370
    -3
390
F
  0
LAYER
  5
11B
330
2
100
AcDbSymbolTableRecord
100
AcDbLayerTableRecord
  2
11000_Left
 70
     0
 62
     7
  6
Continuous
370
    -3
390
F
  0
LAYER
  5
11C
330
2
100
AcDbSymbolTableRecord
100
AcDbLayerTableRecord
  2
10000_FRONT
 70
     0
 62
     7
  6
Continuous
370
    -3
390
F
  0
LAYER
  5
11D
330
2
100
AcDbSymbolTableRecord
100
AcDbLayerTableRecord
  2
10100_FRONT_DIM
 70
     0
 62
     7
  6
Continuous
370
    -3
390
F
  0
LAYER
  5
11E
330
2
100
AcDbSymbolTableRecord
100
AcDbLayerTableRecord
  2
90000_FRAME
 70
     0
 62
     7
  6
Continuous
370
    -3
390
F
  0
LAYER
  5
11F
330
2
100
AcDbSymbolTableRecord
100
AcDbLayerTableRecord
  2
11100_LEFT_DIM
 70
     0
 62
     7
  6
Continuous
370
    -3
390
F
  0
ENDTAB
  0
TABLE
  2
STYLE
  5
3
330
0
100
AcDbSymbolTable
 70
     1
  0
STYLE
  5
11
330
3
100
AcDbSymbolTableRecord
100
AcDbTextStyleTableRecord
  2
Standard
 70
     0
 40
0.0
 41
1.0
 50
0.0
 71
     0
 42
2.5
  3
txt
  4

  0
ENDTAB
  0
TABLE
  2
VIEW
  5
6
330
0
100
AcDbSymbolTable
 70
     0
  0
ENDTAB
  0
TABLE
  2
UCS
  5
7
330
0
100
AcDbSymbolTable
 70
     0
  0
ENDTAB
  0
TABLE
  2
APPID
  5
9
330
0
100
AcDbSymbolTable
 70
     3
  0
APPID
  5
12
330
9
100
AcDbSymbolTableRecord
100
AcDbRegAppTableRecord
  2
ACAD
 70
     0
  0
APPID
  5
121
330
9
100
AcDbSymbolTableRecord
100
AcDbRegAppTableRecord
  2
AUSTER_ANSICHT
 70
     0
  0
APPID
  5
122
330
9
100
AcDbSymbolTableRecord
100
AcDbRegAppTableRecord
  2
AUSTER_FOLIE
 70
     0
  0
ENDTAB
  0
TABLE
  2
DIMSTYLE
  5
A
330
0
100
AcDbSymbolTable
 70
     3
100
AcDbDimStyleTable
 71
     2
340
120
340
27
  0
DIMSTYLE
105
27
330
A
100
AcDbSymbolTableRecord
100
AcDbDimStyleTableRecord
  2
ISO-25
 70
     0
 41
2.5
 42
0.625
 43
3.75
 44
1.25
 73
     0
 74
     0
 77
     1
 78
     8
140
2.5
141
2.5
143
0.03937007874016
147
0.625
171
     3
172
     1
271
     2
272
     2
274
     3
278
    44
283
     0
284
     8
340
11
  0
DIMSTYLE
105
120
102
{ACAD_REACTORS
330
12B32
330
12B33
330
12B36
330
12B35
330
12B34
330
12B2D
330
12B3A
330
12B31
330
12B30
330
12B2F
330
12B39
330
12B37
330
131A4
102
}
330
A
100
AcDbSymbolTableRecord
100
AcDbDimStyleTableRecord
  2
DSTYLE1
 70
     0
 41
3.0
 42
0.0
 44
1.0
 73
     0
 74
     0
 77
     1
 78
     3
140
2.5
143
0.039370079
147
1.0
271
     3
272
     3
274
     0
279
     2
340
11
  0
DIMSTYLE
105
11E6E
330
A
100
AcDbSymbolTableRecord
100
AcDbDimStyleTableRecord
  2
STANDARD
 70
     0
340
11
  0
ENDTAB
  0
TABLE
  2
BLOCK_RECORD
  5
1
330
0
100
AcDbSymbolTable
 70
    15
  0
BLOCK_RECORD
  5
1F
330
1
100
AcDbSymbolTableRecord
100
AcDbBlockTableRecord
  2
*Model_Space
340
22
  0
BLOCK_RECORD
  5
50
330
1
100
AcDbSymbolTableRecord
100
AcDbBlockTableRecord
  2
*Paper_Space
340
51
  0
BLOCK_RECORD
  5
55
330
1
100
AcDbSymbolTableRecord
100
AcDbBlockTableRecord
  2
*Paper_Space0
340
56
  0
BLOCK_RECORD
  5
86
330
1
100
AcDbSymbolTableRecord
100
AcDbBlockTableRecord
  2
SIEMENS_OUTLINE_BL0
340
0
102
{BLKREFS
331
C5B
102
}
  0
BLOCK_RECORD
  5
12E77
330
1
100
AcDbSymbolTableRecord
100
AcDbBlockTableRecord
  2
*D2
340
0
  0
BLOCK_RECORD
  5
12E91
330
1
100
AcDbSymbolTableRecord
100
AcDbBlockTableRecord
  2
*D3
340
0
  0
BLOCK_RECORD
  5
12E9E
330
1
100
AcDbSymbolTableRecord
100
AcDbBlockTableRecord
  2
*D4
340
0
  0
BLOCK_RECORD
  5
12EAB
330
1
100
AcDbSymbolTableRecord
100
AcDbBlockTableRecord
  2
*D5
340
0
  0
BLOCK_RECORD
  5
12EB9
330
1
100
AcDbSymbolTableRecord
100
AcDbBlockTableRecord
  2
*D6
340
0
  0
BLOCK_RECORD
  5
12EC6
330
1
100
AcDbSymbolTableRecord
100
AcDbBlockTableRecord
  2
*D7
340
0
  0
BLOCK_RECORD
  5
12ED3
330
1
100
AcDbSymbolTableRecord
100
AcDbBlockTableRecord
  2
*D8
340
0
  0
BLOCK_RECORD
  5
12EDF
330
1
100
AcDbSymbolTableRecord
100
AcDbBlockTableRecord
  2
*D9
340
0
  0
BLOCK_RECORD
  5
12EEA
330
1
100
AcDbSymbolTableRecord
100
AcDbBlockTableRecord
  2
*D10
340
0
  0
BLOCK_RECORD
  5
12EF9
330
1
100
AcDbSymbolTableRecord
100
AcDbBlockTableRecord
  2
*D11
340
0
  0
BLOCK_RECORD
  5
12F13
330
1
100
AcDbSymbolTableRecord
100
AcDbBlockTableRecord
  2
*D12
340
0
  0
BLOCK_RECORD
  5
12F20
330
1
100
AcDbSymbolTableRecord
100
AcDbBlockTableRecord
  2
*D13
340
0
  0
BLOCK_RECORD
  5
131A5
330
1
100
AcDbSymbolTableRecord
100
AcDbBlockTableRecord
  2
*D14
340
0
  0
ENDTAB
  0
ENDSEC
  0
SECTION
  2
BLOCKS
  0
BLOCK
  5
20
330
1F
100
AcDbEntity
  8
0
100
AcDbBlockBegin
  2
*Model_Space
 70
     0
 10
0.0
 20
0.0
 30
0.0
  3
*Model_Space
  1

  0
ENDBLK
  5
21
330
1F
100
AcDbEntity
  8
0
100
AcDbBlockEnd
  0
BLOCK
  5
52
330
50
100
AcDbEntity
 67
     1
  8
0
100
AcDbBlockBegin
  2
*Paper_Space
 70
     0
 10
0.0
 20
0.0
 30
0.0
  3
*Paper_Space
  1

  0
ENDBLK
  5
53
330
50
100
AcDbEntity
 67
     1
  8
0
100
AcDbBlockEnd
  0
BLOCK
  5
57
330
55
100
AcDbEntity
  8
0
100
AcDbBlockBegin
  2
*Paper_Space0
 70
     0
 10
0.0
 20
0.0
 30
0.0
  3
*Paper_Space0
  1

  0
ENDBLK
  5
58
330
55
100
AcDbEntity
  8
0
100
AcDbBlockEnd
  0
BLOCK
  5
87
330
86
100
AcDbEntity
  8
0
  6
Continuous
 62
     7
100
AcDbBlockBegin
  2
SIEMENS_OUTLINE_BL0
 70
     0
 10
0.0
 20
0.0
 30
0.0
  3
SIEMENS_OUTLINE_BL0
  1

  0
LINE
  5
88
330
86
100
AcDbEntity
  8
0
  6
Continuous
 62
     7
100
AcDbLine
 10
79.186200508
 20
21.4145478991
 30
0.0
 11
79.186200508
 21
16.6612788158
 31
0.0
  0
LINE
  5
89
330
86
100
AcDbEntity
  8
0
  6
Continuous
 62
     7
100
AcDbLine
 10
80.61218123299999
 20
21.4145478991
 30
0.0
 11
80.61218123299999
 21
16.6612788158
 31
0.0
  0
LINE
  5
8A
330
86
100
AcDbEntity
  8
0
  6
Continuous
 62
     7
100
AcDbLine
 10
79.186200508
 20
16.6612788158
 30
0.0
 11
80.61218123299999
 21
16.6612788158
 31
0.0
  0
LINE
  5
8B
330
86
100
AcDbEntity
  8
0
  6
Continuous
 62
     7
100
AcDbLine
 10
79.186200508
 20
21.4145478991
 30
0.0
 11
80.61218123299999
 21
21.4145478991
 31
0.0
  0
LINE
  5
8C
330
86
100
AcDbEntity
  8
0
  6
Continuous
 62
     7
100
AcDbLine
 10
81.7054331221
 20
21.4145478991
 30
0.0
 11
81.7054331221
 21
16.6612788158
 31
0.0
  0
LINE
  5
8D
330
86
100
AcDbEntity
  8
0
  6
Continuous
 62
     7
100
AcDbLine
 10
81.7054331221
 20
16.6612788158
 30
0.0
 11
85.2703849346
 21
16.6612788158
 31
0.0
  0
LINE
  5
8E
330
86
100
AcDbEntity
  8
0
  6
Continuous
 62
     7
100
AcDbLine
 10
85.2703849346
 20
17.56439994169999
 30
0.0
 11
83.0838811563
 21
17.56439994169999
 31
0.0
  0
LINE
  5
8F
330
86
100
AcDbEntity
  8
0
  6
Continuous
 62
     7
100
AcDbLine
 10
85.2703849346
 20
17.56439994169999
 30
0.0
 11
85.2703849346
 21
16.6612788158
 31
0.0
  0
LINE
  5
90
330
86
100
AcDbEntity
  8
0
  6
Continuous
 62
     7
100
AcDbLine
 10
85.2228522438
 20
21.4145478991
 30
0.0
 11
81.7054331221
 21
21.4145478991
 31
0.0
  0
LINE
  5
91
330
86
100
AcDbEntity
  8
0
  6
Continuous
 62
     7
100
AcDbLine
 10
85.2228522438
 20
20.5351931187
 30
0.0
 11
83.0838811563
 21
20.5351931187
 31
0.0
  0
LINE
  5
92
330
86
100
AcDbEntity
  8
0
  6
Continuous
 62
     7
100
AcDbLine
 10
85.2228522438
 20
21.4145478991
 30
0.0
 11
85.2228522438
 21
20.5351931187
 31
0.0
  0
LINE
  5
93
330
86
100
AcDbEntity
  8
0
  6
Continuous
 62
     7
100
AcDbLine
 10
84.9376560988
 20
18.68141817619999
 30
0.0
 11
83.0838811563
 21
18.68141817619999
 31
0.0
  0
LINE
  5
94
330
86
100
AcDbEntity
  8
0
  6
Continuous
 62
     7
100
AcDbLine
 10
84.9376560988
 20
19.46570757499999
 30
0.0
 11
84.9376560988
 21
18.68141817619999
 31
0.0
  0
LINE
  5
95
330
86
100
AcDbEntity
  8
0
  6
Continuous
 62
     7
100
AcDbLine
 10
84.9376560988
 20
19.46570757499999
 30
0.0
 11
83.0838811563
 21
19.46570757499999
 31
0.0
  0
LINE
  5
96
330
86
100
AcDbEntity
  8
0
  6
Continuous
 62
     7
100
AcDbLine
 10
83.0838811563
 20
20.5351931187
 30
0.0
 11
83.0838811563
 21
19.46570757499999
 31
0.0
  0
LINE
  5
97
330
86
100
AcDbEntity
  8
0
  6
Continuous
 62
     7
100
AcDbLine
 10
83.0838811563
 20
18.68141817619999
 30
0.0
 11
83.0838811563
 21
17.56439994169999
 31
0.0
  0
LINE
  5
98
330
86
100
AcDbEntity
  8
0
  6
Continuous
 62
     7
100
AcDbLine
 10
86.0784406788
 20
16.6612788158
 30
0.0
 11
86.0784406788
 21
21.4145478991
 31
0.0
  0
LINE
  5
99
330
86
100
AcDbEntity
  8
0
  6
Continuous
 62
     7
100
AcDbLine
 10
86.0784406788
 20
16.6612788158
 30
0.0
 11
87.02909449539999
 21
16.6612788158
 31
0.0
  0
LINE
  5
9A
330
86
100
AcDbEntity
  8
0
  6
Continuous
 62
     7
100
AcDbLine
 10
91.92496165120001
 20
21.4145478991
 30
0.0
 11
91.92496165120001
 21
16.6612788158
 31
0.0
  0
LINE
  5
9B
330
86
100
AcDbEntity
  8
0
  6
Continuous
 62
     7
100
AcDbLine
 10
91.92496165120001
 20
16.6612788158
 30
0.0
 11
90.54651361700001
 21
16.6612788158
 31
0.0
  0
LINE
  5
9C
330
86
100
AcDbEntity
  8
0
  6
Continuous
 62
     7
100
AcDbLine
 10
88.3600098387
 20
16.61374612499999
 30
0.0
 11
89.21559827370002
 21
16.61374612499999
 31
0.0
  0
LINE
  5
9D
330
86
100
AcDbEntity
  8
0
  6
Continuous
 62
     7
100
AcDbLine
 10
88.3600098387
 20
16.61374612499999
 30
0.0
 11
87.02909449539999
 21
19.7033710291
 31
0.0
  0
LINE
  5
9E
330
86
100
AcDbEntity
  8
0
  6
Continuous
 62
     7
100
AcDbLine
 10
87.02909449539999
 20
16.6612788158
 30
0.0
 11
87.02909449539999
 21
19.7033710291
 31
0.0
  0
LINE
  5
9F
330
86
100
AcDbEntity
  8
0
  6
Continuous
 62
     7
100
AcDbLine
 10
90.54651361700001
 20
19.75090372
 30
0.0
 11
89.21559827370002
 21
16.61374612499999
 31
0.0
  0
LINE
  5
A0
330
86
100
AcDbEntity
  8
0
  6
Continuous
 62
     7
100
AcDbLine
 10
87.78961754870001
 20
21.4145478991
 30
0.0
 11
86.0784406788
 21
21.4145478991
 31
0.0
  0
LINE
  5
A1
330
86
100
AcDbEntity
  8
0
  6
Continuous
 62
     7
100
AcDbLine
 10
91.92496165120001
 20
21.4145478991
 30
0.0
 11
90.2137847812
 21
21.4145478991
 31
0.0
  0
LINE
  5
A2
330
86
100
AcDbEntity
  8
0
  6
Continuous
 62
     7
100
AcDbLine
 10
87.78961754870001
 20
21.4145478991
 30
0.0
 11
89.0254675104
 21
18.51505375829999
 31
0.0
  0
LINE
  5
A3
330
86
100
AcDbEntity
  8
0
  6
Continuous
 62
     7
100
AcDbLine
 10
90.2137847812
 20
21.4145478991
 30
0.0
 11
89.0254675104
 21
18.51505375829999
 31
0.0
  0
LINE
  5
A4
330
86
100
AcDbEntity
  8
0
  6
Continuous
 62
     7
100
AcDbLine
 10
90.54651361700001
 20
19.75090372
 30
0.0
 11
90.54651361700001
 21
16.6612788158
 31
0.0
  0
LINE
  5
A5
330
86
100
AcDbEntity
  8
0
  6
Continuous
 62
     7
100
AcDbLine
 10
93.01821354030002
 20
21.4145478991
 30
0.0
 11
93.01821354030002
 21
16.6612788158
 31
0.0
  0
LINE
  5
A6
330
86
100
AcDbEntity
  8
0
  6
Continuous
 62
     7
100
AcDbLine
 10
93.01821354030002
 20
16.6612788158
 30
0.0
 11
96.5831653528
 21
16.6612788158
 31
0.0
  0
LINE
  5
A7
330
86
100
AcDbEntity
  8
0
  6
Continuous
 62
     7
100
AcDbLine
 10
96.5831653528
 20
17.56439994169999
 30
0.0
 11
94.3966615745
 21
17.56439994169999
 31
0.0
  0
LINE
  5
A8
330
86
100
AcDbEntity
  8
0
  6
Continuous
 62
     7
100
AcDbLine
 10
96.5831653528
 20
17.56439994169999
 30
0.0
 11
96.5831653528
 21
16.6612788158
 31
0.0
  0
LINE
  5
A9
330
86
100
AcDbEntity
  8
0
  6
Continuous
 62
     7
100
AcDbLine
 10
96.53563266200002
 20
21.4145478991
 30
0.0
 11
93.01821354030002
 21
21.4145478991
 31
0.0
  0
LINE
  5
AA
330
86
100
AcDbEntity
  8
0
  6
Continuous
 62
     7
100
AcDbLine
 10
96.53563266200002
 20
20.5351931187
 30
0.0
 11
94.3966615745
 21
20.5351931187
 31
0.0
  0
LINE
  5
AB
330
86
100
AcDbEntity
  8
0
  6
Continuous
 62
     7
100
AcDbLine
 10
96.53563266200002
 20
21.4145478991
 30
0.0
 11
96.53563266200002
 21
20.5351931187
 31
0.0
  0
LINE
  5
AC
330
86
100
AcDbEntity
  8
0
  6
Continuous
 62
     7
100
AcDbLine
 10
96.25043651700002
 20
18.68141817619999
 30
0.0
 11
94.3966615745
 21
18.68141817619999
 31
0.0
  0
LINE
  5
AD
330
86
100
AcDbEntity
  8
0
  6
Continuous
 62
     7
100
AcDbLine
 10
96.25043651700002
 20
19.46570757499999
 30
0.0
 11
96.25043651700002
 21
18.68141817619999
 31
0.0
  0
LINE
  5
AE
330
86
100
AcDbEntity
  8
0
  6
Continuous
 62
     7
100
AcDbLine
 10
96.25043651700002
 20
19.46570757499999
 30
0.0
 11
94.3966615745
 21
19.46570757499999
 31
0.0
  0
LINE
  5
AF
330
86
100
AcDbEntity
  8
0
  6
Continuous
 62
     7
100
AcDbLine
 10
94.3966615745
 20
20.5351931187
 30
0.0
 11
94.3966615745
 21
19.46570757499999
 31
0.0
  0
LINE
  5
B0
330
86
100
AcDbEntity
  8
0
  6
Continuous
 62
     7
100
AcDbLine
 10
94.3966615745
 20
18.68141817619999
 30
0.0
 11
94.3966615745
 21
17.56439994169999
 31
0.0
  0
LINE
  5
B1
330
86
100
AcDbEntity
  8
0
  6
Continuous
 62
     7
100
AcDbLine
 10
97.3674547515
 20
16.6612788158
 30
0.0
 11
97.3674547515
 21
21.4145478991
 31
0.0
  0
LINE
  5
B2
330
86
100
AcDbEntity
  8
0
  6
Continuous
 62
     7
100
AcDbLine
 10
101.5503315447999
 20
21.4145478991
 30
0.0
 11
101.5503315447999
 21
16.6612788158
 31
0.0
  0
LINE
  5
B3
330
86
100
AcDbEntity
  8
0
  6
Continuous
 62
     7
100
AcDbLine
 10
97.3674547515
 20
16.6612788158
 30
0.0
 11
98.3181085682
 21
16.6612788158
 31
0.0
  0
LINE
  5
B4
330
86
100
AcDbEntity
  8
0
  6
Continuous
 62
     7
100
AcDbLine
 10
101.5503315447999
 20
21.4145478991
 30
0.0
 11
100.5996777281999
 21
21.4145478991
 31
0.0
  0
LINE
  5
B5
330
86
100
AcDbEntity
  8
0
  6
Continuous
 62
     7
100
AcDbLine
 10
98.91226720360002
 20
21.4145478991
 30
0.0
 11
97.3674547515
 21
21.4145478991
 31
0.0
  0
LINE
  5
B6
330
86
100
AcDbEntity
  8
0
  6
Continuous
 62
     7
100
AcDbLine
 10
101.5503315447999
 20
16.6612788158
 30
0.0
 11
100.0292854381999
 21
16.6612788158
 31
0.0
  0
LINE
  5
B7
330
86
100
AcDbEntity
  8
0
  6
Continuous
 62
     7
100
AcDbLine
 10
100.0292854381999
 20
16.6612788158
 30
0.0
 11
98.3181085682
 21
19.7033710291
 31
0.0
  0
LINE
  5
B8
330
86
100
AcDbEntity
  8
0
  6
Continuous
 62
     7
100
AcDbLine
 10
98.91226720360002
 20
21.4145478991
 30
0.0
 11
100.5996777281999
 21
18.4675210675
 31
0.0
  0
LINE
  5
B9
330
86
100
AcDbEntity
  8
0
  6
Continuous
 62
     7
100
AcDbLine
 10
100.5996777281999
 20
21.4145478991
 30
0.0
 11
100.5996777281999
 21
18.4675210675
 31
0.0
  0
LINE
  5
BA
330
86
100
AcDbEntity
  8
0
  6
Continuous
 62
     7
100
AcDbLine
 10
98.3181085682
 20
16.6612788158
 30
0.0
 11
98.3181085682
 21
19.7033710291
 31
0.0
  0
LINE
  5
BB
330
86
100
AcDbEntity
  8
0
  6
Continuous
 62
     7
100
AcDbLine
 10
102.3583872889999
 20
16.75634419749999
 30
0.0
 11
102.3583872889999
 21
17.7069980142
 31
0.0
  0
LINE
  5
BC
330
86
100
AcDbEntity
  8
0
  6
Continuous
 62
     7
100
AcDbLine
 10
105.6856756473
 20
20.4163613916
 30
0.0
 11
105.6856756473
 21
21.36701520829999
 31
0.0
  0
ARC
  5
BD
330
86
100
AcDbEntity
  8
0
  6
Continuous
 62
     7
100
AcDbCircle
 10
104.063028414
 20
18.61843736089998
 30
0.0
 40
1.111619360599997
100
AcDbArc
 50
277.7099956934
 51
295.6884927745999
  0
ARC
  5
BE
330
86
100
AcDbEntity
  8
0
  6
Continuous
 62
     7
100
AcDbCircle
 10
104.3473383967
 20
17.8936115972
 30
0.0
 40
0.3401689265
100
AcDbArc
 50
305.503221255
 51
72.46528985229999
  0
ARC
  5
BF
330
86
100
AcDbEntity
  8
0
  6
Continuous
 62
     7
100
AcDbCircle
 10
103.7813445885999
 20
21.2953185068
 30
0.0
 40
4.756794641099999
100
AcDbArc
 50
252.5939200548001
 51
280.9816604255999
  0
ARC
  5
C0
330
86
100
AcDbEntity
  8
0
  6
Continuous
 62
     7
100
AcDbCircle
 10
104.2361799517
 20
18.6773047703
 30
0.0
 40
2.100726595299998
100
AcDbArc
 50
282.4058358519999
 51
311.8644433928
  0
ARC
  5
C1
330
86
100
AcDbEntity
  8
0
  6
Continuous
 62
     7
100
AcDbCircle
 10
103.9626156045999
 20
20.2856464918
 30
0.0
 40
0.3029626476
100
AcDbArc
 50
154.4400348282
 51
221.8201698800999
  0
ARC
  5
C2
330
86
100
AcDbEntity
  8
0
  6
Continuous
 62
     7
100
AcDbCircle
 10
104.0418367559
 20
20.2064253405
 30
0.0
 40
0.4103089737
100
AcDbArc
 50
102.8287828680999
 51
149.2259639003
  0
ARC
  5
C3
330
86
100
AcDbEntity
  8
0
  6
Continuous
 62
     7
100
AcDbCircle
 10
104.4588635915999
 20
18.46409001059999
 30
0.0
 40
2.201836557
100
AcDbArc
 50
84.0400061857
 51
103.3427657870999
  0
ARC
  5
C4
330
86
100
AcDbEntity
  8
0
  6
Continuous
 62
     7
100
AcDbCircle
 10
104.1178997669
 20
16.0467260867
 30
0.0
 40
4.642373736499997
100
AcDbArc
 50
70.2625858546
 51
82.95241863799999
  0
ARC
  5
C5
330
86
100
AcDbEntity
  8
0
  6
Continuous
 62
     7
100
AcDbCircle
 10
103.6038815646999
 20
20.7183489764
 30
0.0
 40
3.258755990899997
100
AcDbArc
 50
247.5300206145
 51
280.7579522143
  0
ARC
  5
C6
330
86
100
AcDbEntity
  8
0
  6
Continuous
 62
     7
100
AcDbCircle
 10
97.21891509270001
 20
2.4668290159
 30
0.0
 40
17.3316084133
100
AcDbArc
 50
65.34146746500001
 51
67.39977707359999
  0
ARC
  5
C7
330
86
100
AcDbEntity
  8
0
  6
Continuous
 62
     7
100
AcDbCircle
 10
108.0147774981
 20
28.259255379
 30
0.0
 40
10.6291642039
100
AcDbArc
 50
242.8620101252001
 51
247.1042029186
  0
ARC
  5
C8
330
86
100
AcDbEntity
  8
0
  6
Continuous
 62
     7
100
AcDbCircle
 10
104.1598762715
 20
20.725323882
 30
0.0
 40
2.166291629199998
100
AcDbArc
 50
227.3119280793999
 51
242.7040315235
  0
ARC
  5
C9
330
86
100
AcDbEntity
  8
0
  6
Continuous
 62
     7
100
AcDbCircle
 10
103.5558454618999
 20
20.0196462412
 30
0.0
 40
1.238521734
100
AcDbArc
 50
194.7952194236
 51
225.7176549047
  0
ARC
  5
CA
330
86
100
AcDbEntity
  8
0
  6
Continuous
 62
     7
100
AcDbCircle
 10
103.6180035961
 20
20.05986621039999
 30
0.0
 40
1.309092072899999
100
AcDbArc
 50
164.1974860461
 51
195.8025139539
  0
ARC
  5
CB
330
86
100
AcDbEntity
  8
0
  6
Continuous
 62
     7
100
AcDbCircle
 10
104.1750273167
 20
19.1715990505
 30
0.0
 40
2.366924815299999
100
AcDbArc
 50
86.22180229280001
 51
120.4272602309
  0
ARC
  5
CC
330
86
100
AcDbEntity
  8
0
  6
Continuous
 62
     7
100
AcDbCircle
 10
103.9061705341999
 20
12.4754312294
 30
0.0
 40
9.0679051661
100
AcDbArc
 50
78.68270492259998
 51
87.3147599624
  0
ARC
  5
CD
330
86
100
AcDbEntity
  8
0
  6
Continuous
 62
     7
100
AcDbCircle
 10
103.4501013557999
 20
20.1673739729
 30
0.0
 40
1.119747444
100
AcDbArc
 50
142.8139179029999
 51
167.1522951416999
  0
ARC
  5
CE
330
86
100
AcDbEntity
  8
0
  6
Continuous
 62
     7
100
AcDbCircle
 10
103.7954106973999
 20
19.86079227619999
 30
0.0
 40
1.580546684499998
100
AcDbArc
 50
121.2140948535
 51
141.5254768286
  0
ARC
  5
CF
330
86
100
AcDbEntity
  8
0
  6
Continuous
 62
     7
100
AcDbCircle
 10
104.372585063
 20
20.6718496049
 30
0.0
 40
0.8661276051999998
100
AcDbArc
 50
222.7760387596
 51
239.0362434679
  0
ARC
  5
D0
330
86
100
AcDbEntity
  8
0
  6
Continuous
 62
     7
100
AcDbCircle
 10
101.8658754847
 20
13.3415774063
 30
0.0
 40
6.858773576299999
100
AcDbArc
 50
59.90202725600001
 51
68.2036481279
  0
ARC
  5
D1
330
86
100
AcDbEntity
  8
0
  6
Continuous
 62
     7
100
AcDbCircle
 10
105.2743699785
 20
22.26746391349999
 30
0.0
 40
2.698741017099999
100
AcDbArc
 50
240.0481997804
 51
251.3779673736999
  0
ARC
  5
D2
330
86
100
AcDbEntity
  8
0
  6
Continuous
 62
     7
100
AcDbCircle
 10
104.6089128116999
 20
18.1105652982
 30
0.0
 40
1.4334474881
100
AcDbArc
 50
315.8904553224
 51
333.5229264372999
  0
ARC
  5
D3
330
86
100
AcDbEntity
  8
0
  6
Continuous
 62
     7
100
AcDbCircle
 10
104.6135510555
 20
18.057158148
 30
0.0
 40
1.406228711899998
100
AcDbArc
 50
335.3867972702
 51
24.39151194019999
  0
ARC
  5
D4
330
86
100
AcDbEntity
  8
0
  6
Continuous
 62
     7
100
AcDbCircle
 10
104.5413461519
 20
17.97930145619999
 30
0.0
 40
1.504702514799999
100
AcDbArc
 50
25.95629166050001
 51
59.4834829668
  0
LINE
  5
D5
330
86
100
AcDbEntity
  8
0
  6
Continuous
 62
     7
100
AcDbLine
 10
74.7656602606
 20
16.75634419749999
 30
0.0
 11
74.7656602606
 21
17.7069980142
 31
0.0
  0
LINE
  5
D6
330
86
100
AcDbEntity
  8
0
  6
Continuous
 62
     7
100
AcDbLine
 10
78.09294861879997
 20
20.4163613916
 30
0.0
 11
78.09294861879997
 21
21.36701520829999
 31
0.0
  0
ARC
  5
D7
330
86
100
AcDbEntity
  8
0
  6
Continuous
 62
     7
100
AcDbCircle
 10
76.4703013855
 20
18.61843736089998
 30
0.0
 40
1.111619360599997
100
AcDbArc
 50
277.7099956934
 51
295.6884927745999
  0
ARC
  5
D8
330
86
100
AcDbEntity
  8
0
  6
Continuous
 62
     7
100
AcDbCircle
 10
76.7546113683
 20
17.8936115972
 30
0.0
 40
0.3401689265
100
AcDbArc
 50
305.5032212556
 51
72.4652898515
  0
ARC
  5
D9
330
86
100
AcDbEntity
  8
0
  6
Continuous
 62
     7
100
AcDbCircle
 10
76.1886175602
 20
21.2953185068
 30
0.0
 40
4.756794641099999
100
AcDbArc
 50
252.5939200545
 51
280.9816604253
  0
ARC
  5
DA
330
86
100
AcDbEntity
  8
0
  6
Continuous
 62
     7
100
AcDbCircle
 10
76.64345292330001
 20
18.6773047703
 30
0.0
 40
2.100726595299998
100
AcDbArc
 50
282.4058358513
 51
311.8644433923
  0
ARC
  5
DB
330
86
100
AcDbEntity
  8
0
  6
Continuous
 62
     7
100
AcDbCircle
 10
76.3698885762
 20
20.2856464918
 30
0.0
 40
0.3029626476
100
AcDbArc
 50
154.4400348282
 51
221.8201698800999
  0
ARC
  5
DC
330
86
100
AcDbEntity
  8
0
  6
Continuous
 62
     7
100
AcDbCircle
 10
76.4491097276
 20
20.2064253405
 30
0.0
 40
0.4103089737
100
AcDbArc
 50
102.8287828727
 51
149.2259639027
  0
ARC
  5
DD
330
86
100
AcDbEntity
  8
0
  6
Continuous
 62
     7
100
AcDbCircle
 10
76.8661365632
 20
18.46409001059999
 30
0.0
 40
2.201836557
100
AcDbArc
 50
84.0400061859
 51
103.3427657871999
  0
ARC
  5
DE
330
86
100
AcDbEntity
  8
0
  6
Continuous
 62
     7
100
AcDbCircle
 10
76.5251727384
 20
16.0467260867
 30
0.0
 40
4.642373736499997
100
AcDbArc
 50
70.2625858546
 51
82.9524186379
  0
ARC
  5
DF
330
86
100
AcDbEntity
  8
0
  6
Continuous
 62
     7
100
AcDbCircle
 10
76.0111545363
 20
20.7183489764
 30
0.0
 40
3.258755990899997
100
AcDbArc
 50
247.5300206148
 51
280.7579522145
  0
ARC
  5
E0
330
86
100
AcDbEntity
  8
0
  6
Continuous
 62
     7
100
AcDbCircle
 10
69.6261880643
 20
2.4668290159
 30
0.0
 40
17.3316084133
100
AcDbArc
 50
65.34146746500001
 51
67.39977707359999
  0
ARC
  5
E1
330
86
100
AcDbEntity
  8
0
  6
Continuous
 62
     7
100
AcDbCircle
 10
80.4220504697
 20
28.259255379
 30
0.0
 40
10.6291642039
100
AcDbArc
 50
242.8620101252001
 51
247.1042029184999
  0
ARC
  5
E2
330
86
100
AcDbEntity
  8
0
  6
Continuous
 62
     7
100
AcDbCircle
 10
76.56714924310001
 20
20.725323882
 30
0.0
 40
2.166291629199998
100
AcDbArc
 50
227.3119280793999
 51
242.7040315235
  0
ARC
  5
E3
330
86
100
AcDbEntity
  8
0
  6
Continuous
 62
     7
100
AcDbCircle
 10
75.9631184335
 20
20.0196462412
 30
0.0
 40
1.238521734
100
AcDbArc
 50
194.7952194234
 51
225.7176549041999
  0
ARC
  5
E4
330
86
100
AcDbEntity
  8
0
  6
Continuous
 62
     7
100
AcDbCircle
 10
76.58230028830002
 20
19.1715990505
 30
0.0
 40
2.366924815299999
100
AcDbArc
 50
86.22180229280001
 51
120.4272602309
  0
ARC
  5
E5
330
86
100
AcDbEntity
  8
0
  6
Continuous
 62
     7
100
AcDbCircle
 10
76.3134435058
 20
12.4754312294
 30
0.0
 40
9.0679051661
100
AcDbArc
 50
78.68270492259998
 51
87.3147599624
  0
ARC
  5
E6
330
86
100
AcDbEntity
  8
0
  6
Continuous
 62
     7
100
AcDbCircle
 10
76.20268366899998
 20
19.86079227619999
 30
0.0
 40
1.580546684599998
100
AcDbArc
 50
121.2140948540999
 51
141.5254768289999
  0
ARC
  5
E7
330
86
100
AcDbEntity
  8
0
  6
Continuous
 62
     7
100
AcDbCircle
 10
76.7798580346
 20
20.6718496049
 30
0.0
 40
0.8661276051999998
100
AcDbArc
 50
222.7760387596
 51
239.0362434679
  0
ARC
  5
E8
330
86
100
AcDbEntity
  8
0
  6
Continuous
 62
     7
100
AcDbCircle
 10
74.2731484563
 20
13.3415774063
 30
0.0
 40
6.858773576299999
100
AcDbArc
 50
59.90202725620001
 51
68.20364812820002
  0
ARC
  5
E9
330
86
100
AcDbEntity
  8
0
  6
Continuous
 62
     7
100
AcDbCircle
 10
77.6816429501
 20
22.26746391349999
 30
0.0
 40
2.698741017099999
100
AcDbArc
 50
240.0481997804
 51
251.3779673734
  0
ARC
  5
EA
330
86
100
AcDbEntity
  8
0
  6
Continuous
 62
     7
100
AcDbCircle
 10
77.0161857833
 20
18.1105652982
 30
0.0
 40
1.4334474881
100
AcDbArc
 50
315.8904553225998
 51
333.5229264375
  0
ARC
  5
EB
330
86
100
AcDbEntity
  8
0
  6
Continuous
 62
     7
100
AcDbCircle
 10
77.020824027
 20
18.057158148
 30
0.0
 40
1.406228711899998
100
AcDbArc
 50
335.3867972703
 51
24.3915119403
  0
ARC
  5
EC
330
86
100
AcDbEntity
  8
0
  6
Continuous
 62
     7
100
AcDbCircle
 10
76.94861912350001
 20
17.97930145619999
 30
0.0
 40
1.504702514699999
100
AcDbArc
 50
25.9562916611
 51
59.4834829676
  0
LINE
  5
ED
330
86
100
AcDbEntity
  8
0
  6
Continuous
 62
     7
100
AcDbLine
 10
74.9574888499
 20
20.8337423583
 30
0.0
 11
75.2315546745
 21
21.10781543579999
 31
0.0
  0
ARC
  5
EE
330
86
100
AcDbEntity
  8
0
  6
Continuous
 62
     7
100
AcDbCircle
 10
76.0252765676
 20
20.05986621039999
 30
0.0
 40
1.309092072899999
100
AcDbArc
 50
164.1974860461
 51
195.8025139539
  0
ARC
  5
EF
330
86
100
AcDbEntity
  8
0
  6
Continuous
 62
     7
100
AcDbCircle
 10
75.8573743274
 20
20.1673739729
 30
0.0
 40
1.119747444
100
AcDbArc
 50
142.8139179029999
 51
167.1522951416999
  0
ENDBLK
  5
F0
330
86
100
AcDbEntity
  8
0
100
AcDbBlockEnd
  0
BLOCK
  5
12E82
330
12E77
100
AcDbEntity
  8
0
100
AcDbBlockBegin
  2
*D2
 70
     1
 10
0.0
 20
0.0
 30
0.0
  3
*D2
  1

  0
LINE
  5
13141
330
12E77
100
AcDbEntity
  8
10100_FRONT_DIM
  6
Continuous
 62
     0
370
    -2
100
AcDbLine
 10
55.72224660355027
 20
216.783268272972
 30
0.0
 11
70.68108504705448
 21
216.783268272972
 31
0.0
  0
LINE
  5
13142
330
12E77
100
AcDbEntity
  8
10100_FRONT_DIM
  6
Continuous
 62
     0
370
    -2
100
AcDbLine
 10
40.72224660355027
 20
96.78326827297199
 30
0.0
 11
70.68108504705445
 21
96.78326827297199
 31
0.0
  0
LINE
  5
13143
330
12E77
100
AcDbEntity
  8
10100_FRONT_DIM
  6
Continuous
 62
     0
370
    -2
100
AcDbLine
 10
69.68108504705447
 20
214.783268272972
 30
0.0
 11
69.68108504705447
 21
161.5749349396386
 31
0.0
  0
LINE
  5
13144
330
12E77
100
AcDbEntity
  8
10100_FRONT_DIM
  6
Continuous
 62
     0
370
    -2
100
AcDbLine
 10
69.68108504705447
 20
98.783268272972
 30
0.0
 11
69.68108504705447
 21
151.9916016063053
 31
0.0
  0
SOLID
  5
13145
330
12E77
100
AcDbEntity
  8
10100_FRONT_DIM
  6
Continuous
 62
     0
100
AcDbTrace
 10
69.34775171372115
 20
214.783268272972
 30
0.0
 11
70.01441838038781
 21
214.783268272972
 31
0.0
 12
69.68108504705447
 22
216.783268272972
 32
0.0
 13
69.68108504705447
 23
216.783268272972
 33
0.0
  0
SOLID
  5
13146
330
12E77
100
AcDbEntity
  8
10100_FRONT_DIM
  6
Continuous
 62
     0
100
AcDbTrace
 10
69.34775171372113
 20
98.783268272972
 30
0.0
 11
70.01441838038779
 21
98.783268272972
 31
0.0
 12
69.68108504705447
 22
96.78326827297199
 32
0.0
 13
69.68108504705447
 23
96.78326827297199
 33
0.0
  0
MTEXT
  5
13147
330
12E77
100
AcDbEntity
  8
10100_FRONT_DIM
  6
Continuous
 62
     0
370
    13
100
AcDbMText
 10
69.68108504705445
 20
156.7832682729719
 30
0.0
 40
3.5
 41
0.0
 71
     5
 72
     1
  1
\A1;120
 11
0.0000000000000001
 21
1.0
 31
0.0
 73
     1
 44
1.0
1001
ACAD
1000
MTEXTBEGIN
1070
    73
1070
     1
1070
    44
1040
1.0
1070
    74
1070
     0
1000
MTEXTEND
  0
POINT
  5
13148
330
12E77
100
AcDbEntity
  8
Defpoints
  6
Continuous
 62
     0
100
AcDbPoint
 10
54.72224660355028
 20
216.783268272972
 30
0.0
  0
POINT
  5
13149
330
12E77
100
AcDbEntity
  8
Defpoints
  6
Continuous
 62
     0
100
AcDbPoint
 10
39.72224660355028
 20
96.78326827297199
 30
0.0
  0
POINT
  5
1314A
330
12E77
100
AcDbEntity
  8
Defpoints
  6
Continuous
 62
     0
100
AcDbPoint
 10
69.68108504705447
 20
96.78326827297199
 30
0.0
  0
ENDBLK
  5
12E83
330
12E77
100
AcDbEntity
  8
0
100
AcDbBlockEnd
  0
BLOCK
  5
12E9C
330
12E91
100
AcDbEntity
  8
0
100
AcDbBlockBegin
  2
*D3
 70
     1
 10
0.0
 20
0.0
 30
0.0
  3
*D3
  1

  0
LINE
  5
131FB
330
12E91
100
AcDbEntity
  8
11100_LEFT_DIM
  6
Continuous
 62
     0
370
    -2
100
AcDbLine
 10
129.7716627621085
 20
195.5847859095811
 30
0.0
 11
129.7716627621085
 21
233.8716077739865
 31
0.0
  0
LINE
  5
131FC
330
12E91
100
AcDbEntity
  8
11100_LEFT_DIM
  6
Continuous
 62
     0
370
    -2
100
AcDbLine
 10
215.7716627621085
 20
199.9347859095811
 30
0.0
 11
215.7716627621085
 21
233.8716077739865
 31
0.0
  0
LINE
  5
131FD
330
12E91
100
AcDbEntity
  8
11100_LEFT_DIM
  6
Continuous
 62
     0
370
    -2
100
AcDbLine
 10
131.7716627621085
 20
232.8716077739865
 30
0.0
 11
168.8549960954418
 21
232.8716077739865
 31
0.0
  0
LINE
  5
131FE
330
12E91
100
AcDbEntity
  8
11100_LEFT_DIM
  6
Continuous
 62
     0
370
    -2
100
AcDbLine
 10
213.7716627621085
 20
232.8716077739865
 30
0.0
 11
176.6883294287751
 21
232.8716077739865
 31
0.0
  0
SOLID
  5
131FF
330
12E91
100
AcDbEntity
  8
11100_LEFT_DIM
  6
Continuous
 62
     0
100
AcDbTrace
 10
131.7716627621085
 20
233.2049411073199
 30
0.0
 11
131.7716627621085
 21
232.5382744406532
 31
0.0
 12
129.7716627621085
 22
232.8716077739865
 32
0.0
 13
129.7716627621085
 23
232.8716077739865
 33
0.0
  0
SOLID
  5
13200
330
12E91
100
AcDbEntity
  8
11100_LEFT_DIM
  6
Continuous
 62
     0
100
AcDbTrace
 10
213.7716627621085
 20
233.2049411073199
 30
0.0
 11
213.7716627621085
 21
232.5382744406532
 31
0.0
 12
215.7716627621085
 22
232.8716077739865
 32
0.0
 13
215.7716627621085
 23
232.8716077739865
 33
0.0
  0
MTEXT
  5
13201
330
12E91
100
AcDbEntity
  8
11100_LEFT_DIM
  6
Continuous
 62
     0
370
    13
100
AcDbMText
 10
172.7716627621085
 20
232.8716077739865
 30
0.0
 40
3.5
 41
0.0
 71
     5
 72
     1
  1
\A1;86
 73
     1
 44
1.0
1001
ACAD
1000
MTEXTBEGIN
1070
    73
1070
     1
1070
    44
1040
1.0
1070
    74
1070
     0
1000
MTEXTEND
  0
POINT
  5
13202
330
12E91
100
AcDbEntity
  8
Defpoints
  6
Continuous
 62
     0
100
AcDbPoint
 10
129.7716627621085
 20
194.5847859095811
 30
0.0
  0
POINT
  5
13203
330
12E91
100
AcDbEntity
  8
Defpoints
  6
Continuous
 62
     0
100
AcDbPoint
 10
215.7716627621085
 20
198.9347859095811
 30
0.0
  0
POINT
  5
13204
330
12E91
100
AcDbEntity
  8
Defpoints
  6
Continuous
 62
     0
100
AcDbPoint
 10
215.7716627621085
 20
232.8716077739865
 30
0.0
  0
ENDBLK
  5
12E9D
330
12E91
100
AcDbEntity
  8
0
100
AcDbBlockEnd
  0
BLOCK
  5
12EA9
330
12E9E
100
AcDbEntity
  8
0
100
AcDbBlockBegin
  2
*D4
 70
     1
 10
0.0
 20
0.0
 30
0.0
  3
*D4
  1

  0
LINE
  5
13205
330
12E9E
100
AcDbEntity
  8
11100_LEFT_DIM
  6
Continuous
 62
     0
370
    -2
100
AcDbLine
 10
129.7716627621085
 20
195.5847859095811
 30
0.0
 11
129.7716627621085
 21
227.3309256839085
 31
0.0
  0
LINE
  5
13206
330
12E9E
100
AcDbEntity
  8
11100_LEFT_DIM
  6
Continuous
 62
     0
370
    -2
100
AcDbLine
 10
194.6716627621085
 20
200.1347859095811
 30
0.0
 11
194.6716627621085
 21
227.3309256839085
 31
0.0
  0
LINE
  5
13207
330
12E9E
100
AcDbEntity
  8
11100_LEFT_DIM
  6
Continuous
 62
     0
370
    -2
100
AcDbLine
 10
131.7716627621085
 20
226.3309256839085
 30
0.0
 11
158.3049960954418
 21
226.3309256839085
 31
0.0
  0
LINE
  5
13208
330
12E9E
100
AcDbEntity
  8
11100_LEFT_DIM
  6
Continuous
 62
     0
370
    -2
100
AcDbLine
 10
192.6716627621085
 20
226.3309256839085
 30
0.0
 11
166.1383294287752
 21
226.3309256839085
 31
0.0
  0
SOLID
  5
13209
330
12E9E
100
AcDbEntity
  8
11100_LEFT_DIM
  6
Continuous
 62
     0
100
AcDbTrace
 10
131.7716627621085
 20
226.6642590172418
 30
0.0
 11
131.7716627621085
 21
225.9975923505752
 31
0.0
 12
129.7716627621085
 22
226.3309256839085
 32
0.0
 13
129.7716627621085
 23
226.3309256839085
 33
0.0
  0
SOLID
  5
1320A
330
12E9E
100
AcDbEntity
  8
11100_LEFT_DIM
  6
Continuous
 62
     0
100
AcDbTrace
 10
192.6716627621085
 20
226.6642590172418
 30
0.0
 11
192.6716627621085
 21
225.9975923505752
 31
0.0
 12
194.6716627621085
 22
226.3309256839085
 32
0.0
 13
194.6716627621085
 23
226.3309256839085
 33
0.0
  0
MTEXT
  5
1320B
330
12E9E
100
AcDbEntity
  8
11100_LEFT_DIM
  6
Continuous
 62
     0
370
    13
100
AcDbMText
 10
162.2216627621085
 20
226.3309256839085
 30
0.0
 40
3.5
 41
0.0
 71
     5
 72
     1
  1
\A1;65
 73
     1
 44
1.0
1001
ACAD
1000
MTEXTBEGIN
1070
    73
1070
     1
1070
    44
1040
1.0
1070
    74
1070
     0
1000
MTEXTEND
  0
POINT
  5
1320C
330
12E9E
100
AcDbEntity
  8
Defpoints
  6
Continuous
 62
     0
100
AcDbPoint
 10
129.7716627621085
 20
194.5847859095811
 30
0.0
  0
POINT
  5
1320D
330
12E9E
100
AcDbEntity
  8
Defpoints
  6
Continuous
 62
     0
100
AcDbPoint
 10
194.6716627621085
 20
199.1347859095811
 30
0.0
  0
POINT
  5
1320E
330
12E9E
100
AcDbEntity
  8
Defpoints
  6
Continuous
 62
     0
100
AcDbPoint
 10
194.6716627621085
 20
226.3309256839085
 30
0.0
  0
ENDBLK
  5
12EAA
330
12E9E
100
AcDbEntity
  8
0
100
AcDbBlockEnd
  0
BLOCK
  5
12EB7
330
12EAB
100
AcDbEntity
  8
0
100
AcDbBlockBegin
  2
*D5
 70
     1
 10
0.0
 20
0.0
 30
0.0
  3
*D5
  1

  0
LINE
  5
13171
330
12EAB
100
AcDbEntity
  8
11100_LEFT_DIM
  6
Continuous
 62
     0
370
    -2
100
AcDbLine
 10
124.6716627621084
 20
218.5847859095811
 30
0.0
 11
124.6716627621084
 21
227.3309256839085
 31
0.0
  0
LINE
  5
13172
330
12EAB
100
AcDbEntity
  8
11100_LEFT_DIM
  6
Continuous
 62
     0
370
    -2
100
AcDbLine
 10
129.7675399236558
 20
179.1488627435841
 30
0.0
 11
129.7675399236558
 21
227.3309256839085
 31
0.0
  0
LINE
  5
13173
330
12EAB
100
AcDbEntity
  8
11100_LEFT_DIM
  6
Continuous
 62
     0
370
    -2
100
AcDbLine
 10
131.7675399236558
 20
226.3309256839085
 30
0.0
 11
133.7675399236558
 21
226.3309256839085
 31
0.0
  0
LINE
  5
13174
330
12EAB
100
AcDbEntity
  8
11100_LEFT_DIM
  6
Continuous
 62
     0
370
    -2
100
AcDbLine
 10
122.6716627621084
 20
226.3309256839085
 30
0.0
 11
118.6716627621082
 21
226.3309256839085
 31
0.0
  0
LINE
  5
13175
330
12EAB
100
AcDbEntity
  8
11100_LEFT_DIM
  6
Continuous
 62
     0
370
    -2
100
AcDbLine
 10
129.7675399236558
 20
226.3309256839085
 30
0.0
 11
124.6716627621084
 21
226.3309256839085
 31
0.0
  0
SOLID
  5
13176
330
12EAB
100
AcDbEntity
  8
11100_LEFT_DIM
  6
Continuous
 62
     0
100
AcDbTrace
 10
131.7675399236558
 20
226.6642590172418
 30
0.0
 11
131.7675399236558
 21
225.9975923505752
 31
0.0
 12
129.7675399236558
 22
226.3309256839085
 32
0.0
 13
129.7675399236558
 23
226.3309256839085
 33
0.0
  0
SOLID
  5
13177
330
12EAB
100
AcDbEntity
  8
11100_LEFT_DIM
  6
Continuous
 62
     0
100
AcDbTrace
 10
122.6716627621084
 20
226.6642590172418
 30
0.0
 11
122.6716627621084
 21
225.9975923505752
 31
0.0
 12
124.6716627621084
 22
226.3309256839085
 32
0.0
 13
124.6716627621084
 23
226.3309256839085
 33
0.0
  0
MTEXT
  5
13178
330
12EAB
100
AcDbEntity
  8
11100_LEFT_DIM
  6
Continuous
 62
     0
370
    13
100
AcDbMText
 10
116.5049960954416
 20
226.3309256839085
 30
0.0
 40
3.5
 41
0.0
 71
     5
 72
     1
  1
\A1;5
 73
     1
 44
1.0
1001
ACAD
1000
MTEXTBEGIN
1070
    73
1070
     1
1070
    44
1040
1.0
1070
    74
1070
     0
1000
MTEXTEND
  0
POINT
  5
13179
330
12EAB
100
AcDbEntity
  8
Defpoints
  6
Continuous
 62
     0
100
AcDbPoint
 10
124.6716627621084
 20
217.5847859095811
 30
0.0
  0
POINT
  5
1317A
330
12EAB
100
AcDbEntity
  8
Defpoints
  6
Continuous
 62
     0
100
AcDbPoint
 10
129.7675399236558
 20
178.1488627435841
 30
0.0
  0
POINT
  5
1317B
330
12EAB
100
AcDbEntity
  8
Defpoints
  6
Continuous
 62
     0
100
AcDbPoint
 10
129.7675399236558
 20
226.3309256839085
 30
0.0
  0
ENDBLK
  5
12EB8
330
12EAB
100
AcDbEntity
  8
0
100
AcDbBlockEnd
  0
BLOCK
  5
12EC4
330
12EB9
100
AcDbEntity
  8
0
100
AcDbBlockBegin
  2
*D6
 70
     1
 10
0.0
 20
0.0
 30
0.0
  3
*D6
  1

  0
LINE
  5
1310E
330
12EB9
100
AcDbEntity
  8
10100_FRONT_DIM
  6
Continuous
 62
     0
370
    -2
100
AcDbLine
 10
34.17224660355055
 20
200.1412282729718
 30
0.0
 11
18.00137188651731
 21
200.1412282729718
 31
0.0
  0
LINE
  5
1310F
330
12EB9
100
AcDbEntity
  8
10100_FRONT_DIM
  6
Continuous
 62
     0
370
    -2
100
AcDbLine
 10
34.17224660355032
 20
112.9093760922919
 30
0.0
 11
18.00137188651729
 21
112.9093760922919
 31
0.0
  0
LINE
  5
13110
330
12EB9
100
AcDbEntity
  8
10100_FRONT_DIM
  6
Continuous
 62
     0
370
    -2
100
AcDbLine
 10
19.00137188651731
 20
198.1412282729718
 30
0.0
 11
19.0013718865173
 21
160.4419688492985
 31
0.0
  0
LINE
  5
13111
330
12EB9
100
AcDbEntity
  8
10100_FRONT_DIM
  6
Continuous
 62
     0
370
    -2
100
AcDbLine
 10
19.00137188651729
 20
114.9093760922919
 30
0.0
 11
19.0013718865173
 21
152.6086355159652
 31
0.0
  0
SOLID
  5
13112
330
12EB9
100
AcDbEntity
  8
10100_FRONT_DIM
  6
Continuous
 62
     0
100
AcDbTrace
 10
18.66803855318397
 20
198.1412282729718
 30
0.0
 11
19.33470521985064
 21
198.1412282729718
 31
0.0
 12
19.00137188651731
 22
200.1412282729718
 32
0.0
 13
19.00137188651731
 23
200.1412282729718
 33
0.0
  0
SOLID
  5
13113
330
12EB9
100
AcDbEntity
  8
10100_FRONT_DIM
  6
Continuous
 62
     0
100
AcDbTrace
 10
18.66803855318396
 20
114.9093760922919
 30
0.0
 11
19.33470521985062
 21
114.9093760922919
 31
0.0
 12
19.00137188651729
 22
112.9093760922919
 32
0.0
 13
19.00137188651729
 23
112.9093760922919
 33
0.0
  0
MTEXT
  5
13114
330
12EB9
100
AcDbEntity
  8
10100_FRONT_DIM
  6
Continuous
 62
     0
370
    13
100
AcDbMText
 10
19.00137188651727
 20
156.5253021826318
 30
0.0
 40
3.5
 41
0.0
 71
     5
 72
     1
  1
\A1;87
 11
0.0000000000000001
 21
1.0
 31
0.0
 73
     1
 44
1.0
1001
ACAD
1000
MTEXTBEGIN
1070
    73
1070
     1
1070
    44
1040
1.0
1070
    74
1070
     0
1000
MTEXTEND
  0
POINT
  5
13115
330
12EB9
100
AcDbEntity
  8
Defpoints
  6
Continuous
 62
     0
100
AcDbPoint
 10
35.17224660355055
 20
200.1412282729718
 30
0.0
  0
POINT
  5
13116
330
12EB9
100
AcDbEntity
  8
Defpoints
  6
Continuous
 62
     0
100
AcDbPoint
 10
35.17224660355032
 20
112.9093760922919
 30
0.0
  0
POINT
  5
13117
330
12EB9
100
AcDbEntity
  8
Defpoints
  6
Continuous
 62
     0
100
AcDbPoint
 10
19.00137188651729
 20
112.9093760922919
 30
0.0
  0
ENDBLK
  5
12EC5
330
12EB9
100
AcDbEntity
  8
0
100
AcDbBlockEnd
  0
BLOCK
  5
12ED1
330
12EC6
100
AcDbEntity
  8
0
100
AcDbBlockBegin
  2
*D7
 70
     1
 10
0.0
 20
0.0
 30
0.0
  3
*D7
  1

  0
LINE
  5
13104
330
12EC6
100
AcDbEntity
  8
10100_FRONT_DIM
  6
Continuous
 62
     0
370
    -2
100
AcDbLine
 10
34.17224660355055
 20
190.641228272972
 30
0.0
 11
23.98361435055973
 21
190.641228272972
 31
0.0
  0
LINE
  5
13105
330
12EC6
100
AcDbEntity
  8
10100_FRONT_DIM
  6
Continuous
 62
     0
370
    -2
100
AcDbLine
 10
34.17224660355032
 20
122.4412282729721
 30
0.0
 11
23.98361435055972
 21
122.4412282729721
 31
0.0
  0
LINE
  5
13106
330
12EC6
100
AcDbEntity
  8
10100_FRONT_DIM
  6
Continuous
 62
     0
370
    -2
100
AcDbLine
 10
24.98361435055973
 20
188.641228272972
 30
0.0
 11
24.98361435055973
 21
160.4578949396387
 31
0.0
  0
LINE
  5
13107
330
12EC6
100
AcDbEntity
  8
10100_FRONT_DIM
  6
Continuous
 62
     0
370
    -2
100
AcDbLine
 10
24.98361435055972
 20
124.4412282729721
 30
0.0
 11
24.98361435055973
 21
152.6245616063054
 31
0.0
  0
SOLID
  5
13108
330
12EC6
100
AcDbEntity
  8
10100_FRONT_DIM
  6
Continuous
 62
     0
100
AcDbTrace
 10
24.6502810172264
 20
188.641228272972
 30
0.0
 11
25.31694768389307
 21
188.641228272972
 31
0.0
 12
24.98361435055973
 22
190.641228272972
 32
0.0
 13
24.98361435055973
 23
190.641228272972
 33
0.0
  0
SOLID
  5
13109
330
12EC6
100
AcDbEntity
  8
10100_FRONT_DIM
  6
Continuous
 62
     0
100
AcDbTrace
 10
24.65028101722639
 20
124.4412282729721
 30
0.0
 11
25.31694768389305
 21
124.4412282729721
 31
0.0
 12
24.98361435055972
 22
122.4412282729721
 32
0.0
 13
24.98361435055972
 23
122.4412282729721
 33
0.0
  0
MTEXT
  5
1310A
330
12EC6
100
AcDbEntity
  8
10100_FRONT_DIM
  6
Continuous
 62
     0
370
    13
100
AcDbMText
 10
24.9836143505597
 20
156.541228272972
 30
0.0
 40
3.5
 41
0.0
 71
     5
 72
     1
  1
\A1;68
 11
0.0000000000000001
 21
1.0
 31
0.0
 73
     1
 44
1.0
1001
ACAD
1000
MTEXTBEGIN
1070
    73
1070
     1
1070
    44
1040
1.0
1070
    74
1070
     0
1000
MTEXTEND
  0
POINT
  5
1310B
330
12EC6
100
AcDbEntity
  8
Defpoints
  6
Continuous
 62
     0
100
AcDbPoint
 10
35.17224660355055
 20
190.641228272972
 30
0.0
  0
POINT
  5
1310C
330
12EC6
100
AcDbEntity
  8
Defpoints
  6
Continuous
 62
     0
100
AcDbPoint
 10
35.17224660355032
 20
122.4412282729721
 30
0.0
  0
POINT
  5
1310D
330
12EC6
100
AcDbEntity
  8
Defpoints
  6
Continuous
 62
     0
100
AcDbPoint
 10
24.98361435055972
 20
122.4412282729721
 30
0.0
  0
ENDBLK
  5
12ED2
330
12EC6
100
AcDbEntity
  8
0
100
AcDbBlockEnd
  0
BLOCK
  5
12EDD
330
12ED3
100
AcDbEntity
  8
0
100
AcDbBlockBegin
  2
*D8
 70
     1
 10
0.0
 20
0.0
 30
0.0
  3
*D8
  1

  0
LINE
  5
13310
330
12ED3
100
AcDbEntity
  8
10100_FRONT_DIM
  6
Continuous
 62
     0
370
    -2
100
AcDbLine
 10
45.47224660355026
 20
197.3412282729722
 30
0.0
 11
45.47224660355026
 21
212.1468690040083
 31
0.0
  0
LINE
  5
13311
330
12ED3
100
AcDbEntity
  8
10100_FRONT_DIM
  6
Continuous
 62
     0
370
    -2
100
AcDbLine
 10
34.27224660355022
 20
211.1468690040083
 30
0.0
 11
45.47224660355026
 21
211.1468690040083
 31
0.0
  0
LINE
  5
13312
330
12ED3
100
AcDbEntity
  8
10100_FRONT_DIM
  6
Continuous
 62
     0
370
    -2
100
AcDbLine
 10
47.47224660355025
 20
211.1468690040083
 30
0.0
 11
49.47224660355026
 21
211.1468690040083
 31
0.0
  0
SOLID
  5
13313
330
12ED3
100
AcDbEntity
  8
10100_FRONT_DIM
  6
Continuous
 62
     0
100
AcDbTrace
 10
47.47224660355025
 20
211.4802023373417
 30
0.0
 11
47.47224660355025
 21
210.813535670675
 31
0.0
 12
45.47224660355026
 22
211.1468690040083
 32
0.0
 13
45.47224660355026
 23
211.1468690040083
 33
0.0
  0
MTEXT
  5
13314
330
12ED3
100
AcDbEntity
  8
10100_FRONT_DIM
  6
Continuous
 62
     0
370
    13
100
AcDbMText
 10
41.87224660355024
 20
211.1468690040083
 30
0.0
 40
3.5
 41
0.0
 71
     5
 72
     1
  1
\A1;7
 73
     1
 44
1.0
1001
ACAD
1000
MTEXTBEGIN
1070
    73
1070
     1
1070
    44
1040
1.0
1070
    74
1070
     0
1000
MTEXTEND
  0
POINT
  5
13315
330
12ED3
100
AcDbEntity
  8
Defpoints
  6
Continuous
 62
     0
100
AcDbPoint
 10
38.27224660355022
 20
196.3412282729722
 30
0.0
  0
POINT
  5
13316
330
12ED3
100
AcDbEntity
  8
Defpoints
  6
Continuous
 62
     0
100
AcDbPoint
 10
45.47224660355026
 20
196.3412282729722
 30
0.0
  0
POINT
  5
13317
330
12ED3
100
AcDbEntity
  8
Defpoints
  6
Continuous
 62
     0
100
AcDbPoint
 10
45.47224660355026
 20
211.1468690040083
 30
0.0
  0
ENDBLK
  5
12EDE
330
12ED3
100
AcDbEntity
  8
0
100
AcDbBlockEnd
  0
BLOCK
  5
12EE8
330
12EDF
100
AcDbEntity
  8
0
100
AcDbBlockBegin
  2
*D9
 70
     1
 10
0.0
 20
0.0
 30
0.0
  3
*D9
  1

  0
LINE
  5
131E0
330
12EDF
100
AcDbEntity
  8
10100_FRONT_DIM
  6
Continuous
 62
     0
370
    -2
100
AcDbLine
 10
34.22224660355003
 20
201.2412282729721
 30
0.0
 11
34.22224660355003
 21
212.1468690040083
 31
0.0
  0
LINE
  5
131E1
330
12EDF
100
AcDbEntity
  8
10100_FRONT_DIM
  6
Continuous
 62
     0
370
    -2
100
AcDbLine
 10
38.27224660355022
 20
197.3412282729722
 30
0.0
 11
38.27224660355022
 21
212.1468690040083
 31
0.0
  0
LINE
  5
131E2
330
12EDF
100
AcDbEntity
  8
10100_FRONT_DIM
  6
Continuous
 62
     0
370
    -2
100
AcDbLine
 10
32.22224660355003
 20
211.1468690040083
 30
0.0
 11
28.22224660354997
 21
211.1468690040083
 31
0.0
  0
SOLID
  5
131E3
330
12EDF
100
AcDbEntity
  8
10100_FRONT_DIM
  6
Continuous
 62
     0
100
AcDbTrace
 10
32.22224660355003
 20
211.4802023373417
 30
0.0
 11
32.22224660355003
 21
210.8135356706749
 31
0.0
 12
34.22224660355003
 22
211.1468690040083
 32
0.0
 13
34.22224660355003
 23
211.1468690040083
 33
0.0
  0
MTEXT
  5
131E4
330
12EDF
100
AcDbEntity
  8
10100_FRONT_DIM
  6
Continuous
 62
     0
370
    13
100
AcDbMText
 10
26.0555799368833
 20
211.1468690040083
 30
0.0
 40
3.5
 41
0.0
 71
     5
 72
     1
  1
\A1;4
 73
     1
 44
1.0
1001
ACAD
1000
MTEXTBEGIN
1070
    73
1070
     1
1070
    44
1040
1.0
1070
    74
1070
     0
1000
MTEXTEND
  0
POINT
  5
131E5
330
12EDF
100
AcDbEntity
  8
Defpoints
  6
Continuous
 62
     0
100
AcDbPoint
 10
34.22224660355003
 20
200.2412282729721
 30
0.0
  0
POINT
  5
131E6
330
12EDF
100
AcDbEntity
  8
Defpoints
  6
Continuous
 62
     0
100
AcDbPoint
 10
38.27224660355022
 20
196.3412282729722
 30
0.0
  0
POINT
  5
131E7
330
12EDF
100
AcDbEntity
  8
Defpoints
  6
Continuous
 62
     0
100
AcDbPoint
 10
38.27224660355022
 20
211.1468690040083
 30
0.0
  0
ENDBLK
  5
12EE9
330
12EDF
100
AcDbEntity
  8
0
100
AcDbBlockEnd
  0
BLOCK
  5
12EF7
330
12EEA
100
AcDbEntity
  8
0
100
AcDbBlockBegin
  2
*D10
 70
     1
 10
0.0
 20
0.0
 30
0.0
  3
*D10
  1

  0
LINE
  5
13258
330
12EEA
100
AcDbEntity
  8
10100_FRONT_DIM
  6
Continuous
 62
     0
370
    -2
100
AcDbLine
 10
34.22224460355006
 20
201.2412282729721
 30
0.0
 11
34.22224460355006
 21
222.4009844047266
 31
0.0
  0
LINE
  5
13259
330
12EEA
100
AcDbEntity
  8
10100_FRONT_DIM
  6
Continuous
 62
     0
370
    -2
100
AcDbLine
 10
56.72224660355004
 20
208.3912282729723
 30
0.0
 11
56.72224660355004
 21
222.4009844047266
 31
0.0
  0
LINE
  5
1325A
330
12EEA
100
AcDbEntity
  8
10100_FRONT_DIM
  6
Continuous
 62
     0
370
    -2
100
AcDbLine
 10
36.22224460355006
 20
221.4009844047266
 30
0.0
 11
38.93057893688339
 21
221.4009844047266
 31
0.0
  0
LINE
  5
1325B
330
12EEA
100
AcDbEntity
  8
10100_FRONT_DIM
  6
Continuous
 62
     0
370
    -2
100
AcDbLine
 10
54.72224660355004
 20
221.4009844047266
 30
0.0
 11
52.01391227021671
 21
221.4009844047266
 31
0.0
  0
SOLID
  5
1325C
330
12EEA
100
AcDbEntity
  8
10100_FRONT_DIM
  6
Continuous
 62
     0
100
AcDbTrace
 10
36.22224460355006
 20
221.73431773806
 30
0.0
 11
36.22224460355006
 21
221.0676510713933
 31
0.0
 12
34.22224460355006
 22
221.4009844047266
 32
0.0
 13
34.22224460355006
 23
221.4009844047266
 33
0.0
  0
SOLID
  5
1325D
330
12EEA
100
AcDbEntity
  8
10100_FRONT_DIM
  6
Continuous
 62
     0
100
AcDbTrace
 10
54.72224660355004
 20
221.73431773806
 30
0.0
 11
54.72224660355004
 21
221.0676510713933
 31
0.0
 12
56.72224660355004
 22
221.4009844047266
 32
0.0
 13
56.72224660355004
 23
221.4009844047266
 33
0.0
  0
MTEXT
  5
1325E
330
12EEA
100
AcDbEntity
  8
10100_FRONT_DIM
  6
Continuous
 62
     0
370
    13
100
AcDbMText
 10
45.47224560355004
 20
221.4009844047266
 30
0.0
 40
3.5
 41
0.0
 71
     5
 72
     1
  1
\A1;22,5
 73
     1
 44
1.0
1001
ACAD
1000
MTEXTBEGIN
1070
    73
1070
     1
1070
    44
1040
1.0
1070
    74
1070
     0
1000
MTEXTEND
  0
POINT
  5
1325F
330
12EEA
100
AcDbEntity
  8
Defpoints
  6
Continuous
 62
     0
100
AcDbPoint
 10
34.22224460355006
 20
200.2412282729721
 30
0.0
  0
POINT
  5
13260
330
12EEA
100
AcDbEntity
  8
Defpoints
  6
Continuous
 62
     0
100
AcDbPoint
 10
56.72224660355004
 20
207.3912282729723
 30
0.0
  0
POINT
  5
13261
330
12EEA
100
AcDbEntity
  8
Defpoints
  6
Continuous
 62
     0
100
AcDbPoint
 10
56.72224660355004
 20
221.4009844047266
 30
0.0
  0
ENDBLK
  5
12EF8
330
12EEA
100
AcDbEntity
  8
0
100
AcDbBlockEnd
  0
BLOCK
  5
12F04
330
12EF9
100
AcDbEntity
  8
0
100
AcDbBlockBegin
  2
*D11
 70
     1
 10
0.0
 20
0.0
 30
0.0
  3
*D11
  1

  0
LINE
  5
1332E
330
12EF9
100
AcDbEntity
  8
11100_LEFT_DIM
  6
Continuous
 62
     0
370
    -2
100
AcDbLine
 10
123.6716627621084
 20
121.084785909581
 30
0.0
 11
113.5044253135359
 21
121.084785909581
 31
0.0
  0
LINE
  5
1332F
330
12EF9
100
AcDbEntity
  8
11100_LEFT_DIM
  6
Continuous
 62
     0
370
    -2
100
AcDbLine
 10
123.6716627621084
 20
194.5847859095811
 30
0.0
 11
113.5044253135359
 21
194.5847859095811
 31
0.0
  0
LINE
  5
13330
330
12EF9
100
AcDbEntity
  8
11100_LEFT_DIM
  6
Continuous
 62
     0
370
    -2
100
AcDbLine
 10
114.5044253135359
 20
123.084785909581
 30
0.0
 11
114.5044253135359
 21
153.9181192429146
 31
0.0
  0
LINE
  5
13331
330
12EF9
100
AcDbEntity
  8
11100_LEFT_DIM
  6
Continuous
 62
     0
370
    -2
100
AcDbLine
 10
114.5044253135359
 20
192.5847859095811
 30
0.0
 11
114.5044253135359
 21
161.7514525762479
 31
0.0
  0
SOLID
  5
13332
330
12EF9
100
AcDbEntity
  8
11100_LEFT_DIM
  6
Continuous
 62
     0
100
AcDbTrace
 10
114.1710919802026
 20
123.084785909581
 30
0.0
 11
114.8377586468692
 21
123.084785909581
 31
0.0
 12
114.5044253135359
 22
121.084785909581
 32
0.0
 13
114.5044253135359
 23
121.084785909581
 33
0.0
  0
SOLID
  5
13333
330
12EF9
100
AcDbEntity
  8
11100_LEFT_DIM
  6
Continuous
 62
     0
100
AcDbTrace
 10
114.1710919802026
 20
192.5847859095811
 30
0.0
 11
114.8377586468692
 21
192.5847859095811
 31
0.0
 12
114.5044253135359
 22
194.5847859095811
 32
0.0
 13
114.5044253135359
 23
194.5847859095811
 33
0.0
  0
MTEXT
  5
13334
330
12EF9
100
AcDbEntity
  8
11100_LEFT_DIM
  6
Continuous
 62
     0
370
    13
100
AcDbMText
 10
114.5044253135359
 20
157.8347859095813
 30
0.0
 40
3.5
 41
0.0
 71
     5
 72
     1
  1
\A1;74
 11
0.0000000000000001
 21
1.0
 31
0.0
 73
     1
 44
1.0
1001
ACAD
1000
MTEXTBEGIN
1070
    73
1070
     1
1070
    44
1040
1.0
1070
    74
1070
     0
1000
MTEXTEND
  0
POINT
  5
13335
330
12EF9
100
AcDbEntity
  8
Defpoints
  6
Continuous
 62
     0
100
AcDbPoint
 10
124.6716627621084
 20
121.084785909581
 30
0.0
  0
POINT
  5
13336
330
12EF9
100
AcDbEntity
  8
Defpoints
  6
Continuous
 62
     0
100
AcDbPoint
 10
124.6716627621084
 20
194.5847859095811
 30
0.0
  0
POINT
  5
13337
330
12EF9
100
AcDbEntity
  8
Defpoints
  6
Continuous
 62
     0
100
AcDbPoint
 10
114.5044253135359
 20
194.5847859095811
 30
0.0
  0
ENDBLK
  5
12F05
330
12EF9
100
AcDbEntity
  8
0
100
AcDbBlockEnd
  0
BLOCK
  5
12F1E
330
12F13
100
AcDbEntity
  8
0
100
AcDbBlockBegin
  2
*D12
 70
     1
 10
0.0
 20
0.0
 30
0.0
  3
*D12
  1

  0
LINE
  5
130CB
330
12F13
100
AcDbEntity
  8
11100_LEFT_DIM
  6
Continuous
 62
     0
370
    -2
100
AcDbLine
 10
216.5716627621084
 20
199.1347859095811
 30
0.0
 11
224.5816521225418
 21
199.1347859095811
 31
0.0
  0
LINE
  5
130CC
330
12F13
100
AcDbEntity
  8
11100_LEFT_DIM
  6
Continuous
 62
     0
370
    -2
100
AcDbLine
 10
216.7326689157801
 20
116.5347859095811
 30
0.0
 11
224.5816521225417
 21
116.5347859095811
 31
0.0
  0
LINE
  5
130CD
330
12F13
100
AcDbEntity
  8
11100_LEFT_DIM
  6
Continuous
 62
     0
370
    -2
100
AcDbLine
 10
223.5816521225418
 20
197.1347859095811
 30
0.0
 11
223.5816521225418
 21
161.7514525762477
 31
0.0
  0
LINE
  5
130CE
330
12F13
100
AcDbEntity
  8
11100_LEFT_DIM
  6
Continuous
 62
     0
370
    -2
100
AcDbLine
 10
223.5816521225418
 20
118.5347859095811
 30
0.0
 11
223.5816521225418
 21
153.9181192429144
 31
0.0
  0
SOLID
  5
130CF
330
12F13
100
AcDbEntity
  8
11100_LEFT_DIM
  6
Continuous
 62
     0
100
AcDbTrace
 10
223.2483187892084
 20
197.1347859095811
 30
0.0
 11
223.9149854558751
 21
197.1347859095811
 31
0.0
 12
223.5816521225418
 22
199.1347859095811
 32
0.0
 13
223.5816521225418
 23
199.1347859095811
 33
0.0
  0
SOLID
  5
130D0
330
12F13
100
AcDbEntity
  8
11100_LEFT_DIM
  6
Continuous
 62
     0
100
AcDbTrace
 10
223.2483187892084
 20
118.5347859095811
 30
0.0
 11
223.9149854558751
 21
118.5347859095811
 31
0.0
 12
223.5816521225418
 22
116.5347859095811
 32
0.0
 13
223.5816521225418
 23
116.5347859095811
 33
0.0
  0
MTEXT
  5
130D1
330
12F13
100
AcDbEntity
  8
11100_LEFT_DIM
  6
Continuous
 62
     0
370
    13
100
AcDbMText
 10
223.5816521225417
 20
157.8347859095812
 30
0.0
 40
3.5
 41
0.0
 71
     5
 72
     1
  1
\A1;83
 11
0.0000000000000001
 21
1.0
 31
0.0
 73
     1
 44
1.0
1001
ACAD
1000
MTEXTBEGIN
1070
    73
1070
     1
1070
    44
1040
1.0
1070
    74
1070
     0
1000
MTEXTEND
  0
POINT
  5
130D2
330
12F13
100
AcDbEntity
  8
Defpoints
  6
Continuous
 62
     0
100
AcDbPoint
 10
215.5716627621084
 20
199.1347859095811
 30
0.0
  0
POINT
  5
130D3
330
12F13
100
AcDbEntity
  8
Defpoints
  6
Continuous
 62
     0
100
AcDbPoint
 10
215.7326689157801
 20
116.5347859095811
 30
0.0
  0
POINT
  5
130D4
330
12F13
100
AcDbEntity
  8
Defpoints
  6
Continuous
 62
     0
100
AcDbPoint
 10
223.5816521225418
 20
116.5347859095811
 30
0.0
  0
ENDBLK
  5
12F1F
330
12F13
100
AcDbEntity
  8
0
100
AcDbBlockEnd
  0
BLOCK
  5
12F2B
330
12F20
100
AcDbEntity
  8
0
100
AcDbBlockBegin
  2
*D13
 70
     1
 10
0.0
 20
0.0
 30
0.0
  3
*D13
  1

  0
LINE
  5
130C1
330
12F20
100
AcDbEntity
  8
10100_FRONT_DIM
  6
Continuous
 62
     0
370
    -2
100
AcDbLine
 10
56.47224660355028
 20
211.7832682729721
 30
0.0
 11
63.26156544343874
 21
211.7832682729721
 31
0.0
  0
LINE
  5
130C2
330
12F20
100
AcDbEntity
  8
10100_FRONT_DIM
  6
Continuous
 62
     0
370
    -2
100
AcDbLine
 10
41.47224660355028
 20
101.783268272972
 30
0.0
 11
63.26156544343874
 21
101.783268272972
 31
0.0
  0
LINE
  5
130C3
330
12F20
100
AcDbEntity
  8
10100_FRONT_DIM
  6
Continuous
 62
     0
370
    -2
100
AcDbLine
 10
62.26156544343876
 20
209.7832682729721
 30
0.0
 11
62.26156544343874
 21
165.6582682729723
 31
0.0
  0
LINE
  5
130C4
330
12F20
100
AcDbEntity
  8
10100_FRONT_DIM
  6
Continuous
 62
     0
370
    -2
100
AcDbLine
 10
62.26156544343872
 20
103.783268272972
 30
0.0
 11
62.26156544343874
 21
147.9082682729723
 31
0.0
  0
SOLID
  5
130C5
330
12F20
100
AcDbEntity
  8
10100_FRONT_DIM
  6
Continuous
 62
     0
100
AcDbTrace
 10
61.92823211010542
 20
209.7832682729721
 30
0.0
 11
62.59489877677209
 21
209.7832682729721
 31
0.0
 12
62.26156544343876
 22
211.7832682729721
 32
0.0
 13
62.26156544343876
 23
211.7832682729721
 33
0.0
  0
SOLID
  5
130C6
330
12F20
100
AcDbEntity
  8
10100_FRONT_DIM
  6
Continuous
 62
     0
100
AcDbTrace
 10
61.92823211010539
 20
103.783268272972
 30
0.0
 11
62.59489877677206
 21
103.783268272972
 31
0.0
 12
62.26156544343872
 22
101.783268272972
 32
0.0
 13
62.26156544343872
 23
101.783268272972
 33
0.0
  0
MTEXT
  5
130C7
330
12F20
100
AcDbEntity
  8
10100_FRONT_DIM
  6
Continuous
 62
     0
370
    13
100
AcDbMText
 10
62.26156544343871
 20
156.7832682729723
 30
0.0
 40
3.5
 41
0.0
 71
     5
 72
     1
  1
\A1;110x15
 11
0.0000000000000001
 21
1.0
 31
0.0
 73
     1
 44
1.0
1001
ACAD
1000
MTEXTBEGIN
1070
    73
1070
     1
1070
    44
1040
1.0
1070
    74
1070
     0
1000
MTEXTEND
  0
POINT
  5
130C8
330
12F20
100
AcDbEntity
  8
Defpoints
  6
Continuous
 62
     0
100
AcDbPoint
 10
55.47224660355027
 20
211.7832682729721
 30
0.0
  0
POINT
  5
130C9
330
12F20
100
AcDbEntity
  8
Defpoints
  6
Continuous
 62
     0
100
AcDbPoint
 10
40.47224660355027
 20
101.783268272972
 30
0.0
  0
POINT
  5
130CA
330
12F20
100
AcDbEntity
  8
Defpoints
  6
Continuous
 62
     0
100
AcDbPoint
 10
62.26156544343872
 20
101.783268272972
 30
0.0
  0
ENDBLK
  5
12F2C
330
12F20
100
AcDbEntity
  8
0
100
AcDbBlockEnd
  0
BLOCK
  5
131AF
330
131A5
100
AcDbEntity
  8
0
100
AcDbBlockBegin
  2
*D14
 70
     1
 10
0.0
 20
0.0
 30
0.0
  3
*D14
  1

  0
LINE
  5
13219
330
131A5
100
AcDbEntity
  8
11100_LEFT_DIM
  6
Continuous
 62
     0
370
    -2
100
AcDbLine
 10
216.5716627621084
 20
199.1347859095811
 30
0.0
 11
231.1630160126284
 21
199.1347859095811
 31
0.0
  0
LINE
  5
1321A
330
131A5
100
AcDbEntity
  8
11100_LEFT_DIM
  6
Continuous
 62
     0
370
    -2
100
AcDbLine
 10
187.7716627621084
 20
107.0347859095811
 30
0.0
 11
231.1630160126283
 21
107.0347859095811
 31
0.0
  0
LINE
  5
1321B
330
131A5
100
AcDbEntity
  8
11100_LEFT_DIM
  6
Continuous
 62
     0
370
    -2
100
AcDbLine
 10
230.1630160126284
 20
197.1347859095811
 30
0.0
 11
230.1630160126283
 21
157.0014525762477
 31
0.0
  0
LINE
  5
1321C
330
131A5
100
AcDbEntity
  8
11100_LEFT_DIM
  6
Continuous
 62
     0
370
    -2
100
AcDbLine
 10
230.1630160126283
 20
109.034785909581
 30
0.0
 11
230.1630160126283
 21
149.1681192429144
 31
0.0
  0
SOLID
  5
1321D
330
131A5
100
AcDbEntity
  8
11100_LEFT_DIM
  6
Continuous
 62
     0
100
AcDbTrace
 10
229.829682679295
 20
197.1347859095811
 30
0.0
 11
230.4963493459617
 21
197.1347859095811
 31
0.0
 12
230.1630160126284
 22
199.1347859095811
 32
0.0
 13
230.1630160126284
 23
199.1347859095811
 33
0.0
  0
SOLID
  5
1321E
330
131A5
100
AcDbEntity
  8
11100_LEFT_DIM
  6
Continuous
 62
     0
100
AcDbTrace
 10
229.829682679295
 20
109.034785909581
 30
0.0
 11
230.4963493459617
 21
109.034785909581
 31
0.0
 12
230.1630160126283
 22
107.0347859095811
 32
0.0
 13
230.1630160126283
 23
107.0347859095811
 33
0.0
  0
MTEXT
  5
1321F
330
131A5
100
AcDbEntity
  8
11100_LEFT_DIM
  6
Continuous
 62
     0
370
    13
100
AcDbMText
 10
230.1630160126283
 20
153.0847859095811
 30
0.0
 40
3.5
 41
0.0
 71
     5
 72
     1
  1
\A1;92
 11
0.0000000000000001
 21
1.0
 31
0.0
 73
     1
 44
1.0
1001
ACAD
1000
MTEXTBEGIN
1070
    73
1070
     1
1070
    44
1040
1.0
1070
    74
1070
     0
1000
MTEXTEND
  0
POINT
  5
13220
330
131A5
100
AcDbEntity
  8
Defpoints
  6
Continuous
 62
     0
100
AcDbPoint
 10
215.5716627621084
 20
199.1347859095811
 30
0.0
  0
POINT
  5
13221
330
131A5
100
AcDbEntity
  8
Defpoints
  6
Continuous
 62
     0
100
AcDbPoint
 10
186.7716627621084
 20
107.0347859095811
 30
0.0
  0
POINT
  5
13222
330
131A5
100
AcDbEntity
  8
Defpoints
  6
Continuous
 62
     0
100
AcDbPoint
 10
230.1630160126283
 20
107.0347859095811
 30
0.0
  0
ENDBLK
  5
131B0
330
131A5
100
AcDbEntity
  8
0
100
AcDbBlockEnd
  0
ENDSEC
  0
SECTION
  2
ENTITIES
  0
INSERT
  5
C5B
330
1F
100
AcDbEntity
  8
90000_FRAME
  6
Continuous
 62
     7
100
AcDbBlockReference
  2
SIEMENS_OUTLINE_BL0
 10
49.88743841592327
 20
49.88556725432579
 30
0.0
  0
LINE
  5
C5C
330
1F
100
AcDbEntity
  8
90000_FRAME
  6
Continuous
 62
     7
100
AcDbLine
 10
117.2415410320022
 20
60.22382648192911
 30
0.0
 11
252.2415410320022
 21
60.22382648192911
 31
0.0
  0
LINE
  5
C5D
330
1F
100
AcDbEntity
  8
90000_FRAME
  6
Continuous
 62
     7
100
AcDbLine
 10
117.2415410320022
 20
60.22382648192911
 30
0.0
 11
117.2415410320022
 21
78.22382648192911
 31
0.0
  0
LINE
  5
C5E
330
1F
100
AcDbEntity
  8
90000_FRAME
  6
Continuous
 62
     7
100
AcDbLine
 10
167.2415410320021
 20
66.2238264819291
 30
0.0
 11
252.2415410320022
 21
66.2238264819291
 31
0.0
  0
LINE
  5
C5F
330
1F
100
AcDbEntity
  8
90000_FRAME
  6
Continuous
 62
     7
100
AcDbLine
 10
117.2415410320022
 20
78.22382648192911
 30
0.0
 11
252.2415410320022
 21
78.22382648192911
 31
0.0
  0
LINE
  5
C60
330
1F
100
AcDbEntity
  8
90000_FRAME
  6
Continuous
 62
     7
100
AcDbLine
 10
167.2415410320021
 20
60.22382648192911
 30
0.0
 11
167.2415410320021
 21
78.22382648192911
 31
0.0
  0
LINE
  5
C61
330
1F
100
AcDbEntity
  8
90000_FRAME
  6
Continuous
 62
     7
100
AcDbLine
 10
209.7415410320023
 20
60.22382648192911
 30
0.0
 11
209.7415410320023
 21
66.2238264819291
 31
0.0
  0
LINE
  5
C62
330
1F
100
AcDbEntity
  8
90000_FRAME
  6
Continuous
 62
     7
100
AcDbLine
 10
252.2415410320022
 20
60.22382648192911
 30
0.0
 11
252.2415410320022
 21
78.22382648192911
 31
0.0
  0
TEXT
  5
C63
330
1F
100
AcDbEntity
  8
90000_FRAME
  6
Continuous
 62
     7
100
AcDbText
 10
167.9015410320021
 20
62.12382648192908
 30
0.0
 40
2.2
  1
Format / Size: DIN A4
 41
0.7994987468660261
 72
     5
 11
201.320588651002
 21
62.12382648192908
 31
0.0
100
AcDbText
  0
TEXT
  5
C64
330
1F
100
AcDbEntity
  8
90000_FRAME
  6
Continuous
 62
     7
100
AcDbText
 10
210.4015410320021
 20
62.12382648192908
 30
0.0
 40
2.2
  1
Massstab / Scale: 1:1
 41
0.7732634338148426
 72
     5
 11
241.306302936802
 21
62.12382648192908
 31
0.0
100
AcDbText
  0
TEXT
  5
C65
330
1F
100
AcDbEntity
  8
90000_FRAME
  6
Continuous
 62
     7
370
    13
100
AcDbText
 10
180.547465555953
 20
70.47382648192911
 30
0.0
 40
3.5
  1
3RN1010_00000430_002_ALL
 41
0.7488237511497742
 72
     5
 11
236.4596389751361
 21
70.47382648192911
 31
0.0
100
AcDbText
  0
LINE
  5
C66
330
1F
100
AcDbEntity
  8
90000_FRAME
  6
Continuous
 62
     7
100
AcDbLine
 10
-7.758458967996827
 20
50.22382648192911
 30
0.0
 11
262.2415410320032
 21
50.22382648192911
 31
0.0
  0
LINE
  5
C67
330
1F
100
AcDbEntity
  8
90000_FRAME
  6
Continuous
 62
     7
100
AcDbLine
 10
262.2415410320032
 20
50.22382648192911
 30
0.0
 11
262.2415410320032
 21
250.223826481929
 31
0.0
  0
TEXT
  5
C68
330
1F
100
AcDbEntity
  8
91000_TIP
  6
Continuous
 62
     7
100
AcDbText
 10
-3.705109185332958
 20
58.95606310360573
 30
0.0
 40
2.5
  1
Alle Bemassungswerte sind in Millimeter (mm) angegeben.
 41
0.6056311217924568
 72
     5
 11
69.98001063274933
 21
58.95606310360573
 31
0.0
100
AcDbText
  0
TEXT
  5
C69
330
1F
100
AcDbEntity
  8
91000_TIP
  6
Continuous
 62
     7
100
AcDbText
 10
-3.705109185332958
 20
53.70606310360575
 30
0.0
 40
2.5
  1
All dimensions are in millimeters (mm).
 41
0.7513350295680256
 72
     5
 11
56.40169318010908
 21
53.70606310360575
 31
0.0
100
AcDbText
  0
LINE
  5
C6A
330
1F
100
AcDbEntity
  8
91000_TIP
  6
Continuous
 62
     7
100
AcDbLine
 10
92.0562111360282
 20
71.5475640042997
 30
0.0
 11
102.0562109318282
 21
74.04756395329968
 31
0.0
  0
LINE
  5
C6B
330
1F
100
AcDbEntity
  8
91000_TIP
  6
CENTER
 62
     7
100
AcDbLine
 10
90.77670066402719
 20
69.04756405539972
 30
0.0
 11
114.3786899281272
 21
69.04756405539972
 31
0.0
  0
LINE
  5
C6C
330
1F
100
AcDbEntity
  8
91000_TIP
  6
Continuous
 62
     7
100
AcDbLine
 10
92.0562111360282
 20
66.54756410649969
 30
0.0
 11
102.0562109318282
 21
64.04756415749961
 31
0.0
  0
LINE
  5
C6D
330
1F
100
AcDbEntity
  8
91000_TIP
  6
Continuous
 62
     7
100
AcDbLine
 10
92.0562111360282
 20
71.5475640042997
 30
0.0
 11
92.0562111360282
 21
66.54756410649969
 31
0.0
  0
LINE
  5
C6E
330
1F
100
AcDbEntity
  8
91000_TIP
  6
Continuous
 62
     7
100
AcDbLine
 10
102.0562109318282
 20
74.04756395329968
 30
0.0
 11
102.0562109318282
 21
64.04756415749961
 31
0.0
  0
LINE
  5
C6F
330
1F
100
AcDbEntity
  8
91000_TIP
  6
CENTER
 62
     7
100
AcDbLine
 10
108.5562107990281
 20
63.3260828489997
 30
0.0
 11
108.5562107990281
 21
74.60946884899965
 31
0.0
  0
CIRCLE
  5
C70
330
1F
100
AcDbEntity
  8
91000_TIP
  6
Continuous
 62
     7
100
AcDbCircle
 10
108.5562107990281
 20
69.04756405539972
 30
0.0
 40
4.9999998979
  0
CIRCLE
  5
C71
330
1F
100
AcDbEntity
  8
91000_TIP
  6
Continuous
 62
     7
100
AcDbCircle
 10
108.5562107990281
 20
69.04756405539972
 30
0.0
 40
2.499999948899997
  0
LINE
  5
C72
330
1F
100
AcDbEntity
  8
90000_FRAME
  6
Continuous
 62
     7
100
AcDbLine
 10
-7.758458967996827
 20
50.22382648192911
 30
0.0
 11
-7.758458967996827
 21
250.223826481929
 31
0.0
  0
LINE
  5
C73
330
1F
100
AcDbEntity
  8
90000_FRAME
  6
Continuous
 62
     7
100
AcDbLine
 10
-7.758458967996827
 20
250.223826481929
 30
0.0
 11
262.2415410320032
 21
250.223826481929
 31
0.0
  0
DIMENSION
  5
12B2D
330
1F
100
AcDbEntity
  8
10100_FRONT_DIM
  6
Continuous
 62
     7
370
    13
100
AcDbDimension
  2
*D2
 10
69.68108504705447
 20
96.78326827297199
 30
0.0
 11
69.68108504705445
 21
156.7832682729719
 31
0.0
 70
    32
 71
     5
 42
120.0
  3
DSTYLE1
100
AcDbAlignedDimension
 13
54.72224660355028
 23
216.783268272972
 33
0.0
 14
39.72224660355028
 24
96.78326827297199
 34
0.0
 50
90.0
100
AcDbRotatedDimension
1001
ACAD
1000
DSTYLE
1002
{
1070
    41
1040
2.0
1070
    42
1040
1.0
1070
    43
1040
1.0
1070
    47
1040
0.005
1070
    48
1040
-0.005
1070
    77
1070
     0
1070
    78
1070
     0
1070
   140
1040
3.5
1070
   143
1040
25.4
1070
   171
1070
     0
1070
   172
1070
     1
1070
   271
1070
     0
1070
   272
1070
     1
1070
   277
1070
     6
1070
   279
1070
     0
1002
}
  0
DIMENSION
  5
12B2F
330
1F
100
AcDbEntity
  8
11100_LEFT_DIM
  6
Continuous
 62
     7
370
    13
100
AcDbDimension
  2
*D3
 10
215.7716627621085
 20
232.8716077739865
 30
0.0
 11
172.7716627621085
 21
232.8716077739865
 31
0.0
 70
    32
 71
     5
 42
86.0
  3
DSTYLE1
100
AcDbAlignedDimension
 13
129.7716627621085
 23
194.5847859095811
 33
0.0
 14
215.7716627621085
 24
198.9347859095811
 34
0.0
100
AcDbRotatedDimension
1001
ACAD
1000
DSTYLE
1002
{
1070
    41
1040
2.0
1070
    42
1040
1.0
1070
    43
1040
1.0
1070
    47
1040
0.005
1070
    48
1040
-0.005
1070
    77
1070
     0
1070
    78
1070
     0
1070
   140
1040
3.5
1070
   143
1040
25.4
1070
   171
1070
     0
1070
   172
1070
     1
1070
   271
1070
     0
1070
   272
1070
     1
1070
   277
1070
     6
1070
   279
1070
     0
1002
}
  0
DIMENSION
  5
12B30
330
1F
100
AcDbEntity
  8
11100_LEFT_DIM
  6
Continuous
 62
     7
370
    13
100
AcDbDimension
  2
*D4
 10
194.6716627621085
 20
226.3309256839085
 30
0.0
 11
162.2216627621085
 21
226.3309256839085
 31
0.0
 70
    32
 71
     5
 42
64.90000000000001
  3
DSTYLE1
100
AcDbAlignedDimension
 13
129.7716627621085
 23
194.5847859095811
 33
0.0
 14
194.6716627621085
 24
199.1347859095811
 34
0.0
100
AcDbRotatedDimension
1001
ACAD
1000
DSTYLE
1002
{
1070
    41
1040
2.0
1070
    42
1040
1.0
1070
    43
1040
1.0
1070
    47
1040
0.005
1070
    48
1040
-0.005
1070
    77
1070
     0
1070
    78
1070
     0
1070
   140
1040
3.5
1070
   143
1040
25.4
1070
   171
1070
     0
1070
   172
1070
     1
1070
   271
1070
     0
1070
   272
1070
     1
1070
   277
1070
     6
1070
   279
1070
     0
1002
}
  0
DIMENSION
  5
12B31
330
1F
100
AcDbEntity
  8
11100_LEFT_DIM
  6
Continuous
 62
     7
370
    13
100
AcDbDimension
  2
*D5
 10
129.7675399236558
 20
226.3309256839085
 30
0.0
 11
116.5049960954416
 21
226.3309256839085
 31
0.0
 70
   160
 71
     5
 42
5.095877161547391
  3
DSTYLE1
100
AcDbAlignedDimension
 13
124.6716627621084
 23
217.5847859095811
 33
0.0
 14
129.7675399236558
 24
178.1488627435841
 34
0.0
100
AcDbRotatedDimension
1001
ACAD
1000
DSTYLE
1002
{
1070
    41
1040
2.0
1070
    42
1040
1.0
1070
    43
1040
1.0
1070
    47
1040
0.005
1070
    48
1040
-0.005
1070
    77
1070
     0
1070
    78
1070
     0
1070
   140
1040
3.5
1070
   143
1040
25.4
1070
   171
1070
     0
1070
   172
1070
     1
1070
   271
1070
     0
1070
   272
1070
     1
1070
   277
1070
     6
1070
   279
1070
     0
1002
}
  0
DIMENSION
  5
12B32
330
1F
100
AcDbEntity
  8
10100_FRONT_DIM
  6
Continuous
 62
     7
370
    13
100
AcDbDimension
  2
*D6
 10
19.00137188651729
 20
112.9093760922919
 30
0.0
 11
19.00137188651727
 21
156.5253021826318
 31
0.0
 70
    32
 71
     5
 42
87.23185218067991
  3
DSTYLE1
100
AcDbAlignedDimension
 13
35.17224660355055
 23
200.1412282729718
 33
0.0
 14
35.17224660355032
 24
112.9093760922919
 34
0.0
 50
90.0
100
AcDbRotatedDimension
1001
ACAD
1000
DSTYLE
1002
{
1070
    41
1040
2.0
1070
    42
1040
1.0
1070
    43
1040
1.0
1070
    47
1040
0.005
1070
    48
1040
-0.005
1070
    77
1070
     0
1070
    78
1070
     0
1070
   140
1040
3.5
1070
   143
1040
25.4
1070
   171
1070
     0
1070
   172
1070
     1
1070
   271
1070
     0
1070
   272
1070
     1
1070
   277
1070
     6
1070
   279
1070
     0
1002
}
  0
DIMENSION
  5
12B33
330
1F
100
AcDbEntity
  8
10100_FRONT_DIM
  6
Continuous
 62
     7
370
    13
100
AcDbDimension
  2
*D7
 10
24.98361435055972
 20
122.4412282729721
 30
0.0
 11
24.9836143505597
 21
156.541228272972
 31
0.0
 70
    32
 71
     5
 42
68.19999999999997
  3
DSTYLE1
100
AcDbAlignedDimension
 13
35.17224660355055
 23
190.641228272972
 33
0.0
 14
35.17224660355032
 24
122.4412282729721
 34
0.0
 50
90.0
100
AcDbRotatedDimension
1001
ACAD
1000
DSTYLE
1002
{
1070
    41
1040
2.0
1070
    42
1040
1.0
1070
    43
1040
1.0
1070
    47
1040
0.005
1070
    48
1040
-0.005
1070
    77
1070
     0
1070
    78
1070
     0
1070
   140
1040
3.5
1070
   143
1040
25.4
1070
   171
1070
     0
1070
   172
1070
     1
1070
   271
1070
     0
1070
   272
1070
     1
1070
   277
1070
     6
1070
   279
1070
     0
1002
}
  0
DIMENSION
  5
12B34
330
1F
100
AcDbEntity
  8
10100_FRONT_DIM
  6
Continuous
 62
     7
370
    13
100
AcDbDimension
  2
*D8
 10
45.47224660355026
 20
211.1468690040083
 30
0.0
 11
41.87224660355024
 21
211.1468690040083
 31
0.0
 70
   160
 71
     5
 42
7.200000000000035
  3
DSTYLE1
100
AcDbAlignedDimension
 13
38.27224660355022
 23
196.3412282729722
 33
0.0
 14
45.47224660355026
 24
196.3412282729722
 34
0.0
100
AcDbRotatedDimension
1001
ACAD
1000
DSTYLE
1002
{
1070
    76
1070
     0
1070
   282
1070
     0
1070
   175
1070
     1
1070
    75
1070
     1
1070
   281
1070
     1
1070
    41
1040
2.0
1070
    42
1040
1.0
1070
    43
1040
1.0
1070
    47
1040
0.005
1070
    48
1040
-0.005
1070
    77
1070
     0
1070
    78
1070
     0
1070
   140
1040
3.5
1070
   143
1040
25.4
1070
   171
1070
     0
1070
   172
1070
     0
1070
   271
1070
     0
1070
   272
1070
     1
1070
   277
1070
     6
1070
   279
1070
     0
1002
}
  0
DIMENSION
  5
12B35
330
1F
100
AcDbEntity
  8
10100_FRONT_DIM
  6
Continuous
 62
     7
370
    13
100
AcDbDimension
  2
*D9
 10
38.27224660355022
 20
211.1468690040083
 30
0.0
 11
26.0555799368833
 21
211.1468690040083
 31
0.0
 70
   160
 71
     5
 42
4.050000000000196
  3
DSTYLE1
100
AcDbAlignedDimension
 13
34.22224660355003
 23
200.2412282729721
 33
0.0
 14
38.27224660355022
 24
196.3412282729722
 34
0.0
100
AcDbRotatedDimension
1001
ACAD
1000
DSTYLE
1002
{
1070
   282
1070
     1
1070
   281
1070
     0
1070
    41
1040
2.0
1070
    42
1040
1.0
1070
    43
1040
1.0
1070
    47
1040
0.005
1070
    48
1040
-0.005
1070
    77
1070
     0
1070
    78
1070
     0
1070
   140
1040
3.5
1070
   143
1040
25.4
1070
   171
1070
     0
1070
   172
1070
     1
1070
   271
1070
     0
1070
   272
1070
     1
1070
   277
1070
     6
1070
   279
1070
     0
1002
}
  0
DIMENSION
  5
12B36
330
1F
100
AcDbEntity
  8
10100_FRONT_DIM
  6
Continuous
 62
     7
370
    13
100
AcDbDimension
  2
*D10
 10
56.72224660355004
 20
221.4009844047266
 30
0.0
 11
45.47224560355004
 21
221.4009844047266
 31
0.0
 70
    32
 71
     5
 42
22.50000199999998
  3
DSTYLE1
100
AcDbAlignedDimension
 13
34.22224460355006
 23
200.2412282729721
 33
0.0
 14
56.72224660355004
 24
207.3912282729723
 34
0.0
100
AcDbRotatedDimension
1001
ACAD
1000
DSTYLE
1002
{
1070
    41
1040
2.0
1070
    42
1040
1.0
1070
    43
1040
1.0
1070
    47
1040
0.005
1070
    48
1040
-0.005
1070
    77
1070
     0
1070
    78
1070
     0
1070
   140
1040
3.5
1070
   143
1040
25.4
1070
   171
1070
     0
1070
   172
1070
     1
1070
   271
1070
     1
1070
   272
1070
     1
1070
   277
1070
     6
1070
   279
1070
     0
1002
}
  0
DIMENSION
  5
12B37
330
1F
100
AcDbEntity
  8
11100_LEFT_DIM
  6
Continuous
 62
     7
370
    13
100
AcDbDimension
  2
*D11
 10
114.5044253135359
 20
194.5847859095811
 30
0.0
 11
114.5044253135359
 21
157.8347859095813
 31
0.0
 70
   160
 71
     5
 42
73.50000000000004
  3
DSTYLE1
100
AcDbAlignedDimension
 13
124.6716627621084
 23
121.084785909581
 33
0.0
 14
124.6716627621084
 24
194.5847859095811
 34
0.0
 50
90.0
100
AcDbRotatedDimension
1001
ACAD
1000
DSTYLE
1002
{
1070
    41
1040
2.0
1070
    42
1040
1.0
1070
    43
1040
1.0
1070
    47
1040
0.005
1070
    48
1040
-0.005
1070
    77
1070
     0
1070
    78
1070
     0
1070
   140
1040
3.5
1070
   143
1040
25.4
1070
   171
1070
     0
1070
   172
1070
     1
1070
   271
1070
     0
1070
   272
1070
     1
1070
   277
1070
     6
1070
   279
1070
     0
1002
}
  0
DIMENSION
  5
12B39
330
1F
100
AcDbEntity
  8
11100_LEFT_DIM
  6
Continuous
 62
     7
370
    13
100
AcDbDimension
  2
*D12
 10
223.5816521225418
 20
116.5347859095811
 30
0.0
 11
223.5816521225417
 21
157.8347859095812
 31
0.0
 70
    32
 71
     5
 42
82.60000000000003
  3
DSTYLE1
100
AcDbAlignedDimension
 13
215.5716627621084
 23
199.1347859095811
 33
0.0
 14
215.7326689157801
 24
116.5347859095811
 34
0.0
 50
90.0
100
AcDbRotatedDimension
1001
ACAD
1000
DSTYLE
1002
{
1070
    41
1040
2.0
1070
    42
1040
1.0
1070
    43
1040
1.0
1070
    47
1040
0.005
1070
    48
1040
-0.005
1070
    77
1070
     0
1070
    78
1070
     0
1070
   140
1040
3.5
1070
   143
1040
25.4
1070
   171
1070
     0
1070
   172
1070
     1
1070
   271
1070
     0
1070
   272
1070
     1
1070
   277
1070
     6
1070
   279
1070
     0
1002
}
  0
DIMENSION
  5
12B3A
330
1F
100
AcDbEntity
  8
10100_FRONT_DIM
  6
Continuous
 62
     7
370
    13
100
AcDbDimension
  2
*D13
 10
62.26156544343872
 20
101.783268272972
 30
0.0
 11
62.26156544343871
 21
156.7832682729723
 31
0.0
 70
   160
  1
110x15
 71
     5
 42
110.0
  3
DSTYLE1
100
AcDbAlignedDimension
 13
55.47224660355027
 23
211.7832682729721
 33
0.0
 14
40.47224660355027
 24
101.783268272972
 34
0.0
 50
90.0
100
AcDbRotatedDimension
1001
ACAD
1000
DSTYLE
1002
{
1070
    41
1040
2.0
1070
    42
1040
1.0
1070
    43
1040
1.0
1070
    47
1040
0.005
1070
    48
1040
-0.005
1070
    77
1070
     0
1070
    78
1070
     0
1070
   140
1040
3.5
1070
   143
1040
25.4
1070
   171
1070
     0
1070
   172
1070
     1
1070
   271
1070
     0
1070
   272
1070
     1
1070
   277
1070
     6
1070
   279
1070
     0
1002
}
  0
LINE
  5
12B3B
330
1F
100
AcDbEntity
  8
11000_Left
  6
HIDDEN
 62
     7
370
     9
100
AcDbLine
 10
130.6716627621083
 20
120.5847859095811
 30
0.0
 11
130.6716627621083
 21
97.58478590958112
 31
0.0
1001
AUSTER_FOLIE
1002
{
1000
12_POL_CC
1002
}
1001
AUSTER_ANSICHT
1002
{
1000
SL
1002
}
  0
LINE
  5
12B3C
330
1F
100
AcDbEntity
  8
11000_Left
  6
HIDDEN
 62
     7
370
     9
100
AcDbLine
 39
0.25
 10
128.7716014831636
 20
176.4847859095812
 30
-0.0000000000000036
 11
129.7716014831636
 21
176.4847859095812
 31
-0.7500000000000071
1001
AUSTER_ANSICHT
1002
{
1000
Det03
1002
}
1001
AUSTER_FOLIE
1002
{
1000
NSB01341_3RS10_24POL
1002
}
  0
LINE
  5
12B3D
330
1F
100
AcDbEntity
  8
11000_Left
  6
HIDDEN
 62
     7
370
     9
100
AcDbLine
 39
0.25
 10
125.8716014831637
 20
146.3347859095811
 30
-0.0000000000000036
 11
124.2716014831636
 21
146.3347859095811
 31
-0.0000000000000036
1001
AUSTER_ANSICHT
1002
{
1000
Det03
1002
}
1001
AUSTER_FOLIE
1002
{
1000
NSB01341_3RS10_24POL
1002
}
  0
LINE
  5
12B3E
330
1F
100
AcDbEntity
  8
11000_Left
  6
HIDDEN
 62
     7
370
     9
100
AcDbLine
 39
0.25
 10
125.8716014831637
 20
146.3347859095811
 30
-0.0000000000000036
 11
124.2716014831636
 21
146.3347859095811
 31
-0.0000000000000036
1001
AUSTER_ANSICHT
1002
{
1000
Det03
1002
}
1001
AUSTER_FOLIE
1002
{
1000
NSB01341_3RS10_24POL
1002
}
  0
LINE
  5
12B3F
330
1F
100
AcDbEntity
  8
11000_Left
  6
HIDDEN
 62
     7
370
     9
100
AcDbLine
 39
0.25
 10
125.8716014831637
 20
146.3347859095811
 30
-0.0000000000000036
 11
124.2716014831636
 21
146.3347859095811
 31
-0.0000000000000036
1001
AUSTER_ANSICHT
1002
{
1000
Det03
1002
}
1001
AUSTER_FOLIE
1002
{
1000
NSB01341_3RS10_24POL
1002
}
  0
ARC
  5
12B40
330
1F
100
AcDbEntity
  8
11000_Left
  6
HIDDEN
 62
     7
370
     9
100
AcDbCircle
 39
0.25
 10
124.2716014831636
 20
148.3347859095811
 30
-0.0000000000000036
 40
2.0
100
AcDbArc
 50
180.0
 51
270.0
1001
AUSTER_ANSICHT
1002
{
1000
Det03
1002
}
1001
AUSTER_FOLIE
1002
{
1000
NSB01341_3RS10_24POL
1002
}
  0
ARC
  5
12B41
330
1F
100
AcDbEntity
  8
11000_Left
  6
HIDDEN
 62
     7
370
     9
100
AcDbCircle
 39
0.25
 10
124.2716014831636
 20
148.3347859095811
 30
-0.0000000000000036
 40
2.0
100
AcDbArc
 50
180.0
 51
270.0
1001
AUSTER_ANSICHT
1002
{
1000
Det03
1002
}
1001
AUSTER_FOLIE
1002
{
1000
NSB01341_3RS10_24POL
1002
}
  0
ARC
  5
12B42
330
1F
100
AcDbEntity
  8
11000_Left
  6
HIDDEN
 62
     7
370
     9
100
AcDbCircle
 39
0.25
 10
124.2716014831636
 20
148.3347859095811
 30
-0.0000000000000036
 40
2.0
100
AcDbArc
 50
180.0
 51
270.0
1001
AUSTER_ANSICHT
1002
{
1000
Det03
1002
}
1001
AUSTER_FOLIE
1002
{
1000
NSB01341_3RS10_24POL
1002
}
  0
ARC
  5
12B43
330
1F
100
AcDbEntity
  8
11000_Left
  6
HIDDEN
 62
     7
370
     9
100
AcDbCircle
 10
128.3002071113909
 20
143.7133915378084
 30
-0.7500000000000036
 40
0.4722615119880704
100
AcDbArc
 50
356.5273781600807
 51
93.47262183990965
1001
AUSTER_FOLIE
1002
{
1000
NSB01341_3RS10_24POL
1002
}
1001
AUSTER_ANSICHT
1002
{
1000
Det03
1002
}
  0
LINE
  5
12B44
330
1F
100
AcDbEntity
  8
11000_Left
  6
HIDDEN
 62
     7
370
     9
100
AcDbLine
 39
0.25
 10
125.7716014831635
 20
148.3347859095811
 30
-1.000000000000001
 11
127.7716014831635
 21
148.3347859095811
 31
-1.000000000000001
1001
AUSTER_ANSICHT
1002
{
1000
Det03
1002
}
1001
AUSTER_FOLIE
1002
{
1000
NSB01341_3RS10_24POL
1002
}
  0
LINE
  5
12B45
330
1F
100
AcDbEntity
  8
11000_Left
  6
HIDDEN
 62
     7
370
     9
100
AcDbLine
 39
0.25
 10
125.7716014831635
 20
148.3347859095811
 30
-1.000000000000001
 11
127.7716014831635
 21
148.3347859095811
 31
-1.000000000000001
1001
AUSTER_ANSICHT
1002
{
1000
Det03
1002
}
1001
AUSTER_FOLIE
1002
{
1000
NSB01341_3RS10_24POL
1002
}
  0
LINE
  5
12B46
330
1F
100
AcDbEntity
  8
11000_Left
  6
HIDDEN
 62
     7
370
     9
100
AcDbLine
 39
0.25
 10
125.7716014831635
 20
148.3347859095811
 30
-1.000000000000001
 11
127.7716014831635
 21
148.3347859095811
 31
-1.000000000000001
1001
AUSTER_ANSICHT
1002
{
1000
Det03
1002
}
1001
AUSTER_FOLIE
1002
{
1000
NSB01341_3RS10_24POL
1002
}
  0
LINE
  5
12B47
330
1F
100
AcDbEntity
  8
11000_Left
  6
HIDDEN
 62
     7
370
     9
100
AcDbLine
 39
0.25
 10
124.7716014831635
 20
149.3347859095811
 30
-1.000000000000001
 11
124.7716014831635
 21
158.8347859095811
 31
-1.000000000000001
1001
AUSTER_ANSICHT
1002
{
1000
Det03
1002
}
1001
AUSTER_FOLIE
1002
{
1000
NSB01341_3RS10_24POL
1002
}
  0
LINE
  5
12B48
330
1F
100
AcDbEntity
  8
11000_Left
  6
HIDDEN
 62
     7
370
     9
100
AcDbLine
 39
0.25
 10
124.7716014831635
 20
149.3347859095811
 30
-1.000000000000001
 11
124.7716014831635
 21
158.8347859095811
 31
-1.000000000000001
1001
AUSTER_ANSICHT
1002
{
1000
Det03
1002
}
1001
AUSTER_FOLIE
1002
{
1000
NSB01341_3RS10_24POL
1002
}
  0
LINE
  5
12B49
330
1F
100
AcDbEntity
  8
11000_Left
  6
HIDDEN
 62
     7
370
     9
100
AcDbLine
 39
0.25
 10
124.7716014831635
 20
149.3347859095811
 30
-1.000000000000001
 11
124.7716014831635
 21
158.8347859095811
 31
-1.000000000000001
1001
AUSTER_ANSICHT
1002
{
1000
Det03
1002
}
1001
AUSTER_FOLIE
1002
{
1000
NSB01341_3RS10_24POL
1002
}
  0
LINE
  5
12B4A
330
1F
100
AcDbEntity
  8
11000_Left
  6
HIDDEN
 62
     7
370
     9
100
AcDbLine
 39
0.25
 10
127.7716014831635
 20
144.434785909581
 30
-1.000000000000001
 11
127.7716014831635
 21
144.1847859095811
 31
-1.000000000000001
1001
AUSTER_ANSICHT
1002
{
1000
Det03
1002
}
1001
AUSTER_FOLIE
1002
{
1000
NSB01341_3RS10_24POL
1002
}
  0
LINE
  5
12B4B
330
1F
100
AcDbEntity
  8
11000_Left
  6
HIDDEN
 62
     7
370
     9
100
AcDbLine
 39
0.25
 10
128.2716014831636
 20
144.1847859095811
 30
-1.000000000000001
 11
127.7716014831635
 21
144.1847859095811
 31
-1.000000000000001
1001
AUSTER_ANSICHT
1002
{
1000
Det03
1002
}
1001
AUSTER_FOLIE
1002
{
1000
NSB01341_3RS10_24POL
1002
}
  0
LINE
  5
12B4C
330
1F
100
AcDbEntity
  8
11000_Left
  6
HIDDEN
 62
     7
370
     9
100
AcDbLine
 39
0.25
 10
127.7716014831635
 20
144.434785909581
 30
-1.000000000000001
 11
127.7716014831635
 21
144.1847859095811
 31
-1.000000000000001
1001
AUSTER_ANSICHT
1002
{
1000
Det03
1002
}
1001
AUSTER_FOLIE
1002
{
1000
NSB01341_3RS10_24POL
1002
}
  0
LINE
  5
12B4D
330
1F
100
AcDbEntity
  8
11000_Left
  6
HIDDEN
 62
     7
370
     9
100
AcDbLine
 39
0.25
 10
128.2716014831636
 20
144.1847859095811
 30
-1.000000000000001
 11
127.7716014831635
 21
144.1847859095811
 31
-1.000000000000001
1001
AUSTER_ANSICHT
1002
{
1000
Det03
1002
}
1001
AUSTER_FOLIE
1002
{
1000
NSB01341_3RS10_24POL
1002
}
  0
LINE
  5
12B4E
330
1F
100
AcDbEntity
  8
11000_Left
  6
HIDDEN
 62
     7
370
     9
100
AcDbLine
 39
0.25
 10
127.7716014831635
 20
144.434785909581
 30
-1.000000000000001
 11
127.7716014831635
 21
144.1847859095811
 31
-1.000000000000001
1001
AUSTER_ANSICHT
1002
{
1000
Det03
1002
}
1001
AUSTER_FOLIE
1002
{
1000
NSB01341_3RS10_24POL
1002
}
  0
LINE
  5
12B4F
330
1F
100
AcDbEntity
  8
11000_Left
  6
HIDDEN
 62
     7
370
     9
100
AcDbLine
 39
0.25
 10
128.2716014831636
 20
144.1847859095811
 30
-1.000000000000001
 11
127.7716014831635
 21
144.1847859095811
 31
-1.000000000000001
1001
AUSTER_ANSICHT
1002
{
1000
Det03
1002
}
1001
AUSTER_FOLIE
1002
{
1000
NSB01341_3RS10_24POL
1002
}
  0
LINE
  5
12B50
330
1F
100
AcDbEntity
  8
11000_Left
  6
HIDDEN
 62
     7
370
     9
100
AcDbLine
 39
0.25
 10
129.7716014831636
 20
146.3347859095811
 30
-1.000000000000001
 11
127.7716014831635
 21
148.3347859095811
 31
-1.000000000000001
1001
AUSTER_ANSICHT
1002
{
1000
Det03
1002
}
1001
AUSTER_FOLIE
1002
{
1000
NSB01341_3RS10_24POL
1002
}
  0
LINE
  5
12B51
330
1F
100
AcDbEntity
  8
11000_Left
  6
HIDDEN
 62
     7
370
     9
100
AcDbLine
 39
0.25
 10
129.7716014831636
 20
146.3347859095811
 30
-1.000000000000001
 11
127.7716014831635
 21
148.3347859095811
 31
-1.000000000000001
1001
AUSTER_ANSICHT
1002
{
1000
Det03
1002
}
1001
AUSTER_FOLIE
1002
{
1000
NSB01341_3RS10_24POL
1002
}
  0
LINE
  5
12B52
330
1F
100
AcDbEntity
  8
11000_Left
  6
HIDDEN
 62
     7
370
     9
100
AcDbLine
 39
0.25
 10
129.7716014831636
 20
146.3347859095811
 30
-1.000000000000001
 11
127.7716014831635
 21
148.3347859095811
 31
-1.000000000000001
1001
AUSTER_ANSICHT
1002
{
1000
Det03
1002
}
1001
AUSTER_FOLIE
1002
{
1000
NSB01341_3RS10_24POL
1002
}
  0
ARC
  5
12B53
330
1F
100
AcDbEntity
  8
11000_Left
  6
HIDDEN
 62
     7
370
     9
100
AcDbCircle
 39
0.25
 10
125.8716014831637
 20
144.434785909581
 30
-1.000000000000001
 40
1.9
100
AcDbArc
 50
0.0000000107509873
 51
90.0
1001
AUSTER_ANSICHT
1002
{
1000
Det03
1002
}
1001
AUSTER_FOLIE
1002
{
1000
NSB01341_3RS10_24POL
1002
}
  0
ARC
  5
12B54
330
1F
100
AcDbEntity
  8
11000_Left
  6
HIDDEN
 62
     7
370
     9
100
AcDbCircle
 39
0.25
 10
125.8716014831637
 20
144.434785909581
 30
-1.000000000000001
 40
1.9
100
AcDbArc
 50
0.0000000107509873
 51
90.0
1001
AUSTER_ANSICHT
1002
{
1000
Det03
1002
}
1001
AUSTER_FOLIE
1002
{
1000
NSB01341_3RS10_24POL
1002
}
  0
ARC
  5
12B55
330
1F
100
AcDbEntity
  8
11000_Left
  6
HIDDEN
 62
     7
370
     9
100
AcDbCircle
 39
0.25
 10
125.8716014831637
 20
144.434785909581
 30
-1.000000000000001
 40
1.9
100
AcDbArc
 50
0.0000000107509873
 51
90.0
1001
AUSTER_ANSICHT
1002
{
1000
Det03
1002
}
1001
AUSTER_FOLIE
1002
{
1000
NSB01341_3RS10_24POL
1002
}
  0
ARC
  5
12B56
330
1F
100
AcDbEntity
  8
11000_Left
  6
HIDDEN
 62
     7
370
     9
100
AcDbCircle
 39
0.25
 10
125.7716014831635
 20
149.3347859095811
 30
-1.000000000000001
 40
1.0
100
AcDbArc
 50
180.0
 51
270.0
1001
AUSTER_ANSICHT
1002
{
1000
Det03
1002
}
1001
AUSTER_FOLIE
1002
{
1000
NSB01341_3RS10_24POL
1002
}
  0
ARC
  5
12B57
330
1F
100
AcDbEntity
  8
11000_Left
  6
HIDDEN
 62
     7
370
     9
100
AcDbCircle
 39
0.25
 10
125.7716014831635
 20
149.3347859095811
 30
-1.000000000000001
 40
1.0
100
AcDbArc
 50
180.0
 51
270.0
1001
AUSTER_ANSICHT
1002
{
1000
Det03
1002
}
1001
AUSTER_FOLIE
1002
{
1000
NSB01341_3RS10_24POL
1002
}
  0
ARC
  5
12B58
330
1F
100
AcDbEntity
  8
11000_Left
  6
HIDDEN
 62
     7
370
     9
100
AcDbCircle
 39
0.25
 10
125.7716014831635
 20
149.3347859095811
 30
-1.000000000000001
 40
1.0
100
AcDbArc
 50
180.0
 51
270.0
1001
AUSTER_ANSICHT
1002
{
1000
Det03
1002
}
1001
AUSTER_FOLIE
1002
{
1000
NSB01341_3RS10_24POL
1002
}
  0
LINE
  5
12B59
330
1F
100
AcDbEntity
  8
11000_Left
  6
HIDDEN
 62
     7
370
     9
100
AcDbLine
 39
0.25
 10
128.7716014831636
 20
143.6847859095811
 30
-1.000000000000001
 11
128.7716898330905
 21
141.281970829263
 31
-0.5
1001
AUSTER_ANSICHT
1002
{
1000
Det03
1002
}
1001
AUSTER_FOLIE
1002
{
1000
NSB01341_3RS10_24POL
1002
}
  0
LINE
  5
12B5A
330
1F
100
AcDbEntity
  8
11000_Left
  6
HIDDEN
 62
     7
370
     9
100
AcDbLine
 39
0.25
 10
128.7716014831636
 20
143.6847859095811
 30
-1.000000000000001
 11
128.7716898330905
 21
141.281970829263
 31
-0.25
1001
AUSTER_ANSICHT
1002
{
1000
Det03
1002
}
1001
AUSTER_FOLIE
1002
{
1000
NSB01341_3RS10_24POL
1002
}
  0
LINE
  5
12B5B
330
1F
100
AcDbEntity
  8
11000_Left
  6
HIDDEN
 62
     7
370
     9
100
AcDbLine
 39
0.25
 10
125.8716014831637
 20
171.3347859095811
 30
-0.0000000000000036
 11
124.2716014831636
 21
171.3347859095811
 31
-0.0000000000000036
1001
AUSTER_ANSICHT
1002
{
1000
Det03
1002
}
1001
AUSTER_FOLIE
1002
{
1000
NSB01341_3RS10_24POL
1002
}
  0
LINE
  5
12B5C
330
1F
100
AcDbEntity
  8
11000_Left
  6
HIDDEN
 62
     7
370
     9
100
AcDbLine
 39
0.25
 10
125.8716014831637
 20
171.3347859095811
 30
-0.0000000000000036
 11
124.2716014831636
 21
171.3347859095811
 31
-0.0000000000000036
1001
AUSTER_ANSICHT
1002
{
1000
Det03
1002
}
1001
AUSTER_FOLIE
1002
{
1000
NSB01341_3RS10_24POL
1002
}
  0
LINE
  5
12B5D
330
1F
100
AcDbEntity
  8
11000_Left
  6
HIDDEN
 62
     7
370
     9
100
AcDbLine
 39
0.25
 10
125.8716014831637
 20
171.3347859095811
 30
-0.0000000000000036
 11
124.2716014831636
 21
171.3347859095811
 31
-0.0000000000000036
1001
AUSTER_ANSICHT
1002
{
1000
Det03
1002
}
1001
AUSTER_FOLIE
1002
{
1000
NSB01341_3RS10_24POL
1002
}
  0
LINE
  5
12B5E
330
1F
100
AcDbEntity
  8
11000_Left
  6
HIDDEN
 62
     7
370
     9
100
AcDbLine
 39
0.25
 10
122.2716014831636
 20
169.3347859095811
 30
-0.0000000000000036
 11
122.2716014831636
 21
148.3347859095811
 31
-0.0000000000000036
1001
AUSTER_ANSICHT
1002
{
1000
Det03
1002
}
1001
AUSTER_FOLIE
1002
{
1000
NSB01341_3RS10_24POL
1002
}
  0
LINE
  5
12B5F
330
1F
100
AcDbEntity
  8
11000_Left
  6
HIDDEN
 62
     7
370
     9
100
AcDbLine
 39
0.25
 10
122.2716014831636
 20
169.3347859095811
 30
-0.0000000000000036
 11
122.2716014831636
 21
148.3347859095811
 31
-0.0000000000000036
1001
AUSTER_ANSICHT
1002
{
1000
Det03
1002
}
1001
AUSTER_FOLIE
1002
{
1000
NSB01341_3RS10_24POL
1002
}
  0
LINE
  5
12B60
330
1F
100
AcDbEntity
  8
11000_Left
  6
HIDDEN
 62
     7
370
     9
100
AcDbLine
 39
0.25
 10
122.2716014831636
 20
169.3347859095811
 30
-0.0000000000000036
 11
122.2716014831636
 21
148.3347859095811
 31
-0.0000000000000036
1001
AUSTER_ANSICHT
1002
{
1000
Det03
1002
}
1001
AUSTER_FOLIE
1002
{
1000
NSB01341_3RS10_24POL
1002
}
  0
ARC
  5
12B61
330
1F
100
AcDbEntity
  8
11000_Left
  6
HIDDEN
 62
     7
370
     9
100
AcDbCircle
 39
0.25
 10
124.2716014831636
 20
169.3347859095811
 30
-0.0000000000000039
 40
2.0
100
AcDbArc
 50
90.0
 51
180.0
1001
AUSTER_ANSICHT
1002
{
1000
Det03
1002
}
1001
AUSTER_FOLIE
1002
{
1000
NSB01341_3RS10_24POL
1002
}
  0
LINE
  5
12B62
330
1F
100
AcDbEntity
  8
11000_Left
  6
HIDDEN
 62
     7
370
     9
100
AcDbLine
 39
0.25
 10
128.2716014831636
 20
173.4847859095812
 30
-1.000000000000001
 11
127.7716014831635
 21
173.4847859095812
 31
-1.000000000000001
1001
AUSTER_ANSICHT
1002
{
1000
Det03
1002
}
1001
AUSTER_FOLIE
1002
{
1000
NSB01341_3RS10_24POL
1002
}
  0
LINE
  5
12B63
330
1F
100
AcDbEntity
  8
11000_Left
  6
HIDDEN
 62
     7
370
     9
100
AcDbLine
 39
0.25
 10
128.2716014831636
 20
173.4847859095812
 30
-1.000000000000001
 11
127.7716014831635
 21
173.4847859095812
 31
-1.000000000000001
1001
AUSTER_ANSICHT
1002
{
1000
Det03
1002
}
1001
AUSTER_FOLIE
1002
{
1000
NSB01341_3RS10_24POL
1002
}
  0
LINE
  5
12B64
330
1F
100
AcDbEntity
  8
11000_Left
  6
HIDDEN
 62
     7
370
     9
100
AcDbLine
 39
0.25
 10
128.2716014831636
 20
173.4847859095812
 30
-1.000000000000001
 11
127.7716014831635
 21
173.4847859095812
 31
-1.000000000000001
1001
AUSTER_ANSICHT
1002
{
1000
Det03
1002
}
1001
AUSTER_FOLIE
1002
{
1000
NSB01341_3RS10_24POL
1002
}
  0
LINE
  5
12B65
330
1F
100
AcDbEntity
  8
11000_Left
  6
HIDDEN
 62
     7
370
     9
100
AcDbLine
 39
0.25
 10
127.7716014831635
 20
173.2347859095812
 30
-1.000000000000001
 11
127.7716014831635
 21
173.4847859095812
 31
-1.000000000000001
1001
AUSTER_ANSICHT
1002
{
1000
Det03
1002
}
1001
AUSTER_FOLIE
1002
{
1000
NSB01341_3RS10_24POL
1002
}
  0
LINE
  5
12B66
330
1F
100
AcDbEntity
  8
11000_Left
  6
HIDDEN
 62
     7
370
     9
100
AcDbLine
 39
0.25
 10
127.7716014831635
 20
173.2347859095812
 30
-1.000000000000001
 11
127.7716014831635
 21
173.4847859095812
 31
-1.000000000000001
1001
AUSTER_ANSICHT
1002
{
1000
Det03
1002
}
1001
AUSTER_FOLIE
1002
{
1000
NSB01341_3RS10_24POL
1002
}
  0
LINE
  5
12B67
330
1F
100
AcDbEntity
  8
11000_Left
  6
HIDDEN
 62
     7
370
     9
100
AcDbLine
 39
0.25
 10
127.7716014831635
 20
173.2347859095812
 30
-1.000000000000001
 11
127.7716014831635
 21
173.4847859095812
 31
-1.000000000000001
1001
AUSTER_ANSICHT
1002
{
1000
Det03
1002
}
1001
AUSTER_FOLIE
1002
{
1000
NSB01341_3RS10_24POL
1002
}
  0
LINE
  5
12B68
330
1F
100
AcDbEntity
  8
11000_Left
  6
HIDDEN
 62
     7
370
     9
100
AcDbLine
 39
0.25
 10
128.7716014831636
 20
173.9847859095811
 30
-1.000000000000001
 11
128.7716014831636
 21
176.4847859095812
 31
-1.000000000000001
1001
AUSTER_ANSICHT
1002
{
1000
Det03
1002
}
1001
AUSTER_FOLIE
1002
{
1000
NSB01341_3RS10_24POL
1002
}
  0
LINE
  5
12B69
330
1F
100
AcDbEntity
  8
11000_Left
  6
HIDDEN
 62
     7
370
     9
100
AcDbLine
 39
0.25
 10
128.7716014831636
 20
173.9847859095811
 30
-1.000000000000001
 11
128.7716014831636
 21
176.4847859095812
 31
-1.000000000000001
1001
AUSTER_ANSICHT
1002
{
1000
Det03
1002
}
1001
AUSTER_FOLIE
1002
{
1000
NSB01341_3RS10_24POL
1002
}
  0
LINE
  5
12B6A
330
1F
100
AcDbEntity
  8
11000_Left
  6
HIDDEN
 62
     7
370
     9
100
AcDbLine
 39
0.25
 10
125.7716014831635
 20
169.3347859095811
 30
-1.000000000000001
 11
127.7716014831635
 21
169.3347859095811
 31
-1.000000000000001
1001
AUSTER_ANSICHT
1002
{
1000
Det03
1002
}
1001
AUSTER_FOLIE
1002
{
1000
NSB01341_3RS10_24POL
1002
}
  0
LINE
  5
12B6B
330
1F
100
AcDbEntity
  8
11000_Left
  6
HIDDEN
 62
     7
370
     9
100
AcDbLine
 39
0.25
 10
125.7716014831635
 20
169.3347859095811
 30
-1.000000000000001
 11
127.7716014831635
 21
169.3347859095811
 31
-1.000000000000001
1001
AUSTER_ANSICHT
1002
{
1000
Det03
1002
}
1001
AUSTER_FOLIE
1002
{
1000
NSB01341_3RS10_24POL
1002
}
  0
LINE
  5
12B6C
330
1F
100
AcDbEntity
  8
11000_Left
  6
HIDDEN
 62
     7
370
     9
100
AcDbLine
 39
0.25
 10
125.7716014831635
 20
169.3347859095811
 30
-1.000000000000001
 11
127.7716014831635
 21
169.3347859095811
 31
-1.000000000000001
1001
AUSTER_ANSICHT
1002
{
1000
Det03
1002
}
1001
AUSTER_FOLIE
1002
{
1000
NSB01341_3RS10_24POL
1002
}
  0
LINE
  5
12B6D
330
1F
100
AcDbEntity
  8
11000_Left
  6
HIDDEN
 62
     7
370
     9
100
AcDbLine
 39
0.25
 10
129.7716014831636
 20
171.3347859095811
 30
-1.000000000000001
 11
127.7716014831635
 21
169.3347859095811
 31
-1.000000000000001
1001
AUSTER_ANSICHT
1002
{
1000
Det03
1002
}
1001
AUSTER_FOLIE
1002
{
1000
NSB01341_3RS10_24POL
1002
}
  0
LINE
  5
12B6E
330
1F
100
AcDbEntity
  8
11000_Left
  6
HIDDEN
 62
     7
370
     9
100
AcDbLine
 39
0.25
 10
129.7716014831636
 20
171.3347859095811
 30
-1.000000000000001
 11
127.7716014831635
 21
169.3347859095811
 31
-1.000000000000001
1001
AUSTER_ANSICHT
1002
{
1000
Det03
1002
}
1001
AUSTER_FOLIE
1002
{
1000
NSB01341_3RS10_24POL
1002
}
  0
LINE
  5
12B6F
330
1F
100
AcDbEntity
  8
11000_Left
  6
HIDDEN
 62
     7
370
     9
100
AcDbLine
 39
0.25
 10
129.7716014831636
 20
171.3347859095811
 30
-1.000000000000001
 11
127.7716014831635
 21
169.3347859095811
 31
-1.000000000000001
1001
AUSTER_ANSICHT
1002
{
1000
Det03
1002
}
1001
AUSTER_FOLIE
1002
{
1000
NSB01341_3RS10_24POL
1002
}
  0
LINE
  5
12B70
330
1F
100
AcDbEntity
  8
11000_Left
  6
HIDDEN
 62
     7
370
     9
100
AcDbLine
 39
0.25
 10
124.7716014831635
 20
168.3347859095811
 30
-1.000000000000001
 11
124.7716014831635
 21
158.8347859095811
 31
-1.000000000000001
1001
AUSTER_ANSICHT
1002
{
1000
Det03
1002
}
1001
AUSTER_FOLIE
1002
{
1000
NSB01341_3RS10_24POL
1002
}
  0
LINE
  5
12B71
330
1F
100
AcDbEntity
  8
11000_Left
  6
HIDDEN
 62
     7
370
     9
100
AcDbLine
 39
0.25
 10
124.7716014831635
 20
168.3347859095811
 30
-1.000000000000001
 11
124.7716014831635
 21
158.8347859095811
 31
-1.000000000000001
1001
AUSTER_ANSICHT
1002
{
1000
Det03
1002
}
1001
AUSTER_FOLIE
1002
{
1000
NSB01341_3RS10_24POL
1002
}
  0
LINE
  5
12B72
330
1F
100
AcDbEntity
  8
11000_Left
  6
HIDDEN
 62
     7
370
     9
100
AcDbLine
 39
0.25
 10
124.7716014831635
 20
168.3347859095811
 30
-1.000000000000001
 11
124.7716014831635
 21
158.8347859095811
 31
-1.000000000000001
1001
AUSTER_ANSICHT
1002
{
1000
Det03
1002
}
1001
AUSTER_FOLIE
1002
{
1000
NSB01341_3RS10_24POL
1002
}
  0
ARC
  5
12B73
330
1F
100
AcDbEntity
  8
11000_Left
  6
HIDDEN
 62
     7
370
     9
100
AcDbCircle
 39
0.25
 10
125.7716014831635
 20
168.3347859095811
 30
-1.000000000000001
 40
1.0
100
AcDbArc
 50
90.0
 51
180.0
1001
AUSTER_ANSICHT
1002
{
1000
Det03
1002
}
1001
AUSTER_FOLIE
1002
{
1000
NSB01341_3RS10_24POL
1002
}
  0
ARC
  5
12B74
330
1F
100
AcDbEntity
  8
11000_Left
  6
HIDDEN
 62
     7
370
     9
100
AcDbCircle
 39
0.25
 10
125.7716014831635
 20
168.3347859095811
 30
-1.000000000000001
 40
1.0
100
AcDbArc
 50
90.0
 51
180.0
1001
AUSTER_ANSICHT
1002
{
1000
Det03
1002
}
1001
AUSTER_FOLIE
1002
{
1000
NSB01341_3RS10_24POL
1002
}
  0
ARC
  5
12B75
330
1F
100
AcDbEntity
  8
11000_Left
  6
HIDDEN
 62
     7
370
     9
100
AcDbCircle
 39
0.25
 10
125.7716014831635
 20
168.3347859095811
 30
-1.000000000000001
 40
1.0
100
AcDbArc
 50
90.0
 51
180.0
1001
AUSTER_ANSICHT
1002
{
1000
Det03
1002
}
1001
AUSTER_FOLIE
1002
{
1000
NSB01341_3RS10_24POL
1002
}
  0
ARC
  5
12B76
330
1F
100
AcDbEntity
  8
11000_Left
  6
HIDDEN
 62
     7
370
     9
100
AcDbCircle
 39
0.25
 10
125.8716014831637
 20
173.2347859095812
 30
-1.000000000000001
 40
1.9
100
AcDbArc
 50
270.0
 51
0.0
1001
AUSTER_ANSICHT
1002
{
1000
Det03
1002
}
1001
AUSTER_FOLIE
1002
{
1000
NSB01341_3RS10_24POL
1002
}
  0
ARC
  5
12B77
330
1F
100
AcDbEntity
  8
11000_Left
  6
HIDDEN
 62
     7
370
     9
100
AcDbCircle
 39
0.25
 10
125.8716014831637
 20
173.2347859095812
 30
-1.000000000000001
 40
1.9
100
AcDbArc
 50
270.0
 51
0.0
1001
AUSTER_ANSICHT
1002
{
1000
Det03
1002
}
1001
AUSTER_FOLIE
1002
{
1000
NSB01341_3RS10_24POL
1002
}
  0
ARC
  5
12B78
330
1F
100
AcDbEntity
  8
11000_Left
  6
HIDDEN
 62
     7
370
     9
100
AcDbCircle
 39
0.25
 10
125.8716014831637
 20
173.2347859095812
 30
-1.000000000000001
 40
1.9
100
AcDbArc
 50
270.0
 51
0.0
1001
AUSTER_ANSICHT
1002
{
1000
Det03
1002
}
1001
AUSTER_FOLIE
1002
{
1000
NSB01341_3RS10_24POL
1002
}
  0
ARC
  5
12B79
330
1F
100
AcDbEntity
  8
11000_Left
  6
HIDDEN
 62
     7
370
     9
100
AcDbCircle
 39
0.25
 10
128.2716014831636
 20
173.9847859095811
 30
-1.000000000000001
 40
0.5
100
AcDbArc
 50
270.0
 51
0.0
1001
AUSTER_ANSICHT
1002
{
1000
Det03
1002
}
1001
AUSTER_FOLIE
1002
{
1000
NSB01341_3RS10_24POL
1002
}
  0
ARC
  5
12B7A
330
1F
100
AcDbEntity
  8
11000_Left
  6
HIDDEN
 62
     7
370
     9
100
AcDbCircle
 39
0.25
 10
128.2716014831636
 20
173.9847859095811
 30
-1.000000000000001
 40
0.5
100
AcDbArc
 50
270.0
 51
0.0
1001
AUSTER_ANSICHT
1002
{
1000
Det03
1002
}
1001
AUSTER_FOLIE
1002
{
1000
NSB01341_3RS10_24POL
1002
}
  0
ARC
  5
12B7B
330
1F
100
AcDbEntity
  8
11000_Left
  6
HIDDEN
 62
     7
370
     9
100
AcDbCircle
 39
0.25
 10
128.2716014831636
 20
173.9847859095811
 30
-1.000000000000001
 40
0.5
100
AcDbArc
 50
270.0
 51
0.0
1001
AUSTER_ANSICHT
1002
{
1000
Det03
1002
}
1001
AUSTER_FOLIE
1002
{
1000
NSB01341_3RS10_24POL
1002
}
  0
LINE
  5
12B7C
330
1F
100
AcDbEntity
  8
11000_Left
  6
HIDDEN
 62
     7
370
     9
100
AcDbLine
 39
0.25
 10
128.7716014831636
 20
173.9847859095811
 30
-1.000000000000001
 11
128.7716014831636
 21
176.4847859095812
 31
-1.000000000000001
1001
AUSTER_ANSICHT
1002
{
1000
Det03
1002
}
1001
AUSTER_FOLIE
1002
{
1000
NSB01341_3RS10_24POL
1002
}
  0
LINE
  5
12B7D
330
1F
100
AcDbEntity
  8
11000_Left
  6
HIDDEN
 62
     7
370
     9
100
AcDbLine
 10
124.6716627621084
 20
109.5847859095811
 30
0.0
 11
130.6716627621083
 21
109.5847859095811
 31
0.0
1001
AUSTER_FOLIE
1002
{
1000
12_POL_CC
1002
}
1001
AUSTER_ANSICHT
1002
{
1000
SL
1002
}
  0
LINE
  5
12B7E
330
1F
100
AcDbEntity
  8
11000_Left
  6
HIDDEN
 62
     7
370
     9
100
AcDbLine
 10
130.6716627621083
 20
115.5847859095811
 30
0.0
 11
124.6716627621084
 21
115.5847859095811
 31
0.0
1001
AUSTER_FOLIE
1002
{
1000
12_POL_CC
1002
}
1001
AUSTER_ANSICHT
1002
{
1000
SL
1002
}
  0
LINE
  5
12B7F
330
1F
100
AcDbEntity
  8
11000_Left
  6
HIDDEN
 62
     7
370
     9
100
AcDbLine
 10
124.6716627621084
 20
99.58478590958113
 30
0.0
 11
130.6716627621083
 21
99.58478590958113
 31
0.0
1001
AUSTER_FOLIE
1002
{
1000
12_POL_CC
1002
}
1001
AUSTER_ANSICHT
1002
{
1000
SL
1002
}
  0
LINE
  5
12B80
330
1F
100
AcDbEntity
  8
11000_Left
  6
HIDDEN
 62
     7
370
     9
100
AcDbLine
 10
124.6716627621084
 20
97.58478590958112
 30
0.0
 11
130.6716627621083
 21
97.58478590958112
 31
0.0
1001
AUSTER_FOLIE
1002
{
1000
12_POL_CC
1002
}
1001
AUSTER_ANSICHT
1002
{
1000
SL
1002
}
  0
LINE
  5
12B81
330
1F
100
AcDbEntity
  8
11000_Left
  6
HIDDEN
 62
     7
370
     9
100
AcDbLine
 10
130.6716627621083
 20
105.5847859095811
 30
0.0
 11
124.6716627621084
 21
105.5847859095811
 31
0.0
1001
AUSTER_FOLIE
1002
{
1000
12_POL_CC
1002
}
1001
AUSTER_ANSICHT
1002
{
1000
SL
1002
}
  0
LINE
  5
12B82
330
1F
100
AcDbEntity
  8
11000_Left
  6
HIDDEN
 62
     7
370
     9
100
AcDbLine
 10
124.6716627621084
 20
120.5847859095811
 30
0.0
 11
124.6716627621084
 21
97.58478590958112
 31
0.0
1001
AUSTER_FOLIE
1002
{
1000
12_POL_CC
1002
}
1001
AUSTER_ANSICHT
1002
{
1000
SL
1002
}
  0
LINE
  5
12B83
330
1F
100
AcDbEntity
  8
11000_Left
  6
HIDDEN
 62
     7
370
     9
100
AcDbLine
 10
124.6716627621084
 20
194.5847859095811
 30
0.0
 11
124.6716627621084
 21
217.5847859095811
 31
0.0
1001
AUSTER_FOLIE
1002
{
1000
12_POL_CC
1002
}
1001
AUSTER_ANSICHT
1002
{
1000
SL
1002
}
  0
LINE
  5
12B84
330
1F
100
AcDbEntity
  8
11000_Left
  6
HIDDEN
 62
     7
370
     9
100
AcDbLine
 10
124.6716627621084
 20
215.5847859095811
 30
0.0
 11
130.6716627621083
 21
215.5847859095811
 31
0.0
1001
AUSTER_FOLIE
1002
{
1000
12_POL_CC
1002
}
1001
AUSTER_ANSICHT
1002
{
1000
SL
1002
}
  0
LINE
  5
12B85
330
1F
100
AcDbEntity
  8
11000_Left
  6
HIDDEN
 62
     7
370
     9
100
AcDbLine
 10
124.6716627621084
 20
217.5847859095811
 30
0.0
 11
130.6716627621083
 21
217.5847859095811
 31
0.0
1001
AUSTER_FOLIE
1002
{
1000
12_POL_CC
1002
}
1001
AUSTER_ANSICHT
1002
{
1000
SL
1002
}
  0
LINE
  5
12B86
330
1F
100
AcDbEntity
  8
11000_Left
  6
HIDDEN
 62
     7
370
     9
100
AcDbLine
 10
130.6716627621083
 20
199.5847859095811
 30
0.0
 11
124.6716627621084
 21
199.5847859095811
 31
0.0
1001
AUSTER_FOLIE
1002
{
1000
12_POL_CC
1002
}
1001
AUSTER_ANSICHT
1002
{
1000
SL
1002
}
  0
LINE
  5
12B87
330
1F
100
AcDbEntity
  8
11000_Left
  6
HIDDEN
 62
     7
370
     9
100
AcDbLine
 10
130.6716627621083
 20
209.5847859095811
 30
0.0
 11
124.6716627621084
 21
209.5847859095811
 31
0.0
1001
AUSTER_FOLIE
1002
{
1000
12_POL_CC
1002
}
1001
AUSTER_ANSICHT
1002
{
1000
SL
1002
}
  0
LINE
  5
12B88
330
1F
100
AcDbEntity
  8
11000_Left
  6
HIDDEN
 62
     7
370
     9
100
AcDbLine
 10
124.6716627621084
 20
205.5847859095811
 30
0.0
 11
130.6716627621083
 21
205.5847859095811
 31
0.0
1001
AUSTER_FOLIE
1002
{
1000
12_POL_CC
1002
}
1001
AUSTER_ANSICHT
1002
{
1000
SL
1002
}
  0
LINE
  5
12B89
330
1F
100
AcDbEntity
  8
11000_Left
  6
HIDDEN
 62
     7
370
     9
100
AcDbLine
 10
124.6716627621084
 20
196.5847859095811
 30
0.0
 11
130.6716627621083
 21
196.5847859095811
 31
0.0
1001
AUSTER_FOLIE
1002
{
1000
12_POL_CC
1002
}
1001
AUSTER_ANSICHT
1002
{
1000
SL
1002
}
  0
LINE
  5
12B8A
330
1F
100
AcDbEntity
  8
11000_Left
  6
HIDDEN
 62
     7
370
     9
100
AcDbLine
 10
130.6716627621083
 20
217.5847859095811
 30
0.0
 11
130.6716627621083
 21
194.5847859095811
 31
0.0
1001
AUSTER_FOLIE
1002
{
1000
12_POL_CC
1002
}
1001
AUSTER_ANSICHT
1002
{
1000
SL
1002
}
  0
ARC
  5
12B8B
330
1F
100
AcDbEntity
  8
10000_FRONT
  6
HIDDEN
 62
     7
370
     9
100
AcDbCircle
 10
36.22224660355028
 20
98.783268272972
 30
0.0
 40
2.0
100
AcDbArc
 50
180.0
 51
270.0
1001
AUSTER_FOLIE
1002
{
1000
6_POL_CC
1002
}
1001
AUSTER_ANSICHT
1002
{
1000
V
1002
}
  0
ARC
  5
12B8C
330
1F
100
AcDbEntity
  8
10000_FRONT
  6
HIDDEN
 62
     7
370
     9
100
AcDbCircle
 10
39.72224660355028
 20
98.783268272972
 30
0.0
 40
2.0
100
AcDbArc
 50
270.0
 51
0.0
1001
AUSTER_FOLIE
1002
{
1000
6_POL_CC
1002
}
1001
AUSTER_ANSICHT
1002
{
1000
V
1002
}
  0
LINE
  5
12B8D
330
1F
100
AcDbEntity
  8
10000_FRONT
  6
HIDDEN
 62
     7
370
     9
100
AcDbLine
 10
39.72224660355028
 20
96.78326827297199
 30
0.0
 11
36.22224660355028
 21
96.78326827297199
 31
0.0
1001
AUSTER_FOLIE
1002
{
1000
6_POL_CC
1002
}
1001
AUSTER_ANSICHT
1002
{
1000
V
1002
}
  0
LINE
  5
12B8E
330
1F
100
AcDbEntity
  8
10000_FRONT
  6
HIDDEN
 62
     7
370
     9
100
AcDbLine
 10
41.72224660355027
 20
105.7093760922919
 30
0.0
 11
41.72224660355027
 21
98.783268272972
 31
0.0
1001
AUSTER_FOLIE
1002
{
1000
6_POL_CC
1002
}
1001
AUSTER_ANSICHT
1002
{
1000
V
1002
}
  0
LINE
  5
12B8F
330
1F
100
AcDbEntity
  8
10000_FRONT
  6
HIDDEN
 62
     7
370
     9
100
AcDbLine
 10
34.22232383957862
 20
105.9149338297703
 30
0.0
 11
34.22224660355027
 21
98.783268272972
 31
0.0
1001
AUSTER_FOLIE
1002
{
1000
6_POL_CC
1002
}
1001
AUSTER_ANSICHT
1002
{
1000
V
1002
}
  0
LINE
  5
12B90
330
1F
100
AcDbEntity
  8
10000_FRONT
  6
HIDDEN
 62
     7
370
     9
100
AcDbLine
 10
40.47224660355027
 20
102.283268272972
 30
0.0
 11
40.47224660355027
 21
101.283268272972
 31
0.0
1001
AUSTER_FOLIE
1002
{
1000
6_POL_CC
1002
}
1001
AUSTER_ANSICHT
1002
{
1000
V
1002
}
  0
LINE
  5
12B91
330
1F
100
AcDbEntity
  8
10000_FRONT
  6
HIDDEN
 62
     7
370
     9
100
AcDbLine
 10
35.47224660355027
 20
102.283268272972
 30
0.0
 11
35.47224660355027
 21
101.283268272972
 31
0.0
1001
AUSTER_FOLIE
1002
{
1000
6_POL_CC
1002
}
1001
AUSTER_ANSICHT
1002
{
1000
V
1002
}
  0
ARC
  5
12B92
330
1F
100
AcDbEntity
  8
10000_FRONT
  6
HIDDEN
 62
     7
370
     9
100
AcDbCircle
 10
37.97224660355027
 20
101.283268272972
 30
0.0
 40
2.5
100
AcDbArc
 50
180.0
 51
0.0
1001
AUSTER_FOLIE
1002
{
1000
6_POL_CC
1002
}
1001
AUSTER_ANSICHT
1002
{
1000
V
1002
}
  0
ARC
  5
12B93
330
1F
100
AcDbEntity
  8
10000_FRONT
  6
HIDDEN
 62
     7
370
     9
100
AcDbCircle
 10
37.97224660355027
 20
102.283268272972
 30
0.0
 40
2.5
100
AcDbArc
 50
0.0
 51
180.0
1001
AUSTER_FOLIE
1002
{
1000
6_POL_CC
1002
}
1001
AUSTER_ANSICHT
1002
{
1000
V
1002
}
  0
LINE
  5
12B94
330
1F
100
AcDbEntity
  8
10000_FRONT
  6
HIDDEN
 62
     7
370
     9
100
AcDbLine
 10
49.22224660355027
 20
197.8412282729721
 30
0.0
 11
49.22224660355027
 21
214.783268272972
 31
0.0
1001
AUSTER_FOLIE
1002
{
1000
6_POL_CC
1002
}
1001
AUSTER_ANSICHT
1002
{
1000
V
1002
}
  0
LINE
  5
12B95
330
1F
100
AcDbEntity
  8
10000_FRONT
  6
HIDDEN
 62
     7
370
     9
100
AcDbLine
 10
56.72224660355027
 20
197.8412282729721
 30
0.0
 11
56.72224660355027
 21
214.783268272972
 31
0.0
1001
AUSTER_FOLIE
1002
{
1000
6_POL_CC
1002
}
1001
AUSTER_ANSICHT
1002
{
1000
V
1002
}
  0
ARC
  5
12B96
330
1F
100
AcDbEntity
  8
10000_FRONT
  6
HIDDEN
 62
     7
370
     9
100
AcDbCircle
 10
54.72224660355028
 20
214.783268272972
 30
0.0
 40
2.0
100
AcDbArc
 50
0.0
 51
90.0
1001
AUSTER_FOLIE
1002
{
1000
6_POL_CC
1002
}
1001
AUSTER_ANSICHT
1002
{
1000
V
1002
}
  0
LINE
  5
12B97
330
1F
100
AcDbEntity
  8
10000_FRONT
  6
HIDDEN
 62
     7
370
     9
100
AcDbLine
 10
55.47224660355027
 20
211.2832682729721
 30
0.0
 11
55.47224660355027
 21
212.2832682729721
 31
0.0
1001
AUSTER_FOLIE
1002
{
1000
6_POL_CC
1002
}
1001
AUSTER_ANSICHT
1002
{
1000
V
1002
}
  0
ARC
  5
12B98
330
1F
100
AcDbEntity
  8
10000_FRONT
  6
HIDDEN
 62
     7
370
     9
100
AcDbCircle
 10
51.22224660355027
 20
214.783268272972
 30
0.0
 40
2.0
100
AcDbArc
 50
90.0
 51
180.0
1001
AUSTER_FOLIE
1002
{
1000
6_POL_CC
1002
}
1001
AUSTER_ANSICHT
1002
{
1000
V
1002
}
  0
LINE
  5
12B99
330
1F
100
AcDbEntity
  8
10000_FRONT
  6
HIDDEN
 62
     7
370
     9
100
AcDbLine
 10
50.47224660355027
 20
211.2832682729721
 30
0.0
 11
50.47224660355027
 21
212.2832682729721
 31
0.0
1001
AUSTER_FOLIE
1002
{
1000
6_POL_CC
1002
}
1001
AUSTER_ANSICHT
1002
{
1000
V
1002
}
  0
ARC
  5
12B9A
330
1F
100
AcDbEntity
  8
10000_FRONT
  6
HIDDEN
 62
     7
370
     9
100
AcDbCircle
 10
52.97224660355027
 20
211.2832682729721
 30
0.0
 40
2.5
100
AcDbArc
 50
180.0
 51
0.0
1001
AUSTER_FOLIE
1002
{
1000
6_POL_CC
1002
}
1001
AUSTER_ANSICHT
1002
{
1000
V
1002
}
  0
ARC
  5
12B9B
330
1F
100
AcDbEntity
  8
10000_FRONT
  6
HIDDEN
 62
     7
370
     9
100
AcDbCircle
 10
52.97224660355027
 20
212.2832682729721
 30
0.0
 40
2.5
100
AcDbArc
 50
0.0
 51
180.0
1001
AUSTER_FOLIE
1002
{
1000
6_POL_CC
1002
}
1001
AUSTER_ANSICHT
1002
{
1000
V
1002
}
  0
LINE
  5
12B9C
330
1F
100
AcDbEntity
  8
10000_FRONT
  6
HIDDEN
 62
     7
370
     9
100
AcDbLine
 10
51.22224660355027
 20
216.783268272972
 30
0.0
 11
54.72224660355028
 21
216.783268272972
 31
0.0
1001
AUSTER_FOLIE
1002
{
1000
6_POL_CC
1002
}
1001
AUSTER_ANSICHT
1002
{
1000
V
1002
}
  0
LINE
  5
12B9D
330
1F
100
AcDbEntity
  8
10000_FRONT
  6
Continuous
 62
     7
370
    40
100
AcDbLine
 10
56.72232383957862
 20
105.9149338297703
 30
0.0
 11
56.72232383957862
 21
115.4149238297703
 31
0.0
  0
LINE
  5
12B9E
330
1F
100
AcDbEntity
  8
10000_FRONT
  6
Continuous
 62
     7
370
    40
100
AcDbLine
 10
34.22232383957862
 20
105.9149338297703
 30
0.0
 11
34.22232383957862
 21
115.4149238297703
 31
0.0
  0
LINE
  5
12B9F
330
1F
100
AcDbEntity
  8
10000_FRONT
  6
Continuous
 62
     7
370
    40
100
AcDbLine
 10
56.72224660355027
 20
183.891228272972
 30
0.0
 11
56.72224660355027
 21
197.6912282729721
 31
0.0
  0
LINE
  5
12BA0
330
1F
100
AcDbEntity
  8
10000_FRONT
  6
Continuous
 62
     7
370
    40
100
AcDbLine
 10
34.22224660355027
 20
183.8412282729721
 30
0.0
 11
34.22224660355027
 21
197.641228272972
 31
0.0
  0
ARC
  5
12BA1
330
1F
100
AcDbEntity
  8
10000_FRONT
  6
Continuous
 62
     7
370
    40
100
AcDbCircle
 10
56.52224660355021
 20
197.641228272972
 30
0.0
 40
0.2
100
AcDbArc
 50
0.0
 51
90.0004430000029
  0
LINE
  5
12BA2
330
1F
100
AcDbEntity
  8
10000_FRONT
  6
Continuous
 62
     7
370
    40
100
AcDbLine
 10
56.52224660355021
 20
197.8412282729721
 30
0.0
 11
56.52224660355021
 21
197.8412282729721
 31
0.0
  0
ARC
  5
12BA3
330
1F
100
AcDbEntity
  8
10000_FRONT
  6
Continuous
 62
     7
370
    40
100
AcDbCircle
 10
56.52224660355021
 20
197.641228272972
 30
0.0
 40
0.2
100
AcDbArc
 50
0.0
 51
90.0004430000029
  0
LINE
  5
12BA4
330
1F
100
AcDbEntity
  8
10000_FRONT
  6
Continuous
 62
     7
370
    40
100
AcDbLine
 10
56.52224660355021
 20
197.8412282729721
 30
0.0
 11
56.52224660355021
 21
197.8412282729721
 31
0.0
  0
LINE
  5
12BA9
330
1F
100
AcDbEntity
  8
10000_FRONT
  6
Continuous
 62
     7
370
    40
100
AcDbLine
 10
56.72224660355027
 20
183.7912382729721
 30
0.0
 11
56.72224660355027
 21
183.8412282729721
 31
0.0
  0
LINE
  5
12BAA
330
1F
100
AcDbEntity
  8
10000_FRONT
  6
Continuous
 62
     7
370
    40
100
AcDbLine
 10
56.72224660355027
 20
183.7912382729721
 30
0.0
 11
56.72224660355027
 21
183.8412282729721
 31
0.0
  0
LINE
  5
12BAC
330
1F
100
AcDbEntity
  8
10000_FRONT
  6
Continuous
 62
     7
370
    40
100
AcDbLine
 10
54.87224660355035
 20
197.3412282729721
 30
0.0
 11
50.47224660355027
 21
197.3412282729721
 31
0.0
  0
LINE
  5
12BAD
330
1F
100
AcDbEntity
  8
10000_FRONT
  6
Continuous
 62
     7
370
    40
100
AcDbLine
 10
54.87224660355035
 20
197.3412282729721
 30
0.0
 11
50.47224660355027
 21
197.3412282729721
 31
0.0
  0
LINE
  5
12BAE
330
1F
100
AcDbEntity
  8
10000_FRONT
  6
Continuous
 62
     7
370
    40
100
AcDbLine
 10
50.47224660355027
 20
197.8412282729721
 30
0.0
 11
47.67224660355032
 21
197.8412282729721
 31
0.0
  0
LINE
  5
12BAF
330
1F
100
AcDbEntity
  8
10000_FRONT
  6
Continuous
 62
     7
370
    40
100
AcDbLine
 10
43.27224660355021
 20
197.3412282729721
 30
0.0
 11
43.27224660355021
 21
197.641228272972
 31
0.0
  0
LINE
  5
12BB0
330
1F
100
AcDbEntity
  8
10000_FRONT
  6
Continuous
 62
     7
370
    40
100
AcDbLine
 10
43.27224660355021
 20
197.641228272972
 30
0.0
 11
43.27224660355021
 21
197.8412282729721
 31
0.0
  0
LINE
  5
12BB1
330
1F
100
AcDbEntity
  8
10000_FRONT
  6
Continuous
 62
     7
370
    40
100
AcDbLine
 10
47.67224660355032
 20
197.3412282729721
 30
0.0
 11
47.67224660355032
 21
197.641228272972
 31
0.0
  0
LINE
  5
12BB2
330
1F
100
AcDbEntity
  8
10000_FRONT
  6
Continuous
 62
     7
370
    40
100
AcDbLine
 10
47.67224660355032
 20
197.8412282729721
 30
0.0
 11
47.67224660355032
 21
197.641228272972
 31
0.0
  0
LINE
  5
12BB3
330
1F
100
AcDbEntity
  8
10000_FRONT
  6
Continuous
 62
     7
370
    40
100
AcDbLine
 10
50.47224660355027
 20
197.3412282729721
 30
0.0
 11
50.47224660355027
 21
197.641228272972
 31
0.0
  0
LINE
  5
12BB4
330
1F
100
AcDbEntity
  8
10000_FRONT
  6
Continuous
 62
     7
370
    40
100
AcDbLine
 10
50.47224660355027
 20
197.641228272972
 30
0.0
 11
50.47224660355027
 21
197.8412282729721
 31
0.0
  0
LINE
  5
12BB5
330
1F
100
AcDbEntity
  8
10000_FRONT
  6
Continuous
 62
     7
370
    40
100
AcDbLine
 10
47.67224660355032
 20
197.3412282729721
 30
0.0
 11
43.27224660355021
 21
197.3412282729721
 31
0.0
  0
LINE
  5
12BB6
330
1F
100
AcDbEntity
  8
10000_FRONT
  6
Continuous
 62
     7
370
    40
100
AcDbLine
 10
50.47224660355027
 20
197.8412282729721
 30
0.0
 11
47.67224660355032
 21
197.8412282729721
 31
0.0
  0
LINE
  5
12BB7
330
1F
100
AcDbEntity
  8
10000_FRONT
  6
Continuous
 62
     7
370
    40
100
AcDbLine
 10
43.27224660355021
 20
197.3412282729721
 30
0.0
 11
43.27224660355021
 21
197.641228272972
 31
0.0
  0
LINE
  5
12BB8
330
1F
100
AcDbEntity
  8
10000_FRONT
  6
Continuous
 62
     7
370
    40
100
AcDbLine
 10
43.27224660355021
 20
197.641228272972
 30
0.0
 11
43.27224660355021
 21
197.8412282729721
 31
0.0
  0
LINE
  5
12BB9
330
1F
100
AcDbEntity
  8
10000_FRONT
  6
Continuous
 62
     7
370
    40
100
AcDbLine
 10
47.67224660355032
 20
197.3412282729721
 30
0.0
 11
47.67224660355032
 21
197.641228272972
 31
0.0
  0
LINE
  5
12BBA
330
1F
100
AcDbEntity
  8
10000_FRONT
  6
Continuous
 62
     7
370
    40
100
AcDbLine
 10
47.67224660355032
 20
197.8412282729721
 30
0.0
 11
47.67224660355032
 21
197.641228272972
 31
0.0
  0
LINE
  5
12BBB
330
1F
100
AcDbEntity
  8
10000_FRONT
  6
Continuous
 62
     7
370
    40
100
AcDbLine
 10
50.47224660355027
 20
197.3412282729721
 30
0.0
 11
50.47224660355027
 21
197.641228272972
 31
0.0
  0
LINE
  5
12BBC
330
1F
100
AcDbEntity
  8
10000_FRONT
  6
Continuous
 62
     7
370
    40
100
AcDbLine
 10
50.47224660355027
 20
197.641228272972
 30
0.0
 11
50.47224660355027
 21
197.8412282729721
 31
0.0
  0
LINE
  5
12BBD
330
1F
100
AcDbEntity
  8
10000_FRONT
  6
Continuous
 62
     7
370
    40
100
AcDbLine
 10
47.67224660355032
 20
197.3412282729721
 30
0.0
 11
43.27224660355021
 21
197.3412282729721
 31
0.0
  0
LINE
  5
12BBE
330
1F
100
AcDbEntity
  8
10000_FRONT
  6
Continuous
 62
     7
370
    40
100
AcDbLine
 10
54.87224660355035
 20
197.3412282729721
 30
0.0
 11
54.87224660355035
 21
197.641228272972
 31
0.0
  0
LINE
  5
12BC1
330
1F
100
AcDbEntity
  8
10000_FRONT
  6
Continuous
 62
     7
370
    40
100
AcDbLine
 10
54.87224660355035
 20
197.3412282729721
 30
0.0
 11
54.87224660355035
 21
197.641228272972
 31
0.0
  0
LINE
  5
12BC4
330
1F
100
AcDbEntity
  8
10000_FRONT
  6
Continuous
 62
     7
370
    40
100
AcDbLine
 10
55.92224660355032
 20
197.8412282729721
 30
0.0
 11
54.87224660355035
 21
197.8412282729721
 31
0.0
  0
LINE
  5
12BC5
330
1F
100
AcDbEntity
  8
10000_FRONT
  6
Continuous
 62
     7
370
    40
100
AcDbLine
 10
55.92224660355032
 20
197.8412282729721
 30
0.0
 11
54.87224660355035
 21
197.8412282729721
 31
0.0
  0
LINE
  5
12BE0
330
1F
100
AcDbEntity
  8
10000_FRONT
  6
Continuous
 62
     7
370
    40
100
AcDbLine
 10
36.07224660355019
 20
197.8412282729721
 30
0.0
 11
35.02224660355023
 21
197.8412282729721
 31
0.0
  0
LINE
  5
12BE1
330
1F
100
AcDbEntity
  8
10000_FRONT
  6
Continuous
 62
     7
370
    40
100
AcDbLine
 10
36.07224660355019
 20
197.8412282729721
 30
0.0
 11
35.02224660355023
 21
197.8412282729721
 31
0.0
  0
LINE
  5
12BE2
330
1F
100
AcDbEntity
  8
10000_FRONT
  6
Continuous
 62
     7
370
    40
100
AcDbLine
 10
35.02224660355023
 20
197.8412282729721
 30
0.0
 11
34.42224660355032
 21
197.8412282729721
 31
0.0
  0
ARC
  5
12BE3
330
1F
100
AcDbEntity
  8
10000_FRONT
  6
Continuous
 62
     7
370
    40
100
AcDbCircle
 10
34.42224660355032
 20
197.641228272972
 30
0.0
 40
0.2
100
AcDbArc
 50
90.0
 51
180.0
  0
LINE
  5
12BE4
330
1F
100
AcDbEntity
  8
10000_FRONT
  6
Continuous
 62
     7
370
    40
100
AcDbLine
 10
35.02224660355023
 20
197.8412282729721
 30
0.0
 11
34.42224660355032
 21
197.8412282729721
 31
0.0
  0
ARC
  5
12BE5
330
1F
100
AcDbEntity
  8
10000_FRONT
  6
Continuous
 62
     7
370
    40
100
AcDbCircle
 10
34.42224660355032
 20
197.641228272972
 30
0.0
 40
0.2
100
AcDbArc
 50
90.0
 51
180.0
  0
LINE
  5
12BE6
330
1F
100
AcDbEntity
  8
10000_FRONT
  6
Continuous
 62
     7
370
    40
100
AcDbLine
 10
40.47224660355027
 20
197.3412282729721
 30
0.0
 11
40.47224660355027
 21
197.641228272972
 31
0.0
  0
LINE
  5
12BE7
330
1F
100
AcDbEntity
  8
10000_FRONT
  6
Continuous
 62
     7
370
    40
100
AcDbLine
 10
40.47224660355027
 20
197.8412282729721
 30
0.0
 11
40.47224660355027
 21
197.641228272972
 31
0.0
  0
LINE
  5
12BE8
330
1F
100
AcDbEntity
  8
10000_FRONT
  6
Continuous
 62
     7
370
    40
100
AcDbLine
 10
40.47224660355027
 20
197.3412282729721
 30
0.0
 11
40.47224660355027
 21
197.641228272972
 31
0.0
  0
LINE
  5
12BE9
330
1F
100
AcDbEntity
  8
10000_FRONT
  6
Continuous
 62
     7
370
    40
100
AcDbLine
 10
40.47224660355027
 20
197.8412282729721
 30
0.0
 11
40.47224660355027
 21
197.641228272972
 31
0.0
  0
LINE
  5
12BEA
330
1F
100
AcDbEntity
  8
10000_FRONT
  6
Continuous
 62
     7
370
    40
100
AcDbLine
 10
36.07224660355019
 20
197.3412282729721
 30
0.0
 11
36.07224660355019
 21
197.641228272972
 31
0.0
  0
LINE
  5
12BEB
330
1F
100
AcDbEntity
  8
10000_FRONT
  6
Continuous
 62
     7
370
    40
100
AcDbLine
 10
36.07224660355019
 20
197.641228272972
 30
0.0
 11
36.07224660355019
 21
197.8412282729721
 31
0.0
  0
LINE
  5
12BEC
330
1F
100
AcDbEntity
  8
10000_FRONT
  6
Continuous
 62
     7
370
    40
100
AcDbLine
 10
36.07224660355019
 20
197.3412282729721
 30
0.0
 11
36.07224660355019
 21
197.641228272972
 31
0.0
  0
LINE
  5
12BED
330
1F
100
AcDbEntity
  8
10000_FRONT
  6
Continuous
 62
     7
370
    40
100
AcDbLine
 10
36.07224660355019
 20
197.641228272972
 30
0.0
 11
36.07224660355019
 21
197.8412282729721
 31
0.0
  0
LINE
  5
12BEE
330
1F
100
AcDbEntity
  8
10000_FRONT
  6
Continuous
 62
     7
370
    40
100
AcDbLine
 10
40.47224660355027
 20
197.3412282729721
 30
0.0
 11
36.07224660355019
 21
197.3412282729721
 31
0.0
  0
LINE
  5
12BEF
330
1F
100
AcDbEntity
  8
10000_FRONT
  6
Continuous
 62
     7
370
    40
100
AcDbLine
 10
40.47224660355027
 20
197.3412282729721
 30
0.0
 11
36.07224660355019
 21
197.3412282729721
 31
0.0
  0
LINE
  5
12C00
330
1F
100
AcDbEntity
  8
10000_FRONT
  6
Continuous
 62
     7
370
    40
100
AcDbLine
 10
43.27224660355021
 20
197.8412282729721
 30
0.0
 11
40.47224660355027
 21
197.8412282729721
 31
0.0
  0
LINE
  5
12C01
330
1F
100
AcDbEntity
  8
10000_FRONT
  6
Continuous
 62
     7
370
    40
100
AcDbLine
 10
43.27224660355021
 20
197.8412282729721
 30
0.0
 11
40.47224660355027
 21
197.8412282729721
 31
0.0
  0
LINE
  5
12C05
330
1F
100
AcDbEntity
  8
10000_FRONT
  6
Continuous
 62
     7
370
    13
100
AcDbLine
 39
0.25
 10
48.37224660355037
 20
183.8412282729721
 30
0.0
 11
48.37224660355037
 21
186.508258272972
 31
0.0
  0
LINE
  5
12C06
330
1F
100
AcDbEntity
  8
10000_FRONT
  6
Continuous
 62
     7
370
    13
100
AcDbLine
 39
0.25
 10
48.37224660355037
 20
186.508258272972
 30
0.0
 11
42.57224660355018
 21
186.508258272972
 31
0.0
  0
LINE
  5
12C08
330
1F
100
AcDbEntity
  8
10000_FRONT
  6
Continuous
 62
     7
370
    13
100
AcDbLine
 39
0.25
 10
42.57224660355018
 20
183.8412282729721
 30
0.0
 11
42.57224660355018
 21
186.508258272972
 31
0.0
  0
LINE
  5
12C09
330
1F
100
AcDbEntity
  8
10000_FRONT
  6
Continuous
 62
     7
370
    13
100
AcDbLine
 39
0.25
 10
53.77224660355022
 20
183.1912282729721
 30
0.0
 11
54.72224660355028
 21
183.1912282729721
 31
0.0
  0
LINE
  5
12C0A
330
1F
100
AcDbEntity
  8
10000_FRONT
  6
Continuous
 62
     7
370
    30
100
AcDbLine
 10
55.92224660355032
 20
183.791228272972
 30
0.0
 11
34.22224660355027
 21
183.791228272972
 31
0.0
  0
LINE
  5
12C0C
330
1F
100
AcDbEntity
  8
10000_FRONT
  6
Continuous
 62
     7
370
    30
100
AcDbLine
 10
55.92224660355032
 20
183.791228272972
 30
0.0
 11
56.72224660355027
 21
183.791228272972
 31
0.0
  0
LINE
  5
12C0D
330
1F
100
AcDbEntity
  8
10000_FRONT
  6
Continuous
 62
     7
370
    40
100
AcDbLine
 10
56.52224660355021
 20
197.8412282729721
 30
0.0
 11
55.92224660355032
 21
197.8412282729721
 31
0.0
  0
LINE
  5
12C0E
330
1F
100
AcDbEntity
  8
10000_FRONT
  6
Continuous
 62
     7
370
    40
100
AcDbLine
 10
56.52224660355021
 20
197.8412282729721
 30
0.0
 11
55.92224660355032
 21
197.8412282729721
 31
0.0
  0
LINE
  5
12C11
330
1F
100
AcDbEntity
  8
10000_FRONT
  6
Continuous
 62
     7
370
    13
100
AcDbLine
 39
0.25
 10
54.72224660355028
 20
179.191228272972
 30
0.0
 11
53.77224660355022
 21
179.191228272972
 31
0.0
  0
LINE
  5
12C12
330
1F
100
AcDbEntity
  8
10000_FRONT
  6
Continuous
 62
     7
370
    40
100
AcDbLine
 10
56.72224660355027
 20
133.991198272972
 30
0.0
 11
56.72224660355027
 21
133.891228272972
 31
0.0
  0
LINE
  5
12C13
330
1F
100
AcDbEntity
  8
10000_FRONT
  6
Continuous
 62
     7
370
    40
100
AcDbLine
 10
56.72224660355027
 20
133.891228272972
 30
0.0
 11
56.72224660355027
 21
132.4332682729721
 31
0.0
  0
LINE
  5
12C14
330
1F
100
AcDbEntity
  8
10000_FRONT
  6
Continuous
 62
     7
370
    40
100
AcDbLine
 10
56.72224660355027
 20
134.591228272972
 30
0.0
 11
56.72224660355027
 21
133.991188272972
 31
0.0
  0
LINE
  5
12C16
330
1F
100
AcDbEntity
  8
10000_FRONT
  6
Continuous
 62
     7
370
    40
100
AcDbLine
 10
56.72224660355027
 20
133.991198272972
 30
0.0
 11
56.72224660355027
 21
133.891228272972
 31
0.0
  0
LINE
  5
12C17
330
1F
100
AcDbEntity
  8
10000_FRONT
  6
Continuous
 62
     7
370
    40
100
AcDbLine
 10
56.72224660355027
 20
133.891228272972
 30
0.0
 11
56.72224660355027
 21
132.4332682729721
 31
0.0
  0
LINE
  5
12C18
330
1F
100
AcDbEntity
  8
10000_FRONT
  6
Continuous
 62
     7
370
    40
100
AcDbLine
 10
56.72224660355027
 20
134.591228272972
 30
0.0
 11
56.72224660355027
 21
133.991188272972
 31
0.0
  0
LINE
  5
12C19
330
1F
100
AcDbEntity
  8
10000_FRONT
  6
Continuous
 62
     7
370
    40
100
AcDbLine
 10
56.72224660355027
 20
132.4332682729721
 30
0.0
 11
56.72224660355027
 21
129.291228272972
 31
0.0
  0
LINE
  5
12C1A
330
1F
100
AcDbEntity
  8
10000_FRONT
  6
Continuous
 62
     7
370
    13
100
AcDbLine
 39
0.25
 10
35.47224660355027
 20
139.541228272972
 30
0.0
 11
55.47224660355027
 21
139.541228272972
 31
0.0
  0
LINE
  5
12C1B
330
1F
100
AcDbEntity
  8
10000_FRONT
  6
Continuous
 62
     7
370
    13
100
AcDbLine
 39
0.25
 10
42.57224660355018
 20
129.291228272972
 30
0.0
 11
42.57224660355018
 21
126.574188272972
 31
0.0
  0
LINE
  5
12C1C
330
1F
100
AcDbEntity
  8
10000_FRONT
  6
Continuous
 62
     7
370
    13
100
AcDbLine
 39
0.25
 10
48.37224660355037
 20
129.291228272972
 30
0.0
 11
48.37224660355037
 21
126.574188272972
 31
0.0
  0
LINE
  5
12C1D
330
1F
100
AcDbEntity
  8
10000_FRONT
  6
Continuous
 62
     7
370
    13
100
AcDbLine
 39
0.25
 10
42.57224660355018
 20
126.574188272972
 30
0.0
 11
48.37224660355037
 21
126.574188272972
 31
0.0
  0
LINE
  5
12C1E
330
1F
100
AcDbEntity
  8
10000_FRONT
  6
Continuous
 62
     7
370
    13
100
AcDbLine
 39
0.25
 10
42.57223660355021
 20
126.574178272972
 30
0.0
 11
42.57247660355027
 21
126.596788272972
 31
0.0
  0
ARC
  5
12C1F
330
1F
100
AcDbEntity
  8
10000_FRONT
  6
Continuous
 62
     7
370
    13
100
AcDbCircle
 39
0.25
 10
43.72955660355024
 20
126.573598272972
 30
0.0
 40
1.157316699999997
100
AcDbArc
 50
177.7499200000015
 51
178.8519599999993
  0
ARC
  5
12C20
330
1F
100
AcDbEntity
  8
10000_FRONT
  6
Continuous
 62
     7
370
    13
100
AcDbCircle
 39
0.25
 10
43.66486660355031
 20
126.575088272972
 30
0.0
 40
1.0926175
100
AcDbArc
 50
176.5464500000014
 51
177.6947600000001
  0
ARC
  5
12C21
330
1F
100
AcDbEntity
  8
10000_FRONT
  6
Continuous
 62
     7
370
    13
100
AcDbCircle
 39
0.25
 10
43.62335660355029
 20
126.577098272972
 30
0.0
 40
1.051062899999998
100
AcDbArc
 50
175.3436500000012
 51
176.5191900000002
  0
LINE
  5
12C22
330
1F
100
AcDbEntity
  8
10000_FRONT
  6
Continuous
 62
     7
370
    13
100
AcDbLine
 39
0.25
 10
48.37223660355014
 20
126.574178272972
 30
0.0
 11
48.37200660355029
 21
126.596788272972
 31
0.0
  0
ARC
  5
12C23
330
1F
100
AcDbEntity
  8
10000_FRONT
  6
Continuous
 62
     7
370
    13
100
AcDbCircle
 39
0.25
 10
47.21521660355029
 20
126.5736082729721
 30
0.0
 40
1.1570263
100
AcDbArc
 50
1.147902700000924
 51
2.250221299998552
  0
ARC
  5
12C24
330
1F
100
AcDbEntity
  8
10000_FRONT
  6
Continuous
 62
     7
370
    13
100
AcDbCircle
 39
0.25
 10
47.27989660355023
 20
126.5751082729721
 30
0.0
 40
1.092336799999998
100
AcDbArc
 50
2.305088800000417
 51
3.453694000000667
  0
ARC
  5
12C25
330
1F
100
AcDbEntity
  8
10000_FRONT
  6
Continuous
 62
     7
370
    13
100
AcDbCircle
 39
0.25
 10
47.32139660355028
 20
126.577108272972
 30
0.0
 40
1.0507933
100
AcDbArc
 50
3.480658299999181
 51
4.65650099999886
  0
LINE
  5
12C26
330
1F
100
AcDbEntity
  8
10000_FRONT
  6
Continuous
 62
     7
370
    13
100
AcDbLine
 39
0.25
 10
42.57223660355021
 20
126.574178272972
 30
0.0
 11
42.57247660355027
 21
126.596788272972
 31
0.0
  0
ARC
  5
12C27
330
1F
100
AcDbEntity
  8
10000_FRONT
  6
Continuous
 62
     7
370
    13
100
AcDbCircle
 39
0.25
 10
43.72955660355024
 20
126.573598272972
 30
0.0
 40
1.157316699999997
100
AcDbArc
 50
177.7499200000015
 51
178.8519599999993
  0
ARC
  5
12C28
330
1F
100
AcDbEntity
  8
10000_FRONT
  6
Continuous
 62
     7
370
    13
100
AcDbCircle
 39
0.25
 10
43.66486660355031
 20
126.575088272972
 30
0.0
 40
1.0926175
100
AcDbArc
 50
176.5464500000014
 51
177.6947600000001
  0
ARC
  5
12C29
330
1F
100
AcDbEntity
  8
10000_FRONT
  6
Continuous
 62
     7
370
    13
100
AcDbCircle
 39
0.25
 10
43.62335660355029
 20
126.577098272972
 30
0.0
 40
1.051062899999998
100
AcDbArc
 50
175.3436500000012
 51
176.5191900000002
  0
LINE
  5
12C2A
330
1F
100
AcDbEntity
  8
10000_FRONT
  6
Continuous
 62
     7
370
    13
100
AcDbLine
 39
0.25
 10
48.37223660355014
 20
126.574178272972
 30
0.0
 11
48.37200660355029
 21
126.596788272972
 31
0.0
  0
ARC
  5
12C2B
330
1F
100
AcDbEntity
  8
10000_FRONT
  6
Continuous
 62
     7
370
    13
100
AcDbCircle
 39
0.25
 10
47.21521660355029
 20
126.5736082729721
 30
0.0
 40
1.1570263
100
AcDbArc
 50
1.147902700000924
 51
2.250221299998552
  0
ARC
  5
12C2C
330
1F
100
AcDbEntity
  8
10000_FRONT
  6
Continuous
 62
     7
370
    13
100
AcDbCircle
 39
0.25
 10
47.27989660355023
 20
126.5751082729721
 30
0.0
 40
1.092336799999998
100
AcDbArc
 50
2.305088800000417
 51
3.453694000000667
  0
ARC
  5
12C2D
330
1F
100
AcDbEntity
  8
10000_FRONT
  6
Continuous
 62
     7
370
    13
100
AcDbCircle
 39
0.25
 10
47.32139660355028
 20
126.577108272972
 30
0.0
 40
1.0507933
100
AcDbArc
 50
3.480658299999181
 51
4.65650099999886
  0
LINE
  5
12C2E
330
1F
100
AcDbEntity
  8
10000_FRONT
  6
Continuous
 62
     7
370
    40
100
AcDbLine
 10
34.22224660355027
 20
132.4332682729721
 30
0.0
 11
34.22224660355027
 21
133.891228272972
 31
0.0
  0
LINE
  5
12C2F
330
1F
100
AcDbEntity
  8
10000_FRONT
  6
Continuous
 62
     7
370
    40
100
AcDbLine
 10
34.22224660355027
 20
133.891228272972
 30
0.0
 11
34.22224660355027
 21
133.991198272972
 31
0.0
  0
LINE
  5
12C30
330
1F
100
AcDbEntity
  8
10000_FRONT
  6
Continuous
 62
     7
370
    40
100
AcDbLine
 10
34.22224660355027
 20
133.991188272972
 30
0.0
 11
34.22224660355027
 21
134.591228272972
 31
0.0
  0
LINE
  5
12C31
330
1F
100
AcDbEntity
  8
10000_FRONT
  6
Continuous
 62
     7
370
    40
100
AcDbLine
 10
34.22224660355027
 20
129.291228272972
 30
0.0
 11
34.22224660355027
 21
132.4332682729721
 31
0.0
  0
LINE
  5
12C32
330
1F
100
AcDbEntity
  8
10000_FRONT
  6
Continuous
 62
     7
370
    40
100
AcDbLine
 10
34.22224660355027
 20
132.4332682729721
 30
0.0
 11
34.22224660355027
 21
133.891228272972
 31
0.0
  0
LINE
  5
12C33
330
1F
100
AcDbEntity
  8
10000_FRONT
  6
Continuous
 62
     7
370
    40
100
AcDbLine
 10
34.22224660355027
 20
133.891228272972
 30
0.0
 11
34.22224660355027
 21
133.991198272972
 31
0.0
  0
LINE
  5
12C34
330
1F
100
AcDbEntity
  8
10000_FRONT
  6
Continuous
 62
     7
370
    40
100
AcDbLine
 10
34.22224660355027
 20
133.991188272972
 30
0.0
 11
34.22224660355027
 21
134.591228272972
 31
0.0
  0
LINE
  5
12C35
330
1F
100
AcDbEntity
  8
10000_FRONT
  6
Continuous
 62
     7
370
    40
100
AcDbLine
 10
34.22224660355027
 20
129.291228272972
 30
0.0
 11
34.22224660355027
 21
132.4332682729721
 31
0.0
  0
LINE
  5
12C36
330
1F
100
AcDbEntity
  8
10000_FRONT
  6
Continuous
 62
     7
370
    13
100
AcDbLine
 39
0.25
 10
55.47224660355027
 20
132.541228272972
 30
0.0
 11
35.47224660355027
 21
132.541228272972
 31
0.0
  0
LINE
  5
12C38
330
1F
100
AcDbEntity
  8
10000_FRONT
  6
Continuous
 62
     7
370
    13
100
AcDbLine
 39
0.25
 10
55.47224660355027
 20
139.541228272972
 30
0.0
 11
55.47224660355027
 21
132.541228272972
 31
0.0
  0
LINE
  5
12C39
330
1F
100
AcDbEntity
  8
10000_FRONT
  6
Continuous
 62
     7
370
    13
100
AcDbLine
 39
0.25
 10
35.47224660355027
 20
132.541228272972
 30
0.0
 11
35.47224660355027
 21
139.541228272972
 31
0.0
  0
LINE
  5
12C3B
330
1F
100
AcDbEntity
  8
10000_FRONT
  6
Continuous
 62
     7
370
    30
100
AcDbLine
 10
34.22224660355027
 20
129.291228272972
 30
0.0
 11
56.72224660355004
 21
129.291228272972
 31
0.0
  0
LINE
  5
12C3C
330
1F
100
AcDbEntity
  8
10000_FRONT
  6
Continuous
 62
     7
370
    40
100
AcDbLine
 10
56.72224660355027
 20
183.791228272972
 30
0.0
 11
56.72224660355027
 21
134.591228272972
 31
0.0
  0
LINE
  5
12C3D
330
1F
100
AcDbEntity
  8
10000_FRONT
  6
Continuous
 62
     7
370
    40
100
AcDbLine
 10
34.22224660355027
 20
134.591228272972
 30
0.0
 11
34.22224660355027
 21
183.791228272972
 31
0.0
  0
LINE
  5
12C3E
330
1F
100
AcDbEntity
  8
10000_FRONT
  6
Continuous
 62
     7
370
    13
100
AcDbLine
 39
0.25
 10
54.72224660355028
 20
183.1912282729721
 30
0.0
 11
54.72224660355028
 21
179.191228272972
 31
0.0
  0
LINE
  5
12C3F
330
1F
100
AcDbEntity
  8
10000_FRONT
  6
Continuous
 62
     7
370
    13
100
AcDbLine
 39
0.25
 10
53.77224660355022
 20
179.191228272972
 30
0.0
 11
53.77224660355022
 21
183.1912282729721
 31
0.0
  0
LINE
  5
12C40
330
1F
100
AcDbEntity
  8
10000_FRONT
  6
Continuous
 62
     7
370
    13
100
AcDbLine
 39
0.25
 10
38.78724660355033
 20
190.036928272972
 30
0.0
 11
41.05794660355035
 21
190.036928272972
 31
0.0
1001
AUSTER_ANSICHT
1002
{
1000
Det03
1002
}
1001
AUSTER_FOLIE
1002
{
1000
NSB01341_3RS10_24POL
1002
}
  0
LINE
  5
12C41
330
1F
100
AcDbEntity
  8
10000_FRONT
  6
Continuous
 62
     7
370
    13
100
AcDbLine
 39
0.25
 10
41.05794660355035
 20
191.245628272972
 30
0.0
 11
38.78724660355033
 21
191.245628272972
 31
0.0
1001
AUSTER_ANSICHT
1002
{
1000
Det03
1002
}
1001
AUSTER_FOLIE
1002
{
1000
NSB01341_3RS10_24POL
1002
}
  0
LINE
  5
12C42
330
1F
100
AcDbEntity
  8
10000_FRONT
  6
Continuous
 62
     7
370
    13
100
AcDbLine
 39
0.25
 10
38.78724660355033
 20
191.425828272972
 30
0.0
 11
38.78724660355033
 21
192.4181282729719
 31
0.0
1001
AUSTER_ANSICHT
1002
{
1000
Det03
1002
}
1001
AUSTER_FOLIE
1002
{
1000
NSB01341_3RS10_24POL
1002
}
  0
LINE
  5
12C43
330
1F
100
AcDbEntity
  8
10000_FRONT
  6
Continuous
 62
     7
370
    13
100
AcDbLine
 39
0.25
 10
38.78724660355033
 20
188.864428272972
 30
0.0
 11
38.78724660355033
 21
189.8567282729721
 31
0.0
1001
AUSTER_ANSICHT
1002
{
1000
Det03
1002
}
1001
AUSTER_FOLIE
1002
{
1000
NSB01341_3RS10_24POL
1002
}
  0
LINE
  5
12C44
330
1F
100
AcDbEntity
  8
10000_FRONT
  6
Continuous
 62
     7
370
    13
100
AcDbLine
 39
0.25
 10
38.78724660355033
 20
191.425828272972
 30
0.0
 11
38.78724660355033
 21
191.245628272972
 31
0.0
1001
AUSTER_ANSICHT
1002
{
1000
Det03
1002
}
1001
AUSTER_FOLIE
1002
{
1000
NSB01341_3RS10_24POL
1002
}
  0
LINE
  5
12C45
330
1F
100
AcDbEntity
  8
10000_FRONT
  6
Continuous
 62
     7
370
    13
100
AcDbLine
 39
0.25
 10
38.78724660355033
 20
189.8567282729721
 30
0.0
 11
38.78724660355033
 21
190.036928272972
 31
0.0
1001
AUSTER_ANSICHT
1002
{
1000
Det03
1002
}
1001
AUSTER_FOLIE
1002
{
1000
NSB01341_3RS10_24POL
1002
}
  0
ARC
  5
12C46
330
1F
100
AcDbEntity
  8
10000_FRONT
  6
Continuous
 62
     7
370
    13
100
AcDbCircle
 39
0.25
 10
38.27224660355046
 20
190.641228272972
 30
0.0
 40
2.850490999999998
100
AcDbArc
 50
347.7603999999987
 51
12.23960000000126
1001
AUSTER_ANSICHT
1002
{
1000
Det03
1002
}
1001
AUSTER_FOLIE
1002
{
1000
NSB01341_3RS10_24POL
1002
}
  0
LINE
  5
12C47
330
1F
100
AcDbEntity
  8
10000_FRONT
  6
Continuous
 62
     7
370
    13
100
AcDbLine
 39
0.25
 10
42.68654660355037
 20
190.036928272972
 30
0.0
 11
44.9572466035504
 21
190.036928272972
 31
0.0
1001
AUSTER_ANSICHT
1002
{
1000
Det03
1002
}
1001
AUSTER_FOLIE
1002
{
1000
NSB01341_3RS10_24POL
1002
}
  0
LINE
  5
12C48
330
1F
100
AcDbEntity
  8
10000_FRONT
  6
Continuous
 62
     7
370
    13
100
AcDbLine
 39
0.25
 10
45.9872466035506
 20
190.036928272972
 30
0.0
 11
48.25794660355064
 21
190.036928272972
 31
0.0
1001
AUSTER_ANSICHT
1002
{
1000
Det03
1002
}
1001
AUSTER_FOLIE
1002
{
1000
NSB01341_3RS10_24POL
1002
}
  0
LINE
  5
12C49
330
1F
100
AcDbEntity
  8
10000_FRONT
  6
Continuous
 62
     7
370
    13
100
AcDbLine
 39
0.25
 10
48.25794660355064
 20
191.245628272972
 30
0.0
 11
45.9872466035506
 21
191.245628272972
 31
0.0
1001
AUSTER_ANSICHT
1002
{
1000
Det03
1002
}
1001
AUSTER_FOLIE
1002
{
1000
NSB01341_3RS10_24POL
1002
}
  0
LINE
  5
12C4A
330
1F
100
AcDbEntity
  8
10000_FRONT
  6
Continuous
 62
     7
370
    13
100
AcDbLine
 39
0.25
 10
44.9572466035504
 20
191.245628272972
 30
0.0
 11
42.68654660355037
 21
191.245628272972
 31
0.0
1001
AUSTER_ANSICHT
1002
{
1000
Det03
1002
}
1001
AUSTER_FOLIE
1002
{
1000
NSB01341_3RS10_24POL
1002
}
  0
LINE
  5
12C4B
330
1F
100
AcDbEntity
  8
10000_FRONT
  6
Continuous
 62
     7
370
    13
100
AcDbLine
 39
0.25
 10
44.9572466035504
 20
192.4181282729719
 30
0.0
 11
44.9572466035504
 21
191.425828272972
 31
0.0
1001
AUSTER_ANSICHT
1002
{
1000
Det03
1002
}
1001
AUSTER_FOLIE
1002
{
1000
NSB01341_3RS10_24POL
1002
}
  0
LINE
  5
12C4C
330
1F
100
AcDbEntity
  8
10000_FRONT
  6
Continuous
 62
     7
370
    13
100
AcDbLine
 39
0.25
 10
45.9872466035506
 20
191.425828272972
 30
0.0
 11
45.9872466035506
 21
192.4181282729719
 31
0.0
1001
AUSTER_ANSICHT
1002
{
1000
Det03
1002
}
1001
AUSTER_FOLIE
1002
{
1000
NSB01341_3RS10_24POL
1002
}
  0
LINE
  5
12C4D
330
1F
100
AcDbEntity
  8
10000_FRONT
  6
Continuous
 62
     7
370
    13
100
AcDbLine
 39
0.25
 10
45.9872466035506
 20
188.864428272972
 30
0.0
 11
45.9872466035506
 21
189.8567282729721
 31
0.0
1001
AUSTER_ANSICHT
1002
{
1000
Det03
1002
}
1001
AUSTER_FOLIE
1002
{
1000
NSB01341_3RS10_24POL
1002
}
  0
LINE
  5
12C4E
330
1F
100
AcDbEntity
  8
10000_FRONT
  6
Continuous
 62
     7
370
    13
100
AcDbLine
 39
0.25
 10
44.9572466035504
 20
189.8567282729721
 30
0.0
 11
44.9572466035504
 21
188.864428272972
 31
0.0
1001
AUSTER_ANSICHT
1002
{
1000
Det03
1002
}
1001
AUSTER_FOLIE
1002
{
1000
NSB01341_3RS10_24POL
1002
}
  0
LINE
  5
12C4F
330
1F
100
AcDbEntity
  8
10000_FRONT
  6
Continuous
 62
     7
370
    13
100
AcDbLine
 39
0.25
 10
45.9872466035506
 20
191.425828272972
 30
0.0
 11
45.9872466035506
 21
191.245628272972
 31
0.0
1001
AUSTER_ANSICHT
1002
{
1000
Det03
1002
}
1001
AUSTER_FOLIE
1002
{
1000
NSB01341_3RS10_24POL
1002
}
  0
LINE
  5
12C50
330
1F
100
AcDbEntity
  8
10000_FRONT
  6
Continuous
 62
     7
370
    13
100
AcDbLine
 39
0.25
 10
45.9872466035506
 20
189.8567282729721
 30
0.0
 11
45.9872466035506
 21
190.036928272972
 31
0.0
1001
AUSTER_ANSICHT
1002
{
1000
Det03
1002
}
1001
AUSTER_FOLIE
1002
{
1000
NSB01341_3RS10_24POL
1002
}
  0
LINE
  5
12C51
330
1F
100
AcDbEntity
  8
10000_FRONT
  6
Continuous
 62
     7
370
    13
100
AcDbLine
 39
0.25
 10
44.9572466035504
 20
191.425828272972
 30
0.0
 11
44.9572466035504
 21
191.245628272972
 31
0.0
1001
AUSTER_ANSICHT
1002
{
1000
Det03
1002
}
1001
AUSTER_FOLIE
1002
{
1000
NSB01341_3RS10_24POL
1002
}
  0
LINE
  5
12C52
330
1F
100
AcDbEntity
  8
10000_FRONT
  6
Continuous
 62
     7
370
    13
100
AcDbLine
 39
0.25
 10
44.9572466035504
 20
189.8567282729721
 30
0.0
 11
44.9572466035504
 21
190.036928272972
 31
0.0
1001
AUSTER_ANSICHT
1002
{
1000
Det03
1002
}
1001
AUSTER_FOLIE
1002
{
1000
NSB01341_3RS10_24POL
1002
}
  0
CIRCLE
  5
12C53
330
1F
100
AcDbEntity
  8
10000_FRONT
  6
Continuous
 62
     7
370
    13
100
AcDbCircle
 39
0.25
 10
45.4722466035505
 20
190.641228272972
 30
0.0
 40
3.1
1001
AUSTER_ANSICHT
1002
{
1000
Det03
1002
}
1001
AUSTER_FOLIE
1002
{
1000
NSB01341_3RS10_24POL
1002
}
  0
ARC
  5
12C54
330
1F
100
AcDbEntity
  8
10000_FRONT
  6
Continuous
 62
     7
370
    13
100
AcDbCircle
 39
0.25
 10
45.4722466035505
 20
190.641228272972
 30
0.0
 40
1.85
100
AcDbArc
 50
73.83654999999764
 51
106.1634000000003
1001
AUSTER_ANSICHT
1002
{
1000
Det03
1002
}
1001
AUSTER_FOLIE
1002
{
1000
NSB01341_3RS10_24POL
1002
}
  0
ARC
  5
12C55
330
1F
100
AcDbEntity
  8
10000_FRONT
  6
Continuous
 62
     7
370
    13
100
AcDbCircle
 39
0.25
 10
45.4722466035505
 20
190.641228272972
 30
0.0
 40
1.85
100
AcDbArc
 50
253.8365999999997
 51
286.1634000000003
1001
AUSTER_ANSICHT
1002
{
1000
Det03
1002
}
1001
AUSTER_FOLIE
1002
{
1000
NSB01341_3RS10_24POL
1002
}
  0
ARC
  5
12C56
330
1F
100
AcDbEntity
  8
10000_FRONT
  6
Continuous
 62
     7
370
    13
100
AcDbCircle
 39
0.25
 10
45.4722466035505
 20
190.641228272972
 30
0.0
 40
2.850490999999998
100
AcDbArc
 50
347.7603999999987
 51
12.23960000000126
1001
AUSTER_ANSICHT
1002
{
1000
Det03
1002
}
1001
AUSTER_FOLIE
1002
{
1000
NSB01341_3RS10_24POL
1002
}
  0
ARC
  5
12C57
330
1F
100
AcDbEntity
  8
10000_FRONT
  6
Continuous
 62
     7
370
    13
100
AcDbCircle
 39
0.25
 10
45.4722466035505
 20
190.641228272972
 30
0.0
 40
2.850490999999998
100
AcDbArc
 50
167.7603999999987
 51
192.2396000000013
1001
AUSTER_ANSICHT
1002
{
1000
Det03
1002
}
1001
AUSTER_FOLIE
1002
{
1000
NSB01341_3RS10_24POL
1002
}
  0
LINE
  5
12C58
330
1F
100
AcDbEntity
  8
10000_FRONT
  6
Continuous
 62
     7
370
    13
100
AcDbLine
 39
0.25
 10
49.88654660355042
 20
190.036928272972
 30
0.0
 11
52.15724660355046
 21
190.036928272972
 31
0.0
1001
AUSTER_ANSICHT
1002
{
1000
Det03
1002
}
1001
AUSTER_FOLIE
1002
{
1000
NSB01341_3RS10_24POL
1002
}
  0
LINE
  5
12C59
330
1F
100
AcDbEntity
  8
10000_FRONT
  6
Continuous
 62
     7
370
    13
100
AcDbLine
 39
0.25
 10
53.18724660355043
 20
190.036928272972
 30
0.0
 11
55.45794660355046
 21
190.036928272972
 31
0.0
1001
AUSTER_ANSICHT
1002
{
1000
Det03
1002
}
1001
AUSTER_FOLIE
1002
{
1000
NSB01341_3RS10_24POL
1002
}
  0
LINE
  5
12C5A
330
1F
100
AcDbEntity
  8
10000_FRONT
  6
Continuous
 62
     7
370
    13
100
AcDbLine
 39
0.25
 10
55.45794660355046
 20
191.245628272972
 30
0.0
 11
53.18724660355043
 21
191.245628272972
 31
0.0
1001
AUSTER_ANSICHT
1002
{
1000
Det03
1002
}
1001
AUSTER_FOLIE
1002
{
1000
NSB01341_3RS10_24POL
1002
}
  0
LINE
  5
12C5B
330
1F
100
AcDbEntity
  8
10000_FRONT
  6
Continuous
 62
     7
370
    13
100
AcDbLine
 39
0.25
 10
52.15724660355046
 20
191.245628272972
 30
0.0
 11
49.88654660355042
 21
191.245628272972
 31
0.0
1001
AUSTER_ANSICHT
1002
{
1000
Det03
1002
}
1001
AUSTER_FOLIE
1002
{
1000
NSB01341_3RS10_24POL
1002
}
  0
LINE
  5
12C5C
330
1F
100
AcDbEntity
  8
10000_FRONT
  6
Continuous
 62
     7
370
    13
100
AcDbLine
 39
0.25
 10
52.15724660355046
 20
192.4181282729719
 30
0.0
 11
52.15724660355046
 21
191.425828272972
 31
0.0
1001
AUSTER_ANSICHT
1002
{
1000
Det03
1002
}
1001
AUSTER_FOLIE
1002
{
1000
NSB01341_3RS10_24POL
1002
}
  0
LINE
  5
12C5D
330
1F
100
AcDbEntity
  8
10000_FRONT
  6
Continuous
 62
     7
370
    13
100
AcDbLine
 39
0.25
 10
53.18724660355043
 20
191.425828272972
 30
0.0
 11
53.18724660355043
 21
192.4181282729719
 31
0.0
1001
AUSTER_ANSICHT
1002
{
1000
Det03
1002
}
1001
AUSTER_FOLIE
1002
{
1000
NSB01341_3RS10_24POL
1002
}
  0
LINE
  5
12C5E
330
1F
100
AcDbEntity
  8
10000_FRONT
  6
Continuous
 62
     7
370
    13
100
AcDbLine
 39
0.25
 10
53.18724660355043
 20
188.864428272972
 30
0.0
 11
53.18724660355043
 21
189.8567282729721
 31
0.0
1001
AUSTER_ANSICHT
1002
{
1000
Det03
1002
}
1001
AUSTER_FOLIE
1002
{
1000
NSB01341_3RS10_24POL
1002
}
  0
LINE
  5
12C5F
330
1F
100
AcDbEntity
  8
10000_FRONT
  6
Continuous
 62
     7
370
    13
100
AcDbLine
 39
0.25
 10
52.15724660355046
 20
189.8567282729721
 30
0.0
 11
52.15724660355046
 21
188.864428272972
 31
0.0
1001
AUSTER_ANSICHT
1002
{
1000
Det03
1002
}
1001
AUSTER_FOLIE
1002
{
1000
NSB01341_3RS10_24POL
1002
}
  0
LINE
  5
12C60
330
1F
100
AcDbEntity
  8
10000_FRONT
  6
Continuous
 62
     7
370
    13
100
AcDbLine
 39
0.25
 10
53.18724660355043
 20
191.425828272972
 30
0.0
 11
53.18724660355043
 21
191.245628272972
 31
0.0
1001
AUSTER_ANSICHT
1002
{
1000
Det03
1002
}
1001
AUSTER_FOLIE
1002
{
1000
NSB01341_3RS10_24POL
1002
}
  0
LINE
  5
12C61
330
1F
100
AcDbEntity
  8
10000_FRONT
  6
Continuous
 62
     7
370
    13
100
AcDbLine
 39
0.25
 10
53.18724660355043
 20
189.8567282729721
 30
0.0
 11
53.18724660355043
 21
190.036928272972
 31
0.0
1001
AUSTER_ANSICHT
1002
{
1000
Det03
1002
}
1001
AUSTER_FOLIE
1002
{
1000
NSB01341_3RS10_24POL
1002
}
  0
LINE
  5
12C62
330
1F
100
AcDbEntity
  8
10000_FRONT
  6
Continuous
 62
     7
370
    13
100
AcDbLine
 39
0.25
 10
52.15724660355046
 20
191.425828272972
 30
0.0
 11
52.15724660355046
 21
191.245628272972
 31
0.0
1001
AUSTER_ANSICHT
1002
{
1000
Det03
1002
}
1001
AUSTER_FOLIE
1002
{
1000
NSB01341_3RS10_24POL
1002
}
  0
LINE
  5
12C63
330
1F
100
AcDbEntity
  8
10000_FRONT
  6
Continuous
 62
     7
370
    13
100
AcDbLine
 39
0.25
 10
52.15724660355046
 20
189.8567282729721
 30
0.0
 11
52.15724660355046
 21
190.036928272972
 31
0.0
1001
AUSTER_ANSICHT
1002
{
1000
Det03
1002
}
1001
AUSTER_FOLIE
1002
{
1000
NSB01341_3RS10_24POL
1002
}
  0
CIRCLE
  5
12C64
330
1F
100
AcDbEntity
  8
10000_FRONT
  6
Continuous
 62
     7
370
    13
100
AcDbCircle
 39
0.25
 10
52.67224660355054
 20
190.641228272972
 30
0.0
 40
3.1
1001
AUSTER_ANSICHT
1002
{
1000
Det03
1002
}
1001
AUSTER_FOLIE
1002
{
1000
NSB01341_3RS10_24POL
1002
}
  0
ARC
  5
12C65
330
1F
100
AcDbEntity
  8
10000_FRONT
  6
Continuous
 62
     7
370
    13
100
AcDbCircle
 39
0.25
 10
52.67224660355054
 20
190.641228272972
 30
0.0
 40
2.850490999999998
100
AcDbArc
 50
167.7603999999987
 51
192.2396000000013
1001
AUSTER_ANSICHT
1002
{
1000
Det03
1002
}
1001
AUSTER_FOLIE
1002
{
1000
NSB01341_3RS10_24POL
1002
}
  0
ARC
  5
12C66
330
1F
100
AcDbEntity
  8
10000_FRONT
  6
Continuous
 62
     7
370
    13
100
AcDbCircle
 39
0.25
 10
52.67224660355054
 20
190.641228272972
 30
0.0
 40
1.85
100
AcDbArc
 50
73.83654999999764
 51
106.1634000000003
1001
AUSTER_ANSICHT
1002
{
1000
Det03
1002
}
1001
AUSTER_FOLIE
1002
{
1000
NSB01341_3RS10_24POL
1002
}
  0
ARC
  5
12C67
330
1F
100
AcDbEntity
  8
10000_FRONT
  6
Continuous
 62
     7
370
    13
100
AcDbCircle
 39
0.25
 10
52.67224660355054
 20
190.641228272972
 30
0.0
 40
1.85
100
AcDbArc
 50
253.8365999999997
 51
286.1634000000003
1001
AUSTER_ANSICHT
1002
{
1000
Det03
1002
}
1001
AUSTER_FOLIE
1002
{
1000
NSB01341_3RS10_24POL
1002
}
  0
ARC
  5
12C68
330
1F
100
AcDbEntity
  8
10000_FRONT
  6
Continuous
 62
     7
370
    13
100
AcDbCircle
 39
0.25
 10
52.67224660355054
 20
190.641228272972
 30
0.0
 40
2.850490999999998
100
AcDbArc
 50
347.7603999999987
 51
12.23960000000126
1001
AUSTER_ANSICHT
1002
{
1000
Det03
1002
}
1001
AUSTER_FOLIE
1002
{
1000
NSB01341_3RS10_24POL
1002
}
  0
ARC
  5
12C69
330
1F
100
AcDbEntity
  8
10000_FRONT
  6
Continuous
 62
     7
370
    13
100
AcDbCircle
 39
0.25
 10
52.67224660355032
 20
122.4412282729721
 30
0.0
 40
1.85
100
AcDbArc
 50
73.83654999999764
 51
106.1634000000003
1001
AUSTER_ANSICHT
1002
{
1000
Det03
1002
}
1001
AUSTER_FOLIE
1002
{
1000
NSB01341_3RS10_24POL
1002
}
  0
LINE
  5
12C6A
330
1F
100
AcDbEntity
  8
10000_FRONT
  6
Continuous
 62
     7
370
    13
100
AcDbLine
 39
0.25
 10
52.15724660355022
 20
123.2258282729721
 30
0.0
 11
52.15724660355022
 21
123.045628272972
 31
0.0
1001
AUSTER_ANSICHT
1002
{
1000
Det03
1002
}
1001
AUSTER_FOLIE
1002
{
1000
NSB01341_3RS10_24POL
1002
}
  0
LINE
  5
12C6B
330
1F
100
AcDbEntity
  8
10000_FRONT
  6
Continuous
 62
     7
370
    13
100
AcDbLine
 39
0.25
 10
53.1872466035502
 20
123.2258282729721
 30
0.0
 11
53.1872466035502
 21
123.045628272972
 31
0.0
1001
AUSTER_ANSICHT
1002
{
1000
Det03
1002
}
1001
AUSTER_FOLIE
1002
{
1000
NSB01341_3RS10_24POL
1002
}
  0
LINE
  5
12C6C
330
1F
100
AcDbEntity
  8
10000_FRONT
  6
Continuous
 62
     7
370
    13
100
AcDbLine
 39
0.25
 10
53.1872466035502
 20
123.2258282729721
 30
0.0
 11
53.1872466035502
 21
124.218128272972
 31
0.0
1001
AUSTER_ANSICHT
1002
{
1000
Det03
1002
}
1001
AUSTER_FOLIE
1002
{
1000
NSB01341_3RS10_24POL
1002
}
  0
LINE
  5
12C6D
330
1F
100
AcDbEntity
  8
10000_FRONT
  6
Continuous
 62
     7
370
    13
100
AcDbLine
 39
0.25
 10
52.15724660355022
 20
124.218128272972
 30
0.0
 11
52.15724660355022
 21
123.2258282729721
 31
0.0
1001
AUSTER_ANSICHT
1002
{
1000
Det03
1002
}
1001
AUSTER_FOLIE
1002
{
1000
NSB01341_3RS10_24POL
1002
}
  0
LINE
  5
12C6E
330
1F
100
AcDbEntity
  8
10000_FRONT
  6
Continuous
 62
     7
370
    13
100
AcDbLine
 39
0.25
 10
52.15724660355022
 20
123.045628272972
 30
0.0
 11
49.88654660355019
 21
123.045628272972
 31
0.0
1001
AUSTER_ANSICHT
1002
{
1000
Det03
1002
}
1001
AUSTER_FOLIE
1002
{
1000
NSB01341_3RS10_24POL
1002
}
  0
LINE
  5
12C6F
330
1F
100
AcDbEntity
  8
10000_FRONT
  6
Continuous
 62
     7
370
    13
100
AcDbLine
 39
0.25
 10
55.45794660355021
 20
123.045628272972
 30
0.0
 11
53.1872466035502
 21
123.045628272972
 31
0.0
1001
AUSTER_ANSICHT
1002
{
1000
Det03
1002
}
1001
AUSTER_FOLIE
1002
{
1000
NSB01341_3RS10_24POL
1002
}
  0
ARC
  5
12C70
330
1F
100
AcDbEntity
  8
10000_FRONT
  6
Continuous
 62
     7
370
    13
100
AcDbCircle
 39
0.25
 10
45.47224660355027
 20
122.4412282729721
 30
0.0
 40
1.85
100
AcDbArc
 50
73.83654999999764
 51
106.1634000000003
1001
AUSTER_ANSICHT
1002
{
1000
Det03
1002
}
1001
AUSTER_FOLIE
1002
{
1000
NSB01341_3RS10_24POL
1002
}
  0
LINE
  5
12C71
330
1F
100
AcDbEntity
  8
10000_FRONT
  6
Continuous
 62
     7
370
    13
100
AcDbLine
 39
0.25
 10
44.95724660355017
 20
123.2258282729721
 30
0.0
 11
44.95724660355017
 21
123.045628272972
 31
0.0
1001
AUSTER_ANSICHT
1002
{
1000
Det03
1002
}
1001
AUSTER_FOLIE
1002
{
1000
NSB01341_3RS10_24POL
1002
}
  0
LINE
  5
12C72
330
1F
100
AcDbEntity
  8
10000_FRONT
  6
Continuous
 62
     7
370
    13
100
AcDbLine
 39
0.25
 10
45.98724660355038
 20
123.2258282729721
 30
0.0
 11
45.98724660355038
 21
123.045628272972
 31
0.0
1001
AUSTER_ANSICHT
1002
{
1000
Det03
1002
}
1001
AUSTER_FOLIE
1002
{
1000
NSB01341_3RS10_24POL
1002
}
  0
LINE
  5
12C73
330
1F
100
AcDbEntity
  8
10000_FRONT
  6
Continuous
 62
     7
370
    13
100
AcDbLine
 39
0.25
 10
45.98724660355038
 20
123.2258282729721
 30
0.0
 11
45.98724660355038
 21
124.218128272972
 31
0.0
1001
AUSTER_ANSICHT
1002
{
1000
Det03
1002
}
1001
AUSTER_FOLIE
1002
{
1000
NSB01341_3RS10_24POL
1002
}
  0
LINE
  5
12C74
330
1F
100
AcDbEntity
  8
10000_FRONT
  6
Continuous
 62
     7
370
    13
100
AcDbLine
 39
0.25
 10
44.95724660355017
 20
124.218128272972
 30
0.0
 11
44.95724660355017
 21
123.2258282729721
 31
0.0
1001
AUSTER_ANSICHT
1002
{
1000
Det03
1002
}
1001
AUSTER_FOLIE
1002
{
1000
NSB01341_3RS10_24POL
1002
}
  0
LINE
  5
12C75
330
1F
100
AcDbEntity
  8
10000_FRONT
  6
Continuous
 62
     7
370
    13
100
AcDbLine
 39
0.25
 10
44.95724660355017
 20
123.045628272972
 30
0.0
 11
42.68654660355013
 21
123.045628272972
 31
0.0
1001
AUSTER_ANSICHT
1002
{
1000
Det03
1002
}
1001
AUSTER_FOLIE
1002
{
1000
NSB01341_3RS10_24POL
1002
}
  0
LINE
  5
12C76
330
1F
100
AcDbEntity
  8
10000_FRONT
  6
Continuous
 62
     7
370
    13
100
AcDbLine
 39
0.25
 10
48.25794660355041
 20
123.045628272972
 30
0.0
 11
45.98724660355038
 21
123.045628272972
 31
0.0
1001
AUSTER_ANSICHT
1002
{
1000
Det03
1002
}
1001
AUSTER_FOLIE
1002
{
1000
NSB01341_3RS10_24POL
1002
}
  0
LINE
  5
12C77
330
1F
100
AcDbEntity
  8
10000_FRONT
  6
Continuous
 62
     7
370
    13
100
AcDbLine
 39
0.25
 10
38.7872466035501
 20
123.2258282729721
 30
0.0
 11
38.7872466035501
 21
123.045628272972
 31
0.0
1001
AUSTER_ANSICHT
1002
{
1000
Det03
1002
}
1001
AUSTER_FOLIE
1002
{
1000
NSB01341_3RS10_24POL
1002
}
  0
LINE
  5
12C78
330
1F
100
AcDbEntity
  8
10000_FRONT
  6
Continuous
 62
     7
370
    13
100
AcDbLine
 39
0.25
 10
38.7872466035501
 20
123.2258282729721
 30
0.0
 11
38.7872466035501
 21
124.218128272972
 31
0.0
1001
AUSTER_ANSICHT
1002
{
1000
Det03
1002
}
1001
AUSTER_FOLIE
1002
{
1000
NSB01341_3RS10_24POL
1002
}
  0
LINE
  5
12C79
330
1F
100
AcDbEntity
  8
10000_FRONT
  6
Continuous
 62
     7
370
    13
100
AcDbLine
 39
0.25
 10
41.05794660355013
 20
123.045628272972
 30
0.0
 11
38.7872466035501
 21
123.045628272972
 31
0.0
1001
AUSTER_ANSICHT
1002
{
1000
Det03
1002
}
1001
AUSTER_FOLIE
1002
{
1000
NSB01341_3RS10_24POL
1002
}
  0
LINE
  5
12C7A
330
1F
100
AcDbEntity
  8
10000_FRONT
  6
Continuous
 62
     7
370
    13
100
AcDbLine
 39
0.25
 10
35.48654660355055
 20
190.036928272972
 30
0.0
 11
37.75724660355058
 21
190.036928272972
 31
0.0
1001
AUSTER_ANSICHT
1002
{
1000
Det03
1002
}
1001
AUSTER_FOLIE
1002
{
1000
NSB01341_3RS10_24POL
1002
}
  0
LINE
  5
12C7B
330
1F
100
AcDbEntity
  8
10000_FRONT
  6
Continuous
 62
     7
370
    13
100
AcDbLine
 39
0.25
 10
37.75724660355058
 20
191.245628272972
 30
0.0
 11
35.48654660355055
 21
191.245628272972
 31
0.0
1001
AUSTER_ANSICHT
1002
{
1000
Det03
1002
}
1001
AUSTER_FOLIE
1002
{
1000
NSB01341_3RS10_24POL
1002
}
  0
LINE
  5
12C7C
330
1F
100
AcDbEntity
  8
10000_FRONT
  6
Continuous
 62
     7
370
    13
100
AcDbLine
 39
0.25
 10
37.75724660355058
 20
192.4181282729719
 30
0.0
 11
37.75724660355058
 21
191.425828272972
 31
0.0
1001
AUSTER_ANSICHT
1002
{
1000
Det03
1002
}
1001
AUSTER_FOLIE
1002
{
1000
NSB01341_3RS10_24POL
1002
}
  0
LINE
  5
12C7D
330
1F
100
AcDbEntity
  8
10000_FRONT
  6
Continuous
 62
     7
370
    13
100
AcDbLine
 39
0.25
 10
37.75724660355058
 20
189.8567282729721
 30
0.0
 11
37.75724660355058
 21
188.864428272972
 31
0.0
1001
AUSTER_ANSICHT
1002
{
1000
Det03
1002
}
1001
AUSTER_FOLIE
1002
{
1000
NSB01341_3RS10_24POL
1002
}
  0
LINE
  5
12C7E
330
1F
100
AcDbEntity
  8
10000_FRONT
  6
Continuous
 62
     7
370
    13
100
AcDbLine
 39
0.25
 10
37.75724660355058
 20
191.425828272972
 30
0.0
 11
37.75724660355058
 21
191.245628272972
 31
0.0
1001
AUSTER_ANSICHT
1002
{
1000
Det03
1002
}
1001
AUSTER_FOLIE
1002
{
1000
NSB01341_3RS10_24POL
1002
}
  0
LINE
  5
12C7F
330
1F
100
AcDbEntity
  8
10000_FRONT
  6
Continuous
 62
     7
370
    13
100
AcDbLine
 39
0.25
 10
37.75724660355058
 20
189.8567282729721
 30
0.0
 11
37.75724660355058
 21
190.036928272972
 31
0.0
1001
AUSTER_ANSICHT
1002
{
1000
Det03
1002
}
1001
AUSTER_FOLIE
1002
{
1000
NSB01341_3RS10_24POL
1002
}
  0
ARC
  5
12C80
330
1F
100
AcDbEntity
  8
10000_FRONT
  6
Continuous
 62
     7
370
    13
100
AcDbCircle
 39
0.25
 10
38.27224660355046
 20
190.641228272972
 30
0.0
 40
2.850490999999998
100
AcDbArc
 50
167.7603999999987
 51
192.2396000000013
1001
AUSTER_ANSICHT
1002
{
1000
Det03
1002
}
1001
AUSTER_FOLIE
1002
{
1000
NSB01341_3RS10_24POL
1002
}
  0
LINE
  5
12C81
330
1F
100
AcDbEntity
  8
10000_FRONT
  6
Continuous
 62
     7
370
    13
100
AcDbLine
 39
0.25
 10
37.75724660355036
 20
123.2258282729721
 30
0.0
 11
37.75724660355036
 21
123.045628272972
 31
0.0
1001
AUSTER_ANSICHT
1002
{
1000
Det03
1002
}
1001
AUSTER_FOLIE
1002
{
1000
NSB01341_3RS10_24POL
1002
}
  0
LINE
  5
12C82
330
1F
100
AcDbEntity
  8
10000_FRONT
  6
Continuous
 62
     7
370
    13
100
AcDbLine
 39
0.25
 10
37.75724660355036
 20
124.218128272972
 30
0.0
 11
37.75724660355036
 21
123.2258282729721
 31
0.0
1001
AUSTER_ANSICHT
1002
{
1000
Det03
1002
}
1001
AUSTER_FOLIE
1002
{
1000
NSB01341_3RS10_24POL
1002
}
  0
LINE
  5
12C83
330
1F
100
AcDbEntity
  8
10000_FRONT
  6
Continuous
 62
     7
370
    13
100
AcDbLine
 39
0.25
 10
37.75724660355036
 20
123.045628272972
 30
0.0
 11
35.48654660355032
 21
123.045628272972
 31
0.0
1001
AUSTER_ANSICHT
1002
{
1000
Det03
1002
}
1001
AUSTER_FOLIE
1002
{
1000
NSB01341_3RS10_24POL
1002
}
  0
CIRCLE
  5
12C84
330
1F
100
AcDbEntity
  8
10000_FRONT
  6
Continuous
 62
     7
370
    13
100
AcDbCircle
 39
0.25
 10
38.27224660355046
 20
190.641228272972
 30
0.0
 40
3.1
1001
AUSTER_ANSICHT
1002
{
1000
Det03
1002
}
1001
AUSTER_FOLIE
1002
{
1000
NSB01341_3RS10_24POL
1002
}
  0
ARC
  5
12C85
330
1F
100
AcDbEntity
  8
10000_FRONT
  6
Continuous
 62
     7
370
    13
100
AcDbCircle
 39
0.25
 10
38.27224660355046
 20
190.641228272972
 30
0.0
 40
1.85
100
AcDbArc
 50
73.83654999999764
 51
106.1634000000003
1001
AUSTER_ANSICHT
1002
{
1000
Det03
1002
}
1001
AUSTER_FOLIE
1002
{
1000
NSB01341_3RS10_24POL
1002
}
  0
ARC
  5
12C86
330
1F
100
AcDbEntity
  8
10000_FRONT
  6
Continuous
 62
     7
370
    13
100
AcDbCircle
 39
0.25
 10
38.27224660355046
 20
190.641228272972
 30
0.0
 40
1.85
100
AcDbArc
 50
253.8365999999997
 51
286.1634000000003
1001
AUSTER_ANSICHT
1002
{
1000
Det03
1002
}
1001
AUSTER_FOLIE
1002
{
1000
NSB01341_3RS10_24POL
1002
}
  0
ARC
  5
12C87
330
1F
100
AcDbEntity
  8
10000_FRONT
  6
Continuous
 62
     7
370
    13
100
AcDbCircle
 39
0.25
 10
38.27224660355022
 20
122.4412282729721
 30
0.0
 40
1.85
100
AcDbArc
 50
73.83654999999764
 51
106.1634000000003
1001
AUSTER_ANSICHT
1002
{
1000
Det03
1002
}
1001
AUSTER_FOLIE
1002
{
1000
NSB01341_3RS10_24POL
1002
}
  0
ARC
  5
12CBB
330
1F
100
AcDbEntity
  8
10000_FRONT
  6
Continuous
 62
     7
370
    30
100
AcDbCircle
 10
56.52224660355021
 20
115.441228272972
 30
0.0
 40
0.2
100
AcDbArc
 50
270.0
 51
0.0
  0
LINE
  5
12CBC
330
1F
100
AcDbEntity
  8
10000_FRONT
  6
Continuous
 62
     7
370
    30
100
AcDbLine
 10
56.52224660355021
 20
115.241228272972
 30
0.0
 11
56.52224660355021
 21
115.241228272972
 31
0.0
  0
ARC
  5
12CBD
330
1F
100
AcDbEntity
  8
10000_FRONT
  6
Continuous
 62
     7
370
    30
100
AcDbCircle
 10
56.52224660355021
 20
115.441228272972
 30
0.0
 40
0.2
100
AcDbArc
 50
270.0
 51
0.0
  0
LINE
  5
12CBE
330
1F
100
AcDbEntity
  8
10000_FRONT
  6
Continuous
 62
     7
370
    30
100
AcDbLine
 10
56.52224660355021
 20
115.241228272972
 30
0.0
 11
56.52224660355021
 21
115.241228272972
 31
0.0
  0
LINE
  5
12CBF
330
1F
100
AcDbEntity
  8
10000_FRONT
  6
Continuous
 62
     7
370
    40
100
AcDbLine
 10
56.52224660355021
 20
105.7093760922919
 30
0.0
 11
56.52224660355021
 21
105.7093760922919
 31
0.0
  0
ARC
  5
12CC0
330
1F
100
AcDbEntity
  8
10000_FRONT
  6
Continuous
 62
     7
370
    40
100
AcDbCircle
 10
56.52224660355021
 20
105.9093760922919
 30
0.0
 40
0.2
100
AcDbArc
 50
270.0
 51
0.0
  0
LINE
  5
12CC1
330
1F
100
AcDbEntity
  8
10000_FRONT
  6
Continuous
 62
     7
370
    40
100
AcDbLine
 10
56.52224660355021
 20
105.7093760922919
 30
0.0
 11
56.52224660355021
 21
105.7093760922919
 31
0.0
  0
ARC
  5
12CC2
330
1F
100
AcDbEntity
  8
10000_FRONT
  6
Continuous
 62
     7
370
    40
100
AcDbCircle
 10
56.52224660355021
 20
105.9093760922919
 30
0.0
 40
0.2
100
AcDbArc
 50
270.0
 51
0.0
  0
LINE
  5
12CC3
330
1F
100
AcDbEntity
  8
10000_FRONT
  6
Continuous
 62
     7
370
    30
100
AcDbLine
 10
50.47224660355027
 20
115.7412282729721
 30
0.0
 11
54.87224660355035
 21
115.7412282729721
 31
0.0
  0
LINE
  5
12CC4
330
1F
100
AcDbEntity
  8
10000_FRONT
  6
Continuous
 62
     7
370
    30
100
AcDbLine
 10
50.47224660355027
 20
115.7412282729721
 30
0.0
 11
54.87224660355035
 21
115.7412282729721
 31
0.0
  0
LINE
  5
12CC5
330
1F
100
AcDbEntity
  8
10000_FRONT
  6
Continuous
 62
     7
370
    30
100
AcDbLine
 10
47.67224660355032
 20
115.241228272972
 30
0.0
 11
50.47224660355027
 21
115.241228272972
 31
0.0
  0
LINE
  5
12CC6
330
1F
100
AcDbEntity
  8
10000_FRONT
  6
Continuous
 62
     7
370
    30
100
AcDbLine
 10
50.47224660355027
 20
115.7412282729721
 30
0.0
 11
50.47224660355027
 21
115.441228272972
 31
0.0
  0
LINE
  5
12CC7
330
1F
100
AcDbEntity
  8
10000_FRONT
  6
Continuous
 62
     7
370
    30
100
AcDbLine
 10
50.47224660355027
 20
115.241228272972
 30
0.0
 11
50.47224660355027
 21
115.441228272972
 31
0.0
  0
LINE
  5
12CC8
330
1F
100
AcDbEntity
  8
10000_FRONT
  6
Continuous
 62
     7
370
    30
100
AcDbLine
 10
47.67224660355032
 20
115.7412282729721
 30
0.0
 11
47.67224660355032
 21
115.441228272972
 31
0.0
  0
LINE
  5
12CC9
330
1F
100
AcDbEntity
  8
10000_FRONT
  6
Continuous
 62
     7
370
    30
100
AcDbLine
 10
47.67224660355032
 20
115.441228272972
 30
0.0
 11
47.67224660355032
 21
115.241228272972
 31
0.0
  0
LINE
  5
12CCA
330
1F
100
AcDbEntity
  8
10000_FRONT
  6
Continuous
 62
     7
370
    30
100
AcDbLine
 10
43.27224660355021
 20
115.7412282729721
 30
0.0
 11
43.27224660355021
 21
115.441228272972
 31
0.0
  0
LINE
  5
12CCB
330
1F
100
AcDbEntity
  8
10000_FRONT
  6
Continuous
 62
     7
370
    30
100
AcDbLine
 10
43.27224660355021
 20
115.241228272972
 30
0.0
 11
43.27224660355021
 21
115.441228272972
 31
0.0
  0
LINE
  5
12CCC
330
1F
100
AcDbEntity
  8
10000_FRONT
  6
Continuous
 62
     7
370
    30
100
AcDbLine
 10
43.27224660355021
 20
115.7412282729721
 30
0.0
 11
47.67224660355032
 21
115.7412282729721
 31
0.0
  0
LINE
  5
12CCD
330
1F
100
AcDbEntity
  8
10000_FRONT
  6
Continuous
 62
     7
370
    30
100
AcDbLine
 10
47.67224660355032
 20
115.241228272972
 30
0.0
 11
50.47224660355027
 21
115.241228272972
 31
0.0
  0
LINE
  5
12CCE
330
1F
100
AcDbEntity
  8
10000_FRONT
  6
Continuous
 62
     7
370
    30
100
AcDbLine
 10
50.47224660355027
 20
115.7412282729721
 30
0.0
 11
50.47224660355027
 21
115.441228272972
 31
0.0
  0
LINE
  5
12CCF
330
1F
100
AcDbEntity
  8
10000_FRONT
  6
Continuous
 62
     7
370
    30
100
AcDbLine
 10
50.47224660355027
 20
115.241228272972
 30
0.0
 11
50.47224660355027
 21
115.441228272972
 31
0.0
  0
LINE
  5
12CD0
330
1F
100
AcDbEntity
  8
10000_FRONT
  6
Continuous
 62
     7
370
    30
100
AcDbLine
 10
47.67224660355032
 20
115.7412282729721
 30
0.0
 11
47.67224660355032
 21
115.441228272972
 31
0.0
  0
LINE
  5
12CD1
330
1F
100
AcDbEntity
  8
10000_FRONT
  6
Continuous
 62
     7
370
    30
100
AcDbLine
 10
47.67224660355032
 20
115.441228272972
 30
0.0
 11
47.67224660355032
 21
115.241228272972
 31
0.0
  0
LINE
  5
12CD2
330
1F
100
AcDbEntity
  8
10000_FRONT
  6
Continuous
 62
     7
370
    30
100
AcDbLine
 10
43.27224660355021
 20
115.7412282729721
 30
0.0
 11
43.27224660355021
 21
115.441228272972
 31
0.0
  0
LINE
  5
12CD3
330
1F
100
AcDbEntity
  8
10000_FRONT
  6
Continuous
 62
     7
370
    30
100
AcDbLine
 10
43.27224660355021
 20
115.241228272972
 30
0.0
 11
43.27224660355021
 21
115.441228272972
 31
0.0
  0
LINE
  5
12CD4
330
1F
100
AcDbEntity
  8
10000_FRONT
  6
Continuous
 62
     7
370
    30
100
AcDbLine
 10
43.27224660355021
 20
115.7412282729721
 30
0.0
 11
47.67224660355032
 21
115.7412282729721
 31
0.0
  0
LINE
  5
12CD5
330
1F
100
AcDbEntity
  8
10000_FRONT
  6
Continuous
 62
     7
370
    30
100
AcDbLine
 10
54.87224660355035
 20
115.7412282729721
 30
0.0
 11
54.87224660355035
 21
115.441228272972
 31
0.0
  0
LINE
  5
12CD6
330
1F
100
AcDbEntity
  8
10000_FRONT
  6
Continuous
 62
     7
370
    30
100
AcDbLine
 10
54.87224660355035
 20
115.441228272972
 30
0.0
 11
54.87224660355035
 21
115.241228272972
 31
0.0
  0
LINE
  5
12CD7
330
1F
100
AcDbEntity
  8
10000_FRONT
  6
Continuous
 62
     7
370
    30
100
AcDbLine
 10
54.87224660355035
 20
115.241228272972
 30
0.0
 11
54.87224660355035
 21
115.241228272972
 31
0.0
  0
LINE
  5
12CD8
330
1F
100
AcDbEntity
  8
10000_FRONT
  6
Continuous
 62
     7
370
    30
100
AcDbLine
 10
54.87224660355035
 20
115.7412282729721
 30
0.0
 11
54.87224660355035
 21
115.441228272972
 31
0.0
  0
LINE
  5
12CD9
330
1F
100
AcDbEntity
  8
10000_FRONT
  6
Continuous
 62
     7
370
    30
100
AcDbLine
 10
54.87224660355035
 20
115.441228272972
 30
0.0
 11
54.87224660355035
 21
115.241228272972
 31
0.0
  0
LINE
  5
12CDA
330
1F
100
AcDbEntity
  8
10000_FRONT
  6
Continuous
 62
     7
370
    30
100
AcDbLine
 10
54.87224660355035
 20
115.241228272972
 30
0.0
 11
54.87224660355035
 21
115.241228272972
 31
0.0
  0
LINE
  5
12CDB
330
1F
100
AcDbEntity
  8
10000_FRONT
  6
Continuous
 62
     7
370
    30
100
AcDbLine
 10
54.87224660355035
 20
115.241228272972
 30
0.0
 11
55.92224660355032
 21
115.241228272972
 31
0.0
  0
LINE
  5
12CDC
330
1F
100
AcDbEntity
  8
10000_FRONT
  6
Continuous
 62
     7
370
    30
100
AcDbLine
 10
54.87224660355035
 20
115.241228272972
 30
0.0
 11
55.92224660355032
 21
115.241228272972
 31
0.0
  0
LINE
  5
12CDD
330
1F
100
AcDbEntity
  8
10000_FRONT
  6
Continuous
 62
     7
370
    30
100
AcDbLine
 10
35.02224660355023
 20
115.241228272972
 30
0.0
 11
36.07224660355019
 21
115.241228272972
 31
0.0
  0
LINE
  5
12CDE
330
1F
100
AcDbEntity
  8
10000_FRONT
  6
Continuous
 62
     7
370
    30
100
AcDbLine
 10
35.02224660355023
 20
115.241228272972
 30
0.0
 11
36.07224660355019
 21
115.241228272972
 31
0.0
  0
LINE
  5
12CDF
330
1F
100
AcDbEntity
  8
10000_FRONT
  6
Continuous
 62
     7
370
    30
100
AcDbLine
 10
34.42224660355032
 20
115.241228272972
 30
0.0
 11
35.02224660355023
 21
115.241228272972
 31
0.0
  0
ARC
  5
12CE0
330
1F
100
AcDbEntity
  8
10000_FRONT
  6
Continuous
 62
     7
370
    30
100
AcDbCircle
 10
34.42224660355032
 20
115.441228272972
 30
0.0
 40
0.2
100
AcDbArc
 50
180.0
 51
270.0004400000052
  0
LINE
  5
12CE1
330
1F
100
AcDbEntity
  8
10000_FRONT
  6
Continuous
 62
     7
370
    30
100
AcDbLine
 10
34.42224660355032
 20
115.241228272972
 30
0.0
 11
35.02224660355023
 21
115.241228272972
 31
0.0
  0
ARC
  5
12CE2
330
1F
100
AcDbEntity
  8
10000_FRONT
  6
Continuous
 62
     7
370
    30
100
AcDbCircle
 10
34.42224660355032
 20
115.441228272972
 30
0.0
 40
0.2
100
AcDbArc
 50
180.0
 51
270.0004400000052
  0
LINE
  5
12CE3
330
1F
100
AcDbEntity
  8
10000_FRONT
  6
Continuous
 62
     7
370
    30
100
AcDbLine
 10
40.47224660355027
 20
115.7412282729721
 30
0.0
 11
40.47224660355027
 21
115.441228272972
 31
0.0
  0
LINE
  5
12CE4
330
1F
100
AcDbEntity
  8
10000_FRONT
  6
Continuous
 62
     7
370
    30
100
AcDbLine
 10
40.47224660355027
 20
115.441228272972
 30
0.0
 11
40.47224660355027
 21
115.241228272972
 31
0.0
  0
LINE
  5
12CE5
330
1F
100
AcDbEntity
  8
10000_FRONT
  6
Continuous
 62
     7
370
    30
100
AcDbLine
 10
40.47224660355027
 20
115.7412282729721
 30
0.0
 11
40.47224660355027
 21
115.441228272972
 31
0.0
  0
LINE
  5
12CE6
330
1F
100
AcDbEntity
  8
10000_FRONT
  6
Continuous
 62
     7
370
    30
100
AcDbLine
 10
40.47224660355027
 20
115.441228272972
 30
0.0
 11
40.47224660355027
 21
115.241228272972
 31
0.0
  0
LINE
  5
12CE7
330
1F
100
AcDbEntity
  8
10000_FRONT
  6
Continuous
 62
     7
370
    30
100
AcDbLine
 10
36.07224660355019
 20
115.7412282729721
 30
0.0
 11
36.07224660355019
 21
115.441228272972
 31
0.0
  0
LINE
  5
12CE8
330
1F
100
AcDbEntity
  8
10000_FRONT
  6
Continuous
 62
     7
370
    30
100
AcDbLine
 10
36.07224660355019
 20
115.241228272972
 30
0.0
 11
36.07224660355019
 21
115.441228272972
 31
0.0
  0
LINE
  5
12CE9
330
1F
100
AcDbEntity
  8
10000_FRONT
  6
Continuous
 62
     7
370
    30
100
AcDbLine
 10
36.07224660355019
 20
115.7412282729721
 30
0.0
 11
36.07224660355019
 21
115.441228272972
 31
0.0
  0
LINE
  5
12CEA
330
1F
100
AcDbEntity
  8
10000_FRONT
  6
Continuous
 62
     7
370
    30
100
AcDbLine
 10
36.07224660355019
 20
115.241228272972
 30
0.0
 11
36.07224660355019
 21
115.441228272972
 31
0.0
  0
LINE
  5
12CEB
330
1F
100
AcDbEntity
  8
10000_FRONT
  6
Continuous
 62
     7
370
    30
100
AcDbLine
 10
36.07224660355019
 20
115.7412282729721
 30
0.0
 11
40.47224660355027
 21
115.7412282729721
 31
0.0
  0
LINE
  5
12CEC
330
1F
100
AcDbEntity
  8
10000_FRONT
  6
Continuous
 62
     7
370
    30
100
AcDbLine
 10
36.07224660355019
 20
115.7412282729721
 30
0.0
 11
40.47224660355027
 21
115.7412282729721
 31
0.0
  0
LINE
  5
12CED
330
1F
100
AcDbEntity
  8
10000_FRONT
  6
Continuous
 62
     7
370
    30
100
AcDbLine
 10
40.47224660355027
 20
115.241228272972
 30
0.0
 11
43.27224660355021
 21
115.241228272972
 31
0.0
  0
LINE
  5
12CEE
330
1F
100
AcDbEntity
  8
10000_FRONT
  6
Continuous
 62
     7
370
    30
100
AcDbLine
 10
40.47224660355027
 20
115.241228272972
 30
0.0
 11
43.27224660355021
 21
115.241228272972
 31
0.0
  0
LINE
  5
12CEF
330
1F
100
AcDbEntity
  8
10000_FRONT
  6
Continuous
 62
     7
370
    40
100
AcDbLine
 10
50.47224660355027
 20
106.2093760922919
 30
0.0
 11
54.87224660355035
 21
106.2093760922919
 31
0.0
  0
LINE
  5
12CF0
330
1F
100
AcDbEntity
  8
10000_FRONT
  6
Continuous
 62
     7
370
    40
100
AcDbLine
 10
50.47224660355027
 20
106.2093760922919
 30
0.0
 11
54.87224660355035
 21
106.2093760922919
 31
0.0
  0
LINE
  5
12CF1
330
1F
100
AcDbEntity
  8
10000_FRONT
  6
Continuous
 62
     7
370
    40
100
AcDbLine
 10
43.27224660355021
 20
106.2093760922919
 30
0.0
 11
47.67224660355032
 21
106.2093760922919
 31
0.0
  0
LINE
  5
12CF2
330
1F
100
AcDbEntity
  8
10000_FRONT
  6
Continuous
 62
     7
370
    40
100
AcDbLine
 10
43.27224660355021
 20
105.7093760922919
 30
0.0
 11
43.27224660355021
 21
105.9093760922919
 31
0.0
  0
LINE
  5
12CF3
330
1F
100
AcDbEntity
  8
10000_FRONT
  6
Continuous
 62
     7
370
    40
100
AcDbLine
 10
43.27224660355021
 20
106.2093760922919
 30
0.0
 11
43.27224660355021
 21
105.9093760922919
 31
0.0
  0
LINE
  5
12CF4
330
1F
100
AcDbEntity
  8
10000_FRONT
  6
Continuous
 62
     7
370
    40
100
AcDbLine
 10
47.67224660355032
 20
105.9093760922919
 30
0.0
 11
47.67224660355032
 21
105.7093760922919
 31
0.0
  0
LINE
  5
12CF5
330
1F
100
AcDbEntity
  8
10000_FRONT
  6
Continuous
 62
     7
370
    40
100
AcDbLine
 10
47.67224660355032
 20
106.2093760922919
 30
0.0
 11
47.67224660355032
 21
105.9093760922919
 31
0.0
  0
LINE
  5
12CF6
330
1F
100
AcDbEntity
  8
10000_FRONT
  6
Continuous
 62
     7
370
    40
100
AcDbLine
 10
50.47224660355027
 20
105.7093760922919
 30
0.0
 11
50.47224660355027
 21
105.9093760922919
 31
0.0
  0
LINE
  5
12CF7
330
1F
100
AcDbEntity
  8
10000_FRONT
  6
Continuous
 62
     7
370
    40
100
AcDbLine
 10
50.47224660355027
 20
106.2093760922919
 30
0.0
 11
50.47224660355027
 21
105.9093760922919
 31
0.0
  0
LINE
  5
12CF8
330
1F
100
AcDbEntity
  8
10000_FRONT
  6
Continuous
 62
     7
370
    40
100
AcDbLine
 10
47.67224660355032
 20
105.7093760922919
 30
0.0
 11
50.47224660355027
 21
105.7093760922919
 31
0.0
  0
LINE
  5
12CF9
330
1F
100
AcDbEntity
  8
10000_FRONT
  6
Continuous
 62
     7
370
    40
100
AcDbLine
 10
43.27224660355021
 20
106.2093760922919
 30
0.0
 11
47.67224660355032
 21
106.2093760922919
 31
0.0
  0
LINE
  5
12CFA
330
1F
100
AcDbEntity
  8
10000_FRONT
  6
Continuous
 62
     7
370
    40
100
AcDbLine
 10
43.27224660355021
 20
105.7093760922919
 30
0.0
 11
43.27224660355021
 21
105.9093760922919
 31
0.0
  0
LINE
  5
12CFB
330
1F
100
AcDbEntity
  8
10000_FRONT
  6
Continuous
 62
     7
370
    40
100
AcDbLine
 10
43.27224660355021
 20
106.2093760922919
 30
0.0
 11
43.27224660355021
 21
105.9093760922919
 31
0.0
  0
LINE
  5
12CFC
330
1F
100
AcDbEntity
  8
10000_FRONT
  6
Continuous
 62
     7
370
    40
100
AcDbLine
 10
47.67224660355032
 20
105.9093760922919
 30
0.0
 11
47.67224660355032
 21
105.7093760922919
 31
0.0
  0
LINE
  5
12CFD
330
1F
100
AcDbEntity
  8
10000_FRONT
  6
Continuous
 62
     7
370
    40
100
AcDbLine
 10
47.67224660355032
 20
106.2093760922919
 30
0.0
 11
47.67224660355032
 21
105.9093760922919
 31
0.0
  0
LINE
  5
12CFE
330
1F
100
AcDbEntity
  8
10000_FRONT
  6
Continuous
 62
     7
370
    40
100
AcDbLine
 10
50.47224660355027
 20
105.7093760922919
 30
0.0
 11
50.47224660355027
 21
105.9093760922919
 31
0.0
  0
LINE
  5
12CFF
330
1F
100
AcDbEntity
  8
10000_FRONT
  6
Continuous
 62
     7
370
    40
100
AcDbLine
 10
50.47224660355027
 20
106.2093760922919
 30
0.0
 11
50.47224660355027
 21
105.9093760922919
 31
0.0
  0
LINE
  5
12D00
330
1F
100
AcDbEntity
  8
10000_FRONT
  6
Continuous
 62
     7
370
    40
100
AcDbLine
 10
47.67224660355032
 20
105.7093760922919
 30
0.0
 11
50.47224660355027
 21
105.7093760922919
 31
0.0
  0
LINE
  5
12D01
330
1F
100
AcDbEntity
  8
10000_FRONT
  6
Continuous
 62
     7
370
    40
100
AcDbLine
 10
54.87224660355035
 20
105.7093760922919
 30
0.0
 11
55.92224660355032
 21
105.7093760922919
 31
0.0
  0
LINE
  5
12D02
330
1F
100
AcDbEntity
  8
10000_FRONT
  6
Continuous
 62
     7
370
    40
100
AcDbLine
 10
54.87224660355035
 20
105.7093760922919
 30
0.0
 11
55.92224660355032
 21
105.7093760922919
 31
0.0
  0
LINE
  5
12D03
330
1F
100
AcDbEntity
  8
10000_FRONT
  6
Continuous
 62
     7
370
    40
100
AcDbLine
 10
54.87224660355035
 20
105.7093760922919
 30
0.0
 11
54.87224660355035
 21
105.7093760922919
 31
0.0
  0
LINE
  5
12D04
330
1F
100
AcDbEntity
  8
10000_FRONT
  6
Continuous
 62
     7
370
    40
100
AcDbLine
 10
54.87224660355035
 20
105.9093760922919
 30
0.0
 11
54.87224660355035
 21
105.7093760922919
 31
0.0
  0
LINE
  5
12D05
330
1F
100
AcDbEntity
  8
10000_FRONT
  6
Continuous
 62
     7
370
    40
100
AcDbLine
 10
54.87224660355035
 20
106.2093760922919
 30
0.0
 11
54.87224660355035
 21
105.9093760922919
 31
0.0
  0
LINE
  5
12D06
330
1F
100
AcDbEntity
  8
10000_FRONT
  6
Continuous
 62
     7
370
    40
100
AcDbLine
 10
54.87224660355035
 20
105.7093760922919
 30
0.0
 11
54.87224660355035
 21
105.7093760922919
 31
0.0
  0
LINE
  5
12D07
330
1F
100
AcDbEntity
  8
10000_FRONT
  6
Continuous
 62
     7
370
    40
100
AcDbLine
 10
54.87224660355035
 20
105.9093760922919
 30
0.0
 11
54.87224660355035
 21
105.7093760922919
 31
0.0
  0
LINE
  5
12D08
330
1F
100
AcDbEntity
  8
10000_FRONT
  6
Continuous
 62
     7
370
    40
100
AcDbLine
 10
54.87224660355035
 20
106.2093760922919
 30
0.0
 11
54.87224660355035
 21
105.9093760922919
 31
0.0
  0
LINE
  5
12D09
330
1F
100
AcDbEntity
  8
10000_FRONT
  6
Continuous
 62
     7
370
    40
100
AcDbLine
 10
35.02224660355023
 20
105.7093760922919
 30
0.0
 11
36.07224660355019
 21
105.7093760922919
 31
0.0
  0
LINE
  5
12D0A
330
1F
100
AcDbEntity
  8
10000_FRONT
  6
Continuous
 62
     7
370
    40
100
AcDbLine
 10
35.02224660355023
 20
105.7093760922919
 30
0.0
 11
36.07224660355019
 21
105.7093760922919
 31
0.0
  0
ARC
  5
12D0B
330
1F
100
AcDbEntity
  8
10000_FRONT
  6
Continuous
 62
     7
370
    40
100
AcDbCircle
 10
34.42224660355032
 20
105.9093760922919
 30
0.0
 40
0.2
100
AcDbArc
 50
180.0
 51
270.0004400000052
  0
LINE
  5
12D0C
330
1F
100
AcDbEntity
  8
10000_FRONT
  6
Continuous
 62
     7
370
    40
100
AcDbLine
 10
34.42224660355032
 20
105.7093760922919
 30
0.0
 11
35.02224660355023
 21
105.7093760922919
 31
0.0
  0
ARC
  5
12D0D
330
1F
100
AcDbEntity
  8
10000_FRONT
  6
Continuous
 62
     7
370
    40
100
AcDbCircle
 10
34.42224660355032
 20
105.9093760922919
 30
0.0
 40
0.2
100
AcDbArc
 50
180.0
 51
270.0004400000052
  0
LINE
  5
12D0E
330
1F
100
AcDbEntity
  8
10000_FRONT
  6
Continuous
 62
     7
370
    40
100
AcDbLine
 10
34.42224660355032
 20
105.7093760922919
 30
0.0
 11
35.02224660355023
 21
105.7093760922919
 31
0.0
  0
LINE
  5
12D0F
330
1F
100
AcDbEntity
  8
10000_FRONT
  6
Continuous
 62
     7
370
    40
100
AcDbLine
 10
36.07224660355019
 20
106.2093760922919
 30
0.0
 11
40.47224660355027
 21
106.2093760922919
 31
0.0
  0
LINE
  5
12D10
330
1F
100
AcDbEntity
  8
10000_FRONT
  6
Continuous
 62
     7
370
    40
100
AcDbLine
 10
36.07224660355019
 20
106.2093760922919
 30
0.0
 11
40.47224660355027
 21
106.2093760922919
 31
0.0
  0
LINE
  5
12D11
330
1F
100
AcDbEntity
  8
10000_FRONT
  6
Continuous
 62
     7
370
    40
100
AcDbLine
 10
36.07224660355019
 20
105.7093760922919
 30
0.0
 11
36.07224660355019
 21
105.9093760922919
 31
0.0
  0
LINE
  5
12D12
330
1F
100
AcDbEntity
  8
10000_FRONT
  6
Continuous
 62
     7
370
    40
100
AcDbLine
 10
36.07224660355019
 20
106.2093760922919
 30
0.0
 11
36.07224660355019
 21
105.9093760922919
 31
0.0
  0
LINE
  5
12D13
330
1F
100
AcDbEntity
  8
10000_FRONT
  6
Continuous
 62
     7
370
    40
100
AcDbLine
 10
36.07224660355019
 20
105.7093760922919
 30
0.0
 11
36.07224660355019
 21
105.9093760922919
 31
0.0
  0
LINE
  5
12D14
330
1F
100
AcDbEntity
  8
10000_FRONT
  6
Continuous
 62
     7
370
    40
100
AcDbLine
 10
36.07224660355019
 20
106.2093760922919
 30
0.0
 11
36.07224660355019
 21
105.9093760922919
 31
0.0
  0
LINE
  5
12D15
330
1F
100
AcDbEntity
  8
10000_FRONT
  6
Continuous
 62
     7
370
    40
100
AcDbLine
 10
40.47224660355027
 20
105.9093760922919
 30
0.0
 11
40.47224660355027
 21
105.7093760922919
 31
0.0
  0
LINE
  5
12D16
330
1F
100
AcDbEntity
  8
10000_FRONT
  6
Continuous
 62
     7
370
    40
100
AcDbLine
 10
40.47224660355027
 20
106.2093760922919
 30
0.0
 11
40.47224660355027
 21
105.9093760922919
 31
0.0
  0
LINE
  5
12D17
330
1F
100
AcDbEntity
  8
10000_FRONT
  6
Continuous
 62
     7
370
    40
100
AcDbLine
 10
40.47224660355027
 20
105.9093760922919
 30
0.0
 11
40.47224660355027
 21
105.7093760922919
 31
0.0
  0
LINE
  5
12D18
330
1F
100
AcDbEntity
  8
10000_FRONT
  6
Continuous
 62
     7
370
    40
100
AcDbLine
 10
40.47224660355027
 20
106.2093760922919
 30
0.0
 11
40.47224660355027
 21
105.9093760922919
 31
0.0
  0
LINE
  5
12D19
330
1F
100
AcDbEntity
  8
10000_FRONT
  6
Continuous
 62
     7
370
    40
100
AcDbLine
 10
40.47224660355027
 20
105.7093760922919
 30
0.0
 11
43.27224660355021
 21
105.7093760922919
 31
0.0
  0
LINE
  5
12D1A
330
1F
100
AcDbEntity
  8
10000_FRONT
  6
Continuous
 62
     7
370
    40
100
AcDbLine
 10
40.47224660355027
 20
105.7093760922919
 30
0.0
 11
43.27224660355021
 21
105.7093760922919
 31
0.0
  0
LINE
  5
12D1B
330
1F
100
AcDbEntity
  8
10000_FRONT
  6
Continuous
 62
     7
370
    40
100
AcDbLine
 10
55.92224660355032
 20
105.7093760922919
 30
0.0
 11
56.52224660355021
 21
105.7093760922919
 31
0.0
  0
LINE
  5
12D1C
330
1F
100
AcDbEntity
  8
10000_FRONT
  6
Continuous
 62
     7
370
    40
100
AcDbLine
 10
55.92224660355032
 20
105.7093760922919
 30
0.0
 11
56.52224660355021
 21
105.7093760922919
 31
0.0
  0
LINE
  5
12D1D
330
1F
100
AcDbEntity
  8
10000_FRONT
  6
Continuous
 62
     7
370
    30
100
AcDbLine
 10
55.92224660355032
 20
115.241228272972
 30
0.0
 11
56.52224660355021
 21
115.241228272972
 31
0.0
  0
LINE
  5
12D1E
330
1F
100
AcDbEntity
  8
10000_FRONT
  6
Continuous
 62
     7
370
    30
100
AcDbLine
 10
55.92224660355032
 20
115.241228272972
 30
0.0
 11
56.52224660355021
 21
115.241228272972
 31
0.0
  0
ARC
  5
12D1F
330
1F
100
AcDbEntity
  8
10000_FRONT
  6
Continuous
 62
     7
370
    13
100
AcDbCircle
 39
0.25
 10
52.67224660355032
 20
112.9093760922919
 30
0.0
 40
3.1
100
AcDbArc
 50
114.0063036116688
 51
65.9936963883312
1001
AUSTER_ANSICHT
1002
{
1000
Det03
1002
}
1001
AUSTER_FOLIE
1002
{
1000
NSB01341_3RS10_24POL
1002
}
  0
ARC
  5
12D20
330
1F
100
AcDbEntity
  8
10000_FRONT
  6
Continuous
 62
     7
370
    13
100
AcDbCircle
 39
0.25
 10
45.47224660355027
 20
112.9093760922919
 30
0.0
 40
3.1
100
AcDbArc
 50
114.0063036116688
 51
65.9936963883312
1001
AUSTER_ANSICHT
1002
{
1000
Det03
1002
}
1001
AUSTER_FOLIE
1002
{
1000
NSB01341_3RS10_24POL
1002
}
  0
ARC
  5
12D21
330
1F
100
AcDbEntity
  8
10000_FRONT
  6
Continuous
 62
     7
370
    13
100
AcDbCircle
 39
0.25
 10
38.27224660355022
 20
112.9093760922919
 30
0.0
 40
3.1
100
AcDbArc
 50
114.0063036116688
 51
65.9936963883312
1001
AUSTER_ANSICHT
1002
{
1000
Det03
1002
}
1001
AUSTER_FOLIE
1002
{
1000
NSB01341_3RS10_24POL
1002
}
  0
ARC
  5
12D22
330
1F
100
AcDbEntity
  8
10000_FRONT
  6
Continuous
 62
     7
370
    13
100
AcDbCircle
 39
0.25
 10
52.67224660355032
 20
112.9093760922919
 30
0.0
 40
1.85
100
AcDbArc
 50
73.83654999999764
 51
106.1634000000003
1001
AUSTER_ANSICHT
1002
{
1000
Det03
1002
}
1001
AUSTER_FOLIE
1002
{
1000
NSB01341_3RS10_24POL
1002
}
  0
ARC
  5
12D23
330
1F
100
AcDbEntity
  8
10000_FRONT
  6
Continuous
 62
     7
370
    13
100
AcDbCircle
 39
0.25
 10
52.67224660355032
 20
112.9093760922919
 30
0.0
 40
1.85
100
AcDbArc
 50
253.8365999999997
 51
286.1634000000003
1001
AUSTER_ANSICHT
1002
{
1000
Det03
1002
}
1001
AUSTER_FOLIE
1002
{
1000
NSB01341_3RS10_24POL
1002
}
  0
ARC
  5
12D24
330
1F
100
AcDbEntity
  8
10000_FRONT
  6
Continuous
 62
     7
370
    13
100
AcDbCircle
 39
0.25
 10
52.67224660355032
 20
112.9093760922919
 30
0.0
 40
2.850490999999998
100
AcDbArc
 50
347.7603999999987
 51
12.23960000000126
1001
AUSTER_ANSICHT
1002
{
1000
Det03
1002
}
1001
AUSTER_FOLIE
1002
{
1000
NSB01341_3RS10_24POL
1002
}
  0
ARC
  5
12D25
330
1F
100
AcDbEntity
  8
10000_FRONT
  6
Continuous
 62
     7
370
    13
100
AcDbCircle
 39
0.25
 10
38.27224660355022
 20
112.9093760922919
 30
0.0
 40
1.85
100
AcDbArc
 50
73.83654999999764
 51
106.1634000000003
1001
AUSTER_ANSICHT
1002
{
1000
Det03
1002
}
1001
AUSTER_FOLIE
1002
{
1000
NSB01341_3RS10_24POL
1002
}
  0
ARC
  5
12D26
330
1F
100
AcDbEntity
  8
10000_FRONT
  6
Continuous
 62
     7
370
    13
100
AcDbCircle
 39
0.25
 10
38.27224660355022
 20
112.9093760922919
 30
0.0
 40
1.85
100
AcDbArc
 50
253.8365999999997
 51
286.1634000000003
1001
AUSTER_ANSICHT
1002
{
1000
Det03
1002
}
1001
AUSTER_FOLIE
1002
{
1000
NSB01341_3RS10_24POL
1002
}
  0
LINE
  5
12D27
330
1F
100
AcDbEntity
  8
10000_FRONT
  6
Continuous
 62
     7
370
    13
100
AcDbLine
 39
0.25
 10
35.48654660355032
 20
112.3050760922919
 30
0.0
 11
37.75724660355036
 21
112.3050760922919
 31
0.0
1001
AUSTER_ANSICHT
1002
{
1000
Det03
1002
}
1001
AUSTER_FOLIE
1002
{
1000
NSB01341_3RS10_24POL
1002
}
  0
LINE
  5
12D28
330
1F
100
AcDbEntity
  8
10000_FRONT
  6
Continuous
 62
     7
370
    13
100
AcDbLine
 39
0.25
 10
37.75724660355036
 20
113.5137760922919
 30
0.0
 11
35.48654660355032
 21
113.5137760922919
 31
0.0
1001
AUSTER_ANSICHT
1002
{
1000
Det03
1002
}
1001
AUSTER_FOLIE
1002
{
1000
NSB01341_3RS10_24POL
1002
}
  0
LINE
  5
12D29
330
1F
100
AcDbEntity
  8
10000_FRONT
  6
Continuous
 62
     7
370
    13
100
AcDbLine
 39
0.25
 10
37.75724660355036
 20
114.6862760922919
 30
0.0
 11
37.75724660355036
 21
113.6939760922919
 31
0.0
1001
AUSTER_ANSICHT
1002
{
1000
Det03
1002
}
1001
AUSTER_FOLIE
1002
{
1000
NSB01341_3RS10_24POL
1002
}
  0
LINE
  5
12D2A
330
1F
100
AcDbEntity
  8
10000_FRONT
  6
Continuous
 62
     7
370
    13
100
AcDbLine
 39
0.25
 10
37.75724660355036
 20
112.1248760922919
 30
0.0
 11
37.75724660355036
 21
111.1325760922919
 31
0.0
1001
AUSTER_ANSICHT
1002
{
1000
Det03
1002
}
1001
AUSTER_FOLIE
1002
{
1000
NSB01341_3RS10_24POL
1002
}
  0
LINE
  5
12D2B
330
1F
100
AcDbEntity
  8
10000_FRONT
  6
Continuous
 62
     7
370
    13
100
AcDbLine
 39
0.25
 10
37.75724660355036
 20
113.6939760922919
 30
0.0
 11
37.75724660355036
 21
113.5137760922919
 31
0.0
1001
AUSTER_ANSICHT
1002
{
1000
Det03
1002
}
1001
AUSTER_FOLIE
1002
{
1000
NSB01341_3RS10_24POL
1002
}
  0
LINE
  5
12D2C
330
1F
100
AcDbEntity
  8
10000_FRONT
  6
Continuous
 62
     7
370
    13
100
AcDbLine
 39
0.25
 10
37.75724660355036
 20
112.1248760922919
 30
0.0
 11
37.75724660355036
 21
112.3050760922919
 31
0.0
1001
AUSTER_ANSICHT
1002
{
1000
Det03
1002
}
1001
AUSTER_FOLIE
1002
{
1000
NSB01341_3RS10_24POL
1002
}
  0
ARC
  5
12D2D
330
1F
100
AcDbEntity
  8
10000_FRONT
  6
Continuous
 62
     7
370
    13
100
AcDbCircle
 39
0.25
 10
38.27224660355022
 20
112.9093760922919
 30
0.0
 40
2.850490999999998
100
AcDbArc
 50
167.7603999999987
 51
192.2396000000013
1001
AUSTER_ANSICHT
1002
{
1000
Det03
1002
}
1001
AUSTER_FOLIE
1002
{
1000
NSB01341_3RS10_24POL
1002
}
  0
LINE
  5
12D2E
330
1F
100
AcDbEntity
  8
10000_FRONT
  6
Continuous
 62
     7
370
    13
100
AcDbLine
 39
0.25
 10
38.7872466035501
 20
112.3050760922919
 30
0.0
 11
41.05794660355013
 21
112.3050760922919
 31
0.0
1001
AUSTER_ANSICHT
1002
{
1000
Det03
1002
}
1001
AUSTER_FOLIE
1002
{
1000
NSB01341_3RS10_24POL
1002
}
  0
LINE
  5
12D2F
330
1F
100
AcDbEntity
  8
10000_FRONT
  6
Continuous
 62
     7
370
    13
100
AcDbLine
 39
0.25
 10
41.05794660355013
 20
113.5137760922919
 30
0.0
 11
38.7872466035501
 21
113.5137760922919
 31
0.0
1001
AUSTER_ANSICHT
1002
{
1000
Det03
1002
}
1001
AUSTER_FOLIE
1002
{
1000
NSB01341_3RS10_24POL
1002
}
  0
LINE
  5
12D30
330
1F
100
AcDbEntity
  8
10000_FRONT
  6
Continuous
 62
     7
370
    13
100
AcDbLine
 39
0.25
 10
38.7872466035501
 20
113.6939760922919
 30
0.0
 11
38.7872466035501
 21
114.6862760922919
 31
0.0
1001
AUSTER_ANSICHT
1002
{
1000
Det03
1002
}
1001
AUSTER_FOLIE
1002
{
1000
NSB01341_3RS10_24POL
1002
}
  0
LINE
  5
12D31
330
1F
100
AcDbEntity
  8
10000_FRONT
  6
Continuous
 62
     7
370
    13
100
AcDbLine
 39
0.25
 10
38.7872466035501
 20
111.1325760922919
 30
0.0
 11
38.7872466035501
 21
112.1248760922919
 31
0.0
1001
AUSTER_ANSICHT
1002
{
1000
Det03
1002
}
1001
AUSTER_FOLIE
1002
{
1000
NSB01341_3RS10_24POL
1002
}
  0
LINE
  5
12D32
330
1F
100
AcDbEntity
  8
10000_FRONT
  6
Continuous
 62
     7
370
    13
100
AcDbLine
 39
0.25
 10
38.7872466035501
 20
113.6939760922919
 30
0.0
 11
38.7872466035501
 21
113.5137760922919
 31
0.0
1001
AUSTER_ANSICHT
1002
{
1000
Det03
1002
}
1001
AUSTER_FOLIE
1002
{
1000
NSB01341_3RS10_24POL
1002
}
  0
LINE
  5
12D33
330
1F
100
AcDbEntity
  8
10000_FRONT
  6
Continuous
 62
     7
370
    13
100
AcDbLine
 39
0.25
 10
38.7872466035501
 20
112.1248760922919
 30
0.0
 11
38.7872466035501
 21
112.3050760922919
 31
0.0
1001
AUSTER_ANSICHT
1002
{
1000
Det03
1002
}
1001
AUSTER_FOLIE
1002
{
1000
NSB01341_3RS10_24POL
1002
}
  0
ARC
  5
12D34
330
1F
100
AcDbEntity
  8
10000_FRONT
  6
Continuous
 62
     7
370
    13
100
AcDbCircle
 39
0.25
 10
38.27224660355022
 20
112.9093760922919
 30
0.0
 40
2.850490999999998
100
AcDbArc
 50
347.7603999999987
 51
12.23960000000126
1001
AUSTER_ANSICHT
1002
{
1000
Det03
1002
}
1001
AUSTER_FOLIE
1002
{
1000
NSB01341_3RS10_24POL
1002
}
  0
LINE
  5
12D35
330
1F
100
AcDbEntity
  8
10000_FRONT
  6
Continuous
 62
     7
370
    13
100
AcDbLine
 39
0.25
 10
42.68654660355013
 20
112.3050760922919
 30
0.0
 11
44.95724660355017
 21
112.3050760922919
 31
0.0
1001
AUSTER_ANSICHT
1002
{
1000
Det03
1002
}
1001
AUSTER_FOLIE
1002
{
1000
NSB01341_3RS10_24POL
1002
}
  0
LINE
  5
12D36
330
1F
100
AcDbEntity
  8
10000_FRONT
  6
Continuous
 62
     7
370
    13
100
AcDbLine
 39
0.25
 10
45.98724660355038
 20
112.3050760922919
 30
0.0
 11
48.25794660355041
 21
112.3050760922919
 31
0.0
1001
AUSTER_ANSICHT
1002
{
1000
Det03
1002
}
1001
AUSTER_FOLIE
1002
{
1000
NSB01341_3RS10_24POL
1002
}
  0
LINE
  5
12D37
330
1F
100
AcDbEntity
  8
10000_FRONT
  6
Continuous
 62
     7
370
    13
100
AcDbLine
 39
0.25
 10
48.25794660355041
 20
113.5137760922919
 30
0.0
 11
45.98724660355038
 21
113.5137760922919
 31
0.0
1001
AUSTER_ANSICHT
1002
{
1000
Det03
1002
}
1001
AUSTER_FOLIE
1002
{
1000
NSB01341_3RS10_24POL
1002
}
  0
LINE
  5
12D38
330
1F
100
AcDbEntity
  8
10000_FRONT
  6
Continuous
 62
     7
370
    13
100
AcDbLine
 39
0.25
 10
44.95724660355017
 20
113.5137760922919
 30
0.0
 11
42.68654660355013
 21
113.5137760922919
 31
0.0
1001
AUSTER_ANSICHT
1002
{
1000
Det03
1002
}
1001
AUSTER_FOLIE
1002
{
1000
NSB01341_3RS10_24POL
1002
}
  0
LINE
  5
12D39
330
1F
100
AcDbEntity
  8
10000_FRONT
  6
Continuous
 62
     7
370
    13
100
AcDbLine
 39
0.25
 10
44.95724660355017
 20
114.6862760922919
 30
0.0
 11
44.95724660355017
 21
113.6939760922919
 31
0.0
1001
AUSTER_ANSICHT
1002
{
1000
Det03
1002
}
1001
AUSTER_FOLIE
1002
{
1000
NSB01341_3RS10_24POL
1002
}
  0
LINE
  5
12D3A
330
1F
100
AcDbEntity
  8
10000_FRONT
  6
Continuous
 62
     7
370
    13
100
AcDbLine
 39
0.25
 10
45.98724660355038
 20
113.6939760922919
 30
0.0
 11
45.98724660355038
 21
114.6862760922919
 31
0.0
1001
AUSTER_ANSICHT
1002
{
1000
Det03
1002
}
1001
AUSTER_FOLIE
1002
{
1000
NSB01341_3RS10_24POL
1002
}
  0
LINE
  5
12D3B
330
1F
100
AcDbEntity
  8
10000_FRONT
  6
Continuous
 62
     7
370
    13
100
AcDbLine
 39
0.25
 10
45.98724660355038
 20
111.1325760922919
 30
0.0
 11
45.98724660355038
 21
112.1248760922919
 31
0.0
1001
AUSTER_ANSICHT
1002
{
1000
Det03
1002
}
1001
AUSTER_FOLIE
1002
{
1000
NSB01341_3RS10_24POL
1002
}
  0
LINE
  5
12D3C
330
1F
100
AcDbEntity
  8
10000_FRONT
  6
Continuous
 62
     7
370
    13
100
AcDbLine
 39
0.25
 10
44.95724660355017
 20
112.1248760922919
 30
0.0
 11
44.95724660355017
 21
111.1325760922919
 31
0.0
1001
AUSTER_ANSICHT
1002
{
1000
Det03
1002
}
1001
AUSTER_FOLIE
1002
{
1000
NSB01341_3RS10_24POL
1002
}
  0
LINE
  5
12D3D
330
1F
100
AcDbEntity
  8
10000_FRONT
  6
Continuous
 62
     7
370
    13
100
AcDbLine
 39
0.25
 10
45.98724660355038
 20
113.6939760922919
 30
0.0
 11
45.98724660355038
 21
113.5137760922919
 31
0.0
1001
AUSTER_ANSICHT
1002
{
1000
Det03
1002
}
1001
AUSTER_FOLIE
1002
{
1000
NSB01341_3RS10_24POL
1002
}
  0
LINE
  5
12D3E
330
1F
100
AcDbEntity
  8
10000_FRONT
  6
Continuous
 62
     7
370
    13
100
AcDbLine
 39
0.25
 10
45.98724660355038
 20
112.1248760922919
 30
0.0
 11
45.98724660355038
 21
112.3050760922919
 31
0.0
1001
AUSTER_ANSICHT
1002
{
1000
Det03
1002
}
1001
AUSTER_FOLIE
1002
{
1000
NSB01341_3RS10_24POL
1002
}
  0
LINE
  5
12D3F
330
1F
100
AcDbEntity
  8
10000_FRONT
  6
Continuous
 62
     7
370
    13
100
AcDbLine
 39
0.25
 10
44.95724660355017
 20
113.6939760922919
 30
0.0
 11
44.95724660355017
 21
113.5137760922919
 31
0.0
1001
AUSTER_ANSICHT
1002
{
1000
Det03
1002
}
1001
AUSTER_FOLIE
1002
{
1000
NSB01341_3RS10_24POL
1002
}
  0
LINE
  5
12D40
330
1F
100
AcDbEntity
  8
10000_FRONT
  6
Continuous
 62
     7
370
    13
100
AcDbLine
 39
0.25
 10
44.95724660355017
 20
112.1248760922919
 30
0.0
 11
44.95724660355017
 21
112.3050760922919
 31
0.0
1001
AUSTER_ANSICHT
1002
{
1000
Det03
1002
}
1001
AUSTER_FOLIE
1002
{
1000
NSB01341_3RS10_24POL
1002
}
  0
ARC
  5
12D41
330
1F
100
AcDbEntity
  8
10000_FRONT
  6
Continuous
 62
     7
370
    13
100
AcDbCircle
 39
0.25
 10
45.47224660355027
 20
112.9093760922919
 30
0.0
 40
1.85
100
AcDbArc
 50
73.83654999999764
 51
106.1634000000003
1001
AUSTER_ANSICHT
1002
{
1000
Det03
1002
}
1001
AUSTER_FOLIE
1002
{
1000
NSB01341_3RS10_24POL
1002
}
  0
ARC
  5
12D42
330
1F
100
AcDbEntity
  8
10000_FRONT
  6
Continuous
 62
     7
370
    13
100
AcDbCircle
 39
0.25
 10
45.47224660355027
 20
112.9093760922919
 30
0.0
 40
1.85
100
AcDbArc
 50
253.8365999999997
 51
286.1634000000003
1001
AUSTER_ANSICHT
1002
{
1000
Det03
1002
}
1001
AUSTER_FOLIE
1002
{
1000
NSB01341_3RS10_24POL
1002
}
  0
ARC
  5
12D43
330
1F
100
AcDbEntity
  8
10000_FRONT
  6
Continuous
 62
     7
370
    13
100
AcDbCircle
 39
0.25
 10
45.47224660355027
 20
112.9093760922919
 30
0.0
 40
2.850490999999998
100
AcDbArc
 50
347.7603999999987
 51
12.23960000000126
1001
AUSTER_ANSICHT
1002
{
1000
Det03
1002
}
1001
AUSTER_FOLIE
1002
{
1000
NSB01341_3RS10_24POL
1002
}
  0
ARC
  5
12D44
330
1F
100
AcDbEntity
  8
10000_FRONT
  6
Continuous
 62
     7
370
    13
100
AcDbCircle
 39
0.25
 10
45.47224660355027
 20
112.9093760922919
 30
0.0
 40
2.850490999999998
100
AcDbArc
 50
167.7603999999987
 51
192.2396000000013
1001
AUSTER_ANSICHT
1002
{
1000
Det03
1002
}
1001
AUSTER_FOLIE
1002
{
1000
NSB01341_3RS10_24POL
1002
}
  0
LINE
  5
12D45
330
1F
100
AcDbEntity
  8
10000_FRONT
  6
Continuous
 62
     7
370
    13
100
AcDbLine
 39
0.25
 10
49.88654660355019
 20
112.3050760922919
 30
0.0
 11
52.15724660355022
 21
112.3050760922919
 31
0.0
1001
AUSTER_ANSICHT
1002
{
1000
Det03
1002
}
1001
AUSTER_FOLIE
1002
{
1000
NSB01341_3RS10_24POL
1002
}
  0
LINE
  5
12D46
330
1F
100
AcDbEntity
  8
10000_FRONT
  6
Continuous
 62
     7
370
    13
100
AcDbLine
 39
0.25
 10
53.1872466035502
 20
112.3050760922919
 30
0.0
 11
55.45794660355021
 21
112.3050760922919
 31
0.0
1001
AUSTER_ANSICHT
1002
{
1000
Det03
1002
}
1001
AUSTER_FOLIE
1002
{
1000
NSB01341_3RS10_24POL
1002
}
  0
LINE
  5
12D47
330
1F
100
AcDbEntity
  8
10000_FRONT
  6
Continuous
 62
     7
370
    13
100
AcDbLine
 39
0.25
 10
55.45794660355021
 20
113.5137760922919
 30
0.0
 11
53.1872466035502
 21
113.5137760922919
 31
0.0
1001
AUSTER_ANSICHT
1002
{
1000
Det03
1002
}
1001
AUSTER_FOLIE
1002
{
1000
NSB01341_3RS10_24POL
1002
}
  0
LINE
  5
12D48
330
1F
100
AcDbEntity
  8
10000_FRONT
  6
Continuous
 62
     7
370
    13
100
AcDbLine
 39
0.25
 10
52.15724660355022
 20
113.5137760922919
 30
0.0
 11
49.88654660355019
 21
113.5137760922919
 31
0.0
1001
AUSTER_ANSICHT
1002
{
1000
Det03
1002
}
1001
AUSTER_FOLIE
1002
{
1000
NSB01341_3RS10_24POL
1002
}
  0
LINE
  5
12D49
330
1F
100
AcDbEntity
  8
10000_FRONT
  6
Continuous
 62
     7
370
    13
100
AcDbLine
 39
0.25
 10
52.15724660355022
 20
114.6862760922919
 30
0.0
 11
52.15724660355022
 21
113.6939760922919
 31
0.0
1001
AUSTER_ANSICHT
1002
{
1000
Det03
1002
}
1001
AUSTER_FOLIE
1002
{
1000
NSB01341_3RS10_24POL
1002
}
  0
LINE
  5
12D4A
330
1F
100
AcDbEntity
  8
10000_FRONT
  6
Continuous
 62
     7
370
    13
100
AcDbLine
 39
0.25
 10
53.1872466035502
 20
113.6939760922919
 30
0.0
 11
53.1872466035502
 21
114.6862760922919
 31
0.0
1001
AUSTER_ANSICHT
1002
{
1000
Det03
1002
}
1001
AUSTER_FOLIE
1002
{
1000
NSB01341_3RS10_24POL
1002
}
  0
LINE
  5
12D4B
330
1F
100
AcDbEntity
  8
10000_FRONT
  6
Continuous
 62
     7
370
    13
100
AcDbLine
 39
0.25
 10
53.1872466035502
 20
111.1325760922919
 30
0.0
 11
53.1872466035502
 21
112.1248760922919
 31
0.0
1001
AUSTER_ANSICHT
1002
{
1000
Det03
1002
}
1001
AUSTER_FOLIE
1002
{
1000
NSB01341_3RS10_24POL
1002
}
  0
LINE
  5
12D4C
330
1F
100
AcDbEntity
  8
10000_FRONT
  6
Continuous
 62
     7
370
    13
100
AcDbLine
 39
0.25
 10
52.15724660355022
 20
112.1248760922919
 30
0.0
 11
52.15724660355022
 21
111.1325760922919
 31
0.0
1001
AUSTER_ANSICHT
1002
{
1000
Det03
1002
}
1001
AUSTER_FOLIE
1002
{
1000
NSB01341_3RS10_24POL
1002
}
  0
LINE
  5
12D4D
330
1F
100
AcDbEntity
  8
10000_FRONT
  6
Continuous
 62
     7
370
    13
100
AcDbLine
 39
0.25
 10
53.1872466035502
 20
113.6939760922919
 30
0.0
 11
53.1872466035502
 21
113.5137760922919
 31
0.0
1001
AUSTER_ANSICHT
1002
{
1000
Det03
1002
}
1001
AUSTER_FOLIE
1002
{
1000
NSB01341_3RS10_24POL
1002
}
  0
LINE
  5
12D4E
330
1F
100
AcDbEntity
  8
10000_FRONT
  6
Continuous
 62
     7
370
    13
100
AcDbLine
 39
0.25
 10
53.1872466035502
 20
112.1248760922919
 30
0.0
 11
53.1872466035502
 21
112.3050760922919
 31
0.0
1001
AUSTER_ANSICHT
1002
{
1000
Det03
1002
}
1001
AUSTER_FOLIE
1002
{
1000
NSB01341_3RS10_24POL
1002
}
  0
LINE
  5
12D4F
330
1F
100
AcDbEntity
  8
10000_FRONT
  6
Continuous
 62
     7
370
    13
100
AcDbLine
 39
0.25
 10
52.15724660355022
 20
113.6939760922919
 30
0.0
 11
52.15724660355022
 21
113.5137760922919
 31
0.0
1001
AUSTER_ANSICHT
1002
{
1000
Det03
1002
}
1001
AUSTER_FOLIE
1002
{
1000
NSB01341_3RS10_24POL
1002
}
  0
LINE
  5
12D50
330
1F
100
AcDbEntity
  8
10000_FRONT
  6
Continuous
 62
     7
370
    13
100
AcDbLine
 39
0.25
 10
52.15724660355022
 20
112.1248760922919
 30
0.0
 11
52.15724660355022
 21
112.3050760922919
 31
0.0
1001
AUSTER_ANSICHT
1002
{
1000
Det03
1002
}
1001
AUSTER_FOLIE
1002
{
1000
NSB01341_3RS10_24POL
1002
}
  0
ARC
  5
12D51
330
1F
100
AcDbEntity
  8
10000_FRONT
  6
Continuous
 62
     7
370
    13
100
AcDbCircle
 39
0.25
 10
52.67224660355032
 20
112.9093760922919
 30
0.0
 40
2.850490999999998
100
AcDbArc
 50
167.7603999999987
 51
192.2396000000013
1001
AUSTER_ANSICHT
1002
{
1000
Det03
1002
}
1001
AUSTER_FOLIE
1002
{
1000
NSB01341_3RS10_24POL
1002
}
  0
ARC
  5
12D52
330
1F
100
AcDbEntity
  8
10000_FRONT
  6
Continuous
 62
     7
370
    13
100
AcDbCircle
 39
0.25
 10
52.67224660355032
 20
122.4412282729721
 30
0.0
 40
1.85
100
AcDbArc
 50
253.8365999999997
 51
286.1634000000003
1001
AUSTER_ANSICHT
1002
{
1000
Det03
1002
}
1001
AUSTER_FOLIE
1002
{
1000
NSB01341_3RS10_24POL
1002
}
  0
LINE
  5
12D53
330
1F
100
AcDbEntity
  8
10000_FRONT
  6
Continuous
 62
     7
370
    13
100
AcDbLine
 39
0.25
 10
52.15724660355022
 20
121.6567282729721
 30
0.0
 11
52.15724660355022
 21
121.836928272972
 31
0.0
1001
AUSTER_ANSICHT
1002
{
1000
Det03
1002
}
1001
AUSTER_FOLIE
1002
{
1000
NSB01341_3RS10_24POL
1002
}
  0
LINE
  5
12D54
330
1F
100
AcDbEntity
  8
10000_FRONT
  6
Continuous
 62
     7
370
    13
100
AcDbLine
 39
0.25
 10
53.1872466035502
 20
121.6567282729721
 30
0.0
 11
53.1872466035502
 21
121.836928272972
 31
0.0
1001
AUSTER_ANSICHT
1002
{
1000
Det03
1002
}
1001
AUSTER_FOLIE
1002
{
1000
NSB01341_3RS10_24POL
1002
}
  0
LINE
  5
12D55
330
1F
100
AcDbEntity
  8
10000_FRONT
  6
Continuous
 62
     7
370
    13
100
AcDbLine
 39
0.25
 10
52.15724660355022
 20
121.6567282729721
 30
0.0
 11
52.15724660355022
 21
120.6644282729721
 31
0.0
1001
AUSTER_ANSICHT
1002
{
1000
Det03
1002
}
1001
AUSTER_FOLIE
1002
{
1000
NSB01341_3RS10_24POL
1002
}
  0
LINE
  5
12D56
330
1F
100
AcDbEntity
  8
10000_FRONT
  6
Continuous
 62
     7
370
    13
100
AcDbLine
 39
0.25
 10
53.1872466035502
 20
120.6644282729721
 30
0.0
 11
53.1872466035502
 21
121.6567282729721
 31
0.0
1001
AUSTER_ANSICHT
1002
{
1000
Det03
1002
}
1001
AUSTER_FOLIE
1002
{
1000
NSB01341_3RS10_24POL
1002
}
  0
LINE
  5
12D57
330
1F
100
AcDbEntity
  8
10000_FRONT
  6
Continuous
 62
     7
370
    13
100
AcDbLine
 39
0.25
 10
53.1872466035502
 20
121.836928272972
 30
0.0
 11
55.45794660355021
 21
121.836928272972
 31
0.0
1001
AUSTER_ANSICHT
1002
{
1000
Det03
1002
}
1001
AUSTER_FOLIE
1002
{
1000
NSB01341_3RS10_24POL
1002
}
  0
LINE
  5
12D58
330
1F
100
AcDbEntity
  8
10000_FRONT
  6
Continuous
 62
     7
370
    13
100
AcDbLine
 39
0.25
 10
49.88654660355019
 20
121.836928272972
 30
0.0
 11
52.15724660355022
 21
121.836928272972
 31
0.0
1001
AUSTER_ANSICHT
1002
{
1000
Det03
1002
}
1001
AUSTER_FOLIE
1002
{
1000
NSB01341_3RS10_24POL
1002
}
  0
ARC
  5
12D59
330
1F
100
AcDbEntity
  8
10000_FRONT
  6
Continuous
 62
     7
370
    13
100
AcDbCircle
 39
0.25
 10
45.47224660355027
 20
122.4412282729721
 30
0.0
 40
1.85
100
AcDbArc
 50
253.8365999999997
 51
286.1634000000003
1001
AUSTER_ANSICHT
1002
{
1000
Det03
1002
}
1001
AUSTER_FOLIE
1002
{
1000
NSB01341_3RS10_24POL
1002
}
  0
LINE
  5
12D5A
330
1F
100
AcDbEntity
  8
10000_FRONT
  6
Continuous
 62
     7
370
    13
100
AcDbLine
 39
0.25
 10
44.95724660355017
 20
121.6567282729721
 30
0.0
 11
44.95724660355017
 21
121.836928272972
 31
0.0
1001
AUSTER_ANSICHT
1002
{
1000
Det03
1002
}
1001
AUSTER_FOLIE
1002
{
1000
NSB01341_3RS10_24POL
1002
}
  0
LINE
  5
12D5B
330
1F
100
AcDbEntity
  8
10000_FRONT
  6
Continuous
 62
     7
370
    13
100
AcDbLine
 39
0.25
 10
45.98724660355038
 20
121.6567282729721
 30
0.0
 11
45.98724660355038
 21
121.836928272972
 31
0.0
1001
AUSTER_ANSICHT
1002
{
1000
Det03
1002
}
1001
AUSTER_FOLIE
1002
{
1000
NSB01341_3RS10_24POL
1002
}
  0
LINE
  5
12D5C
330
1F
100
AcDbEntity
  8
10000_FRONT
  6
Continuous
 62
     7
370
    13
100
AcDbLine
 39
0.25
 10
44.95724660355017
 20
121.6567282729721
 30
0.0
 11
44.95724660355017
 21
120.6644282729721
 31
0.0
1001
AUSTER_ANSICHT
1002
{
1000
Det03
1002
}
1001
AUSTER_FOLIE
1002
{
1000
NSB01341_3RS10_24POL
1002
}
  0
LINE
  5
12D5D
330
1F
100
AcDbEntity
  8
10000_FRONT
  6
Continuous
 62
     7
370
    13
100
AcDbLine
 39
0.25
 10
45.98724660355038
 20
120.6644282729721
 30
0.0
 11
45.98724660355038
 21
121.6567282729721
 31
0.0
1001
AUSTER_ANSICHT
1002
{
1000
Det03
1002
}
1001
AUSTER_FOLIE
1002
{
1000
NSB01341_3RS10_24POL
1002
}
  0
LINE
  5
12D5E
330
1F
100
AcDbEntity
  8
10000_FRONT
  6
Continuous
 62
     7
370
    13
100
AcDbLine
 39
0.25
 10
45.98724660355038
 20
121.836928272972
 30
0.0
 11
48.25794660355041
 21
121.836928272972
 31
0.0
1001
AUSTER_ANSICHT
1002
{
1000
Det03
1002
}
1001
AUSTER_FOLIE
1002
{
1000
NSB01341_3RS10_24POL
1002
}
  0
LINE
  5
12D5F
330
1F
100
AcDbEntity
  8
10000_FRONT
  6
Continuous
 62
     7
370
    13
100
AcDbLine
 39
0.25
 10
42.68654660355013
 20
121.836928272972
 30
0.0
 11
44.95724660355017
 21
121.836928272972
 31
0.0
1001
AUSTER_ANSICHT
1002
{
1000
Det03
1002
}
1001
AUSTER_FOLIE
1002
{
1000
NSB01341_3RS10_24POL
1002
}
  0
LINE
  5
12D60
330
1F
100
AcDbEntity
  8
10000_FRONT
  6
Continuous
 62
     7
370
    13
100
AcDbLine
 39
0.25
 10
38.7872466035501
 20
121.6567282729721
 30
0.0
 11
38.7872466035501
 21
121.836928272972
 31
0.0
1001
AUSTER_ANSICHT
1002
{
1000
Det03
1002
}
1001
AUSTER_FOLIE
1002
{
1000
NSB01341_3RS10_24POL
1002
}
  0
LINE
  5
12D61
330
1F
100
AcDbEntity
  8
10000_FRONT
  6
Continuous
 62
     7
370
    13
100
AcDbLine
 39
0.25
 10
38.7872466035501
 20
120.6644282729721
 30
0.0
 11
38.7872466035501
 21
121.6567282729721
 31
0.0
1001
AUSTER_ANSICHT
1002
{
1000
Det03
1002
}
1001
AUSTER_FOLIE
1002
{
1000
NSB01341_3RS10_24POL
1002
}
  0
LINE
  5
12D62
330
1F
100
AcDbEntity
  8
10000_FRONT
  6
Continuous
 62
     7
370
    13
100
AcDbLine
 39
0.25
 10
38.7872466035501
 20
121.836928272972
 30
0.0
 11
41.05794660355013
 21
121.836928272972
 31
0.0
1001
AUSTER_ANSICHT
1002
{
1000
Det03
1002
}
1001
AUSTER_FOLIE
1002
{
1000
NSB01341_3RS10_24POL
1002
}
  0
LINE
  5
12D63
330
1F
100
AcDbEntity
  8
10000_FRONT
  6
Continuous
 62
     7
370
    13
100
AcDbLine
 39
0.25
 10
37.75724660355036
 20
121.6567282729721
 30
0.0
 11
37.75724660355036
 21
121.836928272972
 31
0.0
1001
AUSTER_ANSICHT
1002
{
1000
Det03
1002
}
1001
AUSTER_FOLIE
1002
{
1000
NSB01341_3RS10_24POL
1002
}
  0
LINE
  5
12D64
330
1F
100
AcDbEntity
  8
10000_FRONT
  6
Continuous
 62
     7
370
    13
100
AcDbLine
 39
0.25
 10
37.75724660355036
 20
121.6567282729721
 30
0.0
 11
37.75724660355036
 21
120.6644282729721
 31
0.0
1001
AUSTER_ANSICHT
1002
{
1000
Det03
1002
}
1001
AUSTER_FOLIE
1002
{
1000
NSB01341_3RS10_24POL
1002
}
  0
LINE
  5
12D65
330
1F
100
AcDbEntity
  8
10000_FRONT
  6
Continuous
 62
     7
370
    13
100
AcDbLine
 39
0.25
 10
35.48654660355032
 20
121.836928272972
 30
0.0
 11
37.75724660355036
 21
121.836928272972
 31
0.0
1001
AUSTER_ANSICHT
1002
{
1000
Det03
1002
}
1001
AUSTER_FOLIE
1002
{
1000
NSB01341_3RS10_24POL
1002
}
  0
ARC
  5
12D66
330
1F
100
AcDbEntity
  8
10000_FRONT
  6
Continuous
 62
     7
370
    13
100
AcDbCircle
 39
0.25
 10
38.27224660355022
 20
122.4412282729721
 30
0.0
 40
1.85
100
AcDbArc
 50
253.8365999999997
 51
286.1634000000003
1001
AUSTER_ANSICHT
1002
{
1000
Det03
1002
}
1001
AUSTER_FOLIE
1002
{
1000
NSB01341_3RS10_24POL
1002
}
  0
CIRCLE
  5
12D67
330
1F
100
AcDbEntity
  8
10000_FRONT
  6
Continuous
 62
     7
370
    13
100
AcDbCircle
 39
0.25
 10
52.67224660355032
 20
122.4412282729721
 30
0.0
 40
3.1
1001
AUSTER_ANSICHT
1002
{
1000
Det03
1002
}
1001
AUSTER_FOLIE
1002
{
1000
NSB01341_3RS10_24POL
1002
}
  0
ARC
  5
12D68
330
1F
100
AcDbEntity
  8
10000_FRONT
  6
Continuous
 62
     7
370
    13
100
AcDbCircle
 39
0.25
 10
52.67224660355032
 20
122.4412282729721
 30
0.0
 40
2.850490999999998
100
AcDbArc
 50
347.7603999999987
 51
12.23960000000126
1001
AUSTER_ANSICHT
1002
{
1000
Det03
1002
}
1001
AUSTER_FOLIE
1002
{
1000
NSB01341_3RS10_24POL
1002
}
  0
ARC
  5
12D69
330
1F
100
AcDbEntity
  8
10000_FRONT
  6
Continuous
 62
     7
370
    13
100
AcDbCircle
 39
0.25
 10
52.67224660355032
 20
122.4412282729721
 30
0.0
 40
2.850490999999998
100
AcDbArc
 50
167.7603999999987
 51
192.2396000000013
1001
AUSTER_ANSICHT
1002
{
1000
Det03
1002
}
1001
AUSTER_FOLIE
1002
{
1000
NSB01341_3RS10_24POL
1002
}
  0
CIRCLE
  5
12D6A
330
1F
100
AcDbEntity
  8
10000_FRONT
  6
Continuous
 62
     7
370
    13
100
AcDbCircle
 39
0.25
 10
52.67224660355032
 20
122.4412282729721
 30
0.0
 40
3.1
1001
AUSTER_ANSICHT
1002
{
1000
Det03
1002
}
1001
AUSTER_FOLIE
1002
{
1000
NSB01341_3RS10_24POL
1002
}
  0
ARC
  5
12D6B
330
1F
100
AcDbEntity
  8
10000_FRONT
  6
Continuous
 62
     7
370
    13
100
AcDbCircle
 39
0.25
 10
45.47224660355027
 20
122.4412282729721
 30
0.0
 40
2.850490999999998
100
AcDbArc
 50
167.7603999999987
 51
192.2396000000013
1001
AUSTER_ANSICHT
1002
{
1000
Det03
1002
}
1001
AUSTER_FOLIE
1002
{
1000
NSB01341_3RS10_24POL
1002
}
  0
ARC
  5
12D6C
330
1F
100
AcDbEntity
  8
10000_FRONT
  6
Continuous
 62
     7
370
    13
100
AcDbCircle
 39
0.25
 10
45.47224660355027
 20
122.4412282729721
 30
0.0
 40
2.850490999999998
100
AcDbArc
 50
347.7603999999987
 51
12.23960000000126
1001
AUSTER_ANSICHT
1002
{
1000
Det03
1002
}
1001
AUSTER_FOLIE
1002
{
1000
NSB01341_3RS10_24POL
1002
}
  0
CIRCLE
  5
12D6D
330
1F
100
AcDbEntity
  8
10000_FRONT
  6
Continuous
 62
     7
370
    13
100
AcDbCircle
 39
0.25
 10
45.47224660355027
 20
122.4412282729721
 30
0.0
 40
3.1
1001
AUSTER_ANSICHT
1002
{
1000
Det03
1002
}
1001
AUSTER_FOLIE
1002
{
1000
NSB01341_3RS10_24POL
1002
}
  0
CIRCLE
  5
12D6E
330
1F
100
AcDbEntity
  8
10000_FRONT
  6
Continuous
 62
     7
370
    13
100
AcDbCircle
 39
0.25
 10
45.47224660355027
 20
122.4412282729721
 30
0.0
 40
3.1
1001
AUSTER_ANSICHT
1002
{
1000
Det03
1002
}
1001
AUSTER_FOLIE
1002
{
1000
NSB01341_3RS10_24POL
1002
}
  0
ARC
  5
12D6F
330
1F
100
AcDbEntity
  8
10000_FRONT
  6
Continuous
 62
     7
370
    13
100
AcDbCircle
 39
0.25
 10
38.27224660355022
 20
122.4412282729721
 30
0.0
 40
2.850490999999998
100
AcDbArc
 50
347.7603999999987
 51
12.23960000000126
1001
AUSTER_ANSICHT
1002
{
1000
Det03
1002
}
1001
AUSTER_FOLIE
1002
{
1000
NSB01341_3RS10_24POL
1002
}
  0
ARC
  5
12D70
330
1F
100
AcDbEntity
  8
10000_FRONT
  6
Continuous
 62
     7
370
    13
100
AcDbCircle
 39
0.25
 10
38.27224660355022
 20
122.4412282729721
 30
0.0
 40
2.850490999999998
100
AcDbArc
 50
167.7603999999987
 51
192.2396000000013
1001
AUSTER_ANSICHT
1002
{
1000
Det03
1002
}
1001
AUSTER_FOLIE
1002
{
1000
NSB01341_3RS10_24POL
1002
}
  0
CIRCLE
  5
12D71
330
1F
100
AcDbEntity
  8
10000_FRONT
  6
Continuous
 62
     7
370
    13
100
AcDbCircle
 39
0.25
 10
38.27224660355022
 20
122.4412282729721
 30
0.0
 40
3.1
1001
AUSTER_ANSICHT
1002
{
1000
Det03
1002
}
1001
AUSTER_FOLIE
1002
{
1000
NSB01341_3RS10_24POL
1002
}
  0
CIRCLE
  5
12D72
330
1F
100
AcDbEntity
  8
10000_FRONT
  6
Continuous
 62
     7
370
    13
100
AcDbCircle
 39
0.25
 10
38.27224660355022
 20
122.4412282729721
 30
0.0
 40
3.1
1001
AUSTER_ANSICHT
1002
{
1000
Det03
1002
}
1001
AUSTER_FOLIE
1002
{
1000
NSB01341_3RS10_24POL
1002
}
  0
LINE
  5
12D74
330
1F
100
AcDbEntity
  8
10000_FRONT
  6
Continuous
 62
     7
370
    40
100
AcDbLine
 10
34.22224660355027
 20
129.2412282729721
 30
0.0
 11
34.22224660355027
 21
115.441228272972
 31
0.0
  0
LINE
  5
12D76
330
1F
100
AcDbEntity
  8
10000_FRONT
  6
Continuous
 62
     7
370
    40
100
AcDbLine
 10
56.72224660355027
 20
115.441228272972
 30
0.0
 11
56.72224660355027
 21
129.2412282729721
 31
0.0
  0
LINE
  5
12D77
330
1F
100
AcDbEntity
  8
11000_Left
  6
HIDDEN
 62
     7
370
     9
100
AcDbLine
 10
167.6716627621085
 20
107.0347859095811
 30
0.0
 11
167.6716627621085
 21
115.0347859095811
 31
0.0
  0
LINE
  5
12D78
330
1F
100
AcDbEntity
  8
11000_Left
  6
HIDDEN
 62
     7
370
     9
100
AcDbLine
 10
167.6716627621085
 20
115.0347859095811
 30
0.0
 11
165.6716627621085
 21
115.0347859095811
 31
0.0
  0
LINE
  5
12D79
330
1F
100
AcDbEntity
  8
11000_Left
  6
HIDDEN
 62
     7
370
     9
100
AcDbLine
 10
165.6716627621085
 20
107.0347859095811
 30
0.0
 11
165.6716627621085
 21
115.0347859095811
 31
0.0
  0
LINE
  5
12D7A
330
1F
100
AcDbEntity
  8
11000_Left
  6
HIDDEN
 62
     7
370
     9
100
AcDbLine
 10
196.6716627621085
 20
116.5347859095811
 30
0.0
 11
196.6716627621085
 21
124.5347859095811
 31
0.0
  0
LINE
  5
12D7B
330
1F
100
AcDbEntity
  8
11000_Left
  6
HIDDEN
 62
     7
370
     9
100
AcDbLine
 10
196.6716627621085
 20
124.5347859095811
 30
0.0
 11
194.6716627621085
 21
124.5347859095811
 31
0.0
  0
LINE
  5
12D7C
330
1F
100
AcDbEntity
  8
11000_Left
  6
HIDDEN
 62
     7
370
     9
100
AcDbLine
 10
194.6716627621085
 20
116.5347859095811
 30
0.0
 11
194.6716627621085
 21
124.5347859095811
 31
0.0
  0
LINE
  5
12D7D
330
1F
100
AcDbEntity
  8
11000_Left
  6
HIDDEN
 62
     7
370
     9
100
AcDbLine
 10
196.6716627621085
 20
199.1347859095811
 30
0.0
 11
196.6716627621085
 21
191.1347859095811
 31
0.0
  0
LINE
  5
12D7E
330
1F
100
AcDbEntity
  8
11000_Left
  6
HIDDEN
 62
     7
370
     9
100
AcDbLine
 10
196.6716627621085
 20
191.1347859095811
 30
0.0
 11
194.6716627621085
 21
191.1347859095811
 31
0.0
  0
LINE
  5
12D7F
330
1F
100
AcDbEntity
  8
11000_Left
  6
HIDDEN
 62
     7
370
     9
100
AcDbLine
 10
194.6716627621085
 20
199.1347859095811
 30
0.0
 11
194.6716627621085
 21
191.1347859095811
 31
0.0
  0
LINE
  5
12D83
330
1F
100
AcDbEntity
  8
11000_Left
  6
Continuous
 62
     7
370
    13
100
AcDbLine
 10
209.7716627621085
 20
149.8347859095811
 30
0.0
 11
209.6716627621086
 21
149.8347859095811
 31
0.0
  0
LINE
  5
12D84
330
1F
100
AcDbEntity
  8
11000_Left
  6
Continuous
 62
     7
370
    13
100
AcDbLine
 10
204.0716627621084
 20
130.5847859095811
 30
0.0
 11
203.4716527621085
 21
130.5847859095811
 31
0.0
  0
LINE
  5
12D85
330
1F
100
AcDbEntity
  8
11000_Left
  6
Continuous
 62
     7
370
    13
100
AcDbLine
 10
210.0716627621084
 20
130.5847859095811
 30
0.0
 11
204.0716627621084
 21
130.5847859095811
 31
0.0
  0
LINE
  5
12D86
330
1F
100
AcDbEntity
  8
11000_Left
  6
Continuous
 62
     7
370
    13
100
AcDbLine
 10
210.3716627621086
 20
130.5847859095811
 30
0.0
 11
210.0716627621084
 21
130.5847859095811
 31
0.0
  0
LINE
  5
12D87
330
1F
100
AcDbEntity
  8
11000_Left
  6
Continuous
 62
     7
370
    13
100
AcDbLine
 10
211.4688627621085
 20
130.5847859095811
 30
0.0
 11
210.3716627621086
 21
130.5847859095811
 31
0.0
  0
ARC
  5
12D88
330
1F
100
AcDbEntity
  8
11000_Left
  6
Continuous
 62
     7
370
    40
100
AcDbCircle
 10
129.4716627621086
 20
140.6347859095811
 30
0.0
 40
0.3
100
AcDbArc
 50
270.0
 51
0.0
  0
LINE
  5
12D89
330
1F
100
AcDbEntity
  8
11000_Left
  6
Continuous
 62
     7
370
    13
100
AcDbLine
 10
130.7716627621085
 20
131.934785909581
 30
0.0
 11
129.2716627621085
 21
131.934785909581
 31
0.0
  0
LINE
  5
12D8A
330
1F
100
AcDbEntity
  8
11000_Left
  6
Continuous
 62
     7
370
    13
100
AcDbLine
 10
130.7716627621085
 20
136.4347859095811
 30
0.0
 11
130.7716627621085
 21
131.934785909581
 31
0.0
  0
LINE
  5
12D8B
330
1F
100
AcDbEntity
  8
11000_Left
  6
Continuous
 62
     7
370
    13
100
AcDbLine
 10
129.2716627621085
 20
131.934785909581
 30
0.0
 11
129.2716627621085
 21
136.4347859095811
 31
0.0
  0
LINE
  5
12D8C
330
1F
100
AcDbEntity
  8
11000_Left
  6
Continuous
 62
     7
370
    13
100
AcDbLine
 10
129.2716627621085
 20
136.4347859095811
 30
0.0
 11
130.7716627621085
 21
136.4347859095811
 31
0.0
  0
LINE
  5
12D8D
330
1F
100
AcDbEntity
  8
11000_Left
  6
Continuous
 62
     7
370
    40
100
AcDbLine
 10
129.4716627621086
 20
140.3347859095811
 30
0.0
 11
128.9518527621086
 21
140.3347859095811
 31
0.0
  0
LINE
  5
12D8E
330
1F
100
AcDbEntity
  8
11000_Left
  6
Continuous
 62
     7
370
    13
100
AcDbLine
 10
210.0716627621084
 20
130.5847859095811
 30
0.0
 11
209.7716627621085
 21
130.8847859095811
 31
0.0
  0
LINE
  5
12D92
330
1F
100
AcDbEntity
  8
11000_Left
  6
Continuous
 62
     7
370
    40
100
AcDbLine
 10
126.6710627621085
 20
141.7347859095811
 30
0.0
 11
124.8848727621085
 21
140.4840759095811
 31
0.0
  0
ARC
  5
12D93
330
1F
100
AcDbEntity
  8
11000_Left
  6
Continuous
 62
     7
370
    40
100
AcDbCircle
 10
128.9518527621086
 20
140.6347859095811
 30
0.0
 40
0.3
100
AcDbArc
 50
194.9999999999979
 51
270.0
  0
LINE
  5
12D94
330
1F
100
AcDbEntity
  8
11000_Left
  6
Continuous
 62
     7
370
    40
100
AcDbLine
 10
128.6620827621085
 20
140.5571359095811
 30
0.0
 11
128.3465327621085
 21
141.7347859095811
 31
0.0
  0
LINE
  5
12D95
330
1F
100
AcDbEntity
  8
11000_Left
  6
Continuous
 62
     7
370
    40
100
AcDbLine
 10
124.6716627621084
 20
140.0744959095811
 30
0.0
 11
124.6716627621084
 21
122.0847859095811
 31
0.0
  0
LINE
  5
12D96
330
1F
100
AcDbEntity
  8
11000_Left
  6
Continuous
 62
     7
370
    40
100
AcDbLine
 10
124.6716627621084
 20
122.0847859095811
 30
0.0
 11
124.6716627621084
 21
121.0847859095811
 31
0.0
  0
LINE
  5
12D97
330
1F
100
AcDbEntity
  8
11000_Left
  6
Continuous
 62
     7
370
    40
100
AcDbLine
 10
128.3465327621085
 20
141.7347859095811
 30
0.0
 11
126.6710627621085
 21
141.7347859095811
 31
0.0
  0
LINE
  5
12D98
330
1F
100
AcDbEntity
  8
11000_Left
  6
Continuous
 62
     7
370
    13
100
AcDbLine
 10
129.4716627621086
 20
143.9847859095811
 30
0.0
 11
129.4716627621086
 21
145.9847859095811
 31
0.0
  0
LINE
  5
12D99
330
1F
100
AcDbEntity
  8
11000_Left
  6
Continuous
 62
     7
370
    13
100
AcDbLine
 10
129.7716627621085
 20
146.2847859095811
 30
0.0
 11
129.4716627621086
 21
145.9847859095811
 31
0.0
  0
LINE
  5
12D9A
330
1F
100
AcDbEntity
  8
11000_Left
  6
Continuous
 62
     7
370
    13
100
AcDbLine
 10
129.4716627621086
 20
143.9847859095811
 30
0.0
 11
129.7716627621085
 21
143.6847859095811
 31
0.0
  0
LINE
  5
12D9B
330
1F
100
AcDbEntity
  8
11000_Left
  6
Continuous
 62
     7
370
    13
100
AcDbLine
 10
129.7716627621085
 20
149.8347859095811
 30
0.0
 11
129.7716627621085
 21
149.9347759095811
 31
0.0
  0
LINE
  5
12D9C
330
1F
100
AcDbEntity
  8
11000_Left
  6
Continuous
 62
     7
370
    40
100
AcDbLine
 10
129.7716627621085
 20
149.8347859095811
 30
0.0
 11
129.7716627621085
 21
140.6347859095811
 31
0.0
  0
ARC
  5
12D9D
330
1F
100
AcDbEntity
  8
11000_Left
  6
Continuous
 62
     7
370
    40
100
AcDbCircle
 10
125.1716627621084
 20
140.0744959095811
 30
0.0
 40
0.5
100
AcDbArc
 50
124.9999999999977
 51
180.0
  0
LINE
  5
12D9E
330
1F
100
AcDbEntity
  8
11000_Left
  6
Continuous
 62
     7
370
    13
100
AcDbLine
 10
209.6716627621086
 20
149.8347859095811
 30
0.0
 11
129.7716627621085
 21
149.8347859095811
 31
0.0
  0
LINE
  5
12D9F
330
1F
100
AcDbEntity
  8
11000_Left
  6
Continuous
 62
     7
370
    13
100
AcDbLine
 10
209.6716627621086
 20
135.184785909581
 30
0.0
 11
209.6716627621086
 21
149.8347859095811
 31
0.0
  0
LINE
  5
12DA0
330
1F
100
AcDbEntity
  8
11000_Left
  6
Continuous
 62
     7
370
    40
100
AcDbLine
 10
154.5716627621084
 20
121.0847859095811
 30
0.0
 11
124.6716627621084
 21
121.0847859095811
 31
0.0
  0
LINE
  5
12DA1
330
1F
100
AcDbEntity
  8
11000_Left
  6
Continuous
 62
     7
370
    13
100
AcDbLine
 10
154.6716627621085
 20
121.0847859095811
 30
0.0
 11
154.5716627621084
 21
121.0847859095811
 31
0.0
  0
LINE
  5
12DA2
330
1F
100
AcDbEntity
  8
11000_Left
  6
Continuous
 62
     7
370
    13
100
AcDbLine
 10
129.7716627621085
 20
193.5847859095811
 30
0.0
 11
129.7716627621085
 21
194.5847859095811
 31
0.0
  0
LINE
  5
12DA3
330
1F
100
AcDbEntity
  8
11000_Left
  6
Continuous
 62
     7
370
    40
100
AcDbLine
 10
124.6716627621084
 20
194.5847859095811
 30
0.0
 11
129.7716627621085
 21
194.5847859095811
 31
0.0
  0
LINE
  5
12DA4
330
1F
100
AcDbEntity
  8
11000_Left
  6
Continuous
 62
     7
370
    40
100
AcDbLine
 10
154.5716627621084
 20
194.5847859095811
 30
0.0
 11
154.6716627621085
 21
194.5847859095811
 31
0.0
  0
LINE
  5
12DA5
330
1F
100
AcDbEntity
  8
11000_Left
  6
Continuous
 62
     7
370
    40
100
AcDbLine
 10
129.7675399236558
 20
194.5847859095811
 30
0.0
 11
174.6716627621085
 21
194.6347859095811
 31
0.0
  0
LINE
  5
12DA6
330
1F
100
AcDbEntity
  8
11000_Left
  6
Continuous
 62
     7
370
    13
100
AcDbLine
 10
210.3716627621086
 20
180.4847859095811
 30
0.0
 11
210.3716627621086
 21
185.1347859095811
 31
0.0
  0
LINE
  5
12DA7
330
1F
100
AcDbEntity
  8
11000_Left
  6
Continuous
 62
     7
370
    40
100
AcDbLine
 10
129.7716627621085
 20
178.0847859095811
 30
0.0
 11
129.7716627621085
 21
149.9347859095811
 31
0.0
  0
ARC
  5
12DA8
330
1F
100
AcDbEntity
  8
11000_Left
  6
Continuous
 62
     7
370
    40
100
AcDbCircle
 10
129.2716627621085
 20
178.0847859095811
 30
0.0
 40
0.5
100
AcDbArc
 50
0.0
 51
90.0
  0
LINE
  5
12DA9
330
1F
100
AcDbEntity
  8
11000_Left
  6
Continuous
 62
     7
370
    40
100
AcDbLine
 10
124.6716627621084
 20
194.5847859095811
 30
0.0
 11
124.6716627621084
 21
175.1847859095811
 31
0.0
  0
LINE
  5
12DAA
330
1F
100
AcDbEntity
  8
11000_Left
  6
Continuous
 62
     7
370
    13
100
AcDbLine
 10
124.6716627621084
 20
174.6491459095811
 30
0.0
 11
124.6716627621084
 21
175.1847759095811
 31
0.0
  0
LINE
  5
12DAB
330
1F
100
AcDbEntity
  8
11000_Left
  6
Continuous
 62
     7
370
    13
100
AcDbLine
 10
124.6716627621084
 20
173.6347859095811
 30
0.0
 11
124.6716627621084
 21
174.6491459095811
 31
0.0
  0
LINE
  5
12DAC
330
1F
100
AcDbEntity
  8
11000_Left
  6
Continuous
 62
     7
370
    13
100
AcDbLine
 10
124.6716627621084
 20
173.6347859095811
 30
0.0
 11
126.1716627621084
 21
172.4347859095811
 31
0.0
  0
LINE
  5
12DAD
330
1F
100
AcDbEntity
  8
11000_Left
  6
Continuous
 62
     7
370
    40
100
AcDbLine
 10
126.7788427621084
 20
173.9847859095811
 30
0.0
 11
127.4716627621086
 21
175.1847859095811
 31
0.0
  0
LINE
  5
12DAE
330
1F
100
AcDbEntity
  8
11000_Left
  6
Continuous
 62
     7
370
    40
100
AcDbLine
 10
127.4716627621086
 20
175.1847859095811
 30
0.0
 11
127.4716627621086
 21
178.0847859095811
 31
0.0
  0
ARC
  5
12DAF
330
1F
100
AcDbEntity
  8
11000_Left
  6
Continuous
 62
     7
370
    40
100
AcDbCircle
 10
127.9716627621086
 20
178.0847859095811
 30
0.0
 40
0.5
100
AcDbArc
 50
90.0
 51
180.0
  0
LINE
  5
12DB0
330
1F
100
AcDbEntity
  8
11000_Left
  6
Continuous
 62
     7
370
    40
100
AcDbLine
 10
124.6716627621084
 20
175.1847859095811
 30
0.0
 11
126.1716627621084
 21
173.9847859095811
 31
0.0
  0
LINE
  5
12DB1
330
1F
100
AcDbEntity
  8
11000_Left
  6
Continuous
 62
     7
370
    40
100
AcDbLine
 10
126.1716627621084
 20
173.9847859095811
 30
0.0
 11
126.7788427621084
 21
173.9847859095811
 31
0.0
  0
LINE
  5
12DB2
330
1F
100
AcDbEntity
  8
11000_Left
  6
Continuous
 62
     7
370
    40
100
AcDbLine
 10
127.9716627621086
 20
178.5847859095811
 30
0.0
 11
129.2716627621085
 21
178.5847859095811
 31
0.0
  0
LINE
  5
12DB3
330
1F
100
AcDbEntity
  8
11000_Left
  6
Continuous
 62
     7
370
    13
100
AcDbLine
 10
127.9130627621085
 20
172.4347859095811
 30
0.0
 11
128.3716627621085
 21
173.9347859095811
 31
0.0
  0
LINE
  5
12DB4
330
1F
100
AcDbEntity
  8
11000_Left
  6
Continuous
 62
     7
370
    13
100
AcDbLine
 10
129.1716627621084
 20
173.9347859095811
 30
0.0
 11
129.7716627621085
 21
173.9347859095811
 31
0.0
  0
LINE
  5
12DB5
330
1F
100
AcDbEntity
  8
11000_Left
  6
Continuous
 62
     7
370
    13
100
AcDbLine
 10
128.3716627621085
 20
173.9347859095811
 30
0.0
 11
129.1716627621084
 21
173.9347859095811
 31
0.0
  0
LINE
  5
12DB6
330
1F
100
AcDbEntity
  8
11000_Left
  6
Continuous
 62
     7
370
    13
100
AcDbLine
 10
126.1716627621084
 20
172.4347859095811
 30
0.0
 11
127.0716627621085
 21
172.4347859095811
 31
0.0
  0
LINE
  5
12DB7
330
1F
100
AcDbEntity
  8
11000_Left
  6
Continuous
 62
     7
370
    13
100
AcDbLine
 10
127.9130627621085
 20
172.4347859095811
 30
0.0
 11
127.0716627621085
 21
172.4347859095811
 31
0.0
  0
LINE
  5
12DB8
330
1F
100
AcDbEntity
  8
11000_Left
  6
Continuous
 62
     7
370
    13
100
AcDbLine
 10
180.0716627621084
 20
154.2347859095811
 30
0.0
 11
173.0716627621084
 21
154.2347859095811
 31
0.0
  0
LINE
  5
12DB9
330
1F
100
AcDbEntity
  8
11000_Left
  6
Continuous
 62
     7
370
    13
100
AcDbLine
 10
173.0716627621084
 20
154.2347859095811
 30
0.0
 11
173.0716627621084
 21
158.4347859095811
 31
0.0
  0
LINE
  5
12DBA
330
1F
100
AcDbEntity
  8
11000_Left
  6
Continuous
 62
     7
370
    13
100
AcDbLine
 10
180.0716627621084
 20
158.4347859095811
 30
0.0
 11
180.0716627621084
 21
154.2347859095811
 31
0.0
  0
LINE
  5
12DBB
330
1F
100
AcDbEntity
  8
11000_Left
  6
Continuous
 62
     7
370
    13
100
AcDbLine
 10
173.0716627621084
 20
158.4347859095811
 30
0.0
 11
180.0716627621084
 21
158.4347859095811
 31
0.0
  0
LINE
  5
12DBC
330
1F
100
AcDbEntity
  8
11000_Left
  6
Continuous
 62
     7
370
    13
100
AcDbLine
 10
209.6716627621086
 20
180.4847859095811
 30
0.0
 11
210.3716627621086
 21
180.4847859095811
 31
0.0
  0
LINE
  5
12DBD
330
1F
100
AcDbEntity
  8
11000_Left
  6
Continuous
 62
     7
370
    13
100
AcDbLine
 10
209.6716627621086
 20
149.9347859095811
 30
0.0
 11
209.6716627621086
 21
180.4847859095811
 31
0.0
  0
LINE
  5
12DBE
330
1F
100
AcDbEntity
  8
11000_Left
  6
Continuous
 62
     7
370
    13
100
AcDbLine
 10
211.8716627621086
 20
173.2347859095811
 30
0.0
 11
211.8716627621086
 21
169.434785909581
 31
0.0
  0
ARC
  5
12DBF
330
1F
100
AcDbEntity
  8
11000_Left
  6
Continuous
 62
     7
370
    40
100
AcDbCircle
 10
186.7716627621084
 20
107.2347859095811
 30
0.0
 40
0.2
100
AcDbArc
 50
269.9997900000049
 51
0.0
  0
LINE
  5
12DC0
330
1F
100
AcDbEntity
  8
11000_Left
  6
Continuous
 62
     7
370
    13
100
AcDbLine
 10
174.6716627621085
 20
125.0347859095811
 30
0.0
 11
174.6716627621085
 21
121.0347859095811
 31
0.0
  0
LINE
  5
12DC1
330
1F
100
AcDbEntity
  8
11000_Left
  6
Continuous
 62
     7
370
    13
100
AcDbLine
 10
154.6716627621085
 20
125.0347859095811
 30
0.0
 11
174.6716627621085
 21
125.0347859095811
 31
0.0
  0
ARC
  5
12DC2
330
1F
100
AcDbEntity
  8
11000_Left
  6
Continuous
 62
     7
370
    40
100
AcDbCircle
 10
158.3716627621086
 20
107.2347859095811
 30
0.0
 40
0.2
100
AcDbArc
 50
180.0
 51
270.0
  0
LINE
  5
12DC3
330
1F
100
AcDbEntity
  8
11000_Left
  6
Continuous
 62
     7
370
    13
100
AcDbLine
 10
186.1716627621085
 20
121.0347859095811
 30
0.0
 11
174.6716627621085
 21
121.0347859095811
 31
0.0
  0
LINE
  5
12DC4
330
1F
100
AcDbEntity
  8
11000_Left
  6
Continuous
 62
     7
370
    40
100
AcDbLine
 10
154.6716627621085
 20
111.5347859095811
 30
0.0
 11
158.1716627621085
 21
111.5347859095811
 31
0.0
  0
LINE
  5
12DC5
330
1F
100
AcDbEntity
  8
11000_Left
  6
Continuous
 62
     7
370
    40
100
AcDbLine
 10
186.9716627621085
 20
107.2347859095811
 30
0.0
 11
186.9716627621085
 21
116.7347859095811
 31
0.0
  0
LINE
  5
12DC8
330
1F
100
AcDbEntity
  8
11000_Left
  6
Continuous
 62
     7
370
    40
100
AcDbLine
 10
158.1716627621085
 20
111.5347859095811
 30
0.0
 11
158.1716627621085
 21
107.2347859095811
 31
0.0
  0
LINE
  5
12DC9
330
1F
100
AcDbEntity
  8
11000_Left
  6
Continuous
 62
     7
370
    40
100
AcDbLine
 10
158.3716627621086
 20
107.0347859095811
 30
0.0
 11
159.2716627621084
 21
107.0347859095811
 31
0.0
  0
LINE
  5
12DCA
330
1F
100
AcDbEntity
  8
11000_Left
  6
Continuous
 62
     7
370
    40
100
AcDbLine
 10
185.5716627621084
 20
107.0347859095811
 30
0.0
 11
159.2716627621084
 21
107.0347859095811
 31
0.0
  0
LINE
  5
12DCB
330
1F
100
AcDbEntity
  8
11000_Left
  6
Continuous
 62
     7
370
    40
100
AcDbLine
 10
185.5716627621084
 20
107.0347859095811
 30
0.0
 11
186.1716627621085
 21
107.0347859095811
 31
0.0
  0
LINE
  5
12DCC
330
1F
100
AcDbEntity
  8
11000_Left
  6
Continuous
 62
     7
370
    40
100
AcDbLine
 10
186.1716627621085
 20
107.0347859095811
 30
0.0
 11
186.7716527621085
 21
107.0347859095811
 31
0.0
  0
LINE
  5
12DCD
330
1F
100
AcDbEntity
  8
11000_Left
  6
Continuous
 62
     7
370
    13
100
AcDbLine
 10
213.6716427621085
 20
173.3347859095811
 30
0.0
 11
213.6716427621085
 21
169.3347859095811
 31
0.0
  0
LINE
  5
12DCE
330
1F
100
AcDbEntity
  8
11000_Left
  6
Continuous
 62
     7
370
    13
100
AcDbLine
 10
211.8716427621084
 20
173.3347859095811
 30
0.0
 11
213.6716427621085
 21
173.3347859095811
 31
0.0
  0
LINE
  5
12DCF
330
1F
100
AcDbEntity
  8
11000_Left
  6
Continuous
 62
     7
370
    13
100
AcDbLine
 10
211.8716427621084
 20
173.2347859095811
 30
0.0
 11
211.8716427621084
 21
173.3347859095811
 31
0.0
  0
LINE
  5
12DD0
330
1F
100
AcDbEntity
  8
11000_Left
  6
Continuous
 62
     7
370
    13
100
AcDbLine
 10
211.8716427621084
 20
169.3347859095811
 30
0.0
 11
211.8716427621084
 21
169.434785909581
 31
0.0
  0
LINE
  5
12DD1
330
1F
100
AcDbEntity
  8
11000_Left
  6
Continuous
 62
     7
370
    13
100
AcDbLine
 10
213.6716427621085
 20
169.3347859095811
 30
0.0
 11
211.8716427621084
 21
169.3347859095811
 31
0.0
  0
LINE
  5
12DD2
330
1F
100
AcDbEntity
  8
11000_Left
  6
Continuous
 62
     7
370
    13
100
AcDbLine
 10
213.6716427621085
 20
146.3347859095811
 30
0.0
 11
213.6716427621085
 21
142.3347859095811
 31
0.0
  0
LINE
  5
12DD3
330
1F
100
AcDbEntity
  8
11000_Left
  6
Continuous
 62
     7
370
    13
100
AcDbLine
 10
211.8716427621084
 20
146.3347859095811
 30
0.0
 11
213.6716427621085
 21
146.3347859095811
 31
0.0
  0
LINE
  5
12DD4
330
1F
100
AcDbEntity
  8
11000_Left
  6
Continuous
 62
     7
370
    13
100
AcDbLine
 10
211.8716427621084
 20
142.3347859095811
 30
0.0
 11
211.8716427621084
 21
146.3347859095811
 31
0.0
  0
LINE
  5
12DD5
330
1F
100
AcDbEntity
  8
11000_Left
  6
Continuous
 62
     7
370
    13
100
AcDbLine
 10
213.6716427621085
 20
142.3347859095811
 30
0.0
 11
211.8716427621084
 21
142.3347859095811
 31
0.0
  0
LINE
  5
12DD6
330
1F
100
AcDbEntity
  8
11000_Left
  6
Continuous
 62
     7
370
    40
100
AcDbLine
 10
215.7716627621085
 20
185.0847859095811
 30
0.0
 11
215.7716627621085
 21
130.5847859095811
 31
0.0
  0
LINE
  5
12DD7
330
1F
100
AcDbEntity
  8
11000_Left
  6
Continuous
 62
     7
370
    13
100
AcDbLine
 10
211.4688627621085
 20
130.5847859095811
 30
0.0
 11
214.9716627621085
 21
130.5847859095811
 31
0.0
  0
LINE
  5
12DD8
330
1F
100
AcDbEntity
  8
11000_Left
  6
Continuous
 62
     7
370
    13
100
AcDbLine
 10
215.7716627621085
 20
130.5847859095811
 30
0.0
 11
214.9716627621085
 21
130.5847859095811
 31
0.0
  0
LINE
  5
12DD9
330
1F
100
AcDbEntity
  8
11000_Left
  6
Continuous
 62
     7
370
    40
100
AcDbLine
 10
214.3716427621084
 20
116.5347859095811
 30
0.0
 11
214.3716627621086
 21
116.5347859095811
 31
0.0
  0
ARC
  5
12DDA
330
1F
100
AcDbEntity
  8
11000_Left
  6
Continuous
 62
     7
370
    40
100
AcDbCircle
 10
215.5716627621084
 20
116.7347859095811
 30
0.0
 40
0.2
100
AcDbArc
 50
269.9997700000029
 51
0.0
  0
LINE
  5
12DDB
330
1F
100
AcDbEntity
  8
11000_Left
  6
Continuous
 62
     7
370
    13
100
AcDbLine
 10
203.4716627621085
 20
134.5347859095811
 30
0.0
 11
203.4716627621085
 21
130.5347859095811
 31
0.0
  0
LINE
  5
12DDC
330
1F
100
AcDbEntity
  8
11000_Left
  6
Continuous
 62
     7
370
    13
100
AcDbLine
 10
183.4716627621085
 20
134.5347859095811
 30
0.0
 11
203.4716627621085
 21
134.5347859095811
 31
0.0
  0
ARC
  5
12DDD
330
1F
100
AcDbEntity
  8
11000_Left
  6
Continuous
 62
     7
370
    13
100
AcDbCircle
 10
187.1716627621085
 20
116.7347859095811
 30
0.0
 40
0.2
100
AcDbArc
 50
180.0
 51
270.0
  0
LINE
  5
12DDE
330
1F
100
AcDbEntity
  8
11000_Left
  6
Continuous
 62
     7
370
    13
100
AcDbLine
 10
215.7716627621085
 20
130.5347859095811
 30
0.0
 11
214.9716627621085
 21
130.5347859095811
 31
0.0
  0
LINE
  5
12DDF
330
1F
100
AcDbEntity
  8
11000_Left
  6
Continuous
 62
     7
370
    13
100
AcDbLine
 10
214.9716627621085
 20
130.5347859095811
 30
0.0
 11
203.4716627621085
 21
130.5347859095811
 31
0.0
  0
LINE
  5
12DE0
330
1F
100
AcDbEntity
  8
11000_Left
  6
Continuous
 62
     7
370
    40
100
AcDbLine
 10
215.7716627621085
 20
116.7347859095811
 30
0.0
 11
215.7716627621085
 21
130.5347859095811
 31
0.0
  0
LINE
  5
12DE1
330
1F
100
AcDbEntity
  8
11000_Left
  6
Continuous
 62
     7
370
    13
100
AcDbLine
 10
186.9716627621085
 20
121.0347859095811
 30
0.0
 11
186.9716627621085
 21
116.7347859095811
 31
0.0
  0
LINE
  5
12DE2
330
1F
100
AcDbEntity
  8
11000_Left
  6
Continuous
 62
     7
370
    40
100
AcDbLine
 10
214.3716627621086
 20
116.5347859095811
 30
0.0
 11
187.1716627621085
 21
116.5347859095811
 31
0.0
  0
LINE
  5
12DE3
330
1F
100
AcDbEntity
  8
11000_Left
  6
Continuous
 62
     7
370
    40
100
AcDbLine
 10
214.3716627621086
 20
116.5347859095811
 30
0.0
 11
214.9716627621085
 21
116.5347859095811
 31
0.0
  0
LINE
  5
12DE4
330
1F
100
AcDbEntity
  8
11000_Left
  6
Continuous
 62
     7
370
    40
100
AcDbLine
 10
214.9716627621085
 20
116.5347859095811
 30
0.0
 11
215.5716527621085
 21
116.5347859095811
 31
0.0
  0
LINE
  5
12DE5
330
1F
100
AcDbEntity
  8
11000_Left
  6
Continuous
 62
     7
370
    40
100
AcDbLine
 10
214.9716627621085
 20
199.1347859095811
 30
0.0
 11
214.9716527621085
 21
199.1347859095811
 31
0.0
  0
LINE
  5
12DE6
330
1F
100
AcDbEntity
  8
11000_Left
  6
Continuous
 62
     7
370
    13
100
AcDbLine
 10
183.4716627621085
 20
181.1347859095811
 30
0.0
 11
203.4716627621085
 21
181.1347859095811
 31
0.0
  0
LINE
  5
12DE7
330
1F
100
AcDbEntity
  8
11000_Left
  6
Continuous
 62
     7
370
    13
100
AcDbLine
 10
203.4716627621085
 20
181.1347859095811
 30
0.0
 11
203.4716627621085
 21
185.1347859095811
 31
0.0
  0
ARC
  5
12DE8
330
1F
100
AcDbEntity
  8
11000_Left
  6
Continuous
 62
     7
370
    40
100
AcDbCircle
 10
215.5716627621084
 20
198.9347859095811
 30
0.0
 40
0.2
100
AcDbArc
 50
0.0
 51
90.0004430000029
  0
ARC
  5
12DE9
330
1F
100
AcDbEntity
  8
11000_Left
  6
Continuous
 62
     7
370
    40
100
AcDbCircle
 10
187.1716627621085
 20
198.9347859095811
 30
0.0
 40
0.2
100
AcDbArc
 50
90.0
 51
180.0
  0
LINE
  5
12DEA
330
1F
100
AcDbEntity
  8
11000_Left
  6
Continuous
 62
     7
370
    13
100
AcDbLine
 10
214.9716627621085
 20
185.1347859095811
 30
0.0
 11
203.4716627621085
 21
185.1347859095811
 31
0.0
  0
LINE
  5
12DEB
330
1F
100
AcDbEntity
  8
11000_Left
  6
Continuous
 62
     7
370
    13
100
AcDbLine
 10
214.9716627621085
 20
185.1347859095811
 30
0.0
 11
215.7716627621085
 21
185.1347859095811
 31
0.0
  0
LINE
  5
12DEC
330
1F
100
AcDbEntity
  8
11000_Left
  6
Continuous
 62
     7
370
    40
100
AcDbLine
 10
184.4716627621085
 20
194.6347859095811
 30
0.0
 11
186.9716627621085
 21
194.6347859095811
 31
0.0
  0
LINE
  5
12DED
330
1F
100
AcDbEntity
  8
11000_Left
  6
Continuous
 62
     7
370
    40
100
AcDbLine
 10
215.7716627621085
 20
185.1347859095811
 30
0.0
 11
215.7716627621085
 21
198.9347859095811
 31
0.0
  0
LINE
  5
12DEE
330
1F
100
AcDbEntity
  8
11000_Left
  6
Continuous
 62
     7
370
    13
100
AcDbLine
 10
183.4716627621085
 20
181.1347859095811
 30
0.0
 11
183.4716627621085
 21
193.6347859095811
 31
0.0
  0
LINE
  5
12DEF
330
1F
100
AcDbEntity
  8
11000_Left
  6
Continuous
 62
     7
370
    13
100
AcDbLine
 10
183.4716627621085
 20
194.6347859095811
 30
0.0
 11
183.4716627621085
 21
193.6347859095811
 31
0.0
  0
LINE
  5
12DF0
330
1F
100
AcDbEntity
  8
11000_Left
  6
Continuous
 62
     7
370
    40
100
AcDbLine
 10
186.9716627621085
 20
198.9347859095811
 30
0.0
 11
186.9716627621085
 21
194.6347859095811
 31
0.0
  0
LINE
  5
12DF1
330
1F
100
AcDbEntity
  8
11000_Left
  6
Continuous
 62
     7
370
    40
100
AcDbLine
 10
188.0716627621084
 20
199.1347859095811
 30
0.0
 11
187.1716627621085
 21
199.1347859095811
 31
0.0
  0
LINE
  5
12DF2
330
1F
100
AcDbEntity
  8
11000_Left
  6
Continuous
 62
     7
370
    40
100
AcDbLine
 10
215.5716527621085
 20
199.1347859095811
 30
0.0
 11
214.9716627621085
 21
199.1347859095811
 31
0.0
  0
LINE
  5
12DF3
330
1F
100
AcDbEntity
  8
11000_Left
  6
Continuous
 62
     7
370
    40
100
AcDbLine
 10
214.9716627621085
 20
199.1347859095811
 30
0.0
 11
214.3716427621084
 21
199.1347859095811
 31
0.0
  0
LINE
  5
12DF4
330
1F
100
AcDbEntity
  8
11000_Left
  6
Continuous
 62
     7
370
    40
100
AcDbLine
 10
214.3716627621086
 20
199.1347859095811
 30
0.0
 11
188.0716627621084
 21
199.1347859095811
 31
0.0
  0
LINE
  5
12DF5
330
1F
100
AcDbEntity
  8
11000_Left
  6
Continuous
 62
     7
370
    13
100
AcDbLine
 10
154.6716627621085
 20
190.6347859095811
 30
0.0
 11
174.6716627621085
 21
190.6347859095811
 31
0.0
  0
LINE
  5
12DF6
330
1F
100
AcDbEntity
  8
11000_Left
  6
Continuous
 62
     7
370
    13
100
AcDbLine
 10
174.6716627621085
 20
190.6347859095811
 30
0.0
 11
174.6716627621085
 21
194.6347859095811
 31
0.0
  0
LINE
  5
12DF9
330
1F
100
AcDbEntity
  8
11000_Left
  6
Continuous
 62
     7
370
    40
100
AcDbLine
 10
184.4716627621085
 20
194.6347859095811
 30
0.0
 11
174.6716627621085
 21
194.6347859095811
 31
0.0
  0
LINE
  5
12DFE
330
1F
100
AcDbEntity
  8
11000_Left
  6
Continuous
 62
     7
370
    13
100
AcDbLine
 10
154.6716627621085
 20
190.6347859095811
 30
0.0
 11
154.6716627621085
 21
194.5847859095811
 31
0.0
  0
LINE
  5
12E04
330
1F
100
AcDbEntity
  8
11000_Left
  6
HIDDEN
 62
     7
370
     9
100
AcDbLine
 10
167.6716627621085
 20
107.0347859095811
 30
0.0
 11
167.6716627621085
 21
115.0347859095811
 31
0.0
  0
LINE
  5
12E05
330
1F
100
AcDbEntity
  8
11000_Left
  6
HIDDEN
 62
     7
370
     9
100
AcDbLine
 10
167.6716627621085
 20
115.0347859095811
 30
0.0
 11
165.6716627621085
 21
115.0347859095811
 31
0.0
  0
LINE
  5
12E06
330
1F
100
AcDbEntity
  8
11000_Left
  6
HIDDEN
 62
     7
370
     9
100
AcDbLine
 10
165.6716627621085
 20
107.0347859095811
 30
0.0
 11
165.6716627621085
 21
115.0347859095811
 31
0.0
  0
LINE
  5
12E07
330
1F
100
AcDbEntity
  8
11000_Left
  6
HIDDEN
 62
     7
370
     9
100
AcDbLine
 10
196.6716627621085
 20
116.5347859095811
 30
0.0
 11
196.6716627621085
 21
124.5347859095811
 31
0.0
  0
LINE
  5
12E08
330
1F
100
AcDbEntity
  8
11000_Left
  6
HIDDEN
 62
     7
370
     9
100
AcDbLine
 10
196.6716627621085
 20
124.5347859095811
 30
0.0
 11
194.6716627621085
 21
124.5347859095811
 31
0.0
  0
LINE
  5
12E09
330
1F
100
AcDbEntity
  8
11000_Left
  6
HIDDEN
 62
     7
370
     9
100
AcDbLine
 10
194.6716627621085
 20
116.5347859095811
 30
0.0
 11
194.6716627621085
 21
124.5347859095811
 31
0.0
  0
LINE
  5
12E0A
330
1F
100
AcDbEntity
  8
11000_Left
  6
HIDDEN
 62
     7
370
     9
100
AcDbLine
 10
196.6716627621085
 20
199.1347859095811
 30
0.0
 11
196.6716627621085
 21
191.1347859095811
 31
0.0
  0
LINE
  5
12E0B
330
1F
100
AcDbEntity
  8
11000_Left
  6
HIDDEN
 62
     7
370
     9
100
AcDbLine
 10
196.6716627621085
 20
191.1347859095811
 30
0.0
 11
194.6716627621085
 21
191.1347859095811
 31
0.0
  0
LINE
  5
12E0C
330
1F
100
AcDbEntity
  8
11000_Left
  6
HIDDEN
 62
     7
370
     9
100
AcDbLine
 10
194.6716627621085
 20
199.1347859095811
 30
0.0
 11
194.6716627621085
 21
191.1347859095811
 31
0.0
  0
LINE
  5
12E10
330
1F
100
AcDbEntity
  8
11000_Left
  6
Continuous
 62
     7
370
    13
100
AcDbLine
 10
209.7716627621085
 20
149.8347859095811
 30
0.0
 11
209.6716627621086
 21
149.8347859095811
 31
0.0
  0
LINE
  5
12E11
330
1F
100
AcDbEntity
  8
11000_Left
  6
Continuous
 62
     7
370
    13
100
AcDbLine
 10
204.0716627621084
 20
130.5847859095811
 30
0.0
 11
203.4716527621085
 21
130.5847859095811
 31
0.0
  0
LINE
  5
12E12
330
1F
100
AcDbEntity
  8
11000_Left
  6
Continuous
 62
     7
370
    13
100
AcDbLine
 10
210.0716627621084
 20
130.5847859095811
 30
0.0
 11
204.0716627621084
 21
130.5847859095811
 31
0.0
  0
LINE
  5
12E13
330
1F
100
AcDbEntity
  8
11000_Left
  6
Continuous
 62
     7
370
    13
100
AcDbLine
 10
210.3716627621086
 20
130.5847859095811
 30
0.0
 11
210.0716627621084
 21
130.5847859095811
 31
0.0
  0
LINE
  5
12E14
330
1F
100
AcDbEntity
  8
11000_Left
  6
Continuous
 62
     7
370
    13
100
AcDbLine
 10
211.4688627621085
 20
130.5847859095811
 30
0.0
 11
210.3716627621086
 21
130.5847859095811
 31
0.0
  0
ARC
  5
12E15
330
1F
100
AcDbEntity
  8
11000_Left
  6
Continuous
 62
     7
370
    40
100
AcDbCircle
 10
129.4716627621086
 20
140.6347859095811
 30
0.0
 40
0.3
100
AcDbArc
 50
270.0
 51
0.0
  0
LINE
  5
12E16
330
1F
100
AcDbEntity
  8
11000_Left
  6
Continuous
 62
     7
370
    13
100
AcDbLine
 10
130.7716627621085
 20
131.934785909581
 30
0.0
 11
129.2716627621085
 21
131.934785909581
 31
0.0
  0
LINE
  5
12E17
330
1F
100
AcDbEntity
  8
11000_Left
  6
Continuous
 62
     7
370
    13
100
AcDbLine
 10
130.7716627621085
 20
136.4347859095811
 30
0.0
 11
130.7716627621085
 21
131.934785909581
 31
0.0
  0
LINE
  5
12E18
330
1F
100
AcDbEntity
  8
11000_Left
  6
Continuous
 62
     7
370
    13
100
AcDbLine
 10
129.2716627621085
 20
131.934785909581
 30
0.0
 11
129.2716627621085
 21
136.4347859095811
 31
0.0
  0
LINE
  5
12E19
330
1F
100
AcDbEntity
  8
11000_Left
  6
Continuous
 62
     7
370
    13
100
AcDbLine
 10
129.2716627621085
 20
136.4347859095811
 30
0.0
 11
130.7716627621085
 21
136.4347859095811
 31
0.0
  0
LINE
  5
12E1A
330
1F
100
AcDbEntity
  8
11000_Left
  6
Continuous
 62
     7
370
    40
100
AcDbLine
 10
129.4716627621086
 20
140.3347859095811
 30
0.0
 11
128.9518527621086
 21
140.3347859095811
 31
0.0
  0
LINE
  5
12E1B
330
1F
100
AcDbEntity
  8
11000_Left
  6
Continuous
 62
     7
370
    13
100
AcDbLine
 10
210.0716627621084
 20
130.5847859095811
 30
0.0
 11
209.6716627621086
 21
130.984785909581
 31
0.0
  0
LINE
  5
12E1F
330
1F
100
AcDbEntity
  8
11000_Left
  6
Continuous
 62
     7
370
    40
100
AcDbLine
 10
126.6710627621085
 20
141.7347859095811
 30
0.0
 11
124.8848727621085
 21
140.4840759095811
 31
0.0
  0
ARC
  5
12E20
330
1F
100
AcDbEntity
  8
11000_Left
  6
Continuous
 62
     7
370
    40
100
AcDbCircle
 10
128.9518527621086
 20
140.6347859095811
 30
0.0
 40
0.3
100
AcDbArc
 50
194.9999999999979
 51
270.0
  0
LINE
  5
12E21
330
1F
100
AcDbEntity
  8
11000_Left
  6
Continuous
 62
     7
370
    40
100
AcDbLine
 10
128.6620827621085
 20
140.5571359095811
 30
0.0
 11
128.3465327621085
 21
141.7347859095811
 31
0.0
  0
LINE
  5
12E22
330
1F
100
AcDbEntity
  8
11000_Left
  6
Continuous
 62
     7
370
    40
100
AcDbLine
 10
128.3465327621085
 20
141.7347859095811
 30
0.0
 11
126.6710627621085
 21
141.7347859095811
 31
0.0
  0
LINE
  5
12E23
330
1F
100
AcDbEntity
  8
11000_Left
  6
Continuous
 62
     7
370
    13
100
AcDbLine
 10
129.4716627621086
 20
143.9847859095811
 30
0.0
 11
129.4716627621086
 21
145.9847859095811
 31
0.0
  0
LINE
  5
12E24
330
1F
100
AcDbEntity
  8
11000_Left
  6
Continuous
 62
     7
370
    13
100
AcDbLine
 10
129.7716627621085
 20
146.2847859095811
 30
0.0
 11
129.4716627621086
 21
145.9847859095811
 31
0.0
  0
LINE
  5
12E25
330
1F
100
AcDbEntity
  8
11000_Left
  6
Continuous
 62
     7
370
    13
100
AcDbLine
 10
129.4716627621086
 20
143.9847859095811
 30
0.0
 11
129.7716627621085
 21
143.6847859095811
 31
0.0
  0
LINE
  5
12E26
330
1F
100
AcDbEntity
  8
11000_Left
  6
Continuous
 62
     7
370
    13
100
AcDbLine
 10
129.7716627621085
 20
149.8347859095811
 30
0.0
 11
129.7716627621085
 21
149.9347759095811
 31
0.0
  0
LINE
  5
12E27
330
1F
100
AcDbEntity
  8
11000_Left
  6
Continuous
 62
     7
370
    40
100
AcDbLine
 10
129.7716627621085
 20
149.8347859095811
 30
0.0
 11
129.7716627621085
 21
140.6347859095811
 31
0.0
  0
ARC
  5
12E28
330
1F
100
AcDbEntity
  8
11000_Left
  6
Continuous
 62
     7
370
    40
100
AcDbCircle
 10
125.1716627621084
 20
140.0744959095811
 30
0.0
 40
0.5
100
AcDbArc
 50
124.9999999999977
 51
180.0
  0
LINE
  5
12E29
330
1F
100
AcDbEntity
  8
11000_Left
  6
Continuous
 62
     7
370
    13
100
AcDbLine
 10
209.6716627621086
 20
130.984785909581
 30
0.0
 11
209.6716627621086
 21
149.8347859095811
 31
0.0
  0
LINE
  5
12E2A
330
1F
100
AcDbEntity
  8
11000_Left
  6
Continuous
 62
     7
370
    13
100
AcDbLine
 10
154.6716627621085
 20
121.0847859095811
 30
0.0
 11
154.5716627621084
 21
121.0847859095811
 31
0.0
  0
LINE
  5
12E2B
330
1F
100
AcDbEntity
  8
11000_Left
  6
Continuous
 62
     7
370
    13
100
AcDbLine
 10
129.7716627621085
 20
193.5847859095811
 30
0.0
 11
129.7716627621085
 21
194.5847859095811
 31
0.0
  0
LINE
  5
12E2C
330
1F
100
AcDbEntity
  8
11000_Left
  6
Continuous
 62
     7
370
    40
100
AcDbLine
 10
154.5716627621084
 20
194.5847859095811
 30
0.0
 11
154.6716627621085
 21
194.5847859095811
 31
0.0
  0
LINE
  5
12E2D
330
1F
100
AcDbEntity
  8
11000_Left
  6
Continuous
 62
     7
370
    40
100
AcDbLine
 10
129.7716627621085
 20
178.0847859095811
 30
0.0
 11
129.7716627621085
 21
149.9347859095811
 31
0.0
  0
ARC
  5
12E2E
330
1F
100
AcDbEntity
  8
11000_Left
  6
Continuous
 62
     7
370
    40
100
AcDbCircle
 10
129.2716627621085
 20
178.0847859095811
 30
0.0
 40
0.5
100
AcDbArc
 50
0.0
 51
90.0
  0
LINE
  5
12E2F
330
1F
100
AcDbEntity
  8
11000_Left
  6
Continuous
 62
     7
370
    13
100
AcDbLine
 10
124.6716627621084
 20
174.6491459095811
 30
0.0
 11
124.6716627621084
 21
175.1847759095811
 31
0.0
  0
LINE
  5
12E30
330
1F
100
AcDbEntity
  8
11000_Left
  6
Continuous
 62
     7
370
    13
100
AcDbLine
 10
124.6716627621084
 20
173.6347859095811
 30
0.0
 11
124.6716627621084
 21
174.6491459095811
 31
0.0
  0
LINE
  5
12E31
330
1F
100
AcDbEntity
  8
11000_Left
  6
Continuous
 62
     7
370
    13
100
AcDbLine
 10
124.6716627621084
 20
173.6347859095811
 30
0.0
 11
126.1716627621084
 21
172.4347859095811
 31
0.0
  0
LINE
  5
12E32
330
1F
100
AcDbEntity
  8
11000_Left
  6
Continuous
 62
     7
370
    40
100
AcDbLine
 10
126.7788427621084
 20
173.9847859095811
 30
0.0
 11
127.4716627621086
 21
175.1847859095811
 31
0.0
  0
LINE
  5
12E33
330
1F
100
AcDbEntity
  8
11000_Left
  6
Continuous
 62
     7
370
    40
100
AcDbLine
 10
127.4716627621086
 20
175.1847859095811
 30
0.0
 11
127.4716627621086
 21
178.0847859095811
 31
0.0
  0
ARC
  5
12E34
330
1F
100
AcDbEntity
  8
11000_Left
  6
Continuous
 62
     7
370
    40
100
AcDbCircle
 10
127.9716627621086
 20
178.0847859095811
 30
0.0
 40
0.5
100
AcDbArc
 50
90.0
 51
180.0
  0
LINE
  5
12E35
330
1F
100
AcDbEntity
  8
11000_Left
  6
Continuous
 62
     7
370
    40
100
AcDbLine
 10
124.6716627621084
 20
175.1847859095811
 30
0.0
 11
126.1716627621084
 21
173.9847859095811
 31
0.0
  0
LINE
  5
12E36
330
1F
100
AcDbEntity
  8
11000_Left
  6
Continuous
 62
     7
370
    40
100
AcDbLine
 10
126.1716627621084
 20
173.9847859095811
 30
0.0
 11
126.7788427621084
 21
173.9847859095811
 31
0.0
  0
LINE
  5
12E37
330
1F
100
AcDbEntity
  8
11000_Left
  6
Continuous
 62
     7
370
    40
100
AcDbLine
 10
127.9716627621086
 20
178.5847859095811
 30
0.0
 11
129.2716627621085
 21
178.5847859095811
 31
0.0
  0
LINE
  5
12E38
330
1F
100
AcDbEntity
  8
11000_Left
  6
Continuous
 62
     7
370
    13
100
AcDbLine
 10
127.9130627621085
 20
172.4347859095811
 30
0.0
 11
128.3716627621085
 21
173.9347859095811
 31
0.0
  0
LINE
  5
12E39
330
1F
100
AcDbEntity
  8
11000_Left
  6
Continuous
 62
     7
370
    13
100
AcDbLine
 10
129.1716627621084
 20
173.9347859095811
 30
0.0
 11
129.7716627621085
 21
173.9347859095811
 31
0.0
  0
LINE
  5
12E3A
330
1F
100
AcDbEntity
  8
11000_Left
  6
Continuous
 62
     7
370
    13
100
AcDbLine
 10
128.3716627621085
 20
173.9347859095811
 30
0.0
 11
129.1716627621084
 21
173.9347859095811
 31
0.0
  0
LINE
  5
12E3B
330
1F
100
AcDbEntity
  8
11000_Left
  6
Continuous
 62
     7
370
    13
100
AcDbLine
 10
126.1716627621084
 20
172.4347859095811
 30
0.0
 11
127.0716627621085
 21
172.4347859095811
 31
0.0
  0
LINE
  5
12E3C
330
1F
100
AcDbEntity
  8
11000_Left
  6
Continuous
 62
     7
370
    13
100
AcDbLine
 10
127.9130627621085
 20
172.4347859095811
 30
0.0
 11
127.0716627621085
 21
172.4347859095811
 31
0.0
  0
LINE
  5
12E3D
330
1F
100
AcDbEntity
  8
11000_Left
  6
Continuous
 62
     7
370
    13
100
AcDbLine
 10
209.6716627621086
 20
180.4847859095811
 30
0.0
 11
210.3716627621086
 21
180.4847859095811
 31
0.0
  0
ARC
  5
12E3E
330
1F
100
AcDbEntity
  8
11000_Left
  6
Continuous
 62
     7
370
    40
100
AcDbCircle
 10
186.7716627621084
 20
107.2347859095811
 30
0.0
 40
0.2
100
AcDbArc
 50
269.9997900000049
 51
0.0
  0
LINE
  5
12E3F
330
1F
100
AcDbEntity
  8
11000_Left
  6
Continuous
 62
     7
370
    13
100
AcDbLine
 10
174.6716627621085
 20
125.0347859095811
 30
0.0
 11
174.6716627621085
 21
121.0347859095811
 31
0.0
  0
LINE
  5
12E40
330
1F
100
AcDbEntity
  8
11000_Left
  6
Continuous
 62
     7
370
    13
100
AcDbLine
 10
154.6716627621085
 20
125.0347859095811
 30
0.0
 11
174.6716627621085
 21
125.0347859095811
 31
0.0
  0
ARC
  5
12E41
330
1F
100
AcDbEntity
  8
11000_Left
  6
Continuous
 62
     7
370
    40
100
AcDbCircle
 10
158.3716627621086
 20
107.2347859095811
 30
0.0
 40
0.2
100
AcDbArc
 50
180.0
 51
270.0
  0
LINE
  5
12E42
330
1F
100
AcDbEntity
  8
11000_Left
  6
Continuous
 62
     7
370
    13
100
AcDbLine
 10
186.1716627621085
 20
121.0347859095811
 30
0.0
 11
174.6716627621085
 21
121.0347859095811
 31
0.0
  0
LINE
  5
12E43
330
1F
100
AcDbEntity
  8
11000_Left
  6
Continuous
 62
     7
370
    40
100
AcDbLine
 10
186.9716627621085
 20
107.2347859095811
 30
0.0
 11
186.9716627621085
 21
116.7347859095811
 31
0.0
  0
LINE
  5
12E45
330
1F
100
AcDbEntity
  8
11000_Left
  6
Continuous
 62
     7
370
    13
100
AcDbLine
 10
154.6716627621085
 20
125.0347859095811
 30
0.0
 11
154.6716627621085
 21
121.0847859095811
 31
0.0
  0
LINE
  5
12E46
330
1F
100
AcDbEntity
  8
11000_Left
  6
Continuous
 62
     7
370
    40
100
AcDbLine
 10
158.1716627621085
 20
111.5347859095811
 30
0.0
 11
158.1716627621085
 21
107.2347859095811
 31
0.0
  0
LINE
  5
12E47
330
1F
100
AcDbEntity
  8
11000_Left
  6
Continuous
 62
     7
370
    40
100
AcDbLine
 10
158.3716627621086
 20
107.0347859095811
 30
0.0
 11
159.2716627621084
 21
107.0347859095811
 31
0.0
  0
LINE
  5
12E48
330
1F
100
AcDbEntity
  8
11000_Left
  6
Continuous
 62
     7
370
    40
100
AcDbLine
 10
185.5716627621084
 20
107.0347859095811
 30
0.0
 11
159.2716627621084
 21
107.0347859095811
 31
0.0
  0
LINE
  5
12E49
330
1F
100
AcDbEntity
  8
11000_Left
  6
Continuous
 62
     7
370
    40
100
AcDbLine
 10
185.5716627621084
 20
107.0347859095811
 30
0.0
 11
186.1716627621085
 21
107.0347859095811
 31
0.0
  0
LINE
  5
12E4A
330
1F
100
AcDbEntity
  8
11000_Left
  6
Continuous
 62
     7
370
    40
100
AcDbLine
 10
186.1716627621085
 20
107.0347859095811
 30
0.0
 11
186.7716527621085
 21
107.0347859095811
 31
0.0
  0
LINE
  5
12E4B
330
1F
100
AcDbEntity
  8
11000_Left
  6
Continuous
 62
     7
370
    13
100
AcDbLine
 10
211.8716427621084
 20
173.2347859095811
 30
0.0
 11
211.8716427621084
 21
173.3347859095811
 31
0.0
  0
LINE
  5
12E4C
330
1F
100
AcDbEntity
  8
11000_Left
  6
Continuous
 62
     7
370
    13
100
AcDbLine
 10
211.8716427621084
 20
169.3347859095811
 30
0.0
 11
211.8716427621084
 21
169.434785909581
 31
0.0
  0
LINE
  5
12E4D
330
1F
100
AcDbEntity
  8
11000_Left
  6
Continuous
 62
     7
370
    13
100
AcDbLine
 10
213.6716427621085
 20
146.3347859095811
 30
0.0
 11
213.6716427621085
 21
142.3347859095811
 31
0.0
  0
LINE
  5
12E4E
330
1F
100
AcDbEntity
  8
11000_Left
  6
Continuous
 62
     7
370
    13
100
AcDbLine
 10
211.8716427621084
 20
146.3347859095811
 30
0.0
 11
213.6716427621085
 21
146.3347859095811
 31
0.0
  0
LINE
  5
12E4F
330
1F
100
AcDbEntity
  8
11000_Left
  6
Continuous
 62
     7
370
    13
100
AcDbLine
 10
213.6716427621085
 20
142.3347859095811
 30
0.0
 11
211.8716427621084
 21
142.3347859095811
 31
0.0
  0
LINE
  5
12E50
330
1F
100
AcDbEntity
  8
11000_Left
  6
Continuous
 62
     7
370
    13
100
AcDbLine
 10
211.4688627621085
 20
130.5847859095811
 30
0.0
 11
214.9716627621085
 21
130.5847859095811
 31
0.0
  0
LINE
  5
12E51
330
1F
100
AcDbEntity
  8
11000_Left
  6
Continuous
 62
     7
370
    13
100
AcDbLine
 10
215.7716627621085
 20
130.5847859095811
 30
0.0
 11
214.9716627621085
 21
130.5847859095811
 31
0.0
  0
LINE
  5
12E52
330
1F
100
AcDbEntity
  8
11000_Left
  6
Continuous
 62
     7
370
    40
100
AcDbLine
 10
214.3716427621084
 20
116.5347859095811
 30
0.0
 11
214.3716627621086
 21
116.5347859095811
 31
0.0
  0
ARC
  5
12E53
330
1F
100
AcDbEntity
  8
11000_Left
  6
Continuous
 62
     7
370
    40
100
AcDbCircle
 10
215.5716627621084
 20
116.7347859095811
 30
0.0
 40
0.2
100
AcDbArc
 50
269.9997700000029
 51
0.0
  0
LINE
  5
12E54
330
1F
100
AcDbEntity
  8
11000_Left
  6
Continuous
 62
     7
370
    13
100
AcDbLine
 10
203.4716627621085
 20
134.5347859095811
 30
0.0
 11
203.4716627621085
 21
130.5347859095811
 31
0.0
  0
LINE
  5
12E55
330
1F
100
AcDbEntity
  8
11000_Left
  6
Continuous
 62
     7
370
    13
100
AcDbLine
 10
183.4716627621085
 20
134.5347859095811
 30
0.0
 11
203.4716627621085
 21
134.5347859095811
 31
0.0
  0
ARC
  5
12E56
330
1F
100
AcDbEntity
  8
11000_Left
  6
Continuous
 62
     7
370
    13
100
AcDbCircle
 10
187.1716627621085
 20
116.7347859095811
 30
0.0
 40
0.2
100
AcDbArc
 50
180.0
 51
270.0
  0
LINE
  5
12E57
330
1F
100
AcDbEntity
  8
11000_Left
  6
Continuous
 62
     7
370
    13
100
AcDbLine
 10
215.7716627621085
 20
130.5347859095811
 30
0.0
 11
214.9716627621085
 21
130.5347859095811
 31
0.0
  0
LINE
  5
12E58
330
1F
100
AcDbEntity
  8
11000_Left
  6
Continuous
 62
     7
370
    13
100
AcDbLine
 10
214.9716627621085
 20
130.5347859095811
 30
0.0
 11
203.4716627621085
 21
130.5347859095811
 31
0.0
  0
LINE
  5
12E59
330
1F
100
AcDbEntity
  8
11000_Left
  6
Continuous
 62
     7
370
    13
100
AcDbLine
 10
186.1716627621085
 20
121.0347859095811
 30
0.0
 11
186.9716627621085
 21
121.0347859095811
 31
0.0
  0
LINE
  5
12E5A
330
1F
100
AcDbEntity
  8
11000_Left
  6
Continuous
 62
     7
370
    40
100
AcDbLine
 10
215.7716627621085
 20
116.7347859095811
 30
0.0
 11
215.7716627621085
 21
130.5347859095811
 31
0.0
  0
LINE
  5
12E5B
330
1F
100
AcDbEntity
  8
11000_Left
  6
Continuous
 62
     7
370
    13
100
AcDbLine
 10
183.4716627621085
 20
134.5347859095811
 30
0.0
 11
183.4716627621085
 21
122.0347859095811
 31
0.0
  0
LINE
  5
12E5C
330
1F
100
AcDbEntity
  8
11000_Left
  6
Continuous
 62
     7
370
    13
100
AcDbLine
 10
183.4716627621085
 20
122.0347859095811
 30
0.0
 11
183.4716627621085
 21
121.0347859095811
 31
0.0
  0
LINE
  5
12E5D
330
1F
100
AcDbEntity
  8
11000_Left
  6
Continuous
 62
     7
370
    13
100
AcDbLine
 10
186.9716627621085
 20
121.0347859095811
 30
0.0
 11
186.9716627621085
 21
116.7347859095811
 31
0.0
  0
LINE
  5
12E5E
330
1F
100
AcDbEntity
  8
11000_Left
  6
Continuous
 62
     7
370
    13
100
AcDbLine
 10
187.1716627621085
 20
116.5347859095811
 30
0.0
 11
188.0716627621084
 21
116.5347859095811
 31
0.0
  0
LINE
  5
12E5F
330
1F
100
AcDbEntity
  8
11000_Left
  6
Continuous
 62
     7
370
    40
100
AcDbLine
 10
214.3716627621086
 20
116.5347859095811
 30
0.0
 11
188.0716627621084
 21
116.5347859095811
 31
0.0
  0
LINE
  5
12E60
330
1F
100
AcDbEntity
  8
11000_Left
  6
Continuous
 62
     7
370
    40
100
AcDbLine
 10
214.3716627621086
 20
116.5347859095811
 30
0.0
 11
214.9716627621085
 21
116.5347859095811
 31
0.0
  0
LINE
  5
12E61
330
1F
100
AcDbEntity
  8
11000_Left
  6
Continuous
 62
     7
370
    40
100
AcDbLine
 10
214.9716627621085
 20
116.5347859095811
 30
0.0
 11
215.5716527621085
 21
116.5347859095811
 31
0.0
  0
LINE
  5
12E62
330
1F
100
AcDbEntity
  8
11000_Left
  6
Continuous
 62
     7
370
    40
100
AcDbLine
 10
214.9716627621085
 20
199.1347859095811
 30
0.0
 11
214.9716527621085
 21
199.1347859095811
 31
0.0
  0
LINE
  5
12E63
330
1F
100
AcDbEntity
  8
11000_Left
  6
Continuous
 62
     7
370
    13
100
AcDbLine
 10
183.4716627621085
 20
181.1347859095811
 30
0.0
 11
203.4716627621085
 21
181.1347859095811
 31
0.0
  0
LINE
  5
12E64
330
1F
100
AcDbEntity
  8
11000_Left
  6
Continuous
 62
     7
370
    13
100
AcDbLine
 10
203.4716627621085
 20
181.1347859095811
 30
0.0
 11
203.4716627621085
 21
185.1347859095811
 31
0.0
  0
ARC
  5
12E65
330
1F
100
AcDbEntity
  8
11000_Left
  6
Continuous
 62
     7
370
    40
100
AcDbCircle
 10
215.5716627621084
 20
198.9347859095811
 30
0.0
 40
0.2
100
AcDbArc
 50
0.0
 51
90.0004430000029
  0
ARC
  5
12E66
330
1F
100
AcDbEntity
  8
11000_Left
  6
Continuous
 62
     7
370
    40
100
AcDbCircle
 10
187.1716627621085
 20
198.9347859095811
 30
0.0
 40
0.2
100
AcDbArc
 50
90.0
 51
180.0
  0
LINE
  5
12E67
330
1F
100
AcDbEntity
  8
11000_Left
  6
Continuous
 62
     7
370
    13
100
AcDbLine
 10
214.9716627621085
 20
185.1347859095811
 30
0.0
 11
203.4716627621085
 21
185.1347859095811
 31
0.0
  0
LINE
  5
12E68
330
1F
100
AcDbEntity
  8
11000_Left
  6
Continuous
 62
     7
370
    13
100
AcDbLine
 10
214.9716627621085
 20
185.1347859095811
 30
0.0
 11
215.7716627621085
 21
185.1347859095811
 31
0.0
  0
LINE
  5
12E69
330
1F
100
AcDbEntity
  8
11000_Left
  6
Continuous
 62
     7
370
    40
100
AcDbLine
 10
215.7716627621085
 20
185.1347859095811
 30
0.0
 11
215.7716627621085
 21
198.9347859095811
 31
0.0
  0
LINE
  5
12E6A
330
1F
100
AcDbEntity
  8
11000_Left
  6
Continuous
 62
     7
370
    13
100
AcDbLine
 10
183.4716627621085
 20
181.1347859095811
 30
0.0
 11
183.4716627621085
 21
193.6347859095811
 31
0.0
  0
LINE
  5
12E6B
330
1F
100
AcDbEntity
  8
11000_Left
  6
Continuous
 62
     7
370
    13
100
AcDbLine
 10
183.4716627621085
 20
194.6347859095811
 30
0.0
 11
183.4716627621085
 21
193.6347859095811
 31
0.0
  0
LINE
  5
12E6C
330
1F
100
AcDbEntity
  8
11000_Left
  6
Continuous
 62
     7
370
    40
100
AcDbLine
 10
186.9716627621085
 20
198.9347859095811
 30
0.0
 11
186.9716627621085
 21
194.6347859095811
 31
0.0
  0
LINE
  5
12E6D
330
1F
100
AcDbEntity
  8
11000_Left
  6
Continuous
 62
     7
370
    40
100
AcDbLine
 10
188.0716627621084
 20
199.1347859095811
 30
0.0
 11
187.1716627621085
 21
199.1347859095811
 31
0.0
  0
LINE
  5
12E6E
330
1F
100
AcDbEntity
  8
11000_Left
  6
Continuous
 62
     7
370
    40
100
AcDbLine
 10
215.5716527621085
 20
199.1347859095811
 30
0.0
 11
214.9716627621085
 21
199.1347859095811
 31
0.0
  0
LINE
  5
12E6F
330
1F
100
AcDbEntity
  8
11000_Left
  6
Continuous
 62
     7
370
    40
100
AcDbLine
 10
214.9716627621085
 20
199.1347859095811
 30
0.0
 11
214.3716427621084
 21
199.1347859095811
 31
0.0
  0
LINE
  5
12E70
330
1F
100
AcDbEntity
  8
11000_Left
  6
Continuous
 62
     7
370
    40
100
AcDbLine
 10
214.3716627621086
 20
199.1347859095811
 30
0.0
 11
188.0716627621084
 21
199.1347859095811
 31
0.0
  0
DIMENSION
  5
131A4
330
1F
100
AcDbEntity
  8
11100_LEFT_DIM
  6
Continuous
 62
     7
370
    13
100
AcDbDimension
  2
*D14
 10
230.1630160126283
 20
107.0347859095811
 30
0.0
 11
230.1630160126283
 21
153.0847859095811
 31
0.0
 70
    32
 71
     5
 42
92.10000000000002
  3
DSTYLE1
100
AcDbAlignedDimension
 13
215.5716627621084
 23
199.1347859095811
 33
0.0
 14
186.7716627621084
 24
107.0347859095811
 34
0.0
 50
90.0
100
AcDbRotatedDimension
1001
ACAD
1000
DSTYLE
1002
{
1070
    41
1040
2.0
1070
    42
1040
1.0
1070
    43
1040
1.0
1070
    47
1040
0.005
1070
    48
1040
-0.005
1070
    77
1070
     0
1070
    78
1070
     0
1070
   140
1040
3.5
1070
   143
1040
25.4
1070
   171
1070
     0
1070
   172
1070
     1
1070
   271
1070
     0
1070
   272
1070
     1
1070
   277
1070
     6
1070
   279
1070
     0
1002
}
  0
LINE
  5
1322E
330
1F
100
AcDbEntity
  8
11000_Left
  6
Continuous
 62
     7
370
    40
100
AcDbLine
 10
154.6716627621085
 20
121.0847859095811
 30
0.0
 11
154.6716627621085
 21
111.5347859095811
 31
0.0
  0
ENDSEC
  0
SECTION
  2
OBJECTS
  0
DICTIONARY
  5
C
330
0
100
AcDbDictionary
281
     1
  3
ACAD_COLOR
350
6B
  3
ACAD_GROUP
350
D
  3
ACAD_LAYOUT
350
1A
  3
ACAD_MATERIAL
350
6A
  3
ACAD_MLINESTYLE
350
17
  3
ACAD_PLOTSETTINGS
350
19
  3
ACAD_PLOTSTYLENAME
350
E
  3
ACDBHEADERROUNDTRIPXREC
350
13363
  3
AcDbVariableDictionary
350
5E
  3
DWGPROPS
350
13362
  0
DICTIONARY
  5
6B
102
{ACAD_REACTORS
330
C
102
}
330
C
100
AcDbDictionary
281
     1
  0
DICTIONARY
  5
D
102
{ACAD_REACTORS
330
C
102
}
330
C
100
AcDbDictionary
281
     1
  0
DICTIONARY
  5
1A
102
{ACAD_REACTORS
330
C
102
}
330
C
100
AcDbDictionary
281
     1
  3
Layout1
350
51
  3
Layout2
350
56
  3
Model
350
22
  0
DICTIONARY
  5
6A
102
{ACAD_REACTORS
330
C
102
}
330
C
100
AcDbDictionary
281
     1
  0
DICTIONARY
  5
17
102
{ACAD_REACTORS
330
C
102
}
330
C
100
AcDbDictionary
281
     1
  3
Standard
350
18
  0
DICTIONARY
  5
19
102
{ACAD_REACTORS
330
C
102
}
330
C
100
AcDbDictionary
281
     1
  0
ACDBDICTIONARYWDFLT
  5
E
102
{ACAD_REACTORS
330
C
102
}
330
C
100
AcDbDictionary
281
     1
  3
Normal
350
F
100
AcDbDictionaryWithDefault
340
F
  0
DICTIONARY
  5
13363
102
{ACAD_REACTORS
330
C
102
}
330
C
100
AcDbDictionary
281
     1
  3
COLORDICT
350
13365
  3
MATERIALDICT
350
13364
  0
DICTIONARY
  5
5E
102
{ACAD_REACTORS
330
C
102
}
330
C
100
AcDbDictionary
281
     1
  3
DIMASSOC
350
5F
  3
HIDETEXT
350
63
  3
PROJECTNAME
350
876
  0
XRECORD
  5
13362
102
{ACAD_REACTORS
330
C
102
}
330
C
100
AcDbXrecord
280
     1
  1
DWGPROPS COOKIE
  2

  3

  4

  6

  7

  8

  9

300
=
301
=
302
=
303
=
304
=
305
=
306
=
307
=
308
=
309
=
 40
0.8542313310185186
 41
2453200.47923772
 42
2453434.506064861
  1

 90
        0
  0
LAYOUT
  5
51
102
{ACAD_XDICTIONARY
360
13368
102
}
102
{ACAD_REACTORS
330
1A
102
}
330
1A
100
AcDbPlotSettings
  1

  2
None
  4

  6

 40
0.0
 41
0.0
 42
0.0
 43
0.0
 44
0.0
 45
0.0
 46
0.0
 47
0.0
 48
0.0
 49
0.0
140
0.0
141
0.0
142
1.0
143
1.0
 70
   688
 72
     0
 73
     0
 74
     5
  7

 75
    16
147
1.0
148
0.0
149
0.0
100
AcDbLayout
  1
Layout1
 70
     1
 71
     1
 10
0.0
 20
0.0
 11
12.0
 21
9.0
 12
0.0
 22
0.0
 32
0.0
 14
0.0
 24
0.0
 34
0.0
 15
0.0
 25
0.0
 35
0.0
146
0.0
 13
0.0
 23
0.0
 33
0.0
 16
1.0
 26
0.0
 36
0.0
 17
0.0
 27
1.0
 37
0.0
 76
     0
330
50
  0
LAYOUT
  5
56
102
{ACAD_XDICTIONARY
360
1336A
102
}
102
{ACAD_REACTORS
330
1A
102
}
330
1A
100
AcDbPlotSettings
  1

  2
None
  4

  6

 40
0.0
 41
0.0
 42
0.0
 43
0.0
 44
0.0
 45
0.0
 46
0.0
 47
0.0
 48
0.0
 49
0.0
140
0.0
141
0.0
142
1.0
143
1.0
 70
   688
 72
     0
 73
     0
 74
     5
  7

 75
    16
147
1.0
148
0.0
149
0.0
100
AcDbLayout
  1
Layout2
 70
     1
 71
     2
 10
0.0
 20
0.0
 11
12.0
 21
9.0
 12
0.0
 22
0.0
 32
0.0
 14
0.0
 24
0.0
 34
0.0
 15
0.0
 25
0.0
 35
0.0
146
0.0
 13
0.0
 23
0.0
 33
0.0
 16
1.0
 26
0.0
 36
0.0
 17
0.0
 27
1.0
 37
0.0
 76
     0
330
55
  0
LAYOUT
  5
22
102
{ACAD_XDICTIONARY
360
13366
102
}
102
{ACAD_REACTORS
330
1A
102
}
330
1A
100
AcDbPlotSettings
  1

  2
\\AMBW779A\A_P00873 (Canon iR2200-3300 PCL6)
  4
A4
  6

 40
4.815416812896728
 41
4.815412044525146
 42
4.815414428710936
 43
4.8154296875
 44
209.9733276367186
 45
296.9259948730469
 46
0.0
 47
0.0
 48
0.0
 49
0.0
140
0.0
141
0.0
142
1.0
143
0.9984717142117519
 70
 11952
 72
     1
 73
     1
 74
     1
  7

 75
     0
147
1.001530625020714
148
7.764982259430552
149
-50.20394972456142
100
AcDbLayout
  1
Model
 70
     1
 71
     0
 10
0.0
 20
0.0
 11
12.0
 21
9.0
 12
0.0
 22
0.0
 32
0.0
 14
0.0
 24
0.0
 34
0.0
 15
0.0
 25
0.0
 35
0.0
146
0.0
 13
0.0
 23
0.0
 33
0.0
 16
1.0
 26
0.0
 36
0.0
 17
0.0
 27
1.0
 37
0.0
 76
     0
330
1F
  0
MLINESTYLE
  5
18
102
{ACAD_REACTORS
330
17
102
}
330
17
100
AcDbMlineStyle
  2
STANDARD
 70
     0
  3

 62
   256
 51
90.0
 52
90.0
 71
     2
 49
0.5
 62
   256
  6
BYLAYER
 49
-0.5
 62
   256
  6
BYLAYER
  0
ACDBPLACEHOLDER
  5
F
102
{ACAD_REACTORS
330
E
102
}
330
E
  0
XRECORD
  5
13365
102
{ACAD_REACTORS
330
13363
102
}
330
13363
100
AcDbXrecord
280
     1
340
6B
  0
XRECORD
  5
13364
102
{ACAD_REACTORS
330
13363
102
}
330
13363
100
AcDbXrecord
280
     1
340
6A
  0
DICTIONARYVAR
  5
5F
102
{ACAD_REACTORS
330
5E
102
}
330
5E
100
DictionaryVariables
280
     0
  1
2
  0
DICTIONARYVAR
  5
63
102
{ACAD_REACTORS
330
5E
102
}
330
5E
100
DictionaryVariables
280
     0
  1
1
  0
DICTIONARYVAR
  5
876
102
{ACAD_REACTORS
330
5E
102
}
330
5E
100
DictionaryVariables
280
     0
  1

  0
DICTIONARY
  5
13368
330
51
100
AcDbDictionary
280
     1
281
     1
  3
ACAD_XREC_ROUNDTRIP
360
13369
  0
DICTIONARY
  5
1336A
330
56
100
AcDbDictionary
280
     1
281
     1
  3
ACAD_XREC_ROUNDTRIP
360
1336B
  0
DICTIONARY
  5
13366
330
22
100
AcDbDictionary
280
     1
281
     1
  3
ACAD_XREC_ROUNDTRIP
360
13367
  0
XRECORD
  5
13369
102
{ACAD_REACTORS
330
13368
102
}
330
13368
100
AcDbXrecord
280
     1
102
SHADEPLOT
 70
     0
102
SHADEPLOTRESLEVEL
 70
     2
102
SHADEPLOTCUSTOMDPI
 70
   300
  0
XRECORD
  5
1336B
102
{ACAD_REACTORS
330
1336A
102
}
330
1336A
100
AcDbXrecord
280
     1
102
SHADEPLOT
 70
     0
102
SHADEPLOTRESLEVEL
 70
     2
102
SHADEPLOTCUSTOMDPI
 70
   300
  0
XRECORD
  5
13367
102
{ACAD_REACTORS
330
13366
102
}
330
13366
100
AcDbXrecord
280
     1
102
SHADEPLOT
 70
     0
102
SHADEPLOTRESLEVEL
 70
     2
102
SHADEPLOTCUSTOMDPI
 70
   300
  0
ENDSEC
  0
EOF
