  0
SECTION
  2
HEADER
  9
$ACADVER
  1
AC1015
  9
$ACADMAINTVER
 70
    20
  9
$DWGCODEPAGE
  3
ANSI_1252
  9
$INSBASE
 10
0.0
 20
0.0
 30
0.0
  9
$EXTMIN
 10
1055.918444335711
 20
202.257037917318
 30
0.0
  9
$EXTMAX
 10
1325.918444335711
 20
402.2570379173179
 30
0.0
  9
$LIMMIN
 10
0.0
 20
0.0
  9
$LIMMAX
 10
420.0
 20
297.0
  9
$ORTHOMODE
 70
     0
  9
$REGENMODE
 70
     1
  9
$FILLMODE
 70
     1
  9
$QTEXTMODE
 70
     0
  9
$MIRRTEXT
 70
     1
  9
$LTSCALE
 40
1.0
  9
$ATTMODE
 70
     1
  9
$TEXTSIZE
 40
2.5
  9
$TRACEWID
 40
1.0
  9
$TEXTSTYLE
  7
Standard
  9
$CLAYER
  8
0
  9
$CELTYPE
  6
ByLayer
  9
$CECOLOR
 62
   256
  9
$CELTSCALE
 40
1.0
  9
$DISPSILH
 70
     0
  9
$DIMSCALE
 40
1.0
  9
$DIMASZ
 40
2.5
  9
$DIMEXO
 40
0.625
  9
$DIMDLI
 40
3.75
  9
$DIMRND
 40
0.0
  9
$DIMDLE
 40
0.0
  9
$DIMEXE
 40
1.25
  9
$DIMTP
 40
0.0
  9
$DIMTM
 40
0.0
  9
$DIMTXT
 40
2.5
  9
$DIMCEN
 40
2.5
  9
$DIMTSZ
 40
0.0
  9
$DIMTOL
 70
     0
  9
$DIMLIM
 70
     0
  9
$DIMTIH
 70
     0
  9
$DIMTOH
 70
     0
  9
$DIMSE1
 70
     0
  9
$DIMSE2
 70
     0
  9
$DIMTAD
 70
     0
  9
$DIMZIN
 70
     8
  9
$DIMBLK
  1

  9
$DIMASO
 70
     1
  9
$DIMSHO
 70
     1
  9
$DIMPOST
  1

  9
$DIMAPOST
  1

  9
$DIMALT
 70
     0
  9
$DIMALTD
 70
     3
  9
$DIMALTF
 40
0.03937007874016
  9
$DIMLFAC
 40
1.0
  9
$DIMTOFL
 70
     1
  9
$DIMTVP
 40
0.0
  9
$DIMTIX
 70
     0
  9
$DIMSOXD
 70
     0
  9
$DIMSAH
 70
     0
  9
$DIMBLK1
  1

  9
$DIMBLK2
  1

  9
$DIMSTYLE
  2
ISO-25
  9
$DIMCLRD
 70
     0
  9
$DIMCLRE
 70
     0
  9
$DIMCLRT
 70
     0
  9
$DIMTFAC
 40
1.0
  9
$DIMGAP
 40
0.625
  9
$DIMJUST
 70
     0
  9
$DIMSD1
 70
     0
  9
$DIMSD2
 70
     0
  9
$DIMTOLJ
 70
     0
  9
$DIMTZIN
 70
     8
  9
$DIMALTZ
 70
     0
  9
$DIMALTTZ
 70
     0
  9
$DIMUPT
 70
     0
  9
$DIMDEC
 70
     2
  9
$DIMTDEC
 70
     2
  9
$DIMALTU
 70
     2
  9
$DIMALTTD
 70
     3
  9
$DIMTXSTY
  7
Standard
  9
$DIMAUNIT
 70
     0
  9
$DIMADEC
 70
     0
  9
$DIMALTRND
 40
0.0
  9
$DIMAZIN
 70
     0
  9
$DIMDSEP
 70
    44
  9
$DIMATFIT
 70
     3
  9
$DIMFRAC
 70
     0
  9
$DIMLDRBLK
  1

  9
$DIMLUNIT
 70
     2
  9
$DIMLWD
 70
    -2
  9
$DIMLWE
 70
    -2
  9
$DIMTMOVE
 70
     0
  9
$LUNITS
 70
     2
  9
$LUPREC
 70
     4
  9
$SKETCHINC
 40
1.0
  9
$FILLETRAD
 40
10.0
  9
$AUNITS
 70
     0
  9
$AUPREC
 70
     0
  9
$MENU
  1
.
  9
$ELEVATION
 40
0.0
  9
$PELEVATION
 40
0.0
  9
$THICKNESS
 40
0.0
  9
$LIMCHECK
 70
     0
  9
$CHAMFERA
 40
10.0
  9
$CHAMFERB
 40
10.0
  9
$CHAMFERC
 40
20.0
  9
$CHAMFERD
 40
0.0
  9
$SKPOLY
 70
     0
  9
$TDCREATE
 40
2452662.472983287
  9
$TDUCREATE
 40
2452662.389649954
  9
$TDUPDATE
 40
2453885.368907801
  9
$TDUUPDATE
 40
2453885.285574468
  9
$TDINDWG
 40
0.2140459375
  9
$TDUSRTIMER
 40
0.2140413542
  9
$USRTIMER
 70
     1
  9
$ANGBASE
 50
0.0
  9
$ANGDIR
 70
     0
  9
$PDMODE
 70
     0
  9
$PDSIZE
 40
0.0
  9
$PLINEWID
 40
0.0
  9
$SPLFRAME
 70
     0
  9
$SPLINETYPE
 70
     6
  9
$SPLINESEGS
 70
     8
  9
$HANDSEED
  5
52FC
  9
$SURFTAB1
 70
     6
  9
$SURFTAB2
 70
     6
  9
$SURFTYPE
 70
     6
  9
$SURFU
 70
     6
  9
$SURFV
 70
     6
  9
$UCSBASE
  2

  9
$UCSNAME
  2

  9
$UCSORG
 10
0.0
 20
0.0
 30
0.0
  9
$UCSXDIR
 10
1.0
 20
0.0
 30
0.0
  9
$UCSYDIR
 10
0.0
 20
1.0
 30
0.0
  9
$UCSORTHOREF
  2

  9
$UCSORTHOVIEW
 70
     0
  9
$UCSORGTOP
 10
0.0
 20
0.0
 30
0.0
  9
$UCSORGBOTTOM
 10
0.0
 20
0.0
 30
0.0
  9
$UCSORGLEFT
 10
0.0
 20
0.0
 30
0.0
  9
$UCSORGRIGHT
 10
0.0
 20
0.0
 30
0.0
  9
$UCSORGFRONT
 10
0.0
 20
0.0
 30
0.0
  9
$UCSORGBACK
 10
0.0
 20
0.0
 30
0.0
  9
$PUCSBASE
  2

  9
$PUCSNAME
  2

  9
$PUCSORG
 10
0.0
 20
0.0
 30
0.0
  9
$PUCSXDIR
 10
1.0
 20
0.0
 30
0.0
  9
$PUCSYDIR
 10
0.0
 20
1.0
 30
0.0
  9
$PUCSORTHOREF
  2

  9
$PUCSORTHOVIEW
 70
     0
  9
$PUCSORGTOP
 10
0.0
 20
0.0
 30
0.0
  9
$PUCSORGBOTTOM
 10
0.0
 20
0.0
 30
0.0
  9
$PUCSORGLEFT
 10
0.0
 20
0.0
 30
0.0
  9
$PUCSORGRIGHT
 10
0.0
 20
0.0
 30
0.0
  9
$PUCSORGFRONT
 10
0.0
 20
0.0
 30
0.0
  9
$PUCSORGBACK
 10
0.0
 20
0.0
 30
0.0
  9
$USERI1
 70
     0
  9
$USERI2
 70
     0
  9
$USERI3
 70
     0
  9
$USERI4
 70
     0
  9
$USERI5
 70
     0
  9
$USERR1
 40
0.0
  9
$USERR2
 40
0.0
  9
$USERR3
 40
0.0
  9
$USERR4
 40
0.0
  9
$USERR5
 40
0.0
  9
$WORLDVIEW
 70
     1
  9
$SHADEDGE
 70
     3
  9
$SHADEDIF
 70
    70
  9
$TILEMODE
 70
     1
  9
$MAXACTVP
 70
    64
  9
$PINSBASE
 10
0.0
 20
0.0
 30
0.0
  9
$PLIMCHECK
 70
     0
  9
$PEXTMIN
 10
0.0
 20
0.0
 30
0.0
  9
$PEXTMAX
 10
0.0
 20
0.0
 30
0.0
  9
$PLIMMIN
 10
0.0
 20
0.0
  9
$PLIMMAX
 10
12.0
 20
9.0
  9
$UNITMODE
 70
     0
  9
$VISRETAIN
 70
     1
  9
$PLINEGEN
 70
     0
  9
$PSLTSCALE
 70
     1
  9
$TREEDEPTH
 70
  3020
  9
$CMLSTYLE
  2
Standard
  9
$CMLJUST
 70
     0
  9
$CMLSCALE
 40
20.0
  9
$PROXYGRAPHICS
 70
     1
  9
$MEASUREMENT
 70
     1
  9
$CELWEIGHT
370
    -1
  9
$ENDCAPS
280
     0
  9
$JOINSTYLE
280
     0
  9
$LWDISPLAY
290
     0
  9
$INSUNITS
 70
     4
  9
$HYPERLINKBASE
  1

  9
$STYLESHEET
  1
MONOCHROME.CTB
  9
$XEDIT
290
     1
  9
$CEPSNTYPE
380
     0
  9
$PSTYLEMODE
290
     1
  9
$FINGERPRINTGUID
  2
{FDEAD578-A652-11D2-9A35-0060089B3A3F}
  9
$VERSIONGUID
  2
{6F988263-F9B1-44EB-AFB0-302109AEC8EA}
  9
$EXTNAMES
290
     1
  9
$PSVPSCALE
 40
0.0
  9
$OLESTARTUP
290
     0
  0
ENDSEC
  0
SECTION
  2
CLASSES
  0
CLASS
  1
ACDBDICTIONARYWDFLT
  2
AcDbDictionaryWithDefault
  3
ObjectDBX Classes
 90
        0
280
     0
281
     0
  0
CLASS
  1
DICTIONARYVAR
  2
AcDbDictionaryVar
  3
ObjectDBX Classes
 90
        0
280
     0
281
     0
  0
CLASS
  1
DIMASSOC
  2
AcDbDimAssoc
  3
"AcDbDimAssoc|Product Desc:     AcDim ARX App For Dimension|Company:          Autodesk, Inc.|WEB Address:      www.autodesk.com"
 90
        0
280
     0
281
     0
  0
CLASS
  1
ACDBPLACEHOLDER
  2
AcDbPlaceHolder
  3
ObjectDBX Classes
 90
        0
280
     0
281
     0
  0
CLASS
  1
LAYOUT
  2
AcDbLayout
  3
ObjectDBX Classes
 90
        0
280
     0
281
     0
  0
ENDSEC
  0
SECTION
  2
TABLES
  0
TABLE
  2
VPORT
  5
8
330
0
100
AcDbSymbolTable
 70
     3
  0
VPORT
  5
52F1
330
8
100
AcDbSymbolTableRecord
100
AcDbViewportTableRecord
  2
*Active
 70
     0
 10
0.0
 20
0.0
 11
1.0
 21
1.0
 12
1190.910913567071
 22
302.2513334237228
 13
0.0
 23
0.0
 14
10.0
 24
10.0
 15
10.0
 25
10.0
 16
0.0
 26
0.0
 36
1.0
 17
0.0
 27
0.0
 37
0.0
 40
201.2758550122067
 41
1.605997931747673
 42
50.0
 43
0.0
 44
0.0
 50
0.0
 51
0.0
 71
     0
 72
   100
 73
     1
 74
     3
 75
     0
 76
     0
 77
     0
 78
     0
281
     0
 65
     1
110
0.0
120
0.0
130
0.0
111
1.0
121
0.0
131
0.0
112
0.0
122
1.0
132
0.0
 79
     0
146
0.0
  0
ENDTAB
  0
TABLE
  2
LTYPE
  5
5
330
0
100
AcDbSymbolTable
 70
     2
  0
LTYPE
  5
14
330
5
100
AcDbSymbolTableRecord
100
AcDbLinetypeTableRecord
  2
ByBlock
 70
     0
  3

 72
    65
 73
     0
 40
0.0
  0
LTYPE
  5
15
330
5
100
AcDbSymbolTableRecord
100
AcDbLinetypeTableRecord
  2
ByLayer
 70
     0
  3

 72
    65
 73
     0
 40
0.0
  0
LTYPE
  5
16
330
5
100
AcDbSymbolTableRecord
100
AcDbLinetypeTableRecord
  2
Continuous
 70
     0
  3
Solid line
 72
    65
 73
     0
 40
0.0
  0
LTYPE
  5
2083
330
5
100
AcDbSymbolTableRecord
100
AcDbLinetypeTableRecord
  2
CENTER
 70
     0
  3
____ _ ____ _ ____ _ ____ _ ____ _ ____ _ ____
 72
    65
 73
     4
 40
0.6
 49
0.375
 74
     0
 49
-0.075
 74
     0
 49
0.075
 74
     0
 49
-0.075
 74
     0
  0
ENDTAB
  0
TABLE
  2
LAYER
  5
2
330
0
100
AcDbSymbolTable
 70
     9
  0
LAYER
  5
10
330
2
100
AcDbSymbolTableRecord
100
AcDbLayerTableRecord
  2
0
 70
     0
 62
     7
  6
Continuous
370
    -3
390
F
  0
LAYER
  5
1F03
330
2
100
AcDbSymbolTableRecord
100
AcDbLayerTableRecord
  2
Defpoints
 70
     0
 62
     7
  6
Continuous
290
     0
370
    -3
390
F
  0
LAYER
  5
2084
330
2
100
AcDbSymbolTableRecord
100
AcDbLayerTableRecord
  2
91000_TIP
 70
     0
 62
     7
  6
Continuous
370
    -3
390
F
  0
LAYER
  5
2085
330
2
100
AcDbSymbolTableRecord
100
AcDbLayerTableRecord
  2
11000_Left
 70
     0
 62
     7
  6
Continuous
370
    -3
390
F
  0
LAYER
  5
214D
330
2
100
AcDbSymbolTableRecord
100
AcDbLayerTableRecord
  2
10000_FRONT
 70
     0
 62
     7
  6
Continuous
370
    -3
390
F
  0
LAYER
  5
214E
330
2
100
AcDbSymbolTableRecord
100
AcDbLayerTableRecord
  2
10100_FRONT_DIM
 70
     0
 62
     7
  6
Continuous
370
    -3
390
F
  0
LAYER
  5
214F
330
2
100
AcDbSymbolTableRecord
100
AcDbLayerTableRecord
  2
90000_FRAME
 70
     0
 62
     7
  6
Continuous
370
    -3
390
F
  0
LAYER
  5
2150
330
2
100
AcDbSymbolTableRecord
100
AcDbLayerTableRecord
  2
11100_LEFT_DIM
 70
     0
 62
     7
  6
Continuous
370
    -3
390
F
  0
ENDTAB
  0
TABLE
  2
STYLE
  5
3
330
0
100
AcDbSymbolTable
 70
     1
  0
STYLE
  5
11
330
3
100
AcDbSymbolTableRecord
100
AcDbTextStyleTableRecord
  2
Standard
 70
     0
 40
0.0
 41
1.0
 50
0.0
 71
     0
 42
2.5
  3
txt
  4

  0
ENDTAB
  0
TABLE
  2
VIEW
  5
6
330
0
100
AcDbSymbolTable
 70
     0
  0
ENDTAB
  0
TABLE
  2
UCS
  5
7
330
0
100
AcDbSymbolTable
 70
     0
  0
ENDTAB
  0
TABLE
  2
APPID
  5
9
330
0
100
AcDbSymbolTable
 70
     3
  0
APPID
  5
12
330
9
100
AcDbSymbolTableRecord
100
AcDbRegAppTableRecord
  2
ACAD
 70
     0
  0
APPID
  5
1C6
330
9
100
AcDbSymbolTableRecord
100
AcDbRegAppTableRecord
  2
AUSTER_ANSICHT
 70
     0
  0
APPID
  5
1C7
330
9
100
AcDbSymbolTableRecord
100
AcDbRegAppTableRecord
  2
AUSTER_FOLIE
 70
     0
  0
ENDTAB
  0
TABLE
  2
DIMSTYLE
  5
A
330
0
100
AcDbSymbolTable
 70
     3
100
AcDbDimStyleTable
 71
     2
340
2086
340
27
  0
DIMSTYLE
105
27
330
A
100
AcDbSymbolTableRecord
100
AcDbDimStyleTableRecord
  2
ISO-25
 70
     0
 41
2.5
 42
0.625
 43
3.75
 44
1.25
 73
     0
 74
     0
 78
     8
140
2.5
141
2.5
143
0.03937007874016
147
0.625
171
     3
172
     1
271
     2
272
     2
274
     3
278
    44
283
     0
284
     8
340
11
  0
DIMSTYLE
105
EE
330
A
100
AcDbSymbolTableRecord
100
AcDbDimStyleTableRecord
  2
Standard
 70
     0
340
11
  0
DIMSTYLE
105
2086
102
{ACAD_REACTORS
330
5181
330
519B
330
51D7
102
}
330
A
100
AcDbSymbolTableRecord
100
AcDbDimStyleTableRecord
  2
DSTYLE1
 70
     0
 41
3.0
 42
0.0
 44
1.0
 73
     0
 74
     0
 77
     1
 78
     3
140
2.5
143
0.039370079
147
1.0
271
     3
272
     3
274
     0
279
     2
340
11
  0
ENDTAB
  0
TABLE
  2
BLOCK_RECORD
  5
1
330
0
100
AcDbSymbolTable
 70
     5
  0
BLOCK_RECORD
  5
1F
330
1
100
AcDbSymbolTableRecord
100
AcDbBlockTableRecord
  2
*Model_Space
340
22
  0
BLOCK_RECORD
  5
50
330
1
100
AcDbSymbolTableRecord
100
AcDbBlockTableRecord
  2
*Paper_Space
340
51
  0
BLOCK_RECORD
  5
55
330
1
100
AcDbSymbolTableRecord
100
AcDbBlockTableRecord
  2
*Paper_Space0
340
56
  0
BLOCK_RECORD
  5
6C
330
1
100
AcDbSymbolTableRecord
100
AcDbBlockTableRecord
  2
SIEMENS_OUTLINE_BL0
340
0
102
{BLKREFS
331
117
102
}
  0
BLOCK_RECORD
  5
5182
330
1
100
AcDbSymbolTableRecord
100
AcDbBlockTableRecord
  2
*D2
340
0
  0
BLOCK_RECORD
  5
519C
330
1
100
AcDbSymbolTableRecord
100
AcDbBlockTableRecord
  2
*D3
340
0
  0
BLOCK_RECORD
  5
51D8
330
1
100
AcDbSymbolTableRecord
100
AcDbBlockTableRecord
  2
*D4
340
0
  0
ENDTAB
  0
ENDSEC
  0
SECTION
  2
BLOCKS
  0
BLOCK
  5
20
330
1F
100
AcDbEntity
  8
0
100
AcDbBlockBegin
  2
*Model_Space
 70
     0
 10
0.0
 20
0.0
 30
0.0
  3
*Model_Space
  1

  0
ENDBLK
  5
21
330
1F
100
AcDbEntity
  8
0
100
AcDbBlockEnd
  0
BLOCK
  5
52
330
50
100
AcDbEntity
 67
     1
  8
0
100
AcDbBlockBegin
  2
*Paper_Space
 70
     0
 10
0.0
 20
0.0
 30
0.0
  3
*Paper_Space
  1

  0
ENDBLK
  5
53
330
50
100
AcDbEntity
 67
     1
  8
0
100
AcDbBlockEnd
  0
BLOCK
  5
57
330
55
100
AcDbEntity
  8
0
100
AcDbBlockBegin
  2
*Paper_Space0
 70
     0
 10
0.0
 20
0.0
 30
0.0
  3
*Paper_Space0
  1

  0
ENDBLK
  5
58
330
55
100
AcDbEntity
  8
0
100
AcDbBlockEnd
  0
BLOCK
  5
D5
330
6C
100
AcDbEntity
  8
0
  6
Continuous
 62
     7
100
AcDbBlockBegin
  2
SIEMENS_OUTLINE_BL0
 70
     0
 10
0.0
 20
0.0
 30
0.0
  3
SIEMENS_OUTLINE_BL0
  1

  0
LINE
  5
6D
330
6C
100
AcDbEntity
  8
0
  6
Continuous
 62
     7
100
AcDbLine
 10
79.186200508
 20
21.4145478991
 30
0.0
 11
79.186200508
 21
16.6612788158
 31
0.0
  0
LINE
  5
6E
330
6C
100
AcDbEntity
  8
0
  6
Continuous
 62
     7
100
AcDbLine
 10
80.61218123299999
 20
21.4145478991
 30
0.0
 11
80.61218123299999
 21
16.6612788158
 31
0.0
  0
LINE
  5
6F
330
6C
100
AcDbEntity
  8
0
  6
Continuous
 62
     7
100
AcDbLine
 10
79.186200508
 20
16.6612788158
 30
0.0
 11
80.61218123299999
 21
16.6612788158
 31
0.0
  0
LINE
  5
70
330
6C
100
AcDbEntity
  8
0
  6
Continuous
 62
     7
100
AcDbLine
 10
79.186200508
 20
21.4145478991
 30
0.0
 11
80.61218123299999
 21
21.4145478991
 31
0.0
  0
LINE
  5
71
330
6C
100
AcDbEntity
  8
0
  6
Continuous
 62
     7
100
AcDbLine
 10
81.7054331221
 20
21.4145478991
 30
0.0
 11
81.7054331221
 21
16.6612788158
 31
0.0
  0
LINE
  5
72
330
6C
100
AcDbEntity
  8
0
  6
Continuous
 62
     7
100
AcDbLine
 10
81.7054331221
 20
16.6612788158
 30
0.0
 11
85.2703849346
 21
16.6612788158
 31
0.0
  0
LINE
  5
73
330
6C
100
AcDbEntity
  8
0
  6
Continuous
 62
     7
100
AcDbLine
 10
85.2703849346
 20
17.56439994169999
 30
0.0
 11
83.0838811563
 21
17.56439994169999
 31
0.0
  0
LINE
  5
74
330
6C
100
AcDbEntity
  8
0
  6
Continuous
 62
     7
100
AcDbLine
 10
85.2703849346
 20
17.56439994169999
 30
0.0
 11
85.2703849346
 21
16.6612788158
 31
0.0
  0
LINE
  5
75
330
6C
100
AcDbEntity
  8
0
  6
Continuous
 62
     7
100
AcDbLine
 10
85.2228522438
 20
21.4145478991
 30
0.0
 11
81.7054331221
 21
21.4145478991
 31
0.0
  0
LINE
  5
76
330
6C
100
AcDbEntity
  8
0
  6
Continuous
 62
     7
100
AcDbLine
 10
85.2228522438
 20
20.5351931187
 30
0.0
 11
83.0838811563
 21
20.5351931187
 31
0.0
  0
LINE
  5
77
330
6C
100
AcDbEntity
  8
0
  6
Continuous
 62
     7
100
AcDbLine
 10
85.2228522438
 20
21.4145478991
 30
0.0
 11
85.2228522438
 21
20.5351931187
 31
0.0
  0
LINE
  5
78
330
6C
100
AcDbEntity
  8
0
  6
Continuous
 62
     7
100
AcDbLine
 10
84.9376560988
 20
18.68141817619999
 30
0.0
 11
83.0838811563
 21
18.68141817619999
 31
0.0
  0
LINE
  5
79
330
6C
100
AcDbEntity
  8
0
  6
Continuous
 62
     7
100
AcDbLine
 10
84.9376560988
 20
19.46570757499999
 30
0.0
 11
84.9376560988
 21
18.68141817619999
 31
0.0
  0
LINE
  5
7A
330
6C
100
AcDbEntity
  8
0
  6
Continuous
 62
     7
100
AcDbLine
 10
84.9376560988
 20
19.46570757499999
 30
0.0
 11
83.0838811563
 21
19.46570757499999
 31
0.0
  0
LINE
  5
7B
330
6C
100
AcDbEntity
  8
0
  6
Continuous
 62
     7
100
AcDbLine
 10
83.0838811563
 20
20.5351931187
 30
0.0
 11
83.0838811563
 21
19.46570757499999
 31
0.0
  0
LINE
  5
7C
330
6C
100
AcDbEntity
  8
0
  6
Continuous
 62
     7
100
AcDbLine
 10
83.0838811563
 20
18.68141817619999
 30
0.0
 11
83.0838811563
 21
17.56439994169999
 31
0.0
  0
LINE
  5
7D
330
6C
100
AcDbEntity
  8
0
  6
Continuous
 62
     7
100
AcDbLine
 10
86.0784406788
 20
16.6612788158
 30
0.0
 11
86.0784406788
 21
21.4145478991
 31
0.0
  0
LINE
  5
7E
330
6C
100
AcDbEntity
  8
0
  6
Continuous
 62
     7
100
AcDbLine
 10
86.0784406788
 20
16.6612788158
 30
0.0
 11
87.02909449539999
 21
16.6612788158
 31
0.0
  0
LINE
  5
7F
330
6C
100
AcDbEntity
  8
0
  6
Continuous
 62
     7
100
AcDbLine
 10
91.92496165120001
 20
21.4145478991
 30
0.0
 11
91.92496165120001
 21
16.6612788158
 31
0.0
  0
LINE
  5
80
330
6C
100
AcDbEntity
  8
0
  6
Continuous
 62
     7
100
AcDbLine
 10
91.92496165120001
 20
16.6612788158
 30
0.0
 11
90.54651361700001
 21
16.6612788158
 31
0.0
  0
LINE
  5
81
330
6C
100
AcDbEntity
  8
0
  6
Continuous
 62
     7
100
AcDbLine
 10
88.3600098387
 20
16.61374612499999
 30
0.0
 11
89.21559827370002
 21
16.61374612499999
 31
0.0
  0
LINE
  5
82
330
6C
100
AcDbEntity
  8
0
  6
Continuous
 62
     7
100
AcDbLine
 10
88.3600098387
 20
16.61374612499999
 30
0.0
 11
87.02909449539999
 21
19.7033710291
 31
0.0
  0
LINE
  5
83
330
6C
100
AcDbEntity
  8
0
  6
Continuous
 62
     7
100
AcDbLine
 10
87.02909449539999
 20
16.6612788158
 30
0.0
 11
87.02909449539999
 21
19.7033710291
 31
0.0
  0
LINE
  5
84
330
6C
100
AcDbEntity
  8
0
  6
Continuous
 62
     7
100
AcDbLine
 10
90.54651361700001
 20
19.75090372
 30
0.0
 11
89.21559827370002
 21
16.61374612499999
 31
0.0
  0
LINE
  5
85
330
6C
100
AcDbEntity
  8
0
  6
Continuous
 62
     7
100
AcDbLine
 10
87.78961754870001
 20
21.4145478991
 30
0.0
 11
86.0784406788
 21
21.4145478991
 31
0.0
  0
LINE
  5
86
330
6C
100
AcDbEntity
  8
0
  6
Continuous
 62
     7
100
AcDbLine
 10
91.92496165120001
 20
21.4145478991
 30
0.0
 11
90.2137847812
 21
21.4145478991
 31
0.0
  0
LINE
  5
87
330
6C
100
AcDbEntity
  8
0
  6
Continuous
 62
     7
100
AcDbLine
 10
87.78961754870001
 20
21.4145478991
 30
0.0
 11
89.0254675104
 21
18.51505375829999
 31
0.0
  0
LINE
  5
88
330
6C
100
AcDbEntity
  8
0
  6
Continuous
 62
     7
100
AcDbLine
 10
90.2137847812
 20
21.4145478991
 30
0.0
 11
89.0254675104
 21
18.51505375829999
 31
0.0
  0
LINE
  5
89
330
6C
100
AcDbEntity
  8
0
  6
Continuous
 62
     7
100
AcDbLine
 10
90.54651361700001
 20
19.75090372
 30
0.0
 11
90.54651361700001
 21
16.6612788158
 31
0.0
  0
LINE
  5
8A
330
6C
100
AcDbEntity
  8
0
  6
Continuous
 62
     7
100
AcDbLine
 10
93.01821354030002
 20
21.4145478991
 30
0.0
 11
93.01821354030002
 21
16.6612788158
 31
0.0
  0
LINE
  5
8B
330
6C
100
AcDbEntity
  8
0
  6
Continuous
 62
     7
100
AcDbLine
 10
93.01821354030002
 20
16.6612788158
 30
0.0
 11
96.5831653528
 21
16.6612788158
 31
0.0
  0
LINE
  5
8C
330
6C
100
AcDbEntity
  8
0
  6
Continuous
 62
     7
100
AcDbLine
 10
96.5831653528
 20
17.56439994169999
 30
0.0
 11
94.3966615745
 21
17.56439994169999
 31
0.0
  0
LINE
  5
8D
330
6C
100
AcDbEntity
  8
0
  6
Continuous
 62
     7
100
AcDbLine
 10
96.5831653528
 20
17.56439994169999
 30
0.0
 11
96.5831653528
 21
16.6612788158
 31
0.0
  0
LINE
  5
8E
330
6C
100
AcDbEntity
  8
0
  6
Continuous
 62
     7
100
AcDbLine
 10
96.53563266200002
 20
21.4145478991
 30
0.0
 11
93.01821354030002
 21
21.4145478991
 31
0.0
  0
LINE
  5
8F
330
6C
100
AcDbEntity
  8
0
  6
Continuous
 62
     7
100
AcDbLine
 10
96.53563266200002
 20
20.5351931187
 30
0.0
 11
94.3966615745
 21
20.5351931187
 31
0.0
  0
LINE
  5
90
330
6C
100
AcDbEntity
  8
0
  6
Continuous
 62
     7
100
AcDbLine
 10
96.53563266200002
 20
21.4145478991
 30
0.0
 11
96.53563266200002
 21
20.5351931187
 31
0.0
  0
LINE
  5
91
330
6C
100
AcDbEntity
  8
0
  6
Continuous
 62
     7
100
AcDbLine
 10
96.25043651700002
 20
18.68141817619999
 30
0.0
 11
94.3966615745
 21
18.68141817619999
 31
0.0
  0
LINE
  5
92
330
6C
100
AcDbEntity
  8
0
  6
Continuous
 62
     7
100
AcDbLine
 10
96.25043651700002
 20
19.46570757499999
 30
0.0
 11
96.25043651700002
 21
18.68141817619999
 31
0.0
  0
LINE
  5
93
330
6C
100
AcDbEntity
  8
0
  6
Continuous
 62
     7
100
AcDbLine
 10
96.25043651700002
 20
19.46570757499999
 30
0.0
 11
94.3966615745
 21
19.46570757499999
 31
0.0
  0
LINE
  5
94
330
6C
100
AcDbEntity
  8
0
  6
Continuous
 62
     7
100
AcDbLine
 10
94.3966615745
 20
20.5351931187
 30
0.0
 11
94.3966615745
 21
19.46570757499999
 31
0.0
  0
LINE
  5
95
330
6C
100
AcDbEntity
  8
0
  6
Continuous
 62
     7
100
AcDbLine
 10
94.3966615745
 20
18.68141817619999
 30
0.0
 11
94.3966615745
 21
17.56439994169999
 31
0.0
  0
LINE
  5
96
330
6C
100
AcDbEntity
  8
0
  6
Continuous
 62
     7
100
AcDbLine
 10
97.3674547515
 20
16.6612788158
 30
0.0
 11
97.3674547515
 21
21.4145478991
 31
0.0
  0
LINE
  5
97
330
6C
100
AcDbEntity
  8
0
  6
Continuous
 62
     7
100
AcDbLine
 10
101.5503315447999
 20
21.4145478991
 30
0.0
 11
101.5503315447999
 21
16.6612788158
 31
0.0
  0
LINE
  5
98
330
6C
100
AcDbEntity
  8
0
  6
Continuous
 62
     7
100
AcDbLine
 10
97.3674547515
 20
16.6612788158
 30
0.0
 11
98.3181085682
 21
16.6612788158
 31
0.0
  0
LINE
  5
99
330
6C
100
AcDbEntity
  8
0
  6
Continuous
 62
     7
100
AcDbLine
 10
101.5503315447999
 20
21.4145478991
 30
0.0
 11
100.5996777281999
 21
21.4145478991
 31
0.0
  0
LINE
  5
9A
330
6C
100
AcDbEntity
  8
0
  6
Continuous
 62
     7
100
AcDbLine
 10
98.91226720360002
 20
21.4145478991
 30
0.0
 11
97.3674547515
 21
21.4145478991
 31
0.0
  0
LINE
  5
9B
330
6C
100
AcDbEntity
  8
0
  6
Continuous
 62
     7
100
AcDbLine
 10
101.5503315447999
 20
16.6612788158
 30
0.0
 11
100.0292854381999
 21
16.6612788158
 31
0.0
  0
LINE
  5
9C
330
6C
100
AcDbEntity
  8
0
  6
Continuous
 62
     7
100
AcDbLine
 10
100.0292854381999
 20
16.6612788158
 30
0.0
 11
98.3181085682
 21
19.7033710291
 31
0.0
  0
LINE
  5
9D
330
6C
100
AcDbEntity
  8
0
  6
Continuous
 62
     7
100
AcDbLine
 10
98.91226720360002
 20
21.4145478991
 30
0.0
 11
100.5996777281999
 21
18.4675210675
 31
0.0
  0
LINE
  5
9E
330
6C
100
AcDbEntity
  8
0
  6
Continuous
 62
     7
100
AcDbLine
 10
100.5996777281999
 20
21.4145478991
 30
0.0
 11
100.5996777281999
 21
18.4675210675
 31
0.0
  0
LINE
  5
9F
330
6C
100
AcDbEntity
  8
0
  6
Continuous
 62
     7
100
AcDbLine
 10
98.3181085682
 20
16.6612788158
 30
0.0
 11
98.3181085682
 21
19.7033710291
 31
0.0
  0
LINE
  5
A0
330
6C
100
AcDbEntity
  8
0
  6
Continuous
 62
     7
100
AcDbLine
 10
102.3583872889999
 20
16.75634419749999
 30
0.0
 11
102.3583872889999
 21
17.7069980142
 31
0.0
  0
LINE
  5
A1
330
6C
100
AcDbEntity
  8
0
  6
Continuous
 62
     7
100
AcDbLine
 10
105.6856756473
 20
20.4163613916
 30
0.0
 11
105.6856756473
 21
21.36701520829999
 31
0.0
  0
ARC
  5
A2
330
6C
100
AcDbEntity
  8
0
  6
Continuous
 62
     7
100
AcDbCircle
 10
104.063028414
 20
18.61843736089998
 30
0.0
 40
1.111619360599997
100
AcDbArc
 50
277.7099956934
 51
295.6884927745999
  0
ARC
  5
A3
330
6C
100
AcDbEntity
  8
0
  6
Continuous
 62
     7
100
AcDbCircle
 10
104.3473383967
 20
17.8936115972
 30
0.0
 40
0.3401689265
100
AcDbArc
 50
305.503221255
 51
72.46528985229999
  0
ARC
  5
A4
330
6C
100
AcDbEntity
  8
0
  6
Continuous
 62
     7
100
AcDbCircle
 10
103.7813445885999
 20
21.2953185068
 30
0.0
 40
4.756794641099999
100
AcDbArc
 50
252.5939200548001
 51
280.9816604255999
  0
ARC
  5
A5
330
6C
100
AcDbEntity
  8
0
  6
Continuous
 62
     7
100
AcDbCircle
 10
104.2361799517
 20
18.6773047703
 30
0.0
 40
2.100726595299998
100
AcDbArc
 50
282.4058358519999
 51
311.8644433928
  0
ARC
  5
A6
330
6C
100
AcDbEntity
  8
0
  6
Continuous
 62
     7
100
AcDbCircle
 10
103.9626156045999
 20
20.2856464918
 30
0.0
 40
0.3029626476
100
AcDbArc
 50
154.4400348282
 51
221.8201698800999
  0
ARC
  5
A7
330
6C
100
AcDbEntity
  8
0
  6
Continuous
 62
     7
100
AcDbCircle
 10
104.0418367559
 20
20.2064253405
 30
0.0
 40
0.4103089737
100
AcDbArc
 50
102.8287828680999
 51
149.2259639003
  0
ARC
  5
A8
330
6C
100
AcDbEntity
  8
0
  6
Continuous
 62
     7
100
AcDbCircle
 10
104.4588635915999
 20
18.46409001059999
 30
0.0
 40
2.201836557
100
AcDbArc
 50
84.0400061857
 51
103.3427657870999
  0
ARC
  5
A9
330
6C
100
AcDbEntity
  8
0
  6
Continuous
 62
     7
100
AcDbCircle
 10
104.1178997669
 20
16.0467260867
 30
0.0
 40
4.642373736499997
100
AcDbArc
 50
70.2625858546
 51
82.95241863799999
  0
ARC
  5
AA
330
6C
100
AcDbEntity
  8
0
  6
Continuous
 62
     7
100
AcDbCircle
 10
103.6038815646999
 20
20.7183489764
 30
0.0
 40
3.258755990899997
100
AcDbArc
 50
247.5300206145
 51
280.7579522143
  0
ARC
  5
AB
330
6C
100
AcDbEntity
  8
0
  6
Continuous
 62
     7
100
AcDbCircle
 10
97.21891509270001
 20
2.4668290159
 30
0.0
 40
17.3316084133
100
AcDbArc
 50
65.34146746500001
 51
67.39977707359999
  0
ARC
  5
AC
330
6C
100
AcDbEntity
  8
0
  6
Continuous
 62
     7
100
AcDbCircle
 10
108.0147774981
 20
28.259255379
 30
0.0
 40
10.6291642039
100
AcDbArc
 50
242.8620101252001
 51
247.1042029186
  0
ARC
  5
AD
330
6C
100
AcDbEntity
  8
0
  6
Continuous
 62
     7
100
AcDbCircle
 10
104.1598762715
 20
20.725323882
 30
0.0
 40
2.166291629199998
100
AcDbArc
 50
227.3119280793999
 51
242.7040315235
  0
ARC
  5
AE
330
6C
100
AcDbEntity
  8
0
  6
Continuous
 62
     7
100
AcDbCircle
 10
103.5558454618999
 20
20.0196462412
 30
0.0
 40
1.238521734
100
AcDbArc
 50
194.7952194236
 51
225.7176549047
  0
ARC
  5
AF
330
6C
100
AcDbEntity
  8
0
  6
Continuous
 62
     7
100
AcDbCircle
 10
103.6180035961
 20
20.05986621039999
 30
0.0
 40
1.309092072899999
100
AcDbArc
 50
164.1974860461
 51
195.8025139539
  0
ARC
  5
B0
330
6C
100
AcDbEntity
  8
0
  6
Continuous
 62
     7
100
AcDbCircle
 10
104.1750273167
 20
19.1715990505
 30
0.0
 40
2.366924815299999
100
AcDbArc
 50
86.22180229280001
 51
120.4272602309
  0
ARC
  5
B1
330
6C
100
AcDbEntity
  8
0
  6
Continuous
 62
     7
100
AcDbCircle
 10
103.9061705341999
 20
12.4754312294
 30
0.0
 40
9.0679051661
100
AcDbArc
 50
78.68270492259998
 51
87.3147599624
  0
ARC
  5
B2
330
6C
100
AcDbEntity
  8
0
  6
Continuous
 62
     7
100
AcDbCircle
 10
103.4501013557999
 20
20.1673739729
 30
0.0
 40
1.119747444
100
AcDbArc
 50
142.8139179029999
 51
167.1522951416999
  0
ARC
  5
B3
330
6C
100
AcDbEntity
  8
0
  6
Continuous
 62
     7
100
AcDbCircle
 10
103.7954106973999
 20
19.86079227619999
 30
0.0
 40
1.580546684499998
100
AcDbArc
 50
121.2140948535
 51
141.5254768286
  0
ARC
  5
B4
330
6C
100
AcDbEntity
  8
0
  6
Continuous
 62
     7
100
AcDbCircle
 10
104.372585063
 20
20.6718496049
 30
0.0
 40
0.8661276051999998
100
AcDbArc
 50
222.7760387596
 51
239.0362434679
  0
ARC
  5
B5
330
6C
100
AcDbEntity
  8
0
  6
Continuous
 62
     7
100
AcDbCircle
 10
101.8658754847
 20
13.3415774063
 30
0.0
 40
6.858773576299999
100
AcDbArc
 50
59.90202725600001
 51
68.2036481279
  0
ARC
  5
B6
330
6C
100
AcDbEntity
  8
0
  6
Continuous
 62
     7
100
AcDbCircle
 10
105.2743699785
 20
22.26746391349999
 30
0.0
 40
2.698741017099999
100
AcDbArc
 50
240.0481997804
 51
251.3779673736999
  0
ARC
  5
B7
330
6C
100
AcDbEntity
  8
0
  6
Continuous
 62
     7
100
AcDbCircle
 10
104.6089128116999
 20
18.1105652982
 30
0.0
 40
1.4334474881
100
AcDbArc
 50
315.8904553224
 51
333.5229264372999
  0
ARC
  5
B8
330
6C
100
AcDbEntity
  8
0
  6
Continuous
 62
     7
100
AcDbCircle
 10
104.6135510555
 20
18.057158148
 30
0.0
 40
1.406228711899998
100
AcDbArc
 50
335.3867972702
 51
24.39151194019999
  0
ARC
  5
B9
330
6C
100
AcDbEntity
  8
0
  6
Continuous
 62
     7
100
AcDbCircle
 10
104.5413461519
 20
17.97930145619999
 30
0.0
 40
1.504702514799999
100
AcDbArc
 50
25.95629166050001
 51
59.4834829668
  0
LINE
  5
BA
330
6C
100
AcDbEntity
  8
0
  6
Continuous
 62
     7
100
AcDbLine
 10
74.7656602606
 20
16.75634419749999
 30
0.0
 11
74.7656602606
 21
17.7069980142
 31
0.0
  0
LINE
  5
BB
330
6C
100
AcDbEntity
  8
0
  6
Continuous
 62
     7
100
AcDbLine
 10
78.09294861879997
 20
20.4163613916
 30
0.0
 11
78.09294861879997
 21
21.36701520829999
 31
0.0
  0
ARC
  5
BC
330
6C
100
AcDbEntity
  8
0
  6
Continuous
 62
     7
100
AcDbCircle
 10
76.4703013855
 20
18.61843736089998
 30
0.0
 40
1.111619360599997
100
AcDbArc
 50
277.7099956934
 51
295.6884927745999
  0
ARC
  5
BD
330
6C
100
AcDbEntity
  8
0
  6
Continuous
 62
     7
100
AcDbCircle
 10
76.7546113683
 20
17.8936115972
 30
0.0
 40
0.3401689265
100
AcDbArc
 50
305.5032212556
 51
72.4652898515
  0
ARC
  5
BE
330
6C
100
AcDbEntity
  8
0
  6
Continuous
 62
     7
100
AcDbCircle
 10
76.1886175602
 20
21.2953185068
 30
0.0
 40
4.756794641099999
100
AcDbArc
 50
252.5939200545
 51
280.9816604253
  0
ARC
  5
BF
330
6C
100
AcDbEntity
  8
0
  6
Continuous
 62
     7
100
AcDbCircle
 10
76.64345292330001
 20
18.6773047703
 30
0.0
 40
2.100726595299998
100
AcDbArc
 50
282.4058358513
 51
311.8644433923
  0
ARC
  5
C0
330
6C
100
AcDbEntity
  8
0
  6
Continuous
 62
     7
100
AcDbCircle
 10
76.3698885762
 20
20.2856464918
 30
0.0
 40
0.3029626476
100
AcDbArc
 50
154.4400348282
 51
221.8201698800999
  0
ARC
  5
C1
330
6C
100
AcDbEntity
  8
0
  6
Continuous
 62
     7
100
AcDbCircle
 10
76.4491097276
 20
20.2064253405
 30
0.0
 40
0.4103089737
100
AcDbArc
 50
102.8287828727
 51
149.2259639027
  0
ARC
  5
C2
330
6C
100
AcDbEntity
  8
0
  6
Continuous
 62
     7
100
AcDbCircle
 10
76.8661365632
 20
18.46409001059999
 30
0.0
 40
2.201836557
100
AcDbArc
 50
84.0400061859
 51
103.3427657871999
  0
ARC
  5
C3
330
6C
100
AcDbEntity
  8
0
  6
Continuous
 62
     7
100
AcDbCircle
 10
76.5251727384
 20
16.0467260867
 30
0.0
 40
4.642373736499997
100
AcDbArc
 50
70.2625858546
 51
82.9524186379
  0
ARC
  5
C4
330
6C
100
AcDbEntity
  8
0
  6
Continuous
 62
     7
100
AcDbCircle
 10
76.0111545363
 20
20.7183489764
 30
0.0
 40
3.258755990899997
100
AcDbArc
 50
247.5300206148
 51
280.7579522145
  0
ARC
  5
C5
330
6C
100
AcDbEntity
  8
0
  6
Continuous
 62
     7
100
AcDbCircle
 10
69.6261880643
 20
2.4668290159
 30
0.0
 40
17.3316084133
100
AcDbArc
 50
65.34146746500001
 51
67.39977707359999
  0
ARC
  5
C6
330
6C
100
AcDbEntity
  8
0
  6
Continuous
 62
     7
100
AcDbCircle
 10
80.4220504697
 20
28.259255379
 30
0.0
 40
10.6291642039
100
AcDbArc
 50
242.8620101252001
 51
247.1042029184999
  0
ARC
  5
C7
330
6C
100
AcDbEntity
  8
0
  6
Continuous
 62
     7
100
AcDbCircle
 10
76.56714924310001
 20
20.725323882
 30
0.0
 40
2.166291629199998
100
AcDbArc
 50
227.3119280793999
 51
242.7040315235
  0
ARC
  5
C8
330
6C
100
AcDbEntity
  8
0
  6
Continuous
 62
     7
100
AcDbCircle
 10
75.9631184335
 20
20.0196462412
 30
0.0
 40
1.238521734
100
AcDbArc
 50
194.7952194234
 51
225.7176549041999
  0
ARC
  5
C9
330
6C
100
AcDbEntity
  8
0
  6
Continuous
 62
     7
100
AcDbCircle
 10
76.58230028830002
 20
19.1715990505
 30
0.0
 40
2.366924815299999
100
AcDbArc
 50
86.22180229280001
 51
120.4272602309
  0
ARC
  5
CA
330
6C
100
AcDbEntity
  8
0
  6
Continuous
 62
     7
100
AcDbCircle
 10
76.3134435058
 20
12.4754312294
 30
0.0
 40
9.0679051661
100
AcDbArc
 50
78.68270492259998
 51
87.3147599624
  0
ARC
  5
CB
330
6C
100
AcDbEntity
  8
0
  6
Continuous
 62
     7
100
AcDbCircle
 10
76.20268366899998
 20
19.86079227619999
 30
0.0
 40
1.580546684599998
100
AcDbArc
 50
121.2140948540999
 51
141.5254768289999
  0
ARC
  5
CC
330
6C
100
AcDbEntity
  8
0
  6
Continuous
 62
     7
100
AcDbCircle
 10
76.7798580346
 20
20.6718496049
 30
0.0
 40
0.8661276051999998
100
AcDbArc
 50
222.7760387596
 51
239.0362434679
  0
ARC
  5
CD
330
6C
100
AcDbEntity
  8
0
  6
Continuous
 62
     7
100
AcDbCircle
 10
74.2731484563
 20
13.3415774063
 30
0.0
 40
6.858773576299999
100
AcDbArc
 50
59.90202725620001
 51
68.20364812820002
  0
ARC
  5
CE
330
6C
100
AcDbEntity
  8
0
  6
Continuous
 62
     7
100
AcDbCircle
 10
77.6816429501
 20
22.26746391349999
 30
0.0
 40
2.698741017099999
100
AcDbArc
 50
240.0481997804
 51
251.3779673734
  0
ARC
  5
CF
330
6C
100
AcDbEntity
  8
0
  6
Continuous
 62
     7
100
AcDbCircle
 10
77.0161857833
 20
18.1105652982
 30
0.0
 40
1.4334474881
100
AcDbArc
 50
315.8904553225998
 51
333.5229264375
  0
ARC
  5
D0
330
6C
100
AcDbEntity
  8
0
  6
Continuous
 62
     7
100
AcDbCircle
 10
77.020824027
 20
18.057158148
 30
0.0
 40
1.406228711899998
100
AcDbArc
 50
335.3867972703
 51
24.3915119403
  0
ARC
  5
D1
330
6C
100
AcDbEntity
  8
0
  6
Continuous
 62
     7
100
AcDbCircle
 10
76.94861912350001
 20
17.97930145619999
 30
0.0
 40
1.504702514699999
100
AcDbArc
 50
25.9562916611
 51
59.4834829676
  0
LINE
  5
D2
330
6C
100
AcDbEntity
  8
0
  6
Continuous
 62
     7
100
AcDbLine
 10
74.9574888499
 20
20.8337423583
 30
0.0
 11
75.2315546745
 21
21.10781543579999
 31
0.0
  0
ARC
  5
D3
330
6C
100
AcDbEntity
  8
0
  6
Continuous
 62
     7
100
AcDbCircle
 10
76.0252765676
 20
20.05986621039999
 30
0.0
 40
1.309092072899999
100
AcDbArc
 50
164.1974860461
 51
195.8025139539
  0
ARC
  5
D4
330
6C
100
AcDbEntity
  8
0
  6
Continuous
 62
     7
100
AcDbCircle
 10
75.8573743274
 20
20.1673739729
 30
0.0
 40
1.119747444
100
AcDbArc
 50
142.8139179029999
 51
167.1522951416999
  0
ENDBLK
  5
D6
330
6C
100
AcDbEntity
  8
0
100
AcDbBlockEnd
  0
BLOCK
  5
518D
330
5182
100
AcDbEntity
  8
0
100
AcDbBlockBegin
  2
*D2
 70
     1
 10
0.0
 20
0.0
 30
0.0
  3
*D2
  1

  0
LINE
  5
52A7
330
5182
100
AcDbEntity
  8
10100_FRONT_DIM
  6
Continuous
 62
     0
370
    -2
100
AcDbLine
 10
1125.730346343347
 20
344.4118399742706
 30
0.0
 11
1125.730346343347
 21
351.7432224722832
 31
0.0
  0
LINE
  5
52A8
330
5182
100
AcDbEntity
  8
10100_FRONT_DIM
  6
Continuous
 62
     0
370
    -2
100
AcDbLine
 10
1158.330346343347
 20
345.5118399742706
 30
0.0
 11
1158.330346343347
 21
351.7432224722832
 31
0.0
  0
LINE
  5
52A9
330
5182
100
AcDbEntity
  8
10100_FRONT_DIM
  6
Continuous
 62
     0
370
    -2
100
AcDbLine
 10
1127.730346343347
 20
350.7432224722832
 30
0.0
 11
1138.947013010014
 21
350.7432224722832
 31
0.0
  0
LINE
  5
52AA
330
5182
100
AcDbEntity
  8
10100_FRONT_DIM
  6
Continuous
 62
     0
370
    -2
100
AcDbLine
 10
1156.330346343347
 20
350.7432224722832
 30
0.0
 11
1145.11367967668
 21
350.7432224722832
 31
0.0
  0
SOLID
  5
52AB
330
5182
100
AcDbEntity
  8
10100_FRONT_DIM
  6
Continuous
 62
     0
100
AcDbTrace
 10
1127.730346343347
 20
351.0765558056164
 30
0.0
 11
1127.730346343347
 21
350.4098891389499
 31
0.0
 12
1125.730346343347
 22
350.7432224722832
 32
0.0
 13
1125.730346343347
 23
350.7432224722832
 33
0.0
  0
SOLID
  5
52AC
330
5182
100
AcDbEntity
  8
10100_FRONT_DIM
  6
Continuous
 62
     0
100
AcDbTrace
 10
1156.330346343347
 20
351.0765558056164
 30
0.0
 11
1156.330346343347
 21
350.4098891389499
 31
0.0
 12
1158.330346343347
 22
350.7432224722832
 32
0.0
 13
1158.330346343347
 23
350.7432224722832
 33
0.0
  0
MTEXT
  5
52AD
330
5182
100
AcDbEntity
  8
10100_FRONT_DIM
  6
Continuous
 62
     0
370
    13
100
AcDbMText
 10
1142.030346343347
 20
350.7432224722832
 30
0.0
 40
2.5
 41
0.0
 71
     5
 72
     1
  1
\A1;33
 73
     1
 44
1.0
1001
ACAD
1000
MTEXTBEGIN
1070
    73
1070
     1
1070
    44
1040
1.0
1070
    74
1070
     0
1000
MTEXTEND
  0
POINT
  5
52AE
330
5182
100
AcDbEntity
  8
Defpoints
  6
Continuous
 62
     0
100
AcDbPoint
 10
1125.730346343347
 20
343.4118399742706
 30
0.0
  0
POINT
  5
52AF
330
5182
100
AcDbEntity
  8
Defpoints
  6
Continuous
 62
     0
100
AcDbPoint
 10
1158.330346343347
 20
344.5118399742706
 30
0.0
  0
POINT
  5
52B0
330
5182
100
AcDbEntity
  8
Defpoints
  6
Continuous
 62
     0
100
AcDbPoint
 10
1158.330346343347
 20
350.7432224722832
 30
0.0
  0
ENDBLK
  5
518E
330
5182
100
AcDbEntity
  8
0
100
AcDbBlockEnd
  0
BLOCK
  5
51A9
330
519C
100
AcDbEntity
  8
0
100
AcDbBlockBegin
  2
*D3
 70
     1
 10
0.0
 20
0.0
 30
0.0
  3
*D3
  1

  0
LINE
  5
529D
330
519C
100
AcDbEntity
  8
11100_LEFT_DIM
  6
Continuous
 62
     0
370
    -2
100
AcDbLine
 10
1191.046530515929
 20
344.9468399742706
 30
0.0
 11
1191.046530515929
 21
351.7432224722832
 31
0.0
  0
LINE
  5
529E
330
519C
100
AcDbEntity
  8
11100_LEFT_DIM
  6
Continuous
 62
     0
370
    -2
100
AcDbLine
 10
1201.246530515929
 20
344.9468399742706
 30
0.0
 11
1201.246530515929
 21
351.7432224722832
 31
0.0
  0
LINE
  5
529F
330
519C
100
AcDbEntity
  8
11100_LEFT_DIM
  6
Continuous
 62
     0
370
    -2
100
AcDbLine
 10
1193.046530515929
 20
350.7432224722832
 30
0.0
 11
1193.688197182596
 21
350.7432224722832
 31
0.0
  0
LINE
  5
52A0
330
519C
100
AcDbEntity
  8
11100_LEFT_DIM
  6
Continuous
 62
     0
370
    -2
100
AcDbLine
 10
1199.246530515929
 20
350.7432224722832
 30
0.0
 11
1198.604863849262
 21
350.7432224722832
 31
0.0
  0
SOLID
  5
52A1
330
519C
100
AcDbEntity
  8
11100_LEFT_DIM
  6
Continuous
 62
     0
100
AcDbTrace
 10
1193.046530515929
 20
351.0765558056164
 30
0.0
 11
1193.046530515929
 21
350.4098891389499
 31
0.0
 12
1191.046530515929
 22
350.7432224722832
 32
0.0
 13
1191.046530515929
 23
350.7432224722832
 33
0.0
  0
SOLID
  5
52A2
330
519C
100
AcDbEntity
  8
11100_LEFT_DIM
  6
Continuous
 62
     0
100
AcDbTrace
 10
1199.246530515929
 20
351.0765558056164
 30
0.0
 11
1199.246530515929
 21
350.4098891389499
 31
0.0
 12
1201.246530515929
 22
350.7432224722832
 32
0.0
 13
1201.246530515929
 23
350.7432224722832
 33
0.0
  0
MTEXT
  5
52A3
330
519C
100
AcDbEntity
  8
11100_LEFT_DIM
  6
Continuous
 62
     0
370
    13
100
AcDbMText
 10
1196.146530515929
 20
350.7432224722832
 30
0.0
 40
2.5
 41
0.0
 71
     5
 72
     1
  1
\A1;10
 73
     1
 44
1.0
1001
ACAD
1000
MTEXTBEGIN
1070
    73
1070
     1
1070
    44
1040
1.0
1070
    74
1070
     0
1000
MTEXTEND
  0
POINT
  5
52A4
330
519C
100
AcDbEntity
  8
Defpoints
  6
Continuous
 62
     0
100
AcDbPoint
 10
1191.046530515929
 20
343.9468399742706
 30
0.0
  0
POINT
  5
52A5
330
519C
100
AcDbEntity
  8
Defpoints
  6
Continuous
 62
     0
100
AcDbPoint
 10
1201.246530515929
 20
343.9468399742706
 30
0.0
  0
POINT
  5
52A6
330
519C
100
AcDbEntity
  8
Defpoints
  6
Continuous
 62
     0
100
AcDbPoint
 10
1201.246530515929
 20
350.7432224722832
 30
0.0
  0
ENDBLK
  5
51AA
330
519C
100
AcDbEntity
  8
0
100
AcDbBlockEnd
  0
BLOCK
  5
51E3
330
51D8
100
AcDbEntity
  8
0
100
AcDbBlockBegin
  2
*D4
 70
     1
 10
0.0
 20
0.0
 30
0.0
  3
*D4
  1

  0
LINE
  5
5293
330
51D8
100
AcDbEntity
  8
11100_LEFT_DIM
  6
Continuous
 62
     0
370
    -2
100
AcDbLine
 10
1191.696530515929
 20
344.9118399742705
 30
0.0
 11
1182.478311603354
 21
344.9118399742705
 31
0.0
  0
LINE
  5
5294
330
51D8
100
AcDbEntity
  8
11100_LEFT_DIM
  6
Continuous
 62
     0
370
    -2
100
AcDbLine
 10
1193.055783503449
 20
308.1484544958348
 30
0.0
 11
1182.478311603354
 21
308.1484544958348
 31
0.0
  0
LINE
  5
5295
330
51D8
100
AcDbEntity
  8
11100_LEFT_DIM
  6
Continuous
 62
     0
370
    -2
100
AcDbLine
 10
1183.478311603354
 20
342.9118399742705
 30
0.0
 11
1183.478311603354
 21
329.6134805683859
 31
0.0
  0
LINE
  5
5296
330
51D8
100
AcDbEntity
  8
11100_LEFT_DIM
  6
Continuous
 62
     0
370
    -2
100
AcDbLine
 10
1183.478311603354
 20
310.1484544958348
 30
0.0
 11
1183.478311603354
 21
323.4468139017193
 31
0.0
  0
SOLID
  5
5297
330
51D8
100
AcDbEntity
  8
11100_LEFT_DIM
  6
Continuous
 62
     0
100
AcDbTrace
 10
1183.14497827002
 20
342.9118399742705
 30
0.0
 11
1183.811644936687
 21
342.9118399742705
 31
0.0
 12
1183.478311603354
 22
344.9118399742705
 32
0.0
 13
1183.478311603354
 23
344.9118399742705
 33
0.0
  0
SOLID
  5
5298
330
51D8
100
AcDbEntity
  8
11100_LEFT_DIM
  6
Continuous
 62
     0
100
AcDbTrace
 10
1183.14497827002
 20
310.1484544958348
 30
0.0
 11
1183.811644936687
 21
310.1484544958348
 31
0.0
 12
1183.478311603354
 22
308.1484544958348
 32
0.0
 13
1183.478311603354
 23
308.1484544958348
 33
0.0
  0
MTEXT
  5
5299
330
51D8
100
AcDbEntity
  8
11100_LEFT_DIM
  6
Continuous
 62
     0
370
    13
100
AcDbMText
 10
1183.478311603354
 20
326.5301472350529
 30
0.0
 40
2.5
 41
0.0
 71
     5
 72
     1
  1
\A1;37
 11
0.0000000000000001
 21
1.0
 31
0.0
 73
     1
 44
1.0
1001
ACAD
1000
MTEXTBEGIN
1070
    73
1070
     1
1070
    44
1040
1.0
1070
    74
1070
     0
1000
MTEXTEND
  0
POINT
  5
529A
330
51D8
100
AcDbEntity
  8
Defpoints
  6
Continuous
 62
     0
100
AcDbPoint
 10
1192.696530515929
 20
344.9118399742705
 30
0.0
  0
POINT
  5
529B
330
51D8
100
AcDbEntity
  8
Defpoints
  6
Continuous
 62
     0
100
AcDbPoint
 10
1194.055783503449
 20
308.1484544958348
 30
0.0
  0
POINT
  5
529C
330
51D8
100
AcDbEntity
  8
Defpoints
  6
Continuous
 62
     0
100
AcDbPoint
 10
1183.478311603354
 20
308.1484544958348
 30
0.0
  0
ENDBLK
  5
51E4
330
51D8
100
AcDbEntity
  8
0
100
AcDbBlockEnd
  0
ENDSEC
  0
SECTION
  2
ENTITIES
  0
INSERT
  5
117
330
1F
100
AcDbEntity
  8
90000_FRAME
  6
Continuous
 62
     7
100
AcDbBlockReference
  2
SIEMENS_OUTLINE_BL0
 10
1113.564341719631
 20
201.9187786897147
 30
0.0
  0
LINE
  5
118
330
1F
100
AcDbEntity
  8
90000_FRAME
  6
Continuous
 62
     7
100
AcDbLine
 10
1180.91844433571
 20
212.257037917318
 30
0.0
 11
1315.91844433571
 21
212.257037917318
 31
0.0
  0
LINE
  5
119
330
1F
100
AcDbEntity
  8
90000_FRAME
  6
Continuous
 62
     7
100
AcDbLine
 10
1180.91844433571
 20
212.257037917318
 30
0.0
 11
1180.91844433571
 21
230.257037917318
 31
0.0
  0
LINE
  5
11A
330
1F
100
AcDbEntity
  8
90000_FRAME
  6
Continuous
 62
     7
100
AcDbLine
 10
1230.91844433571
 20
218.257037917318
 30
0.0
 11
1315.91844433571
 21
218.257037917318
 31
0.0
  0
LINE
  5
11B
330
1F
100
AcDbEntity
  8
90000_FRAME
  6
Continuous
 62
     7
100
AcDbLine
 10
1180.91844433571
 20
230.257037917318
 30
0.0
 11
1315.91844433571
 21
230.257037917318
 31
0.0
  0
LINE
  5
11C
330
1F
100
AcDbEntity
  8
90000_FRAME
  6
Continuous
 62
     7
100
AcDbLine
 10
1230.91844433571
 20
212.257037917318
 30
0.0
 11
1230.91844433571
 21
230.257037917318
 31
0.0
  0
LINE
  5
11D
330
1F
100
AcDbEntity
  8
90000_FRAME
  6
Continuous
 62
     7
100
AcDbLine
 10
1273.41844433571
 20
212.257037917318
 30
0.0
 11
1273.41844433571
 21
218.257037917318
 31
0.0
  0
LINE
  5
11E
330
1F
100
AcDbEntity
  8
90000_FRAME
  6
Continuous
 62
     7
100
AcDbLine
 10
1315.91844433571
 20
212.257037917318
 30
0.0
 11
1315.91844433571
 21
230.257037917318
 31
0.0
  0
TEXT
  5
11F
330
1F
100
AcDbEntity
  8
90000_FRAME
  6
Continuous
 62
     7
100
AcDbText
 10
1231.57844433571
 20
214.157037917318
 30
0.0
 40
2.2
  1
Format / Size: DIN A4
 41
0.7994987468660263
 72
     5
 11
1264.99749195471
 21
214.157037917318
 31
0.0
100
AcDbText
  0
TEXT
  5
120
330
1F
100
AcDbEntity
  8
90000_FRAME
  6
Continuous
 62
     7
100
AcDbText
 10
1274.07844433571
 20
214.157037917318
 30
0.0
 40
2.2
  1
Massstab / Scale: 1:1
 41
0.7732634338148433
 72
     5
 11
1304.98320624051
 21
214.157037917318
 31
0.0
100
AcDbText
  0
TEXT
  5
121
330
1F
100
AcDbEntity
  8
90000_FRAME
  6
Continuous
 62
     7
100
AcDbText
 10
1244.224368859661
 20
222.507037917318
 30
0.0
 40
3.5
  1
3RT1926_00001433_000_ALL
 41
0.7316751156272595
 72
     5
 11
1300.136542278844
 21
222.507037917318
 31
0.0
100
AcDbText
  0
LINE
  5
124
330
1F
100
AcDbEntity
  8
90000_FRAME
  6
Continuous
 62
     7
100
AcDbLine
 10
1055.918444335711
 20
202.257037917318
 30
0.0
 11
1325.918444335711
 21
202.257037917318
 31
0.0
  0
LINE
  5
126
330
1F
100
AcDbEntity
  8
90000_FRAME
  6
Continuous
 62
     7
100
AcDbLine
 10
1325.918444335711
 20
202.257037917318
 30
0.0
 11
1325.918444335711
 21
402.2570379173179
 31
0.0
  0
TEXT
  5
129
330
1F
100
AcDbEntity
  8
91000_TIP
  6
Continuous
 62
     7
100
AcDbText
 10
1059.971794118375
 20
210.9892745389946
 30
0.0
 40
2.5
  1
Alle Bemassungswerte sind in Millimeter (mm) angegeben.
 41
0.6056311217924569
 72
     5
 11
1133.656913936457
 21
210.9892745389946
 31
0.0
100
AcDbText
  0
TEXT
  5
12A
330
1F
100
AcDbEntity
  8
91000_TIP
  6
Continuous
 62
     7
100
AcDbText
 10
1059.971794118375
 20
205.7392745389947
 30
0.0
 40
2.5
  1
All dimensions are in millimeters (mm).
 41
0.7513350295680256
 72
     5
 11
1120.078596483817
 21
205.7392745389947
 31
0.0
100
AcDbText
  0
LINE
  5
2093
330
1F
100
AcDbEntity
  8
91000_TIP
  6
Continuous
 62
     7
100
AcDbLine
 10
1155.733114439736
 20
223.5807754396886
 30
0.0
 11
1165.733114235536
 21
226.0807753886886
 31
0.0
  0
LINE
  5
2094
330
1F
100
AcDbEntity
  8
91000_TIP
  6
CENTER
 62
     7
100
AcDbLine
 10
1154.453603967735
 20
221.0807754907886
 30
0.0
 11
1178.055593231835
 21
221.0807754907886
 31
0.0
  0
LINE
  5
2095
330
1F
100
AcDbEntity
  8
91000_TIP
  6
Continuous
 62
     7
100
AcDbLine
 10
1155.733114439736
 20
218.5807755418886
 30
0.0
 11
1165.733114235536
 21
216.0807755928885
 31
0.0
  0
LINE
  5
2096
330
1F
100
AcDbEntity
  8
91000_TIP
  6
Continuous
 62
     7
100
AcDbLine
 10
1155.733114439736
 20
223.5807754396886
 30
0.0
 11
1155.733114439736
 21
218.5807755418886
 31
0.0
  0
LINE
  5
2097
330
1F
100
AcDbEntity
  8
91000_TIP
  6
Continuous
 62
     7
100
AcDbLine
 10
1165.733114235536
 20
226.0807753886886
 30
0.0
 11
1165.733114235536
 21
216.0807755928885
 31
0.0
  0
LINE
  5
2098
330
1F
100
AcDbEntity
  8
91000_TIP
  6
CENTER
 62
     7
100
AcDbLine
 10
1172.233114102736
 20
215.3592942843886
 30
0.0
 11
1172.233114102736
 21
226.6426802843886
 31
0.0
  0
CIRCLE
  5
2099
330
1F
100
AcDbEntity
  8
91000_TIP
  6
Continuous
 62
     7
100
AcDbCircle
 10
1172.233114102736
 20
221.0807754907886
 30
0.0
 40
4.9999998979
  0
CIRCLE
  5
209A
330
1F
100
AcDbEntity
  8
91000_TIP
  6
Continuous
 62
     7
100
AcDbCircle
 10
1172.233114102736
 20
221.0807754907886
 30
0.0
 40
2.499999948899997
  0
LINE
  5
33C9
330
1F
100
AcDbEntity
  8
90000_FRAME
  6
Continuous
 62
     7
100
AcDbLine
 10
1055.918444335711
 20
202.257037917318
 30
0.0
 11
1055.918444335711
 21
402.2570379173179
 31
0.0
  0
LINE
  5
33CA
330
1F
100
AcDbEntity
  8
90000_FRAME
  6
Continuous
 62
     7
100
AcDbLine
 10
1055.918444335711
 20
402.2570379173179
 30
0.0
 11
1325.918444335711
 21
402.2570379173179
 31
0.0
  0
LINE
  5
36A4
330
1F
100
AcDbEntity
  8
10000_FRONT
  6
Continuous
 62
     7
370
    50
100
AcDbLine
 10
1163.030346343347
 20
330.9118399742706
 30
0.0
 11
1163.030346343347
 21
330.2548399742706
 31
0.0
1001
AUSTER_FOLIE
1002
{
1000
SPULVAR_10
1002
}
1001
AUSTER_ANSICHT
1002
{
1000
V
1002
}
  0
LINE
  5
36A5
330
1F
100
AcDbEntity
  8
10000_FRONT
  6
Continuous
 62
     7
370
    50
100
AcDbLine
 10
1163.030346343347
 20
330.4458399742707
 30
0.0
 11
1163.030346343347
 21
329.7118399742706
 31
0.0
1001
AUSTER_FOLIE
1002
{
1000
SPULVAR_10
1002
}
1001
AUSTER_ANSICHT
1002
{
1000
V
1002
}
  0
ARC
  5
36A6
330
1F
100
AcDbEntity
  8
10000_FRONT
  6
Continuous
 62
     7
370
    50
100
AcDbCircle
 10
1162.230346343347
 20
330.9118399742706
 30
0.0
 40
0.8
100
AcDbArc
 50
0.0
 51
90.0
1001
AUSTER_FOLIE
1002
{
1000
SPULVAR_10
1002
}
1001
AUSTER_ANSICHT
1002
{
1000
V
1002
}
  0
LINE
  5
36A7
330
1F
100
AcDbEntity
  8
10000_FRONT
  6
Continuous
 62
     7
370
    50
100
AcDbLine
 10
1158.330346343347
 20
331.7118399742706
 30
0.0
 11
1162.230346343347
 21
331.7118399742706
 31
0.0
1001
AUSTER_FOLIE
1002
{
1000
SPULVAR_10
1002
}
1001
AUSTER_ANSICHT
1002
{
1000
V
1002
}
  0
LINE
  5
36A8
330
1F
100
AcDbEntity
  8
10000_FRONT
  6
Continuous
 62
     7
370
    50
100
AcDbLine
 10
1125.730346343347
 20
321.2118399742706
 30
0.0
 11
1125.730346343347
 21
343.4118399742706
 31
0.0
1001
AUSTER_FOLIE
1002
{
1000
SPULVAR_10
1002
}
1001
AUSTER_ANSICHT
1002
{
1000
V
1002
}
  0
LINE
  5
36A9
330
1F
100
AcDbEntity
  8
10000_FRONT
  6
Continuous
 62
     7
370
    50
100
AcDbLine
 10
1160.330346343347
 20
321.2118399742706
 30
0.0
 11
1159.930346343347
 21
321.2118399742706
 31
0.0
1001
AUSTER_FOLIE
1002
{
1000
SPULVAR_10
1002
}
1001
AUSTER_ANSICHT
1002
{
1000
V
1002
}
  0
LINE
  5
36AA
330
1F
100
AcDbEntity
  8
10000_FRONT
  6
Continuous
 62
     7
370
    50
100
AcDbLine
 10
1159.930346343347
 20
321.2118399742706
 30
0.0
 11
1158.330346343347
 21
321.2118399742706
 31
0.0
1001
AUSTER_FOLIE
1002
{
1000
SPULVAR_10
1002
}
1001
AUSTER_ANSICHT
1002
{
1000
V
1002
}
  0
LINE
  5
36AB
330
1F
100
AcDbEntity
  8
10000_FRONT
  6
Continuous
 62
     7
370
    50
100
AcDbLine
 10
1125.730346343347
 20
321.2118399742706
 30
0.0
 11
1124.130346343347
 21
321.2118399742706
 31
0.0
1001
AUSTER_FOLIE
1002
{
1000
SPULVAR_10
1002
}
1001
AUSTER_ANSICHT
1002
{
1000
V
1002
}
  0
LINE
  5
36AC
330
1F
100
AcDbEntity
  8
10000_FRONT
  6
Continuous
 62
     7
370
    50
100
AcDbLine
 10
1124.130346343347
 20
321.2118399742706
 30
0.0
 11
1123.730346343347
 21
321.2118399742706
 31
0.0
1001
AUSTER_FOLIE
1002
{
1000
SPULVAR_10
1002
}
1001
AUSTER_ANSICHT
1002
{
1000
V
1002
}
  0
LINE
  5
36AD
330
1F
100
AcDbEntity
  8
10000_FRONT
  6
Continuous
 62
     7
370
    50
100
AcDbLine
 10
1124.530346343347
 20
323.2118399742706
 30
0.0
 11
1125.730346343347
 21
323.2118399742706
 31
0.0
1001
AUSTER_FOLIE
1002
{
1000
SPULVAR_10
1002
}
1001
AUSTER_ANSICHT
1002
{
1000
V
1002
}
  0
LINE
  5
36AE
330
1F
100
AcDbEntity
  8
10000_FRONT
  6
Continuous
 62
     7
370
    50
100
AcDbLine
 10
1123.730346343347
 20
321.2118399742706
 30
0.0
 11
1123.730346343347
 21
322.4118399742706
 31
0.0
1001
AUSTER_FOLIE
1002
{
1000
SPULVAR_10
1002
}
1001
AUSTER_ANSICHT
1002
{
1000
V
1002
}
  0
LINE
  5
36AF
330
1F
100
AcDbEntity
  8
10000_FRONT
  6
Continuous
 62
     7
370
    50
100
AcDbLine
 10
1158.330346343347
 20
323.2118399742706
 30
0.0
 11
1159.530346343347
 21
323.2118399742706
 31
0.0
1001
AUSTER_FOLIE
1002
{
1000
SPULVAR_10
1002
}
1001
AUSTER_ANSICHT
1002
{
1000
V
1002
}
  0
LINE
  5
36B0
330
1F
100
AcDbEntity
  8
10000_FRONT
  6
Continuous
 62
     7
370
    50
100
AcDbLine
 10
1160.330346343347
 20
322.4118399742706
 30
0.0
 11
1160.330346343347
 21
321.2118399742706
 31
0.0
1001
AUSTER_FOLIE
1002
{
1000
SPULVAR_10
1002
}
1001
AUSTER_ANSICHT
1002
{
1000
V
1002
}
  0
ARC
  5
36B1
330
1F
100
AcDbEntity
  8
10000_FRONT
  6
Continuous
 62
     7
370
    50
100
AcDbCircle
 10
1159.530346343347
 20
322.4118399742706
 30
0.0
 40
0.8
100
AcDbArc
 50
0.0
 51
90.0
1001
AUSTER_FOLIE
1002
{
1000
SPULVAR_10
1002
}
1001
AUSTER_ANSICHT
1002
{
1000
V
1002
}
  0
ARC
  5
36B2
102
{ACAD_REACTORS
330
519A
102
}
330
1F
100
AcDbEntity
  8
10000_FRONT
  6
Continuous
 62
     7
370
    50
100
AcDbCircle
 10
1126.530346343347
 20
343.4118399742706
 30
0.0
 40
0.8
100
AcDbArc
 50
90.0
 51
180.0
1001
AUSTER_FOLIE
1002
{
1000
SPULVAR_10
1002
}
1001
AUSTER_ANSICHT
1002
{
1000
V
1002
}
  0
ARC
  5
36B3
330
1F
100
AcDbEntity
  8
10000_FRONT
  6
Continuous
 62
     7
370
    50
100
AcDbCircle
 10
1124.530346343347
 20
322.4118399742706
 30
0.0
 40
0.8
100
AcDbArc
 50
90.0
 51
180.0
1001
AUSTER_FOLIE
1002
{
1000
SPULVAR_10
1002
}
1001
AUSTER_ANSICHT
1002
{
1000
V
1002
}
  0
LINE
  5
36B4
330
1F
100
AcDbEntity
  8
10000_FRONT
  6
Continuous
 62
     7
370
    50
100
AcDbLine
 10
1126.530346343347
 20
344.2118399742706
 30
0.0
 11
1157.930346343347
 21
344.2118399742706
 31
0.0
1001
AUSTER_FOLIE
1002
{
1000
SPULVAR_10
1002
}
1001
AUSTER_ANSICHT
1002
{
1000
V
1002
}
  0
LINE
  5
36B5
330
1F
100
AcDbEntity
  8
10000_FRONT
  6
Continuous
 62
     7
370
    50
100
AcDbLine
 10
1155.530346343347
 20
344.9118399742706
 30
0.0
 11
1157.930346343347
 21
344.9118399742706
 31
0.0
1001
AUSTER_FOLIE
1002
{
1000
SPULVAR_10
1002
}
1001
AUSTER_ANSICHT
1002
{
1000
V
1002
}
  0
LINE
  5
36B6
330
1F
100
AcDbEntity
  8
10000_FRONT
  6
Continuous
 62
     7
370
    50
100
AcDbLine
 10
1155.530346343347
 20
344.2118399742706
 30
0.0
 11
1155.530346343347
 21
344.9118399742706
 31
0.0
1001
AUSTER_FOLIE
1002
{
1000
SPULVAR_10
1002
}
1001
AUSTER_ANSICHT
1002
{
1000
V
1002
}
  0
LINE
  5
36B7
330
1F
100
AcDbEntity
  8
10000_FRONT
  6
Continuous
 62
     7
370
    50
100
AcDbLine
 10
1158.330346343347
 20
343.8118399742706
 30
0.0
 11
1158.330346343347
 21
343.2618399742706
 31
0.0
1001
AUSTER_FOLIE
1002
{
1000
SPULVAR_10
1002
}
1001
AUSTER_ANSICHT
1002
{
1000
V
1002
}
  0
LINE
  5
36B8
330
1F
100
AcDbEntity
  8
10000_FRONT
  6
Continuous
 62
     7
370
    50
100
AcDbLine
 10
1158.330346343347
 20
343.2618399742706
 30
0.0
 11
1158.330346343347
 21
331.7118399742706
 31
0.0
1001
AUSTER_FOLIE
1002
{
1000
SPULVAR_10
1002
}
1001
AUSTER_ANSICHT
1002
{
1000
V
1002
}
  0
LINE
  5
36BA
330
1F
100
AcDbEntity
  8
10000_FRONT
  6
Continuous
 62
     7
370
    50
100
AcDbLine
 10
1158.330346343347
 20
329.2118399742706
 30
0.0
 11
1158.330346343347
 21
321.2118399742706
 31
0.0
1001
AUSTER_FOLIE
1002
{
1000
SPULVAR_10
1002
}
1001
AUSTER_ANSICHT
1002
{
1000
V
1002
}
  0
LINE
  5
36BB
330
1F
100
AcDbEntity
  8
10000_FRONT
  6
Continuous
 62
     7
370
    50
100
AcDbLine
 10
1158.330346343347
 20
344.5118399742706
 30
0.0
 11
1158.330346343347
 21
343.8118399742706
 31
0.0
1001
AUSTER_FOLIE
1002
{
1000
SPULVAR_10
1002
}
1001
AUSTER_ANSICHT
1002
{
1000
V
1002
}
  0
ARC
  5
36BC
102
{ACAD_REACTORS
330
519A
102
}
330
1F
100
AcDbEntity
  8
10000_FRONT
  6
Continuous
 62
     7
370
    50
100
AcDbCircle
 10
1157.930346343347
 20
344.5118399742706
 30
0.0
 40
0.4
100
AcDbArc
 50
0.0
 51
90.0
1001
AUSTER_FOLIE
1002
{
1000
SPULVAR_10
1002
}
1001
AUSTER_ANSICHT
1002
{
1000
V
1002
}
  0
ARC
  5
36BD
330
1F
100
AcDbEntity
  8
10000_FRONT
  6
Continuous
 62
     7
370
    50
100
AcDbCircle
 10
1157.930346343347
 20
343.8118399742706
 30
0.0
 40
0.4
100
AcDbArc
 50
0.0
 51
90.0
1001
AUSTER_FOLIE
1002
{
1000
SPULVAR_10
1002
}
1001
AUSTER_ANSICHT
1002
{
1000
V
1002
}
  0
POLYLINE
  5
36FB
330
1F
100
AcDbEntity
  8
10000_FRONT
  6
Continuous
 62
     7
370
    50
100
AcDb2dPolyline
 66
     1
 10
0.0
 20
0.0
 30
0.0
 70
     2
1001
AUSTER_FOLIE
1002
{
1000
SPULVAR_10
1002
}
1001
AUSTER_ANSICHT
1002
{
1000
V
1002
}
  0
VERTEX
  5
36FC
330
36FB
100
AcDbEntity
  8
10000_FRONT
  6
Continuous
 62
     7
370
    50
100
AcDbVertex
100
AcDb2dVertex
 10
1162.530346343347
 20
329.2118399742706
 30
0.0
  0
VERTEX
  5
36FD
330
36FB
100
AcDbEntity
  8
10000_FRONT
  6
Continuous
 62
     7
370
    50
100
AcDbVertex
100
AcDb2dVertex
 10
1162.542346343347
 20
329.2118399742706
 30
0.0
 42
0.006
 70
     1
  0
VERTEX
  5
36FE
330
36FB
100
AcDbEntity
  8
10000_FRONT
  6
Continuous
 62
     7
370
    50
100
AcDbVertex
100
AcDb2dVertex
 10
1162.554346343347
 20
329.2118399742706
 30
0.0
 42
0.006
  0
VERTEX
  5
36FF
330
36FB
100
AcDbEntity
  8
10000_FRONT
  6
Continuous
 62
     7
370
    50
100
AcDbVertex
100
AcDb2dVertex
 10
1162.566346343347
 20
329.2128399742706
 30
0.0
 42
0.006
 70
     1
  0
VERTEX
  5
3700
330
36FB
100
AcDbEntity
  8
10000_FRONT
  6
Continuous
 62
     7
370
    50
100
AcDbVertex
100
AcDb2dVertex
 10
1162.578346343347
 20
329.2138399742706
 30
0.0
 42
0.006
  0
VERTEX
  5
3701
330
36FB
100
AcDbEntity
  8
10000_FRONT
  6
Continuous
 62
     7
370
    50
100
AcDbVertex
100
AcDb2dVertex
 10
1162.591346343347
 20
329.2158399742707
 30
0.0
 42
0.006
 70
     1
  0
VERTEX
  5
3702
330
36FB
100
AcDbEntity
  8
10000_FRONT
  6
Continuous
 62
     7
370
    50
100
AcDbVertex
100
AcDb2dVertex
 10
1162.603346343347
 20
329.2168399742706
 30
0.0
 42
0.006
  0
VERTEX
  5
3703
330
36FB
100
AcDbEntity
  8
10000_FRONT
  6
Continuous
 62
     7
370
    50
100
AcDbVertex
100
AcDb2dVertex
 10
1162.615346343347
 20
329.2188399742706
 30
0.0
 42
0.006
 70
     1
  0
VERTEX
  5
3704
330
36FB
100
AcDbEntity
  8
10000_FRONT
  6
Continuous
 62
     7
370
    50
100
AcDbVertex
100
AcDb2dVertex
 10
1162.628346343347
 20
329.2208399742706
 30
0.0
 42
0.006
  0
VERTEX
  5
3705
330
36FB
100
AcDbEntity
  8
10000_FRONT
  6
Continuous
 62
     7
370
    50
100
AcDbVertex
100
AcDb2dVertex
 10
1162.640346343347
 20
329.2238399742706
 30
0.0
 42
0.006
 70
     1
  0
VERTEX
  5
3706
330
36FB
100
AcDbEntity
  8
10000_FRONT
  6
Continuous
 62
     7
370
    50
100
AcDbVertex
100
AcDb2dVertex
 10
1162.652346343347
 20
329.2268399742706
 30
0.0
 42
0.006
  0
VERTEX
  5
3707
330
36FB
100
AcDbEntity
  8
10000_FRONT
  6
Continuous
 62
     7
370
    50
100
AcDbVertex
100
AcDb2dVertex
 10
1162.665346343347
 20
329.2298399742707
 30
0.0
 42
0.006
 70
     1
  0
VERTEX
  5
3708
330
36FB
100
AcDbEntity
  8
10000_FRONT
  6
Continuous
 62
     7
370
    50
100
AcDbVertex
100
AcDb2dVertex
 10
1162.677346343347
 20
329.2338399742706
 30
0.0
 42
0.006
  0
VERTEX
  5
3709
330
36FB
100
AcDbEntity
  8
10000_FRONT
  6
Continuous
 62
     7
370
    50
100
AcDbVertex
100
AcDb2dVertex
 10
1162.690346343347
 20
329.2378399742706
 30
0.0
 42
0.006
 70
     1
  0
VERTEX
  5
370A
330
36FB
100
AcDbEntity
  8
10000_FRONT
  6
Continuous
 62
     7
370
    50
100
AcDbVertex
100
AcDb2dVertex
 10
1162.702346343347
 20
329.2418399742707
 30
0.0
 42
0.007
  0
VERTEX
  5
370B
330
36FB
100
AcDbEntity
  8
10000_FRONT
  6
Continuous
 62
     7
370
    50
100
AcDbVertex
100
AcDb2dVertex
 10
1162.714346343347
 20
329.2468399742706
 30
0.0
 42
0.007
 70
     1
  0
VERTEX
  5
370C
330
36FB
100
AcDbEntity
  8
10000_FRONT
  6
Continuous
 62
     7
370
    50
100
AcDbVertex
100
AcDb2dVertex
 10
1162.727346343347
 20
329.2518399742706
 30
0.0
 42
0.007
  0
VERTEX
  5
370D
330
36FB
100
AcDbEntity
  8
10000_FRONT
  6
Continuous
 62
     7
370
    50
100
AcDbVertex
100
AcDb2dVertex
 10
1162.739346343347
 20
329.2568399742706
 30
0.0
 42
0.007
 70
     1
  0
VERTEX
  5
370E
330
36FB
100
AcDbEntity
  8
10000_FRONT
  6
Continuous
 62
     7
370
    50
100
AcDbVertex
100
AcDb2dVertex
 10
1162.751346343347
 20
329.2628399742706
 30
0.0
 42
0.007
  0
VERTEX
  5
370F
330
36FB
100
AcDbEntity
  8
10000_FRONT
  6
Continuous
 62
     7
370
    50
100
AcDbVertex
100
AcDb2dVertex
 10
1162.763346343347
 20
329.2688399742706
 30
0.0
 42
0.007
 70
     1
  0
VERTEX
  5
3710
330
36FB
100
AcDbEntity
  8
10000_FRONT
  6
Continuous
 62
     7
370
    50
100
AcDbVertex
100
AcDb2dVertex
 10
1162.775346343347
 20
329.2758399742707
 30
0.0
 42
0.007
  0
VERTEX
  5
3711
330
36FB
100
AcDbEntity
  8
10000_FRONT
  6
Continuous
 62
     7
370
    50
100
AcDbVertex
100
AcDb2dVertex
 10
1162.787346343347
 20
329.2828399742707
 30
0.0
 42
0.007
 70
     1
  0
VERTEX
  5
3712
330
36FB
100
AcDbEntity
  8
10000_FRONT
  6
Continuous
 62
     7
370
    50
100
AcDbVertex
100
AcDb2dVertex
 10
1162.798346343347
 20
329.2898399742707
 30
0.0
 42
0.007
  0
VERTEX
  5
3713
330
36FB
100
AcDbEntity
  8
10000_FRONT
  6
Continuous
 62
     7
370
    50
100
AcDbVertex
100
AcDb2dVertex
 10
1162.810346343347
 20
329.2968399742707
 30
0.0
 42
0.007
 70
     1
  0
VERTEX
  5
3714
330
36FB
100
AcDbEntity
  8
10000_FRONT
  6
Continuous
 62
     7
370
    50
100
AcDbVertex
100
AcDb2dVertex
 10
1162.821346343347
 20
329.3048399742706
 30
0.0
 42
0.007
  0
VERTEX
  5
3715
330
36FB
100
AcDbEntity
  8
10000_FRONT
  6
Continuous
 62
     7
370
    50
100
AcDbVertex
100
AcDb2dVertex
 10
1162.832346343347
 20
329.3128399742706
 30
0.0
 42
0.007
 70
     1
  0
VERTEX
  5
3716
330
36FB
100
AcDbEntity
  8
10000_FRONT
  6
Continuous
 62
     7
370
    50
100
AcDbVertex
100
AcDb2dVertex
 10
1162.843346343347
 20
329.3218399742706
 30
0.0
 42
0.007
  0
VERTEX
  5
3717
330
36FB
100
AcDbEntity
  8
10000_FRONT
  6
Continuous
 62
     7
370
    50
100
AcDbVertex
100
AcDb2dVertex
 10
1162.853346343347
 20
329.3298399742706
 30
0.0
 42
0.007
 70
     1
  0
VERTEX
  5
3718
330
36FB
100
AcDbEntity
  8
10000_FRONT
  6
Continuous
 62
     7
370
    50
100
AcDbVertex
100
AcDb2dVertex
 10
1162.864346343347
 20
329.3388399742706
 30
0.0
 42
0.007
  0
VERTEX
  5
3719
330
36FB
100
AcDbEntity
  8
10000_FRONT
  6
Continuous
 62
     7
370
    50
100
AcDbVertex
100
AcDb2dVertex
 10
1162.874346343347
 20
329.3488399742706
 30
0.0
 42
0.007
 70
     1
  0
VERTEX
  5
371A
330
36FB
100
AcDbEntity
  8
10000_FRONT
  6
Continuous
 62
     7
370
    50
100
AcDbVertex
100
AcDb2dVertex
 10
1162.884346343347
 20
329.3578399742707
 30
0.0
 42
0.007
  0
VERTEX
  5
371B
330
36FB
100
AcDbEntity
  8
10000_FRONT
  6
Continuous
 62
     7
370
    50
100
AcDbVertex
100
AcDb2dVertex
 10
1162.894346343347
 20
329.3678399742706
 30
0.0
 42
0.007
 70
     1
  0
VERTEX
  5
371C
330
36FB
100
AcDbEntity
  8
10000_FRONT
  6
Continuous
 62
     7
370
    50
100
AcDbVertex
100
AcDb2dVertex
 10
1162.903346343347
 20
329.3778399742706
 30
0.0
 42
0.007
  0
VERTEX
  5
371D
330
36FB
100
AcDbEntity
  8
10000_FRONT
  6
Continuous
 62
     7
370
    50
100
AcDbVertex
100
AcDb2dVertex
 10
1162.912346343347
 20
329.3888399742706
 30
0.0
 42
0.007
 70
     1
  0
VERTEX
  5
371E
330
36FB
100
AcDbEntity
  8
10000_FRONT
  6
Continuous
 62
     7
370
    50
100
AcDbVertex
100
AcDb2dVertex
 10
1162.921346343347
 20
329.3988399742706
 30
0.0
 42
0.007
  0
VERTEX
  5
371F
330
36FB
100
AcDbEntity
  8
10000_FRONT
  6
Continuous
 62
     7
370
    50
100
AcDbVertex
100
AcDb2dVertex
 10
1162.929346343347
 20
329.4098399742706
 30
0.0
 42
0.007
 70
     1
  0
VERTEX
  5
3720
330
36FB
100
AcDbEntity
  8
10000_FRONT
  6
Continuous
 62
     7
370
    50
100
AcDbVertex
100
AcDb2dVertex
 10
1162.937346343347
 20
329.4208399742706
 30
0.0
 42
0.007
  0
VERTEX
  5
3721
330
36FB
100
AcDbEntity
  8
10000_FRONT
  6
Continuous
 62
     7
370
    50
100
AcDbVertex
100
AcDb2dVertex
 10
1162.945346343347
 20
329.4328399742706
 30
0.0
 42
0.007
 70
     1
  0
VERTEX
  5
3722
330
36FB
100
AcDbEntity
  8
10000_FRONT
  6
Continuous
 62
     7
370
    50
100
AcDbVertex
100
AcDb2dVertex
 10
1162.953346343347
 20
329.4438399742706
 30
0.0
 42
0.007
  0
VERTEX
  5
3723
330
36FB
100
AcDbEntity
  8
10000_FRONT
  6
Continuous
 62
     7
370
    50
100
AcDbVertex
100
AcDb2dVertex
 10
1162.960346343347
 20
329.4558399742706
 30
0.0
 42
0.007
 70
     1
  0
VERTEX
  5
3724
330
36FB
100
AcDbEntity
  8
10000_FRONT
  6
Continuous
 62
     7
370
    50
100
AcDbVertex
100
AcDb2dVertex
 10
1162.966346343347
 20
329.4668399742706
 30
0.0
 42
0.007
  0
VERTEX
  5
3725
330
36FB
100
AcDbEntity
  8
10000_FRONT
  6
Continuous
 62
     7
370
    50
100
AcDbVertex
100
AcDb2dVertex
 10
1162.973346343347
 20
329.4788399742706
 30
0.0
 42
0.007
 70
     1
  0
VERTEX
  5
3726
330
36FB
100
AcDbEntity
  8
10000_FRONT
  6
Continuous
 62
     7
370
    50
100
AcDbVertex
100
AcDb2dVertex
 10
1162.979346343347
 20
329.4908399742706
 30
0.0
 42
0.007
  0
VERTEX
  5
3727
330
36FB
100
AcDbEntity
  8
10000_FRONT
  6
Continuous
 62
     7
370
    50
100
AcDbVertex
100
AcDb2dVertex
 10
1162.985346343347
 20
329.5028399742706
 30
0.0
 42
0.007
 70
     1
  0
VERTEX
  5
3728
330
36FB
100
AcDbEntity
  8
10000_FRONT
  6
Continuous
 62
     7
370
    50
100
AcDbVertex
100
AcDb2dVertex
 10
1162.990346343347
 20
329.5158399742707
 30
0.0
 42
0.007
  0
VERTEX
  5
3729
330
36FB
100
AcDbEntity
  8
10000_FRONT
  6
Continuous
 62
     7
370
    50
100
AcDbVertex
100
AcDb2dVertex
 10
1162.995346343347
 20
329.5278399742707
 30
0.0
 42
0.007
 70
     1
  0
VERTEX
  5
372A
330
36FB
100
AcDbEntity
  8
10000_FRONT
  6
Continuous
 62
     7
370
    50
100
AcDbVertex
100
AcDb2dVertex
 10
1163.000346343347
 20
329.5398399742706
 30
0.0
 42
0.007
  0
VERTEX
  5
372B
330
36FB
100
AcDbEntity
  8
10000_FRONT
  6
Continuous
 62
     7
370
    50
100
AcDbVertex
100
AcDb2dVertex
 10
1163.004346343347
 20
329.5528399742706
 30
0.0
 42
0.007
 70
     1
  0
VERTEX
  5
372C
330
36FB
100
AcDbEntity
  8
10000_FRONT
  6
Continuous
 62
     7
370
    50
100
AcDbVertex
100
AcDb2dVertex
 10
1163.008346343347
 20
329.5648399742706
 30
0.0
 42
0.007
  0
VERTEX
  5
372D
330
36FB
100
AcDbEntity
  8
10000_FRONT
  6
Continuous
 62
     7
370
    50
100
AcDbVertex
100
AcDb2dVertex
 10
1163.012346343347
 20
329.5768399742706
 30
0.0
 42
0.006
 70
     1
  0
VERTEX
  5
372E
330
36FB
100
AcDbEntity
  8
10000_FRONT
  6
Continuous
 62
     7
370
    50
100
AcDbVertex
100
AcDb2dVertex
 10
1163.015346343347
 20
329.5898399742706
 30
0.0
 42
0.006
  0
VERTEX
  5
372F
330
36FB
100
AcDbEntity
  8
10000_FRONT
  6
Continuous
 62
     7
370
    50
100
AcDbVertex
100
AcDb2dVertex
 10
1163.018346343347
 20
329.6018399742706
 30
0.0
 42
0.006
 70
     1
  0
VERTEX
  5
3730
330
36FB
100
AcDbEntity
  8
10000_FRONT
  6
Continuous
 62
     7
370
    50
100
AcDbVertex
100
AcDb2dVertex
 10
1163.021346343347
 20
329.6148399742707
 30
0.0
 42
0.008
  0
VERTEX
  5
3731
330
36FB
100
AcDbEntity
  8
10000_FRONT
  6
Continuous
 62
     7
370
    50
100
AcDbVertex
100
AcDb2dVertex
 10
1163.023346343347
 20
329.6268399742706
 30
0.0
 42
0.006
 70
     1
  0
VERTEX
  5
3732
330
36FB
100
AcDbEntity
  8
10000_FRONT
  6
Continuous
 62
     7
370
    50
100
AcDbVertex
100
AcDb2dVertex
 10
1163.025346343347
 20
329.6388399742706
 30
0.0
 42
0.002
  0
VERTEX
  5
3733
330
36FB
100
AcDbEntity
  8
10000_FRONT
  6
Continuous
 62
     7
370
    50
100
AcDbVertex
100
AcDb2dVertex
 10
1163.027346343347
 20
329.6498399742706
 30
0.0
 42
0.008
 70
     1
  0
VERTEX
  5
3734
330
36FB
100
AcDbEntity
  8
10000_FRONT
  6
Continuous
 62
     7
370
    50
100
AcDbVertex
100
AcDb2dVertex
 10
1163.028346343347
 20
329.6638399742706
 30
0.0
 42
0.013
  0
VERTEX
  5
3735
330
36FB
100
AcDbEntity
  8
10000_FRONT
  6
Continuous
 62
     7
370
    50
100
AcDbVertex
100
AcDb2dVertex
 10
1163.029346343347
 20
329.6848399742706
 30
0.0
 42
0.007
 70
     1
  0
VERTEX
  5
3736
330
36FB
100
AcDbEntity
  8
10000_FRONT
  6
Continuous
 62
     7
370
    50
100
AcDbVertex
100
AcDb2dVertex
 10
1163.030346343347
 20
329.7118399742706
 30
0.0
 42
0.004
  0
SEQEND
  5
3737
330
36FB
100
AcDbEntity
  8
10000_FRONT
  6
Continuous
 62
     7
370
    50
  0
LINE
  5
378A
330
1F
100
AcDbEntity
  8
10000_FRONT
  6
Continuous
 62
     7
370
    50
100
AcDbLine
 10
1158.330346343347
 20
329.2118399742706
 30
0.0
 11
1162.530346343347
 21
329.2118399742706
 31
0.0
1001
AUSTER_FOLIE
1002
{
1000
SPULVAR_10
1002
}
1001
AUSTER_ANSICHT
1002
{
1000
V
1002
}
  0
ARC
  5
378B
330
1F
100
AcDbEntity
  8
10000_FRONT
  6
Continuous
 62
     7
370
    50
100
AcDbCircle
 10
1126.130346343347
 20
320.2118399742706
 30
0.0
 40
0.4
100
AcDbArc
 50
180.0
 51
270.0
1001
AUSTER_FOLIE
1002
{
1000
SPULVAR_10
1002
}
1001
AUSTER_ANSICHT
1002
{
1000
V
1002
}
  0
ARC
  5
378C
330
1F
100
AcDbEntity
  8
10000_FRONT
  6
Continuous
 62
     7
370
    50
100
AcDbCircle
 10
1157.980346343347
 20
320.1618399742706
 30
0.0
 40
0.35
100
AcDbArc
 50
270.0
 51
0.0
1001
AUSTER_FOLIE
1002
{
1000
SPULVAR_10
1002
}
1001
AUSTER_ANSICHT
1002
{
1000
V
1002
}
  0
LINE
  5
378D
330
1F
100
AcDbEntity
  8
10000_FRONT
  6
Continuous
 62
     7
370
    50
100
AcDbLine
 10
1139.630346343347
 20
316.8118399742706
 30
0.0
 11
1139.430346343347
 21
316.8118399742706
 31
0.0
1001
AUSTER_FOLIE
1002
{
1000
SPULVAR_10
1002
}
1001
AUSTER_ANSICHT
1002
{
1000
V
1002
}
  0
LINE
  5
378E
330
1F
100
AcDbEntity
  8
10000_FRONT
  6
Continuous
 62
     7
370
    50
100
AcDbLine
 10
1139.430346343347
 20
316.8118399742706
 30
0.0
 11
1137.930346343347
 21
316.8118399742706
 31
0.0
1001
AUSTER_FOLIE
1002
{
1000
SPULVAR_10
1002
}
1001
AUSTER_ANSICHT
1002
{
1000
V
1002
}
  0
LINE
  5
378F
330
1F
100
AcDbEntity
  8
10000_FRONT
  6
Continuous
 62
     7
370
    50
100
AcDbLine
 10
1152.530346343347
 20
316.8118399742706
 30
0.0
 11
1151.030346343347
 21
316.8118399742706
 31
0.0
1001
AUSTER_FOLIE
1002
{
1000
SPULVAR_10
1002
}
1001
AUSTER_ANSICHT
1002
{
1000
V
1002
}
  0
LINE
  5
3790
330
1F
100
AcDbEntity
  8
10000_FRONT
  6
Continuous
 62
     7
370
    50
100
AcDbLine
 10
1151.030346343347
 20
316.8118399742706
 30
0.0
 11
1150.830346343347
 21
316.8118399742706
 31
0.0
1001
AUSTER_FOLIE
1002
{
1000
SPULVAR_10
1002
}
1001
AUSTER_ANSICHT
1002
{
1000
V
1002
}
  0
LINE
  5
3791
330
1F
100
AcDbEntity
  8
10000_FRONT
  6
Continuous
 62
     7
370
    50
100
AcDbLine
 10
1150.830346343347
 20
316.8118399742706
 30
0.0
 11
1139.630346343347
 21
316.8118399742706
 31
0.0
1001
AUSTER_FOLIE
1002
{
1000
SPULVAR_10
1002
}
1001
AUSTER_ANSICHT
1002
{
1000
V
1002
}
  0
LINE
  5
3792
330
1F
100
AcDbEntity
  8
10000_FRONT
  6
Continuous
 62
     7
370
    50
100
AcDbLine
 10
1153.030346343347
 20
317.3118399742707
 30
0.0
 11
1152.530346343347
 21
316.8118399742706
 31
0.0
1001
AUSTER_FOLIE
1002
{
1000
SPULVAR_10
1002
}
1001
AUSTER_ANSICHT
1002
{
1000
V
1002
}
  0
LINE
  5
3793
330
1F
100
AcDbEntity
  8
10000_FRONT
  6
Continuous
 62
     7
370
    13
100
AcDbLine
 10
1134.580346343347
 20
312.3118399742706
 30
0.0
 11
1133.380346343347
 21
312.3118399742706
 31
0.0
1001
AUSTER_FOLIE
1002
{
1000
SPULVAR_10
1002
}
1001
AUSTER_ANSICHT
1002
{
1000
V
1002
}
  0
LINE
  5
3794
330
1F
100
AcDbEntity
  8
10000_FRONT
  6
Continuous
 62
     7
370
    50
100
AcDbLine
 10
1135.430346343347
 20
320.0218399742706
 30
0.0
 11
1135.430346343347
 21
320.9758399742706
 31
0.0
1001
AUSTER_FOLIE
1002
{
1000
SPULVAR_10
1002
}
1001
AUSTER_ANSICHT
1002
{
1000
V
1002
}
  0
LINE
  5
3795
330
1F
100
AcDbEntity
  8
10000_FRONT
  6
Continuous
 62
     7
370
    50
100
AcDbLine
 10
1135.430346343347
 20
320.0218399742706
 30
0.0
 11
1135.430346343347
 21
319.6308399742707
 31
0.0
1001
AUSTER_FOLIE
1002
{
1000
SPULVAR_10
1002
}
1001
AUSTER_ANSICHT
1002
{
1000
V
1002
}
  0
LINE
  5
3796
330
1F
100
AcDbEntity
  8
10000_FRONT
  6
Continuous
 62
     7
370
    50
100
AcDbLine
 10
1135.430346343347
 20
319.6308399742707
 30
0.0
 11
1135.430346343347
 21
318.9118399742706
 31
0.0
1001
AUSTER_FOLIE
1002
{
1000
SPULVAR_10
1002
}
1001
AUSTER_ANSICHT
1002
{
1000
V
1002
}
  0
LINE
  5
3797
330
1F
100
AcDbEntity
  8
10000_FRONT
  6
Continuous
 62
     7
370
    50
100
AcDbLine
 10
1135.430346343347
 20
318.9118399742706
 30
0.0
 11
1135.430346343347
 21
316.6148399742706
 31
0.0
1001
AUSTER_FOLIE
1002
{
1000
SPULVAR_10
1002
}
1001
AUSTER_ANSICHT
1002
{
1000
V
1002
}
  0
LINE
  5
3798
330
1F
100
AcDbEntity
  8
10000_FRONT
  6
Continuous
 62
     7
370
    50
100
AcDbLine
 10
1132.530346343347
 20
318.9118399742706
 30
0.0
 11
1132.530346343347
 21
316.6148399742706
 31
0.0
1001
AUSTER_FOLIE
1002
{
1000
SPULVAR_10
1002
}
1001
AUSTER_ANSICHT
1002
{
1000
V
1002
}
  0
LINE
  5
3799
330
1F
100
AcDbEntity
  8
10000_FRONT
  6
Continuous
 62
     7
370
    50
100
AcDbLine
 10
1132.530346343347
 20
318.9118399742706
 30
0.0
 11
1132.530346343347
 21
319.6308399742707
 31
0.0
1001
AUSTER_FOLIE
1002
{
1000
SPULVAR_10
1002
}
1001
AUSTER_ANSICHT
1002
{
1000
V
1002
}
  0
LINE
  5
379A
330
1F
100
AcDbEntity
  8
10000_FRONT
  6
Continuous
 62
     7
370
    50
100
AcDbLine
 10
1132.530346343347
 20
319.6308399742707
 30
0.0
 11
1132.530346343347
 21
320.0218399742706
 31
0.0
1001
AUSTER_FOLIE
1002
{
1000
SPULVAR_10
1002
}
1001
AUSTER_ANSICHT
1002
{
1000
V
1002
}
  0
LINE
  5
379B
330
1F
100
AcDbEntity
  8
10000_FRONT
  6
Continuous
 62
     7
370
    50
100
AcDbLine
 10
1132.530346343347
 20
321.2118399742706
 30
0.0
 11
1132.530346343347
 21
320.0218399742706
 31
0.0
1001
AUSTER_FOLIE
1002
{
1000
SPULVAR_10
1002
}
1001
AUSTER_ANSICHT
1002
{
1000
V
1002
}
  0
LINE
  5
379C
330
1F
100
AcDbEntity
  8
10000_FRONT
  6
Continuous
 62
     7
370
    50
100
AcDbLine
 10
1157.930346343347
 20
320.0218399742706
 30
0.0
 11
1157.930346343347
 21
320.9378399742706
 31
0.0
1001
AUSTER_FOLIE
1002
{
1000
SPULVAR_10
1002
}
1001
AUSTER_ANSICHT
1002
{
1000
V
1002
}
  0
LINE
  5
379D
330
1F
100
AcDbEntity
  8
10000_FRONT
  6
Continuous
 62
     7
370
    50
100
AcDbLine
 10
1157.930346343347
 20
320.0218399742706
 30
0.0
 11
1157.930346343347
 21
319.6308399742707
 31
0.0
1001
AUSTER_FOLIE
1002
{
1000
SPULVAR_10
1002
}
1001
AUSTER_ANSICHT
1002
{
1000
V
1002
}
  0
LINE
  5
379E
330
1F
100
AcDbEntity
  8
10000_FRONT
  6
Continuous
 62
     7
370
    50
100
AcDbLine
 10
1157.930346343347
 20
319.6308399742707
 30
0.0
 11
1157.930346343347
 21
318.9118399742706
 31
0.0
1001
AUSTER_FOLIE
1002
{
1000
SPULVAR_10
1002
}
1001
AUSTER_ANSICHT
1002
{
1000
V
1002
}
  0
LINE
  5
379F
330
1F
100
AcDbEntity
  8
10000_FRONT
  6
Continuous
 62
     7
370
    50
100
AcDbLine
 10
1157.930346343347
 20
318.9118399742706
 30
0.0
 11
1157.930346343347
 21
316.6118399742706
 31
0.0
1001
AUSTER_FOLIE
1002
{
1000
SPULVAR_10
1002
}
1001
AUSTER_ANSICHT
1002
{
1000
V
1002
}
  0
LINE
  5
37A0
330
1F
100
AcDbEntity
  8
10000_FRONT
  6
Continuous
 62
     7
370
    50
100
AcDbLine
 10
1155.030346343347
 20
318.9118399742706
 30
0.0
 11
1155.030346343347
 21
316.6118399742706
 31
0.0
1001
AUSTER_FOLIE
1002
{
1000
SPULVAR_10
1002
}
1001
AUSTER_ANSICHT
1002
{
1000
V
1002
}
  0
LINE
  5
37A1
330
1F
100
AcDbEntity
  8
10000_FRONT
  6
Continuous
 62
     7
370
    50
100
AcDbLine
 10
1155.030346343347
 20
318.9118399742706
 30
0.0
 11
1155.030346343347
 21
319.6308399742707
 31
0.0
1001
AUSTER_FOLIE
1002
{
1000
SPULVAR_10
1002
}
1001
AUSTER_ANSICHT
1002
{
1000
V
1002
}
  0
LINE
  5
37A2
330
1F
100
AcDbEntity
  8
10000_FRONT
  6
Continuous
 62
     7
370
    50
100
AcDbLine
 10
1155.030346343347
 20
319.6308399742707
 30
0.0
 11
1155.030346343347
 21
320.0218399742706
 31
0.0
1001
AUSTER_FOLIE
1002
{
1000
SPULVAR_10
1002
}
1001
AUSTER_ANSICHT
1002
{
1000
V
1002
}
  0
LINE
  5
37A3
330
1F
100
AcDbEntity
  8
10000_FRONT
  6
Continuous
 62
     7
370
    50
100
AcDbLine
 10
1155.030346343347
 20
320.9758399742706
 30
0.0
 11
1155.030346343347
 21
320.0218399742706
 31
0.0
1001
AUSTER_FOLIE
1002
{
1000
SPULVAR_10
1002
}
1001
AUSTER_ANSICHT
1002
{
1000
V
1002
}
  0
LINE
  5
37A4
330
1F
100
AcDbEntity
  8
10000_FRONT
  6
Continuous
 62
     7
370
    13
100
AcDbLine
 10
1157.080346343347
 20
312.3118399742706
 30
0.0
 11
1155.880346343347
 21
312.3118399742706
 31
0.0
1001
AUSTER_FOLIE
1002
{
1000
SPULVAR_10
1002
}
1001
AUSTER_ANSICHT
1002
{
1000
V
1002
}
  0
LINE
  5
37A5
330
1F
100
AcDbEntity
  8
10000_FRONT
  6
Continuous
 62
     7
370
    50
100
AcDbLine
 10
1157.980346343347
 20
319.8118399742706
 30
0.0
 11
1157.930346343347
 21
319.8118399742706
 31
0.0
1001
AUSTER_FOLIE
1002
{
1000
SPULVAR_10
1002
}
1001
AUSTER_ANSICHT
1002
{
1000
V
1002
}
  0
LINE
  5
37A6
330
1F
100
AcDbEntity
  8
10000_FRONT
  6
Continuous
 62
     7
370
    50
100
AcDbLine
 10
1131.630346343347
 20
319.8118399742706
 30
0.0
 11
1126.130346343347
 21
319.8118399742706
 31
0.0
1001
AUSTER_FOLIE
1002
{
1000
SPULVAR_10
1002
}
1001
AUSTER_ANSICHT
1002
{
1000
V
1002
}
  0
LINE
  5
37A7
330
1F
100
AcDbEntity
  8
10000_FRONT
  6
Continuous
 62
     7
370
    50
100
AcDbLine
 10
1154.130346343347
 20
319.8118399742706
 30
0.0
 11
1136.330346343347
 21
319.8118399742706
 31
0.0
1001
AUSTER_FOLIE
1002
{
1000
SPULVAR_10
1002
}
1001
AUSTER_ANSICHT
1002
{
1000
V
1002
}
  0
LINE
  5
37A8
330
1F
100
AcDbEntity
  8
10000_FRONT
  6
Continuous
 62
     7
370
    50
100
AcDbLine
 10
1125.730346343347
 20
321.2118399742706
 30
0.0
 11
1125.730346343347
 21
320.9758399742706
 31
0.0
1001
AUSTER_FOLIE
1002
{
1000
SPULVAR_10
1002
}
1001
AUSTER_ANSICHT
1002
{
1000
V
1002
}
  0
LINE
  5
37A9
330
1F
100
AcDbEntity
  8
10000_FRONT
  6
Continuous
 62
     7
370
    50
100
AcDbLine
 10
1125.730346343347
 20
320.2118399742706
 30
0.0
 11
1125.730346343347
 21
320.9758399742706
 31
0.0
1001
AUSTER_FOLIE
1002
{
1000
SPULVAR_10
1002
}
1001
AUSTER_ANSICHT
1002
{
1000
V
1002
}
  0
LINE
  5
37AA
330
1F
100
AcDbEntity
  8
10000_FRONT
  6
Continuous
 62
     7
370
    50
100
AcDbLine
 10
1158.330346343347
 20
321.2118399742706
 30
0.0
 11
1158.330346343347
 21
320.9238399742706
 31
0.0
1001
AUSTER_FOLIE
1002
{
1000
SPULVAR_10
1002
}
1001
AUSTER_ANSICHT
1002
{
1000
V
1002
}
  0
LINE
  5
37AB
330
1F
100
AcDbEntity
  8
10000_FRONT
  6
Continuous
 62
     7
370
    50
100
AcDbLine
 10
1158.330346343347
 20
320.9238399742706
 30
0.0
 11
1158.330346343347
 21
320.1618399742706
 31
0.0
1001
AUSTER_FOLIE
1002
{
1000
SPULVAR_10
1002
}
1001
AUSTER_ANSICHT
1002
{
1000
V
1002
}
  0
LINE
  5
37AC
330
1F
100
AcDbEntity
  8
10000_FRONT
  6
Continuous
 62
     7
370
    50
100
AcDbLine
 10
1137.930346343347
 20
316.8118399742706
 30
0.0
 11
1137.430346343347
 21
317.3118399742707
 31
0.0
1001
AUSTER_FOLIE
1002
{
1000
SPULVAR_10
1002
}
1001
AUSTER_ANSICHT
1002
{
1000
V
1002
}
  0
LINE
  5
37AD
330
1F
100
AcDbEntity
  8
10000_FRONT
  6
Continuous
 62
     7
370
    50
100
AcDbLine
 10
1153.030346343347
 20
317.5118399742706
 30
0.0
 11
1153.030346343347
 21
317.3118399742707
 31
0.0
1001
AUSTER_FOLIE
1002
{
1000
SPULVAR_10
1002
}
1001
AUSTER_ANSICHT
1002
{
1000
V
1002
}
  0
LINE
  5
37AE
330
1F
100
AcDbEntity
  8
10000_FRONT
  6
Continuous
 62
     7
370
    50
100
AcDbLine
 10
1153.030346343347
 20
319.8118399742706
 30
0.0
 11
1153.030346343347
 21
319.4638399742706
 31
0.0
1001
AUSTER_FOLIE
1002
{
1000
SPULVAR_10
1002
}
1001
AUSTER_ANSICHT
1002
{
1000
V
1002
}
  0
LINE
  5
37AF
330
1F
100
AcDbEntity
  8
10000_FRONT
  6
Continuous
 62
     7
370
    50
100
AcDbLine
 10
1153.030346343347
 20
319.4638399742706
 30
0.0
 11
1153.030346343347
 21
319.2718399742706
 31
0.0
1001
AUSTER_FOLIE
1002
{
1000
SPULVAR_10
1002
}
1001
AUSTER_ANSICHT
1002
{
1000
V
1002
}
  0
LINE
  5
37B0
330
1F
100
AcDbEntity
  8
10000_FRONT
  6
Continuous
 62
     7
370
    50
100
AcDbLine
 10
1153.030346343347
 20
319.2718399742706
 30
0.0
 11
1153.030346343347
 21
317.5118399742706
 31
0.0
1001
AUSTER_FOLIE
1002
{
1000
SPULVAR_10
1002
}
1001
AUSTER_ANSICHT
1002
{
1000
V
1002
}
  0
LINE
  5
37B1
330
1F
100
AcDbEntity
  8
10000_FRONT
  6
Continuous
 62
     7
370
    50
100
AcDbLine
 10
1137.430346343347
 20
317.5118399742706
 30
0.0
 11
1137.430346343347
 21
319.2718399742706
 31
0.0
1001
AUSTER_FOLIE
1002
{
1000
SPULVAR_10
1002
}
1001
AUSTER_ANSICHT
1002
{
1000
V
1002
}
  0
LINE
  5
37B2
330
1F
100
AcDbEntity
  8
10000_FRONT
  6
Continuous
 62
     7
370
    50
100
AcDbLine
 10
1137.430346343347
 20
319.2718399742706
 30
0.0
 11
1137.430346343347
 21
319.4638399742706
 31
0.0
1001
AUSTER_FOLIE
1002
{
1000
SPULVAR_10
1002
}
1001
AUSTER_ANSICHT
1002
{
1000
V
1002
}
  0
LINE
  5
37B3
330
1F
100
AcDbEntity
  8
10000_FRONT
  6
Continuous
 62
     7
370
    50
100
AcDbLine
 10
1137.430346343347
 20
319.4638399742706
 30
0.0
 11
1137.430346343347
 21
319.8118399742706
 31
0.0
1001
AUSTER_FOLIE
1002
{
1000
SPULVAR_10
1002
}
1001
AUSTER_ANSICHT
1002
{
1000
V
1002
}
  0
LINE
  5
37B4
330
1F
100
AcDbEntity
  8
10000_FRONT
  6
Continuous
 62
     7
370
    50
100
AcDbLine
 10
1137.430346343347
 20
317.3118399742707
 30
0.0
 11
1137.430346343347
 21
317.5118399742706
 31
0.0
1001
AUSTER_FOLIE
1002
{
1000
SPULVAR_10
1002
}
1001
AUSTER_ANSICHT
1002
{
1000
V
1002
}
  0
ARC
  5
37B5
330
1F
100
AcDbEntity
  8
10000_FRONT
  6
Continuous
 62
     7
370
    50
100
AcDbCircle
 10
1131.630346343347
 20
318.9118399742706
 30
0.0
 40
0.9
100
AcDbArc
 50
0.0
 51
90.0
1001
AUSTER_FOLIE
1002
{
1000
SPULVAR_10
1002
}
1001
AUSTER_ANSICHT
1002
{
1000
V
1002
}
  0
ARC
  5
37B6
330
1F
100
AcDbEntity
  8
10000_FRONT
  6
Continuous
 62
     7
370
    50
100
AcDbCircle
 10
1136.330346343347
 20
318.9118399742706
 30
0.0
 40
0.9
100
AcDbArc
 50
90.0
 51
180.0
1001
AUSTER_FOLIE
1002
{
1000
SPULVAR_10
1002
}
1001
AUSTER_ANSICHT
1002
{
1000
V
1002
}
  0
ARC
  5
37B7
330
1F
100
AcDbEntity
  8
10000_FRONT
  6
Continuous
 62
     7
370
    50
100
AcDbCircle
 10
1154.130346343347
 20
318.9118399742706
 30
0.0
 40
0.9
100
AcDbArc
 50
0.0
 51
90.0
1001
AUSTER_FOLIE
1002
{
1000
SPULVAR_10
1002
}
1001
AUSTER_ANSICHT
1002
{
1000
V
1002
}
  0
LINE
  5
37B8
330
1F
100
AcDbEntity
  8
10000_FRONT
  6
Continuous
 62
     7
370
    50
100
AcDbLine
 10
1157.080346343347
 20
314.5168399742706
 30
0.0
 11
1157.080346343347
 21
312.3118399742706
 31
0.0
1001
AUSTER_FOLIE
1002
{
1000
SPULVAR_10
1002
}
1001
AUSTER_ANSICHT
1002
{
1000
V
1002
}
  0
LINE
  5
37B9
330
1F
100
AcDbEntity
  8
10000_FRONT
  6
Continuous
 62
     7
370
    50
100
AcDbLine
 10
1155.880346343347
 20
312.3118399742706
 30
0.0
 11
1155.880346343347
 21
314.5168399742706
 31
0.0
1001
AUSTER_FOLIE
1002
{
1000
SPULVAR_10
1002
}
1001
AUSTER_ANSICHT
1002
{
1000
V
1002
}
  0
LINE
  5
37BA
330
1F
100
AcDbEntity
  8
10000_FRONT
  6
Continuous
 62
     7
370
    50
100
AcDbLine
 10
1134.580346343347
 20
314.5178399742706
 30
0.0
 11
1134.580346343347
 21
312.3118399742706
 31
0.0
1001
AUSTER_FOLIE
1002
{
1000
SPULVAR_10
1002
}
1001
AUSTER_ANSICHT
1002
{
1000
V
1002
}
  0
LINE
  5
37BB
330
1F
100
AcDbEntity
  8
10000_FRONT
  6
Continuous
 62
     7
370
    50
100
AcDbLine
 10
1133.380346343347
 20
312.3118399742706
 30
0.0
 11
1133.380346343347
 21
314.5178399742706
 31
0.0
1001
AUSTER_FOLIE
1002
{
1000
SPULVAR_10
1002
}
1001
AUSTER_ANSICHT
1002
{
1000
V
1002
}
  0
LINE
  5
37BC
330
1F
100
AcDbEntity
  8
10000_FRONT
  6
Continuous
 62
     7
370
    50
100
AcDbLine
 10
1157.475346343347
 20
314.9118399742706
 30
0.0
 11
1157.080346343347
 21
314.5168399742706
 31
0.0
1001
AUSTER_FOLIE
1002
{
1000
SPULVAR_10
1002
}
1001
AUSTER_ANSICHT
1002
{
1000
V
1002
}
  0
LINE
  5
37BD
330
1F
100
AcDbEntity
  8
10000_FRONT
  6
Continuous
 62
     7
370
    50
100
AcDbLine
 10
1155.880346343347
 20
314.5168399742706
 30
0.0
 11
1155.486346343347
 21
314.9118399742706
 31
0.0
1001
AUSTER_FOLIE
1002
{
1000
SPULVAR_10
1002
}
1001
AUSTER_ANSICHT
1002
{
1000
V
1002
}
  0
LINE
  5
37BE
330
1F
100
AcDbEntity
  8
10000_FRONT
  6
Continuous
 62
     7
370
    50
100
AcDbLine
 10
1134.974346343347
 20
314.9118399742706
 30
0.0
 11
1134.580346343347
 21
314.5168399742706
 31
0.0
1001
AUSTER_FOLIE
1002
{
1000
SPULVAR_10
1002
}
1001
AUSTER_ANSICHT
1002
{
1000
V
1002
}
  0
LINE
  5
37BF
330
1F
100
AcDbEntity
  8
10000_FRONT
  6
Continuous
 62
     7
370
    50
100
AcDbLine
 10
1133.380346343347
 20
314.5178399742706
 30
0.0
 11
1132.987346343347
 21
314.9118399742706
 31
0.0
1001
AUSTER_FOLIE
1002
{
1000
SPULVAR_10
1002
}
1001
AUSTER_ANSICHT
1002
{
1000
V
1002
}
  0
LINE
  5
37C0
330
1F
100
AcDbEntity
  8
10000_FRONT
  6
Continuous
 62
     7
370
    50
100
AcDbLine
 10
1132.987346343347
 20
314.9118399742706
 30
0.0
 11
1132.530346343347
 21
316.6148399742706
 31
0.0
1001
AUSTER_FOLIE
1002
{
1000
SPULVAR_10
1002
}
1001
AUSTER_ANSICHT
1002
{
1000
V
1002
}
  0
LINE
  5
37C1
330
1F
100
AcDbEntity
  8
10000_FRONT
  6
Continuous
 62
     7
370
    50
100
AcDbLine
 10
1135.430346343347
 20
316.6148399742706
 30
0.0
 11
1134.974346343347
 21
314.9118399742706
 31
0.0
1001
AUSTER_FOLIE
1002
{
1000
SPULVAR_10
1002
}
1001
AUSTER_ANSICHT
1002
{
1000
V
1002
}
  0
LINE
  5
37C2
330
1F
100
AcDbEntity
  8
10000_FRONT
  6
Continuous
 62
     7
370
    50
100
AcDbLine
 10
1155.486346343347
 20
314.9118399742706
 30
0.0
 11
1155.030346343347
 21
316.6118399742706
 31
0.0
1001
AUSTER_FOLIE
1002
{
1000
SPULVAR_10
1002
}
1001
AUSTER_ANSICHT
1002
{
1000
V
1002
}
  0
LINE
  5
37C3
330
1F
100
AcDbEntity
  8
10000_FRONT
  6
Continuous
 62
     7
370
    50
100
AcDbLine
 10
1157.930346343347
 20
316.6118399742706
 30
0.0
 11
1157.475346343347
 21
314.9118399742706
 31
0.0
1001
AUSTER_FOLIE
1002
{
1000
SPULVAR_10
1002
}
1001
AUSTER_ANSICHT
1002
{
1000
V
1002
}
  0
LINE
  5
37C4
330
1F
100
AcDbEntity
  8
10000_FRONT
  6
Continuous
 62
     7
370
    50
100
AcDbLine
 10
1125.730346343347
 20
321.2118399742706
 30
0.0
 11
1126.130346343347
 21
321.2118399742706
 31
0.0
1001
AUSTER_FOLIE
1002
{
1000
SPULVAR_10
1002
}
1001
AUSTER_ANSICHT
1002
{
1000
V
1002
}
  0
LINE
  5
37C5
330
1F
100
AcDbEntity
  8
10000_FRONT
  6
Continuous
 62
     7
370
    50
100
AcDbLine
 10
1157.930346343347
 20
321.2118399742706
 30
0.0
 11
1126.130346343347
 21
321.2118399742706
 31
0.0
1001
AUSTER_FOLIE
1002
{
1000
SPULVAR_10
1002
}
1001
AUSTER_ANSICHT
1002
{
1000
V
1002
}
  0
LINE
  5
37C6
330
1F
100
AcDbEntity
  8
10000_FRONT
  6
Continuous
 62
     7
370
    50
100
AcDbLine
 10
1157.930346343347
 20
321.2118399742706
 30
0.0
 11
1158.330346343347
 21
321.2118399742706
 31
0.0
1001
AUSTER_FOLIE
1002
{
1000
SPULVAR_10
1002
}
1001
AUSTER_ANSICHT
1002
{
1000
V
1002
}
  0
LINE
  5
3863
330
1F
100
AcDbEntity
  8
10000_FRONT
  6
Continuous
 62
     7
370
    13
100
AcDbLine
 10
1139.430346343347
 20
317.5118399742706
 30
0.0
 11
1137.430346343347
 21
317.5118399742706
 31
0.0
1001
AUSTER_FOLIE
1002
{
1000
SPULVAR_10
1002
}
1001
AUSTER_ANSICHT
1002
{
1000
V
1002
}
  0
LINE
  5
3865
330
1F
100
AcDbEntity
  8
10000_FRONT
  6
Continuous
 62
     7
370
    13
100
AcDbLine
 10
1153.030346343347
 20
317.5118399742706
 30
0.0
 11
1151.030346343347
 21
317.5118399742706
 31
0.0
1001
AUSTER_FOLIE
1002
{
1000
SPULVAR_10
1002
}
1001
AUSTER_ANSICHT
1002
{
1000
V
1002
}
  0
LINE
  5
3867
330
1F
100
AcDbEntity
  8
10000_FRONT
  6
Continuous
 62
     7
370
    13
100
AcDbLine
 10
1151.030346343347
 20
317.5118399742706
 30
0.0
 11
1150.530346343347
 21
317.6648399742707
 31
0.0
1001
AUSTER_FOLIE
1002
{
1000
SPULVAR_10
1002
}
1001
AUSTER_ANSICHT
1002
{
1000
V
1002
}
  0
LINE
  5
386B
330
1F
100
AcDbEntity
  8
10000_FRONT
  6
Continuous
 62
     7
370
    13
100
AcDbLine
 10
1139.930346343347
 20
317.6648399742707
 30
0.0
 11
1139.430346343347
 21
317.5118399742706
 31
0.0
1001
AUSTER_FOLIE
1002
{
1000
SPULVAR_10
1002
}
1001
AUSTER_ANSICHT
1002
{
1000
V
1002
}
  0
LINE
  5
386C
330
1F
100
AcDbEntity
  8
10000_FRONT
  6
Continuous
 62
     7
370
    13
100
AcDbLine
 10
1139.930346343347
 20
317.6648399742707
 30
0.0
 11
1150.530346343347
 21
317.6648399742707
 31
0.0
1001
AUSTER_FOLIE
1002
{
1000
SPULVAR_10
1002
}
1001
AUSTER_ANSICHT
1002
{
1000
V
1002
}
  0
LINE
  5
386E
330
1F
100
AcDbEntity
  8
10000_FRONT
  6
Continuous
 62
     7
370
    13
100
AcDbLine
 10
1132.530346343347
 20
316.6148399742706
 30
0.0
 11
1135.430346343347
 21
316.6148399742706
 31
0.0
1001
AUSTER_FOLIE
1002
{
1000
SPULVAR_10
1002
}
1001
AUSTER_ANSICHT
1002
{
1000
V
1002
}
  0
LINE
  5
386F
330
1F
100
AcDbEntity
  8
10000_FRONT
  6
Continuous
 62
     7
370
    50
100
AcDbLine
 10
1157.930346343347
 20
320.9378399742706
 30
0.0
 11
1157.930346343347
 21
321.2118399742706
 31
0.0
1001
AUSTER_FOLIE
1002
{
1000
SPULVAR_10
1002
}
1001
AUSTER_ANSICHT
1002
{
1000
V
1002
}
  0
LINE
  5
3870
330
1F
100
AcDbEntity
  8
10000_FRONT
  6
Continuous
 62
     7
370
    50
100
AcDbLine
 10
1155.930346343347
 20
312.3118399742706
 30
0.0
 11
1155.930346343347
 21
309.2498399742706
 31
0.0
1001
AUSTER_FOLIE
1002
{
1000
SPULVAR_10
1002
}
1001
AUSTER_ANSICHT
1002
{
1000
V
1002
}
  0
LINE
  5
3871
330
1F
100
AcDbEntity
  8
10000_FRONT
  6
Continuous
 62
     7
370
    50
100
AcDbLine
 10
1155.930346343347
 20
309.2498399742706
 30
0.0
 11
1155.930346343347
 21
308.1478399742707
 31
0.0
1001
AUSTER_FOLIE
1002
{
1000
SPULVAR_10
1002
}
1001
AUSTER_ANSICHT
1002
{
1000
V
1002
}
  0
LINE
  5
3872
330
1F
100
AcDbEntity
  8
10000_FRONT
  6
Continuous
 62
     7
370
    50
100
AcDbLine
 10
1157.030346343347
 20
312.3118399742706
 30
0.0
 11
1157.030346343347
 21
309.2498399742706
 31
0.0
1001
AUSTER_FOLIE
1002
{
1000
SPULVAR_10
1002
}
1001
AUSTER_ANSICHT
1002
{
1000
V
1002
}
  0
LINE
  5
3873
330
1F
100
AcDbEntity
  8
10000_FRONT
  6
Continuous
 62
     7
370
    50
100
AcDbLine
 10
1157.030346343347
 20
309.2498399742706
 30
0.0
 11
1157.030346343347
 21
308.1478399742707
 31
0.0
1001
AUSTER_FOLIE
1002
{
1000
SPULVAR_10
1002
}
1001
AUSTER_ANSICHT
1002
{
1000
V
1002
}
  0
LINE
  5
3874
330
1F
100
AcDbEntity
  8
10000_FRONT
  6
Continuous
 62
     7
370
    13
100
AcDbLine
 10
1157.030346343347
 20
309.2498399742706
 30
0.0
 11
1155.930346343347
 21
309.2498399742706
 31
0.0
1001
AUSTER_FOLIE
1002
{
1000
SPULVAR_10
1002
}
1001
AUSTER_ANSICHT
1002
{
1000
V
1002
}
  0
LINE
  5
3875
330
1F
100
AcDbEntity
  8
10000_FRONT
  6
Continuous
 62
     7
370
    50
100
AcDbLine
 10
1155.930346343347
 20
308.1478399742707
 30
0.0
 11
1157.030346343347
 21
308.1478399742707
 31
0.0
1001
AUSTER_FOLIE
1002
{
1000
SPULVAR_10
1002
}
1001
AUSTER_ANSICHT
1002
{
1000
V
1002
}
  0
LINE
  5
3876
330
1F
100
AcDbEntity
  8
10000_FRONT
  6
Continuous
 62
     7
370
    50
100
AcDbLine
 10
1133.430346343347
 20
312.3118399742706
 30
0.0
 11
1133.430346343347
 21
309.2498399742706
 31
0.0
1001
AUSTER_FOLIE
1002
{
1000
SPULVAR_10
1002
}
1001
AUSTER_ANSICHT
1002
{
1000
V
1002
}
  0
LINE
  5
3877
330
1F
100
AcDbEntity
  8
10000_FRONT
  6
Continuous
 62
     7
370
    50
100
AcDbLine
 10
1133.430346343347
 20
309.2498399742706
 30
0.0
 11
1133.430346343347
 21
308.1478399742707
 31
0.0
1001
AUSTER_FOLIE
1002
{
1000
SPULVAR_10
1002
}
1001
AUSTER_ANSICHT
1002
{
1000
V
1002
}
  0
LINE
  5
3878
330
1F
100
AcDbEntity
  8
10000_FRONT
  6
Continuous
 62
     7
370
    50
100
AcDbLine
 10
1134.530346343347
 20
312.3118399742706
 30
0.0
 11
1134.530346343347
 21
309.2498399742706
 31
0.0
1001
AUSTER_FOLIE
1002
{
1000
SPULVAR_10
1002
}
1001
AUSTER_ANSICHT
1002
{
1000
V
1002
}
  0
LINE
  5
3879
330
1F
100
AcDbEntity
  8
10000_FRONT
  6
Continuous
 62
     7
370
    50
100
AcDbLine
 10
1134.530346343347
 20
309.2498399742706
 30
0.0
 11
1134.530346343347
 21
308.1478399742707
 31
0.0
1001
AUSTER_FOLIE
1002
{
1000
SPULVAR_10
1002
}
1001
AUSTER_ANSICHT
1002
{
1000
V
1002
}
  0
LINE
  5
387A
330
1F
100
AcDbEntity
  8
10000_FRONT
  6
Continuous
 62
     7
370
    13
100
AcDbLine
 10
1134.530346343347
 20
309.2498399742706
 30
0.0
 11
1133.430346343347
 21
309.2498399742706
 31
0.0
1001
AUSTER_FOLIE
1002
{
1000
SPULVAR_10
1002
}
1001
AUSTER_ANSICHT
1002
{
1000
V
1002
}
  0
LINE
  5
387B
330
1F
100
AcDbEntity
  8
10000_FRONT
  6
Continuous
 62
     7
370
    50
100
AcDbLine
 10
1133.430346343347
 20
308.1478399742707
 30
0.0
 11
1134.530346343347
 21
308.1478399742707
 31
0.0
1001
AUSTER_FOLIE
1002
{
1000
SPULVAR_10
1002
}
1001
AUSTER_ANSICHT
1002
{
1000
V
1002
}
  0
LINE
  5
3915
330
1F
100
AcDbEntity
  8
11000_Left
  6
Continuous
 62
     7
370
    50
100
AcDbLine
 10
1201.246530515929
 20
321.2118399742706
 30
0.0
 11
1201.246530515929
 21
331.3118399742705
 31
0.0
1001
AUSTER_FOLIE
1002
{
1000
SPULVAR_10
1002
}
1001
AUSTER_ANSICHT
1002
{
1000
SL
1002
}
  0
LINE
  5
3916
102
{ACAD_REACTORS
330
51B8
102
}
330
1F
100
AcDbEntity
  8
11000_Left
  6
Continuous
 62
     7
370
    50
100
AcDbLine
 10
1201.246530515929
 20
331.3118399742705
 30
0.0
 11
1201.246530515929
 21
343.2618399742706
 31
0.0
1001
AUSTER_FOLIE
1002
{
1000
SPULVAR_10
1002
}
1001
AUSTER_ANSICHT
1002
{
1000
SL
1002
}
  0
ARC
  5
3917
330
1F
100
AcDbEntity
  8
11000_Left
  6
Continuous
 62
     7
370
    50
100
AcDbCircle
 10
1200.296530515929
 20
343.2618399742706
 30
0.0
 40
0.95
100
AcDbArc
 50
0.0
 51
90.0
1001
AUSTER_FOLIE
1002
{
1000
SPULVAR_10
1002
}
1001
AUSTER_ANSICHT
1002
{
1000
SL
1002
}
  0
POLYLINE
  5
3918
330
1F
100
AcDbEntity
  8
11000_Left
  6
Continuous
 62
     7
370
    13
100
AcDb2dPolyline
 66
     1
 10
0.0
 20
0.0
 30
0.0
 70
     2
1001
AUSTER_FOLIE
1002
{
1000
SPULVAR_10
1002
}
1001
AUSTER_ANSICHT
1002
{
1000
SL
1002
}
  0
VERTEX
  5
3919
330
3918
100
AcDbEntity
  8
11000_Left
  6
Continuous
 62
     7
370
    13
100
AcDbVertex
100
AcDb2dVertex
 10
1193.046530515929
 20
322.8118399742705
 30
0.0
  0
VERTEX
  5
391A
330
3918
100
AcDbEntity
  8
11000_Left
  6
Continuous
 62
     7
370
    13
100
AcDbVertex
100
AcDb2dVertex
 10
1193.046530515929
 20
322.8248399742706
 30
0.0
 42
-0.02
 70
     1
  0
VERTEX
  5
391B
330
3918
100
AcDbEntity
  8
11000_Left
  6
Continuous
 62
     7
370
    13
100
AcDbVertex
100
AcDb2dVertex
 10
1193.047530515929
 20
322.8388399742706
 30
0.0
 42
-0.017
  0
VERTEX
  5
391C
330
3918
100
AcDbEntity
  8
11000_Left
  6
Continuous
 62
     7
370
    13
100
AcDbVertex
100
AcDb2dVertex
 10
1193.050530515929
 20
322.8538399742705
 30
0.0
 42
-0.015
 70
     1
  0
VERTEX
  5
391D
330
3918
100
AcDbEntity
  8
11000_Left
  6
Continuous
 62
     7
370
    13
100
AcDbVertex
100
AcDb2dVertex
 10
1193.054530515929
 20
322.8698399742705
 30
0.0
 42
-0.015
  0
VERTEX
  5
391E
330
3918
100
AcDbEntity
  8
11000_Left
  6
Continuous
 62
     7
370
    13
100
AcDbVertex
100
AcDb2dVertex
 10
1193.059530515929
 20
322.8858399742707
 30
0.0
 42
-0.014
 70
     1
  0
VERTEX
  5
391F
330
3918
100
AcDbEntity
  8
11000_Left
  6
Continuous
 62
     7
370
    13
100
AcDbVertex
100
AcDb2dVertex
 10
1193.065530515929
 20
322.9038399742706
 30
0.0
 42
-0.014
  0
VERTEX
  5
3920
330
3918
100
AcDbEntity
  8
11000_Left
  6
Continuous
 62
     7
370
    13
100
AcDbVertex
100
AcDb2dVertex
 10
1193.072530515929
 20
322.9218399742705
 30
0.0
 42
-0.013
 70
     1
  0
VERTEX
  5
3921
330
3918
100
AcDbEntity
  8
11000_Left
  6
Continuous
 62
     7
370
    13
100
AcDbVertex
100
AcDb2dVertex
 10
1193.081530515929
 20
322.9408399742705
 30
0.0
 42
-0.012
  0
VERTEX
  5
3922
330
3918
100
AcDbEntity
  8
11000_Left
  6
Continuous
 62
     7
370
    13
100
AcDbVertex
100
AcDb2dVertex
 10
1193.092530515929
 20
322.9598399742706
 30
0.0
 42
-0.012
 70
     1
  0
VERTEX
  5
3923
330
3918
100
AcDbEntity
  8
11000_Left
  6
Continuous
 62
     7
370
    13
100
AcDbVertex
100
AcDb2dVertex
 10
1193.104530515929
 20
322.9798399742705
 30
0.0
 42
-0.012
  0
VERTEX
  5
3924
330
3918
100
AcDbEntity
  8
11000_Left
  6
Continuous
 62
     7
370
    13
100
AcDbVertex
100
AcDb2dVertex
 10
1193.117530515929
 20
322.9988399742705
 30
0.0
 42
-0.011
 70
     1
  0
VERTEX
  5
3925
330
3918
100
AcDbEntity
  8
11000_Left
  6
Continuous
 62
     7
370
    13
100
AcDbVertex
100
AcDb2dVertex
 10
1193.131530515929
 20
323.0188399742706
 30
0.0
 42
-0.011
  0
VERTEX
  5
3926
330
3918
100
AcDbEntity
  8
11000_Left
  6
Continuous
 62
     7
370
    13
100
AcDbVertex
100
AcDb2dVertex
 10
1193.147530515929
 20
323.0378399742705
 30
0.0
 42
-0.011
 70
     1
  0
VERTEX
  5
3927
330
3918
100
AcDbEntity
  8
11000_Left
  6
Continuous
 62
     7
370
    13
100
AcDbVertex
100
AcDb2dVertex
 10
1193.164530515929
 20
323.0568399742705
 30
0.0
 42
-0.011
  0
VERTEX
  5
3928
330
3918
100
AcDbEntity
  8
11000_Left
  6
Continuous
 62
     7
370
    13
100
AcDbVertex
100
AcDb2dVertex
 10
1193.181530515929
 20
323.0758399742707
 30
0.0
 42
-0.011
 70
     1
  0
VERTEX
  5
3929
330
3918
100
AcDbEntity
  8
11000_Left
  6
Continuous
 62
     7
370
    13
100
AcDbVertex
100
AcDb2dVertex
 10
1193.200530515929
 20
323.0938399742706
 30
0.0
 42
-0.011
  0
VERTEX
  5
392A
330
3918
100
AcDbEntity
  8
11000_Left
  6
Continuous
 62
     7
370
    13
100
AcDbVertex
100
AcDb2dVertex
 10
1193.219530515929
 20
323.1098399742705
 30
0.0
 42
-0.011
 70
     1
  0
VERTEX
  5
392B
330
3918
100
AcDbEntity
  8
11000_Left
  6
Continuous
 62
     7
370
    13
100
AcDbVertex
100
AcDb2dVertex
 10
1193.238530515929
 20
323.1258399742706
 30
0.0
 42
-0.011
  0
VERTEX
  5
392C
330
3918
100
AcDbEntity
  8
11000_Left
  6
Continuous
 62
     7
370
    13
100
AcDbVertex
100
AcDb2dVertex
 10
1193.258530515929
 20
323.1408399742706
 30
0.0
 42
-0.011
 70
     1
  0
VERTEX
  5
392D
330
3918
100
AcDbEntity
  8
11000_Left
  6
Continuous
 62
     7
370
    13
100
AcDbVertex
100
AcDb2dVertex
 10
1193.278530515929
 20
323.1538399742706
 30
0.0
 42
-0.011
  0
VERTEX
  5
392E
330
3918
100
AcDbEntity
  8
11000_Left
  6
Continuous
 62
     7
370
    13
100
AcDbVertex
100
AcDb2dVertex
 10
1193.297530515929
 20
323.1658399742706
 30
0.0
 42
-0.012
 70
     1
  0
VERTEX
  5
392F
330
3918
100
AcDbEntity
  8
11000_Left
  6
Continuous
 62
     7
370
    13
100
AcDbVertex
100
AcDb2dVertex
 10
1193.317530515929
 20
323.1758399742706
 30
0.0
 42
-0.014
  0
VERTEX
  5
3930
330
3918
100
AcDbEntity
  8
11000_Left
  6
Continuous
 62
     7
370
    13
100
AcDbVertex
100
AcDb2dVertex
 10
1193.336530515929
 20
323.1848399742706
 30
0.0
 42
-0.012
 70
     1
  0
VERTEX
  5
3931
330
3918
100
AcDbEntity
  8
11000_Left
  6
Continuous
 62
     7
370
    13
100
AcDbVertex
100
AcDb2dVertex
 10
1193.354530515929
 20
323.1928399742705
 30
0.0
 42
-0.006
  0
VERTEX
  5
3932
330
3918
100
AcDbEntity
  8
11000_Left
  6
Continuous
 62
     7
370
    13
100
AcDbVertex
100
AcDb2dVertex
 10
1193.369530515929
 20
323.1988399742706
 30
0.0
 42
-0.016
 70
     1
  0
VERTEX
  5
3933
330
3918
100
AcDbEntity
  8
11000_Left
  6
Continuous
 62
     7
370
    13
100
AcDbVertex
100
AcDb2dVertex
 10
1193.388530515929
 20
323.2038399742706
 30
0.0
 42
-0.03
  0
VERTEX
  5
3934
330
3918
100
AcDbEntity
  8
11000_Left
  6
Continuous
 62
     7
370
    13
100
AcDbVertex
100
AcDb2dVertex
 10
1193.413530515929
 20
323.2078399742706
 30
0.0
 42
-0.018
 70
     1
  0
VERTEX
  5
3935
330
3918
100
AcDbEntity
  8
11000_Left
  6
Continuous
 62
     7
370
    13
100
AcDbVertex
100
AcDb2dVertex
 10
1193.446530515929
 20
323.2118399742706
 30
0.0
 42
-0.011
  0
SEQEND
  5
3936
330
3918
100
AcDbEntity
  8
11000_Left
  6
Continuous
 62
     7
370
    13
  0
POLYLINE
  5
3937
330
1F
100
AcDbEntity
  8
11000_Left
  6
Continuous
 62
     7
370
    13
100
AcDb2dPolyline
 66
     1
 10
0.0
 20
0.0
 30
0.0
 70
     2
1001
AUSTER_FOLIE
1002
{
1000
SPULVAR_10
1002
}
1001
AUSTER_ANSICHT
1002
{
1000
SL
1002
}
  0
VERTEX
  5
3938
330
3937
100
AcDbEntity
  8
11000_Left
  6
Continuous
 62
     7
370
    13
100
AcDbVertex
100
AcDb2dVertex
 10
1194.646530515929
 20
323.2118399742706
 30
0.0
  0
VERTEX
  5
3939
330
3937
100
AcDbEntity
  8
11000_Left
  6
Continuous
 62
     7
370
    13
100
AcDbVertex
100
AcDb2dVertex
 10
1194.659530515929
 20
323.2108399742707
 30
0.0
 42
-0.02
 70
     1
  0
VERTEX
  5
393A
330
3937
100
AcDbEntity
  8
11000_Left
  6
Continuous
 62
     7
370
    13
100
AcDbVertex
100
AcDb2dVertex
 10
1194.673530515929
 20
323.2098399742706
 30
0.0
 42
-0.017
  0
VERTEX
  5
393B
330
3937
100
AcDbEntity
  8
11000_Left
  6
Continuous
 62
     7
370
    13
100
AcDbVertex
100
AcDb2dVertex
 10
1194.687530515929
 20
323.2068399742705
 30
0.0
 42
-0.015
 70
     1
  0
VERTEX
  5
393C
330
3937
100
AcDbEntity
  8
11000_Left
  6
Continuous
 62
     7
370
    13
100
AcDbVertex
100
AcDb2dVertex
 10
1194.703530515929
 20
323.2038399742706
 30
0.0
 42
-0.015
  0
VERTEX
  5
393D
330
3937
100
AcDbEntity
  8
11000_Left
  6
Continuous
 62
     7
370
    13
100
AcDbVertex
100
AcDb2dVertex
 10
1194.720530515929
 20
323.1988399742706
 30
0.0
 42
-0.014
 70
     1
  0
VERTEX
  5
393E
330
3937
100
AcDbEntity
  8
11000_Left
  6
Continuous
 62
     7
370
    13
100
AcDbVertex
100
AcDb2dVertex
 10
1194.737530515929
 20
323.1928399742705
 30
0.0
 42
-0.014
  0
VERTEX
  5
393F
330
3937
100
AcDbEntity
  8
11000_Left
  6
Continuous
 62
     7
370
    13
100
AcDbVertex
100
AcDb2dVertex
 10
1194.756530515929
 20
323.1848399742706
 30
0.0
 42
-0.013
 70
     1
  0
VERTEX
  5
3940
330
3937
100
AcDbEntity
  8
11000_Left
  6
Continuous
 62
     7
370
    13
100
AcDbVertex
100
AcDb2dVertex
 10
1194.774530515929
 20
323.1758399742706
 30
0.0
 42
-0.012
  0
VERTEX
  5
3941
330
3937
100
AcDbEntity
  8
11000_Left
  6
Continuous
 62
     7
370
    13
100
AcDbVertex
100
AcDb2dVertex
 10
1194.794530515929
 20
323.1658399742706
 30
0.0
 42
-0.012
 70
     1
  0
VERTEX
  5
3942
330
3937
100
AcDbEntity
  8
11000_Left
  6
Continuous
 62
     7
370
    13
100
AcDbVertex
100
AcDb2dVertex
 10
1194.813530515929
 20
323.1538399742706
 30
0.0
 42
-0.012
  0
VERTEX
  5
3943
330
3937
100
AcDbEntity
  8
11000_Left
  6
Continuous
 62
     7
370
    13
100
AcDbVertex
100
AcDb2dVertex
 10
1194.833530515929
 20
323.1408399742706
 30
0.0
 42
-0.011
 70
     1
  0
VERTEX
  5
3944
330
3937
100
AcDbEntity
  8
11000_Left
  6
Continuous
 62
     7
370
    13
100
AcDbVertex
100
AcDb2dVertex
 10
1194.853530515929
 20
323.1258399742706
 30
0.0
 42
-0.011
  0
VERTEX
  5
3945
330
3937
100
AcDbEntity
  8
11000_Left
  6
Continuous
 62
     7
370
    13
100
AcDbVertex
100
AcDb2dVertex
 10
1194.872530515929
 20
323.1098399742705
 30
0.0
 42
-0.011
 70
     1
  0
VERTEX
  5
3946
330
3937
100
AcDbEntity
  8
11000_Left
  6
Continuous
 62
     7
370
    13
100
AcDbVertex
100
AcDb2dVertex
 10
1194.891530515929
 20
323.0938399742706
 30
0.0
 42
-0.011
  0
VERTEX
  5
3947
330
3937
100
AcDbEntity
  8
11000_Left
  6
Continuous
 62
     7
370
    13
100
AcDbVertex
100
AcDb2dVertex
 10
1194.910530515929
 20
323.0758399742707
 30
0.0
 42
-0.011
 70
     1
  0
VERTEX
  5
3948
330
3937
100
AcDbEntity
  8
11000_Left
  6
Continuous
 62
     7
370
    13
100
AcDbVertex
100
AcDb2dVertex
 10
1194.927530515929
 20
323.0568399742705
 30
0.0
 42
-0.011
  0
VERTEX
  5
3949
330
3937
100
AcDbEntity
  8
11000_Left
  6
Continuous
 62
     7
370
    13
100
AcDbVertex
100
AcDb2dVertex
 10
1194.944530515929
 20
323.0378399742705
 30
0.0
 42
-0.011
 70
     1
  0
VERTEX
  5
394A
330
3937
100
AcDbEntity
  8
11000_Left
  6
Continuous
 62
     7
370
    13
100
AcDbVertex
100
AcDb2dVertex
 10
1194.960530515929
 20
323.0188399742706
 30
0.0
 42
-0.011
  0
VERTEX
  5
394B
330
3937
100
AcDbEntity
  8
11000_Left
  6
Continuous
 62
     7
370
    13
100
AcDbVertex
100
AcDb2dVertex
 10
1194.974530515929
 20
322.9988399742705
 30
0.0
 42
-0.011
 70
     1
  0
VERTEX
  5
394C
330
3937
100
AcDbEntity
  8
11000_Left
  6
Continuous
 62
     7
370
    13
100
AcDbVertex
100
AcDb2dVertex
 10
1194.987530515929
 20
322.9798399742705
 30
0.0
 42
-0.011
  0
VERTEX
  5
394D
330
3937
100
AcDbEntity
  8
11000_Left
  6
Continuous
 62
     7
370
    13
100
AcDbVertex
100
AcDb2dVertex
 10
1194.999530515929
 20
322.9598399742706
 30
0.0
 42
-0.012
 70
     1
  0
VERTEX
  5
394E
330
3937
100
AcDbEntity
  8
11000_Left
  6
Continuous
 62
     7
370
    13
100
AcDbVertex
100
AcDb2dVertex
 10
1195.010530515929
 20
322.9408399742705
 30
0.0
 42
-0.014
  0
VERTEX
  5
394F
330
3937
100
AcDbEntity
  8
11000_Left
  6
Continuous
 62
     7
370
    13
100
AcDbVertex
100
AcDb2dVertex
 10
1195.019530515929
 20
322.9218399742705
 30
0.0
 42
-0.012
 70
     1
  0
VERTEX
  5
3950
330
3937
100
AcDbEntity
  8
11000_Left
  6
Continuous
 62
     7
370
    13
100
AcDbVertex
100
AcDb2dVertex
 10
1195.026530515929
 20
322.9038399742706
 30
0.0
 42
-0.006
  0
VERTEX
  5
3951
330
3937
100
AcDbEntity
  8
11000_Left
  6
Continuous
 62
     7
370
    13
100
AcDbVertex
100
AcDb2dVertex
 10
1195.032530515929
 20
322.8878399742705
 30
0.0
 42
-0.016
 70
     1
  0
VERTEX
  5
3952
330
3937
100
AcDbEntity
  8
11000_Left
  6
Continuous
 62
     7
370
    13
100
AcDbVertex
100
AcDb2dVertex
 10
1195.037530515929
 20
322.8698399742705
 30
0.0
 42
-0.03
  0
VERTEX
  5
3953
330
3937
100
AcDbEntity
  8
11000_Left
  6
Continuous
 62
     7
370
    13
100
AcDbVertex
100
AcDb2dVertex
 10
1195.042530515929
 20
322.8438399742706
 30
0.0
 42
-0.018
 70
     1
  0
VERTEX
  5
3954
330
3937
100
AcDbEntity
  8
11000_Left
  6
Continuous
 62
     7
370
    13
100
AcDbVertex
100
AcDb2dVertex
 10
1195.046530515929
 20
322.8118399742705
 30
0.0
 42
-0.011
  0
SEQEND
  5
3955
330
3937
100
AcDbEntity
  8
11000_Left
  6
Continuous
 62
     7
370
    13
  0
LINE
  5
3956
330
1F
100
AcDbEntity
  8
11000_Left
  6
Continuous
 62
     7
370
    50
100
AcDbLine
 10
1191.446530515929
 20
321.2118399742706
 30
0.0
 11
1193.046530515929
 21
321.2118399742706
 31
0.0
1001
AUSTER_FOLIE
1002
{
1000
SPULVAR_10
1002
}
1001
AUSTER_ANSICHT
1002
{
1000
SL
1002
}
  0
LINE
  5
3957
330
1F
100
AcDbEntity
  8
11000_Left
  6
Continuous
 62
     7
370
    50
100
AcDbLine
 10
1193.046530515929
 20
321.2118399742706
 30
0.0
 11
1193.446530515929
 21
321.2118399742706
 31
0.0
1001
AUSTER_FOLIE
1002
{
1000
SPULVAR_10
1002
}
1001
AUSTER_ANSICHT
1002
{
1000
SL
1002
}
  0
LINE
  5
3958
330
1F
100
AcDbEntity
  8
11000_Left
  6
Continuous
 62
     7
370
    50
100
AcDbLine
 10
1193.446530515929
 20
321.2118399742706
 30
0.0
 11
1194.646530515929
 21
321.2118399742706
 31
0.0
1001
AUSTER_FOLIE
1002
{
1000
SPULVAR_10
1002
}
1001
AUSTER_ANSICHT
1002
{
1000
SL
1002
}
  0
LINE
  5
3959
330
1F
100
AcDbEntity
  8
11000_Left
  6
Continuous
 62
     7
370
    50
100
AcDbLine
 10
1194.646530515929
 20
321.2118399742706
 30
0.0
 11
1195.046530515929
 21
321.2118399742706
 31
0.0
1001
AUSTER_FOLIE
1002
{
1000
SPULVAR_10
1002
}
1001
AUSTER_ANSICHT
1002
{
1000
SL
1002
}
  0
LINE
  5
395A
330
1F
100
AcDbEntity
  8
11000_Left
  6
Continuous
 62
     7
370
    50
100
AcDbLine
 10
1195.046530515929
 20
321.2118399742706
 30
0.0
 11
1195.046530515929
 21
321.2118399742706
 31
0.0
1001
AUSTER_FOLIE
1002
{
1000
SPULVAR_10
1002
}
1001
AUSTER_ANSICHT
1002
{
1000
SL
1002
}
  0
LINE
  5
395B
330
1F
100
AcDbEntity
  8
11000_Left
  6
Continuous
 62
     7
370
    13
100
AcDbLine
 10
1195.046530515929
 20
321.2118399742706
 30
0.0
 11
1195.046530515929
 21
322.4118399742705
 31
0.0
1001
AUSTER_FOLIE
1002
{
1000
SPULVAR_10
1002
}
1001
AUSTER_ANSICHT
1002
{
1000
SL
1002
}
  0
LINE
  5
395C
330
1F
100
AcDbEntity
  8
11000_Left
  6
Continuous
 62
     7
370
    13
100
AcDbLine
 10
1195.046530515929
 20
322.4118399742705
 30
0.0
 11
1195.046530515929
 21
322.8118399742705
 31
0.0
1001
AUSTER_FOLIE
1002
{
1000
SPULVAR_10
1002
}
1001
AUSTER_ANSICHT
1002
{
1000
SL
1002
}
  0
LINE
  5
395D
330
1F
100
AcDbEntity
  8
11000_Left
  6
Continuous
 62
     7
370
    13
100
AcDbLine
 10
1194.646530515929
 20
323.2118399742706
 30
0.0
 11
1193.446530515929
 21
323.2118399742706
 31
0.0
1001
AUSTER_FOLIE
1002
{
1000
SPULVAR_10
1002
}
1001
AUSTER_ANSICHT
1002
{
1000
SL
1002
}
  0
LINE
  5
395E
330
1F
100
AcDbEntity
  8
11000_Left
  6
Continuous
 62
     7
370
    13
100
AcDbLine
 10
1193.046530515929
 20
322.8118399742705
 30
0.0
 11
1193.046530515929
 21
322.4118399742705
 31
0.0
1001
AUSTER_FOLIE
1002
{
1000
SPULVAR_10
1002
}
1001
AUSTER_ANSICHT
1002
{
1000
SL
1002
}
  0
LINE
  5
395F
330
1F
100
AcDbEntity
  8
11000_Left
  6
Continuous
 62
     7
370
    13
100
AcDbLine
 10
1193.046530515929
 20
322.4118399742705
 30
0.0
 11
1193.046530515929
 21
321.2118399742706
 31
0.0
1001
AUSTER_FOLIE
1002
{
1000
SPULVAR_10
1002
}
1001
AUSTER_ANSICHT
1002
{
1000
SL
1002
}
  0
LINE
  5
3960
330
1F
100
AcDbEntity
  8
11000_Left
  6
Continuous
 62
     7
370
    50
100
AcDbLine
 10
1191.289530515929
 20
344.3148399742706
 30
0.0
 11
1191.446530515929
 21
344.3808399742705
 31
0.0
1001
AUSTER_FOLIE
1002
{
1000
SPULVAR_10
1002
}
1001
AUSTER_ANSICHT
1002
{
1000
SL
1002
}
  0
LINE
  5
3961
330
1F
100
AcDbEntity
  8
11000_Left
  6
Continuous
 62
     7
370
    50
100
AcDbLine
 10
1191.446530515929
 20
344.3808399742705
 30
0.0
 11
1191.753530515929
 21
344.5118399742706
 31
0.0
1001
AUSTER_FOLIE
1002
{
1000
SPULVAR_10
1002
}
1001
AUSTER_ANSICHT
1002
{
1000
SL
1002
}
  0
LINE
  5
3962
330
1F
100
AcDbEntity
  8
11000_Left
  6
Continuous
 62
     7
370
    50
100
AcDbLine
 10
1191.753530515929
 20
344.5118399742706
 30
0.0
 11
1192.696530515929
 21
344.9118399742705
 31
0.0
1001
AUSTER_FOLIE
1002
{
1000
SPULVAR_10
1002
}
1001
AUSTER_ANSICHT
1002
{
1000
SL
1002
}
  0
LINE
  5
3963
330
1F
100
AcDbEntity
  8
11000_Left
  6
Continuous
 62
     7
370
    50
100
AcDbLine
 10
1191.046530515929
 20
343.9468399742706
 30
0.0
 11
1191.046530515929
 21
321.2118399742706
 31
0.0
1001
AUSTER_FOLIE
1002
{
1000
SPULVAR_10
1002
}
1001
AUSTER_ANSICHT
1002
{
1000
SL
1002
}
  0
ARC
  5
3964
102
{ACAD_REACTORS
330
51B8
102
}
330
1F
100
AcDbEntity
  8
11000_Left
  6
Continuous
 62
     7
370
    50
100
AcDbCircle
 10
1191.446530515929
 20
343.9468399742706
 30
0.0
 40
0.4
100
AcDbArc
 50
113.0000000000005
 51
180.0
1001
AUSTER_FOLIE
1002
{
1000
SPULVAR_10
1002
}
1001
AUSTER_ANSICHT
1002
{
1000
SL
1002
}
  0
LINE
  5
3965
330
1F
100
AcDbEntity
  8
11000_Left
  6
Continuous
 62
     7
370
    50
100
AcDbLine
 10
1193.765530515929
 20
344.5118399742706
 30
0.0
 11
1193.846530515929
 21
344.2118399742706
 31
0.0
1001
AUSTER_FOLIE
1002
{
1000
SPULVAR_10
1002
}
1001
AUSTER_ANSICHT
1002
{
1000
SL
1002
}
  0
LINE
  5
3966
330
1F
100
AcDbEntity
  8
11000_Left
  6
Continuous
 62
     7
370
    50
100
AcDbLine
 10
1193.765530515929
 20
344.5118399742706
 30
0.0
 11
1193.658530515929
 21
344.9118399742705
 31
0.0
1001
AUSTER_FOLIE
1002
{
1000
SPULVAR_10
1002
}
1001
AUSTER_ANSICHT
1002
{
1000
SL
1002
}
  0
LINE
  5
3967
330
1F
100
AcDbEntity
  8
11000_Left
  6
Continuous
 62
     7
370
    50
100
AcDbLine
 10
1200.296530515929
 20
344.2118399742706
 30
0.0
 11
1193.846530515929
 21
344.2118399742706
 31
0.0
1001
AUSTER_FOLIE
1002
{
1000
SPULVAR_10
1002
}
1001
AUSTER_ANSICHT
1002
{
1000
SL
1002
}
  0
LINE
  5
3968
102
{ACAD_REACTORS
330
51F0
102
}
330
1F
100
AcDbEntity
  8
11000_Left
  6
Continuous
 62
     7
370
    50
100
AcDbLine
 10
1193.658530515929
 20
344.9118399742705
 30
0.0
 11
1192.696530515929
 21
344.9118399742705
 31
0.0
1001
AUSTER_FOLIE
1002
{
1000
SPULVAR_10
1002
}
1001
AUSTER_ANSICHT
1002
{
1000
SL
1002
}
  0
LINE
  5
3969
330
1F
100
AcDbEntity
  8
11000_Left
  6
Continuous
 62
     7
370
    50
100
AcDbLine
 10
1191.446530515929
 20
316.8118399742705
 30
0.0
 11
1191.773530515929
 21
316.8118399742705
 31
0.0
1001
AUSTER_FOLIE
1002
{
1000
SPULVAR_10
1002
}
1001
AUSTER_ANSICHT
1002
{
1000
SL
1002
}
  0
LINE
  5
396A
330
1F
100
AcDbEntity
  8
11000_Left
  6
Continuous
 62
     7
370
    50
100
AcDbLine
 10
1194.474530515929
 20
312.3118399742705
 30
0.0
 11
1196.393530515929
 21
312.3118399742705
 31
0.0
1001
AUSTER_FOLIE
1002
{
1000
SPULVAR_10
1002
}
1001
AUSTER_ANSICHT
1002
{
1000
SL
1002
}
  0
LINE
  5
396B
330
1F
100
AcDbEntity
  8
11000_Left
  6
Continuous
 62
     7
370
    50
100
AcDbLine
 10
1197.546530515929
 20
318.9118399742706
 30
0.0
 11
1197.546530515929
 21
316.6118399742706
 31
0.0
1001
AUSTER_FOLIE
1002
{
1000
SPULVAR_10
1002
}
1001
AUSTER_ANSICHT
1002
{
1000
SL
1002
}
  0
LINE
  5
396C
330
1F
100
AcDbEntity
  8
11000_Left
  6
Continuous
 62
     7
370
    13
100
AcDbLine
 10
1191.396530515929
 20
319.8118399742705
 30
0.0
 11
1191.446530515929
 21
319.8118399742705
 31
0.0
1001
AUSTER_FOLIE
1002
{
1000
SPULVAR_10
1002
}
1001
AUSTER_ANSICHT
1002
{
1000
SL
1002
}
  0
LINE
  5
396D
330
1F
100
AcDbEntity
  8
11000_Left
  6
Continuous
 62
     7
370
    13
100
AcDbLine
 10
1191.446530515929
 20
319.8118399742705
 30
0.0
 11
1198.046530515929
 21
319.8118399742705
 31
0.0
1001
AUSTER_FOLIE
1002
{
1000
SPULVAR_10
1002
}
1001
AUSTER_ANSICHT
1002
{
1000
SL
1002
}
  0
LINE
  5
396E
330
1F
100
AcDbEntity
  8
11000_Left
  6
Continuous
 62
     7
370
    13
100
AcDbLine
 10
1200.986530515929
 20
320.5998399742705
 30
0.0
 11
1200.936530515929
 21
320.5858399742707
 31
0.0
1001
AUSTER_FOLIE
1002
{
1000
SPULVAR_10
1002
}
1001
AUSTER_ANSICHT
1002
{
1000
SL
1002
}
  0
LINE
  5
396F
330
1F
100
AcDbEntity
  8
11000_Left
  6
Continuous
 62
     7
370
    13
100
AcDbLine
 10
1200.936530515929
 20
320.5858399742707
 30
0.0
 11
1198.046530515929
 21
319.8118399742705
 31
0.0
1001
AUSTER_FOLIE
1002
{
1000
SPULVAR_10
1002
}
1001
AUSTER_ANSICHT
1002
{
1000
SL
1002
}
  0
LINE
  5
3970
330
1F
100
AcDbEntity
  8
11000_Left
  6
Continuous
 62
     7
370
    50
100
AcDbLine
 10
1200.929530515929
 20
319.6308399742705
 30
0.0
 11
1197.546530515929
 21
318.9118399742706
 31
0.0
1001
AUSTER_FOLIE
1002
{
1000
SPULVAR_10
1002
}
1001
AUSTER_ANSICHT
1002
{
1000
SL
1002
}
  0
ARC
  5
3971
330
1F
100
AcDbEntity
  8
11000_Left
  6
Continuous
 62
     7
370
    50
100
AcDbCircle
 10
1200.846530515929
 20
320.0218399742706
 30
0.0
 40
0.4
100
AcDbArc
 50
282.000000000003
 51
0.0
1001
AUSTER_FOLIE
1002
{
1000
SPULVAR_10
1002
}
1001
AUSTER_ANSICHT
1002
{
1000
SL
1002
}
  0
LINE
  5
3972
330
1F
100
AcDbEntity
  8
11000_Left
  6
Continuous
 62
     7
370
    50
100
AcDbLine
 10
1191.146530515929
 20
317.9158399742706
 30
0.0
 11
1191.146530515929
 21
317.5188399742706
 31
0.0
1001
AUSTER_FOLIE
1002
{
1000
SPULVAR_10
1002
}
1001
AUSTER_ANSICHT
1002
{
1000
SL
1002
}
  0
LINE
  5
3973
330
1F
100
AcDbEntity
  8
11000_Left
  6
Continuous
 62
     7
370
    50
100
AcDbLine
 10
1191.446530515929
 20
316.8118399742705
 30
0.0
 11
1191.233530515929
 21
317.3118399742705
 31
0.0
1001
AUSTER_FOLIE
1002
{
1000
SPULVAR_10
1002
}
1001
AUSTER_ANSICHT
1002
{
1000
SL
1002
}
  0
LINE
  5
3974
330
1F
100
AcDbEntity
  8
11000_Left
  6
Continuous
 62
     7
370
    50
100
AcDbLine
 10
1191.233530515929
 20
317.3118399742705
 30
0.0
 11
1191.146530515929
 21
317.5188399742706
 31
0.0
1001
AUSTER_FOLIE
1002
{
1000
SPULVAR_10
1002
}
1001
AUSTER_ANSICHT
1002
{
1000
SL
1002
}
  0
LINE
  5
3975
330
1F
100
AcDbEntity
  8
11000_Left
  6
Continuous
 62
     7
370
    50
100
AcDbLine
 10
1191.146530515929
 20
317.9158399742706
 30
0.0
 11
1191.294530515929
 21
317.9618399742706
 31
0.0
1001
AUSTER_FOLIE
1002
{
1000
SPULVAR_10
1002
}
1001
AUSTER_ANSICHT
1002
{
1000
SL
1002
}
  0
LINE
  5
3976
330
1F
100
AcDbEntity
  8
11000_Left
  6
Continuous
 62
     7
370
    50
100
AcDbLine
 10
1201.246530515929
 20
320.0218399742706
 30
0.0
 11
1201.246530515929
 21
320.9378399742706
 31
0.0
1001
AUSTER_FOLIE
1002
{
1000
SPULVAR_10
1002
}
1001
AUSTER_ANSICHT
1002
{
1000
SL
1002
}
  0
LINE
  5
3977
330
1F
100
AcDbEntity
  8
11000_Left
  6
Continuous
 62
     7
370
    50
100
AcDbLine
 10
1201.246530515929
 20
320.9378399742706
 30
0.0
 11
1201.246530515929
 21
321.2118399742706
 31
0.0
1001
AUSTER_FOLIE
1002
{
1000
SPULVAR_10
1002
}
1001
AUSTER_ANSICHT
1002
{
1000
SL
1002
}
  0
POLYLINE
  5
3978
330
1F
100
AcDbEntity
  8
11000_Left
  6
Continuous
 62
     7
370
    50
100
AcDb2dPolyline
 66
     1
 10
0.0
 20
0.0
 30
0.0
 70
     2
1001
AUSTER_FOLIE
1002
{
1000
SPULVAR_10
1002
}
1001
AUSTER_ANSICHT
1002
{
1000
SL
1002
}
  0
VERTEX
  5
3979
330
3978
100
AcDbEntity
  8
11000_Left
  6
Continuous
 62
     7
370
    50
100
AcDbVertex
100
AcDb2dVertex
 10
1197.546530515929
 20
316.6148399742705
 30
0.0
  0
VERTEX
  5
397A
330
3978
100
AcDbEntity
  8
11000_Left
  6
Continuous
 62
     7
370
    50
100
AcDbVertex
100
AcDb2dVertex
 10
1197.546530515929
 20
316.6148399742705
 30
0.0
 70
     1
  0
VERTEX
  5
397B
330
3978
100
AcDbEntity
  8
11000_Left
  6
Continuous
 62
     7
370
    50
100
AcDbVertex
100
AcDb2dVertex
 10
1197.546530515929
 20
316.6148399742705
 30
0.0
  0
VERTEX
  5
397C
330
3978
100
AcDbEntity
  8
11000_Left
  6
Continuous
 62
     7
370
    50
100
AcDbVertex
100
AcDb2dVertex
 10
1197.546530515929
 20
316.6148399742705
 30
0.0
 70
     1
  0
VERTEX
  5
397D
330
3978
100
AcDbEntity
  8
11000_Left
  6
Continuous
 62
     7
370
    50
100
AcDbVertex
100
AcDb2dVertex
 10
1197.546530515929
 20
316.6148399742705
 30
0.0
  0
VERTEX
  5
397E
330
3978
100
AcDbEntity
  8
11000_Left
  6
Continuous
 62
     7
370
    50
100
AcDbVertex
100
AcDb2dVertex
 10
1197.546530515929
 20
316.6148399742705
 30
0.0
 70
     1
  0
VERTEX
  5
397F
330
3978
100
AcDbEntity
  8
11000_Left
  6
Continuous
 62
     7
370
    50
100
AcDbVertex
100
AcDb2dVertex
 10
1197.546530515929
 20
316.6148399742705
 30
0.0
  0
VERTEX
  5
3980
330
3978
100
AcDbEntity
  8
11000_Left
  6
Continuous
 62
     7
370
    50
100
AcDbVertex
100
AcDb2dVertex
 10
1197.546530515929
 20
316.6148399742705
 30
0.0
 70
     1
  0
VERTEX
  5
3981
330
3978
100
AcDbEntity
  8
11000_Left
  6
Continuous
 62
     7
370
    50
100
AcDbVertex
100
AcDb2dVertex
 10
1197.546530515929
 20
316.6148399742705
 30
0.0
  0
VERTEX
  5
3982
330
3978
100
AcDbEntity
  8
11000_Left
  6
Continuous
 62
     7
370
    50
100
AcDbVertex
100
AcDb2dVertex
 10
1197.546530515929
 20
316.6148399742705
 30
0.0
 70
     1
  0
VERTEX
  5
3983
330
3978
100
AcDbEntity
  8
11000_Left
  6
Continuous
 62
     7
370
    50
100
AcDbVertex
100
AcDb2dVertex
 10
1197.546530515929
 20
316.6148399742705
 30
0.0
  0
VERTEX
  5
3984
330
3978
100
AcDbEntity
  8
11000_Left
  6
Continuous
 62
     7
370
    50
100
AcDbVertex
100
AcDb2dVertex
 10
1197.546530515929
 20
316.6148399742705
 30
0.0
 70
     1
  0
VERTEX
  5
3985
330
3978
100
AcDbEntity
  8
11000_Left
  6
Continuous
 62
     7
370
    50
100
AcDbVertex
100
AcDb2dVertex
 10
1197.546530515929
 20
316.6148399742705
 30
0.0
  0
VERTEX
  5
3986
330
3978
100
AcDbEntity
  8
11000_Left
  6
Continuous
 62
     7
370
    50
100
AcDbVertex
100
AcDb2dVertex
 10
1197.546530515929
 20
316.6148399742705
 30
0.0
 70
     1
  0
VERTEX
  5
3987
330
3978
100
AcDbEntity
  8
11000_Left
  6
Continuous
 62
     7
370
    50
100
AcDbVertex
100
AcDb2dVertex
 10
1197.546530515929
 20
316.6148399742705
 30
0.0
  0
VERTEX
  5
3988
330
3978
100
AcDbEntity
  8
11000_Left
  6
Continuous
 62
     7
370
    50
100
AcDbVertex
100
AcDb2dVertex
 10
1197.546530515929
 20
316.6148399742705
 30
0.0
 70
     1
  0
VERTEX
  5
3989
330
3978
100
AcDbEntity
  8
11000_Left
  6
Continuous
 62
     7
370
    50
100
AcDbVertex
100
AcDb2dVertex
 10
1197.546530515929
 20
316.6148399742705
 30
0.0
  0
VERTEX
  5
398A
330
3978
100
AcDbEntity
  8
11000_Left
  6
Continuous
 62
     7
370
    50
100
AcDbVertex
100
AcDb2dVertex
 10
1197.546530515929
 20
316.6148399742705
 30
0.0
 70
     1
  0
VERTEX
  5
398B
330
3978
100
AcDbEntity
  8
11000_Left
  6
Continuous
 62
     7
370
    50
100
AcDbVertex
100
AcDb2dVertex
 10
1197.546530515929
 20
316.6148399742705
 30
0.0
  0
SEQEND
  5
398C
330
3978
100
AcDbEntity
  8
11000_Left
  6
Continuous
 62
     7
370
    50
  0
LINE
  5
398D
330
1F
100
AcDbEntity
  8
11000_Left
  6
Continuous
 62
     7
370
    50
100
AcDbLine
 10
1197.090530515929
 20
314.9118399742706
 30
0.0
 11
1196.984530515929
 21
314.5168399742706
 31
0.0
1001
AUSTER_FOLIE
1002
{
1000
SPULVAR_10
1002
}
1001
AUSTER_ANSICHT
1002
{
1000
SL
1002
}
  0
LINE
  5
398E
330
1F
100
AcDbEntity
  8
11000_Left
  6
Continuous
 62
     7
370
    50
100
AcDbLine
 10
1196.984530515929
 20
314.5168399742706
 30
0.0
 11
1196.393530515929
 21
312.3118399742705
 31
0.0
1001
AUSTER_FOLIE
1002
{
1000
SPULVAR_10
1002
}
1001
AUSTER_ANSICHT
1002
{
1000
SL
1002
}
  0
LINE
  5
398F
330
1F
100
AcDbEntity
  8
11000_Left
  6
Continuous
 62
     7
370
    50
100
AcDbLine
 10
1197.546530515929
 20
316.6118399742706
 30
0.0
 11
1197.090530515929
 21
314.9118399742706
 31
0.0
1001
AUSTER_FOLIE
1002
{
1000
SPULVAR_10
1002
}
1001
AUSTER_ANSICHT
1002
{
1000
SL
1002
}
  0
LINE
  5
3990
330
1F
100
AcDbEntity
  8
11000_Left
  6
Continuous
 62
     7
370
    50
100
AcDbLine
 10
1191.046530515929
 20
321.2118399742706
 30
0.0
 11
1191.046530515929
 21
320.1618399742705
 31
0.0
1001
AUSTER_FOLIE
1002
{
1000
SPULVAR_10
1002
}
1001
AUSTER_ANSICHT
1002
{
1000
SL
1002
}
  0
LINE
  5
3991
330
1F
100
AcDbEntity
  8
11000_Left
  6
Continuous
 62
     7
370
    50
100
AcDbLine
 10
1191.046530515929
 20
320.1618399742705
 30
0.0
 11
1191.046530515929
 21
318.8118399742705
 31
0.0
1001
AUSTER_FOLIE
1002
{
1000
SPULVAR_10
1002
}
1001
AUSTER_ANSICHT
1002
{
1000
SL
1002
}
  0
LINE
  5
3992
330
1F
100
AcDbEntity
  8
11000_Left
  6
Continuous
 62
     7
370
    50
100
AcDbLine
 10
1201.246530515929
 20
321.2118399742706
 30
0.0
 11
1200.846530515929
 21
321.2118399742706
 31
0.0
1001
AUSTER_FOLIE
1002
{
1000
SPULVAR_10
1002
}
1001
AUSTER_ANSICHT
1002
{
1000
SL
1002
}
  0
LINE
  5
3993
330
1F
100
AcDbEntity
  8
11000_Left
  6
Continuous
 62
     7
370
    50
100
AcDbLine
 10
1200.846530515929
 20
321.2118399742706
 30
0.0
 11
1195.046530515929
 21
321.2118399742706
 31
0.0
1001
AUSTER_FOLIE
1002
{
1000
SPULVAR_10
1002
}
1001
AUSTER_ANSICHT
1002
{
1000
SL
1002
}
  0
LINE
  5
3994
330
1F
100
AcDbEntity
  8
11000_Left
  6
Continuous
 62
     7
370
    50
100
AcDbLine
 10
1193.046530515929
 20
321.2118399742706
 30
0.0
 11
1191.446530515929
 21
321.2118399742706
 31
0.0
1001
AUSTER_FOLIE
1002
{
1000
SPULVAR_10
1002
}
1001
AUSTER_ANSICHT
1002
{
1000
SL
1002
}
  0
LINE
  5
3995
330
1F
100
AcDbEntity
  8
11000_Left
  6
Continuous
 62
     7
370
    50
100
AcDbLine
 10
1191.446530515929
 20
321.2118399742706
 30
0.0
 11
1191.046530515929
 21
321.2118399742706
 31
0.0
1001
AUSTER_FOLIE
1002
{
1000
SPULVAR_10
1002
}
1001
AUSTER_ANSICHT
1002
{
1000
SL
1002
}
  0
LINE
  5
3996
330
1F
100
AcDbEntity
  8
11000_Left
  6
Continuous
 62
     7
370
    50
100
AcDbLine
 10
1192.283530515929
 20
315.4118399742706
 30
0.0
 11
1191.846530515929
 21
316.6118399742706
 31
0.0
1001
AUSTER_FOLIE
1002
{
1000
SPULVAR_10
1002
}
1001
AUSTER_ANSICHT
1002
{
1000
SL
1002
}
  0
LINE
  5
3997
330
1F
100
AcDbEntity
  8
11000_Left
  6
Continuous
 62
     7
370
    50
100
AcDbLine
 10
1191.846530515929
 20
316.6118399742706
 30
0.0
 11
1191.046530515929
 21
318.8118399742705
 31
0.0
1001
AUSTER_FOLIE
1002
{
1000
SPULVAR_10
1002
}
1001
AUSTER_ANSICHT
1002
{
1000
SL
1002
}
  0
LINE
  5
3998
330
1F
100
AcDbEntity
  8
11000_Left
  6
Continuous
 62
     7
370
    50
100
AcDbLine
 10
1194.474530515929
 20
312.3118399742705
 30
0.0
 11
1193.671530515929
 21
314.5168399742706
 31
0.0
1001
AUSTER_FOLIE
1002
{
1000
SPULVAR_10
1002
}
1001
AUSTER_ANSICHT
1002
{
1000
SL
1002
}
  0
LINE
  5
3999
330
1F
100
AcDbEntity
  8
11000_Left
  6
Continuous
 62
     7
370
    50
100
AcDbLine
 10
1193.671530515929
 20
314.5168399742706
 30
0.0
 11
1193.527530515929
 21
314.9118399742706
 31
0.0
1001
AUSTER_FOLIE
1002
{
1000
SPULVAR_10
1002
}
1001
AUSTER_ANSICHT
1002
{
1000
SL
1002
}
  0
LINE
  5
399A
330
1F
100
AcDbEntity
  8
11000_Left
  6
Continuous
 62
     7
370
    50
100
AcDbLine
 10
1193.527530515929
 20
314.9118399742706
 30
0.0
 11
1193.346530515928
 21
315.4118399742706
 31
0.0
1001
AUSTER_FOLIE
1002
{
1000
SPULVAR_10
1002
}
1001
AUSTER_ANSICHT
1002
{
1000
SL
1002
}
  0
LINE
  5
399B
330
1F
100
AcDbEntity
  8
11000_Left
  6
Continuous
 62
     7
370
    50
100
AcDbLine
 10
1193.346530515928
 20
315.4118399742706
 30
0.0
 11
1192.283530515929
 21
315.4118399742706
 31
0.0
1001
AUSTER_FOLIE
1002
{
1000
SPULVAR_10
1002
}
1001
AUSTER_ANSICHT
1002
{
1000
SL
1002
}
  0
ARC
  5
399C
330
1F
100
AcDbEntity
  8
11000_Left
  6
Continuous
 62
     7
370
    13
100
AcDbCircle
 10
1200.896530515929
 20
320.9378399742706
 30
0.0
 40
0.35
100
AcDbArc
 50
284.9999999999953
 51
0.0
1001
AUSTER_FOLIE
1002
{
1000
SPULVAR_10
1002
}
1001
AUSTER_ANSICHT
1002
{
1000
SL
1002
}
  0
ARC
  5
399D
330
1F
100
AcDbEntity
  8
11000_Left
  6
Continuous
 62
     7
370
    13
100
AcDbCircle
 10
1191.396530515929
 20
320.1618399742705
 30
0.0
 40
0.35
100
AcDbArc
 50
180.0
 51
270.0
1001
AUSTER_FOLIE
1002
{
1000
SPULVAR_10
1002
}
1001
AUSTER_ANSICHT
1002
{
1000
SL
1002
}
  0
LINE
  5
399E
330
1F
100
AcDbEntity
  8
11000_Left
  6
Continuous
 62
     7
370
    50
100
AcDbLine
 10
1193.705530515929
 20
314.4228399742705
 30
0.0
 11
1194.899530515929
 21
309.2498399742706
 31
0.0
1001
AUSTER_FOLIE
1002
{
1000
SPULVAR_10
1002
}
1001
AUSTER_ANSICHT
1002
{
1000
SL
1002
}
  0
ARC
  5
399F
102
{ACAD_REACTORS
330
51F0
102
}
330
1F
100
AcDbEntity
  8
11000_Left
  6
Continuous
 62
     7
370
    50
100
AcDbCircle
 10
1194.022530515929
 20
309.0478399742705
 30
0.0
 40
0.9
100
AcDbArc
 50
199.3410000000026
 51
12.9950000000002
1001
AUSTER_FOLIE
1002
{
1000
SPULVAR_10
1002
}
1001
AUSTER_ANSICHT
1002
{
1000
SL
1002
}
  0
LINE
  5
39A0
330
1F
100
AcDbEntity
  8
11000_Left
  6
Continuous
 62
     7
370
    50
100
AcDbLine
 10
1193.173530515929
 20
308.7498399742707
 30
0.0
 11
1191.079530515929
 21
314.7168399742706
 31
0.0
1001
AUSTER_FOLIE
1002
{
1000
SPULVAR_10
1002
}
1001
AUSTER_ANSICHT
1002
{
1000
SL
1002
}
  0
ARC
  5
39A1
330
1F
100
AcDbEntity
  8
11000_Left
  6
Continuous
 62
     7
370
    50
100
AcDbCircle
 10
1192.022530515929
 20
315.0478399742705
 30
0.0
 40
1.0
100
AcDbArc
 50
95.43900000000332
 51
199.3410000000026
1001
AUSTER_FOLIE
1002
{
1000
SPULVAR_10
1002
}
1001
AUSTER_ANSICHT
1002
{
1000
SL
1002
}
  0
LINE
  5
39A2
330
1F
100
AcDbEntity
  8
11000_Left
  6
Continuous
 62
     7
370
    50
100
AcDbLine
 10
1191.927530515929
 20
316.0438399742706
 30
0.0
 11
1192.049530515929
 21
316.0548399742705
 31
0.0
1001
AUSTER_FOLIE
1002
{
1000
SPULVAR_10
1002
}
1001
AUSTER_ANSICHT
1002
{
1000
SL
1002
}
  0
ARC
  5
39A3
330
1F
100
AcDbEntity
  8
11000_Left
  6
Continuous
 62
     7
370
    50
100
AcDbCircle
 10
1192.022530515929
 20
318.4878399742705
 30
0.0
 40
0.9
100
AcDbArc
 50
173.9579999999992
 51
225.9819999999941
1001
AUSTER_FOLIE
1002
{
1000
SPULVAR_10
1002
}
1001
AUSTER_ANSICHT
1002
{
1000
SL
1002
}
  0
LINE
  5
39A4
330
1F
100
AcDbEntity
  8
11000_Left
  6
Continuous
 62
     7
370
    13
100
AcDbLine
 10
1192.190530515929
 20
315.6668399742705
 30
0.0
 11
1191.965530515929
 21
315.6448399742706
 31
0.0
1001
AUSTER_FOLIE
1002
{
1000
SPULVAR_10
1002
}
1001
AUSTER_ANSICHT
1002
{
1000
SL
1002
}
  0
ARC
  5
39A5
330
1F
100
AcDbEntity
  8
11000_Left
  6
Continuous
 62
     7
370
    13
100
AcDbCircle
 10
1192.022530515929
 20
315.0478399742705
 30
0.0
 40
0.6
100
AcDbArc
 50
95.43999999999487
 51
199.3410000000026
1001
AUSTER_FOLIE
1002
{
1000
SPULVAR_10
1002
}
1001
AUSTER_ANSICHT
1002
{
1000
SL
1002
}
  0
LINE
  5
39A6
330
1F
100
AcDbEntity
  8
11000_Left
  6
Continuous
 62
     7
370
    13
100
AcDbLine
 10
1191.456530515929
 20
314.8488399742706
 30
0.0
 11
1193.550530515929
 21
308.8818399742706
 31
0.0
1001
AUSTER_FOLIE
1002
{
1000
SPULVAR_10
1002
}
1001
AUSTER_ANSICHT
1002
{
1000
SL
1002
}
  0
ARC
  5
39A7
330
1F
100
AcDbEntity
  8
11000_Left
  6
Continuous
 62
     7
370
    13
100
AcDbCircle
 10
1194.022530515929
 20
309.0478399742705
 30
0.0
 40
0.5
100
AcDbArc
 50
199.3410000000026
 51
12.9950000000002
1001
AUSTER_FOLIE
1002
{
1000
SPULVAR_10
1002
}
1001
AUSTER_ANSICHT
1002
{
1000
SL
1002
}
  0
LINE
  5
39A8
330
1F
100
AcDbEntity
  8
11000_Left
  6
Continuous
 62
     7
370
    13
100
AcDbLine
 10
1194.509530515929
 20
309.1608399742706
 30
0.0
 11
1193.225530515929
 21
314.7258399742706
 31
0.0
1001
AUSTER_FOLIE
1002
{
1000
SPULVAR_10
1002
}
1001
AUSTER_ANSICHT
1002
{
1000
SL
1002
}
  0
ARC
  5
39A9
330
1F
100
AcDbEntity
  8
11000_Left
  6
Continuous
 62
     7
370
    13
100
AcDbCircle
 10
1194.102530515929
 20
314.9278399742705
 30
0.0
 40
0.9
100
AcDbArc
 50
147.5860000000014
 51
192.9950000000002
1001
AUSTER_FOLIE
1002
{
1000
SPULVAR_10
1002
}
1001
AUSTER_ANSICHT
1002
{
1000
SL
1002
}
  0
DIMENSION
  5
5181
102
{ACAD_XDICTIONARY
360
518F
102
}
102
{ACAD_REACTORS
330
519A
102
}
330
1F
100
AcDbEntity
  8
10100_FRONT_DIM
  6
Continuous
 62
     7
370
    13
100
AcDbDimension
  2
*D2
 10
1158.330346343347
 20
350.7432224722832
 30
0.0
 11
1142.030346343347
 21
350.7432224722832
 31
0.0
 70
    32
 71
     5
 42
32.60000000000014
  3
DSTYLE1
100
AcDbAlignedDimension
 13
1125.730346343347
 23
343.4118399742706
 33
0.0
 14
1158.330346343347
 24
344.5118399742706
 34
0.0
100
AcDbRotatedDimension
1001
ACAD
1000
DSTYLE
1002
{
1070
    41
1040
2.0
1070
    42
1040
1.0
1070
    43
1040
1.0
1070
    47
1040
0.005
1070
    48
1040
-0.005
1070
    77
1070
     0
1070
    78
1070
     0
1070
   143
1040
25.4
1070
   171
1070
     0
1070
   172
1070
     1
1070
   271
1070
     0
1070
   272
1070
     1
1070
   277
1070
     6
1002
}
  0
DIMENSION
  5
519B
102
{ACAD_XDICTIONARY
360
51AB
102
}
102
{ACAD_REACTORS
330
51B8
102
}
330
1F
100
AcDbEntity
  8
11100_LEFT_DIM
  6
Continuous
 62
     7
370
    13
100
AcDbDimension
  2
*D3
 10
1201.246530515929
 20
350.7432224722832
 30
0.0
 11
1196.146530515929
 21
350.7432224722832
 31
0.0
 70
   160
 71
     5
 42
10.20000000000004
  3
DSTYLE1
100
AcDbAlignedDimension
 13
1191.046530515929
 23
343.9468399742706
 33
0.0
 14
1201.246530515929
 24
343.9468399742706
 34
0.0
100
AcDbRotatedDimension
1001
ACAD
1000
DSTYLE
1002
{
1070
    41
1040
2.0
1070
    42
1040
1.0
1070
    43
1040
1.0
1070
    47
1040
0.005
1070
    48
1040
-0.005
1070
    77
1070
     0
1070
    78
1070
     0
1070
   143
1040
25.4
1070
   171
1070
     0
1070
   172
1070
     1
1070
   271
1070
     0
1070
   272
1070
     1
1070
   277
1070
     6
1070
   279
1070
     0
1002
}
  0
DIMENSION
  5
51D7
102
{ACAD_XDICTIONARY
360
51E5
102
}
102
{ACAD_REACTORS
330
51F0
102
}
330
1F
100
AcDbEntity
  8
11100_LEFT_DIM
  6
Continuous
 62
     7
370
    13
100
AcDbDimension
  2
*D4
 10
1183.478311603354
 20
308.1484544958348
 30
0.0
 11
1183.478311603354
 21
326.5301472350529
 31
0.0
 70
    32
 71
     5
 42
36.76338547843574
  3
DSTYLE1
100
AcDbAlignedDimension
 13
1192.696530515929
 23
344.9118399742705
 33
0.0
 14
1194.055783503449
 24
308.1484544958348
 34
0.0
 50
90.0
100
AcDbRotatedDimension
1001
ACAD
1000
DSTYLE
1002
{
1070
    41
1040
2.0
1070
    42
1040
1.0
1070
    43
1040
1.0
1070
    47
1040
0.005
1070
    48
1040
-0.005
1070
    77
1070
     0
1070
    78
1070
     0
1070
   143
1040
25.4
1070
   171
1070
     0
1070
   172
1070
     1
1070
   271
1070
     0
1070
   272
1070
     1
1070
   277
1070
     6
1070
   279
1070
     0
1002
}
  0
ENDSEC
  0
SECTION
  2
OBJECTS
  0
DICTIONARY
  5
C
330
0
100
AcDbDictionary
281
     1
  3
ACAD_COLOR
350
2081
  3
ACAD_GROUP
350
D
  3
ACAD_LAYOUT
350
1A
  3
ACAD_MATERIAL
350
2080
  3
ACAD_MLINESTYLE
350
17
  3
ACAD_PLOTSETTINGS
350
19
  3
ACAD_PLOTSTYLENAME
350
E
  3
ACDBHEADERROUNDTRIPXREC
350
52F3
  3
AcDbVariableDictionary
350
5E
  3
DWGPROPS
350
52F2
  0
DICTIONARY
  5
518F
330
5181
100
AcDbDictionary
280
     1
281
     1
  3
ACAD_DIMASSOC
360
519A
  0
DICTIONARY
  5
51AB
330
519B
100
AcDbDictionary
280
     1
281
     1
  3
ACAD_DIMASSOC
360
51B8
  0
DICTIONARY
  5
51E5
330
51D7
100
AcDbDictionary
280
     1
281
     1
  3
ACAD_DIMASSOC
360
51F0
  0
DICTIONARY
  5
2081
102
{ACAD_REACTORS
330
C
102
}
330
C
100
AcDbDictionary
281
     1
  0
DICTIONARY
  5
D
102
{ACAD_REACTORS
330
C
102
}
330
C
100
AcDbDictionary
281
     1
  0
DICTIONARY
  5
1A
102
{ACAD_REACTORS
330
C
102
}
330
C
100
AcDbDictionary
281
     1
  3
Layout1
350
51
  3
Layout2
350
56
  3
Model
350
22
  0
DICTIONARY
  5
2080
102
{ACAD_REACTORS
330
C
102
}
330
C
100
AcDbDictionary
281
     1
  0
DICTIONARY
  5
17
102
{ACAD_REACTORS
330
C
102
}
330
C
100
AcDbDictionary
281
     1
  3
Standard
350
18
  0
DICTIONARY
  5
19
102
{ACAD_REACTORS
330
C
102
}
330
C
100
AcDbDictionary
281
     1
  0
ACDBDICTIONARYWDFLT
  5
E
102
{ACAD_REACTORS
330
C
102
}
330
C
100
AcDbDictionary
281
     1
  3
Normal
350
F
100
AcDbDictionaryWithDefault
340
F
  0
DICTIONARY
  5
52F3
102
{ACAD_REACTORS
330
C
102
}
330
C
100
AcDbDictionary
281
     1
  3
COLORDICT
350
52F5
  3
MATERIALDICT
350
52F4
  0
DICTIONARY
  5
5E
102
{ACAD_REACTORS
330
C
102
}
330
C
100
AcDbDictionary
281
     1
  3
DIMASSOC
350
5F
  3
HIDETEXT
350
63
  3
PROJECTNAME
350
52B7
  0
XRECORD
  5
52F2
102
{ACAD_REACTORS
330
C
102
}
330
C
100
AcDbXrecord
280
     1
  1
DWGPROPS COOKIE
  2

  3

  4

  6

  7

  8

  9

300
=
301
=
302
=
303
=
304
=
305
=
306
=
307
=
308
=
309
=
 40
0.2140457523148148
 41
2452662.472983287
 42
2453885.368907801
  1

 90
        0
  0
DIMASSOC
  5
519A
102
{ACAD_REACTORS
330
518F
102
}
330
518F
100
AcDbDimAssoc
330
5181
 90
        3
 70
     0
 71
     0
  1
AcDbOsnapPointRef
 72
     1
331
36B2
 73
     2
 91
        0
 40
3.141592653589792
 10
0.0
 20
0.0
 30
2.000000000000000E+50
 75
     0
  1
AcDbOsnapPointRef
 72
    13
331
36BC
 73
     2
 91
        0
 40
0.0
 10
0.0
 20
0.0
 30
2.000000000000000E+50
 75
     0
  0
DIMASSOC
  5
51B8
102
{ACAD_REACTORS
330
51AB
102
}
330
51AB
100
AcDbDimAssoc
330
519B
 90
        3
 70
     0
 71
     0
  1
AcDbOsnapPointRef
 72
     1
331
3964
 73
     2
 91
        0
 40
3.141592653589792
 10
0.0
 20
0.0
 30
2.000000000000000E+50
 75
     0
  1
AcDbOsnapPointRef
 72
     8
331
3916
 73
     2
 91
        0
 40
1.057322175732221
 10
0.0
 20
0.0
 30
0.0
 75
     1
  1
AcDbOsnapPointRef
 72
     1
331
3964
 73
     2
 91
        0
 40
3.141592653589792
 10
0.0
 20
0.0
 30
2.000000000000000E+50
 75
     0
  0
DIMASSOC
  5
51F0
102
{ACAD_REACTORS
330
51E5
102
}
330
51E5
100
AcDbDimAssoc
330
51D7
 90
        3
 70
     0
 71
     0
  1
AcDbOsnapPointRef
 72
     1
331
3968
 73
     2
 91
        0
 40
1.0
 10
0.0
 20
0.0
 30
2.000000000000000E+50
 75
     0
  1
AcDbOsnapPointRef
 72
     8
331
399F
 73
     2
 91
        0
 40
4.749345155925424
 10
0.0
 20
0.0
 30
0.0
 75
     1
  1
AcDbOsnapPointRef
 72
     1
331
3968
 73
     2
 91
        0
 40
1.0
 10
0.0
 20
0.0
 30
2.000000000000000E+50
 75
     0
  0
LAYOUT
  5
51
102
{ACAD_XDICTIONARY
360
52F8
102
}
102
{ACAD_REACTORS
330
1A
102
}
330
1A
100
AcDbPlotSettings
  1

  2
None
  4

  6

 40
0.0
 41
0.0
 42
0.0
 43
0.0
 44
0.0
 45
0.0
 46
0.0
 47
0.0
 48
0.0
 49
0.0
140
0.0
141
0.0
142
1.0
143
1.0
 70
   688
 72
     0
 73
     0
 74
     5
  7

 75
    16
147
1.0
148
0.0
149
0.0
100
AcDbLayout
  1
Layout1
 70
     1
 71
     1
 10
0.0
 20
0.0
 11
12.0
 21
9.0
 12
0.0
 22
0.0
 32
0.0
 14
0.0
 24
0.0
 34
0.0
 15
0.0
 25
0.0
 35
0.0
146
0.0
 13
0.0
 23
0.0
 33
0.0
 16
1.0
 26
0.0
 36
0.0
 17
0.0
 27
1.0
 37
0.0
 76
     0
330
50
  0
LAYOUT
  5
56
102
{ACAD_XDICTIONARY
360
52FA
102
}
102
{ACAD_REACTORS
330
1A
102
}
330
1A
100
AcDbPlotSettings
  1

  2
None
  4

  6

 40
0.0
 41
0.0
 42
0.0
 43
0.0
 44
0.0
 45
0.0
 46
0.0
 47
0.0
 48
0.0
 49
0.0
140
0.0
141
0.0
142
1.0
143
1.0
 70
   688
 72
     0
 73
     0
 74
     5
  7

 75
    16
147
1.0
148
0.0
149
0.0
100
AcDbLayout
  1
Layout2
 70
     1
 71
     2
 10
0.0
 20
0.0
 11
12.0
 21
9.0
 12
0.0
 22
0.0
 32
0.0
 14
0.0
 24
0.0
 34
0.0
 15
0.0
 25
0.0
 35
0.0
146
0.0
 13
0.0
 23
0.0
 33
0.0
 16
1.0
 26
0.0
 36
0.0
 17
0.0
 27
1.0
 37
0.0
 76
     0
330
55
  0
LAYOUT
  5
22
102
{ACAD_XDICTIONARY
360
52F6
102
}
102
{ACAD_REACTORS
330
1A
102
}
330
1A
100
AcDbPlotSettings
  1

  2
\\AMBW779A\A_P00873 (Canon iR2200-3300 PCL6)
  4
A4
  6

 40
4.815417
 41
4.815412
 42
4.815413999999996
 43
4.81543
 44
209.973328
 45
296.925995
 46
0.0
 47
0.0
 48
0.0
 49
0.0
140
0.0
141
0.0
142
1.0
143
1.0
 70
 11952
 72
     1
 73
     1
 74
     1
  7
monochrome.ctb
 75
    16
147
1.0
148
-1055.826200825642
149
-202.2433126464351
100
AcDbLayout
  1
Model
 70
     1
 71
     0
 10
0.0
 20
0.0
 11
12.0
 21
9.0
 12
0.0
 22
0.0
 32
0.0
 14
0.0
 24
0.0
 34
0.0
 15
0.0
 25
0.0
 35
0.0
146
0.0
 13
0.0
 23
0.0
 33
0.0
 16
1.0
 26
0.0
 36
0.0
 17
0.0
 27
1.0
 37
0.0
 76
     0
330
1F
  0
MLINESTYLE
  5
18
102
{ACAD_REACTORS
330
17
102
}
330
17
100
AcDbMlineStyle
  2
STANDARD
 70
     0
  3

 62
   256
 51
90.0
 52
90.0
 71
     2
 49
0.5
 62
   256
  6
BYLAYER
 49
-0.5
 62
   256
  6
BYLAYER
  0
ACDBPLACEHOLDER
  5
F
102
{ACAD_REACTORS
330
E
102
}
330
E
  0
XRECORD
  5
52F5
102
{ACAD_REACTORS
330
52F3
102
}
330
52F3
100
AcDbXrecord
280
     1
340
2081
  0
XRECORD
  5
52F4
102
{ACAD_REACTORS
330
52F3
102
}
330
52F3
100
AcDbXrecord
280
     1
340
2080
  0
DICTIONARYVAR
  5
5F
102
{ACAD_REACTORS
330
5E
102
}
330
5E
100
DictionaryVariables
280
     0
  1
2
  0
DICTIONARYVAR
  5
63
102
{ACAD_REACTORS
330
5E
102
}
330
5E
100
DictionaryVariables
280
     0
  1
1
  0
DICTIONARYVAR
  5
52B7
102
{ACAD_REACTORS
330
5E
102
}
330
5E
100
DictionaryVariables
280
     0
  1

  0
DICTIONARY
  5
52F8
330
51
100
AcDbDictionary
280
     1
281
     1
  3
ACAD_XREC_ROUNDTRIP
360
52F9
  0
DICTIONARY
  5
52FA
330
56
100
AcDbDictionary
280
     1
281
     1
  3
ACAD_XREC_ROUNDTRIP
360
52FB
  0
DICTIONARY
  5
52F6
330
22
100
AcDbDictionary
280
     1
281
     1
  3
ACAD_XREC_ROUNDTRIP
360
52F7
  0
XRECORD
  5
52F9
102
{ACAD_REACTORS
330
52F8
102
}
330
52F8
100
AcDbXrecord
280
     1
102
SHADEPLOT
 70
     0
102
SHADEPLOTRESLEVEL
 70
     2
102
SHADEPLOTCUSTOMDPI
 70
   300
  0
XRECORD
  5
52FB
102
{ACAD_REACTORS
330
52FA
102
}
330
52FA
100
AcDbXrecord
280
     1
102
SHADEPLOT
 70
     0
102
SHADEPLOTRESLEVEL
 70
     2
102
SHADEPLOTCUSTOMDPI
 70
   300
  0
XRECORD
  5
52F7
102
{ACAD_REACTORS
330
52F6
102
}
330
52F6
100
AcDbXrecord
280
     1
102
SHADEPLOT
 70
     1
102
SHADEPLOTRESLEVEL
 70
     2
102
SHADEPLOTCUSTOMDPI
 70
   300
  0
ENDSEC
  0
EOF
