  0
SECTION
  2
HEADER
  9
$ACADVER
  1
AC1015
  9
$ACADMAINTVER
 70
    20
  9
$DWGCODEPAGE
  3
ANSI_1252
  9
$INSBASE
 10
0.0
 20
0.0
 30
0.0
  9
$EXTMIN
 10
9.98474220045
 20
-0.0090630292066862
 30
-1.000045772874781
  9
$EXTMAX
 10
420.0128183607161
 20
270.0218359872488
 30
0.5000457798597005
  9
$LIMMIN
 10
0.0
 20
0.0
  9
$LIMMAX
 10
420.0
 20
297.0
  9
$ORTHOMODE
 70
     1
  9
$REGENMODE
 70
     1
  9
$FILLMODE
 70
     1
  9
$QTEXTMODE
 70
     0
  9
$MIRRTEXT
 70
     0
  9
$LTSCALE
 40
23.1
  9
$ATTMODE
 70
     1
  9
$TEXTSIZE
 40
0.2
  9
$TRACEWID
 40
0.05
  9
$TEXTSTYLE
  7
Standard
  9
$CLAYER
  8
0
  9
$CELTYPE
  6
ByLayer
  9
$CECOLOR
 62
   256
  9
$CELTSCALE
 40
1.0
  9
$DISPSILH
 70
     0
  9
$DIMSCALE
 40
0.0
  9
$DIMASZ
 40
3.5
  9
$DIMEXO
 40
0.0
  9
$DIMDLI
 40
3.75
  9
$DIMRND
 40
0.0
  9
$DIMDLE
 40
0.0
  9
$DIMEXE
 40
2.0
  9
$DIMTP
 40
0.0
  9
$DIMTM
 40
0.0
  9
$DIMTXT
 40
3.5
  9
$DIMCEN
 40
2.5
  9
$DIMTSZ
 40
0.0
  9
$DIMTOL
 70
     0
  9
$DIMLIM
 70
     0
  9
$DIMTIH
 70
     0
  9
$DIMTOH
 70
     0
  9
$DIMSE1
 70
     0
  9
$DIMSE2
 70
     0
  9
$DIMTAD
 70
     1
  9
$DIMZIN
 70
     8
  9
$DIMBLK
  1

  9
$DIMASO
 70
     1
  9
$DIMSHO
 70
     1
  9
$DIMPOST
  1

  9
$DIMAPOST
  1

  9
$DIMALT
 70
     0
  9
$DIMALTD
 70
     4
  9
$DIMALTF
 40
0.039
  9
$DIMLFAC
 40
1.0
  9
$DIMTOFL
 70
     1
  9
$DIMTVP
 40
0.0
  9
$DIMTIX
 70
     0
  9
$DIMSOXD
 70
     0
  9
$DIMSAH
 70
     0
  9
$DIMBLK1
  1

  9
$DIMBLK2
  1

  9
$DIMSTYLE
  2
H035
  9
$DIMCLRD
 70
   256
  9
$DIMCLRE
 70
     7
  9
$DIMCLRT
 70
     7
  9
$DIMTFAC
 40
1.0
  9
$DIMGAP
 40
0.5
  9
$DIMJUST
 70
     0
  9
$DIMSD1
 70
     0
  9
$DIMSD2
 70
     0
  9
$DIMTOLJ
 70
     1
  9
$DIMTZIN
 70
     0
  9
$DIMALTZ
 70
     0
  9
$DIMALTTZ
 70
     0
  9
$DIMUPT
 70
     0
  9
$DIMDEC
 70
     0
  9
$DIMTDEC
 70
     2
  9
$DIMALTU
 70
     8
  9
$DIMALTTD
 70
     4
  9
$DIMTXSTY
  7
Standard
  9
$DIMAUNIT
 70
     0
  9
$DIMADEC
 70
     0
  9
$DIMALTRND
 40
0.0
  9
$DIMAZIN
 70
     0
  9
$DIMDSEP
 70
    46
  9
$DIMATFIT
 70
     3
  9
$DIMFRAC
 70
     0
  9
$DIMLDRBLK
  1

  9
$DIMLUNIT
 70
     2
  9
$DIMLWD
 70
    -2
  9
$DIMLWE
 70
    -2
  9
$DIMTMOVE
 70
     0
  9
$LUNITS
 70
     2
  9
$LUPREC
 70
     4
  9
$SKETCHINC
 40
0.1
  9
$FILLETRAD
 40
0.5
  9
$AUNITS
 70
     0
  9
$AUPREC
 70
     0
  9
$MENU
  1
.
  9
$ELEVATION
 40
0.0
  9
$PELEVATION
 40
0.0
  9
$THICKNESS
 40
0.0
  9
$LIMCHECK
 70
     0
  9
$CHAMFERA
 40
0.0
  9
$CHAMFERB
 40
0.0
  9
$CHAMFERC
 40
0.0
  9
$CHAMFERD
 40
0.0
  9
$SKPOLY
 70
     0
  9
$TDCREATE
 40
2452829.417613079
  9
$TDUCREATE
 40
2452829.375946412
  9
$TDUPDATE
 40
2453405.760819642
  9
$TDUUPDATE
 40
2453405.719152975
  9
$TDINDWG
 40
0.4834296991
  9
$TDUSRTIMER
 40
0.4834266204
  9
$USRTIMER
 70
     1
  9
$ANGBASE
 50
0.0
  9
$ANGDIR
 70
     0
  9
$PDMODE
 70
     0
  9
$PDSIZE
 40
0.0
  9
$PLINEWID
 40
0.0
  9
$SPLFRAME
 70
     0
  9
$SPLINETYPE
 70
     6
  9
$SPLINESEGS
 70
     8
  9
$HANDSEED
  5
5C17
  9
$SURFTAB1
 70
     6
  9
$SURFTAB2
 70
     6
  9
$SURFTYPE
 70
     6
  9
$SURFU
 70
     6
  9
$SURFV
 70
     6
  9
$UCSBASE
  2

  9
$UCSNAME
  2

  9
$UCSORG
 10
0.0
 20
0.0
 30
0.0
  9
$UCSXDIR
 10
1.0
 20
0.0
 30
0.0
  9
$UCSYDIR
 10
0.0
 20
1.0
 30
0.0
  9
$UCSORTHOREF
  2

  9
$UCSORTHOVIEW
 70
     0
  9
$UCSORGTOP
 10
0.0
 20
0.0
 30
0.0
  9
$UCSORGBOTTOM
 10
0.0
 20
0.0
 30
0.0
  9
$UCSORGLEFT
 10
0.0
 20
0.0
 30
0.0
  9
$UCSORGRIGHT
 10
0.0
 20
0.0
 30
0.0
  9
$UCSORGFRONT
 10
0.0
 20
0.0
 30
0.0
  9
$UCSORGBACK
 10
0.0
 20
0.0
 30
0.0
  9
$PUCSBASE
  2

  9
$PUCSNAME
  2

  9
$PUCSORG
 10
0.0
 20
0.0
 30
0.0
  9
$PUCSXDIR
 10
1.0
 20
0.0
 30
0.0
  9
$PUCSYDIR
 10
0.0
 20
1.0
 30
0.0
  9
$PUCSORTHOREF
  2

  9
$PUCSORTHOVIEW
 70
     0
  9
$PUCSORGTOP
 10
0.0
 20
0.0
 30
0.0
  9
$PUCSORGBOTTOM
 10
0.0
 20
0.0
 30
0.0
  9
$PUCSORGLEFT
 10
0.0
 20
0.0
 30
0.0
  9
$PUCSORGRIGHT
 10
0.0
 20
0.0
 30
0.0
  9
$PUCSORGFRONT
 10
0.0
 20
0.0
 30
0.0
  9
$PUCSORGBACK
 10
0.0
 20
0.0
 30
0.0
  9
$USERI1
 70
     0
  9
$USERI2
 70
     0
  9
$USERI3
 70
     0
  9
$USERI4
 70
     0
  9
$USERI5
 70
     0
  9
$USERR1
 40
0.0
  9
$USERR2
 40
0.0
  9
$USERR3
 40
0.0
  9
$USERR4
 40
0.0
  9
$USERR5
 40
0.0
  9
$WORLDVIEW
 70
     1
  9
$SHADEDGE
 70
     3
  9
$SHADEDIF
 70
    70
  9
$TILEMODE
 70
     1
  9
$MAXACTVP
 70
    64
  9
$PINSBASE
 10
0.0
 20
0.0
 30
0.0
  9
$PLIMCHECK
 70
     0
  9
$PEXTMIN
 10
1.000000000000000E+20
 20
1.000000000000000E+20
 30
1.000000000000000E+20
  9
$PEXTMAX
 10
-1.000000000000000E+20
 20
-1.000000000000000E+20
 30
-1.000000000000000E+20
  9
$PLIMMIN
 10
0.0
 20
0.0
  9
$PLIMMAX
 10
12.0
 20
9.0
  9
$UNITMODE
 70
     0
  9
$VISRETAIN
 70
     1
  9
$PLINEGEN
 70
     0
  9
$PSLTSCALE
 70
     1
  9
$TREEDEPTH
 70
  3020
  9
$CMLSTYLE
  2
Standard
  9
$CMLJUST
 70
     0
  9
$CMLSCALE
 40
1.0
  9
$PROXYGRAPHICS
 70
     1
  9
$MEASUREMENT
 70
     0
  9
$CELWEIGHT
370
    -1
  9
$ENDCAPS
280
     0
  9
$JOINSTYLE
280
     0
  9
$LWDISPLAY
290
     0
  9
$INSUNITS
 70
     0
  9
$HYPERLINKBASE
  1

  9
$STYLESHEET
  1
MONOCHROME.CTB
  9
$XEDIT
290
     1
  9
$CEPSNTYPE
380
     0
  9
$PSTYLEMODE
290
     1
  9
$FINGERPRINTGUID
  2
{D88032C4-1185-41D3-97DD-7638FCF99E3F}
  9
$VERSIONGUID
  2
{61E89981-58E5-454C-95F8-3BF3F2E3B4FB}
  9
$EXTNAMES
290
     1
  9
$PSVPSCALE
 40
0.0
  9
$OLESTARTUP
290
     0
  0
ENDSEC
  0
SECTION
  2
CLASSES
  0
CLASS
  1
ACDBDICTIONARYWDFLT
  2
AcDbDictionaryWithDefault
  3
ObjectDBX Classes
 90
        0
280
     0
281
     0
  0
CLASS
  1
DICTIONARYVAR
  2
AcDbDictionaryVar
  3
ObjectDBX Classes
 90
        0
280
     0
281
     0
  0
CLASS
  1
ACDBPLACEHOLDER
  2
AcDbPlaceHolder
  3
ObjectDBX Classes
 90
        0
280
     0
281
     0
  0
CLASS
  1
LAYOUT
  2
AcDbLayout
  3
ObjectDBX Classes
 90
        0
280
     0
281
     0
  0
ENDSEC
  0
SECTION
  2
TABLES
  0
TABLE
  2
VPORT
  5
8
330
0
100
AcDbSymbolTable
 70
     2
  0
VPORT
  5
5C0E
330
8
100
AcDbSymbolTableRecord
100
AcDbViewportTableRecord
  2
*Active
 70
     0
 10
0.0
 20
0.0
 11
1.0
 21
1.0
 12
214.9987802805831
 22
135.006386479021
 13
0.0
 23
0.0
 14
1.0
 24
1.0
 15
0.0
 25
0.0
 16
0.0
 26
0.0
 36
1.0
 17
0.0
 27
0.0
 37
0.0
 40
272.1133995230091
 41
1.571428571428571
 42
50.0
 43
0.0
 44
0.0
 50
0.0
 51
0.0
 71
     0
 72
   100
 73
     1
 74
     1
 75
     0
 76
     0
 77
     0
 78
     0
281
     0
 65
     1
110
0.0
120
0.0
130
0.0
111
1.0
121
0.0
131
0.0
112
0.0
122
1.0
132
0.0
 79
     0
146
0.0
  0
ENDTAB
  0
TABLE
  2
LTYPE
  5
5
330
0
100
AcDbSymbolTable
 70
     3
  0
LTYPE
  5
13
330
5
100
AcDbSymbolTableRecord
100
AcDbLinetypeTableRecord
  2
ByBlock
 70
     0
  3

 72
    65
 73
     0
 40
0.0
  0
LTYPE
  5
14
330
5
100
AcDbSymbolTableRecord
100
AcDbLinetypeTableRecord
  2
ByLayer
 70
     0
  3

 72
    65
 73
     0
 40
0.0
  0
LTYPE
  5
15
330
5
100
AcDbSymbolTableRecord
100
AcDbLinetypeTableRecord
  2
CONTINUOUS
 70
     0
  3
Solid line
 72
    65
 73
     0
 40
0.0
  0
LTYPE
  5
26
330
5
100
AcDbSymbolTableRecord
100
AcDbLinetypeTableRecord
  2
CENTER
 70
     0
  3
____ _ ____ _ ____ _ ____ _ ____ _ ____ _ ____
 72
    65
 73
     4
 40
0.6
 49
0.375
 74
     0
 49
-0.075
 74
     0
 49
0.075
 74
     0
 49
-0.075
 74
     0
  0
LTYPE
  5
4F7A
330
5
100
AcDbSymbolTableRecord
100
AcDbLinetypeTableRecord
  2
DASHED
 70
     0
  3
_ _ _ _ _ _ _ _ _ _ _ _ _ _ _ _ _ _ _ _ _ _ _ _
 72
    65
 73
     2
 40
0.375
 49
0.25
 74
     0
 49
-0.125
 74
     0
  0
ENDTAB
  0
TABLE
  2
LAYER
  5
2
330
0
100
AcDbSymbolTable
 70
    14
  0
LAYER
  5
10
330
2
100
AcDbSymbolTableRecord
100
AcDbLayerTableRecord
  2
0
 70
     0
 62
     7
  6
CONTINUOUS
370
    -3
390
F
  0
LAYER
  5
1D8
330
2
100
AcDbSymbolTableRecord
100
AcDbLayerTableRecord
  2
Defpoints
 70
     0
 62
     7
  6
CONTINUOUS
290
     0
370
    -3
390
F
  0
LAYER
  5
1D9
330
2
100
AcDbSymbolTableRecord
100
AcDbLayerTableRecord
  2
91000_TIP
 70
     0
 62
     7
  6
CONTINUOUS
370
    -3
390
F
  0
LAYER
  5
1DA
330
2
100
AcDbSymbolTableRecord
100
AcDbLayerTableRecord
  2
11000_Left
 70
     0
 62
     7
  6
CONTINUOUS
370
    -3
390
F
  0
LAYER
  5
1DB
330
2
100
AcDbSymbolTableRecord
100
AcDbLayerTableRecord
  2
10000_FRONT
 70
     0
 62
     7
  6
CONTINUOUS
370
    -3
390
F
  0
LAYER
  5
1DC
330
2
100
AcDbSymbolTableRecord
100
AcDbLayerTableRecord
  2
10100_FRONT_DIM
 70
     0
 62
     7
  6
CONTINUOUS
370
    -3
390
F
  0
LAYER
  5
1DD
330
2
100
AcDbSymbolTableRecord
100
AcDbLayerTableRecord
  2
90000_FRAME
 70
     0
 62
     7
  6
CONTINUOUS
370
    -3
390
F
  0
LAYER
  5
1DE
330
2
100
AcDbSymbolTableRecord
100
AcDbLayerTableRecord
  2
11100_LEFT_DIM
 70
     0
 62
     7
  6
CONTINUOUS
370
    -3
390
F
  0
LAYER
  5
1DF
330
2
100
AcDbSymbolTableRecord
100
AcDbLayerTableRecord
  2
30000_Drilling
 70
     0
 62
     7
  6
CONTINUOUS
370
    -3
390
F
  0
LAYER
  5
1E0
330
2
100
AcDbSymbolTableRecord
100
AcDbLayerTableRecord
  2
30100_Drilling_DIM
 70
     0
 62
     7
  6
CONTINUOUS
370
    -3
390
F
  0
ENDTAB
  0
TABLE
  2
STYLE
  5
3
330
0
100
AcDbSymbolTable
 70
     2
  0
STYLE
  5
11
330
3
100
AcDbSymbolTableRecord
100
AcDbTextStyleTableRecord
  2
Standard
 70
     0
 40
0.0
 41
1.0
 50
0.0
 71
     0
 42
0.2
  3
txt
  4

  0
ENDTAB
  0
TABLE
  2
VIEW
  5
6
330
0
100
AcDbSymbolTable
 70
     0
  0
ENDTAB
  0
TABLE
  2
UCS
  5
7
330
0
100
AcDbSymbolTable
 70
     0
  0
ENDTAB
  0
TABLE
  2
APPID
  5
9
330
0
100
AcDbSymbolTable
 70
     3
  0
APPID
  5
12
330
9
100
AcDbSymbolTableRecord
100
AcDbRegAppTableRecord
  2
ACAD
 70
     0
  0
APPID
  5
1E8
330
9
100
AcDbSymbolTableRecord
100
AcDbRegAppTableRecord
  2
AUSTER_ANSICHT
 70
     0
  0
APPID
  5
1E9
330
9
100
AcDbSymbolTableRecord
100
AcDbRegAppTableRecord
  2
AUSTER_FOLIE
 70
     0
  0
ENDTAB
  0
TABLE
  2
DIMSTYLE
  5
A
330
0
100
AcDbSymbolTable
 70
     4
100
AcDbDimStyleTable
 71
     3
340
1E7
340
3A1A
340
BA
  0
DIMSTYLE
105
BA
330
A
100
AcDbSymbolTableRecord
100
AcDbDimStyleTableRecord
  2
Standard
 70
     0
340
11
  0
DIMSTYLE
105
1E7
102
{ACAD_REACTORS
330
4C47
330
4C78
330
4C55
330
551E
330
54FB
330
54EC
330
554B
330
54CC
330
556A
330
55BB
102
}
330
A
100
AcDbSymbolTableRecord
100
AcDbDimStyleTableRecord
  2
DSTYLE1
 70
     0
 41
3.0
 42
0.0
 44
1.0
 73
     0
 74
     0
 77
     1
 78
     3
140
2.5
143
0.039370079
147
1.0
271
     3
272
     3
274
     0
279
     2
340
11
  0
DIMSTYLE
105
3A1A
330
A
100
AcDbSymbolTableRecord
100
AcDbDimStyleTableRecord
  2
H035
 70
     0
 40
0.0
 41
3.5
 42
0.0
 43
3.75
 44
2.0
 73
     0
 74
     0
 77
     1
 78
     8
140
3.5
141
2.5
143
0.039
147
0.5
171
     4
172
     1
176
   256
177
     7
178
     7
271
     0
272
     2
273
     8
274
     4
340
11
  0
ENDTAB
  0
TABLE
  2
BLOCK_RECORD
  5
1
330
0
100
AcDbSymbolTable
 70
    27
  0
BLOCK_RECORD
  5
20
330
1
100
AcDbSymbolTableRecord
100
AcDbBlockTableRecord
  2
*Model_Space
340
23
  0
BLOCK_RECORD
  5
1C
330
1
100
AcDbSymbolTableRecord
100
AcDbBlockTableRecord
  2
*Paper_Space
340
1F
  0
BLOCK_RECORD
  5
3A
330
1
100
AcDbSymbolTableRecord
100
AcDbBlockTableRecord
  2
SIEMENS_OUTLINE_BL0
340
0
102
{BLKREFS
331
AA
102
}
  0
BLOCK_RECORD
  5
4C48
330
1
100
AcDbSymbolTableRecord
100
AcDbBlockTableRecord
  2
*D1
340
0
  0
BLOCK_RECORD
  5
4C56
330
1
100
AcDbSymbolTableRecord
100
AcDbBlockTableRecord
  2
*D2
340
0
  0
BLOCK_RECORD
  5
4C79
330
1
100
AcDbSymbolTableRecord
100
AcDbBlockTableRecord
  2
*D3
340
0
  0
BLOCK_RECORD
  5
54CD
330
1
100
AcDbSymbolTableRecord
100
AcDbBlockTableRecord
  2
*D4
340
0
  0
BLOCK_RECORD
  5
54ED
330
1
100
AcDbSymbolTableRecord
100
AcDbBlockTableRecord
  2
*D5
340
0
  0
BLOCK_RECORD
  5
54FC
330
1
100
AcDbSymbolTableRecord
100
AcDbBlockTableRecord
  2
*D6
340
0
  0
BLOCK_RECORD
  5
551F
330
1
100
AcDbSymbolTableRecord
100
AcDbBlockTableRecord
  2
*D7
340
0
  0
BLOCK_RECORD
  5
554C
330
1
100
AcDbSymbolTableRecord
100
AcDbBlockTableRecord
  2
*D8
340
0
  0
BLOCK_RECORD
  5
556B
330
1
100
AcDbSymbolTableRecord
100
AcDbBlockTableRecord
  2
*D9
340
0
  0
BLOCK_RECORD
  5
55BC
330
1
100
AcDbSymbolTableRecord
100
AcDbBlockTableRecord
  2
*D10
340
0
  0
ENDTAB
  0
ENDSEC
  0
SECTION
  2
BLOCKS
  0
BLOCK
  5
21
330
20
100
AcDbEntity
  8
0
100
AcDbBlockBegin
  2
*Model_Space
 70
     0
 10
0.0
 20
0.0
 30
0.0
  3
*Model_Space
  1

  0
ENDBLK
  5
22
330
20
100
AcDbEntity
  8
0
100
AcDbBlockEnd
  0
BLOCK
  5
1D
330
1C
100
AcDbEntity
 67
     1
  8
0
100
AcDbBlockBegin
  2
*Paper_Space
 70
     0
 10
0.0
 20
0.0
 30
0.0
  3
*Paper_Space
  1

  0
ENDBLK
  5
1E
330
1C
100
AcDbEntity
 67
     1
  8
0
100
AcDbBlockEnd
  0
BLOCK
  5
3B
330
3A
100
AcDbEntity
  8
0
  6
Continuous
 62
     7
100
AcDbBlockBegin
  2
SIEMENS_OUTLINE_BL0
 70
     0
 10
0.0
 20
0.0
 30
0.0
  3
SIEMENS_OUTLINE_BL0
  1

  0
LINE
  5
3C
330
3A
100
AcDbEntity
  8
0
  6
Continuous
 62
     7
100
AcDbLine
 10
289.1235341257
 20
21.4969115175
 30
0.0
 11
289.1235341257
 21
16.7436424342
 31
0.0
  0
LINE
  5
3D
330
3A
100
AcDbEntity
  8
0
  6
Continuous
 62
     7
100
AcDbLine
 10
290.5495148507
 20
21.4969115175
 30
0.0
 11
290.5495148507
 21
16.7436424342
 31
0.0
  0
LINE
  5
3E
330
3A
100
AcDbEntity
  8
0
  6
Continuous
 62
     7
100
AcDbLine
 10
289.1235341257
 20
16.7436424342
 30
0.0
 11
290.5495148507
 21
16.7436424342
 31
0.0
  0
LINE
  5
3F
330
3A
100
AcDbEntity
  8
0
  6
Continuous
 62
     7
100
AcDbLine
 10
289.1235341257
 20
21.4969115175
 30
0.0
 11
290.5495148507
 21
21.4969115175
 31
0.0
  0
LINE
  5
40
330
3A
100
AcDbEntity
  8
0
  6
Continuous
 62
     7
100
AcDbLine
 10
291.6427667399
 20
21.4969115175
 30
0.0
 11
291.6427667399
 21
16.7436424342
 31
0.0
  0
LINE
  5
41
330
3A
100
AcDbEntity
  8
0
  6
Continuous
 62
     7
100
AcDbLine
 10
291.6427667399
 20
16.7436424342
 30
0.0
 11
295.2077185523
 21
16.7436424342
 31
0.0
  0
LINE
  5
42
330
3A
100
AcDbEntity
  8
0
  6
Continuous
 62
     7
100
AcDbLine
 10
295.2077185523
 20
17.64676356
 30
0.0
 11
293.021214774
 21
17.64676356
 31
0.0
  0
LINE
  5
43
330
3A
100
AcDbEntity
  8
0
  6
Continuous
 62
     7
100
AcDbLine
 10
295.2077185523
 20
17.64676356
 30
0.0
 11
295.2077185523
 21
16.7436424342
 31
0.0
  0
LINE
  5
44
330
3A
100
AcDbEntity
  8
0
  6
Continuous
 62
     7
100
AcDbLine
 10
295.1601858615
 20
21.4969115175
 30
0.0
 11
291.6427667399
 21
21.4969115175
 31
0.0
  0
LINE
  5
45
330
3A
100
AcDbEntity
  8
0
  6
Continuous
 62
     7
100
AcDbLine
 10
295.1601858615
 20
20.6175567371
 30
0.0
 11
293.021214774
 21
20.6175567371
 31
0.0
  0
LINE
  5
46
330
3A
100
AcDbEntity
  8
0
  6
Continuous
 62
     7
100
AcDbLine
 10
295.1601858615
 20
21.4969115175
 30
0.0
 11
295.1601858615
 21
20.6175567371
 31
0.0
  0
LINE
  5
47
330
3A
100
AcDbEntity
  8
0
  6
Continuous
 62
     7
100
AcDbLine
 10
294.8749897165
 20
18.7637817946
 30
0.0
 11
293.021214774
 21
18.7637817946
 31
0.0
  0
LINE
  5
48
330
3A
100
AcDbEntity
  8
0
  6
Continuous
 62
     7
100
AcDbLine
 10
294.8749897165
 20
19.5480711933
 30
0.0
 11
294.8749897165
 21
18.7637817946
 31
0.0
  0
LINE
  5
49
330
3A
100
AcDbEntity
  8
0
  6
Continuous
 62
     7
100
AcDbLine
 10
294.8749897165
 20
19.5480711933
 30
0.0
 11
293.021214774
 21
19.5480711933
 31
0.0
  0
LINE
  5
4A
330
3A
100
AcDbEntity
  8
0
  6
Continuous
 62
     7
100
AcDbLine
 10
293.021214774
 20
20.6175567371
 30
0.0
 11
293.021214774
 21
19.5480711933
 31
0.0
  0
LINE
  5
4B
330
3A
100
AcDbEntity
  8
0
  6
Continuous
 62
     7
100
AcDbLine
 10
293.021214774
 20
18.7637817946
 30
0.0
 11
293.021214774
 21
17.64676356
 31
0.0
  0
LINE
  5
4C
330
3A
100
AcDbEntity
  8
0
  6
Continuous
 62
     7
100
AcDbLine
 10
296.0157742965
 20
16.7436424342
 30
0.0
 11
296.0157742965
 21
21.4969115175
 31
0.0
  0
LINE
  5
4D
330
3A
100
AcDbEntity
  8
0
  6
Continuous
 62
     7
100
AcDbLine
 10
296.0157742965
 20
16.7436424342
 30
0.0
 11
296.9664281131
 21
16.7436424342
 31
0.0
  0
LINE
  5
4E
330
3A
100
AcDbEntity
  8
0
  6
Continuous
 62
     7
100
AcDbLine
 10
301.8622952689
 20
21.4969115175
 30
0.0
 11
301.8622952689
 21
16.7436424342
 31
0.0
  0
LINE
  5
4F
330
3A
100
AcDbEntity
  8
0
  6
Continuous
 62
     7
100
AcDbLine
 10
301.8622952689
 20
16.7436424342
 30
0.0
 11
300.4838472348
 21
16.7436424342
 31
0.0
  0
LINE
  5
50
330
3A
100
AcDbEntity
  8
0
  6
Continuous
 62
     7
100
AcDbLine
 10
298.2973434565
 20
16.6961097434
 30
0.0
 11
299.1529318914
 21
16.6961097434
 31
0.0
  0
LINE
  5
51
330
3A
100
AcDbEntity
  8
0
  6
Continuous
 62
     7
100
AcDbLine
 10
298.2973434565
 20
16.6961097434
 30
0.0
 11
296.9664281131
 21
19.7857346475
 31
0.0
  0
LINE
  5
52
330
3A
100
AcDbEntity
  8
0
  6
Continuous
 62
     7
100
AcDbLine
 10
296.9664281131
 20
16.7436424342
 30
0.0
 11
296.9664281131
 21
19.7857346475
 31
0.0
  0
LINE
  5
53
330
3A
100
AcDbEntity
  8
0
  6
Continuous
 62
     7
100
AcDbLine
 10
300.4838472348
 20
19.8332673383
 30
0.0
 11
299.1529318914
 21
16.6961097434
 31
0.0
  0
LINE
  5
54
330
3A
100
AcDbEntity
  8
0
  6
Continuous
 62
     7
100
AcDbLine
 10
297.7269511665
 20
21.4969115175
 30
0.0
 11
296.0157742965
 21
21.4969115175
 31
0.0
  0
LINE
  5
55
330
3A
100
AcDbEntity
  8
0
  6
Continuous
 62
     7
100
AcDbLine
 10
301.8622952689
 20
21.4969115175
 30
0.0
 11
300.1511183989
 21
21.4969115175
 31
0.0
  0
LINE
  5
56
330
3A
100
AcDbEntity
  8
0
  6
Continuous
 62
     7
100
AcDbLine
 10
297.7269511665
 20
21.4969115175
 30
0.0
 11
298.9628011281
 21
18.5974173767
 31
0.0
  0
LINE
  5
57
330
3A
100
AcDbEntity
  8
0
  6
Continuous
 62
     7
100
AcDbLine
 10
300.1511183989
 20
21.4969115175
 30
0.0
 11
298.9628011281
 21
18.5974173767
 31
0.0
  0
LINE
  5
58
330
3A
100
AcDbEntity
  8
0
  6
Continuous
 62
     7
100
AcDbLine
 10
300.4838472348
 20
19.8332673383
 30
0.0
 11
300.4838472348
 21
16.7436424342
 31
0.0
  0
LINE
  5
59
330
3A
100
AcDbEntity
  8
0
  6
Continuous
 62
     7
100
AcDbLine
 10
302.9555471581
 20
21.4969115175
 30
0.0
 11
302.9555471581
 21
16.7436424342
 31
0.0
  0
LINE
  5
5A
330
3A
100
AcDbEntity
  8
0
  6
Continuous
 62
     7
100
AcDbLine
 10
302.9555471581
 20
16.7436424342
 30
0.0
 11
306.5204989705
 21
16.7436424342
 31
0.0
  0
LINE
  5
5B
330
3A
100
AcDbEntity
  8
0
  6
Continuous
 62
     7
100
AcDbLine
 10
306.5204989705
 20
17.64676356
 30
0.0
 11
304.3339951922
 21
17.64676356
 31
0.0
  0
LINE
  5
5C
330
3A
100
AcDbEntity
  8
0
  6
Continuous
 62
     7
100
AcDbLine
 10
306.5204989705
 20
17.64676356
 30
0.0
 11
306.5204989705
 21
16.7436424342
 31
0.0
  0
LINE
  5
5D
330
3A
100
AcDbEntity
  8
0
  6
Continuous
 62
     7
100
AcDbLine
 10
306.4729662797
 20
21.4969115175
 30
0.0
 11
302.9555471581
 21
21.4969115175
 31
0.0
  0
LINE
  5
5E
330
3A
100
AcDbEntity
  8
0
  6
Continuous
 62
     7
100
AcDbLine
 10
306.4729662797
 20
20.6175567371
 30
0.0
 11
304.3339951922
 21
20.6175567371
 31
0.0
  0
LINE
  5
5F
330
3A
100
AcDbEntity
  8
0
  6
Continuous
 62
     7
100
AcDbLine
 10
306.4729662797
 20
21.4969115175
 30
0.0
 11
306.4729662797
 21
20.6175567371
 31
0.0
  0
LINE
  5
60
330
3A
100
AcDbEntity
  8
0
  6
Continuous
 62
     7
100
AcDbLine
 10
306.1877701347
 20
18.7637817946
 30
0.0
 11
304.3339951922
 21
18.7637817946
 31
0.0
  0
LINE
  5
61
330
3A
100
AcDbEntity
  8
0
  6
Continuous
 62
     7
100
AcDbLine
 10
306.1877701347
 20
19.5480711933
 30
0.0
 11
306.1877701347
 21
18.7637817946
 31
0.0
  0
LINE
  5
62
330
3A
100
AcDbEntity
  8
0
  6
Continuous
 62
     7
100
AcDbLine
 10
306.1877701347
 20
19.5480711933
 30
0.0
 11
304.3339951922
 21
19.5480711933
 31
0.0
  0
LINE
  5
63
330
3A
100
AcDbEntity
  8
0
  6
Continuous
 62
     7
100
AcDbLine
 10
304.3339951922
 20
20.6175567371
 30
0.0
 11
304.3339951922
 21
19.5480711933
 31
0.0
  0
LINE
  5
64
330
3A
100
AcDbEntity
  8
0
  6
Continuous
 62
     7
100
AcDbLine
 10
304.3339951922
 20
18.7637817946
 30
0.0
 11
304.3339951922
 21
17.64676356
 31
0.0
  0
LINE
  5
65
330
3A
100
AcDbEntity
  8
0
  6
Continuous
 62
     7
100
AcDbLine
 10
307.3047883693
 20
16.7436424342
 30
0.0
 11
307.3047883693
 21
21.4969115175
 31
0.0
  0
LINE
  5
66
330
3A
100
AcDbEntity
  8
0
  6
Continuous
 62
     7
100
AcDbLine
 10
311.4876651625
 20
21.4969115175
 30
0.0
 11
311.4876651625
 21
16.7436424342
 31
0.0
  0
LINE
  5
67
330
3A
100
AcDbEntity
  8
0
  6
Continuous
 62
     7
100
AcDbLine
 10
307.3047883693
 20
16.7436424342
 30
0.0
 11
308.2554421859
 21
16.7436424342
 31
0.0
  0
LINE
  5
68
330
3A
100
AcDbEntity
  8
0
  6
Continuous
 62
     7
100
AcDbLine
 10
311.4876651625
 20
21.4969115175
 30
0.0
 11
310.5370113459
 21
21.4969115175
 31
0.0
  0
LINE
  5
69
330
3A
100
AcDbEntity
  8
0
  6
Continuous
 62
     7
100
AcDbLine
 10
308.8496008213
 20
21.4969115175
 30
0.0
 11
307.3047883693
 21
21.4969115175
 31
0.0
  0
LINE
  5
6A
330
3A
100
AcDbEntity
  8
0
  6
Continuous
 62
     7
100
AcDbLine
 10
311.4876651625
 20
16.7436424342
 30
0.0
 11
309.9666190559
 21
16.7436424342
 31
0.0
  0
LINE
  5
6B
330
3A
100
AcDbEntity
  8
0
  6
Continuous
 62
     7
100
AcDbLine
 10
309.9666190559
 20
16.7436424342
 30
0.0
 11
308.2554421859
 21
19.7857346475
 31
0.0
  0
LINE
  5
6C
330
3A
100
AcDbEntity
  8
0
  6
Continuous
 62
     7
100
AcDbLine
 10
308.8496008213
 20
21.4969115175
 30
0.0
 11
310.5370113459
 21
18.5498846858
 31
0.0
  0
LINE
  5
6D
330
3A
100
AcDbEntity
  8
0
  6
Continuous
 62
     7
100
AcDbLine
 10
310.5370113459
 20
21.4969115175
 30
0.0
 11
310.5370113459
 21
18.5498846858
 31
0.0
  0
LINE
  5
6E
330
3A
100
AcDbEntity
  8
0
  6
Continuous
 62
     7
100
AcDbLine
 10
308.2554421859
 20
16.7436424342
 30
0.0
 11
308.2554421859
 21
19.7857346475
 31
0.0
  0
LINE
  5
6F
330
3A
100
AcDbEntity
  8
0
  6
Continuous
 62
     7
100
AcDbLine
 10
312.2957209067
 20
16.8387078159
 30
0.0
 11
312.2957209067
 21
17.7893616325
 31
0.0
  0
LINE
  5
70
330
3A
100
AcDbEntity
  8
0
  6
Continuous
 62
     7
100
AcDbLine
 10
315.623009265
 20
20.49872501
 30
0.0
 11
315.623009265
 21
21.4493788266
 31
0.0
  0
ARC
  5
71
330
3A
100
AcDbEntity
  8
0
  6
Continuous
 62
     7
100
AcDbCircle
 10
314.0003620317
 20
18.7008009792
 30
0.0
 40
1.111619360599997
100
AcDbArc
 50
277.7099956934
 51
295.6884927746
  0
ARC
  5
72
330
3A
100
AcDbEntity
  8
0
  6
Continuous
 62
     7
100
AcDbCircle
 10
314.2846720145
 20
17.9759752156
 30
0.0
 40
0.3401689265
100
AcDbArc
 50
305.503221255
 51
72.46528985229999
  0
ARC
  5
73
330
3A
100
AcDbEntity
  8
0
  6
Continuous
 62
     7
100
AcDbCircle
 10
313.7186782063
 20
21.3776821252
 30
0.0
 40
4.756794641099999
100
AcDbArc
 50
252.5939200548001
 51
280.9816604256
  0
ARC
  5
74
330
3A
100
AcDbEntity
  8
0
  6
Continuous
 62
     7
100
AcDbCircle
 10
314.1735135694
 20
18.7596683887
 30
0.0
 40
2.100726595299998
100
AcDbArc
 50
282.405835852
 51
311.8644433928
  0
ARC
  5
75
330
3A
100
AcDbEntity
  8
0
  6
Continuous
 62
     7
100
AcDbCircle
 10
313.8999492223
 20
20.3680101102
 30
0.0
 40
0.3029626476
100
AcDbArc
 50
154.4400348282
 51
221.8201698801
  0
ARC
  5
76
330
3A
100
AcDbEntity
  8
0
  6
Continuous
 62
     7
100
AcDbCircle
 10
313.9791703737
 20
20.2887889588
 30
0.0
 40
0.4103089737
100
AcDbArc
 50
102.8287828681
 51
149.2259639003
  0
ARC
  5
77
330
3A
100
AcDbEntity
  8
0
  6
Continuous
 62
     7
100
AcDbCircle
 10
314.3961972093
 20
18.546453629
 30
0.0
 40
2.201836557
100
AcDbArc
 50
84.0400061857
 51
103.3427657870999
  0
ARC
  5
78
330
3A
100
AcDbEntity
  8
0
  6
Continuous
 62
     7
100
AcDbCircle
 10
314.0552333846
 20
16.1290897051
 30
0.0
 40
4.642373736499997
100
AcDbArc
 50
70.2625858546
 51
82.95241863799999
  0
ARC
  5
79
330
3A
100
AcDbEntity
  8
0
  6
Continuous
 62
     7
100
AcDbCircle
 10
313.5412151824001
 20
20.8007125947
 30
0.0
 40
3.258755990899997
100
AcDbArc
 50
247.5300206145
 51
280.7579522143
  0
ARC
  5
7A
330
3A
100
AcDbEntity
  8
0
  6
Continuous
 62
     7
100
AcDbCircle
 10
307.1562487104
 20
2.5491926343
 30
0.0
 40
17.3316084133
100
AcDbArc
 50
65.34146746500001
 51
67.39977707359999
  0
ARC
  5
7B
330
3A
100
AcDbEntity
  8
0
  6
Continuous
 62
     7
100
AcDbCircle
 10
317.9521111158
 20
28.3416189974
 30
0.0
 40
10.6291642039
100
AcDbArc
 50
242.8620101252001
 51
247.1042029186
  0
ARC
  5
7C
330
3A
100
AcDbEntity
  8
0
  6
Continuous
 62
     7
100
AcDbCircle
 10
314.0972098893
 20
20.8076875004
 30
0.0
 40
2.166291629199998
100
AcDbArc
 50
227.3119280794
 51
242.7040315235
  0
ARC
  5
7D
330
3A
100
AcDbEntity
  8
0
  6
Continuous
 62
     7
100
AcDbCircle
 10
313.4931790796
 20
20.1020098596
 30
0.0
 40
1.238521734
100
AcDbArc
 50
194.7952194236
 51
225.7176549047
  0
ARC
  5
7E
330
3A
100
AcDbEntity
  8
0
  6
Continuous
 62
     7
100
AcDbCircle
 10
313.5553372138
 20
20.1422298287
 30
0.0
 40
1.309092072899999
100
AcDbArc
 50
164.1974860461
 51
195.8025139539
  0
ARC
  5
7F
330
3A
100
AcDbEntity
  8
0
  6
Continuous
 62
     7
100
AcDbCircle
 10
314.1123609345001
 20
19.2539626688
 30
0.0
 40
2.366924815299999
100
AcDbArc
 50
86.22180229280001
 51
120.4272602309
  0
ARC
  5
80
330
3A
100
AcDbEntity
  8
0
  6
Continuous
 62
     7
100
AcDbCircle
 10
313.8435041519
 20
12.5577948477
 30
0.0
 40
9.0679051661
100
AcDbArc
 50
78.68270492259998
 51
87.3147599624
  0
ARC
  5
81
330
3A
100
AcDbEntity
  8
0
  6
Continuous
 62
     7
100
AcDbCircle
 10
313.3874349735
 20
20.2497375912
 30
0.0
 40
1.119747444
100
AcDbArc
 50
142.813917903
 51
167.1522951417
  0
ARC
  5
82
330
3A
100
AcDbEntity
  8
0
  6
Continuous
 62
     7
100
AcDbCircle
 10
313.7327443151
 20
19.9431558946
 30
0.0
 40
1.580546684499998
100
AcDbArc
 50
121.2140948535
 51
141.5254768286
  0
ARC
  5
83
330
3A
100
AcDbEntity
  8
0
  6
Continuous
 62
     7
100
AcDbCircle
 10
314.3099186807
 20
20.7542132232
 30
0.0
 40
0.8661276051999998
100
AcDbArc
 50
222.7760387596
 51
239.0362434679
  0
ARC
  5
84
330
3A
100
AcDbEntity
  8
0
  6
Continuous
 62
     7
100
AcDbCircle
 10
311.8032091024
 20
13.4239410246
 30
0.0
 40
6.858773576299999
100
AcDbArc
 50
59.90202725600001
 51
68.2036481279
  0
ARC
  5
85
330
3A
100
AcDbEntity
  8
0
  6
Continuous
 62
     7
100
AcDbCircle
 10
315.2117035963
 20
22.3498275319
 30
0.0
 40
2.698741017099999
100
AcDbArc
 50
240.0481997804
 51
251.3779673736999
  0
ARC
  5
86
330
3A
100
AcDbEntity
  8
0
  6
Continuous
 62
     7
100
AcDbCircle
 10
314.5462464295
 20
18.1929289165
 30
0.0
 40
1.4334474881
100
AcDbArc
 50
315.8904553224
 51
333.5229264373
  0
ARC
  5
87
330
3A
100
AcDbEntity
  8
0
  6
Continuous
 62
     7
100
AcDbCircle
 10
314.5508846732
 20
18.1395217664
 30
0.0
 40
1.406228711899998
100
AcDbArc
 50
335.3867972702
 51
24.3915119402
  0
ARC
  5
88
330
3A
100
AcDbEntity
  8
0
  6
Continuous
 62
     7
100
AcDbCircle
 10
314.4786797697
 20
18.0616650746
 30
0.0
 40
1.504702514799999
100
AcDbArc
 50
25.95629166050001
 51
59.4834829668
  0
LINE
  5
89
330
3A
100
AcDbEntity
  8
0
  6
Continuous
 62
     7
100
AcDbLine
 10
284.7029938783
 20
16.8387078159
 30
0.0
 11
284.7029938783
 21
17.7893616325
 31
0.0
  0
LINE
  5
8A
330
3A
100
AcDbEntity
  8
0
  6
Continuous
 62
     7
100
AcDbLine
 10
288.0302822366
 20
20.49872501
 30
0.0
 11
288.0302822366
 21
21.4493788266
 31
0.0
  0
ARC
  5
8B
330
3A
100
AcDbEntity
  8
0
  6
Continuous
 62
     7
100
AcDbCircle
 10
286.4076350033
 20
18.7008009792
 30
0.0
 40
1.111619360599997
100
AcDbArc
 50
277.7099956934
 51
295.6884927746
  0
ARC
  5
8C
330
3A
100
AcDbEntity
  8
0
  6
Continuous
 62
     7
100
AcDbCircle
 10
286.691944986
 20
17.9759752156
 30
0.0
 40
0.3401689265
100
AcDbArc
 50
305.5032212556
 51
72.4652898515
  0
ARC
  5
8D
330
3A
100
AcDbEntity
  8
0
  6
Continuous
 62
     7
100
AcDbCircle
 10
286.1259511779
 20
21.3776821252
 30
0.0
 40
4.756794641099999
100
AcDbArc
 50
252.5939200545
 51
280.9816604253
  0
ARC
  5
8E
330
3A
100
AcDbEntity
  8
0
  6
Continuous
 62
     7
100
AcDbCircle
 10
286.580786541
 20
18.7596683887
 30
0.0
 40
2.100726595299998
100
AcDbArc
 50
282.4058358513
 51
311.8644433923
  0
ARC
  5
8F
330
3A
100
AcDbEntity
  8
0
  6
Continuous
 62
     7
100
AcDbCircle
 10
286.3072221939
 20
20.3680101102
 30
0.0
 40
0.3029626476
100
AcDbArc
 50
154.4400348282
 51
221.8201698801
  0
ARC
  5
90
330
3A
100
AcDbEntity
  8
0
  6
Continuous
 62
     7
100
AcDbCircle
 10
286.3864433453
 20
20.2887889588
 30
0.0
 40
0.4103089737
100
AcDbArc
 50
102.8287828727
 51
149.2259639027
  0
ARC
  5
91
330
3A
100
AcDbEntity
  8
0
  6
Continuous
 62
     7
100
AcDbCircle
 10
286.8034701809
 20
18.546453629
 30
0.0
 40
2.201836557
100
AcDbArc
 50
84.0400061859
 51
103.3427657872
  0
ARC
  5
92
330
3A
100
AcDbEntity
  8
0
  6
Continuous
 62
     7
100
AcDbCircle
 10
286.4625063562
 20
16.1290897051
 30
0.0
 40
4.642373736499997
100
AcDbArc
 50
70.2625858546
 51
82.9524186379
  0
ARC
  5
93
330
3A
100
AcDbEntity
  8
0
  6
Continuous
 62
     7
100
AcDbCircle
 10
285.948488154
 20
20.8007125947
 30
0.0
 40
3.258755990899997
100
AcDbArc
 50
247.5300206148
 51
280.7579522145
  0
ARC
  5
94
330
3A
100
AcDbEntity
  8
0
  6
Continuous
 62
     7
100
AcDbCircle
 10
279.563521682
 20
2.5491926343
 30
0.0
 40
17.3316084133
100
AcDbArc
 50
65.34146746500001
 51
67.39977707359999
  0
ARC
  5
95
330
3A
100
AcDbEntity
  8
0
  6
Continuous
 62
     7
100
AcDbCircle
 10
290.3593840874
 20
28.3416189974
 30
0.0
 40
10.6291642039
100
AcDbArc
 50
242.8620101252001
 51
247.1042029185
  0
ARC
  5
96
330
3A
100
AcDbEntity
  8
0
  6
Continuous
 62
     7
100
AcDbCircle
 10
286.5044828608
 20
20.8076875004
 30
0.0
 40
2.166291629199998
100
AcDbArc
 50
227.3119280794
 51
242.7040315235
  0
ARC
  5
97
330
3A
100
AcDbEntity
  8
0
  6
Continuous
 62
     7
100
AcDbCircle
 10
285.9004520512
 20
20.1020098596
 30
0.0
 40
1.238521734
100
AcDbArc
 50
194.7952194234
 51
225.7176549042
  0
ARC
  5
98
330
3A
100
AcDbEntity
  8
0
  6
Continuous
 62
     7
100
AcDbCircle
 10
286.519633906
 20
19.2539626688
 30
0.0
 40
2.366924815299999
100
AcDbArc
 50
86.22180229280001
 51
120.4272602309
  0
ARC
  5
99
330
3A
100
AcDbEntity
  8
0
  6
Continuous
 62
     7
100
AcDbCircle
 10
286.2507771235
 20
12.5577948477
 30
0.0
 40
9.0679051661
100
AcDbArc
 50
78.68270492259998
 51
87.3147599624
  0
ARC
  5
9A
330
3A
100
AcDbEntity
  8
0
  6
Continuous
 62
     7
100
AcDbCircle
 10
286.1400172867
 20
19.9431558946
 30
0.0
 40
1.580546684599998
100
AcDbArc
 50
121.2140948541
 51
141.525476829
  0
ARC
  5
9B
330
3A
100
AcDbEntity
  8
0
  6
Continuous
 62
     7
100
AcDbCircle
 10
286.7171916523
 20
20.7542132232
 30
0.0
 40
0.8661276051999998
100
AcDbArc
 50
222.7760387596
 51
239.0362434679
  0
ARC
  5
9C
330
3A
100
AcDbEntity
  8
0
  6
Continuous
 62
     7
100
AcDbCircle
 10
284.210482074
 20
13.4239410246
 30
0.0
 40
6.858773576299999
100
AcDbArc
 50
59.90202725620001
 51
68.20364812820002
  0
ARC
  5
9D
330
3A
100
AcDbEntity
  8
0
  6
Continuous
 62
     7
100
AcDbCircle
 10
287.6189765678
 20
22.3498275319
 30
0.0
 40
2.698741017099999
100
AcDbArc
 50
240.0481997804
 51
251.3779673734
  0
ARC
  5
9E
330
3A
100
AcDbEntity
  8
0
  6
Continuous
 62
     7
100
AcDbCircle
 10
286.953519401
 20
18.1929289165
 30
0.0
 40
1.4334474881
100
AcDbArc
 50
315.8904553226
 51
333.5229264375
  0
ARC
  5
9F
330
3A
100
AcDbEntity
  8
0
  6
Continuous
 62
     7
100
AcDbCircle
 10
286.9581576447
 20
18.1395217664
 30
0.0
 40
1.406228711899998
100
AcDbArc
 50
335.3867972703
 51
24.3915119403
  0
ARC
  5
A0
330
3A
100
AcDbEntity
  8
0
  6
Continuous
 62
     7
100
AcDbCircle
 10
286.8859527412
 20
18.0616650746
 30
0.0
 40
1.504702514699999
100
AcDbArc
 50
25.9562916611
 51
59.4834829676
  0
LINE
  5
A1
330
3A
100
AcDbEntity
  8
0
  6
Continuous
 62
     7
100
AcDbLine
 10
284.8948224676
 20
20.9161059766
 30
0.0
 11
285.1688882922
 21
21.1901790542
 31
0.0
  0
ARC
  5
A2
330
3A
100
AcDbEntity
  8
0
  6
Continuous
 62
     7
100
AcDbCircle
 10
285.9626101853
 20
20.1422298287
 30
0.0
 40
1.309092072899999
100
AcDbArc
 50
164.1974860461
 51
195.8025139539
  0
ARC
  5
A3
330
3A
100
AcDbEntity
  8
0
  6
Continuous
 62
     7
100
AcDbCircle
 10
285.7947079451
 20
20.2497375912
 30
0.0
 40
1.119747444
100
AcDbArc
 50
142.813917903
 51
167.1522951417
  0
ENDBLK
  5
A4
330
3A
100
AcDbEntity
  8
0
100
AcDbBlockEnd
  0
BLOCK
  5
4C53
330
4C48
100
AcDbEntity
  8
0
100
AcDbBlockBegin
  2
*D1
 70
     1
 10
0.0
 20
0.0
 30
0.0
  3
*D1
  1

  0
LINE
  5
56C2
330
4C48
100
AcDbEntity
  8
30100_Drilling_DIM
  6
Continuous
 62
     0
370
    -2
100
AcDbLine
 10
315.5340705439852
 20
117.9385056236934
 30
0.0
 11
307.7130705439851
 21
117.9385056236934
 31
0.0
  0
LINE
  5
56C3
330
4C48
100
AcDbEntity
  8
30100_Drilling_DIM
  6
Continuous
 62
     0
370
    -2
100
AcDbLine
 10
350.5340705439852
 20
177.9385056236932
 30
0.0
 11
307.7130705439852
 21
177.9385056236933
 31
0.0
  0
LINE
  5
56C4
330
4C48
100
AcDbEntity
  8
30100_Drilling_DIM
  6
Continuous
 62
     0
370
    -2
100
AcDbLine
 10
308.7130705439851
 20
119.9385056236934
 30
0.0
 11
308.7130705439852
 21
145.0635056236933
 31
0.0
  0
LINE
  5
56C5
330
4C48
100
AcDbEntity
  8
30100_Drilling_DIM
  6
Continuous
 62
     0
370
    -2
100
AcDbLine
 10
308.7130705439852
 20
175.9385056236933
 30
0.0
 11
308.7130705439852
 21
150.8135056236934
 31
0.0
  0
SOLID
  5
56C6
330
4C48
100
AcDbEntity
  8
30100_Drilling_DIM
  6
Continuous
 62
     0
100
AcDbTrace
 10
308.3797372106518
 20
119.9385056236934
 30
0.0
 11
309.0464038773184
 21
119.9385056236934
 31
0.0
 12
308.7130705439851
 22
117.9385056236934
 32
0.0
 13
308.7130705439851
 23
117.9385056236934
 33
0.0
  0
SOLID
  5
56C7
330
4C48
100
AcDbEntity
  8
30100_Drilling_DIM
  6
Continuous
 62
     0
100
AcDbTrace
 10
308.3797372106519
 20
175.9385056236933
 30
0.0
 11
309.0464038773185
 21
175.9385056236933
 31
0.0
 12
308.7130705439852
 22
177.9385056236933
 32
0.0
 13
308.7130705439852
 23
177.9385056236933
 33
0.0
  0
MTEXT
  5
56C8
330
4C48
100
AcDbEntity
  8
30100_Drilling_DIM
  6
Continuous
 62
     0
370
    13
100
AcDbMText
 10
308.7130705439851
 20
147.9385056236934
 30
0.0
 40
2.5
 41
0.0
 71
     5
 72
     1
  1
\A1;60
 11
0.0000000000000001
 21
1.0
 31
0.0
 73
     1
 44
1.0
1001
ACAD
1000
MTEXTBEGIN
1070
    73
1070
     1
1070
    44
1040
1.0
1070
    74
1070
     0
1000
MTEXTEND
  0
POINT
  5
56C9
330
4C48
100
AcDbEntity
  8
Defpoints
  6
Continuous
 62
     0
100
AcDbPoint
 10
316.5340705439852
 20
117.9385056236934
 30
0.0
  0
POINT
  5
56CA
330
4C48
100
AcDbEntity
  8
Defpoints
  6
Continuous
 62
     0
100
AcDbPoint
 10
351.5340705439852
 20
177.9385056236932
 30
0.0
  0
POINT
  5
56CB
330
4C48
100
AcDbEntity
  8
Defpoints
  6
Continuous
 62
     0
100
AcDbPoint
 10
308.7130705439852
 20
177.9385056236933
 30
0.0
  0
ENDBLK
  5
4C54
330
4C48
100
AcDbEntity
  8
0
100
AcDbBlockEnd
  0
BLOCK
  5
4C61
330
4C56
100
AcDbEntity
  8
0
100
AcDbBlockBegin
  2
*D2
 70
     1
 10
0.0
 20
0.0
 30
0.0
  3
*D2
  1

  0
LINE
  5
56B8
330
4C56
100
AcDbEntity
  8
30100_Drilling_DIM
  6
Continuous
 62
     0
370
    -2
100
AcDbLine
 10
318.9340705439852
 20
121.3385056236934
 30
0.0
 11
318.9340705439852
 21
189.3436760064651
 31
0.0
  0
LINE
  5
56B9
330
4C56
100
AcDbEntity
  8
30100_Drilling_DIM
  6
Continuous
 62
     0
370
    -2
100
AcDbLine
 10
353.9340705439852
 20
181.3385056236933
 30
0.0
 11
353.9340705439852
 21
189.3436760064651
 31
0.0
  0
LINE
  5
56BA
330
4C56
100
AcDbEntity
  8
30100_Drilling_DIM
  6
Continuous
 62
     0
370
    -2
100
AcDbLine
 10
320.9340705439852
 20
188.3436760064651
 30
0.0
 11
333.3507372106518
 21
188.3436760064651
 31
0.0
  0
LINE
  5
56BB
330
4C56
100
AcDbEntity
  8
30100_Drilling_DIM
  6
Continuous
 62
     0
370
    -2
100
AcDbLine
 10
351.9340705439852
 20
188.3436760064651
 30
0.0
 11
339.5174038773185
 21
188.3436760064651
 31
0.0
  0
SOLID
  5
56BC
330
4C56
100
AcDbEntity
  8
30100_Drilling_DIM
  6
Continuous
 62
     0
100
AcDbTrace
 10
320.9340705439852
 20
188.6770093397984
 30
0.0
 11
320.9340705439852
 21
188.0103426731318
 31
0.0
 12
318.9340705439852
 22
188.3436760064651
 32
0.0
 13
318.9340705439852
 23
188.3436760064651
 33
0.0
  0
SOLID
  5
56BD
330
4C56
100
AcDbEntity
  8
30100_Drilling_DIM
  6
Continuous
 62
     0
100
AcDbTrace
 10
351.9340705439852
 20
188.6770093397984
 30
0.0
 11
351.9340705439852
 21
188.0103426731318
 31
0.0
 12
353.9340705439852
 22
188.3436760064651
 32
0.0
 13
353.9340705439852
 23
188.3436760064651
 33
0.0
  0
MTEXT
  5
56BE
330
4C56
100
AcDbEntity
  8
30100_Drilling_DIM
  6
Continuous
 62
     0
370
    13
100
AcDbMText
 10
336.4340705439852
 20
188.3436760064651
 30
0.0
 40
2.5
 41
0.0
 71
     5
 72
     1
  1
\A1;35
 73
     1
 44
1.0
1001
ACAD
1000
MTEXTBEGIN
1070
    73
1070
     1
1070
    44
1040
1.0
1070
    74
1070
     0
1000
MTEXTEND
  0
POINT
  5
56BF
330
4C56
100
AcDbEntity
  8
Defpoints
  6
Continuous
 62
     0
100
AcDbPoint
 10
318.9340705439852
 20
120.3385056236934
 30
0.0
  0
POINT
  5
56C0
330
4C56
100
AcDbEntity
  8
Defpoints
  6
Continuous
 62
     0
100
AcDbPoint
 10
353.9340705439852
 20
180.3385056236933
 30
0.0
  0
POINT
  5
56C1
330
4C56
100
AcDbEntity
  8
Defpoints
  6
Continuous
 62
     0
100
AcDbPoint
 10
353.9340705439852
 20
188.3436760064651
 30
0.0
  0
ENDBLK
  5
4C62
330
4C56
100
AcDbEntity
  8
0
100
AcDbBlockEnd
  0
BLOCK
  5
4C84
330
4C79
100
AcDbEntity
  8
0
100
AcDbBlockBegin
  2
*D3
 70
     1
 10
0.0
 20
0.0
 30
0.0
  3
*D3
  1

  0
LINE
  5
56AC
330
4C79
100
AcDbEntity
  8
30100_Drilling_DIM
  6
Continuous
 62
     0
370
    -2
100
AcDbLine
 10
351.5340705439852
 20
176.9385056236932
 30
0.0
 11
351.5340705439852
 21
164.8342648782986
 31
0.0
  0
LINE
  5
56AD
330
4C79
100
AcDbEntity
  8
30100_Drilling_DIM
  6
Continuous
 62
     0
370
    -2
100
AcDbLine
 10
356.3340705439852
 20
176.9385056236932
 30
0.0
 11
356.3340705439852
 21
164.8342648782986
 31
0.0
  0
LINE
  5
56AE
330
4C79
100
AcDbEntity
  8
30100_Drilling_DIM
  6
Continuous
 62
     0
370
    -2
100
AcDbLine
 10
349.5340705439852
 20
165.8342648782986
 30
0.0
 11
347.5340705439852
 21
165.8342648782986
 31
0.0
  0
LINE
  5
56AF
330
4C79
100
AcDbEntity
  8
30100_Drilling_DIM
  6
Continuous
 62
     0
370
    -2
100
AcDbLine
 10
358.3340705439852
 20
165.8342648782986
 30
0.0
 11
360.3340705439852
 21
165.8342648782986
 31
0.0
  0
LINE
  5
56B0
330
4C79
100
AcDbEntity
  8
30100_Drilling_DIM
  6
Continuous
 62
     0
370
    -2
100
AcDbLine
 10
351.5340705439852
 20
165.8342648782986
 30
0.0
 11
352.1007372106518
 21
165.8342648782986
 31
0.0
  0
LINE
  5
56B1
330
4C79
100
AcDbEntity
  8
30100_Drilling_DIM
  6
Continuous
 62
     0
370
    -2
100
AcDbLine
 10
356.3340705439852
 20
165.8342648782986
 30
0.0
 11
355.7674038773185
 21
165.8342648782986
 31
0.0
  0
SOLID
  5
56B2
330
4C79
100
AcDbEntity
  8
30100_Drilling_DIM
  6
Continuous
 62
     0
100
AcDbTrace
 10
349.5340705439852
 20
166.1675982116319
 30
0.0
 11
349.5340705439852
 21
165.5009315449652
 31
0.0
 12
351.5340705439852
 22
165.8342648782986
 32
0.0
 13
351.5340705439852
 23
165.8342648782986
 33
0.0
  0
SOLID
  5
56B3
330
4C79
100
AcDbEntity
  8
30100_Drilling_DIM
  6
Continuous
 62
     0
100
AcDbTrace
 10
358.3340705439852
 20
166.1675982116319
 30
0.0
 11
358.3340705439852
 21
165.5009315449652
 31
0.0
 12
356.3340705439852
 22
165.8342648782986
 32
0.0
 13
356.3340705439852
 23
165.8342648782986
 33
0.0
  0
MTEXT
  5
56B4
330
4C79
100
AcDbEntity
  8
30100_Drilling_DIM
  6
Continuous
 62
     0
370
    13
100
AcDbMText
 10
353.9340705439852
 20
165.8342648782986
 30
0.0
 40
2.5
 41
0.0
 71
     5
 72
     1
  1
\A1;5
 73
     1
 44
1.0
1001
ACAD
1000
MTEXTBEGIN
1070
    73
1070
     1
1070
    44
1040
1.0
1070
    74
1070
     0
1000
MTEXTEND
  0
POINT
  5
56B5
330
4C79
100
AcDbEntity
  8
Defpoints
  6
Continuous
 62
     0
100
AcDbPoint
 10
351.5340705439852
 20
177.9385056236932
 30
0.0
  0
POINT
  5
56B6
330
4C79
100
AcDbEntity
  8
Defpoints
  6
Continuous
 62
     0
100
AcDbPoint
 10
356.3340705439852
 20
177.9385056236932
 30
0.0
  0
POINT
  5
56B7
330
4C79
100
AcDbEntity
  8
Defpoints
  6
Continuous
 62
     0
100
AcDbPoint
 10
356.3340705439852
 20
165.8342648782986
 30
0.0
  0
ENDBLK
  5
4C85
330
4C79
100
AcDbEntity
  8
0
100
AcDbBlockEnd
  0
BLOCK
  5
54D7
330
54CD
100
AcDbEntity
  8
0
100
AcDbBlockBegin
  2
*D4
 70
     1
 10
0.0
 20
0.0
 30
0.0
  3
*D4
  1

  0
LINE
  5
56A2
330
54CD
100
AcDbEntity
  8
11100_LEFT_DIM
  6
Continuous
 62
     0
370
    -2
100
AcDbLine
 10
189.2917004521954
 20
169.8880056236933
 30
0.0
 11
189.2917004521954
 21
230.7007896673153
 31
0.0
  0
LINE
  5
56A3
330
54CD
100
AcDbEntity
  8
11100_LEFT_DIM
  6
Continuous
 62
     0
370
    -2
100
AcDbLine
 10
229.9417004521954
 20
213.9360056236934
 30
0.0
 11
229.9417004521954
 21
230.7007896673153
 31
0.0
  0
LINE
  5
56A4
330
54CD
100
AcDbEntity
  8
11100_LEFT_DIM
  6
Continuous
 62
     0
370
    -2
100
AcDbLine
 10
191.2917004521954
 20
229.7007896673154
 30
0.0
 11
206.9500337855287
 21
229.7007896673154
 31
0.0
  0
LINE
  5
56A5
330
54CD
100
AcDbEntity
  8
11100_LEFT_DIM
  6
Continuous
 62
     0
370
    -2
100
AcDbLine
 10
227.9417004521954
 20
229.7007896673154
 30
0.0
 11
212.2833671188621
 21
229.7007896673154
 31
0.0
  0
SOLID
  5
56A6
330
54CD
100
AcDbEntity
  8
11100_LEFT_DIM
  6
Continuous
 62
     0
100
AcDbTrace
 10
191.2917004521954
 20
230.0341230006487
 30
0.0
 11
191.2917004521954
 21
229.367456333982
 31
0.0
 12
189.2917004521954
 22
229.7007896673154
 32
0.0
 13
189.2917004521954
 23
229.7007896673154
 33
0.0
  0
SOLID
  5
56A7
330
54CD
100
AcDbEntity
  8
11100_LEFT_DIM
  6
Continuous
 62
     0
100
AcDbTrace
 10
227.9417004521954
 20
230.0341230006487
 30
0.0
 11
227.9417004521954
 21
229.367456333982
 31
0.0
 12
229.9417004521954
 22
229.7007896673154
 32
0.0
 13
229.9417004521954
 23
229.7007896673154
 33
0.0
  0
MTEXT
  5
56A8
330
54CD
100
AcDbEntity
  8
11100_LEFT_DIM
  6
Continuous
 62
     0
370
    13
100
AcDbMText
 10
209.6167004521954
 20
229.7007896673154
 30
0.0
 40
2.5
 41
0.0
 71
     5
 72
     1
  1
\A1;41
 73
     1
 44
1.0
1001
ACAD
1000
MTEXTBEGIN
1070
    73
1070
     1
1070
    44
1040
1.0
1070
    74
1070
     0
1000
MTEXTEND
  0
POINT
  5
56A9
330
54CD
100
AcDbEntity
  8
Defpoints
  6
Continuous
 62
     0
100
AcDbPoint
 10
189.2917004521954
 20
168.8880056236933
 30
0.0
  0
POINT
  5
56AA
330
54CD
100
AcDbEntity
  8
Defpoints
  6
Continuous
 62
     0
100
AcDbPoint
 10
229.9417004521954
 20
212.9360056236933
 30
0.0
  0
POINT
  5
56AB
330
54CD
100
AcDbEntity
  8
Defpoints
  6
Continuous
 62
     0
100
AcDbPoint
 10
229.9417004521954
 20
229.7007896673154
 30
0.0
  0
ENDBLK
  5
54D8
330
54CD
100
AcDbEntity
  8
0
100
AcDbBlockEnd
  0
BLOCK
  5
54F9
330
54ED
100
AcDbEntity
  8
0
100
AcDbBlockBegin
  2
*D5
 70
     1
 10
0.0
 20
0.0
 30
0.0
  3
*D5
  1

  0
LINE
  5
5C02
330
54ED
100
AcDbEntity
  8
10100_FRONT_DIM
  6
Continuous
 62
     0
370
    -2
100
AcDbLine
 10
77.9297004521954
 20
213.4380056236934
 30
0.0
 11
77.9297004521954
 21
222.9228048242535
 31
0.0
  0
LINE
  5
5C03
330
54ED
100
AcDbEntity
  8
10100_FRONT_DIM
  6
Continuous
 62
     0
370
    -2
100
AcDbLine
 10
83.9297004521954
 20
211.1070056236933
 30
0.0
 11
83.9297004521954
 21
222.9228048242535
 31
0.0
  0
LINE
  5
5C04
330
54ED
100
AcDbEntity
  8
10100_FRONT_DIM
  6
Continuous
 62
     0
370
    -2
100
AcDbLine
 10
75.92970045219541
 20
221.9228048242535
 30
0.0
 11
73.92970045219541
 21
221.9228048242535
 31
0.0
  0
LINE
  5
5C05
330
54ED
100
AcDbEntity
  8
10100_FRONT_DIM
  6
Continuous
 62
     0
370
    -2
100
AcDbLine
 10
85.92970045219541
 20
221.9228048242535
 30
0.0
 11
87.9297004521954
 21
221.9228048242535
 31
0.0
  0
LINE
  5
5C06
330
54ED
100
AcDbEntity
  8
10100_FRONT_DIM
  6
Continuous
 62
     0
370
    -2
100
AcDbLine
 10
77.9297004521954
 20
221.9228048242535
 30
0.0
 11
79.09636711886207
 21
221.9228048242535
 31
0.0
  0
LINE
  5
5C07
330
54ED
100
AcDbEntity
  8
10100_FRONT_DIM
  6
Continuous
 62
     0
370
    -2
100
AcDbLine
 10
83.9297004521954
 20
221.9228048242535
 30
0.0
 11
82.76303378552873
 21
221.9228048242535
 31
0.0
  0
SOLID
  5
5C08
330
54ED
100
AcDbEntity
  8
10100_FRONT_DIM
  6
Continuous
 62
     0
100
AcDbTrace
 10
75.92970045219541
 20
222.2561381575868
 30
0.0
 11
75.92970045219541
 21
221.5894714909202
 31
0.0
 12
77.9297004521954
 22
221.9228048242535
 32
0.0
 13
77.9297004521954
 23
221.9228048242535
 33
0.0
  0
SOLID
  5
5C09
330
54ED
100
AcDbEntity
  8
10100_FRONT_DIM
  6
Continuous
 62
     0
100
AcDbTrace
 10
85.92970045219541
 20
222.2561381575868
 30
0.0
 11
85.92970045219541
 21
221.5894714909202
 31
0.0
 12
83.9297004521954
 22
221.9228048242535
 32
0.0
 13
83.9297004521954
 23
221.9228048242535
 33
0.0
  0
MTEXT
  5
5C0A
330
54ED
100
AcDbEntity
  8
10100_FRONT_DIM
  6
Continuous
 62
     0
370
    13
100
AcDbMText
 10
80.92970045219541
 20
221.9228048242535
 30
0.0
 40
2.5
 41
0.0
 71
     5
 72
     1
  1
\A1;6
 73
     1
 44
1.0
1001
ACAD
1000
MTEXTBEGIN
1070
    73
1070
     1
1070
    44
1040
1.0
1070
    74
1070
     0
1000
MTEXTEND
  0
POINT
  5
5C0B
330
54ED
100
AcDbEntity
  8
Defpoints
  6
Continuous
 62
     0
100
AcDbPoint
 10
77.9297004521954
 20
212.4380056236934
 30
0.0
  0
POINT
  5
5C0C
330
54ED
100
AcDbEntity
  8
Defpoints
  6
Continuous
 62
     0
100
AcDbPoint
 10
83.9297004521954
 20
210.1070056236933
 30
0.0
  0
POINT
  5
5C0D
330
54ED
100
AcDbEntity
  8
Defpoints
  6
Continuous
 62
     0
100
AcDbPoint
 10
83.9297004521954
 20
221.9228048242535
 30
0.0
  0
ENDBLK
  5
54FA
330
54ED
100
AcDbEntity
  8
0
100
AcDbBlockEnd
  0
BLOCK
  5
5506
330
54FC
100
AcDbEntity
  8
0
100
AcDbBlockBegin
  2
*D6
 70
     1
 10
0.0
 20
0.0
 30
0.0
  3
*D6
  1

  0
LINE
  5
5BF8
330
54FC
100
AcDbEntity
  8
10100_FRONT_DIM
  6
Continuous
 62
     0
370
    -2
100
AcDbLine
 10
83.9297004521954
 20
211.1070056236933
 30
0.0
 11
83.9297004521954
 21
222.9228048242535
 31
0.0
  0
LINE
  5
5BF9
330
54FC
100
AcDbEntity
  8
10100_FRONT_DIM
  6
Continuous
 62
     0
370
    -2
100
AcDbLine
 10
94.92970045219541
 20
211.1070056236933
 30
0.0
 11
94.92970045219541
 21
222.9228048242535
 31
0.0
  0
LINE
  5
5BFA
330
54FC
100
AcDbEntity
  8
10100_FRONT_DIM
  6
Continuous
 62
     0
370
    -2
100
AcDbLine
 10
85.92970045219541
 20
221.9228048242535
 30
0.0
 11
87.17970045219542
 21
221.9228048242535
 31
0.0
  0
LINE
  5
5BFB
330
54FC
100
AcDbEntity
  8
10100_FRONT_DIM
  6
Continuous
 62
     0
370
    -2
100
AcDbLine
 10
92.92970045219542
 20
221.9228048242535
 30
0.0
 11
91.67970045219542
 21
221.9228048242535
 31
0.0
  0
SOLID
  5
5BFC
330
54FC
100
AcDbEntity
  8
10100_FRONT_DIM
  6
Continuous
 62
     0
100
AcDbTrace
 10
85.92970045219541
 20
222.2561381575868
 30
0.0
 11
85.92970045219541
 21
221.5894714909202
 31
0.0
 12
83.9297004521954
 22
221.9228048242535
 32
0.0
 13
83.9297004521954
 23
221.9228048242535
 33
0.0
  0
SOLID
  5
5BFD
330
54FC
100
AcDbEntity
  8
10100_FRONT_DIM
  6
Continuous
 62
     0
100
AcDbTrace
 10
92.92970045219542
 20
222.2561381575868
 30
0.0
 11
92.92970045219542
 21
221.5894714909202
 31
0.0
 12
94.92970045219541
 22
221.9228048242535
 32
0.0
 13
94.92970045219541
 23
221.9228048242535
 33
0.0
  0
MTEXT
  5
5BFE
330
54FC
100
AcDbEntity
  8
10100_FRONT_DIM
  6
Continuous
 62
     0
370
    13
100
AcDbMText
 10
89.42970045219542
 20
221.9228048242535
 30
0.0
 40
2.5
 41
0.0
 71
     5
 72
     1
  1
\A1;11
 73
     1
 44
1.0
1001
ACAD
1000
MTEXTBEGIN
1070
    73
1070
     1
1070
    44
1040
1.0
1070
    74
1070
     0
1000
MTEXTEND
  0
POINT
  5
5BFF
330
54FC
100
AcDbEntity
  8
Defpoints
  6
Continuous
 62
     0
100
AcDbPoint
 10
83.9297004521954
 20
210.1070056236933
 30
0.0
  0
POINT
  5
5C00
330
54FC
100
AcDbEntity
  8
Defpoints
  6
Continuous
 62
     0
100
AcDbPoint
 10
94.92970045219541
 20
210.1070056236933
 30
0.0
  0
POINT
  5
5C01
330
54FC
100
AcDbEntity
  8
Defpoints
  6
Continuous
 62
     0
100
AcDbPoint
 10
94.92970045219541
 20
221.9228048242535
 30
0.0
  0
ENDBLK
  5
5507
330
54FC
100
AcDbEntity
  8
0
100
AcDbBlockEnd
  0
BLOCK
  5
5529
330
551F
100
AcDbEntity
  8
0
100
AcDbBlockBegin
  2
*D7
 70
     1
 10
0.0
 20
0.0
 30
0.0
  3
*D7
  1

  0
LINE
  5
5BEE
330
551F
100
AcDbEntity
  8
10100_FRONT_DIM
  6
Continuous
 62
     0
370
    -2
100
AcDbLine
 10
77.9297004521954
 20
213.4380056236934
 30
0.0
 11
77.9297004521954
 21
229.4153474635762
 31
0.0
  0
LINE
  5
5BEF
330
551F
100
AcDbEntity
  8
10100_FRONT_DIM
  6
Continuous
 62
     0
370
    -2
100
AcDbLine
 10
122.9297004521954
 20
213.4380056236934
 30
0.0
 11
122.9297004521954
 21
229.4153474635762
 31
0.0
  0
LINE
  5
5BF0
330
551F
100
AcDbEntity
  8
10100_FRONT_DIM
  6
Continuous
 62
     0
370
    -2
100
AcDbLine
 10
79.9297004521954
 20
228.4153474635762
 30
0.0
 11
97.3463671188621
 21
228.4153474635762
 31
0.0
  0
LINE
  5
5BF1
330
551F
100
AcDbEntity
  8
10100_FRONT_DIM
  6
Continuous
 62
     0
370
    -2
100
AcDbLine
 10
120.9297004521954
 20
228.4153474635762
 30
0.0
 11
103.5130337855287
 21
228.4153474635762
 31
0.0
  0
SOLID
  5
5BF2
330
551F
100
AcDbEntity
  8
10100_FRONT_DIM
  6
Continuous
 62
     0
100
AcDbTrace
 10
79.9297004521954
 20
228.7486807969095
 30
0.0
 11
79.9297004521954
 21
228.0820141302429
 31
0.0
 12
77.9297004521954
 22
228.4153474635762
 32
0.0
 13
77.9297004521954
 23
228.4153474635762
 33
0.0
  0
SOLID
  5
5BF3
330
551F
100
AcDbEntity
  8
10100_FRONT_DIM
  6
Continuous
 62
     0
100
AcDbTrace
 10
120.9297004521954
 20
228.7486807969095
 30
0.0
 11
120.9297004521954
 21
228.0820141302429
 31
0.0
 12
122.9297004521954
 22
228.4153474635762
 32
0.0
 13
122.9297004521954
 23
228.4153474635762
 33
0.0
  0
MTEXT
  5
5BF4
330
551F
100
AcDbEntity
  8
10100_FRONT_DIM
  6
Continuous
 62
     0
100
AcDbMText
 10
100.4297004521954
 20
228.4153474635762
 30
0.0
 40
2.5
 41
0.0
 71
     5
 72
     1
  1
\A1;45
 73
     1
 44
1.0
1001
ACAD
1000
MTEXTBEGIN
1070
    73
1070
     1
1070
    44
1040
1.0
1070
    74
1070
     0
1000
MTEXTEND
  0
POINT
  5
5BF5
330
551F
100
AcDbEntity
  8
Defpoints
  6
Continuous
 62
     0
100
AcDbPoint
 10
77.9297004521954
 20
212.4380056236934
 30
0.0
  0
POINT
  5
5BF6
330
551F
100
AcDbEntity
  8
Defpoints
  6
Continuous
 62
     0
100
AcDbPoint
 10
122.9297004521954
 20
212.4380056236934
 30
0.0
  0
POINT
  5
5BF7
330
551F
100
AcDbEntity
  8
Defpoints
  6
Continuous
 62
     0
100
AcDbPoint
 10
122.9297004521954
 20
228.4153474635762
 30
0.0
  0
ENDBLK
  5
552A
330
551F
100
AcDbEntity
  8
0
100
AcDbBlockEnd
  0
BLOCK
  5
5556
330
554C
100
AcDbEntity
  8
0
100
AcDbBlockBegin
  2
*D8
 70
     1
 10
0.0
 20
0.0
 30
0.0
  3
*D8
  1

  0
LINE
  5
5678
330
554C
100
AcDbEntity
  8
11100_LEFT_DIM
  6
Continuous
 62
     0
370
    -2
100
AcDbLine
 10
192.9417004521954
 20
213.4360056236933
 30
0.0
 11
192.9417004521954
 21
223.4853577756461
 31
0.0
  0
LINE
  5
5679
330
554C
100
AcDbEntity
  8
11100_LEFT_DIM
  6
Continuous
 62
     0
370
    -2
100
AcDbLine
 10
242.4417004521954
 20
210.2106816996697
 30
0.0
 11
242.4417004521954
 21
223.4853577756461
 31
0.0
  0
LINE
  5
567A
330
554C
100
AcDbEntity
  8
11100_LEFT_DIM
  6
Continuous
 62
     0
370
    -2
100
AcDbLine
 10
194.9417004521954
 20
222.4853577756461
 30
0.0
 11
214.6083671188621
 21
222.4853577756461
 31
0.0
  0
LINE
  5
567B
330
554C
100
AcDbEntity
  8
11100_LEFT_DIM
  6
Continuous
 62
     0
370
    -2
100
AcDbLine
 10
240.4417004521954
 20
222.4853577756461
 30
0.0
 11
220.7750337855287
 21
222.4853577756461
 31
0.0
  0
SOLID
  5
567C
330
554C
100
AcDbEntity
  8
11100_LEFT_DIM
  6
Continuous
 62
     0
100
AcDbTrace
 10
194.9417004521954
 20
222.8186911089794
 30
0.0
 11
194.9417004521954
 21
222.1520244423127
 31
0.0
 12
192.9417004521954
 22
222.4853577756461
 32
0.0
 13
192.9417004521954
 23
222.4853577756461
 33
0.0
  0
SOLID
  5
567D
330
554C
100
AcDbEntity
  8
11100_LEFT_DIM
  6
Continuous
 62
     0
100
AcDbTrace
 10
240.4417004521954
 20
222.8186911089794
 30
0.0
 11
240.4417004521954
 21
222.1520244423127
 31
0.0
 12
242.4417004521954
 22
222.4853577756461
 32
0.0
 13
242.4417004521954
 23
222.4853577756461
 33
0.0
  0
MTEXT
  5
567E
330
554C
100
AcDbEntity
  8
11100_LEFT_DIM
  6
Continuous
 62
     0
370
    13
100
AcDbMText
 10
217.6917004521954
 20
222.4853577756461
 30
0.0
 40
2.5
 41
0.0
 71
     5
 72
     1
  1
\A1;49
 73
     1
 44
1.0
1001
ACAD
1000
MTEXTBEGIN
1070
    73
1070
     1
1070
    44
1040
1.0
1070
    74
1070
     0
1000
MTEXTEND
  0
POINT
  5
567F
330
554C
100
AcDbEntity
  8
Defpoints
  6
Continuous
 62
     0
100
AcDbPoint
 10
192.9417004521954
 20
212.4360056236934
 30
0.0
  0
POINT
  5
5680
330
554C
100
AcDbEntity
  8
Defpoints
  6
Continuous
 62
     0
100
AcDbPoint
 10
242.4417004521954
 20
209.2106816996698
 30
0.0
  0
POINT
  5
5681
330
554C
100
AcDbEntity
  8
Defpoints
  6
Continuous
 62
     0
100
AcDbPoint
 10
242.4417004521954
 20
222.4853577756461
 30
0.0
  0
ENDBLK
  5
5557
330
554C
100
AcDbEntity
  8
0
100
AcDbBlockEnd
  0
BLOCK
  5
5575
330
556B
100
AcDbEntity
  8
0
100
AcDbBlockBegin
  2
*D9
 70
     1
 10
0.0
 20
0.0
 30
0.0
  3
*D9
  1

  0
LINE
  5
566E
330
556B
100
AcDbEntity
  8
11100_LEFT_DIM
  6
Continuous
 62
     0
370
    -2
100
AcDbLine
 10
239.3207004521954
 20
213.9360056236934
 30
0.0
 11
252.7003748465679
 21
213.9360056236934
 31
0.0
  0
LINE
  5
566F
330
556B
100
AcDbEntity
  8
11100_LEFT_DIM
  6
Continuous
 62
     0
370
    -2
100
AcDbLine
 10
236.4917004521954
 20
187.9380056236933
 30
0.0
 11
252.7003748465679
 21
187.9380056236933
 31
0.0
  0
LINE
  5
5670
330
556B
100
AcDbEntity
  8
11100_LEFT_DIM
  6
Continuous
 62
     0
370
    -2
100
AcDbLine
 10
251.7003748465679
 20
211.9360056236934
 30
0.0
 11
251.7003748465679
 21
204.0203389570267
 31
0.0
  0
LINE
  5
5671
330
556B
100
AcDbEntity
  8
11100_LEFT_DIM
  6
Continuous
 62
     0
370
    -2
100
AcDbLine
 10
251.7003748465679
 20
189.9380056236933
 30
0.0
 11
251.7003748465679
 21
197.85367229036
 31
0.0
  0
SOLID
  5
5672
330
556B
100
AcDbEntity
  8
11100_LEFT_DIM
  6
Continuous
 62
     0
100
AcDbTrace
 10
251.3670415132346
 20
211.9360056236934
 30
0.0
 11
252.0337081799013
 21
211.9360056236934
 31
0.0
 12
251.7003748465679
 22
213.9360056236934
 32
0.0
 13
251.7003748465679
 23
213.9360056236934
 33
0.0
  0
SOLID
  5
5673
330
556B
100
AcDbEntity
  8
11100_LEFT_DIM
  6
Continuous
 62
     0
100
AcDbTrace
 10
251.3670415132346
 20
189.9380056236933
 30
0.0
 11
252.0337081799012
 21
189.9380056236933
 31
0.0
 12
251.7003748465679
 22
187.9380056236933
 32
0.0
 13
251.7003748465679
 23
187.9380056236933
 33
0.0
  0
MTEXT
  5
5674
330
556B
100
AcDbEntity
  8
11100_LEFT_DIM
  6
Continuous
 62
     0
370
    13
100
AcDbMText
 10
251.7003748465679
 20
200.9370056236934
 30
0.0
 40
2.5
 41
0.0
 71
     5
 72
     1
  1
\A1;26
 11
0.0000000000000001
 21
1.0
 31
0.0
 73
     1
 44
1.0
1001
ACAD
1000
MTEXTBEGIN
1070
    73
1070
     1
1070
    44
1040
1.0
1070
    74
1070
     0
1000
MTEXTEND
  0
POINT
  5
5675
330
556B
100
AcDbEntity
  8
Defpoints
  6
Continuous
 62
     0
100
AcDbPoint
 10
238.3207004521954
 20
213.9360056236934
 30
0.0
  0
POINT
  5
5676
330
556B
100
AcDbEntity
  8
Defpoints
  6
Continuous
 62
     0
100
AcDbPoint
 10
235.4917004521954
 20
187.9380056236933
 30
0.0
  0
POINT
  5
5677
330
556B
100
AcDbEntity
  8
Defpoints
  6
Continuous
 62
     0
100
AcDbPoint
 10
251.7003748465679
 20
187.9380056236933
 30
0.0
  0
ENDBLK
  5
5576
330
556B
100
AcDbEntity
  8
0
100
AcDbBlockEnd
  0
BLOCK
  5
55C6
330
55BC
100
AcDbEntity
  8
0
100
AcDbBlockBegin
  2
*D10
 70
     1
 10
0.0
 20
0.0
 30
0.0
  3
*D10
  1

  0
LINE
  5
5BE4
330
55BC
100
AcDbEntity
  8
10100_FRONT_DIM
  6
Continuous
 62
     0
370
    -2
100
AcDbLine
 10
123.5297004521954
 20
213.9380056236933
 30
0.0
 11
134.4148852763119
 21
213.9380056236933
 31
0.0
  0
LINE
  5
5BE5
330
55BC
100
AcDbEntity
  8
10100_FRONT_DIM
  6
Continuous
 62
     0
370
    -2
100
AcDbLine
 10
121.1297004521954
 20
107.9380056236933
 30
0.0
 11
134.4148852763119
 21
107.9380056236933
 31
0.0
  0
LINE
  5
5BE6
330
55BC
100
AcDbEntity
  8
10100_FRONT_DIM
  6
Continuous
 62
     0
370
    -2
100
AcDbLine
 10
133.4148852763119
 20
211.9380056236933
 30
0.0
 11
133.4148852763119
 21
164.6463389570266
 31
0.0
  0
LINE
  5
5BE7
330
55BC
100
AcDbEntity
  8
10100_FRONT_DIM
  6
Continuous
 62
     0
370
    -2
100
AcDbLine
 10
133.4148852763119
 20
109.9380056236933
 30
0.0
 11
133.4148852763119
 21
157.2296722903599
 31
0.0
  0
SOLID
  5
5BE8
330
55BC
100
AcDbEntity
  8
10100_FRONT_DIM
  6
Continuous
 62
     0
100
AcDbTrace
 10
133.0815519429786
 20
211.9380056236933
 30
0.0
 11
133.7482186096452
 21
211.9380056236933
 31
0.0
 12
133.4148852763119
 22
213.9380056236933
 32
0.0
 13
133.4148852763119
 23
213.9380056236933
 33
0.0
  0
SOLID
  5
5BE9
330
55BC
100
AcDbEntity
  8
10100_FRONT_DIM
  6
Continuous
 62
     0
100
AcDbTrace
 10
133.0815519429785
 20
109.9380056236933
 30
0.0
 11
133.7482186096452
 21
109.9380056236933
 31
0.0
 12
133.4148852763119
 22
107.9380056236933
 32
0.0
 13
133.4148852763119
 23
107.9380056236933
 33
0.0
  0
MTEXT
  5
5BEA
330
55BC
100
AcDbEntity
  8
10100_FRONT_DIM
  6
Continuous
 62
     0
370
    13
100
AcDbMText
 10
133.4148852763119
 20
160.9380056236933
 30
0.0
 40
2.5
 41
0.0
 71
     5
 72
     1
  1
\A1;106
 11
0.0000000000000001
 21
1.0
 31
0.0
 73
     1
 44
1.0
1001
ACAD
1000
MTEXTBEGIN
1070
    73
1070
     1
1070
    44
1040
1.0
1070
    74
1070
     0
1000
MTEXTEND
  0
POINT
  5
5BEB
330
55BC
100
AcDbEntity
  8
Defpoints
  6
Continuous
 62
     0
100
AcDbPoint
 10
122.5297004521954
 20
213.9380056236933
 30
0.0
  0
POINT
  5
5BEC
330
55BC
100
AcDbEntity
  8
Defpoints
  6
Continuous
 62
     0
100
AcDbPoint
 10
120.1297004521954
 20
107.9380056236933
 30
0.0
  0
POINT
  5
5BED
330
55BC
100
AcDbEntity
  8
Defpoints
  6
Continuous
 62
     0
100
AcDbPoint
 10
133.4148852763119
 20
107.9380056236933
 30
0.0
  0
ENDBLK
  5
55C7
330
55BC
100
AcDbEntity
  8
0
100
AcDbBlockEnd
  0
ENDSEC
  0
SECTION
  2
ENTITIES
  0
INSERT
  5
AA
330
20
100
AcDbEntity
  8
90000_FRAME
  6
Continuous
 62
     7
100
AcDbBlockReference
  2
SIEMENS_OUTLINE_BL0
 10
0.0
 20
0.0
 30
0.0
  0
LINE
  5
AB
330
20
100
AcDbEntity
  8
90000_FRAME
  6
Continuous
 62
     7
100
AcDbLine
 10
275.0
 20
10.0
 30
0.0
 11
410.0
 21
10.0
 31
0.0
  0
LINE
  5
AC
330
20
100
AcDbEntity
  8
90000_FRAME
  6
Continuous
 62
     7
100
AcDbLine
 10
275.0
 20
10.0
 30
0.0
 11
275.0
 21
28.0
 31
0.0
  0
LINE
  5
AD
330
20
100
AcDbEntity
  8
90000_FRAME
  6
Continuous
 62
     7
100
AcDbLine
 10
325.0
 20
16.0
 30
0.0
 11
410.0
 21
16.0
 31
0.0
  0
LINE
  5
AE
330
20
100
AcDbEntity
  8
90000_FRAME
  6
Continuous
 62
     7
100
AcDbLine
 10
275.0
 20
28.0
 30
0.0
 11
410.0
 21
28.0
 31
0.0
  0
LINE
  5
AF
330
20
100
AcDbEntity
  8
90000_FRAME
  6
Continuous
 62
     7
100
AcDbLine
 10
325.0
 20
10.0
 30
0.0
 11
325.0
 21
28.0
 31
0.0
  0
LINE
  5
B0
330
20
100
AcDbEntity
  8
90000_FRAME
  6
Continuous
 62
     7
100
AcDbLine
 10
367.5
 20
10.0
 30
0.0
 11
367.5
 21
16.0
 31
0.0
  0
LINE
  5
B1
330
20
100
AcDbEntity
  8
90000_FRAME
  6
Continuous
 62
     7
100
AcDbLine
 10
410.0
 20
10.0
 30
0.0
 11
410.0
 21
28.0
 31
0.0
  0
TEXT
  5
B2
330
20
100
AcDbEntity
  8
90000_FRAME
  6
Continuous
 62
     7
100
AcDbText
 10
325.66
 20
11.9
 30
0.0
 40
2.2
  1
Format / Size: DIN A3
 41
0.7994987468660284
 72
     5
 11
359.079047619
 21
11.9
 31
0.0
100
AcDbText
  0
TEXT
  5
B3
330
20
100
AcDbEntity
  8
90000_FRAME
  6
Continuous
 62
     7
100
AcDbText
 10
368.16
 20
11.9
 30
0.0
 40
2.2
  1
Massstab / Scale: 1:1
 41
0.7732634338148471
 72
     5
 11
399.0647619048001
 21
11.9
 31
0.0
100
AcDbText
  0
LINE
  5
B7
330
20
100
AcDbEntity
  8
90000_FRAME
  6
Continuous
 62
     7
100
AcDbLine
 10
10.0
 20
0.0
 30
0.0
 11
420.0
 21
0.0
 31
0.0
  0
LINE
  5
B9
330
20
100
AcDbEntity
  8
90000_FRAME
  6
Continuous
 62
     7
100
AcDbLine
 10
420.0
 20
0.0
 30
0.0
 11
420.0
 21
270.0
 31
0.0
  0
LINE
  5
20F5
330
20
100
AcDbEntity
  8
91000_TIP
  6
Continuous
 62
     7
100
AcDbLine
 10
249.8146701040259
 20
21.32373752237061
 30
0.0
 11
259.814669899826
 21
23.82373747137058
 31
0.0
  0
LINE
  5
20F6
330
20
100
AcDbEntity
  8
91000_TIP
  6
CENTER
 62
     7
100
AcDbLine
 10
248.5351596320249
 20
18.82373757347062
 30
0.0
 11
272.1371488961249
 21
18.82373757347062
 31
0.0
  0
LINE
  5
20F7
330
20
100
AcDbEntity
  8
91000_TIP
  6
Continuous
 62
     7
100
AcDbLine
 10
249.8146701040259
 20
16.32373762457058
 30
0.0
 11
259.814669899826
 21
13.8237376755705
 31
0.0
  0
LINE
  5
20F8
330
20
100
AcDbEntity
  8
91000_TIP
  6
Continuous
 62
     7
100
AcDbLine
 10
249.8146701040259
 20
21.32373752237061
 30
0.0
 11
249.8146701040259
 21
16.32373762457058
 31
0.0
  0
LINE
  5
20F9
330
20
100
AcDbEntity
  8
91000_TIP
  6
Continuous
 62
     7
100
AcDbLine
 10
259.814669899826
 20
23.82373747137058
 30
0.0
 11
259.814669899826
 21
13.8237376755705
 31
0.0
  0
LINE
  5
20FA
330
20
100
AcDbEntity
  8
91000_TIP
  6
CENTER
 62
     7
100
AcDbLine
 10
266.3146697670259
 20
13.10225636707057
 30
0.0
 11
266.3146697670259
 21
24.38564236707057
 31
0.0
  0
CIRCLE
  5
20FB
330
20
100
AcDbEntity
  8
91000_TIP
  6
Continuous
 62
     7
100
AcDbCircle
 10
266.3146697670259
 20
18.82373757347062
 30
0.0
 40
4.9999998979
  0
CIRCLE
  5
20FC
330
20
100
AcDbEntity
  8
91000_TIP
  6
Continuous
 62
     7
100
AcDbCircle
 10
266.3146697670259
 20
18.82373757347062
 30
0.0
 40
2.499999948899997
  0
TEXT
  5
2196
330
20
100
AcDbEntity
  8
90000_FRAME
  6
Continuous
 62
     7
100
AcDbText
 10
338.3059245239508
 20
20.25
 30
0.0
 40
3.5
  1
3RT192__00000154_000_ALL
 41
0.7373033857474685
 72
     5
 11
394.2180979431339
 21
20.25
 31
0.0
100
AcDbText
  0
TEXT
  5
2FDF
330
20
100
AcDbEntity
  8
91000_TIP
  6
Continuous
 62
     7
100
AcDbText
 10
21.2756234532
 20
15.1898618139
 30
0.0
 40
3.5
  1
Alle Bemassungswerte sind in Millimeter (mm) angegeben.
 41
0.7901174168295487
 72
     5
 11
155.8589567865
 21
15.1898618139
 31
0.0
100
AcDbText
  0
TEXT
  5
2FE0
330
20
100
AcDbEntity
  8
91000_TIP
  6
Continuous
 62
     7
100
AcDbText
 10
21.2756234532
 20
9.9398618139
 30
0.0
 40
3.5
  1
All dimensions are in millimeters (mm).
 41
0.831845238095537
 72
     5
 11
114.4422901199
 21
9.9398618139
 31
0.0
100
AcDbText
  0
CIRCLE
  5
3F39
330
20
100
AcDbEntity
  8
30000_Drilling
  6
Continuous
 62
     7
370
    50
100
AcDbCircle
 39
0.25
 10
318.9340705439852
 20
117.9385056236934
 30
0.0
 40
2.399999999999999
1001
AUSTER_ANSICHT
1002
{
1000
Det03
1002
}
1001
AUSTER_FOLIE
1002
{
1000
NSB00753_S0
1002
}
  0
CIRCLE
  5
3F3A
330
20
100
AcDbEntity
  8
30000_Drilling
  6
Continuous
 62
     7
370
    50
100
AcDbCircle
 39
0.25
 10
353.9340705439852
 20
177.9385056236932
 30
0.0
 40
2.399999999999999
1001
AUSTER_ANSICHT
1002
{
1000
Det03
1002
}
1001
AUSTER_FOLIE
1002
{
1000
NSB00753_S0
1002
}
  0
DIMENSION
  5
4C47
330
20
100
AcDbEntity
  8
30100_Drilling_DIM
  6
Continuous
 62
     7
370
    13
100
AcDbDimension
  2
*D1
 10
308.7130705439852
 20
177.9385056236933
 30
0.0
 11
308.7130705439851
 21
147.9385056236934
 31
0.0
 70
    32
 71
     5
 42
59.99999999999985
  3
DSTYLE1
100
AcDbAlignedDimension
 13
316.5340705439852
 23
117.9385056236934
 33
0.0
 14
351.5340705439852
 24
177.9385056236932
 34
0.0
 50
90.0
100
AcDbRotatedDimension
1001
ACAD
1000
DSTYLE
1002
{
1070
    41
1040
2.0
1070
    42
1040
1.0
1070
    43
1040
1.0
1070
    47
1040
0.005
1070
    48
1040
-0.005
1070
    77
1070
     0
1070
    78
1070
     0
1070
   143
1040
25.4
1070
   171
1070
     0
1070
   172
1070
     1
1070
   271
1070
     0
1070
   272
1070
     1
1070
   277
1070
     6
1002
}
  0
DIMENSION
  5
4C55
330
20
100
AcDbEntity
  8
30100_Drilling_DIM
  6
Continuous
 62
     7
370
    13
100
AcDbDimension
  2
*D2
 10
353.9340705439852
 20
188.3436760064651
 30
0.0
 11
336.4340705439852
 21
188.3436760064651
 31
0.0
 70
    32
 71
     5
 42
35.00000000000006
  3
DSTYLE1
100
AcDbAlignedDimension
 13
318.9340705439852
 23
120.3385056236934
 33
0.0
 14
353.9340705439852
 24
180.3385056236933
 34
0.0
100
AcDbRotatedDimension
1001
ACAD
1000
DSTYLE
1002
{
1070
    41
1040
2.0
1070
    42
1040
1.0
1070
    43
1040
1.0
1070
    47
1040
0.005
1070
    48
1040
-0.005
1070
    77
1070
     0
1070
    78
1070
     0
1070
   143
1040
25.4
1070
   171
1070
     0
1070
   172
1070
     1
1070
   271
1070
     0
1070
   272
1070
     1
1070
   277
1070
     6
1002
}
  0
DIMENSION
  5
4C78
330
20
100
AcDbEntity
  8
30100_Drilling_DIM
  6
Continuous
 62
     7
370
    13
100
AcDbDimension
  2
*D3
 10
356.3340705439852
 20
165.8342648782986
 30
0.0
 11
353.9340705439852
 21
165.8342648782986
 31
0.0
 70
    32
 71
     5
 42
4.800000000000012
  3
DSTYLE1
100
AcDbAlignedDimension
 13
351.5340705439852
 23
177.9385056236932
 33
0.0
 14
356.3340705439852
 24
177.9385056236932
 34
0.0
100
AcDbRotatedDimension
1001
ACAD
1000
DSTYLE
1002
{
1070
    41
1040
2.0
1070
    42
1040
1.0
1070
    43
1040
1.0
1070
    47
1040
0.005
1070
    48
1040
-0.005
1070
    77
1070
     0
1070
    78
1070
     0
1070
   143
1040
25.4
1070
   171
1070
     0
1070
   172
1070
     1
1070
   271
1070
     0
1070
   272
1070
     1
1070
   277
1070
     6
1002
}
  0
LINE
  5
4E2A
330
20
100
AcDbEntity
  8
90000_FRAME
  6
Continuous
 62
     7
100
AcDbLine
 10
10.0
 20
0.0
 30
0.0
 11
10.0
 21
270.0
 31
0.0
  0
LINE
  5
4E2B
330
20
100
AcDbEntity
  8
90000_FRAME
  6
Continuous
 62
     7
100
AcDbLine
 10
10.0
 20
270.0
 30
0.0
 11
420.0
 21
270.0
 31
0.0
  0
TEXT
  5
5229
330
20
100
AcDbEntity
  8
10000_FRONT
  6
DASHED
 62
     7
370
    13
100
AcDbText
 10
75.9797004521954
 20
113.7380056236933
 30
0.0
 40
2.0
  1
NSB00990
 50
90.0
 41
0.6600000000000003
100
AcDbText
1001
AUSTER_ANSICHT
1002
{
1000
Det03
1002
}
1001
AUSTER_FOLIE
1002
{
1000
NSB00990_S0_SPU_3POL
1002
}
  0
TEXT
  5
522A
330
20
100
AcDbEntity
  8
10000_FRONT
  6
DASHED
 62
     7
370
    13
100
AcDbText
 10
80.32970045219542
 20
164.7380056236933
 30
0.0
 40
3.0
  1
SIEMENS
 41
0.6600000000000003
100
AcDbText
1001
AUSTER_ANSICHT
1002
{
1000
Det03
1002
}
1001
AUSTER_FOLIE
1002
{
1000
NSB00990_S0_SPU_3POL
1002
}
  0
ARC
  5
5230
330
20
100
AcDbEntity
  8
11000_Left
  6
DASHED
 62
     7
370
    13
100
AcDbCircle
 39
0.25
 10
235.4917004521954
 20
109.4380056236933
 30
0.0
 40
1.5
100
AcDbArc
 50
270.0
 51
0.0
1001
AUSTER_ANSICHT
1002
{
1000
Det03
1002
}
1001
AUSTER_FOLIE
1002
{
1000
NSB00990_S0_SPU_3POL
1002
}
  0
ARC
  5
5231
330
20
100
AcDbEntity
  8
11000_Left
  6
DASHED
 62
     7
370
    13
100
AcDbCircle
 39
0.25
 10
219.3917004521954
 20
109.4380056236933
 30
0.0
 40
1.5
100
AcDbArc
 50
180.0
 51
270.0
1001
AUSTER_ANSICHT
1002
{
1000
Det03
1002
}
1001
AUSTER_FOLIE
1002
{
1000
NSB00990_S0_SPU_3POL
1002
}
  0
ARC
  5
5232
330
20
100
AcDbEntity
  8
11000_Left
  6
DASHED
 62
     7
370
    13
100
AcDbCircle
 39
0.25
 10
213.3917004521954
 20
113.4380056236933
 30
0.0
 40
1.5
100
AcDbArc
 50
180.0
 51
270.0
1001
AUSTER_ANSICHT
1002
{
1000
Det03
1002
}
1001
AUSTER_FOLIE
1002
{
1000
NSB00990_S0_SPU_3POL
1002
}
  0
ARC
  5
5233
330
20
100
AcDbEntity
  8
11000_Left
  6
DASHED
 62
     7
370
    13
100
AcDbCircle
 39
0.25
 10
235.7917004521954
 20
112.7380056236933
 30
0.0
 40
0.8
100
AcDbArc
 50
180.0
 51
270.0
1001
AUSTER_ANSICHT
1002
{
1000
Det03
1002
}
1001
AUSTER_FOLIE
1002
{
1000
NSB00990_S0_SPU_3POL
1002
}
  0
ARC
  5
5234
330
20
100
AcDbEntity
  8
11000_Left
  6
DASHED
 62
     7
370
    13
100
AcDbCircle
 39
0.25
 10
205.9917004521954
 20
120.1380056236933
 30
0.0
 40
1.0
100
AcDbArc
 50
0.0
 51
90.0
1001
AUSTER_ANSICHT
1002
{
1000
Det03
1002
}
1001
AUSTER_FOLIE
1002
{
1000
NSB00990_S0_SPU_3POL
1002
}
  0
ARC
  5
5235
330
20
100
AcDbEntity
  8
11000_Left
  6
DASHED
 62
     7
370
    13
100
AcDbCircle
 39
0.25
 10
219.3917004521954
 20
109.4380056236933
 30
0.0
 40
1.5
100
AcDbArc
 50
180.0
 51
270.0
1001
AUSTER_ANSICHT
1002
{
1000
Det03
1002
}
1001
AUSTER_FOLIE
1002
{
1000
NSB00990_S0_SPU_3POL
1002
}
  0
ARC
  5
5236
330
20
100
AcDbEntity
  8
11000_Left
  6
DASHED
 62
     7
370
    13
100
AcDbCircle
 39
0.25
 10
191.2917004521954
 20
112.3380056236933
 30
0.0
 40
0.4
100
AcDbArc
 50
270.0
 51
0.0
1001
AUSTER_ANSICHT
1002
{
1000
Det03
1002
}
1001
AUSTER_FOLIE
1002
{
1000
NSB00990_S0_SPU_3POL
1002
}
  0
ARC
  5
5237
330
20
100
AcDbEntity
  8
11000_Left
  6
DASHED
 62
     7
370
    13
100
AcDbCircle
 39
0.25
 10
185.7517004521954
 20
112.6980056236933
 30
0.0
 40
0.76
100
AcDbArc
 50
180.0
 51
270.0
1001
AUSTER_ANSICHT
1002
{
1000
Det03
1002
}
1001
AUSTER_FOLIE
1002
{
1000
NSB00990_S0_SPU_3POL
1002
}
  0
ARC
  5
5238
330
20
100
AcDbEntity
  8
11000_Left
  6
DASHED
 62
     7
370
    13
100
AcDbCircle
 39
0.25
 10
184.4917004521954
 20
121.6380056236933
 30
0.0
 40
0.3
100
AcDbArc
 50
90.0
 51
180.0
1001
AUSTER_ANSICHT
1002
{
1000
Det03
1002
}
1001
AUSTER_FOLIE
1002
{
1000
NSB00990_S0_SPU_3POL
1002
}
  0
ARC
  5
5239
330
20
100
AcDbEntity
  8
11000_Left
  6
DASHED
 62
     7
370
    13
100
AcDbCircle
 39
0.25
 10
184.4917004521954
 20
114.2380056236933
 30
0.0
 40
0.3
100
AcDbArc
 50
180.0
 51
270.0
1001
AUSTER_ANSICHT
1002
{
1000
Det03
1002
}
1001
AUSTER_FOLIE
1002
{
1000
NSB00990_S0_SPU_3POL
1002
}
  0
ARC
  5
523A
330
20
100
AcDbEntity
  8
11000_Left
  6
DASHED
 62
     7
370
    13
100
AcDbCircle
 39
0.25
 10
184.4917004521954
 20
174.7380056236933
 30
0.0
 40
0.3
100
AcDbArc
 50
180.0
 51
270.0
1001
AUSTER_ANSICHT
1002
{
1000
Det03
1002
}
1001
AUSTER_FOLIE
1002
{
1000
NSB00990_S0_SPU_3POL
1002
}
  0
ARC
  5
523B
330
20
100
AcDbEntity
  8
11000_Left
  6
DASHED
 62
     7
370
    13
100
AcDbCircle
 39
0.25
 10
175.7517004521954
 20
112.6980056236933
 30
0.0
 40
0.76
100
AcDbArc
 50
180.0
 51
270.0
1001
AUSTER_ANSICHT
1002
{
1000
Det03
1002
}
1001
AUSTER_FOLIE
1002
{
1000
NSB00990_S0_SPU_3POL
1002
}
  0
ARC
  5
523C
330
20
100
AcDbEntity
  8
11000_Left
  6
DASHED
 62
     7
370
    13
100
AcDbCircle
 39
0.25
 10
174.4917004521954
 20
121.6380056236933
 30
0.0
 40
0.3
100
AcDbArc
 50
90.0
 51
180.0
1001
AUSTER_ANSICHT
1002
{
1000
Det03
1002
}
1001
AUSTER_FOLIE
1002
{
1000
NSB00990_S0_SPU_3POL
1002
}
  0
ARC
  5
523D
330
20
100
AcDbEntity
  8
11000_Left
  6
DASHED
 62
     7
370
    13
100
AcDbCircle
 39
0.25
 10
174.4917004521954
 20
114.2380056236933
 30
0.0
 40
0.3
100
AcDbArc
 50
180.0
 51
270.0
1001
AUSTER_ANSICHT
1002
{
1000
Det03
1002
}
1001
AUSTER_FOLIE
1002
{
1000
NSB00990_S0_SPU_3POL
1002
}
  0
ARC
  5
523E
330
20
100
AcDbEntity
  8
11000_Left
  6
DASHED
 62
     7
370
    13
100
AcDbCircle
 39
0.25
 10
175.7517004521954
 20
183.1780056236933
 30
0.0
 40
0.76
100
AcDbArc
 50
90.0
 51
180.0
1001
AUSTER_ANSICHT
1002
{
1000
Det03
1002
}
1001
AUSTER_FOLIE
1002
{
1000
NSB00990_S0_SPU_3POL
1002
}
  0
ARC
  5
523F
330
20
100
AcDbEntity
  8
11000_Left
  6
DASHED
 62
     7
370
    13
100
AcDbCircle
 39
0.25
 10
174.4917004521954
 20
174.7380056236933
 30
0.0
 40
0.3
100
AcDbArc
 50
180.0
 51
270.0
1001
AUSTER_ANSICHT
1002
{
1000
Det03
1002
}
1001
AUSTER_FOLIE
1002
{
1000
NSB00990_S0_SPU_3POL
1002
}
  0
ARC
  5
5240
330
20
100
AcDbEntity
  8
11000_Left
  6
DASHED
 62
     7
370
    13
100
AcDbCircle
 39
0.25
 10
235.4917004521954
 20
186.4380056236933
 30
0.0
 40
1.5
100
AcDbArc
 50
0.0
 51
90.0
1001
AUSTER_ANSICHT
1002
{
1000
Det03
1002
}
1001
AUSTER_FOLIE
1002
{
1000
NSB00990_S0_SPU_3POL
1002
}
  0
ARC
  5
5241
330
20
100
AcDbEntity
  8
11000_Left
  6
DASHED
 62
     7
370
    13
100
AcDbCircle
 39
0.25
 10
235.7917004521954
 20
183.1380056236933
 30
0.0
 40
0.8
100
AcDbArc
 50
90.0
 51
180.0
1001
AUSTER_ANSICHT
1002
{
1000
Det03
1002
}
1001
AUSTER_FOLIE
1002
{
1000
NSB00990_S0_SPU_3POL
1002
}
  0
ARC
  5
5242
330
20
100
AcDbEntity
  8
11000_Left
  6
DASHED
 62
     7
370
    13
100
AcDbCircle
 39
0.25
 10
185.7517004521954
 20
183.1780056236933
 30
0.0
 40
0.76
100
AcDbArc
 50
90.0
 51
180.0
1001
AUSTER_ANSICHT
1002
{
1000
Det03
1002
}
1001
AUSTER_FOLIE
1002
{
1000
NSB00990_S0_SPU_3POL
1002
}
  0
ARC
  5
5243
330
20
100
AcDbEntity
  8
11000_Left
  6
DASHED
 62
     7
370
    13
100
AcDbCircle
 39
0.25
 10
191.2917004521954
 20
183.5380056236933
 30
0.0
 40
0.4
100
AcDbArc
 50
0.0
 51
90.0
1001
AUSTER_ANSICHT
1002
{
1000
Det03
1002
}
1001
AUSTER_FOLIE
1002
{
1000
NSB00990_S0_SPU_3POL
1002
}
  0
ARC
  5
5244
330
20
100
AcDbEntity
  8
11000_Left
  6
DASHED
 62
     7
370
    13
100
AcDbCircle
 39
0.25
 10
219.3917004521954
 20
186.4380056236933
 30
0.0
 40
1.5
100
AcDbArc
 50
90.0
 51
180.0
1001
AUSTER_ANSICHT
1002
{
1000
Det03
1002
}
1001
AUSTER_FOLIE
1002
{
1000
NSB00990_S0_SPU_3POL
1002
}
  0
ARC
  5
5245
330
20
100
AcDbEntity
  8
11000_Left
  6
DASHED
 62
     7
370
    13
100
AcDbCircle
 39
0.25
 10
273.8277004521954
 20
115.2490056236933
 30
0.0
 40
0.812
100
AcDbArc
 50
271.025
 51
0.0
1001
AUSTER_ANSICHT
1002
{
1000
Det03
1002
}
1001
AUSTER_FOLIE
1002
{
1000
NSB00990_S0_SPU_3POL
1002
}
  0
ARC
  5
5246
330
20
100
AcDbEntity
  8
11000_Left
  6
DASHED
 62
     7
370
    13
100
AcDbCircle
 39
0.25
 10
24.9917004521954
 20
128.4380056236933
 30
0.0
 40
250.0
100
AcDbArc
 50
357.1250000000008
 51
0.0
1001
AUSTER_ANSICHT
1002
{
1000
Det03
1002
}
1001
AUSTER_FOLIE
1002
{
1000
NSB00990_S0_SPU_3POL
1002
}
  0
ARC
  5
5247
330
20
100
AcDbEntity
  8
11000_Left
  6
DASHED
 62
     7
370
    13
100
AcDbCircle
 39
0.25
 10
273.8277004521954
 20
180.6260056236933
 30
0.0
 40
0.812
100
AcDbArc
 50
0.0
 51
88.97499999999993
1001
AUSTER_ANSICHT
1002
{
1000
Det03
1002
}
1001
AUSTER_FOLIE
1002
{
1000
NSB00990_S0_SPU_3POL
1002
}
  0
ARC
  5
5248
330
20
100
AcDbEntity
  8
10000_FRONT
  6
DASHED
 62
     7
370
    13
100
AcDbCircle
 39
0.25
 10
107.4067004521954
 20
183.6380056236933
 30
0.0
 40
0.3
100
AcDbArc
 50
90.0
 51
175.2199999999995
1001
AUSTER_ANSICHT
1002
{
1000
Det03
1002
}
1001
AUSTER_FOLIE
1002
{
1000
NSB00990_S0_SPU_3POL
1002
}
  0
ARC
  5
5249
330
20
100
AcDbEntity
  8
10000_FRONT
  6
DASHED
 62
     7
370
    13
100
AcDbCircle
 39
0.25
 10
107.8527004521954
 20
183.6380056236933
 30
0.0
 40
0.3
100
AcDbArc
 50
4.492999999999215
 51
90.0
1001
AUSTER_ANSICHT
1002
{
1000
Det03
1002
}
1001
AUSTER_FOLIE
1002
{
1000
NSB00990_S0_SPU_3POL
1002
}
  0
ARC
  5
524A
330
20
100
AcDbEntity
  8
10000_FRONT
  6
DASHED
 62
     7
370
    13
100
AcDbCircle
 39
0.25
 10
121.7987004521954
 20
183.6380056236933
 30
0.0
 40
0.3
100
AcDbArc
 50
90.0
 51
173.7229999999998
1001
AUSTER_ANSICHT
1002
{
1000
Det03
1002
}
1001
AUSTER_FOLIE
1002
{
1000
NSB00990_S0_SPU_3POL
1002
}
  0
ARC
  5
524B
330
20
100
AcDbEntity
  8
10000_FRONT
  6
DASHED
 62
     7
370
    13
100
AcDbCircle
 39
0.25
 10
120.1297004521954
 20
187.6380056236933
 30
0.0
 40
0.3
100
AcDbArc
 50
0.0
 51
90.0
1001
AUSTER_ANSICHT
1002
{
1000
Det03
1002
}
1001
AUSTER_FOLIE
1002
{
1000
NSB00990_S0_SPU_3POL
1002
}
  0
ARC
  5
524C
330
20
100
AcDbEntity
  8
10000_FRONT
  6
DASHED
 62
     7
370
    13
100
AcDbCircle
 39
0.25
 10
121.3797004521954
 20
115.9370056236933
 30
0.0
 40
1.5
100
AcDbArc
 50
269.9890000000003
 51
0.0080000000006305
1001
AUSTER_ANSICHT
1002
{
1000
Det03
1002
}
1001
AUSTER_FOLIE
1002
{
1000
NSB00990_S0_SPU_3POL
1002
}
  0
ARC
  5
524D
330
20
100
AcDbEntity
  8
10000_FRONT
  6
DASHED
 62
     7
370
    13
100
AcDbCircle
 39
0.25
 10
121.7987004521954
 20
112.2380056236933
 30
0.0
 40
0.3
100
AcDbArc
 50
186.2770000000002
 51
270.0
1001
AUSTER_ANSICHT
1002
{
1000
Det03
1002
}
1001
AUSTER_FOLIE
1002
{
1000
NSB00990_S0_SPU_3POL
1002
}
  0
ARC
  5
524E
330
20
100
AcDbEntity
  8
10000_FRONT
  6
DASHED
 62
     7
370
    13
100
AcDbCircle
 39
0.25
 10
107.4067004521954
 20
112.2380056236933
 30
0.0
 40
0.3
100
AcDbArc
 50
184.7800000000004
 51
270.0
1001
AUSTER_ANSICHT
1002
{
1000
Det03
1002
}
1001
AUSTER_FOLIE
1002
{
1000
NSB00990_S0_SPU_3POL
1002
}
  0
ARC
  5
524F
330
20
100
AcDbEntity
  8
10000_FRONT
  6
DASHED
 62
     7
370
    13
100
AcDbCircle
 39
0.25
 10
107.8527004521954
 20
112.2380056236933
 30
0.0
 40
0.3
100
AcDbArc
 50
270.0
 51
355.5070000000009
1001
AUSTER_ANSICHT
1002
{
1000
Det03
1002
}
1001
AUSTER_FOLIE
1002
{
1000
NSB00990_S0_SPU_3POL
1002
}
  0
ARC
  5
5250
330
20
100
AcDbEntity
  8
10000_FRONT
  6
DASHED
 62
     7
370
    13
100
AcDbCircle
 39
0.25
 10
120.1297004521954
 20
108.2380056236933
 30
0.0
 40
0.3
100
AcDbArc
 50
270.0
 51
0.0
1001
AUSTER_ANSICHT
1002
{
1000
Det03
1002
}
1001
AUSTER_FOLIE
1002
{
1000
NSB00990_S0_SPU_3POL
1002
}
  0
ARC
  5
5251
330
20
100
AcDbEntity
  8
10000_FRONT
  6
DASHED
 62
     7
370
    13
100
AcDbCircle
 39
0.25
 10
93.45270045219541
 20
112.2380056236933
 30
0.0
 40
0.3
100
AcDbArc
 50
270.0
 51
355.2199999999996
1001
AUSTER_ANSICHT
1002
{
1000
Det03
1002
}
1001
AUSTER_FOLIE
1002
{
1000
NSB00990_S0_SPU_3POL
1002
}
  0
ARC
  5
5252
330
20
100
AcDbEntity
  8
10000_FRONT
  6
DASHED
 62
     7
370
    13
100
AcDbCircle
 39
0.25
 10
93.00670045219542
 20
112.2380056236933
 30
0.0
 40
0.3
100
AcDbArc
 50
184.4929999999992
 51
270.0
1001
AUSTER_ANSICHT
1002
{
1000
Det03
1002
}
1001
AUSTER_FOLIE
1002
{
1000
NSB00990_S0_SPU_3POL
1002
}
  0
ARC
  5
5253
330
20
100
AcDbEntity
  8
10000_FRONT
  6
DASHED
 62
     7
370
    13
100
AcDbCircle
 39
0.25
 10
79.4797004521954
 20
115.9370056236933
 30
0.0
 40
1.5
100
AcDbArc
 50
179.9919999999993
 51
270.0109999999997
1001
AUSTER_ANSICHT
1002
{
1000
Det03
1002
}
1001
AUSTER_FOLIE
1002
{
1000
NSB00990_S0_SPU_3POL
1002
}
  0
ARC
  5
5254
330
20
100
AcDbEntity
  8
10000_FRONT
  6
DASHED
 62
     7
370
    13
100
AcDbCircle
 39
0.25
 10
79.06070045219542
 20
112.2380056236933
 30
0.0
 40
0.3
100
AcDbArc
 50
270.0
 51
353.7229999999998
1001
AUSTER_ANSICHT
1002
{
1000
Det03
1002
}
1001
AUSTER_FOLIE
1002
{
1000
NSB00990_S0_SPU_3POL
1002
}
  0
ARC
  5
5255
330
20
100
AcDbEntity
  8
10000_FRONT
  6
DASHED
 62
     7
370
    13
100
AcDbCircle
 39
0.25
 10
80.72970045219539
 20
108.2380056236933
 30
0.0
 40
0.3
100
AcDbArc
 50
180.0
 51
270.0
1001
AUSTER_ANSICHT
1002
{
1000
Det03
1002
}
1001
AUSTER_FOLIE
1002
{
1000
NSB00990_S0_SPU_3POL
1002
}
  0
ARC
  5
5256
330
20
100
AcDbEntity
  8
10000_FRONT
  6
DASHED
 62
     7
370
    13
100
AcDbCircle
 39
0.25
 10
78.7797004521954
 20
112.7380056236933
 30
0.0
 40
0.8
100
AcDbArc
 50
180.0
 51
270.0
1001
AUSTER_ANSICHT
1002
{
1000
Det03
1002
}
1001
AUSTER_FOLIE
1002
{
1000
NSB00990_S0_SPU_3POL
1002
}
  0
ARC
  5
5257
330
20
100
AcDbEntity
  8
10000_FRONT
  6
DASHED
 62
     7
370
    13
100
AcDbCircle
 39
0.25
 10
122.0797004521954
 20
112.7380056236933
 30
0.0
 40
0.8
100
AcDbArc
 50
270.0
 51
0.0
1001
AUSTER_ANSICHT
1002
{
1000
Det03
1002
}
1001
AUSTER_FOLIE
1002
{
1000
NSB00990_S0_SPU_3POL
1002
}
  0
ARC
  5
5258
330
20
100
AcDbEntity
  8
10000_FRONT
  6
DASHED
 62
     7
370
    13
100
AcDbCircle
 39
0.25
 10
93.45270045219541
 20
183.6380056236933
 30
0.0
 40
0.3
100
AcDbArc
 50
4.780000000000433
 51
90.0
1001
AUSTER_ANSICHT
1002
{
1000
Det03
1002
}
1001
AUSTER_FOLIE
1002
{
1000
NSB00990_S0_SPU_3POL
1002
}
  0
ARC
  5
5259
330
20
100
AcDbEntity
  8
10000_FRONT
  6
DASHED
 62
     7
370
    13
100
AcDbCircle
 39
0.25
 10
93.00670045219542
 20
183.6380056236933
 30
0.0
 40
0.3
100
AcDbArc
 50
90.0
 51
175.5070000000007
1001
AUSTER_ANSICHT
1002
{
1000
Det03
1002
}
1001
AUSTER_FOLIE
1002
{
1000
NSB00990_S0_SPU_3POL
1002
}
  0
ARC
  5
525A
330
20
100
AcDbEntity
  8
10000_FRONT
  6
DASHED
 62
     7
370
    13
100
AcDbCircle
 39
0.25
 10
79.4797004521954
 20
179.9380056236933
 30
0.0
 40
1.5
100
AcDbArc
 50
89.9890000000003
 51
180.0080000000006
1001
AUSTER_ANSICHT
1002
{
1000
Det03
1002
}
1001
AUSTER_FOLIE
1002
{
1000
NSB00990_S0_SPU_3POL
1002
}
  0
ARC
  5
525B
330
20
100
AcDbEntity
  8
10000_FRONT
  6
DASHED
 62
     7
370
    13
100
AcDbCircle
 39
0.25
 10
79.06070045219542
 20
183.6380056236933
 30
0.0
 40
0.3
100
AcDbArc
 50
6.277000000000181
 51
90.0
1001
AUSTER_ANSICHT
1002
{
1000
Det03
1002
}
1001
AUSTER_FOLIE
1002
{
1000
NSB00990_S0_SPU_3POL
1002
}
  0
ARC
  5
525C
330
20
100
AcDbEntity
  8
10000_FRONT
  6
DASHED
 62
     7
370
    13
100
AcDbCircle
 39
0.25
 10
80.72970045219539
 20
187.6380056236933
 30
0.0
 40
0.3
100
AcDbArc
 50
90.0
 51
180.0
1001
AUSTER_ANSICHT
1002
{
1000
Det03
1002
}
1001
AUSTER_FOLIE
1002
{
1000
NSB00990_S0_SPU_3POL
1002
}
  0
ARC
  5
525D
330
20
100
AcDbEntity
  8
10000_FRONT
  6
DASHED
 62
     7
370
    13
100
AcDbCircle
 39
0.25
 10
78.7797004521954
 20
183.1380056236933
 30
0.0
 40
0.8
100
AcDbArc
 50
90.0
 51
180.0
1001
AUSTER_ANSICHT
1002
{
1000
Det03
1002
}
1001
AUSTER_FOLIE
1002
{
1000
NSB00990_S0_SPU_3POL
1002
}
  0
ARC
  5
525E
330
20
100
AcDbEntity
  8
10000_FRONT
  6
DASHED
 62
     7
370
    13
100
AcDbCircle
 39
0.25
 10
114.4327004521954
 20
113.6700056236933
 30
0.0
 40
3.1
100
AcDbArc
 50
165.6539999999988
 51
14.34600000000121
1001
AUSTER_ANSICHT
1002
{
1000
Det03
1002
}
1001
AUSTER_FOLIE
1002
{
1000
NSB00990_S0_SPU_3POL
1002
}
  0
ARC
  5
525F
330
20
100
AcDbEntity
  8
10000_FRONT
  6
DASHED
 62
     7
370
    13
100
AcDbCircle
 39
0.25
 10
114.4327004521954
 20
113.6700056236933
 30
0.0
 40
2.85
100
AcDbArc
 50
167.7599999999991
 51
192.2400000000008
1001
AUSTER_ANSICHT
1002
{
1000
Det03
1002
}
1001
AUSTER_FOLIE
1002
{
1000
NSB00990_S0_SPU_3POL
1002
}
  0
ARC
  5
5260
330
20
100
AcDbEntity
  8
10000_FRONT
  6
DASHED
 62
     7
370
    13
100
AcDbCircle
 39
0.25
 10
114.4327004521954
 20
113.6700056236933
 30
0.0
 40
1.85
100
AcDbArc
 50
253.8370000000004
 51
286.1629999999996
1001
AUSTER_ANSICHT
1002
{
1000
Det03
1002
}
1001
AUSTER_FOLIE
1002
{
1000
NSB00990_S0_SPU_3POL
1002
}
  0
ARC
  5
5261
330
20
100
AcDbEntity
  8
10000_FRONT
  6
DASHED
 62
     7
370
    13
100
AcDbCircle
 39
0.25
 10
114.4327004521954
 20
113.6700056236933
 30
0.0
 40
2.85
100
AcDbArc
 50
347.7599999999991
 51
12.24000000000082
1001
AUSTER_ANSICHT
1002
{
1000
Det03
1002
}
1001
AUSTER_FOLIE
1002
{
1000
NSB00990_S0_SPU_3POL
1002
}
  0
ARC
  5
5262
330
20
100
AcDbEntity
  8
10000_FRONT
  6
DASHED
 62
     7
370
    13
100
AcDbCircle
 39
0.25
 10
86.43270045219543
 20
113.6700056236933
 30
0.0
 40
3.1
100
AcDbArc
 50
165.6539999999988
 51
14.34600000000121
1001
AUSTER_ANSICHT
1002
{
1000
Det03
1002
}
1001
AUSTER_FOLIE
1002
{
1000
NSB00990_S0_SPU_3POL
1002
}
  0
ARC
  5
5263
330
20
100
AcDbEntity
  8
10000_FRONT
  6
DASHED
 62
     7
370
    13
100
AcDbCircle
 39
0.25
 10
86.43270045219543
 20
113.6700056236933
 30
0.0
 40
2.85
100
AcDbArc
 50
347.7599999999991
 51
12.24000000000082
1001
AUSTER_ANSICHT
1002
{
1000
Det03
1002
}
1001
AUSTER_FOLIE
1002
{
1000
NSB00990_S0_SPU_3POL
1002
}
  0
ARC
  5
5264
330
20
100
AcDbEntity
  8
10000_FRONT
  6
DASHED
 62
     7
370
    13
100
AcDbCircle
 39
0.25
 10
86.43270045219543
 20
113.6700056236933
 30
0.0
 40
1.85
100
AcDbArc
 50
253.8370000000004
 51
286.1629999999996
1001
AUSTER_ANSICHT
1002
{
1000
Det03
1002
}
1001
AUSTER_FOLIE
1002
{
1000
NSB00990_S0_SPU_3POL
1002
}
  0
ARC
  5
5265
330
20
100
AcDbEntity
  8
10000_FRONT
  6
DASHED
 62
     7
370
    13
100
AcDbCircle
 39
0.25
 10
86.43270045219543
 20
113.6700056236933
 30
0.0
 40
2.85
100
AcDbArc
 50
167.7599999999991
 51
192.2400000000008
1001
AUSTER_ANSICHT
1002
{
1000
Det03
1002
}
1001
AUSTER_FOLIE
1002
{
1000
NSB00990_S0_SPU_3POL
1002
}
  0
ARC
  5
5266
330
20
100
AcDbEntity
  8
10000_FRONT
  6
DASHED
 62
     7
370
    13
100
AcDbCircle
 39
0.25
 10
114.4327004521954
 20
182.2060056236933
 30
0.0
 40
3.1
100
AcDbArc
 50
345.6539999999988
 51
194.3460000000012
1001
AUSTER_ANSICHT
1002
{
1000
Det03
1002
}
1001
AUSTER_FOLIE
1002
{
1000
NSB00990_S0_SPU_3POL
1002
}
  0
ARC
  5
5267
330
20
100
AcDbEntity
  8
10000_FRONT
  6
DASHED
 62
     7
370
    13
100
AcDbCircle
 39
0.25
 10
114.4327004521954
 20
182.2060056236933
 30
0.0
 40
2.85
100
AcDbArc
 50
167.7599999999991
 51
192.2400000000008
1001
AUSTER_ANSICHT
1002
{
1000
Det03
1002
}
1001
AUSTER_FOLIE
1002
{
1000
NSB00990_S0_SPU_3POL
1002
}
  0
ARC
  5
5268
330
20
100
AcDbEntity
  8
10000_FRONT
  6
DASHED
 62
     7
370
    13
100
AcDbCircle
 39
0.25
 10
114.4327004521954
 20
182.2060056236933
 30
0.0
 40
1.85
100
AcDbArc
 50
73.83700000000041
 51
106.1629999999996
1001
AUSTER_ANSICHT
1002
{
1000
Det03
1002
}
1001
AUSTER_FOLIE
1002
{
1000
NSB00990_S0_SPU_3POL
1002
}
  0
ARC
  5
5269
330
20
100
AcDbEntity
  8
10000_FRONT
  6
DASHED
 62
     7
370
    13
100
AcDbCircle
 39
0.25
 10
114.4327004521954
 20
182.2060056236933
 30
0.0
 40
2.85
100
AcDbArc
 50
347.7599999999991
 51
12.24000000000082
1001
AUSTER_ANSICHT
1002
{
1000
Det03
1002
}
1001
AUSTER_FOLIE
1002
{
1000
NSB00990_S0_SPU_3POL
1002
}
  0
ARC
  5
526A
330
20
100
AcDbEntity
  8
10000_FRONT
  6
DASHED
 62
     7
370
    13
100
AcDbCircle
 39
0.25
 10
86.43270045219543
 20
182.2060056236933
 30
0.0
 40
3.1
100
AcDbArc
 50
345.6539999999988
 51
194.3460000000012
1001
AUSTER_ANSICHT
1002
{
1000
Det03
1002
}
1001
AUSTER_FOLIE
1002
{
1000
NSB00990_S0_SPU_3POL
1002
}
  0
ARC
  5
526B
330
20
100
AcDbEntity
  8
10000_FRONT
  6
DASHED
 62
     7
370
    13
100
AcDbCircle
 39
0.25
 10
86.43270045219543
 20
182.2060056236933
 30
0.0
 40
2.85
100
AcDbArc
 50
347.7599999999991
 51
12.24000000000082
1001
AUSTER_ANSICHT
1002
{
1000
Det03
1002
}
1001
AUSTER_FOLIE
1002
{
1000
NSB00990_S0_SPU_3POL
1002
}
  0
ARC
  5
526C
330
20
100
AcDbEntity
  8
10000_FRONT
  6
DASHED
 62
     7
370
    13
100
AcDbCircle
 39
0.25
 10
86.43270045219543
 20
182.2060056236933
 30
0.0
 40
1.85
100
AcDbArc
 50
73.83700000000041
 51
106.1629999999996
1001
AUSTER_ANSICHT
1002
{
1000
Det03
1002
}
1001
AUSTER_FOLIE
1002
{
1000
NSB00990_S0_SPU_3POL
1002
}
  0
ARC
  5
526D
330
20
100
AcDbEntity
  8
10000_FRONT
  6
DASHED
 62
     7
370
    13
100
AcDbCircle
 39
0.25
 10
86.43270045219543
 20
182.2060056236933
 30
0.0
 40
2.85
100
AcDbArc
 50
167.7599999999991
 51
192.2400000000008
1001
AUSTER_ANSICHT
1002
{
1000
Det03
1002
}
1001
AUSTER_FOLIE
1002
{
1000
NSB00990_S0_SPU_3POL
1002
}
  0
CIRCLE
  5
526E
330
20
100
AcDbEntity
  8
10000_FRONT
  6
DASHED
 62
     7
370
    13
100
AcDbCircle
 39
0.25
 10
114.8297004521954
 20
171.9380056236933
 30
0.0
 40
3.1
1001
AUSTER_ANSICHT
1002
{
1000
Det03
1002
}
1001
AUSTER_FOLIE
1002
{
1000
NSB00990_S0_SPU_3POL
1002
}
  0
ARC
  5
526F
330
20
100
AcDbEntity
  8
10000_FRONT
  6
DASHED
 62
     7
370
    13
100
AcDbCircle
 39
0.25
 10
114.8297004521954
 20
171.9380056236933
 30
0.0
 40
2.85
100
AcDbArc
 50
347.7599999999991
 51
12.24000000000082
1001
AUSTER_ANSICHT
1002
{
1000
Det03
1002
}
1001
AUSTER_FOLIE
1002
{
1000
NSB00990_S0_SPU_3POL
1002
}
  0
ARC
  5
5270
330
20
100
AcDbEntity
  8
10000_FRONT
  6
DASHED
 62
     7
370
    13
100
AcDbCircle
 39
0.25
 10
114.8297004521954
 20
171.9380056236933
 30
0.0
 40
1.85
100
AcDbArc
 50
73.83700000000041
 51
106.1629999999996
1001
AUSTER_ANSICHT
1002
{
1000
Det03
1002
}
1001
AUSTER_FOLIE
1002
{
1000
NSB00990_S0_SPU_3POL
1002
}
  0
ARC
  5
5271
330
20
100
AcDbEntity
  8
10000_FRONT
  6
DASHED
 62
     7
370
    13
100
AcDbCircle
 39
0.25
 10
114.8297004521954
 20
171.9380056236933
 30
0.0
 40
1.85
100
AcDbArc
 50
253.8370000000004
 51
286.1629999999996
1001
AUSTER_ANSICHT
1002
{
1000
Det03
1002
}
1001
AUSTER_FOLIE
1002
{
1000
NSB00990_S0_SPU_3POL
1002
}
  0
ARC
  5
5272
330
20
100
AcDbEntity
  8
10000_FRONT
  6
DASHED
 62
     7
370
    13
100
AcDbCircle
 39
0.25
 10
114.8297004521954
 20
171.9380056236933
 30
0.0
 40
2.85
100
AcDbArc
 50
167.7599999999991
 51
192.2400000000008
1001
AUSTER_ANSICHT
1002
{
1000
Det03
1002
}
1001
AUSTER_FOLIE
1002
{
1000
NSB00990_S0_SPU_3POL
1002
}
  0
CIRCLE
  5
5273
330
20
100
AcDbEntity
  8
10000_FRONT
  6
DASHED
 62
     7
370
    13
100
AcDbCircle
 39
0.25
 10
114.8297004521954
 20
171.9380056236933
 30
0.0
 40
3.1
1001
AUSTER_ANSICHT
1002
{
1000
Det03
1002
}
1001
AUSTER_FOLIE
1002
{
1000
NSB00990_S0_SPU_3POL
1002
}
  0
CIRCLE
  5
5274
330
20
100
AcDbEntity
  8
10000_FRONT
  6
DASHED
 62
     7
370
    13
100
AcDbCircle
 39
0.25
 10
100.4297004521954
 20
171.9380056236933
 30
0.0
 40
3.1
1001
AUSTER_ANSICHT
1002
{
1000
Det03
1002
}
1001
AUSTER_FOLIE
1002
{
1000
NSB00990_S0_SPU_3POL
1002
}
  0
ARC
  5
5275
330
20
100
AcDbEntity
  8
10000_FRONT
  6
DASHED
 62
     7
370
    13
100
AcDbCircle
 39
0.25
 10
100.4297004521954
 20
171.9380056236933
 30
0.0
 40
2.85
100
AcDbArc
 50
347.7599999999991
 51
12.24000000000082
1001
AUSTER_ANSICHT
1002
{
1000
Det03
1002
}
1001
AUSTER_FOLIE
1002
{
1000
NSB00990_S0_SPU_3POL
1002
}
  0
ARC
  5
5276
330
20
100
AcDbEntity
  8
10000_FRONT
  6
DASHED
 62
     7
370
    13
100
AcDbCircle
 39
0.25
 10
100.4297004521954
 20
171.9380056236933
 30
0.0
 40
1.85
100
AcDbArc
 50
73.83700000000041
 51
106.1629999999996
1001
AUSTER_ANSICHT
1002
{
1000
Det03
1002
}
1001
AUSTER_FOLIE
1002
{
1000
NSB00990_S0_SPU_3POL
1002
}
  0
ARC
  5
5277
330
20
100
AcDbEntity
  8
10000_FRONT
  6
DASHED
 62
     7
370
    13
100
AcDbCircle
 39
0.25
 10
100.4297004521954
 20
171.9380056236933
 30
0.0
 40
1.85
100
AcDbArc
 50
253.8370000000004
 51
286.1629999999996
1001
AUSTER_ANSICHT
1002
{
1000
Det03
1002
}
1001
AUSTER_FOLIE
1002
{
1000
NSB00990_S0_SPU_3POL
1002
}
  0
ARC
  5
5278
330
20
100
AcDbEntity
  8
10000_FRONT
  6
DASHED
 62
     7
370
    13
100
AcDbCircle
 39
0.25
 10
100.4297004521954
 20
171.9380056236933
 30
0.0
 40
2.85
100
AcDbArc
 50
167.7599999999991
 51
192.2400000000008
1001
AUSTER_ANSICHT
1002
{
1000
Det03
1002
}
1001
AUSTER_FOLIE
1002
{
1000
NSB00990_S0_SPU_3POL
1002
}
  0
CIRCLE
  5
5279
330
20
100
AcDbEntity
  8
10000_FRONT
  6
DASHED
 62
     7
370
    13
100
AcDbCircle
 39
0.25
 10
100.4297004521954
 20
171.9380056236933
 30
0.0
 40
3.1
1001
AUSTER_ANSICHT
1002
{
1000
Det03
1002
}
1001
AUSTER_FOLIE
1002
{
1000
NSB00990_S0_SPU_3POL
1002
}
  0
CIRCLE
  5
527A
330
20
100
AcDbEntity
  8
10000_FRONT
  6
DASHED
 62
     7
370
    13
100
AcDbCircle
 39
0.25
 10
86.02970045219541
 20
171.9380056236933
 30
0.0
 40
3.1
1001
AUSTER_ANSICHT
1002
{
1000
Det03
1002
}
1001
AUSTER_FOLIE
1002
{
1000
NSB00990_S0_SPU_3POL
1002
}
  0
ARC
  5
527B
330
20
100
AcDbEntity
  8
10000_FRONT
  6
DASHED
 62
     7
370
    13
100
AcDbCircle
 39
0.25
 10
86.02970045219541
 20
171.9380056236933
 30
0.0
 40
2.85
100
AcDbArc
 50
347.7599999999991
 51
12.24000000000082
1001
AUSTER_ANSICHT
1002
{
1000
Det03
1002
}
1001
AUSTER_FOLIE
1002
{
1000
NSB00990_S0_SPU_3POL
1002
}
  0
ARC
  5
527C
330
20
100
AcDbEntity
  8
10000_FRONT
  6
DASHED
 62
     7
370
    13
100
AcDbCircle
 39
0.25
 10
86.02970045219541
 20
171.9380056236933
 30
0.0
 40
1.85
100
AcDbArc
 50
73.83700000000041
 51
106.1629999999996
1001
AUSTER_ANSICHT
1002
{
1000
Det03
1002
}
1001
AUSTER_FOLIE
1002
{
1000
NSB00990_S0_SPU_3POL
1002
}
  0
ARC
  5
527D
330
20
100
AcDbEntity
  8
10000_FRONT
  6
DASHED
 62
     7
370
    13
100
AcDbCircle
 39
0.25
 10
86.02970045219541
 20
171.9380056236933
 30
0.0
 40
1.85
100
AcDbArc
 50
253.8370000000004
 51
286.1629999999996
1001
AUSTER_ANSICHT
1002
{
1000
Det03
1002
}
1001
AUSTER_FOLIE
1002
{
1000
NSB00990_S0_SPU_3POL
1002
}
  0
ARC
  5
527E
330
20
100
AcDbEntity
  8
10000_FRONT
  6
DASHED
 62
     7
370
    13
100
AcDbCircle
 39
0.25
 10
86.02970045219541
 20
171.9380056236933
 30
0.0
 40
2.85
100
AcDbArc
 50
167.7599999999991
 51
192.2400000000008
1001
AUSTER_ANSICHT
1002
{
1000
Det03
1002
}
1001
AUSTER_FOLIE
1002
{
1000
NSB00990_S0_SPU_3POL
1002
}
  0
CIRCLE
  5
527F
330
20
100
AcDbEntity
  8
10000_FRONT
  6
DASHED
 62
     7
370
    13
100
AcDbCircle
 39
0.25
 10
114.8297004521954
 20
123.9380056236933
 30
0.0
 40
3.1
1001
AUSTER_ANSICHT
1002
{
1000
Det03
1002
}
1001
AUSTER_FOLIE
1002
{
1000
NSB00990_S0_SPU_3POL
1002
}
  0
ARC
  5
5280
330
20
100
AcDbEntity
  8
10000_FRONT
  6
DASHED
 62
     7
370
    13
100
AcDbCircle
 39
0.25
 10
114.8297004521954
 20
123.9380056236933
 30
0.0
 40
2.85
100
AcDbArc
 50
347.7599999999991
 51
12.24000000000082
1001
AUSTER_ANSICHT
1002
{
1000
Det03
1002
}
1001
AUSTER_FOLIE
1002
{
1000
NSB00990_S0_SPU_3POL
1002
}
  0
ARC
  5
5281
330
20
100
AcDbEntity
  8
10000_FRONT
  6
DASHED
 62
     7
370
    13
100
AcDbCircle
 39
0.25
 10
114.8297004521954
 20
123.9380056236933
 30
0.0
 40
1.85
100
AcDbArc
 50
253.8370000000004
 51
286.1629999999996
1001
AUSTER_ANSICHT
1002
{
1000
Det03
1002
}
1001
AUSTER_FOLIE
1002
{
1000
NSB00990_S0_SPU_3POL
1002
}
  0
ARC
  5
5282
330
20
100
AcDbEntity
  8
10000_FRONT
  6
DASHED
 62
     7
370
    13
100
AcDbCircle
 39
0.25
 10
114.8297004521954
 20
123.9380056236933
 30
0.0
 40
1.85
100
AcDbArc
 50
73.83700000000041
 51
106.1629999999996
1001
AUSTER_ANSICHT
1002
{
1000
Det03
1002
}
1001
AUSTER_FOLIE
1002
{
1000
NSB00990_S0_SPU_3POL
1002
}
  0
ARC
  5
5283
330
20
100
AcDbEntity
  8
10000_FRONT
  6
DASHED
 62
     7
370
    13
100
AcDbCircle
 39
0.25
 10
114.8297004521954
 20
123.9380056236933
 30
0.0
 40
2.85
100
AcDbArc
 50
167.7599999999991
 51
192.2400000000008
1001
AUSTER_ANSICHT
1002
{
1000
Det03
1002
}
1001
AUSTER_FOLIE
1002
{
1000
NSB00990_S0_SPU_3POL
1002
}
  0
CIRCLE
  5
5284
330
20
100
AcDbEntity
  8
10000_FRONT
  6
DASHED
 62
     7
370
    13
100
AcDbCircle
 39
0.25
 10
114.8297004521954
 20
123.9380056236933
 30
0.0
 40
3.1
1001
AUSTER_ANSICHT
1002
{
1000
Det03
1002
}
1001
AUSTER_FOLIE
1002
{
1000
NSB00990_S0_SPU_3POL
1002
}
  0
CIRCLE
  5
5285
330
20
100
AcDbEntity
  8
10000_FRONT
  6
DASHED
 62
     7
370
    13
100
AcDbCircle
 39
0.25
 10
100.4297004521954
 20
123.9380056236933
 30
0.0
 40
3.1
1001
AUSTER_ANSICHT
1002
{
1000
Det03
1002
}
1001
AUSTER_FOLIE
1002
{
1000
NSB00990_S0_SPU_3POL
1002
}
  0
ARC
  5
5286
330
20
100
AcDbEntity
  8
10000_FRONT
  6
DASHED
 62
     7
370
    13
100
AcDbCircle
 39
0.25
 10
100.4297004521954
 20
123.9380056236933
 30
0.0
 40
2.85
100
AcDbArc
 50
347.7599999999991
 51
12.24000000000082
1001
AUSTER_ANSICHT
1002
{
1000
Det03
1002
}
1001
AUSTER_FOLIE
1002
{
1000
NSB00990_S0_SPU_3POL
1002
}
  0
ARC
  5
5287
330
20
100
AcDbEntity
  8
10000_FRONT
  6
DASHED
 62
     7
370
    13
100
AcDbCircle
 39
0.25
 10
100.4297004521954
 20
123.9380056236933
 30
0.0
 40
1.85
100
AcDbArc
 50
253.8370000000004
 51
286.1629999999996
1001
AUSTER_ANSICHT
1002
{
1000
Det03
1002
}
1001
AUSTER_FOLIE
1002
{
1000
NSB00990_S0_SPU_3POL
1002
}
  0
ARC
  5
5288
330
20
100
AcDbEntity
  8
10000_FRONT
  6
DASHED
 62
     7
370
    13
100
AcDbCircle
 39
0.25
 10
100.4297004521954
 20
123.9380056236933
 30
0.0
 40
1.85
100
AcDbArc
 50
73.83700000000041
 51
106.1629999999996
1001
AUSTER_ANSICHT
1002
{
1000
Det03
1002
}
1001
AUSTER_FOLIE
1002
{
1000
NSB00990_S0_SPU_3POL
1002
}
  0
ARC
  5
5289
330
20
100
AcDbEntity
  8
10000_FRONT
  6
DASHED
 62
     7
370
    13
100
AcDbCircle
 39
0.25
 10
100.4297004521954
 20
123.9380056236933
 30
0.0
 40
2.85
100
AcDbArc
 50
167.7599999999991
 51
192.2400000000008
1001
AUSTER_ANSICHT
1002
{
1000
Det03
1002
}
1001
AUSTER_FOLIE
1002
{
1000
NSB00990_S0_SPU_3POL
1002
}
  0
CIRCLE
  5
528A
330
20
100
AcDbEntity
  8
10000_FRONT
  6
DASHED
 62
     7
370
    13
100
AcDbCircle
 39
0.25
 10
100.4297004521954
 20
123.9380056236933
 30
0.0
 40
3.1
1001
AUSTER_ANSICHT
1002
{
1000
Det03
1002
}
1001
AUSTER_FOLIE
1002
{
1000
NSB00990_S0_SPU_3POL
1002
}
  0
CIRCLE
  5
528B
330
20
100
AcDbEntity
  8
10000_FRONT
  6
DASHED
 62
     7
370
    13
100
AcDbCircle
 39
0.25
 10
86.02970045219541
 20
123.9380056236933
 30
0.0
 40
3.1
1001
AUSTER_ANSICHT
1002
{
1000
Det03
1002
}
1001
AUSTER_FOLIE
1002
{
1000
NSB00990_S0_SPU_3POL
1002
}
  0
ARC
  5
528C
330
20
100
AcDbEntity
  8
10000_FRONT
  6
DASHED
 62
     7
370
    13
100
AcDbCircle
 39
0.25
 10
86.02970045219541
 20
123.9380056236933
 30
0.0
 40
2.85
100
AcDbArc
 50
347.7599999999991
 51
12.24000000000082
1001
AUSTER_ANSICHT
1002
{
1000
Det03
1002
}
1001
AUSTER_FOLIE
1002
{
1000
NSB00990_S0_SPU_3POL
1002
}
  0
ARC
  5
528D
330
20
100
AcDbEntity
  8
10000_FRONT
  6
DASHED
 62
     7
370
    13
100
AcDbCircle
 39
0.25
 10
86.02970045219541
 20
123.9380056236933
 30
0.0
 40
1.85
100
AcDbArc
 50
253.8370000000004
 51
286.1629999999996
1001
AUSTER_ANSICHT
1002
{
1000
Det03
1002
}
1001
AUSTER_FOLIE
1002
{
1000
NSB00990_S0_SPU_3POL
1002
}
  0
ARC
  5
528E
330
20
100
AcDbEntity
  8
10000_FRONT
  6
DASHED
 62
     7
370
    13
100
AcDbCircle
 39
0.25
 10
86.02970045219541
 20
123.9380056236933
 30
0.0
 40
1.85
100
AcDbArc
 50
73.83700000000041
 51
106.1629999999996
1001
AUSTER_ANSICHT
1002
{
1000
Det03
1002
}
1001
AUSTER_FOLIE
1002
{
1000
NSB00990_S0_SPU_3POL
1002
}
  0
ARC
  5
528F
330
20
100
AcDbEntity
  8
10000_FRONT
  6
DASHED
 62
     7
370
    13
100
AcDbCircle
 39
0.25
 10
86.02970045219541
 20
123.9380056236933
 30
0.0
 40
2.85
100
AcDbArc
 50
167.7599999999991
 51
192.2400000000008
1001
AUSTER_ANSICHT
1002
{
1000
Det03
1002
}
1001
AUSTER_FOLIE
1002
{
1000
NSB00990_S0_SPU_3POL
1002
}
  0
ARC
  5
5290
330
20
100
AcDbEntity
  8
10000_FRONT
  6
DASHED
 62
     7
370
    13
100
AcDbCircle
 39
0.25
 10
121.3797004521954
 20
179.9380056236933
 30
0.0
 40
1.5
100
AcDbArc
 50
359.9919999999993
 51
90.0109999999997
1001
AUSTER_ANSICHT
1002
{
1000
Det03
1002
}
1001
AUSTER_FOLIE
1002
{
1000
NSB00990_S0_SPU_3POL
1002
}
  0
ARC
  5
5291
330
20
100
AcDbEntity
  8
10000_FRONT
  6
DASHED
 62
     7
370
    13
100
AcDbCircle
 39
0.25
 10
122.0797004521954
 20
183.1380056236933
 30
0.0
 40
0.8
100
AcDbArc
 50
0.0
 51
90.0
1001
AUSTER_ANSICHT
1002
{
1000
Det03
1002
}
1001
AUSTER_FOLIE
1002
{
1000
NSB00990_S0_SPU_3POL
1002
}
  0
CIRCLE
  5
5292
330
20
100
AcDbEntity
  8
10000_FRONT
  6
DASHED
 62
     7
370
    13
100
AcDbCircle
 39
0.25
 10
86.02970045219541
 20
171.9380056236933
 30
0.0
 40
3.1
1001
AUSTER_ANSICHT
1002
{
1000
Det03
1002
}
1001
AUSTER_FOLIE
1002
{
1000
NSB00990_S0_SPU_3POL
1002
}
  0
CIRCLE
  5
5293
330
20
100
AcDbEntity
  8
10000_FRONT
  6
DASHED
 62
     7
370
    13
100
AcDbCircle
 39
0.25
 10
86.02970045219541
 20
123.9380056236933
 30
0.0
 40
3.1
1001
AUSTER_ANSICHT
1002
{
1000
Det03
1002
}
1001
AUSTER_FOLIE
1002
{
1000
NSB00990_S0_SPU_3POL
1002
}
  0
CIRCLE
  5
5294
330
20
100
AcDbEntity
  8
10000_FRONT
  6
Continuous
 62
     7
370
    20
100
AcDbCircle
 39
0.25
 10
94.92970045219541
 20
206.7380056236933
 30
0.0
 40
3.368999999999997
1001
AUSTER_ANSICHT
1002
{
1000
Det03
1002
}
1001
AUSTER_FOLIE
1002
{
1000
NSB00990_S0_SPU_3POL
1002
}
  0
ARC
  5
5295
330
20
100
AcDbEntity
  8
10000_FRONT
  6
Continuous
 62
     7
370
    20
100
AcDbCircle
 39
0.25
 10
94.92970045219541
 20
206.7380056236933
 30
0.0
 40
2.85
100
AcDbArc
 50
347.7599999999991
 51
12.24000000000082
1001
AUSTER_ANSICHT
1002
{
1000
Det03
1002
}
1001
AUSTER_FOLIE
1002
{
1000
NSB00990_S0_SPU_3POL
1002
}
  0
ARC
  5
5296
330
20
100
AcDbEntity
  8
10000_FRONT
  6
Continuous
 62
     7
370
    20
100
AcDbCircle
 39
0.25
 10
94.92970045219541
 20
206.7380056236933
 30
0.0
 40
1.85
100
AcDbArc
 50
253.8370000000004
 51
286.1629999999996
1001
AUSTER_ANSICHT
1002
{
1000
Det03
1002
}
1001
AUSTER_FOLIE
1002
{
1000
NSB00990_S0_SPU_3POL
1002
}
  0
ARC
  5
5297
330
20
100
AcDbEntity
  8
10000_FRONT
  6
Continuous
 62
     7
370
    20
100
AcDbCircle
 39
0.25
 10
94.92970045219541
 20
206.7380056236933
 30
0.0
 40
1.85
100
AcDbArc
 50
73.83700000000041
 51
106.1629999999996
1001
AUSTER_ANSICHT
1002
{
1000
Det03
1002
}
1001
AUSTER_FOLIE
1002
{
1000
NSB00990_S0_SPU_3POL
1002
}
  0
ARC
  5
5298
330
20
100
AcDbEntity
  8
10000_FRONT
  6
Continuous
 62
     7
370
    20
100
AcDbCircle
 39
0.25
 10
94.92970045219541
 20
206.7380056236933
 30
0.0
 40
2.85
100
AcDbArc
 50
167.7599999999991
 51
192.2400000000008
1001
AUSTER_ANSICHT
1002
{
1000
Det03
1002
}
1001
AUSTER_FOLIE
1002
{
1000
NSB00990_S0_SPU_3POL
1002
}
  0
ARC
  5
5299
330
20
100
AcDbEntity
  8
11000_Left
  6
Continuous
 62
     7
370
    50
100
AcDbCircle
 39
0.5
 10
42.44170045219542
 20
201.4360056236934
 30
0.0
 40
200.0
100
AcDbArc
 50
0.0
 51
3.161000000000281
1001
AUSTER_ANSICHT
1002
{
1000
Det03
1002
}
1001
AUSTER_FOLIE
1002
{
1000
NSB00990_S0_SPU_3POL
1002
}
  0
ARC
  5
529A
330
20
100
AcDbEntity
  8
11000_Left
  6
Continuous
 62
     7
370
    50
100
AcDbCircle
 39
0.5
 10
241.6377004521954
 20
212.4360056236934
 30
0.0
 40
0.5
100
AcDbArc
 50
3.161000000000281
 51
90.0
1001
AUSTER_ANSICHT
1002
{
1000
Det03
1002
}
1001
AUSTER_FOLIE
1002
{
1000
NSB00990_S0_SPU_3POL
1002
}
  0
ARC
  5
529B
330
20
100
AcDbEntity
  8
11000_Left
  6
Continuous
 62
     7
370
    50
100
AcDbCircle
 39
0.5
 10
223.5627004521954
 20
212.4360056236934
 30
0.0
 40
1.5
100
AcDbArc
 50
90.0
 51
135.0
1001
AUSTER_ANSICHT
1002
{
1000
Det03
1002
}
1001
AUSTER_FOLIE
1002
{
1000
NSB00990_S0_SPU_3POL
1002
}
  0
ARC
  5
529C
330
20
100
AcDbEntity
  8
11000_Left
  6
Continuous
 62
     7
370
    50
100
AcDbCircle
 39
0.5
 10
238.3207004521954
 20
212.4360056236934
 30
0.0
 40
1.5
100
AcDbArc
 50
45.0
 51
90.0
1001
AUSTER_ANSICHT
1002
{
1000
Det03
1002
}
1001
AUSTER_FOLIE
1002
{
1000
NSB00990_S0_SPU_3POL
1002
}
  0
ARC
  5
529D
330
20
100
AcDbEntity
  8
11000_Left
  6
Continuous
 62
     7
370
    50
100
AcDbCircle
 39
0.5
 10
193.4417004521954
 20
212.4360056236934
 30
0.0
 40
0.5
100
AcDbArc
 50
90.0
 51
180.0
1001
AUSTER_ANSICHT
1002
{
1000
Det03
1002
}
1001
AUSTER_FOLIE
1002
{
1000
NSB00990_S0_SPU_3POL
1002
}
  0
ARC
  5
529E
330
20
100
AcDbEntity
  8
11000_Left
  6
Continuous
 62
     7
370
    50
100
AcDbCircle
 39
0.5
 10
241.9417004521954
 20
190.4360056236933
 30
0.0
 40
0.5
100
AcDbArc
 50
270.0
 51
0.0
1001
AUSTER_ANSICHT
1002
{
1000
Det03
1002
}
1001
AUSTER_FOLIE
1002
{
1000
NSB00990_S0_SPU_3POL
1002
}
  0
ARC
  5
529F
330
20
100
AcDbEntity
  8
11000_Left
  6
Continuous
 62
     7
370
    50
100
AcDbCircle
 39
0.5
 10
193.4417004521954
 20
190.4360056236933
 30
0.0
 40
0.5
100
AcDbArc
 50
180.0
 51
270.0
1001
AUSTER_ANSICHT
1002
{
1000
Det03
1002
}
1001
AUSTER_FOLIE
1002
{
1000
NSB00990_S0_SPU_3POL
1002
}
  0
ARC
  5
52A0
330
20
100
AcDbEntity
  8
10000_FRONT
  6
Continuous
 62
     7
370
    20
100
AcDbCircle
 39
0.25
 10
100.4317004521954
 20
200.7410056236933
 30
0.0
 40
2.496999999999998
100
AcDbArc
 50
16.19400000000003
 51
90.04600000000008
1001
AUSTER_ANSICHT
1002
{
1000
Det03
1002
}
1001
AUSTER_FOLIE
1002
{
1000
NSB00990_S0_SPU_3POL
1002
}
  0
ARC
  5
52A1
330
20
100
AcDbEntity
  8
10000_FRONT
  6
Continuous
 62
     7
370
    20
100
AcDbCircle
 39
0.25
 10
100.4317004521954
 20
200.7410056236933
 30
0.0
 40
2.496999999999998
100
AcDbArc
 50
90.04600000000008
 51
163.8319999999994
1001
AUSTER_ANSICHT
1002
{
1000
Det03
1002
}
1001
AUSTER_FOLIE
1002
{
1000
NSB00990_S0_SPU_3POL
1002
}
  0
ARC
  5
52A2
330
20
100
AcDbEntity
  8
10000_FRONT
  6
Continuous
 62
     7
370
    50
100
AcDbCircle
 39
0.5
 10
122.7297004521954
 20
190.1380056236933
 30
0.0
 40
0.2
100
AcDbArc
 50
270.0
 51
0.0
1001
AUSTER_ANSICHT
1002
{
1000
Det03
1002
}
1001
AUSTER_FOLIE
1002
{
1000
NSB00990_S0_SPU_3POL
1002
}
  0
ARC
  5
52A3
330
20
100
AcDbEntity
  8
10000_FRONT
  6
Continuous
 62
     7
370
    50
100
AcDbCircle
 39
0.5
 10
78.42970045219539
 20
212.4380056236934
 30
0.0
 40
0.5
100
AcDbArc
 50
90.0
 51
180.0
1001
AUSTER_ANSICHT
1002
{
1000
Det03
1002
}
1001
AUSTER_FOLIE
1002
{
1000
NSB00990_S0_SPU_3POL
1002
}
  0
ARC
  5
52A4
330
20
100
AcDbEntity
  8
10000_FRONT
  6
Continuous
 62
     7
370
    50
100
AcDbCircle
 39
0.5
 10
122.4297004521954
 20
212.4380056236934
 30
0.0
 40
0.5
100
AcDbArc
 50
0.0
 51
90.0
1001
AUSTER_ANSICHT
1002
{
1000
Det03
1002
}
1001
AUSTER_FOLIE
1002
{
1000
NSB00990_S0_SPU_3POL
1002
}
  0
ARC
  5
52A5
330
20
100
AcDbEntity
  8
10000_FRONT
  6
Continuous
 62
     7
370
    50
100
AcDbCircle
 39
0.5
 10
78.1297004521954
 20
190.1380056236933
 30
0.0
 40
0.2
100
AcDbArc
 50
180.0
 51
270.0
1001
AUSTER_ANSICHT
1002
{
1000
Det03
1002
}
1001
AUSTER_FOLIE
1002
{
1000
NSB00990_S0_SPU_3POL
1002
}
  0
CIRCLE
  5
52A6
330
20
100
AcDbEntity
  8
10000_FRONT
  6
Continuous
 62
     7
370
    20
100
AcDbCircle
 39
0.25
 10
116.9297004521954
 20
206.7380056236933
 30
0.0
 40
3.368999999999997
1001
AUSTER_ANSICHT
1002
{
1000
Det03
1002
}
1001
AUSTER_FOLIE
1002
{
1000
NSB00990_S0_SPU_3POL
1002
}
  0
ARC
  5
52A7
330
20
100
AcDbEntity
  8
10000_FRONT
  6
Continuous
 62
     7
370
    20
100
AcDbCircle
 39
0.25
 10
116.9297004521954
 20
206.7380056236933
 30
0.0
 40
2.85
100
AcDbArc
 50
167.7599999999991
 51
192.2400000000008
1001
AUSTER_ANSICHT
1002
{
1000
Det03
1002
}
1001
AUSTER_FOLIE
1002
{
1000
NSB00990_S0_SPU_3POL
1002
}
  0
ARC
  5
52A8
330
20
100
AcDbEntity
  8
10000_FRONT
  6
Continuous
 62
     7
370
    20
100
AcDbCircle
 39
0.25
 10
116.9297004521954
 20
206.7380056236933
 30
0.0
 40
1.85
100
AcDbArc
 50
253.8370000000004
 51
286.1629999999996
1001
AUSTER_ANSICHT
1002
{
1000
Det03
1002
}
1001
AUSTER_FOLIE
1002
{
1000
NSB00990_S0_SPU_3POL
1002
}
  0
ARC
  5
52A9
330
20
100
AcDbEntity
  8
10000_FRONT
  6
Continuous
 62
     7
370
    20
100
AcDbCircle
 39
0.25
 10
116.9297004521954
 20
206.7380056236933
 30
0.0
 40
1.85
100
AcDbArc
 50
73.83700000000041
 51
106.1629999999996
1001
AUSTER_ANSICHT
1002
{
1000
Det03
1002
}
1001
AUSTER_FOLIE
1002
{
1000
NSB00990_S0_SPU_3POL
1002
}
  0
ARC
  5
52AA
330
20
100
AcDbEntity
  8
10000_FRONT
  6
Continuous
 62
     7
370
    20
100
AcDbCircle
 39
0.25
 10
116.9297004521954
 20
206.7380056236933
 30
0.0
 40
2.85
100
AcDbArc
 50
347.7599999999991
 51
12.24000000000082
1001
AUSTER_ANSICHT
1002
{
1000
Det03
1002
}
1001
AUSTER_FOLIE
1002
{
1000
NSB00990_S0_SPU_3POL
1002
}
  0
CIRCLE
  5
52AB
330
20
100
AcDbEntity
  8
10000_FRONT
  6
Continuous
 62
     7
370
    20
100
AcDbCircle
 39
0.25
 10
83.9297004521954
 20
206.7380056236933
 30
0.0
 40
3.368999999999997
1001
AUSTER_ANSICHT
1002
{
1000
Det03
1002
}
1001
AUSTER_FOLIE
1002
{
1000
NSB00990_S0_SPU_3POL
1002
}
  0
ARC
  5
52AC
330
20
100
AcDbEntity
  8
10000_FRONT
  6
Continuous
 62
     7
370
    20
100
AcDbCircle
 39
0.25
 10
83.9297004521954
 20
206.7380056236933
 30
0.0
 40
2.85
100
AcDbArc
 50
347.7599999999991
 51
12.24000000000082
1001
AUSTER_ANSICHT
1002
{
1000
Det03
1002
}
1001
AUSTER_FOLIE
1002
{
1000
NSB00990_S0_SPU_3POL
1002
}
  0
ARC
  5
52AD
330
20
100
AcDbEntity
  8
10000_FRONT
  6
Continuous
 62
     7
370
    20
100
AcDbCircle
 39
0.25
 10
83.9297004521954
 20
206.7380056236933
 30
0.0
 40
1.85
100
AcDbArc
 50
253.8370000000004
 51
286.1629999999996
1001
AUSTER_ANSICHT
1002
{
1000
Det03
1002
}
1001
AUSTER_FOLIE
1002
{
1000
NSB00990_S0_SPU_3POL
1002
}
  0
ARC
  5
52AE
330
20
100
AcDbEntity
  8
10000_FRONT
  6
Continuous
 62
     7
370
    20
100
AcDbCircle
 39
0.25
 10
83.9297004521954
 20
206.7380056236933
 30
0.0
 40
1.85
100
AcDbArc
 50
73.83700000000041
 51
106.1629999999996
1001
AUSTER_ANSICHT
1002
{
1000
Det03
1002
}
1001
AUSTER_FOLIE
1002
{
1000
NSB00990_S0_SPU_3POL
1002
}
  0
ARC
  5
52AF
330
20
100
AcDbEntity
  8
10000_FRONT
  6
Continuous
 62
     7
370
    20
100
AcDbCircle
 39
0.25
 10
83.9297004521954
 20
206.7380056236933
 30
0.0
 40
2.85
100
AcDbArc
 50
167.7599999999991
 51
192.2400000000008
1001
AUSTER_ANSICHT
1002
{
1000
Det03
1002
}
1001
AUSTER_FOLIE
1002
{
1000
NSB00990_S0_SPU_3POL
1002
}
  0
ARC
  5
52B0
330
20
100
AcDbEntity
  8
10000_FRONT
  6
Continuous
 62
     7
370
    50
100
AcDbCircle
 39
0.5
 10
122.2297004521954
 20
213.6380056236934
 30
0.0
 40
0.3
100
AcDbArc
 50
90.0
 51
180.0
1001
AUSTER_ANSICHT
1002
{
1000
Det03
1002
}
1001
AUSTER_FOLIE
1002
{
1000
NSB00990_S0_SPU_3POL
1002
}
  0
ARC
  5
52B1
330
20
100
AcDbEntity
  8
10000_FRONT
  6
Continuous
 62
     7
370
    50
100
AcDbCircle
 39
0.5
 10
122.5297004521954
 20
213.5380056236933
 30
0.0
 40
0.4
100
AcDbArc
 50
0.0
 51
90.0
1001
AUSTER_ANSICHT
1002
{
1000
Det03
1002
}
1001
AUSTER_FOLIE
1002
{
1000
NSB00990_S0_SPU_3POL
1002
}
  0
ARC
  5
52B2
330
20
100
AcDbEntity
  8
10000_FRONT
  6
Continuous
 62
     7
370
    50
100
AcDbCircle
 39
0.5
 10
111.6297004521954
 20
213.6380056236934
 30
0.0
 40
0.3
100
AcDbArc
 50
0.0
 51
90.0
1001
AUSTER_ANSICHT
1002
{
1000
Det03
1002
}
1001
AUSTER_FOLIE
1002
{
1000
NSB00990_S0_SPU_3POL
1002
}
  0
ARC
  5
52B3
330
20
100
AcDbEntity
  8
10000_FRONT
  6
Continuous
 62
     7
370
    50
100
AcDbCircle
 39
0.5
 10
111.2297004521954
 20
213.6380056236934
 30
0.0
 40
0.3
100
AcDbArc
 50
90.0
 51
180.0
1001
AUSTER_ANSICHT
1002
{
1000
Det03
1002
}
1001
AUSTER_FOLIE
1002
{
1000
NSB00990_S0_SPU_3POL
1002
}
  0
ARC
  5
52B4
330
20
100
AcDbEntity
  8
10000_FRONT
  6
Continuous
 62
     7
370
    50
100
AcDbCircle
 39
0.5
 10
100.6297004521954
 20
213.6380056236934
 30
0.0
 40
0.3
100
AcDbArc
 50
0.0
 51
90.0
1001
AUSTER_ANSICHT
1002
{
1000
Det03
1002
}
1001
AUSTER_FOLIE
1002
{
1000
NSB00990_S0_SPU_3POL
1002
}
  0
ARC
  5
52B5
330
20
100
AcDbEntity
  8
10000_FRONT
  6
Continuous
 62
     7
370
    50
100
AcDbCircle
 39
0.5
 10
100.2297004521954
 20
213.6380056236934
 30
0.0
 40
0.3
100
AcDbArc
 50
90.0
 51
180.0
1001
AUSTER_ANSICHT
1002
{
1000
Det03
1002
}
1001
AUSTER_FOLIE
1002
{
1000
NSB00990_S0_SPU_3POL
1002
}
  0
ARC
  5
52B6
330
20
100
AcDbEntity
  8
10000_FRONT
  6
Continuous
 62
     7
370
    50
100
AcDbCircle
 39
0.5
 10
89.62970045219542
 20
213.6380056236934
 30
0.0
 40
0.3
100
AcDbArc
 50
0.0
 51
90.0
1001
AUSTER_ANSICHT
1002
{
1000
Det03
1002
}
1001
AUSTER_FOLIE
1002
{
1000
NSB00990_S0_SPU_3POL
1002
}
  0
ARC
  5
52B7
330
20
100
AcDbEntity
  8
10000_FRONT
  6
Continuous
 62
     7
370
    50
100
AcDbCircle
 39
0.5
 10
89.22970045219541
 20
213.6380056236934
 30
0.0
 40
0.3
100
AcDbArc
 50
90.0
 51
180.0
1001
AUSTER_ANSICHT
1002
{
1000
Det03
1002
}
1001
AUSTER_FOLIE
1002
{
1000
NSB00990_S0_SPU_3POL
1002
}
  0
ARC
  5
52B8
330
20
100
AcDbEntity
  8
10000_FRONT
  6
Continuous
 62
     7
370
    50
100
AcDbCircle
 39
0.5
 10
78.6297004521954
 20
213.6380056236934
 30
0.0
 40
0.3
100
AcDbArc
 50
0.0
 51
90.0
1001
AUSTER_ANSICHT
1002
{
1000
Det03
1002
}
1001
AUSTER_FOLIE
1002
{
1000
NSB00990_S0_SPU_3POL
1002
}
  0
ARC
  5
52B9
330
20
100
AcDbEntity
  8
10000_FRONT
  6
Continuous
 62
     7
370
    50
100
AcDbCircle
 39
0.5
 10
78.32970045219544
 20
213.5380056236933
 30
0.0
 40
0.4
100
AcDbArc
 50
90.0
 51
180.0
1001
AUSTER_ANSICHT
1002
{
1000
Det03
1002
}
1001
AUSTER_FOLIE
1002
{
1000
NSB00990_S0_SPU_3POL
1002
}
  0
ARC
  5
52BA
330
20
100
AcDbEntity
  8
10000_FRONT
  6
Continuous
 62
     7
370
    20
100
AcDbCircle
 39
0.25
 10
101.3497004521954
 20
199.7350056236933
 30
0.0
 40
1.0
100
AcDbArc
 50
270.0
 51
0.0
1001
AUSTER_ANSICHT
1002
{
1000
Det03
1002
}
1001
AUSTER_FOLIE
1002
{
1000
NSB00990_S0_SPU_3POL
1002
}
  0
ARC
  5
52BB
330
20
100
AcDbEntity
  8
10000_FRONT
  6
Continuous
 62
     7
370
    20
100
AcDbCircle
 39
0.25
 10
99.51370045219542
 20
199.7350056236933
 30
0.0
 40
1.0
100
AcDbArc
 50
180.0
 51
270.0
1001
AUSTER_ANSICHT
1002
{
1000
Det03
1002
}
1001
AUSTER_FOLIE
1002
{
1000
NSB00990_S0_SPU_3POL
1002
}
  0
ARC
  5
52BC
330
20
100
AcDbEntity
  8
10000_FRONT
  6
Continuous
 62
     7
370
    20
100
AcDbCircle
 39
0.25
 10
100.4317004521954
 20
200.7410056236933
 30
0.0
 40
1.996999999999996
100
AcDbArc
 50
16.17799999999953
 51
163.854000000001
1001
AUSTER_ANSICHT
1002
{
1000
Det03
1002
}
1001
AUSTER_FOLIE
1002
{
1000
NSB00990_S0_SPU_3POL
1002
}
  0
ARC
  5
52BD
330
20
100
AcDbEntity
  8
11000_Left
  6
DASHED
 62
     7
370
    13
100
AcDbCircle
 39
0.25
 10
208.4917004521954
 20
116.9380056236933
 30
0.0
 40
1.5
100
AcDbArc
 50
180.0
 51
270.0
1001
AUSTER_ANSICHT
1002
{
1000
Det03
1002
}
1001
AUSTER_FOLIE
1002
{
1000
NSB00990_S0_SPU_3POL
1002
}
  0
ARC
  5
52BE
330
20
100
AcDbEntity
  8
11000_Left
  6
DASHED
 62
     7
370
    13
100
AcDbCircle
 39
0.25
 10
174.4917004521954
 20
181.1370056236933
 30
0.0
 40
0.3
100
AcDbArc
 50
90.0
 51
180.0
1001
AUSTER_ANSICHT
1002
{
1000
Det03
1002
}
1001
AUSTER_FOLIE
1002
{
1000
NSB00990_S0_SPU_3POL
1002
}
  0
ARC
  5
52BF
330
20
100
AcDbEntity
  8
11000_Left
  6
DASHED
 62
     7
370
    13
100
AcDbCircle
 39
0.25
 10
184.4917004521954
 20
181.1370056236933
 30
0.0
 40
0.3
100
AcDbArc
 50
90.0
 51
180.0
1001
AUSTER_ANSICHT
1002
{
1000
Det03
1002
}
1001
AUSTER_FOLIE
1002
{
1000
NSB00990_S0_SPU_3POL
1002
}
  0
ARC
  5
52C0
330
20
100
AcDbEntity
  8
11000_Left
  6
DASHED
 62
     7
370
    13
100
AcDbCircle
 39
0.25
 10
24.9917004521954
 20
167.4380056236933
 30
0.0
 40
250.0
100
AcDbArc
 50
0.0
 51
2.874999999999188
1001
AUSTER_ANSICHT
1002
{
1000
Det03
1002
}
1001
AUSTER_FOLIE
1002
{
1000
NSB00990_S0_SPU_3POL
1002
}
  0
ARC
  5
52C1
330
20
100
AcDbEntity
  8
11000_Left
  6
DASHED
 62
     7
370
    13
100
AcDbCircle
 39
0.25
 10
268.4917004521954
 20
113.3380056236933
 30
0.0
 40
1.5
100
AcDbArc
 50
270.0
 51
0.0
1001
AUSTER_ANSICHT
1002
{
1000
Det03
1002
}
1001
AUSTER_FOLIE
1002
{
1000
NSB00990_S0_SPU_3POL
1002
}
  0
ARC
  5
52C2
330
20
100
AcDbEntity
  8
11000_Left
  6
DASHED
 62
     7
370
    13
100
AcDbCircle
 39
0.25
 10
268.4917004521954
 20
182.4380056236933
 30
0.0
 40
1.5
100
AcDbArc
 50
0.0
 51
90.0
1001
AUSTER_ANSICHT
1002
{
1000
Det03
1002
}
1001
AUSTER_FOLIE
1002
{
1000
NSB00990_S0_SPU_3POL
1002
}
  0
LINE
  5
52C3
330
20
100
AcDbEntity
  8
11000_Left
  6
DASHED
 62
     7
370
    13
100
AcDbLine
 39
0.25
 10
184.9917004521954
 20
168.8880056236933
 30
0.0
 11
184.9917004521954
 21
182.4380056236933
 31
0.0
1001
AUSTER_ANSICHT
1002
{
1000
Det03
1002
}
1001
AUSTER_FOLIE
1002
{
1000
NSB00990_S0_SPU_3POL
1002
}
  0
LINE
  5
52C4
330
20
100
AcDbEntity
  8
11000_Left
  6
DASHED
 62
     7
370
    13
100
AcDbLine
 39
0.25
 10
184.1917004521954
 20
174.7400056236933
 30
0.0
 11
184.1917004521954
 21
181.1370056236933
 31
0.0
1001
AUSTER_ANSICHT
1002
{
1000
Det03
1002
}
1001
AUSTER_FOLIE
1002
{
1000
NSB00990_S0_SPU_3POL
1002
}
  0
LINE
  5
52C5
330
20
100
AcDbEntity
  8
11000_Left
  6
DASHED
 62
     7
370
    13
100
AcDbLine
 39
0.25
 10
239.6917004521954
 20
166.4380056236933
 30
0.0
 11
239.6917004521954
 21
172.4380056236933
 31
0.0
1001
AUSTER_ANSICHT
1002
{
1000
Det03
1002
}
1001
AUSTER_FOLIE
1002
{
1000
NSB00990_S0_SPU_3POL
1002
}
  0
LINE
  5
52C6
330
20
100
AcDbEntity
  8
11000_Left
  6
DASHED
 62
     7
370
    13
100
AcDbLine
 39
0.25
 10
246.1917004521954
 20
166.4380056236933
 30
0.0
 11
239.6917004521954
 21
166.4380056236933
 31
0.0
1001
AUSTER_ANSICHT
1002
{
1000
Det03
1002
}
1001
AUSTER_FOLIE
1002
{
1000
NSB00990_S0_SPU_3POL
1002
}
  0
LINE
  5
52C7
330
20
100
AcDbEntity
  8
11000_Left
  6
DASHED
 62
     7
370
    13
100
AcDbLine
 39
0.25
 10
246.1917004521954
 20
172.4380056236933
 30
0.0
 11
246.1917004521954
 21
166.4380056236933
 31
0.0
1001
AUSTER_ANSICHT
1002
{
1000
Det03
1002
}
1001
AUSTER_FOLIE
1002
{
1000
NSB00990_S0_SPU_3POL
1002
}
  0
LINE
  5
52C8
330
20
100
AcDbEntity
  8
11000_Left
  6
DASHED
 62
     7
370
    13
100
AcDbLine
 39
0.25
 10
239.6917004521954
 20
172.4380056236933
 30
0.0
 11
246.1917004521954
 21
172.4380056236933
 31
0.0
1001
AUSTER_ANSICHT
1002
{
1000
Det03
1002
}
1001
AUSTER_FOLIE
1002
{
1000
NSB00990_S0_SPU_3POL
1002
}
  0
LINE
  5
52C9
330
20
100
AcDbEntity
  8
11000_Left
  6
DASHED
 62
     7
370
    13
100
AcDbLine
 39
0.25
 10
236.9917004521954
 20
161.2370056236933
 30
0.0
 11
236.9917004521954
 21
180.9380056236933
 31
0.0
1001
AUSTER_ANSICHT
1002
{
1000
Det03
1002
}
1001
AUSTER_FOLIE
1002
{
1000
NSB00990_S0_SPU_3POL
1002
}
  0
LINE
  5
52CA
330
20
100
AcDbEntity
  8
11000_Left
  6
DASHED
 62
     7
370
    13
100
AcDbLine
 39
0.25
 10
236.9917004521954
 20
114.9380056236933
 30
0.0
 11
236.9917004521954
 21
161.2370056236933
 31
0.0
1001
AUSTER_ANSICHT
1002
{
1000
Det03
1002
}
1001
AUSTER_FOLIE
1002
{
1000
NSB00990_S0_SPU_3POL
1002
}
  0
LINE
  5
52CB
330
20
100
AcDbEntity
  8
11000_Left
  6
DASHED
 62
     7
370
    13
100
AcDbLine
 39
0.25
 10
239.6917004521954
 20
129.4380056236933
 30
0.0
 11
239.6917004521954
 21
123.4380056236933
 31
0.0
1001
AUSTER_ANSICHT
1002
{
1000
Det03
1002
}
1001
AUSTER_FOLIE
1002
{
1000
NSB00990_S0_SPU_3POL
1002
}
  0
LINE
  5
52CC
330
20
100
AcDbEntity
  8
11000_Left
  6
DASHED
 62
     7
370
    13
100
AcDbLine
 39
0.25
 10
246.1917004521954
 20
129.4380056236933
 30
0.0
 11
239.6917004521954
 21
129.4380056236933
 31
0.0
1001
AUSTER_ANSICHT
1002
{
1000
Det03
1002
}
1001
AUSTER_FOLIE
1002
{
1000
NSB00990_S0_SPU_3POL
1002
}
  0
LINE
  5
52CD
330
20
100
AcDbEntity
  8
11000_Left
  6
DASHED
 62
     7
370
    13
100
AcDbLine
 39
0.25
 10
246.1917004521954
 20
123.4380056236933
 30
0.0
 11
246.1917004521954
 21
129.4380056236933
 31
0.0
1001
AUSTER_ANSICHT
1002
{
1000
Det03
1002
}
1001
AUSTER_FOLIE
1002
{
1000
NSB00990_S0_SPU_3POL
1002
}
  0
LINE
  5
52CE
330
20
100
AcDbEntity
  8
11000_Left
  6
DASHED
 62
     7
370
    13
100
AcDbLine
 39
0.25
 10
239.6917004521954
 20
123.4380056236933
 30
0.0
 11
246.1917004521954
 21
123.4380056236933
 31
0.0
1001
AUSTER_ANSICHT
1002
{
1000
Det03
1002
}
1001
AUSTER_FOLIE
1002
{
1000
NSB00990_S0_SPU_3POL
1002
}
  0
LINE
  5
52CF
330
20
100
AcDbEntity
  8
11000_Left
  6
DASHED
 62
     7
370
    13
100
AcDbLine
 39
0.25
 10
208.4917004521954
 20
115.4380056236933
 30
0.0
 11
191.6917004521954
 21
115.4380056236933
 31
0.0
1001
AUSTER_ANSICHT
1002
{
1000
Det03
1002
}
1001
AUSTER_FOLIE
1002
{
1000
NSB00990_S0_SPU_3POL
1002
}
  0
LINE
  5
52D0
330
20
100
AcDbEntity
  8
11000_Left
  6
DASHED
 62
     7
370
    13
100
AcDbLine
 39
0.25
 10
218.8917004521954
 20
115.4380056236933
 30
0.0
 11
205.7917004521954
 21
115.4380056236933
 31
0.0
1001
AUSTER_ANSICHT
1002
{
1000
Det03
1002
}
1001
AUSTER_FOLIE
1002
{
1000
NSB00990_S0_SPU_3POL
1002
}
  0
LINE
  5
52D1
330
20
100
AcDbEntity
  8
11000_Left
  6
DASHED
 62
     7
370
    13
100
AcDbLine
 39
0.25
 10
235.4917004521954
 20
114.9380056236933
 30
0.0
 11
234.9917004521954
 21
114.4380056236933
 31
0.0
1001
AUSTER_ANSICHT
1002
{
1000
Det03
1002
}
1001
AUSTER_FOLIE
1002
{
1000
NSB00990_S0_SPU_3POL
1002
}
  0
LINE
  5
52D2
330
20
100
AcDbEntity
  8
11000_Left
  6
DASHED
 62
     7
370
    13
100
AcDbLine
 39
0.25
 10
236.9917004521954
 20
114.9380056236933
 30
0.0
 11
235.4917004521954
 21
114.9380056236933
 31
0.0
1001
AUSTER_ANSICHT
1002
{
1000
Det03
1002
}
1001
AUSTER_FOLIE
1002
{
1000
NSB00990_S0_SPU_3POL
1002
}
  0
LINE
  5
52D3
330
20
100
AcDbEntity
  8
11000_Left
  6
DASHED
 62
     7
370
    13
100
AcDbLine
 39
0.25
 10
208.4917004521954
 20
115.4380056236933
 30
0.0
 11
236.9917004521954
 21
115.4380056236933
 31
0.0
1001
AUSTER_ANSICHT
1002
{
1000
Det03
1002
}
1001
AUSTER_FOLIE
1002
{
1000
NSB00990_S0_SPU_3POL
1002
}
  0
LINE
  5
52D4
330
20
100
AcDbEntity
  8
11000_Left
  6
DASHED
 62
     7
370
    13
100
AcDbLine
 39
0.25
 10
236.9917004521954
 20
111.9390056236933
 30
0.0
 11
236.9917004521954
 21
109.4380056236933
 31
0.0
1001
AUSTER_ANSICHT
1002
{
1000
Det03
1002
}
1001
AUSTER_FOLIE
1002
{
1000
NSB00990_S0_SPU_3POL
1002
}
  0
LINE
  5
52D5
330
20
100
AcDbEntity
  8
11000_Left
  6
DASHED
 62
     7
370
    13
100
AcDbLine
 39
0.25
 10
235.4917004521954
 20
107.9380056236933
 30
0.0
 11
219.3917004521954
 21
107.9380056236933
 31
0.0
1001
AUSTER_ANSICHT
1002
{
1000
Det03
1002
}
1001
AUSTER_FOLIE
1002
{
1000
NSB00990_S0_SPU_3POL
1002
}
  0
LINE
  5
52D6
330
20
100
AcDbEntity
  8
11000_Left
  6
DASHED
 62
     7
370
    13
100
AcDbLine
 39
0.25
 10
217.8917004521954
 20
109.4380056236933
 30
0.0
 11
217.8917004521954
 21
115.4380056236933
 31
0.0
1001
AUSTER_ANSICHT
1002
{
1000
Det03
1002
}
1001
AUSTER_FOLIE
1002
{
1000
NSB00990_S0_SPU_3POL
1002
}
  0
LINE
  5
52D7
330
20
100
AcDbEntity
  8
11000_Left
  6
DASHED
 62
     7
370
    13
100
AcDbLine
 39
0.25
 10
217.8917004521954
 20
111.9380056236933
 30
0.0
 11
213.3917004521954
 21
111.9380056236933
 31
0.0
1001
AUSTER_ANSICHT
1002
{
1000
Det03
1002
}
1001
AUSTER_FOLIE
1002
{
1000
NSB00990_S0_SPU_3POL
1002
}
  0
LINE
  5
52D8
330
20
100
AcDbEntity
  8
11000_Left
  6
DASHED
 62
     7
370
    13
100
AcDbLine
 39
0.25
 10
211.8917004521954
 20
113.4380056236933
 30
0.0
 11
211.8917004521954
 21
115.4380056236933
 31
0.0
1001
AUSTER_ANSICHT
1002
{
1000
Det03
1002
}
1001
AUSTER_FOLIE
1002
{
1000
NSB00990_S0_SPU_3POL
1002
}
  0
LINE
  5
52D9
330
20
100
AcDbEntity
  8
11000_Left
  6
DASHED
 62
     7
370
    13
100
AcDbLine
 39
0.25
 10
241.8917004521954
 20
107.9380056236933
 30
0.0
 11
241.8917004521954
 21
111.9380056236933
 31
0.0
1001
AUSTER_ANSICHT
1002
{
1000
Det03
1002
}
1001
AUSTER_FOLIE
1002
{
1000
NSB00990_S0_SPU_3POL
1002
}
  0
LINE
  5
52DA
330
20
100
AcDbEntity
  8
11000_Left
  6
DASHED
 62
     7
370
    13
100
AcDbLine
 39
0.25
 10
235.8667004521954
 20
107.9380056236933
 30
0.0
 11
241.8917004521954
 21
107.9380056236933
 31
0.0
1001
AUSTER_ANSICHT
1002
{
1000
Det03
1002
}
1001
AUSTER_FOLIE
1002
{
1000
NSB00990_S0_SPU_3POL
1002
}
  0
LINE
  5
52DB
330
20
100
AcDbEntity
  8
11000_Left
  6
DASHED
 62
     7
370
    13
100
AcDbLine
 39
0.25
 10
218.4917004521954
 20
116.2880056236933
 30
0.0
 11
209.5917004521954
 21
116.2880056236933
 31
0.0
1001
AUSTER_ANSICHT
1002
{
1000
Det03
1002
}
1001
AUSTER_FOLIE
1002
{
1000
NSB00990_S0_SPU_3POL
1002
}
  0
LINE
  5
52DC
330
20
100
AcDbEntity
  8
11000_Left
  6
DASHED
 62
     7
370
    13
100
AcDbLine
 39
0.25
 10
218.4917004521954
 20
120.8380056236933
 30
0.0
 11
218.4917004521954
 21
116.2880056236933
 31
0.0
1001
AUSTER_ANSICHT
1002
{
1000
Det03
1002
}
1001
AUSTER_FOLIE
1002
{
1000
NSB00990_S0_SPU_3POL
1002
}
  0
LINE
  5
52DD
330
20
100
AcDbEntity
  8
11000_Left
  6
DASHED
 62
     7
370
    13
100
AcDbLine
 39
0.25
 10
209.5917004521954
 20
120.8380056236933
 30
0.0
 11
218.4917004521954
 21
120.8380056236933
 31
0.0
1001
AUSTER_ANSICHT
1002
{
1000
Det03
1002
}
1001
AUSTER_FOLIE
1002
{
1000
NSB00990_S0_SPU_3POL
1002
}
  0
LINE
  5
52DE
330
20
100
AcDbEntity
  8
11000_Left
  6
DASHED
 62
     7
370
    13
100
AcDbLine
 39
0.25
 10
209.5917004521954
 20
116.2880056236933
 30
0.0
 11
209.5917004521954
 21
120.8380056236933
 31
0.0
1001
AUSTER_ANSICHT
1002
{
1000
Det03
1002
}
1001
AUSTER_FOLIE
1002
{
1000
NSB00990_S0_SPU_3POL
1002
}
  0
LINE
  5
52DF
330
20
100
AcDbEntity
  8
11000_Left
  6
DASHED
 62
     7
370
    13
100
AcDbLine
 39
0.25
 10
234.9917004521954
 20
114.4380056236933
 30
0.0
 11
234.9917004521954
 21
112.7380056236933
 31
0.0
1001
AUSTER_ANSICHT
1002
{
1000
Det03
1002
}
1001
AUSTER_FOLIE
1002
{
1000
NSB00990_S0_SPU_3POL
1002
}
  0
LINE
  5
52E0
330
20
100
AcDbEntity
  8
11000_Left
  6
DASHED
 62
     7
370
    13
100
AcDbLine
 39
0.25
 10
191.6917004521954
 20
121.1380056236933
 30
0.0
 11
205.9917004521954
 21
121.1380056236933
 31
0.0
1001
AUSTER_ANSICHT
1002
{
1000
Det03
1002
}
1001
AUSTER_FOLIE
1002
{
1000
NSB00990_S0_SPU_3POL
1002
}
  0
LINE
  5
52E1
330
20
100
AcDbEntity
  8
11000_Left
  6
DASHED
 62
     7
370
    13
100
AcDbLine
 39
0.25
 10
219.8917004521954
 20
107.9380056236933
 30
0.0
 11
233.3917004521954
 21
107.9380056236933
 31
0.0
1001
AUSTER_ANSICHT
1002
{
1000
Det03
1002
}
1001
AUSTER_FOLIE
1002
{
1000
NSB00990_S0_SPU_3POL
1002
}
  0
LINE
  5
52E2
330
20
100
AcDbEntity
  8
11000_Left
  6
DASHED
 62
     7
370
    13
100
AcDbLine
 39
0.25
 10
175.7517004521954
 20
111.9380056236933
 30
0.0
 11
185.7517004521954
 21
111.9380056236933
 31
0.0
1001
AUSTER_ANSICHT
1002
{
1000
Det03
1002
}
1001
AUSTER_FOLIE
1002
{
1000
NSB00990_S0_SPU_3POL
1002
}
  0
LINE
  5
52E3
330
20
100
AcDbEntity
  8
11000_Left
  6
DASHED
 62
     7
370
    13
100
AcDbLine
 39
0.25
 10
191.6917004521954
 20
121.1380056236933
 30
0.0
 11
191.6917004521954
 21
112.3380056236933
 31
0.0
1001
AUSTER_ANSICHT
1002
{
1000
Det03
1002
}
1001
AUSTER_FOLIE
1002
{
1000
NSB00990_S0_SPU_3POL
1002
}
  0
LINE
  5
52E4
330
20
100
AcDbEntity
  8
11000_Left
  6
DASHED
 62
     7
370
    13
100
AcDbLine
 39
0.25
 10
185.7517004521954
 20
111.9380056236933
 30
0.0
 11
191.2917004521954
 21
111.9380056236933
 31
0.0
1001
AUSTER_ANSICHT
1002
{
1000
Det03
1002
}
1001
AUSTER_FOLIE
1002
{
1000
NSB00990_S0_SPU_3POL
1002
}
  0
LINE
  5
52E5
330
20
100
AcDbEntity
  8
11000_Left
  6
DASHED
 62
     7
370
    13
100
AcDbLine
 39
0.25
 10
184.9917004521954
 20
121.9380056236933
 30
0.0
 11
184.4917004521954
 21
121.9380056236933
 31
0.0
1001
AUSTER_ANSICHT
1002
{
1000
Det03
1002
}
1001
AUSTER_FOLIE
1002
{
1000
NSB00990_S0_SPU_3POL
1002
}
  0
LINE
  5
52E6
330
20
100
AcDbEntity
  8
11000_Left
  6
DASHED
 62
     7
370
    13
100
AcDbLine
 39
0.25
 10
184.9917004521954
 20
113.9380056236933
 30
0.0
 11
184.4917004521954
 21
113.9380056236933
 31
0.0
1001
AUSTER_ANSICHT
1002
{
1000
Det03
1002
}
1001
AUSTER_FOLIE
1002
{
1000
NSB00990_S0_SPU_3POL
1002
}
  0
LINE
  5
52E7
330
20
100
AcDbEntity
  8
11000_Left
  6
DASHED
 62
     7
370
    13
100
AcDbLine
 39
0.25
 10
184.1917004521954
 20
121.6380056236933
 30
0.0
 11
184.1917004521954
 21
114.2380056236933
 31
0.0
1001
AUSTER_ANSICHT
1002
{
1000
Det03
1002
}
1001
AUSTER_FOLIE
1002
{
1000
NSB00990_S0_SPU_3POL
1002
}
  0
LINE
  5
52E8
330
20
100
AcDbEntity
  8
11000_Left
  6
DASHED
 62
     7
370
    13
100
AcDbLine
 39
0.25
 10
184.9917004521954
 20
112.6980056236933
 30
0.0
 11
184.9917004521954
 21
128.3880056236933
 31
0.0
1001
AUSTER_ANSICHT
1002
{
1000
Det03
1002
}
1001
AUSTER_FOLIE
1002
{
1000
NSB00990_S0_SPU_3POL
1002
}
  0
LINE
  5
52E9
330
20
100
AcDbEntity
  8
11000_Left
  6
DASHED
 62
     7
370
    13
100
AcDbLine
 39
0.25
 10
189.2917004521954
 20
128.3880056236933
 30
0.0
 11
184.9917004521954
 21
128.3880056236933
 31
0.0
1001
AUSTER_ANSICHT
1002
{
1000
Det03
1002
}
1001
AUSTER_FOLIE
1002
{
1000
NSB00990_S0_SPU_3POL
1002
}
  0
LINE
  5
52EA
330
20
100
AcDbEntity
  8
11000_Left
  6
DASHED
 62
     7
370
    13
100
AcDbLine
 39
0.25
 10
187.4237004521954
 20
131.3880056236933
 30
0.0
 11
184.9917004521954
 21
128.3880056236933
 31
0.0
1001
AUSTER_ANSICHT
1002
{
1000
Det03
1002
}
1001
AUSTER_FOLIE
1002
{
1000
NSB00990_S0_SPU_3POL
1002
}
  0
LINE
  5
52EB
330
20
100
AcDbEntity
  8
11000_Left
  6
DASHED
 62
     7
370
    13
100
AcDbLine
 39
0.25
 10
187.4237004521954
 20
131.3880056236933
 30
0.0
 11
187.9237004521954
 21
131.3880056236933
 31
0.0
1001
AUSTER_ANSICHT
1002
{
1000
Det03
1002
}
1001
AUSTER_FOLIE
1002
{
1000
NSB00990_S0_SPU_3POL
1002
}
  0
LINE
  5
52EC
330
20
100
AcDbEntity
  8
11000_Left
  6
DASHED
 62
     7
370
    13
100
AcDbLine
 39
0.25
 10
187.9237004521954
 20
131.3880056236933
 30
0.0
 11
188.1917004521954
 21
130.3880056236933
 31
0.0
1001
AUSTER_ANSICHT
1002
{
1000
Det03
1002
}
1001
AUSTER_FOLIE
1002
{
1000
NSB00990_S0_SPU_3POL
1002
}
  0
LINE
  5
52ED
330
20
100
AcDbEntity
  8
11000_Left
  6
DASHED
 62
     7
370
    13
100
AcDbLine
 39
0.25
 10
188.1917004521954
 20
130.3880056236933
 30
0.0
 11
189.2917004521954
 21
130.3880056236933
 31
0.0
1001
AUSTER_ANSICHT
1002
{
1000
Det03
1002
}
1001
AUSTER_FOLIE
1002
{
1000
NSB00990_S0_SPU_3POL
1002
}
  0
LINE
  5
52EE
330
20
100
AcDbEntity
  8
11000_Left
  6
DASHED
 62
     7
370
    13
100
AcDbLine
 39
0.25
 10
189.2917004521954
 20
168.8880056236933
 30
0.0
 11
189.2917004521954
 21
128.3880056236933
 31
0.0
1001
AUSTER_ANSICHT
1002
{
1000
Det03
1002
}
1001
AUSTER_FOLIE
1002
{
1000
NSB00990_S0_SPU_3POL
1002
}
  0
LINE
  5
52EF
330
20
100
AcDbEntity
  8
11000_Left
  6
DASHED
 62
     7
370
    13
100
AcDbLine
 39
0.25
 10
188.0917004521954
 20
164.6020056236933
 30
0.0
 11
188.2917004521954
 21
164.8880056236933
 31
0.0
1001
AUSTER_ANSICHT
1002
{
1000
Det03
1002
}
1001
AUSTER_FOLIE
1002
{
1000
NSB00990_S0_SPU_3POL
1002
}
  0
LINE
  5
52F0
330
20
100
AcDbEntity
  8
11000_Left
  6
DASHED
 62
     7
370
    13
100
AcDbLine
 39
0.25
 10
188.2917004521954
 20
165.8880056236933
 30
0.0
 11
188.0917004521954
 21
166.2340056236933
 31
0.0
1001
AUSTER_ANSICHT
1002
{
1000
Det03
1002
}
1001
AUSTER_FOLIE
1002
{
1000
NSB00990_S0_SPU_3POL
1002
}
  0
LINE
  5
52F1
330
20
100
AcDbEntity
  8
11000_Left
  6
DASHED
 62
     7
370
    13
100
AcDbLine
 39
0.25
 10
188.2917004521954
 20
164.8880056236933
 30
0.0
 11
188.2917004521954
 21
165.8880056236933
 31
0.0
1001
AUSTER_ANSICHT
1002
{
1000
Det03
1002
}
1001
AUSTER_FOLIE
1002
{
1000
NSB00990_S0_SPU_3POL
1002
}
  0
LINE
  5
52F2
330
20
100
AcDbEntity
  8
11000_Left
  6
DASHED
 62
     7
370
    13
100
AcDbLine
 39
0.25
 10
186.6917004521954
 20
163.8880056236933
 30
0.0
 11
185.2917004521954
 21
168.8880056236933
 31
0.0
1001
AUSTER_ANSICHT
1002
{
1000
Det03
1002
}
1001
AUSTER_FOLIE
1002
{
1000
NSB00990_S0_SPU_3POL
1002
}
  0
LINE
  5
52F3
330
20
100
AcDbEntity
  8
11000_Left
  6
DASHED
 62
     7
370
    13
100
AcDbLine
 39
0.25
 10
187.5917004521954
 20
163.8880056236933
 30
0.0
 11
186.6917004521954
 21
163.8880056236933
 31
0.0
1001
AUSTER_ANSICHT
1002
{
1000
Det03
1002
}
1001
AUSTER_FOLIE
1002
{
1000
NSB00990_S0_SPU_3POL
1002
}
  0
LINE
  5
52F4
330
20
100
AcDbEntity
  8
11000_Left
  6
DASHED
 62
     7
370
    13
100
AcDbLine
 39
0.25
 10
188.0917004521954
 20
164.6020056236933
 30
0.0
 11
187.5917004521954
 21
163.8880056236933
 31
0.0
1001
AUSTER_ANSICHT
1002
{
1000
Det03
1002
}
1001
AUSTER_FOLIE
1002
{
1000
NSB00990_S0_SPU_3POL
1002
}
  0
LINE
  5
52F5
330
20
100
AcDbEntity
  8
11000_Left
  6
DASHED
 62
     7
370
    13
100
AcDbLine
 39
0.25
 10
188.0917004521954
 20
164.6020056236933
 30
0.0
 11
188.0917004521954
 21
168.8880056236933
 31
0.0
1001
AUSTER_ANSICHT
1002
{
1000
Det03
1002
}
1001
AUSTER_FOLIE
1002
{
1000
NSB00990_S0_SPU_3POL
1002
}
  0
LINE
  5
52F6
330
20
100
AcDbEntity
  8
11000_Left
  6
DASHED
 62
     7
370
    13
100
AcDbLine
 39
0.25
 10
184.4917004521954
 20
174.4380056236933
 30
0.0
 11
184.9917004521954
 21
174.4380056236933
 31
0.0
1001
AUSTER_ANSICHT
1002
{
1000
Det03
1002
}
1001
AUSTER_FOLIE
1002
{
1000
NSB00990_S0_SPU_3POL
1002
}
  0
LINE
  5
52F7
330
20
100
AcDbEntity
  8
11000_Left
  6
DASHED
 62
     7
370
    13
100
AcDbLine
 39
0.25
 10
184.9917004521954
 20
168.8880056236933
 30
0.0
 11
189.2917004521954
 21
168.8880056236933
 31
0.0
1001
AUSTER_ANSICHT
1002
{
1000
Det03
1002
}
1001
AUSTER_FOLIE
1002
{
1000
NSB00990_S0_SPU_3POL
1002
}
  0
LINE
  5
52F8
330
20
100
AcDbEntity
  8
11000_Left
  6
DASHED
 62
     7
370
    13
100
AcDbLine
 39
0.25
 10
174.9917004521954
 20
121.9380056236933
 30
0.0
 11
174.4917004521954
 21
121.9380056236933
 31
0.0
1001
AUSTER_ANSICHT
1002
{
1000
Det03
1002
}
1001
AUSTER_FOLIE
1002
{
1000
NSB00990_S0_SPU_3POL
1002
}
  0
LINE
  5
52F9
330
20
100
AcDbEntity
  8
11000_Left
  6
DASHED
 62
     7
370
    13
100
AcDbLine
 39
0.25
 10
174.9917004521954
 20
113.9380056236933
 30
0.0
 11
174.4917004521954
 21
113.9380056236933
 31
0.0
1001
AUSTER_ANSICHT
1002
{
1000
Det03
1002
}
1001
AUSTER_FOLIE
1002
{
1000
NSB00990_S0_SPU_3POL
1002
}
  0
LINE
  5
52FA
330
20
100
AcDbEntity
  8
11000_Left
  6
DASHED
 62
     7
370
    13
100
AcDbLine
 39
0.25
 10
174.1917004521954
 20
121.6380056236933
 30
0.0
 11
174.1917004521954
 21
114.2380056236933
 31
0.0
1001
AUSTER_ANSICHT
1002
{
1000
Det03
1002
}
1001
AUSTER_FOLIE
1002
{
1000
NSB00990_S0_SPU_3POL
1002
}
  0
LINE
  5
52FB
330
20
100
AcDbEntity
  8
11000_Left
  6
DASHED
 62
     7
370
    13
100
AcDbLine
 39
0.25
 10
174.9917004521954
 20
112.6980056236933
 30
0.0
 11
174.9917004521954
 21
128.3880056236933
 31
0.0
1001
AUSTER_ANSICHT
1002
{
1000
Det03
1002
}
1001
AUSTER_FOLIE
1002
{
1000
NSB00990_S0_SPU_3POL
1002
}
  0
LINE
  5
52FC
330
20
100
AcDbEntity
  8
11000_Left
  6
DASHED
 62
     7
370
    13
100
AcDbLine
 39
0.25
 10
179.2917004521954
 20
128.3880056236933
 30
0.0
 11
174.9917004521954
 21
128.3880056236933
 31
0.0
1001
AUSTER_ANSICHT
1002
{
1000
Det03
1002
}
1001
AUSTER_FOLIE
1002
{
1000
NSB00990_S0_SPU_3POL
1002
}
  0
LINE
  5
52FD
330
20
100
AcDbEntity
  8
11000_Left
  6
DASHED
 62
     7
370
    13
100
AcDbLine
 39
0.25
 10
176.6917004521954
 20
163.8880056236933
 30
0.0
 11
175.2917004521954
 21
168.8880056236933
 31
0.0
1001
AUSTER_ANSICHT
1002
{
1000
Det03
1002
}
1001
AUSTER_FOLIE
1002
{
1000
NSB00990_S0_SPU_3POL
1002
}
  0
LINE
  5
52FE
330
20
100
AcDbEntity
  8
11000_Left
  6
DASHED
 62
     7
370
    13
100
AcDbLine
 39
0.25
 10
177.5917004521954
 20
163.8880056236933
 30
0.0
 11
176.6917004521954
 21
163.8880056236933
 31
0.0
1001
AUSTER_ANSICHT
1002
{
1000
Det03
1002
}
1001
AUSTER_FOLIE
1002
{
1000
NSB00990_S0_SPU_3POL
1002
}
  0
LINE
  5
52FF
330
20
100
AcDbEntity
  8
11000_Left
  6
DASHED
 62
     7
370
    13
100
AcDbLine
 39
0.25
 10
178.0917004521954
 20
164.6020056236933
 30
0.0
 11
177.5917004521954
 21
163.8880056236933
 31
0.0
1001
AUSTER_ANSICHT
1002
{
1000
Det03
1002
}
1001
AUSTER_FOLIE
1002
{
1000
NSB00990_S0_SPU_3POL
1002
}
  0
LINE
  5
5300
330
20
100
AcDbEntity
  8
11000_Left
  6
DASHED
 62
     7
370
    13
100
AcDbLine
 39
0.25
 10
177.4237004521954
 20
131.3880056236933
 30
0.0
 11
174.9917004521954
 21
128.3880056236933
 31
0.0
1001
AUSTER_ANSICHT
1002
{
1000
Det03
1002
}
1001
AUSTER_FOLIE
1002
{
1000
NSB00990_S0_SPU_3POL
1002
}
  0
LINE
  5
5301
330
20
100
AcDbEntity
  8
11000_Left
  6
DASHED
 62
     7
370
    13
100
AcDbLine
 39
0.25
 10
177.4237004521954
 20
131.3880056236933
 30
0.0
 11
177.9237004521954
 21
131.3880056236933
 31
0.0
1001
AUSTER_ANSICHT
1002
{
1000
Det03
1002
}
1001
AUSTER_FOLIE
1002
{
1000
NSB00990_S0_SPU_3POL
1002
}
  0
LINE
  5
5302
330
20
100
AcDbEntity
  8
11000_Left
  6
DASHED
 62
     7
370
    13
100
AcDbLine
 39
0.25
 10
177.9237004521954
 20
131.3880056236933
 30
0.0
 11
178.1917004521954
 21
130.3880056236933
 31
0.0
1001
AUSTER_ANSICHT
1002
{
1000
Det03
1002
}
1001
AUSTER_FOLIE
1002
{
1000
NSB00990_S0_SPU_3POL
1002
}
  0
LINE
  5
5303
330
20
100
AcDbEntity
  8
11000_Left
  6
DASHED
 62
     7
370
    13
100
AcDbLine
 39
0.25
 10
178.1917004521954
 20
130.3880056236933
 30
0.0
 11
179.2917004521954
 21
130.3880056236933
 31
0.0
1001
AUSTER_ANSICHT
1002
{
1000
Det03
1002
}
1001
AUSTER_FOLIE
1002
{
1000
NSB00990_S0_SPU_3POL
1002
}
  0
LINE
  5
5304
330
20
100
AcDbEntity
  8
11000_Left
  6
DASHED
 62
     7
370
    13
100
AcDbLine
 39
0.25
 10
179.2917004521954
 20
168.8880056236933
 30
0.0
 11
179.2917004521954
 21
128.3880056236933
 31
0.0
1001
AUSTER_ANSICHT
1002
{
1000
Det03
1002
}
1001
AUSTER_FOLIE
1002
{
1000
NSB00990_S0_SPU_3POL
1002
}
  0
LINE
  5
5305
330
20
100
AcDbEntity
  8
11000_Left
  6
DASHED
 62
     7
370
    13
100
AcDbLine
 39
0.25
 10
174.9917004521954
 20
182.4380056236933
 30
0.0
 11
174.9917004521954
 21
183.1780056236933
 31
0.0
1001
AUSTER_ANSICHT
1002
{
1000
Det03
1002
}
1001
AUSTER_FOLIE
1002
{
1000
NSB00990_S0_SPU_3POL
1002
}
  0
LINE
  5
5306
330
20
100
AcDbEntity
  8
11000_Left
  6
DASHED
 62
     7
370
    13
100
AcDbLine
 39
0.25
 10
174.9917004521954
 20
168.8880056236933
 30
0.0
 11
174.9917004521954
 21
182.4380056236933
 31
0.0
1001
AUSTER_ANSICHT
1002
{
1000
Det03
1002
}
1001
AUSTER_FOLIE
1002
{
1000
NSB00990_S0_SPU_3POL
1002
}
  0
LINE
  5
5307
330
20
100
AcDbEntity
  8
11000_Left
  6
DASHED
 62
     7
370
    13
100
AcDbLine
 39
0.25
 10
178.0917004521954
 20
164.6020056236933
 30
0.0
 11
178.0917004521954
 21
168.8880056236933
 31
0.0
1001
AUSTER_ANSICHT
1002
{
1000
Det03
1002
}
1001
AUSTER_FOLIE
1002
{
1000
NSB00990_S0_SPU_3POL
1002
}
  0
LINE
  5
5308
330
20
100
AcDbEntity
  8
11000_Left
  6
DASHED
 62
     7
370
    13
100
AcDbLine
 39
0.25
 10
174.4917004521954
 20
181.4380056236933
 30
0.0
 11
174.9917004521954
 21
181.4380056236933
 31
0.0
1001
AUSTER_ANSICHT
1002
{
1000
Det03
1002
}
1001
AUSTER_FOLIE
1002
{
1000
NSB00990_S0_SPU_3POL
1002
}
  0
LINE
  5
5309
330
20
100
AcDbEntity
  8
11000_Left
  6
DASHED
 62
     7
370
    13
100
AcDbLine
 39
0.25
 10
174.4917004521954
 20
174.4380056236933
 30
0.0
 11
174.9917004521954
 21
174.4380056236933
 31
0.0
1001
AUSTER_ANSICHT
1002
{
1000
Det03
1002
}
1001
AUSTER_FOLIE
1002
{
1000
NSB00990_S0_SPU_3POL
1002
}
  0
LINE
  5
530A
330
20
100
AcDbEntity
  8
11000_Left
  6
DASHED
 62
     7
370
    13
100
AcDbLine
 39
0.25
 10
174.9917004521954
 20
168.8880056236933
 30
0.0
 11
179.2917004521954
 21
168.8880056236933
 31
0.0
1001
AUSTER_ANSICHT
1002
{
1000
Det03
1002
}
1001
AUSTER_FOLIE
1002
{
1000
NSB00990_S0_SPU_3POL
1002
}
  0
LINE
  5
530B
330
20
100
AcDbEntity
  8
11000_Left
  6
DASHED
 62
     7
370
    13
100
AcDbLine
 39
0.25
 10
174.1917004521954
 20
174.7400056236933
 30
0.0
 11
174.1917004521954
 21
181.1370056236933
 31
0.0
1001
AUSTER_ANSICHT
1002
{
1000
Det03
1002
}
1001
AUSTER_FOLIE
1002
{
1000
NSB00990_S0_SPU_3POL
1002
}
  0
LINE
  5
530C
330
20
100
AcDbEntity
  8
11000_Left
  6
DASHED
 62
     7
370
    13
100
AcDbLine
 39
0.25
 10
179.2917004521954
 20
130.3870056236933
 30
-1.0
 11
179.2917004521954
 21
135.5370056236933
 31
-1.0
1001
AUSTER_ANSICHT
1002
{
1000
Det03
1002
}
1001
AUSTER_FOLIE
1002
{
1000
NSB00990_S0_SPU_3POL
1002
}
  0
LINE
  5
530D
330
20
100
AcDbEntity
  8
11000_Left
  6
DASHED
 62
     7
370
    13
100
AcDbLine
 39
0.25
 10
179.2917004521954
 20
165.6870056236933
 30
-1.0
 11
179.2917004521954
 21
160.5370056236933
 31
-1.0
1001
AUSTER_ANSICHT
1002
{
1000
Det03
1002
}
1001
AUSTER_FOLIE
1002
{
1000
NSB00990_S0_SPU_3POL
1002
}
  0
LINE
  5
530E
330
20
100
AcDbEntity
  8
11000_Left
  6
DASHED
 62
     7
370
    13
100
AcDbLine
 39
0.25
 10
178.2917004521953
 20
130.3870056236933
 30
-1.0
 11
179.2917004521954
 21
130.3870056236933
 31
-1.0
1001
AUSTER_ANSICHT
1002
{
1000
Det03
1002
}
1001
AUSTER_FOLIE
1002
{
1000
NSB00990_S0_SPU_3POL
1002
}
  0
LINE
  5
530F
330
20
100
AcDbEntity
  8
11000_Left
  6
DASHED
 62
     7
370
    13
100
AcDbLine
 39
0.25
 10
268.4917004521954
 20
183.9380056236933
 30
0.0
 11
235.7917004521954
 21
183.9380056236933
 31
0.0
1001
AUSTER_ANSICHT
1002
{
1000
Det03
1002
}
1001
AUSTER_FOLIE
1002
{
1000
NSB00990_S0_SPU_3POL
1002
}
  0
LINE
  5
5310
330
20
100
AcDbEntity
  8
11000_Left
  6
DASHED
 62
     7
370
    13
100
AcDbLine
 39
0.25
 10
235.4917004521954
 20
180.9380056236933
 30
0.0
 11
236.9917004521954
 21
180.9380056236933
 31
0.0
1001
AUSTER_ANSICHT
1002
{
1000
Det03
1002
}
1001
AUSTER_FOLIE
1002
{
1000
NSB00990_S0_SPU_3POL
1002
}
  0
LINE
  5
5311
330
20
100
AcDbEntity
  8
11000_Left
  6
DASHED
 62
     7
370
    13
100
AcDbLine
 39
0.25
 10
234.9917004521954
 20
181.4380056236933
 30
0.0
 11
235.4917004521954
 21
180.9380056236933
 31
0.0
1001
AUSTER_ANSICHT
1002
{
1000
Det03
1002
}
1001
AUSTER_FOLIE
1002
{
1000
NSB00990_S0_SPU_3POL
1002
}
  0
LINE
  5
5312
330
20
100
AcDbEntity
  8
11000_Left
  6
DASHED
 62
     7
370
    13
100
AcDbLine
 39
0.25
 10
217.8917004521954
 20
186.4380056236933
 30
0.0
 11
217.8917004521954
 21
180.4380056236933
 31
0.0
1001
AUSTER_ANSICHT
1002
{
1000
Det03
1002
}
1001
AUSTER_FOLIE
1002
{
1000
NSB00990_S0_SPU_3POL
1002
}
  0
LINE
  5
5313
330
20
100
AcDbEntity
  8
11000_Left
  6
DASHED
 62
     7
370
    13
100
AcDbLine
 39
0.25
 10
236.9917004521954
 20
186.4380056236933
 30
0.0
 11
236.9917004521954
 21
183.9360056236933
 31
0.0
1001
AUSTER_ANSICHT
1002
{
1000
Det03
1002
}
1001
AUSTER_FOLIE
1002
{
1000
NSB00990_S0_SPU_3POL
1002
}
  0
LINE
  5
5314
330
20
100
AcDbEntity
  8
11000_Left
  6
DASHED
 62
     7
370
    13
100
AcDbLine
 39
0.25
 10
235.8667004521954
 20
187.9380056236933
 30
0.0
 11
241.8917004521954
 21
187.9380056236933
 31
0.0
1001
AUSTER_ANSICHT
1002
{
1000
Det03
1002
}
1001
AUSTER_FOLIE
1002
{
1000
NSB00990_S0_SPU_3POL
1002
}
  0
LINE
  5
5315
330
20
100
AcDbEntity
  8
11000_Left
  6
DASHED
 62
     7
370
    13
100
AcDbLine
 39
0.25
 10
241.8917004521954
 20
183.9370056236933
 30
0.0
 11
241.8917004521954
 21
187.9380056236933
 31
0.0
1001
AUSTER_ANSICHT
1002
{
1000
Det03
1002
}
1001
AUSTER_FOLIE
1002
{
1000
NSB00990_S0_SPU_3POL
1002
}
  0
LINE
  5
5316
330
20
100
AcDbEntity
  8
11000_Left
  6
DASHED
 62
     7
370
    13
100
AcDbLine
 39
0.25
 10
234.9917004521954
 20
181.4380056236933
 30
0.0
 11
234.9917004521954
 21
183.1380056236933
 31
0.0
1001
AUSTER_ANSICHT
1002
{
1000
Det03
1002
}
1001
AUSTER_FOLIE
1002
{
1000
NSB00990_S0_SPU_3POL
1002
}
  0
LINE
  5
5317
330
20
100
AcDbEntity
  8
11000_Left
  6
DASHED
 62
     7
370
    13
100
AcDbLine
 39
0.25
 10
218.4917004521954
 20
179.5880056236933
 30
0.0
 11
209.5917004521954
 21
179.5880056236933
 31
0.0
1001
AUSTER_ANSICHT
1002
{
1000
Det03
1002
}
1001
AUSTER_FOLIE
1002
{
1000
NSB00990_S0_SPU_3POL
1002
}
  0
LINE
  5
5318
330
20
100
AcDbEntity
  8
11000_Left
  6
DASHED
 62
     7
370
    13
100
AcDbLine
 39
0.25
 10
218.4917004521954
 20
175.0380056236933
 30
0.0
 11
218.4917004521954
 21
179.5880056236933
 31
0.0
1001
AUSTER_ANSICHT
1002
{
1000
Det03
1002
}
1001
AUSTER_FOLIE
1002
{
1000
NSB00990_S0_SPU_3POL
1002
}
  0
LINE
  5
5319
330
20
100
AcDbEntity
  8
11000_Left
  6
DASHED
 62
     7
370
    13
100
AcDbLine
 39
0.25
 10
209.5917004521954
 20
175.0380056236933
 30
0.0
 11
218.4917004521954
 21
175.0380056236933
 31
0.0
1001
AUSTER_ANSICHT
1002
{
1000
Det03
1002
}
1001
AUSTER_FOLIE
1002
{
1000
NSB00990_S0_SPU_3POL
1002
}
  0
LINE
  5
531A
330
20
100
AcDbEntity
  8
11000_Left
  6
DASHED
 62
     7
370
    13
100
AcDbLine
 39
0.25
 10
209.5917004521954
 20
179.5880056236933
 30
0.0
 11
209.5917004521954
 21
175.0380056236933
 31
0.0
1001
AUSTER_ANSICHT
1002
{
1000
Det03
1002
}
1001
AUSTER_FOLIE
1002
{
1000
NSB00990_S0_SPU_3POL
1002
}
  0
LINE
  5
531B
330
20
100
AcDbEntity
  8
11000_Left
  6
DASHED
 62
     7
370
    13
100
AcDbLine
 39
0.25
 10
236.9917004521954
 20
180.4380056236933
 30
0.0
 11
191.6917004521954
 21
180.4380056236933
 31
0.0
1001
AUSTER_ANSICHT
1002
{
1000
Det03
1002
}
1001
AUSTER_FOLIE
1002
{
1000
NSB00990_S0_SPU_3POL
1002
}
  0
LINE
  5
531C
330
20
100
AcDbEntity
  8
11000_Left
  6
DASHED
 62
     7
370
    13
100
AcDbLine
 39
0.25
 10
185.7517004521954
 20
183.9380056236933
 30
0.0
 11
191.2917004521954
 21
183.9380056236933
 31
0.0
1001
AUSTER_ANSICHT
1002
{
1000
Det03
1002
}
1001
AUSTER_FOLIE
1002
{
1000
NSB00990_S0_SPU_3POL
1002
}
  0
LINE
  5
531D
330
20
100
AcDbEntity
  8
11000_Left
  6
DASHED
 62
     7
370
    13
100
AcDbLine
 39
0.25
 10
184.9917004521954
 20
182.4380056236933
 30
0.0
 11
184.9917004521954
 21
183.1780056236933
 31
0.0
1001
AUSTER_ANSICHT
1002
{
1000
Det03
1002
}
1001
AUSTER_FOLIE
1002
{
1000
NSB00990_S0_SPU_3POL
1002
}
  0
LINE
  5
531E
330
20
100
AcDbEntity
  8
11000_Left
  6
DASHED
 62
     7
370
    13
100
AcDbLine
 39
0.25
 10
184.4917004521954
 20
181.4380056236933
 30
0.0
 11
184.9917004521954
 21
181.4380056236933
 31
0.0
1001
AUSTER_ANSICHT
1002
{
1000
Det03
1002
}
1001
AUSTER_FOLIE
1002
{
1000
NSB00990_S0_SPU_3POL
1002
}
  0
LINE
  5
531F
330
20
100
AcDbEntity
  8
11000_Left
  6
DASHED
 62
     7
370
    13
100
AcDbLine
 39
0.25
 10
191.6917004521954
 20
183.5380056236933
 30
0.0
 11
191.6917004521954
 21
180.4380056236933
 31
0.0
1001
AUSTER_ANSICHT
1002
{
1000
Det03
1002
}
1001
AUSTER_FOLIE
1002
{
1000
NSB00990_S0_SPU_3POL
1002
}
  0
LINE
  5
5320
330
20
100
AcDbEntity
  8
11000_Left
  6
DASHED
 62
     7
370
    13
100
AcDbLine
 39
0.25
 10
219.8917004521954
 20
187.9380056236933
 30
0.0
 11
233.3917004521954
 21
187.9380056236933
 31
0.0
1001
AUSTER_ANSICHT
1002
{
1000
Det03
1002
}
1001
AUSTER_FOLIE
1002
{
1000
NSB00990_S0_SPU_3POL
1002
}
  0
LINE
  5
5321
330
20
100
AcDbEntity
  8
11000_Left
  6
DASHED
 62
     7
370
    13
100
AcDbLine
 39
0.25
 10
235.4917004521954
 20
187.9380056236933
 30
0.0
 11
219.3917004521954
 21
187.9380056236933
 31
0.0
1001
AUSTER_ANSICHT
1002
{
1000
Det03
1002
}
1001
AUSTER_FOLIE
1002
{
1000
NSB00990_S0_SPU_3POL
1002
}
  0
LINE
  5
5322
330
20
100
AcDbEntity
  8
11000_Left
  6
DASHED
 62
     7
370
    13
100
AcDbLine
 39
0.25
 10
175.7517004521954
 20
183.9380056236933
 30
0.0
 11
185.7517004521954
 21
183.9380056236933
 31
0.0
1001
AUSTER_ANSICHT
1002
{
1000
Det03
1002
}
1001
AUSTER_FOLIE
1002
{
1000
NSB00990_S0_SPU_3POL
1002
}
  0
LINE
  5
5323
330
20
100
AcDbEntity
  8
10000_FRONT
  6
DASHED
 62
     7
370
    13
100
AcDbLine
 39
0.25
 10
78.81170045219541
 20
128.9880056236933
 30
0.0
 11
78.81170045219541
 21
134.9880056236933
 31
0.0
1001
AUSTER_ANSICHT
1002
{
1000
Det03
1002
}
1001
AUSTER_FOLIE
1002
{
1000
NSB00990_S0_SPU_3POL
1002
}
  0
LINE
  5
5324
330
20
100
AcDbEntity
  8
10000_FRONT
  6
DASHED
 62
     7
370
    13
100
AcDbLine
 39
0.25
 10
80.27970045219538
 20
134.9880056236933
 30
0.0
 11
80.27970045219538
 21
136.0880056236933
 31
0.0
1001
AUSTER_ANSICHT
1002
{
1000
Det03
1002
}
1001
AUSTER_FOLIE
1002
{
1000
NSB00990_S0_SPU_3POL
1002
}
  0
LINE
  5
5325
330
20
100
AcDbEntity
  8
10000_FRONT
  6
DASHED
 62
     7
370
    13
100
AcDbLine
 39
0.25
 10
78.81170045219541
 20
134.9880056236933
 30
0.0
 11
80.27970045219538
 21
134.9880056236933
 31
0.0
1001
AUSTER_ANSICHT
1002
{
1000
Det03
1002
}
1001
AUSTER_FOLIE
1002
{
1000
NSB00990_S0_SPU_3POL
1002
}
  0
LINE
  5
5327
330
20
100
AcDbEntity
  8
10000_FRONT
  6
DASHED
 62
     7
370
    13
100
AcDbLine
 39
0.25
 10
108.5297004521954
 20
137.2380056236933
 30
0.0
 11
103.3297004521954
 21
137.2380056236933
 31
0.0
1001
AUSTER_ANSICHT
1002
{
1000
Det03
1002
}
1001
AUSTER_FOLIE
1002
{
1000
NSB00990_S0_SPU_3POL
1002
}
  0
LINE
  5
532A
330
20
100
AcDbEntity
  8
10000_FRONT
  6
DASHED
 62
     7
370
    13
100
AcDbLine
 39
0.25
 10
110.5297004521954
 20
163.7380056236933
 30
0.0
 11
110.5297004521954
 21
160.1880056236933
 31
0.0
1001
AUSTER_ANSICHT
1002
{
1000
Det03
1002
}
1001
AUSTER_FOLIE
1002
{
1000
NSB00990_S0_SPU_3POL
1002
}
  0
LINE
  5
532B
330
20
100
AcDbEntity
  8
10000_FRONT
  6
DASHED
 62
     7
370
    13
100
AcDbLine
 39
0.25
 10
101.3297004521954
 20
163.7380056236933
 30
0.0
 11
110.5297004521954
 21
163.7380056236933
 31
0.0
1001
AUSTER_ANSICHT
1002
{
1000
Det03
1002
}
1001
AUSTER_FOLIE
1002
{
1000
NSB00990_S0_SPU_3POL
1002
}
  0
LINE
  5
532C
330
20
100
AcDbEntity
  8
10000_FRONT
  6
DASHED
 62
     7
370
    13
100
AcDbLine
 39
0.25
 10
101.3297004521954
 20
160.1880056236933
 30
0.0
 11
101.3297004521954
 21
163.7380056236933
 31
0.0
1001
AUSTER_ANSICHT
1002
{
1000
Det03
1002
}
1001
AUSTER_FOLIE
1002
{
1000
NSB00990_S0_SPU_3POL
1002
}
  0
LINE
  5
532E
330
20
100
AcDbEntity
  8
10000_FRONT
  6
DASHED
 62
     7
370
    13
100
AcDbLine
 39
0.25
 10
108.1297004521954
 20
160.1880056236933
 30
0.0
 11
108.1297004521954
 21
155.6880056236933
 31
0.0
1001
AUSTER_ANSICHT
1002
{
1000
Det03
1002
}
1001
AUSTER_FOLIE
1002
{
1000
NSB00990_S0_SPU_3POL
1002
}
  0
LINE
  5
5330
330
20
100
AcDbEntity
  8
10000_FRONT
  6
DASHED
 62
     7
370
    13
100
AcDbLine
 39
0.25
 10
103.7297004521954
 20
160.1880056236933
 30
0.0
 11
103.7297004521954
 21
155.6880056236933
 31
0.0
1001
AUSTER_ANSICHT
1002
{
1000
Det03
1002
}
1001
AUSTER_FOLIE
1002
{
1000
NSB00990_S0_SPU_3POL
1002
}
  0
LINE
  5
5331
330
20
100
AcDbEntity
  8
10000_FRONT
  6
DASHED
 62
     7
370
    13
100
AcDbLine
 39
0.25
 10
109.8297004521954
 20
141.4880056236933
 30
0.0
 11
108.5297004521954
 21
141.4880056236933
 31
0.0
1001
AUSTER_ANSICHT
1002
{
1000
Det03
1002
}
1001
AUSTER_FOLIE
1002
{
1000
NSB00990_S0_SPU_3POL
1002
}
  0
LINE
  5
5332
330
20
100
AcDbEntity
  8
10000_FRONT
  6
DASHED
 62
     7
370
    13
100
AcDbLine
 39
0.25
 10
109.8297004521954
 20
155.6880056236933
 30
0.0
 11
109.8297004521954
 21
141.4880056236933
 31
0.0
1001
AUSTER_ANSICHT
1002
{
1000
Det03
1002
}
1001
AUSTER_FOLIE
1002
{
1000
NSB00990_S0_SPU_3POL
1002
}
  0
LINE
  5
5333
330
20
100
AcDbEntity
  8
10000_FRONT
  6
DASHED
 62
     7
370
    13
100
AcDbLine
 39
0.25
 10
102.0297004521954
 20
141.4880056236933
 30
0.0
 11
102.0297004521954
 21
155.6880056236933
 31
0.0
1001
AUSTER_ANSICHT
1002
{
1000
Det03
1002
}
1001
AUSTER_FOLIE
1002
{
1000
NSB00990_S0_SPU_3POL
1002
}
  0
LINE
  5
5334
330
20
100
AcDbEntity
  8
10000_FRONT
  6
DASHED
 62
     7
370
    13
100
AcDbLine
 39
0.25
 10
103.3297004521954
 20
141.4880056236933
 30
0.0
 11
102.0297004521954
 21
141.4880056236933
 31
0.0
1001
AUSTER_ANSICHT
1002
{
1000
Det03
1002
}
1001
AUSTER_FOLIE
1002
{
1000
NSB00990_S0_SPU_3POL
1002
}
  0
LINE
  5
5335
330
20
100
AcDbEntity
  8
10000_FRONT
  6
DASHED
 62
     7
370
    13
100
AcDbLine
 39
0.25
 10
108.1297004521954
 20
160.1880056236933
 30
0.0
 11
110.5297004521954
 21
160.1880056236933
 31
0.0
1001
AUSTER_ANSICHT
1002
{
1000
Det03
1002
}
1001
AUSTER_FOLIE
1002
{
1000
NSB00990_S0_SPU_3POL
1002
}
  0
LINE
  5
5336
330
20
100
AcDbEntity
  8
10000_FRONT
  6
DASHED
 62
     7
370
    13
100
AcDbLine
 39
0.25
 10
108.5297004521954
 20
137.2380056236933
 30
0.0
 11
108.5297004521954
 21
141.4880056236933
 31
0.0
1001
AUSTER_ANSICHT
1002
{
1000
Det03
1002
}
1001
AUSTER_FOLIE
1002
{
1000
NSB00990_S0_SPU_3POL
1002
}
  0
LINE
  5
5337
330
20
100
AcDbEntity
  8
10000_FRONT
  6
DASHED
 62
     7
370
    13
100
AcDbLine
 39
0.25
 10
103.3297004521954
 20
141.4880056236933
 30
0.0
 11
103.3297004521954
 21
137.2380056236933
 31
0.0
1001
AUSTER_ANSICHT
1002
{
1000
Det03
1002
}
1001
AUSTER_FOLIE
1002
{
1000
NSB00990_S0_SPU_3POL
1002
}
  0
LINE
  5
5338
330
20
100
AcDbEntity
  8
10000_FRONT
  6
DASHED
 62
     7
370
    13
100
AcDbLine
 39
0.25
 10
109.8297004521954
 20
155.6880056236933
 30
0.0
 11
108.1297004521954
 21
155.6880056236933
 31
0.0
1001
AUSTER_ANSICHT
1002
{
1000
Det03
1002
}
1001
AUSTER_FOLIE
1002
{
1000
NSB00990_S0_SPU_3POL
1002
}
  0
LINE
  5
5339
330
20
100
AcDbEntity
  8
10000_FRONT
  6
DASHED
 62
     7
370
    13
100
AcDbLine
 39
0.25
 10
102.0297004521954
 20
155.6880056236933
 30
0.0
 11
103.7297004521954
 21
155.6880056236933
 31
0.0
1001
AUSTER_ANSICHT
1002
{
1000
Det03
1002
}
1001
AUSTER_FOLIE
1002
{
1000
NSB00990_S0_SPU_3POL
1002
}
  0
LINE
  5
533A
330
20
100
AcDbEntity
  8
10000_FRONT
  6
DASHED
 62
     7
370
    13
100
AcDbLine
 39
0.25
 10
103.7297004521954
 20
160.1880056236933
 30
0.0
 11
101.3297004521954
 21
160.1880056236933
 31
0.0
1001
AUSTER_ANSICHT
1002
{
1000
Det03
1002
}
1001
AUSTER_FOLIE
1002
{
1000
NSB00990_S0_SPU_3POL
1002
}
  0
LINE
  5
533B
330
20
100
AcDbEntity
  8
10000_FRONT
  6
DASHED
 62
     7
370
    13
100
AcDbLine
 39
0.25
 10
103.6797004521954
 20
144.5880056236933
 30
0.0
 11
103.6797004521954
 21
149.9880056236933
 31
0.0
1001
AUSTER_ANSICHT
1002
{
1000
Det03
1002
}
1001
AUSTER_FOLIE
1002
{
1000
NSB00990_S0_SPU_3POL
1002
}
  0
LINE
  5
533C
330
20
100
AcDbEntity
  8
10000_FRONT
  6
DASHED
 62
     7
370
    13
100
AcDbLine
 39
0.25
 10
108.1797004521954
 20
144.5880056236933
 30
0.0
 11
103.6797004521954
 21
144.5880056236933
 31
0.0
1001
AUSTER_ANSICHT
1002
{
1000
Det03
1002
}
1001
AUSTER_FOLIE
1002
{
1000
NSB00990_S0_SPU_3POL
1002
}
  0
LINE
  5
533D
330
20
100
AcDbEntity
  8
10000_FRONT
  6
DASHED
 62
     7
370
    13
100
AcDbLine
 39
0.25
 10
108.1797004521954
 20
149.9880056236933
 30
0.0
 11
108.1797004521954
 21
144.5880056236933
 31
0.0
1001
AUSTER_ANSICHT
1002
{
1000
Det03
1002
}
1001
AUSTER_FOLIE
1002
{
1000
NSB00990_S0_SPU_3POL
1002
}
  0
LINE
  5
533E
330
20
100
AcDbEntity
  8
10000_FRONT
  6
DASHED
 62
     7
370
    13
100
AcDbLine
 39
0.25
 10
107.8597004521954
 20
150.2880056236933
 30
0.0
 11
108.1797004521954
 21
149.9880056236933
 31
0.0
1001
AUSTER_ANSICHT
1002
{
1000
Det03
1002
}
1001
AUSTER_FOLIE
1002
{
1000
NSB00990_S0_SPU_3POL
1002
}
  0
LINE
  5
533F
330
20
100
AcDbEntity
  8
10000_FRONT
  6
DASHED
 62
     7
370
    13
100
AcDbLine
 39
0.25
 10
103.9987004521954
 20
150.2880056236933
 30
0.0
 11
107.8597004521954
 21
150.2880056236933
 31
0.0
1001
AUSTER_ANSICHT
1002
{
1000
Det03
1002
}
1001
AUSTER_FOLIE
1002
{
1000
NSB00990_S0_SPU_3POL
1002
}
  0
LINE
  5
5340
330
20
100
AcDbEntity
  8
10000_FRONT
  6
DASHED
 62
     7
370
    13
100
AcDbLine
 39
0.25
 10
103.6797004521954
 20
149.9880056236933
 30
0.0
 11
103.9987004521954
 21
150.2880056236933
 31
0.0
1001
AUSTER_ANSICHT
1002
{
1000
Det03
1002
}
1001
AUSTER_FOLIE
1002
{
1000
NSB00990_S0_SPU_3POL
1002
}
  0
LINE
  5
5343
330
20
100
AcDbEntity
  8
10000_FRONT
  6
DASHED
 62
     7
370
    13
100
AcDbLine
 39
0.25
 10
97.52970045219541
 20
137.2380056236933
 30
0.0
 11
92.32970045219543
 21
137.2380056236933
 31
0.0
1001
AUSTER_ANSICHT
1002
{
1000
Det03
1002
}
1001
AUSTER_FOLIE
1002
{
1000
NSB00990_S0_SPU_3POL
1002
}
  0
LINE
  5
5348
330
20
100
AcDbEntity
  8
10000_FRONT
  6
DASHED
 62
     7
370
    13
100
AcDbLine
 39
0.25
 10
99.52970045219542
 20
163.7380056236933
 30
0.0
 11
99.52970045219542
 21
160.1880056236933
 31
0.0
1001
AUSTER_ANSICHT
1002
{
1000
Det03
1002
}
1001
AUSTER_FOLIE
1002
{
1000
NSB00990_S0_SPU_3POL
1002
}
  0
LINE
  5
5349
330
20
100
AcDbEntity
  8
10000_FRONT
  6
DASHED
 62
     7
370
    13
100
AcDbLine
 39
0.25
 10
88.52970045219541
 20
163.7380056236933
 30
0.0
 11
88.52970045219541
 21
160.1880056236933
 31
0.0
1001
AUSTER_ANSICHT
1002
{
1000
Det03
1002
}
1001
AUSTER_FOLIE
1002
{
1000
NSB00990_S0_SPU_3POL
1002
}
  0
LINE
  5
534A
330
20
100
AcDbEntity
  8
10000_FRONT
  6
DASHED
 62
     7
370
    13
100
AcDbLine
 39
0.25
 10
90.3297004521954
 20
163.7380056236933
 30
0.0
 11
99.52970045219542
 21
163.7380056236933
 31
0.0
1001
AUSTER_ANSICHT
1002
{
1000
Det03
1002
}
1001
AUSTER_FOLIE
1002
{
1000
NSB00990_S0_SPU_3POL
1002
}
  0
LINE
  5
534B
330
20
100
AcDbEntity
  8
10000_FRONT
  6
DASHED
 62
     7
370
    13
100
AcDbLine
 39
0.25
 10
79.32970045219542
 20
163.7380056236933
 30
0.0
 11
88.52970045219541
 21
163.7380056236933
 31
0.0
1001
AUSTER_ANSICHT
1002
{
1000
Det03
1002
}
1001
AUSTER_FOLIE
1002
{
1000
NSB00990_S0_SPU_3POL
1002
}
  0
LINE
  5
534C
330
20
100
AcDbEntity
  8
10000_FRONT
  6
DASHED
 62
     7
370
    13
100
AcDbLine
 39
0.25
 10
90.3297004521954
 20
160.1880056236933
 30
0.0
 11
90.3297004521954
 21
163.7380056236933
 31
0.0
1001
AUSTER_ANSICHT
1002
{
1000
Det03
1002
}
1001
AUSTER_FOLIE
1002
{
1000
NSB00990_S0_SPU_3POL
1002
}
  0
LINE
  5
534D
330
20
100
AcDbEntity
  8
10000_FRONT
  6
DASHED
 62
     7
370
    13
100
AcDbLine
 39
0.25
 10
79.32970045219542
 20
160.1880056236933
 30
0.0
 11
79.32970045219542
 21
163.7380056236933
 31
0.0
1001
AUSTER_ANSICHT
1002
{
1000
Det03
1002
}
1001
AUSTER_FOLIE
1002
{
1000
NSB00990_S0_SPU_3POL
1002
}
  0
LINE
  5
534F
330
20
100
AcDbEntity
  8
10000_FRONT
  6
DASHED
 62
     7
370
    13
100
AcDbLine
 39
0.25
 10
97.12970045219542
 20
160.1880056236933
 30
0.0
 11
97.12970045219542
 21
155.6880056236933
 31
0.0
1001
AUSTER_ANSICHT
1002
{
1000
Det03
1002
}
1001
AUSTER_FOLIE
1002
{
1000
NSB00990_S0_SPU_3POL
1002
}
  0
LINE
  5
5350
330
20
100
AcDbEntity
  8
10000_FRONT
  6
DASHED
 62
     7
370
    13
100
AcDbLine
 39
0.25
 10
86.12970045219542
 20
160.1880056236933
 30
0.0
 11
86.12970045219542
 21
155.6880056236933
 31
0.0
1001
AUSTER_ANSICHT
1002
{
1000
Det03
1002
}
1001
AUSTER_FOLIE
1002
{
1000
NSB00990_S0_SPU_3POL
1002
}
  0
LINE
  5
5353
330
20
100
AcDbEntity
  8
10000_FRONT
  6
DASHED
 62
     7
370
    13
100
AcDbLine
 39
0.25
 10
92.72970045219542
 20
160.1880056236933
 30
0.0
 11
92.72970045219542
 21
155.6880056236933
 31
0.0
1001
AUSTER_ANSICHT
1002
{
1000
Det03
1002
}
1001
AUSTER_FOLIE
1002
{
1000
NSB00990_S0_SPU_3POL
1002
}
  0
LINE
  5
5354
330
20
100
AcDbEntity
  8
10000_FRONT
  6
DASHED
 62
     7
370
    13
100
AcDbLine
 39
0.25
 10
81.72970045219541
 20
160.1880056236933
 30
0.0
 11
81.72970045219541
 21
155.6880056236933
 31
0.0
1001
AUSTER_ANSICHT
1002
{
1000
Det03
1002
}
1001
AUSTER_FOLIE
1002
{
1000
NSB00990_S0_SPU_3POL
1002
}
  0
LINE
  5
5355
330
20
100
AcDbEntity
  8
10000_FRONT
  6
DASHED
 62
     7
370
    13
100
AcDbLine
 39
0.25
 10
98.82970045219543
 20
141.4880056236933
 30
0.0
 11
97.52970045219541
 21
141.4880056236933
 31
0.0
1001
AUSTER_ANSICHT
1002
{
1000
Det03
1002
}
1001
AUSTER_FOLIE
1002
{
1000
NSB00990_S0_SPU_3POL
1002
}
  0
LINE
  5
5356
330
20
100
AcDbEntity
  8
10000_FRONT
  6
DASHED
 62
     7
370
    13
100
AcDbLine
 39
0.25
 10
87.8297004521954
 20
141.4880056236933
 30
0.0
 11
86.52970045219541
 21
141.4880056236933
 31
0.0
1001
AUSTER_ANSICHT
1002
{
1000
Det03
1002
}
1001
AUSTER_FOLIE
1002
{
1000
NSB00990_S0_SPU_3POL
1002
}
  0
LINE
  5
5357
330
20
100
AcDbEntity
  8
10000_FRONT
  6
DASHED
 62
     7
370
    13
100
AcDbLine
 39
0.25
 10
98.82970045219543
 20
155.6880056236933
 30
0.0
 11
98.82970045219543
 21
141.4880056236933
 31
0.0
1001
AUSTER_ANSICHT
1002
{
1000
Det03
1002
}
1001
AUSTER_FOLIE
1002
{
1000
NSB00990_S0_SPU_3POL
1002
}
  0
LINE
  5
5358
330
20
100
AcDbEntity
  8
10000_FRONT
  6
DASHED
 62
     7
370
    13
100
AcDbLine
 39
0.25
 10
87.8297004521954
 20
155.6880056236933
 30
0.0
 11
87.8297004521954
 21
141.4880056236933
 31
0.0
1001
AUSTER_ANSICHT
1002
{
1000
Det03
1002
}
1001
AUSTER_FOLIE
1002
{
1000
NSB00990_S0_SPU_3POL
1002
}
  0
LINE
  5
5359
330
20
100
AcDbEntity
  8
10000_FRONT
  6
DASHED
 62
     7
370
    13
100
AcDbLine
 39
0.25
 10
91.02970045219541
 20
141.4880056236933
 30
0.0
 11
91.02970045219541
 21
155.6880056236933
 31
0.0
1001
AUSTER_ANSICHT
1002
{
1000
Det03
1002
}
1001
AUSTER_FOLIE
1002
{
1000
NSB00990_S0_SPU_3POL
1002
}
  0
LINE
  5
535A
330
20
100
AcDbEntity
  8
10000_FRONT
  6
DASHED
 62
     7
370
    13
100
AcDbLine
 39
0.25
 10
80.02970045219539
 20
141.4880056236933
 30
0.0
 11
80.02970045219539
 21
155.6880056236933
 31
0.0
1001
AUSTER_ANSICHT
1002
{
1000
Det03
1002
}
1001
AUSTER_FOLIE
1002
{
1000
NSB00990_S0_SPU_3POL
1002
}
  0
LINE
  5
535B
330
20
100
AcDbEntity
  8
10000_FRONT
  6
DASHED
 62
     7
370
    13
100
AcDbLine
 39
0.25
 10
92.32970045219543
 20
141.4880056236933
 30
0.0
 11
91.02970045219541
 21
141.4880056236933
 31
0.0
1001
AUSTER_ANSICHT
1002
{
1000
Det03
1002
}
1001
AUSTER_FOLIE
1002
{
1000
NSB00990_S0_SPU_3POL
1002
}
  0
LINE
  5
535C
330
20
100
AcDbEntity
  8
10000_FRONT
  6
DASHED
 62
     7
370
    13
100
AcDbLine
 39
0.25
 10
81.32970045219542
 20
141.4880056236933
 30
0.0
 11
80.02970045219539
 21
141.4880056236933
 31
0.0
1001
AUSTER_ANSICHT
1002
{
1000
Det03
1002
}
1001
AUSTER_FOLIE
1002
{
1000
NSB00990_S0_SPU_3POL
1002
}
  0
LINE
  5
535D
330
20
100
AcDbEntity
  8
10000_FRONT
  6
DASHED
 62
     7
370
    13
100
AcDbLine
 39
0.25
 10
97.12970045219542
 20
160.1880056236933
 30
0.0
 11
99.52970045219542
 21
160.1880056236933
 31
0.0
1001
AUSTER_ANSICHT
1002
{
1000
Det03
1002
}
1001
AUSTER_FOLIE
1002
{
1000
NSB00990_S0_SPU_3POL
1002
}
  0
LINE
  5
535E
330
20
100
AcDbEntity
  8
10000_FRONT
  6
DASHED
 62
     7
370
    13
100
AcDbLine
 39
0.25
 10
86.12970045219542
 20
160.1880056236933
 30
0.0
 11
88.52970045219541
 21
160.1880056236933
 31
0.0
1001
AUSTER_ANSICHT
1002
{
1000
Det03
1002
}
1001
AUSTER_FOLIE
1002
{
1000
NSB00990_S0_SPU_3POL
1002
}
  0
LINE
  5
535F
330
20
100
AcDbEntity
  8
10000_FRONT
  6
DASHED
 62
     7
370
    13
100
AcDbLine
 39
0.25
 10
97.52970045219541
 20
137.2380056236933
 30
0.0
 11
97.52970045219541
 21
141.4880056236933
 31
0.0
1001
AUSTER_ANSICHT
1002
{
1000
Det03
1002
}
1001
AUSTER_FOLIE
1002
{
1000
NSB00990_S0_SPU_3POL
1002
}
  0
LINE
  5
5360
330
20
100
AcDbEntity
  8
10000_FRONT
  6
DASHED
 62
     7
370
    13
100
AcDbLine
 39
0.25
 10
92.32970045219543
 20
141.4880056236933
 30
0.0
 11
92.32970045219543
 21
137.2380056236933
 31
0.0
1001
AUSTER_ANSICHT
1002
{
1000
Det03
1002
}
1001
AUSTER_FOLIE
1002
{
1000
NSB00990_S0_SPU_3POL
1002
}
  0
LINE
  5
5361
330
20
100
AcDbEntity
  8
10000_FRONT
  6
DASHED
 62
     7
370
    13
100
AcDbLine
 39
0.25
 10
98.82970045219543
 20
155.6880056236933
 30
0.0
 11
97.12970045219542
 21
155.6880056236933
 31
0.0
1001
AUSTER_ANSICHT
1002
{
1000
Det03
1002
}
1001
AUSTER_FOLIE
1002
{
1000
NSB00990_S0_SPU_3POL
1002
}
  0
LINE
  5
5362
330
20
100
AcDbEntity
  8
10000_FRONT
  6
DASHED
 62
     7
370
    13
100
AcDbLine
 39
0.25
 10
87.8297004521954
 20
155.6880056236933
 30
0.0
 11
86.12970045219542
 21
155.6880056236933
 31
0.0
1001
AUSTER_ANSICHT
1002
{
1000
Det03
1002
}
1001
AUSTER_FOLIE
1002
{
1000
NSB00990_S0_SPU_3POL
1002
}
  0
LINE
  5
5363
330
20
100
AcDbEntity
  8
10000_FRONT
  6
DASHED
 62
     7
370
    13
100
AcDbLine
 39
0.25
 10
91.02970045219541
 20
155.6880056236933
 30
0.0
 11
92.72970045219542
 21
155.6880056236933
 31
0.0
1001
AUSTER_ANSICHT
1002
{
1000
Det03
1002
}
1001
AUSTER_FOLIE
1002
{
1000
NSB00990_S0_SPU_3POL
1002
}
  0
LINE
  5
5364
330
20
100
AcDbEntity
  8
10000_FRONT
  6
DASHED
 62
     7
370
    13
100
AcDbLine
 39
0.25
 10
92.72970045219542
 20
160.1880056236933
 30
0.0
 11
90.3297004521954
 21
160.1880056236933
 31
0.0
1001
AUSTER_ANSICHT
1002
{
1000
Det03
1002
}
1001
AUSTER_FOLIE
1002
{
1000
NSB00990_S0_SPU_3POL
1002
}
  0
LINE
  5
5365
330
20
100
AcDbEntity
  8
10000_FRONT
  6
DASHED
 62
     7
370
    13
100
AcDbLine
 39
0.25
 10
92.67970045219541
 20
144.5880056236933
 30
0.0
 11
92.67970045219541
 21
149.9880056236933
 31
0.0
1001
AUSTER_ANSICHT
1002
{
1000
Det03
1002
}
1001
AUSTER_FOLIE
1002
{
1000
NSB00990_S0_SPU_3POL
1002
}
  0
LINE
  5
5366
330
20
100
AcDbEntity
  8
10000_FRONT
  6
DASHED
 62
     7
370
    13
100
AcDbLine
 39
0.25
 10
97.17970045219542
 20
144.5880056236933
 30
0.0
 11
92.67970045219541
 21
144.5880056236933
 31
0.0
1001
AUSTER_ANSICHT
1002
{
1000
Det03
1002
}
1001
AUSTER_FOLIE
1002
{
1000
NSB00990_S0_SPU_3POL
1002
}
  0
LINE
  5
5367
330
20
100
AcDbEntity
  8
10000_FRONT
  6
DASHED
 62
     7
370
    13
100
AcDbLine
 39
0.25
 10
97.17970045219542
 20
149.9880056236933
 30
0.0
 11
97.17970045219542
 21
144.5880056236933
 31
0.0
1001
AUSTER_ANSICHT
1002
{
1000
Det03
1002
}
1001
AUSTER_FOLIE
1002
{
1000
NSB00990_S0_SPU_3POL
1002
}
  0
LINE
  5
5368
330
20
100
AcDbEntity
  8
10000_FRONT
  6
DASHED
 62
     7
370
    13
100
AcDbLine
 39
0.25
 10
96.85970045219541
 20
150.2880056236933
 30
0.0
 11
97.17970045219542
 21
149.9880056236933
 31
0.0
1001
AUSTER_ANSICHT
1002
{
1000
Det03
1002
}
1001
AUSTER_FOLIE
1002
{
1000
NSB00990_S0_SPU_3POL
1002
}
  0
LINE
  5
5369
330
20
100
AcDbEntity
  8
10000_FRONT
  6
DASHED
 62
     7
370
    13
100
AcDbLine
 39
0.25
 10
92.99870045219542
 20
150.2880056236933
 30
0.0
 11
96.85970045219541
 21
150.2880056236933
 31
0.0
1001
AUSTER_ANSICHT
1002
{
1000
Det03
1002
}
1001
AUSTER_FOLIE
1002
{
1000
NSB00990_S0_SPU_3POL
1002
}
  0
LINE
  5
536A
330
20
100
AcDbEntity
  8
10000_FRONT
  6
DASHED
 62
     7
370
    13
100
AcDbLine
 39
0.25
 10
92.67970045219541
 20
149.9880056236933
 30
0.0
 11
92.99870045219542
 21
150.2880056236933
 31
0.0
1001
AUSTER_ANSICHT
1002
{
1000
Det03
1002
}
1001
AUSTER_FOLIE
1002
{
1000
NSB00990_S0_SPU_3POL
1002
}
  0
LINE
  5
536B
330
20
100
AcDbEntity
  8
10000_FRONT
  6
DASHED
 62
     7
370
    13
100
AcDbLine
 39
0.25
 10
86.52970045219541
 20
137.2380056236933
 30
0.0
 11
86.52970045219541
 21
141.4880056236933
 31
0.0
1001
AUSTER_ANSICHT
1002
{
1000
Det03
1002
}
1001
AUSTER_FOLIE
1002
{
1000
NSB00990_S0_SPU_3POL
1002
}
  0
LINE
  5
536C
330
20
100
AcDbEntity
  8
10000_FRONT
  6
DASHED
 62
     7
370
    13
100
AcDbLine
 39
0.25
 10
81.32970045219542
 20
141.4880056236933
 30
0.0
 11
81.32970045219542
 21
137.2380056236933
 31
0.0
1001
AUSTER_ANSICHT
1002
{
1000
Det03
1002
}
1001
AUSTER_FOLIE
1002
{
1000
NSB00990_S0_SPU_3POL
1002
}
  0
LINE
  5
536D
330
20
100
AcDbEntity
  8
10000_FRONT
  6
DASHED
 62
     7
370
    13
100
AcDbLine
 39
0.25
 10
80.02970045219539
 20
155.6880056236933
 30
0.0
 11
81.72970045219541
 21
155.6880056236933
 31
0.0
1001
AUSTER_ANSICHT
1002
{
1000
Det03
1002
}
1001
AUSTER_FOLIE
1002
{
1000
NSB00990_S0_SPU_3POL
1002
}
  0
LINE
  5
536E
330
20
100
AcDbEntity
  8
10000_FRONT
  6
DASHED
 62
     7
370
    13
100
AcDbLine
 39
0.25
 10
81.72970045219541
 20
160.1880056236933
 30
0.0
 11
79.32970045219542
 21
160.1880056236933
 31
0.0
1001
AUSTER_ANSICHT
1002
{
1000
Det03
1002
}
1001
AUSTER_FOLIE
1002
{
1000
NSB00990_S0_SPU_3POL
1002
}
  0
LINE
  5
536F
330
20
100
AcDbEntity
  8
10000_FRONT
  6
DASHED
 62
     7
370
    13
100
AcDbLine
 39
0.25
 10
81.67970045219538
 20
144.5880056236933
 30
0.0
 11
81.67970045219538
 21
149.9880056236933
 31
0.0
1001
AUSTER_ANSICHT
1002
{
1000
Det03
1002
}
1001
AUSTER_FOLIE
1002
{
1000
NSB00990_S0_SPU_3POL
1002
}
  0
LINE
  5
5370
330
20
100
AcDbEntity
  8
10000_FRONT
  6
DASHED
 62
     7
370
    13
100
AcDbLine
 39
0.25
 10
86.17970045219539
 20
144.5880056236933
 30
0.0
 11
81.67970045219538
 21
144.5880056236933
 31
0.0
1001
AUSTER_ANSICHT
1002
{
1000
Det03
1002
}
1001
AUSTER_FOLIE
1002
{
1000
NSB00990_S0_SPU_3POL
1002
}
  0
LINE
  5
5371
330
20
100
AcDbEntity
  8
10000_FRONT
  6
DASHED
 62
     7
370
    13
100
AcDbLine
 39
0.25
 10
86.17970045219539
 20
149.9880056236933
 30
0.0
 11
86.17970045219539
 21
144.5880056236933
 31
0.0
1001
AUSTER_ANSICHT
1002
{
1000
Det03
1002
}
1001
AUSTER_FOLIE
1002
{
1000
NSB00990_S0_SPU_3POL
1002
}
  0
LINE
  5
5372
330
20
100
AcDbEntity
  8
10000_FRONT
  6
DASHED
 62
     7
370
    13
100
AcDbLine
 39
0.25
 10
85.85970045219537
 20
150.2880056236933
 30
0.0
 11
86.17970045219539
 21
149.9880056236933
 31
0.0
1001
AUSTER_ANSICHT
1002
{
1000
Det03
1002
}
1001
AUSTER_FOLIE
1002
{
1000
NSB00990_S0_SPU_3POL
1002
}
  0
LINE
  5
5373
330
20
100
AcDbEntity
  8
10000_FRONT
  6
DASHED
 62
     7
370
    13
100
AcDbLine
 39
0.25
 10
81.9987004521954
 20
150.2880056236933
 30
0.0
 11
85.85970045219537
 21
150.2880056236933
 31
0.0
1001
AUSTER_ANSICHT
1002
{
1000
Det03
1002
}
1001
AUSTER_FOLIE
1002
{
1000
NSB00990_S0_SPU_3POL
1002
}
  0
LINE
  5
5374
330
20
100
AcDbEntity
  8
10000_FRONT
  6
DASHED
 62
     7
370
    13
100
AcDbLine
 39
0.25
 10
81.67970045219538
 20
149.9880056236933
 30
0.0
 11
81.9987004521954
 21
150.2880056236933
 31
0.0
1001
AUSTER_ANSICHT
1002
{
1000
Det03
1002
}
1001
AUSTER_FOLIE
1002
{
1000
NSB00990_S0_SPU_3POL
1002
}
  0
LINE
  5
5375
330
20
100
AcDbEntity
  8
10000_FRONT
  6
DASHED
 62
     7
370
    13
100
AcDbLine
 39
0.25
 10
80.27970045219538
 20
136.0880056236933
 30
0.0
 11
120.5797004521954
 21
136.0880056236933
 31
0.0
1001
AUSTER_ANSICHT
1002
{
1000
Det03
1002
}
1001
AUSTER_FOLIE
1002
{
1000
NSB00990_S0_SPU_3POL
1002
}
  0
LINE
  5
5376
330
20
100
AcDbEntity
  8
10000_FRONT
  6
DASHED
 62
     7
370
    13
100
AcDbLine
 39
0.25
 10
86.52970045219541
 20
137.2380056236933
 30
0.0
 11
81.32970045219542
 21
137.2380056236933
 31
0.0
1001
AUSTER_ANSICHT
1002
{
1000
Det03
1002
}
1001
AUSTER_FOLIE
1002
{
1000
NSB00990_S0_SPU_3POL
1002
}
  0
LINE
  5
5378
330
20
100
AcDbEntity
  8
10000_FRONT
  6
DASHED
 62
     7
370
    13
100
AcDbLine
 39
0.25
 10
77.9797004521954
 20
167.4380056236933
 30
0.0
 11
77.9797004521954
 21
128.4380056236933
 31
0.0
1001
AUSTER_ANSICHT
1002
{
1000
Det03
1002
}
1001
AUSTER_FOLIE
1002
{
1000
NSB00990_S0_SPU_3POL
1002
}
  0
LINE
  5
5379
330
20
100
AcDbEntity
  8
10000_FRONT
  6
Continuous
 62
     7
370
    50
100
AcDbLine
 39
0.25
 10
85.92970045219539
 20
187.9380056236933
 30
0.0
 11
84.92970045219539
 21
187.9380056236933
 31
0.0
1001
AUSTER_ANSICHT
1002
{
1000
Det03
1002
}
1001
AUSTER_FOLIE
1002
{
1000
NSB00990_S0_SPU_3POL
1002
}
  0
LINE
  5
537A
330
20
100
AcDbEntity
  8
10000_FRONT
  6
Continuous
 62
     7
370
    50
100
AcDbLine
 39
0.25
 10
115.9297004521954
 20
187.9380056236933
 30
0.0
 11
114.9297004521954
 21
187.9380056236933
 31
0.0
1001
AUSTER_ANSICHT
1002
{
1000
Det03
1002
}
1001
AUSTER_FOLIE
1002
{
1000
NSB00990_S0_SPU_3POL
1002
}
  0
LINE
  5
537B
330
20
100
AcDbEntity
  8
11000_Left
  6
DASHED
 62
     7
370
    13
100
AcDbLine
 39
0.25
 10
269.9917004521954
 20
182.4380056236933
 30
0.0
 11
269.9917004521954
 21
113.4380056236933
 31
0.0
1001
AUSTER_ANSICHT
1002
{
1000
Det03
1002
}
1001
AUSTER_FOLIE
1002
{
1000
NSB00990_S0_SPU_3POL
1002
}
  0
LINE
  5
537C
330
20
100
AcDbEntity
  8
11000_Left
  6
DASHED
 62
     7
370
    13
100
AcDbLine
 39
0.25
 10
274.6767004521954
 20
115.8980056236933
 30
0.0
 11
274.6387004521954
 21
115.2490056236933
 31
0.0
1001
AUSTER_ANSICHT
1002
{
1000
Det03
1002
}
1001
AUSTER_FOLIE
1002
{
1000
NSB00990_S0_SPU_3POL
1002
}
  0
LINE
  5
537D
330
20
100
AcDbEntity
  8
11000_Left
  6
DASHED
 62
     7
370
    13
100
AcDbLine
 39
0.25
 10
269.9917004521954
 20
113.4380056236933
 30
0.0
 11
270.1917004521954
 21
114.4380056236933
 31
0.0
1001
AUSTER_ANSICHT
1002
{
1000
Det03
1002
}
1001
AUSTER_FOLIE
1002
{
1000
NSB00990_S0_SPU_3POL
1002
}
  0
LINE
  5
537E
330
20
100
AcDbEntity
  8
11000_Left
  6
DASHED
 62
     7
370
    13
100
AcDbLine
 39
0.25
 10
270.8517004521954
 20
114.4380056236933
 30
0.0
 11
273.9417004521954
 21
114.4380056236933
 31
0.0
1001
AUSTER_ANSICHT
1002
{
1000
Det03
1002
}
1001
AUSTER_FOLIE
1002
{
1000
NSB00990_S0_SPU_3POL
1002
}
  0
LINE
  5
537F
330
20
100
AcDbEntity
  8
11000_Left
  6
DASHED
 62
     7
370
    13
100
AcDbLine
 39
0.25
 10
270.1917004521954
 20
181.4380056236933
 30
0.0
 11
273.8417004521954
 21
181.4380056236933
 31
0.0
1001
AUSTER_ANSICHT
1002
{
1000
Det03
1002
}
1001
AUSTER_FOLIE
1002
{
1000
NSB00990_S0_SPU_3POL
1002
}
  0
LINE
  5
5380
330
20
100
AcDbEntity
  8
11000_Left
  6
DASHED
 62
     7
370
    13
100
AcDbLine
 39
0.25
 10
269.9917004521954
 20
182.4380056236933
 30
0.0
 11
270.1917004521954
 21
181.4380056236933
 31
0.0
1001
AUSTER_ANSICHT
1002
{
1000
Det03
1002
}
1001
AUSTER_FOLIE
1002
{
1000
NSB00990_S0_SPU_3POL
1002
}
  0
LINE
  5
5381
330
20
100
AcDbEntity
  8
11000_Left
  6
DASHED
 62
     7
370
    13
100
AcDbLine
 39
0.25
 10
274.6387004521954
 20
180.6260056236933
 30
0.0
 11
274.6767004521954
 21
179.9780056236933
 31
0.0
1001
AUSTER_ANSICHT
1002
{
1000
Det03
1002
}
1001
AUSTER_FOLIE
1002
{
1000
NSB00990_S0_SPU_3POL
1002
}
  0
LINE
  5
5382
330
20
100
AcDbEntity
  8
10000_FRONT
  6
DASHED
 62
     7
370
    13
100
AcDbLine
 39
0.25
 10
122.0477004521954
 20
134.9880056236933
 30
0.0
 11
122.0477004521954
 21
128.9880056236933
 31
0.0
1001
AUSTER_ANSICHT
1002
{
1000
Det03
1002
}
1001
AUSTER_FOLIE
1002
{
1000
NSB00990_S0_SPU_3POL
1002
}
  0
LINE
  5
5383
330
20
100
AcDbEntity
  8
10000_FRONT
  6
DASHED
 62
     7
370
    13
100
AcDbLine
 39
0.25
 10
120.5797004521954
 20
134.9880056236933
 30
0.0
 11
122.0477004521954
 21
134.9880056236933
 31
0.0
1001
AUSTER_ANSICHT
1002
{
1000
Det03
1002
}
1001
AUSTER_FOLIE
1002
{
1000
NSB00990_S0_SPU_3POL
1002
}
  0
LINE
  5
5384
330
20
100
AcDbEntity
  8
10000_FRONT
  6
DASHED
 62
     7
370
    13
100
AcDbLine
 39
0.25
 10
120.5797004521954
 20
136.0880056236933
 30
0.0
 11
120.5797004521954
 21
134.9880056236933
 31
0.0
1001
AUSTER_ANSICHT
1002
{
1000
Det03
1002
}
1001
AUSTER_FOLIE
1002
{
1000
NSB00990_S0_SPU_3POL
1002
}
  0
LINE
  5
5386
330
20
100
AcDbEntity
  8
10000_FRONT
  6
DASHED
 62
     7
370
    13
100
AcDbLine
 39
0.25
 10
119.5297004521954
 20
137.2380056236933
 30
0.0
 11
114.3297004521954
 21
137.2380056236933
 31
0.0
1001
AUSTER_ANSICHT
1002
{
1000
Det03
1002
}
1001
AUSTER_FOLIE
1002
{
1000
NSB00990_S0_SPU_3POL
1002
}
  0
LINE
  5
5389
330
20
100
AcDbEntity
  8
10000_FRONT
  6
DASHED
 62
     7
370
    13
100
AcDbLine
 39
0.25
 10
121.5297004521954
 20
163.7380056236933
 30
0.0
 11
121.5297004521954
 21
160.1880056236933
 31
0.0
1001
AUSTER_ANSICHT
1002
{
1000
Det03
1002
}
1001
AUSTER_FOLIE
1002
{
1000
NSB00990_S0_SPU_3POL
1002
}
  0
LINE
  5
538A
330
20
100
AcDbEntity
  8
10000_FRONT
  6
DASHED
 62
     7
370
    13
100
AcDbLine
 39
0.25
 10
112.3297004521954
 20
163.7380056236933
 30
0.0
 11
121.5297004521954
 21
163.7380056236933
 31
0.0
1001
AUSTER_ANSICHT
1002
{
1000
Det03
1002
}
1001
AUSTER_FOLIE
1002
{
1000
NSB00990_S0_SPU_3POL
1002
}
  0
LINE
  5
538B
330
20
100
AcDbEntity
  8
10000_FRONT
  6
DASHED
 62
     7
370
    13
100
AcDbLine
 39
0.25
 10
112.3297004521954
 20
160.1880056236933
 30
0.0
 11
112.3297004521954
 21
163.7380056236933
 31
0.0
1001
AUSTER_ANSICHT
1002
{
1000
Det03
1002
}
1001
AUSTER_FOLIE
1002
{
1000
NSB00990_S0_SPU_3POL
1002
}
  0
LINE
  5
538D
330
20
100
AcDbEntity
  8
10000_FRONT
  6
DASHED
 62
     7
370
    13
100
AcDbLine
 39
0.25
 10
119.1297004521954
 20
160.1880056236933
 30
0.0
 11
119.1297004521954
 21
155.6880056236933
 31
0.0
1001
AUSTER_ANSICHT
1002
{
1000
Det03
1002
}
1001
AUSTER_FOLIE
1002
{
1000
NSB00990_S0_SPU_3POL
1002
}
  0
LINE
  5
538F
330
20
100
AcDbEntity
  8
10000_FRONT
  6
DASHED
 62
     7
370
    13
100
AcDbLine
 39
0.25
 10
114.7297004521954
 20
160.1880056236933
 30
0.0
 11
114.7297004521954
 21
155.6880056236933
 31
0.0
1001
AUSTER_ANSICHT
1002
{
1000
Det03
1002
}
1001
AUSTER_FOLIE
1002
{
1000
NSB00990_S0_SPU_3POL
1002
}
  0
LINE
  5
5390
330
20
100
AcDbEntity
  8
10000_FRONT
  6
DASHED
 62
     7
370
    13
100
AcDbLine
 39
0.25
 10
120.8297004521954
 20
141.4880056236933
 30
0.0
 11
119.5297004521954
 21
141.4880056236933
 31
0.0
1001
AUSTER_ANSICHT
1002
{
1000
Det03
1002
}
1001
AUSTER_FOLIE
1002
{
1000
NSB00990_S0_SPU_3POL
1002
}
  0
LINE
  5
5391
330
20
100
AcDbEntity
  8
10000_FRONT
  6
DASHED
 62
     7
370
    13
100
AcDbLine
 39
0.25
 10
120.8297004521954
 20
155.6880056236933
 30
0.0
 11
120.8297004521954
 21
141.4880056236933
 31
0.0
1001
AUSTER_ANSICHT
1002
{
1000
Det03
1002
}
1001
AUSTER_FOLIE
1002
{
1000
NSB00990_S0_SPU_3POL
1002
}
  0
LINE
  5
5392
330
20
100
AcDbEntity
  8
10000_FRONT
  6
DASHED
 62
     7
370
    13
100
AcDbLine
 39
0.25
 10
113.0297004521954
 20
141.4880056236933
 30
0.0
 11
113.0297004521954
 21
155.6880056236933
 31
0.0
1001
AUSTER_ANSICHT
1002
{
1000
Det03
1002
}
1001
AUSTER_FOLIE
1002
{
1000
NSB00990_S0_SPU_3POL
1002
}
  0
LINE
  5
5393
330
20
100
AcDbEntity
  8
10000_FRONT
  6
DASHED
 62
     7
370
    13
100
AcDbLine
 39
0.25
 10
114.3297004521954
 20
141.4880056236933
 30
0.0
 11
113.0297004521954
 21
141.4880056236933
 31
0.0
1001
AUSTER_ANSICHT
1002
{
1000
Det03
1002
}
1001
AUSTER_FOLIE
1002
{
1000
NSB00990_S0_SPU_3POL
1002
}
  0
LINE
  5
5394
330
20
100
AcDbEntity
  8
10000_FRONT
  6
DASHED
 62
     7
370
    13
100
AcDbLine
 39
0.25
 10
119.1297004521954
 20
160.1880056236933
 30
0.0
 11
121.5297004521954
 21
160.1880056236933
 31
0.0
1001
AUSTER_ANSICHT
1002
{
1000
Det03
1002
}
1001
AUSTER_FOLIE
1002
{
1000
NSB00990_S0_SPU_3POL
1002
}
  0
LINE
  5
5395
330
20
100
AcDbEntity
  8
10000_FRONT
  6
DASHED
 62
     7
370
    13
100
AcDbLine
 39
0.25
 10
119.5297004521954
 20
137.2380056236933
 30
0.0
 11
119.5297004521954
 21
141.4880056236933
 31
0.0
1001
AUSTER_ANSICHT
1002
{
1000
Det03
1002
}
1001
AUSTER_FOLIE
1002
{
1000
NSB00990_S0_SPU_3POL
1002
}
  0
LINE
  5
5396
330
20
100
AcDbEntity
  8
10000_FRONT
  6
DASHED
 62
     7
370
    13
100
AcDbLine
 39
0.25
 10
114.3297004521954
 20
141.4880056236933
 30
0.0
 11
114.3297004521954
 21
137.2380056236933
 31
0.0
1001
AUSTER_ANSICHT
1002
{
1000
Det03
1002
}
1001
AUSTER_FOLIE
1002
{
1000
NSB00990_S0_SPU_3POL
1002
}
  0
LINE
  5
5397
330
20
100
AcDbEntity
  8
10000_FRONT
  6
DASHED
 62
     7
370
    13
100
AcDbLine
 39
0.25
 10
120.8297004521954
 20
155.6880056236933
 30
0.0
 11
119.1297004521954
 21
155.6880056236933
 31
0.0
1001
AUSTER_ANSICHT
1002
{
1000
Det03
1002
}
1001
AUSTER_FOLIE
1002
{
1000
NSB00990_S0_SPU_3POL
1002
}
  0
LINE
  5
5398
330
20
100
AcDbEntity
  8
10000_FRONT
  6
DASHED
 62
     7
370
    13
100
AcDbLine
 39
0.25
 10
113.0297004521954
 20
155.6880056236933
 30
0.0
 11
114.7297004521954
 21
155.6880056236933
 31
0.0
1001
AUSTER_ANSICHT
1002
{
1000
Det03
1002
}
1001
AUSTER_FOLIE
1002
{
1000
NSB00990_S0_SPU_3POL
1002
}
  0
LINE
  5
5399
330
20
100
AcDbEntity
  8
10000_FRONT
  6
DASHED
 62
     7
370
    13
100
AcDbLine
 39
0.25
 10
114.7297004521954
 20
160.1880056236933
 30
0.0
 11
112.3297004521954
 21
160.1880056236933
 31
0.0
1001
AUSTER_ANSICHT
1002
{
1000
Det03
1002
}
1001
AUSTER_FOLIE
1002
{
1000
NSB00990_S0_SPU_3POL
1002
}
  0
LINE
  5
539A
330
20
100
AcDbEntity
  8
10000_FRONT
  6
DASHED
 62
     7
370
    13
100
AcDbLine
 39
0.25
 10
114.6797004521954
 20
144.5880056236933
 30
0.0
 11
114.6797004521954
 21
149.9880056236933
 31
0.0
1001
AUSTER_ANSICHT
1002
{
1000
Det03
1002
}
1001
AUSTER_FOLIE
1002
{
1000
NSB00990_S0_SPU_3POL
1002
}
  0
LINE
  5
539B
330
20
100
AcDbEntity
  8
10000_FRONT
  6
DASHED
 62
     7
370
    13
100
AcDbLine
 39
0.25
 10
119.1797004521954
 20
144.5880056236933
 30
0.0
 11
114.6797004521954
 21
144.5880056236933
 31
0.0
1001
AUSTER_ANSICHT
1002
{
1000
Det03
1002
}
1001
AUSTER_FOLIE
1002
{
1000
NSB00990_S0_SPU_3POL
1002
}
  0
LINE
  5
539C
330
20
100
AcDbEntity
  8
10000_FRONT
  6
DASHED
 62
     7
370
    13
100
AcDbLine
 39
0.25
 10
119.1797004521954
 20
149.9880056236933
 30
0.0
 11
119.1797004521954
 21
144.5880056236933
 31
0.0
1001
AUSTER_ANSICHT
1002
{
1000
Det03
1002
}
1001
AUSTER_FOLIE
1002
{
1000
NSB00990_S0_SPU_3POL
1002
}
  0
LINE
  5
539D
330
20
100
AcDbEntity
  8
10000_FRONT
  6
DASHED
 62
     7
370
    13
100
AcDbLine
 39
0.25
 10
118.8597004521954
 20
150.2880056236933
 30
0.0
 11
119.1797004521954
 21
149.9880056236933
 31
0.0
1001
AUSTER_ANSICHT
1002
{
1000
Det03
1002
}
1001
AUSTER_FOLIE
1002
{
1000
NSB00990_S0_SPU_3POL
1002
}
  0
LINE
  5
539E
330
20
100
AcDbEntity
  8
10000_FRONT
  6
DASHED
 62
     7
370
    13
100
AcDbLine
 39
0.25
 10
114.9987004521954
 20
150.2880056236933
 30
0.0
 11
118.8597004521954
 21
150.2880056236933
 31
0.0
1001
AUSTER_ANSICHT
1002
{
1000
Det03
1002
}
1001
AUSTER_FOLIE
1002
{
1000
NSB00990_S0_SPU_3POL
1002
}
  0
LINE
  5
539F
330
20
100
AcDbEntity
  8
10000_FRONT
  6
DASHED
 62
     7
370
    13
100
AcDbLine
 39
0.25
 10
114.6797004521954
 20
149.9880056236933
 30
0.0
 11
114.9987004521954
 21
150.2880056236933
 31
0.0
1001
AUSTER_ANSICHT
1002
{
1000
Det03
1002
}
1001
AUSTER_FOLIE
1002
{
1000
NSB00990_S0_SPU_3POL
1002
}
  0
LINE
  5
53A0
330
20
100
AcDbEntity
  8
10000_FRONT
  6
DASHED
 62
     7
370
    13
100
AcDbLine
 39
0.25
 10
77.9797004521954
 20
167.4380056236933
 30
0.0
 11
77.9797004521954
 21
179.9380056236933
 31
0.0
1001
AUSTER_ANSICHT
1002
{
1000
Det03
1002
}
1001
AUSTER_FOLIE
1002
{
1000
NSB00990_S0_SPU_3POL
1002
}
  0
LINE
  5
53A1
330
20
100
AcDbEntity
  8
10000_FRONT
  6
DASHED
 62
     7
370
    13
100
AcDbLine
 39
0.25
 10
77.9797004521954
 20
115.9380056236933
 30
0.0
 11
77.9797004521954
 21
128.4380056236933
 31
0.0
1001
AUSTER_ANSICHT
1002
{
1000
Det03
1002
}
1001
AUSTER_FOLIE
1002
{
1000
NSB00990_S0_SPU_3POL
1002
}
  0
LINE
  5
53A2
330
20
100
AcDbEntity
  8
10000_FRONT
  6
DASHED
 62
     7
370
    13
100
AcDbLine
 39
0.25
 10
122.8797004521954
 20
128.4380056236933
 30
0.0
 11
122.8797004521954
 21
115.9380056236933
 31
0.0
1001
AUSTER_ANSICHT
1002
{
1000
Det03
1002
}
1001
AUSTER_FOLIE
1002
{
1000
NSB00990_S0_SPU_3POL
1002
}
  0
LINE
  5
53A3
330
20
100
AcDbEntity
  8
10000_FRONT
  6
DASHED
 62
     7
370
    13
100
AcDbLine
 39
0.25
 10
121.3647004521954
 20
182.4380056236933
 30
0.0
 11
121.2547004521954
 21
181.4390056236933
 31
0.0
1001
AUSTER_ANSICHT
1002
{
1000
Det03
1002
}
1001
AUSTER_FOLIE
1002
{
1000
NSB00990_S0_SPU_3POL
1002
}
  0
LINE
  5
53A4
330
20
100
AcDbEntity
  8
10000_FRONT
  6
DASHED
 62
     7
370
    13
100
AcDbLine
 39
0.25
 10
121.5007004521954
 20
183.6700056236933
 30
0.0
 11
121.3647004521954
 21
182.4380056236933
 31
0.0
1001
AUSTER_ANSICHT
1002
{
1000
Det03
1002
}
1001
AUSTER_FOLIE
1002
{
1000
NSB00990_S0_SPU_3POL
1002
}
  0
LINE
  5
53A5
330
20
100
AcDbEntity
  8
10000_FRONT
  6
DASHED
 62
     7
370
    13
100
AcDbLine
 39
0.25
 10
121.3647004521954
 20
113.4380056236933
 30
0.0
 11
121.2547004521954
 21
114.4360056236933
 31
0.0
1001
AUSTER_ANSICHT
1002
{
1000
Det03
1002
}
1001
AUSTER_FOLIE
1002
{
1000
NSB00990_S0_SPU_3POL
1002
}
  0
LINE
  5
53A6
330
20
100
AcDbEntity
  8
10000_FRONT
  6
DASHED
 62
     7
370
    13
100
AcDbLine
 39
0.25
 10
121.5007004521954
 20
112.2050056236933
 30
0.0
 11
121.3647004521954
 21
113.4380056236933
 31
0.0
1001
AUSTER_ANSICHT
1002
{
1000
Det03
1002
}
1001
AUSTER_FOLIE
1002
{
1000
NSB00990_S0_SPU_3POL
1002
}
  0
LINE
  5
53A7
330
20
100
AcDbEntity
  8
10000_FRONT
  6
DASHED
 62
     7
370
    13
100
AcDbLine
 39
0.25
 10
93.45270045219541
 20
111.9380056236933
 30
0.0
 11
93.00670045219542
 21
111.9380056236933
 31
0.0
1001
AUSTER_ANSICHT
1002
{
1000
Det03
1002
}
1001
AUSTER_FOLIE
1002
{
1000
NSB00990_S0_SPU_3POL
1002
}
  0
LINE
  5
53A8
330
20
100
AcDbEntity
  8
10000_FRONT
  6
DASHED
 62
     7
370
    13
100
AcDbLine
 39
0.25
 10
92.70470045219544
 20
112.2540056236933
 30
0.0
 11
92.53370045219543
 21
114.4380056236933
 31
0.0
1001
AUSTER_ANSICHT
1002
{
1000
Det03
1002
}
1001
AUSTER_FOLIE
1002
{
1000
NSB00990_S0_SPU_3POL
1002
}
  0
LINE
  5
53A9
330
20
100
AcDbEntity
  8
10000_FRONT
  6
DASHED
 62
     7
370
    13
100
AcDbLine
 39
0.25
 10
93.75170045219542
 20
112.2130056236933
 30
0.0
 11
93.92570045219541
 21
114.4380056236933
 31
0.0
1001
AUSTER_ANSICHT
1002
{
1000
Det03
1002
}
1001
AUSTER_FOLIE
1002
{
1000
NSB00990_S0_SPU_3POL
1002
}
  0
LINE
  5
53AA
330
20
100
AcDbEntity
  8
10000_FRONT
  6
DASHED
 62
     7
370
    13
100
AcDbLine
 39
0.25
 10
79.49470045219539
 20
113.4380056236933
 30
0.0
 11
79.6047004521954
 21
114.4360056236933
 31
0.0
1001
AUSTER_ANSICHT
1002
{
1000
Det03
1002
}
1001
AUSTER_FOLIE
1002
{
1000
NSB00990_S0_SPU_3POL
1002
}
  0
LINE
  5
53AB
330
20
100
AcDbEntity
  8
10000_FRONT
  6
DASHED
 62
     7
370
    13
100
AcDbLine
 39
0.25
 10
79.35870045219542
 20
112.2050056236933
 30
0.0
 11
79.49470045219539
 21
113.4380056236933
 31
0.0
1001
AUSTER_ANSICHT
1002
{
1000
Det03
1002
}
1001
AUSTER_FOLIE
1002
{
1000
NSB00990_S0_SPU_3POL
1002
}
  0
LINE
  5
53AC
330
20
100
AcDbEntity
  8
10000_FRONT
  6
DASHED
 62
     7
370
    13
100
AcDbLine
 39
0.25
 10
80.42970045219538
 20
108.2380056236933
 30
0.0
 11
80.42970045219538
 21
114.4380056236933
 31
0.0
1001
AUSTER_ANSICHT
1002
{
1000
Det03
1002
}
1001
AUSTER_FOLIE
1002
{
1000
NSB00990_S0_SPU_3POL
1002
}
  0
LINE
  5
53AD
330
20
100
AcDbEntity
  8
10000_FRONT
  6
DASHED
 62
     7
370
    13
100
AcDbLine
 39
0.25
 10
80.42770045219544
 20
111.9380056236933
 30
0.0
 11
78.7797004521954
 21
111.9380056236933
 31
0.0
1001
AUSTER_ANSICHT
1002
{
1000
Det03
1002
}
1001
AUSTER_FOLIE
1002
{
1000
NSB00990_S0_SPU_3POL
1002
}
  0
LINE
  5
53AE
330
20
100
AcDbEntity
  8
10000_FRONT
  6
DASHED
 62
     7
370
    13
100
AcDbLine
 39
0.25
 10
77.9797004521954
 20
115.9380056236933
 30
0.0
 11
77.9797004521954
 21
112.7380056236933
 31
0.0
1001
AUSTER_ANSICHT
1002
{
1000
Det03
1002
}
1001
AUSTER_FOLIE
1002
{
1000
NSB00990_S0_SPU_3POL
1002
}
  0
LINE
  5
53AF
330
20
100
AcDbEntity
  8
10000_FRONT
  6
DASHED
 62
     7
370
    13
100
AcDbLine
 39
0.25
 10
107.4067004521954
 20
111.9380056236933
 30
0.0
 11
107.8527004521954
 21
111.9380056236933
 31
0.0
1001
AUSTER_ANSICHT
1002
{
1000
Det03
1002
}
1001
AUSTER_FOLIE
1002
{
1000
NSB00990_S0_SPU_3POL
1002
}
  0
LINE
  5
53B0
330
20
100
AcDbEntity
  8
10000_FRONT
  6
DASHED
 62
     7
370
    13
100
AcDbLine
 39
0.25
 10
108.1547004521954
 20
112.2540056236933
 30
0.0
 11
108.3257004521954
 21
114.4380056236933
 31
0.0
1001
AUSTER_ANSICHT
1002
{
1000
Det03
1002
}
1001
AUSTER_FOLIE
1002
{
1000
NSB00990_S0_SPU_3POL
1002
}
  0
LINE
  5
53B1
330
20
100
AcDbEntity
  8
10000_FRONT
  6
DASHED
 62
     7
370
    13
100
AcDbLine
 39
0.25
 10
120.4297004521954
 20
108.2380056236933
 30
0.0
 11
120.4297004521954
 21
114.4380056236933
 31
0.0
1001
AUSTER_ANSICHT
1002
{
1000
Det03
1002
}
1001
AUSTER_FOLIE
1002
{
1000
NSB00990_S0_SPU_3POL
1002
}
  0
LINE
  5
53B2
330
20
100
AcDbEntity
  8
10000_FRONT
  6
DASHED
 62
     7
370
    13
100
AcDbLine
 39
0.25
 10
107.1077004521954
 20
112.2130056236933
 30
0.0
 11
106.9337004521954
 21
114.4380056236933
 31
0.0
1001
AUSTER_ANSICHT
1002
{
1000
Det03
1002
}
1001
AUSTER_FOLIE
1002
{
1000
NSB00990_S0_SPU_3POL
1002
}
  0
LINE
  5
53B3
330
20
100
AcDbEntity
  8
10000_FRONT
  6
DASHED
 62
     7
370
    13
100
AcDbLine
 39
0.25
 10
120.4317004521954
 20
111.9380056236933
 30
0.0
 11
122.0797004521954
 21
111.9380056236933
 31
0.0
1001
AUSTER_ANSICHT
1002
{
1000
Det03
1002
}
1001
AUSTER_FOLIE
1002
{
1000
NSB00990_S0_SPU_3POL
1002
}
  0
LINE
  5
53B4
330
20
100
AcDbEntity
  8
10000_FRONT
  6
DASHED
 62
     7
370
    13
100
AcDbLine
 39
0.25
 10
122.8797004521954
 20
115.9380056236933
 30
0.0
 11
122.8797004521954
 21
112.7380056236933
 31
0.0
1001
AUSTER_ANSICHT
1002
{
1000
Det03
1002
}
1001
AUSTER_FOLIE
1002
{
1000
NSB00990_S0_SPU_3POL
1002
}
  0
LINE
  5
53B5
330
20
100
AcDbEntity
  8
10000_FRONT
  6
DASHED
 62
     7
370
    13
100
AcDbLine
 39
0.25
 10
93.45270045219541
 20
183.9380056236933
 30
0.0
 11
93.00670045219542
 21
183.9380056236933
 31
0.0
1001
AUSTER_ANSICHT
1002
{
1000
Det03
1002
}
1001
AUSTER_FOLIE
1002
{
1000
NSB00990_S0_SPU_3POL
1002
}
  0
LINE
  5
53B6
330
20
100
AcDbEntity
  8
10000_FRONT
  6
DASHED
 62
     7
370
    13
100
AcDbLine
 39
0.25
 10
92.70470045219544
 20
183.6210056236933
 30
0.0
 11
92.53370045219543
 21
181.4380056236933
 31
0.0
1001
AUSTER_ANSICHT
1002
{
1000
Det03
1002
}
1001
AUSTER_FOLIE
1002
{
1000
NSB00990_S0_SPU_3POL
1002
}
  0
LINE
  5
53B7
330
20
100
AcDbEntity
  8
10000_FRONT
  6
DASHED
 62
     7
370
    13
100
AcDbLine
 39
0.25
 10
93.75170045219542
 20
183.6630056236933
 30
0.0
 11
93.92570045219541
 21
181.4380056236933
 31
0.0
1001
AUSTER_ANSICHT
1002
{
1000
Det03
1002
}
1001
AUSTER_FOLIE
1002
{
1000
NSB00990_S0_SPU_3POL
1002
}
  0
LINE
  5
53B8
330
20
100
AcDbEntity
  8
10000_FRONT
  6
DASHED
 62
     7
370
    13
100
AcDbLine
 39
0.25
 10
79.49470045219539
 20
182.4380056236933
 30
0.0
 11
79.6047004521954
 21
181.4390056236933
 31
0.0
1001
AUSTER_ANSICHT
1002
{
1000
Det03
1002
}
1001
AUSTER_FOLIE
1002
{
1000
NSB00990_S0_SPU_3POL
1002
}
  0
LINE
  5
53B9
330
20
100
AcDbEntity
  8
10000_FRONT
  6
DASHED
 62
     7
370
    13
100
AcDbLine
 39
0.25
 10
79.35870045219542
 20
183.6700056236933
 30
0.0
 11
79.49470045219539
 21
182.4380056236933
 31
0.0
1001
AUSTER_ANSICHT
1002
{
1000
Det03
1002
}
1001
AUSTER_FOLIE
1002
{
1000
NSB00990_S0_SPU_3POL
1002
}
  0
LINE
  5
53BA
330
20
100
AcDbEntity
  8
10000_FRONT
  6
DASHED
 62
     7
370
    13
100
AcDbLine
 39
0.25
 10
80.42970045219538
 20
187.6380056236933
 30
0.0
 11
80.42970045219538
 21
181.4380056236933
 31
0.0
1001
AUSTER_ANSICHT
1002
{
1000
Det03
1002
}
1001
AUSTER_FOLIE
1002
{
1000
NSB00990_S0_SPU_3POL
1002
}
  0
LINE
  5
53BB
330
20
100
AcDbEntity
  8
10000_FRONT
  6
DASHED
 62
     7
370
    13
100
AcDbLine
 39
0.25
 10
80.42770045219544
 20
183.9380056236933
 30
0.0
 11
78.7797004521954
 21
183.9380056236933
 31
0.0
1001
AUSTER_ANSICHT
1002
{
1000
Det03
1002
}
1001
AUSTER_FOLIE
1002
{
1000
NSB00990_S0_SPU_3POL
1002
}
  0
LINE
  5
53BC
330
20
100
AcDbEntity
  8
10000_FRONT
  6
DASHED
 62
     7
370
    13
100
AcDbLine
 39
0.25
 10
77.9797004521954
 20
179.9380056236933
 30
0.0
 11
77.9797004521954
 21
183.1380056236933
 31
0.0
1001
AUSTER_ANSICHT
1002
{
1000
Det03
1002
}
1001
AUSTER_FOLIE
1002
{
1000
NSB00990_S0_SPU_3POL
1002
}
  0
LINE
  5
53BD
330
20
100
AcDbEntity
  8
10000_FRONT
  6
DASHED
 62
     7
370
    13
100
AcDbLine
 39
0.25
 10
107.4067004521954
 20
183.9380056236933
 30
0.0
 11
107.8527004521954
 21
183.9380056236933
 31
0.0
1001
AUSTER_ANSICHT
1002
{
1000
Det03
1002
}
1001
AUSTER_FOLIE
1002
{
1000
NSB00990_S0_SPU_3POL
1002
}
  0
LINE
  5
53BE
330
20
100
AcDbEntity
  8
10000_FRONT
  6
DASHED
 62
     7
370
    13
100
AcDbLine
 39
0.25
 10
108.1547004521954
 20
183.6210056236933
 30
0.0
 11
108.3257004521954
 21
181.4380056236933
 31
0.0
1001
AUSTER_ANSICHT
1002
{
1000
Det03
1002
}
1001
AUSTER_FOLIE
1002
{
1000
NSB00990_S0_SPU_3POL
1002
}
  0
LINE
  5
53BF
330
20
100
AcDbEntity
  8
10000_FRONT
  6
DASHED
 62
     7
370
    13
100
AcDbLine
 39
0.25
 10
120.4297004521954
 20
187.6380056236933
 30
0.0
 11
120.4297004521954
 21
181.4380056236933
 31
0.0
1001
AUSTER_ANSICHT
1002
{
1000
Det03
1002
}
1001
AUSTER_FOLIE
1002
{
1000
NSB00990_S0_SPU_3POL
1002
}
  0
LINE
  5
53C0
330
20
100
AcDbEntity
  8
10000_FRONT
  6
DASHED
 62
     7
370
    13
100
AcDbLine
 39
0.25
 10
107.1077004521954
 20
183.6630056236933
 30
0.0
 11
106.9337004521954
 21
181.4380056236933
 31
0.0
1001
AUSTER_ANSICHT
1002
{
1000
Det03
1002
}
1001
AUSTER_FOLIE
1002
{
1000
NSB00990_S0_SPU_3POL
1002
}
  0
LINE
  5
53C1
330
20
100
AcDbEntity
  8
10000_FRONT
  6
DASHED
 62
     7
370
    13
100
AcDbLine
 39
0.25
 10
120.4317004521954
 20
183.9380056236933
 30
0.0
 11
122.0797004521954
 21
183.9380056236933
 31
0.0
1001
AUSTER_ANSICHT
1002
{
1000
Det03
1002
}
1001
AUSTER_FOLIE
1002
{
1000
NSB00990_S0_SPU_3POL
1002
}
  0
LINE
  5
53C2
330
20
100
AcDbEntity
  8
10000_FRONT
  6
DASHED
 62
     7
370
    13
100
AcDbLine
 39
0.25
 10
122.8797004521954
 20
179.9380056236933
 30
0.0
 11
122.8797004521954
 21
183.1380056236933
 31
0.0
1001
AUSTER_ANSICHT
1002
{
1000
Det03
1002
}
1001
AUSTER_FOLIE
1002
{
1000
NSB00990_S0_SPU_3POL
1002
}
  0
LINE
  5
53C3
330
20
100
AcDbEntity
  8
10000_FRONT
  6
DASHED
 62
     7
370
    13
100
AcDbLine
 39
0.25
 10
114.9477004521954
 20
112.8850056236933
 30
0.0
 11
114.9477004521954
 21
113.0650056236933
 31
0.0
1001
AUSTER_ANSICHT
1002
{
1000
Det03
1002
}
1001
AUSTER_FOLIE
1002
{
1000
NSB00990_S0_SPU_3POL
1002
}
  0
LINE
  5
53C4
330
20
100
AcDbEntity
  8
10000_FRONT
  6
DASHED
 62
     7
370
    13
100
AcDbLine
 39
0.25
 10
114.9477004521954
 20
114.4540056236933
 30
0.0
 11
114.9477004521954
 21
114.2740056236933
 31
0.0
1001
AUSTER_ANSICHT
1002
{
1000
Det03
1002
}
1001
AUSTER_FOLIE
1002
{
1000
NSB00990_S0_SPU_3POL
1002
}
  0
LINE
  5
53C5
330
20
100
AcDbEntity
  8
10000_FRONT
  6
DASHED
 62
     7
370
    13
100
AcDbLine
 39
0.25
 10
113.9177004521954
 20
112.8850056236933
 30
0.0
 11
113.9177004521954
 21
113.0650056236933
 31
0.0
1001
AUSTER_ANSICHT
1002
{
1000
Det03
1002
}
1001
AUSTER_FOLIE
1002
{
1000
NSB00990_S0_SPU_3POL
1002
}
  0
LINE
  5
53C6
330
20
100
AcDbEntity
  8
10000_FRONT
  6
DASHED
 62
     7
370
    13
100
AcDbLine
 39
0.25
 10
113.9177004521954
 20
114.4540056236933
 30
0.0
 11
113.9177004521954
 21
114.2740056236933
 31
0.0
1001
AUSTER_ANSICHT
1002
{
1000
Det03
1002
}
1001
AUSTER_FOLIE
1002
{
1000
NSB00990_S0_SPU_3POL
1002
}
  0
LINE
  5
53C7
330
20
100
AcDbEntity
  8
10000_FRONT
  6
DASHED
 62
     7
370
    13
100
AcDbLine
 39
0.25
 10
114.9477004521954
 20
112.8850056236933
 30
0.0
 11
114.9477004521954
 21
111.8930056236933
 31
0.0
1001
AUSTER_ANSICHT
1002
{
1000
Det03
1002
}
1001
AUSTER_FOLIE
1002
{
1000
NSB00990_S0_SPU_3POL
1002
}
  0
LINE
  5
53C8
330
20
100
AcDbEntity
  8
10000_FRONT
  6
DASHED
 62
     7
370
    13
100
AcDbLine
 39
0.25
 10
113.9177004521954
 20
111.8930056236933
 30
0.0
 11
113.9177004521954
 21
112.8850056236933
 31
0.0
1001
AUSTER_ANSICHT
1002
{
1000
Det03
1002
}
1001
AUSTER_FOLIE
1002
{
1000
NSB00990_S0_SPU_3POL
1002
}
  0
LINE
  5
53C9
330
20
100
AcDbEntity
  8
10000_FRONT
  6
DASHED
 62
     7
370
    13
100
AcDbLine
 39
0.25
 10
114.9477004521954
 20
114.2740056236933
 30
0.0
 11
117.2177004521954
 21
114.2740056236933
 31
0.0
1001
AUSTER_ANSICHT
1002
{
1000
Det03
1002
}
1001
AUSTER_FOLIE
1002
{
1000
NSB00990_S0_SPU_3POL
1002
}
  0
LINE
  5
53CA
330
20
100
AcDbEntity
  8
10000_FRONT
  6
DASHED
 62
     7
370
    13
100
AcDbLine
 39
0.25
 10
111.6467004521954
 20
114.2740056236933
 30
0.0
 11
113.9177004521954
 21
114.2740056236933
 31
0.0
1001
AUSTER_ANSICHT
1002
{
1000
Det03
1002
}
1001
AUSTER_FOLIE
1002
{
1000
NSB00990_S0_SPU_3POL
1002
}
  0
LINE
  5
53CB
330
20
100
AcDbEntity
  8
10000_FRONT
  6
DASHED
 62
     7
370
    13
100
AcDbLine
 39
0.25
 10
113.9177004521954
 20
113.0650056236933
 30
0.0
 11
111.6467004521954
 21
113.0650056236933
 31
0.0
1001
AUSTER_ANSICHT
1002
{
1000
Det03
1002
}
1001
AUSTER_FOLIE
1002
{
1000
NSB00990_S0_SPU_3POL
1002
}
  0
LINE
  5
53CC
330
20
100
AcDbEntity
  8
10000_FRONT
  6
DASHED
 62
     7
370
    13
100
AcDbLine
 39
0.25
 10
117.2177004521954
 20
113.0650056236933
 30
0.0
 11
114.9477004521954
 21
113.0650056236933
 31
0.0
1001
AUSTER_ANSICHT
1002
{
1000
Det03
1002
}
1001
AUSTER_FOLIE
1002
{
1000
NSB00990_S0_SPU_3POL
1002
}
  0
LINE
  5
53CD
330
20
100
AcDbEntity
  8
10000_FRONT
  6
DASHED
 62
     7
370
    13
100
AcDbLine
 39
0.25
 10
85.91770045219542
 20
112.8850056236933
 30
0.0
 11
85.91770045219542
 21
113.0650056236933
 31
0.0
1001
AUSTER_ANSICHT
1002
{
1000
Det03
1002
}
1001
AUSTER_FOLIE
1002
{
1000
NSB00990_S0_SPU_3POL
1002
}
  0
LINE
  5
53CE
330
20
100
AcDbEntity
  8
10000_FRONT
  6
DASHED
 62
     7
370
    13
100
AcDbLine
 39
0.25
 10
86.94770045219541
 20
112.8850056236933
 30
0.0
 11
86.94770045219541
 21
113.0650056236933
 31
0.0
1001
AUSTER_ANSICHT
1002
{
1000
Det03
1002
}
1001
AUSTER_FOLIE
1002
{
1000
NSB00990_S0_SPU_3POL
1002
}
  0
LINE
  5
53CF
330
20
100
AcDbEntity
  8
10000_FRONT
  6
DASHED
 62
     7
370
    13
100
AcDbLine
 39
0.25
 10
85.91770045219542
 20
112.8850056236933
 30
0.0
 11
85.91770045219542
 21
111.8930056236933
 31
0.0
1001
AUSTER_ANSICHT
1002
{
1000
Det03
1002
}
1001
AUSTER_FOLIE
1002
{
1000
NSB00990_S0_SPU_3POL
1002
}
  0
LINE
  5
53D0
330
20
100
AcDbEntity
  8
10000_FRONT
  6
DASHED
 62
     7
370
    13
100
AcDbLine
 39
0.25
 10
86.94770045219541
 20
111.8930056236933
 30
0.0
 11
86.94770045219541
 21
112.8850056236933
 31
0.0
1001
AUSTER_ANSICHT
1002
{
1000
Det03
1002
}
1001
AUSTER_FOLIE
1002
{
1000
NSB00990_S0_SPU_3POL
1002
}
  0
LINE
  5
53D1
330
20
100
AcDbEntity
  8
10000_FRONT
  6
DASHED
 62
     7
370
    13
100
AcDbLine
 39
0.25
 10
85.91770045219542
 20
114.2740056236933
 30
0.0
 11
83.64670045219543
 21
114.2740056236933
 31
0.0
1001
AUSTER_ANSICHT
1002
{
1000
Det03
1002
}
1001
AUSTER_FOLIE
1002
{
1000
NSB00990_S0_SPU_3POL
1002
}
  0
LINE
  5
53D2
330
20
100
AcDbEntity
  8
10000_FRONT
  6
DASHED
 62
     7
370
    13
100
AcDbLine
 39
0.25
 10
86.94770045219541
 20
113.0650056236933
 30
0.0
 11
89.21770045219542
 21
113.0650056236933
 31
0.0
1001
AUSTER_ANSICHT
1002
{
1000
Det03
1002
}
1001
AUSTER_FOLIE
1002
{
1000
NSB00990_S0_SPU_3POL
1002
}
  0
LINE
  5
53D3
330
20
100
AcDbEntity
  8
10000_FRONT
  6
DASHED
 62
     7
370
    13
100
AcDbLine
 39
0.25
 10
83.64670045219543
 20
113.0650056236933
 30
0.0
 11
85.91770045219542
 21
113.0650056236933
 31
0.0
1001
AUSTER_ANSICHT
1002
{
1000
Det03
1002
}
1001
AUSTER_FOLIE
1002
{
1000
NSB00990_S0_SPU_3POL
1002
}
  0
LINE
  5
53D4
330
20
100
AcDbEntity
  8
10000_FRONT
  6
DASHED
 62
     7
370
    13
100
AcDbLine
 39
0.25
 10
114.9477004521954
 20
182.9900056236933
 30
0.0
 11
114.9477004521954
 21
182.8100056236933
 31
0.0
1001
AUSTER_ANSICHT
1002
{
1000
Det03
1002
}
1001
AUSTER_FOLIE
1002
{
1000
NSB00990_S0_SPU_3POL
1002
}
  0
LINE
  5
53D5
330
20
100
AcDbEntity
  8
10000_FRONT
  6
DASHED
 62
     7
370
    13
100
AcDbLine
 39
0.25
 10
114.9477004521954
 20
181.4210056236933
 30
0.0
 11
114.9477004521954
 21
181.6010056236933
 31
0.0
1001
AUSTER_ANSICHT
1002
{
1000
Det03
1002
}
1001
AUSTER_FOLIE
1002
{
1000
NSB00990_S0_SPU_3POL
1002
}
  0
LINE
  5
53D6
330
20
100
AcDbEntity
  8
10000_FRONT
  6
DASHED
 62
     7
370
    13
100
AcDbLine
 39
0.25
 10
113.9177004521954
 20
182.9900056236933
 30
0.0
 11
113.9177004521954
 21
182.8100056236933
 31
0.0
1001
AUSTER_ANSICHT
1002
{
1000
Det03
1002
}
1001
AUSTER_FOLIE
1002
{
1000
NSB00990_S0_SPU_3POL
1002
}
  0
LINE
  5
53D7
330
20
100
AcDbEntity
  8
10000_FRONT
  6
DASHED
 62
     7
370
    13
100
AcDbLine
 39
0.25
 10
113.9177004521954
 20
181.4210056236933
 30
0.0
 11
113.9177004521954
 21
181.6010056236933
 31
0.0
1001
AUSTER_ANSICHT
1002
{
1000
Det03
1002
}
1001
AUSTER_FOLIE
1002
{
1000
NSB00990_S0_SPU_3POL
1002
}
  0
LINE
  5
53D8
330
20
100
AcDbEntity
  8
10000_FRONT
  6
DASHED
 62
     7
370
    13
100
AcDbLine
 39
0.25
 10
114.9477004521954
 20
182.9900056236933
 30
0.0
 11
114.9477004521954
 21
183.9830056236933
 31
0.0
1001
AUSTER_ANSICHT
1002
{
1000
Det03
1002
}
1001
AUSTER_FOLIE
1002
{
1000
NSB00990_S0_SPU_3POL
1002
}
  0
LINE
  5
53D9
330
20
100
AcDbEntity
  8
10000_FRONT
  6
DASHED
 62
     7
370
    13
100
AcDbLine
 39
0.25
 10
113.9177004521954
 20
183.9830056236933
 30
0.0
 11
113.9177004521954
 21
182.9900056236933
 31
0.0
1001
AUSTER_ANSICHT
1002
{
1000
Det03
1002
}
1001
AUSTER_FOLIE
1002
{
1000
NSB00990_S0_SPU_3POL
1002
}
  0
LINE
  5
53DA
330
20
100
AcDbEntity
  8
10000_FRONT
  6
DASHED
 62
     7
370
    13
100
AcDbLine
 39
0.25
 10
114.9477004521954
 20
181.6010056236933
 30
0.0
 11
117.2177004521954
 21
181.6010056236933
 31
0.0
1001
AUSTER_ANSICHT
1002
{
1000
Det03
1002
}
1001
AUSTER_FOLIE
1002
{
1000
NSB00990_S0_SPU_3POL
1002
}
  0
LINE
  5
53DB
330
20
100
AcDbEntity
  8
10000_FRONT
  6
DASHED
 62
     7
370
    13
100
AcDbLine
 39
0.25
 10
111.6467004521954
 20
181.6010056236933
 30
0.0
 11
113.9177004521954
 21
181.6010056236933
 31
0.0
1001
AUSTER_ANSICHT
1002
{
1000
Det03
1002
}
1001
AUSTER_FOLIE
1002
{
1000
NSB00990_S0_SPU_3POL
1002
}
  0
LINE
  5
53DC
330
20
100
AcDbEntity
  8
10000_FRONT
  6
DASHED
 62
     7
370
    13
100
AcDbLine
 39
0.25
 10
113.9177004521954
 20
182.8100056236933
 30
0.0
 11
111.6467004521954
 21
182.8100056236933
 31
0.0
1001
AUSTER_ANSICHT
1002
{
1000
Det03
1002
}
1001
AUSTER_FOLIE
1002
{
1000
NSB00990_S0_SPU_3POL
1002
}
  0
LINE
  5
53DD
330
20
100
AcDbEntity
  8
10000_FRONT
  6
DASHED
 62
     7
370
    13
100
AcDbLine
 39
0.25
 10
117.2177004521954
 20
182.8100056236933
 30
0.0
 11
114.9477004521954
 21
182.8100056236933
 31
0.0
1001
AUSTER_ANSICHT
1002
{
1000
Det03
1002
}
1001
AUSTER_FOLIE
1002
{
1000
NSB00990_S0_SPU_3POL
1002
}
  0
LINE
  5
53DE
330
20
100
AcDbEntity
  8
10000_FRONT
  6
DASHED
 62
     7
370
    13
100
AcDbLine
 39
0.25
 10
85.91770045219542
 20
182.9900056236933
 30
0.0
 11
85.91770045219542
 21
182.8100056236933
 31
0.0
1001
AUSTER_ANSICHT
1002
{
1000
Det03
1002
}
1001
AUSTER_FOLIE
1002
{
1000
NSB00990_S0_SPU_3POL
1002
}
  0
LINE
  5
53DF
330
20
100
AcDbEntity
  8
10000_FRONT
  6
DASHED
 62
     7
370
    13
100
AcDbLine
 39
0.25
 10
85.91770045219542
 20
181.4210056236933
 30
0.0
 11
85.91770045219542
 21
181.6010056236933
 31
0.0
1001
AUSTER_ANSICHT
1002
{
1000
Det03
1002
}
1001
AUSTER_FOLIE
1002
{
1000
NSB00990_S0_SPU_3POL
1002
}
  0
LINE
  5
53E0
330
20
100
AcDbEntity
  8
10000_FRONT
  6
DASHED
 62
     7
370
    13
100
AcDbLine
 39
0.25
 10
86.94770045219541
 20
182.9900056236933
 30
0.0
 11
86.94770045219541
 21
182.8100056236933
 31
0.0
1001
AUSTER_ANSICHT
1002
{
1000
Det03
1002
}
1001
AUSTER_FOLIE
1002
{
1000
NSB00990_S0_SPU_3POL
1002
}
  0
LINE
  5
53E1
330
20
100
AcDbEntity
  8
10000_FRONT
  6
DASHED
 62
     7
370
    13
100
AcDbLine
 39
0.25
 10
86.94770045219541
 20
181.4210056236933
 30
0.0
 11
86.94770045219541
 21
181.6010056236933
 31
0.0
1001
AUSTER_ANSICHT
1002
{
1000
Det03
1002
}
1001
AUSTER_FOLIE
1002
{
1000
NSB00990_S0_SPU_3POL
1002
}
  0
LINE
  5
53E2
330
20
100
AcDbEntity
  8
10000_FRONT
  6
DASHED
 62
     7
370
    13
100
AcDbLine
 39
0.25
 10
85.91770045219542
 20
182.9900056236933
 30
0.0
 11
85.91770045219542
 21
183.9830056236933
 31
0.0
1001
AUSTER_ANSICHT
1002
{
1000
Det03
1002
}
1001
AUSTER_FOLIE
1002
{
1000
NSB00990_S0_SPU_3POL
1002
}
  0
LINE
  5
53E3
330
20
100
AcDbEntity
  8
10000_FRONT
  6
DASHED
 62
     7
370
    13
100
AcDbLine
 39
0.25
 10
86.94770045219541
 20
183.9830056236933
 30
0.0
 11
86.94770045219541
 21
182.9900056236933
 31
0.0
1001
AUSTER_ANSICHT
1002
{
1000
Det03
1002
}
1001
AUSTER_FOLIE
1002
{
1000
NSB00990_S0_SPU_3POL
1002
}
  0
LINE
  5
53E4
330
20
100
AcDbEntity
  8
10000_FRONT
  6
DASHED
 62
     7
370
    13
100
AcDbLine
 39
0.25
 10
85.91770045219542
 20
181.6010056236933
 30
0.0
 11
83.64670045219543
 21
181.6010056236933
 31
0.0
1001
AUSTER_ANSICHT
1002
{
1000
Det03
1002
}
1001
AUSTER_FOLIE
1002
{
1000
NSB00990_S0_SPU_3POL
1002
}
  0
LINE
  5
53E5
330
20
100
AcDbEntity
  8
10000_FRONT
  6
DASHED
 62
     7
370
    13
100
AcDbLine
 39
0.25
 10
89.21770045219542
 20
181.6010056236933
 30
0.0
 11
86.94770045219541
 21
181.6010056236933
 31
0.0
1001
AUSTER_ANSICHT
1002
{
1000
Det03
1002
}
1001
AUSTER_FOLIE
1002
{
1000
NSB00990_S0_SPU_3POL
1002
}
  0
LINE
  5
53E6
330
20
100
AcDbEntity
  8
10000_FRONT
  6
DASHED
 62
     7
370
    13
100
AcDbLine
 39
0.25
 10
86.94770045219541
 20
182.8100056236933
 30
0.0
 11
89.21770045219542
 21
182.8100056236933
 31
0.0
1001
AUSTER_ANSICHT
1002
{
1000
Det03
1002
}
1001
AUSTER_FOLIE
1002
{
1000
NSB00990_S0_SPU_3POL
1002
}
  0
LINE
  5
53E7
330
20
100
AcDbEntity
  8
10000_FRONT
  6
DASHED
 62
     7
370
    13
100
AcDbLine
 39
0.25
 10
83.64670045219543
 20
182.8100056236933
 30
0.0
 11
85.91770045219542
 21
182.8100056236933
 31
0.0
1001
AUSTER_ANSICHT
1002
{
1000
Det03
1002
}
1001
AUSTER_FOLIE
1002
{
1000
NSB00990_S0_SPU_3POL
1002
}
  0
LINE
  5
53E8
330
20
100
AcDbEntity
  8
10000_FRONT
  6
DASHED
 62
     7
370
    13
100
AcDbLine
 39
0.25
 10
114.3147004521954
 20
172.7220056236933
 30
0.0
 11
114.3147004521954
 21
172.5420056236933
 31
0.0
1001
AUSTER_ANSICHT
1002
{
1000
Det03
1002
}
1001
AUSTER_FOLIE
1002
{
1000
NSB00990_S0_SPU_3POL
1002
}
  0
LINE
  5
53E9
330
20
100
AcDbEntity
  8
10000_FRONT
  6
DASHED
 62
     7
370
    13
100
AcDbLine
 39
0.25
 10
114.3147004521954
 20
171.1530056236933
 30
0.0
 11
114.3147004521954
 21
171.3330056236933
 31
0.0
1001
AUSTER_ANSICHT
1002
{
1000
Det03
1002
}
1001
AUSTER_FOLIE
1002
{
1000
NSB00990_S0_SPU_3POL
1002
}
  0
LINE
  5
53EA
330
20
100
AcDbEntity
  8
10000_FRONT
  6
DASHED
 62
     7
370
    13
100
AcDbLine
 39
0.25
 10
115.3447004521954
 20
172.7220056236933
 30
0.0
 11
115.3447004521954
 21
172.5420056236933
 31
0.0
1001
AUSTER_ANSICHT
1002
{
1000
Det03
1002
}
1001
AUSTER_FOLIE
1002
{
1000
NSB00990_S0_SPU_3POL
1002
}
  0
LINE
  5
53EB
330
20
100
AcDbEntity
  8
10000_FRONT
  6
DASHED
 62
     7
370
    13
100
AcDbLine
 39
0.25
 10
115.3447004521954
 20
171.1530056236933
 30
0.0
 11
115.3447004521954
 21
171.3330056236933
 31
0.0
1001
AUSTER_ANSICHT
1002
{
1000
Det03
1002
}
1001
AUSTER_FOLIE
1002
{
1000
NSB00990_S0_SPU_3POL
1002
}
  0
LINE
  5
53EC
330
20
100
AcDbEntity
  8
10000_FRONT
  6
DASHED
 62
     7
370
    13
100
AcDbLine
 39
0.25
 10
114.3147004521954
 20
172.7220056236933
 30
0.0
 11
114.3147004521954
 21
173.7150056236933
 31
0.0
1001
AUSTER_ANSICHT
1002
{
1000
Det03
1002
}
1001
AUSTER_FOLIE
1002
{
1000
NSB00990_S0_SPU_3POL
1002
}
  0
LINE
  5
53ED
330
20
100
AcDbEntity
  8
10000_FRONT
  6
DASHED
 62
     7
370
    13
100
AcDbLine
 39
0.25
 10
115.3447004521954
 20
173.7150056236933
 30
0.0
 11
115.3447004521954
 21
172.7220056236933
 31
0.0
1001
AUSTER_ANSICHT
1002
{
1000
Det03
1002
}
1001
AUSTER_FOLIE
1002
{
1000
NSB00990_S0_SPU_3POL
1002
}
  0
LINE
  5
53EE
330
20
100
AcDbEntity
  8
10000_FRONT
  6
DASHED
 62
     7
370
    13
100
AcDbLine
 39
0.25
 10
115.3447004521954
 20
171.1530056236933
 30
0.0
 11
115.3447004521954
 21
170.1610056236933
 31
0.0
1001
AUSTER_ANSICHT
1002
{
1000
Det03
1002
}
1001
AUSTER_FOLIE
1002
{
1000
NSB00990_S0_SPU_3POL
1002
}
  0
LINE
  5
53EF
330
20
100
AcDbEntity
  8
10000_FRONT
  6
DASHED
 62
     7
370
    13
100
AcDbLine
 39
0.25
 10
114.3147004521954
 20
170.1610056236933
 30
0.0
 11
114.3147004521954
 21
171.1530056236933
 31
0.0
1001
AUSTER_ANSICHT
1002
{
1000
Det03
1002
}
1001
AUSTER_FOLIE
1002
{
1000
NSB00990_S0_SPU_3POL
1002
}
  0
LINE
  5
53F0
330
20
100
AcDbEntity
  8
10000_FRONT
  6
DASHED
 62
     7
370
    13
100
AcDbLine
 39
0.25
 10
114.3147004521954
 20
171.3330056236933
 30
0.0
 11
112.0437004521954
 21
171.3330056236933
 31
0.0
1001
AUSTER_ANSICHT
1002
{
1000
Det03
1002
}
1001
AUSTER_FOLIE
1002
{
1000
NSB00990_S0_SPU_3POL
1002
}
  0
LINE
  5
53F1
330
20
100
AcDbEntity
  8
10000_FRONT
  6
DASHED
 62
     7
370
    13
100
AcDbLine
 39
0.25
 10
117.6157004521954
 20
171.3330056236933
 30
0.0
 11
115.3447004521954
 21
171.3330056236933
 31
0.0
1001
AUSTER_ANSICHT
1002
{
1000
Det03
1002
}
1001
AUSTER_FOLIE
1002
{
1000
NSB00990_S0_SPU_3POL
1002
}
  0
LINE
  5
53F2
330
20
100
AcDbEntity
  8
10000_FRONT
  6
DASHED
 62
     7
370
    13
100
AcDbLine
 39
0.25
 10
115.3447004521954
 20
172.5420056236933
 30
0.0
 11
117.6157004521954
 21
172.5420056236933
 31
0.0
1001
AUSTER_ANSICHT
1002
{
1000
Det03
1002
}
1001
AUSTER_FOLIE
1002
{
1000
NSB00990_S0_SPU_3POL
1002
}
  0
LINE
  5
53F3
330
20
100
AcDbEntity
  8
10000_FRONT
  6
DASHED
 62
     7
370
    13
100
AcDbLine
 39
0.25
 10
112.0437004521954
 20
172.5420056236933
 30
0.0
 11
114.3147004521954
 21
172.5420056236933
 31
0.0
1001
AUSTER_ANSICHT
1002
{
1000
Det03
1002
}
1001
AUSTER_FOLIE
1002
{
1000
NSB00990_S0_SPU_3POL
1002
}
  0
LINE
  5
53F4
330
20
100
AcDbEntity
  8
10000_FRONT
  6
DASHED
 62
     7
370
    13
100
AcDbLine
 39
0.25
 10
99.91470045219543
 20
172.7220056236933
 30
0.0
 11
99.91470045219543
 21
172.5420056236933
 31
0.0
1001
AUSTER_ANSICHT
1002
{
1000
Det03
1002
}
1001
AUSTER_FOLIE
1002
{
1000
NSB00990_S0_SPU_3POL
1002
}
  0
LINE
  5
53F5
330
20
100
AcDbEntity
  8
10000_FRONT
  6
DASHED
 62
     7
370
    13
100
AcDbLine
 39
0.25
 10
99.91470045219543
 20
171.1530056236933
 30
0.0
 11
99.91470045219543
 21
171.3330056236933
 31
0.0
1001
AUSTER_ANSICHT
1002
{
1000
Det03
1002
}
1001
AUSTER_FOLIE
1002
{
1000
NSB00990_S0_SPU_3POL
1002
}
  0
LINE
  5
53F6
330
20
100
AcDbEntity
  8
10000_FRONT
  6
DASHED
 62
     7
370
    13
100
AcDbLine
 39
0.25
 10
100.9447004521954
 20
172.7220056236933
 30
0.0
 11
100.9447004521954
 21
172.5420056236933
 31
0.0
1001
AUSTER_ANSICHT
1002
{
1000
Det03
1002
}
1001
AUSTER_FOLIE
1002
{
1000
NSB00990_S0_SPU_3POL
1002
}
  0
LINE
  5
53F7
330
20
100
AcDbEntity
  8
10000_FRONT
  6
DASHED
 62
     7
370
    13
100
AcDbLine
 39
0.25
 10
100.9447004521954
 20
171.1530056236933
 30
0.0
 11
100.9447004521954
 21
171.3330056236933
 31
0.0
1001
AUSTER_ANSICHT
1002
{
1000
Det03
1002
}
1001
AUSTER_FOLIE
1002
{
1000
NSB00990_S0_SPU_3POL
1002
}
  0
LINE
  5
53F8
330
20
100
AcDbEntity
  8
10000_FRONT
  6
DASHED
 62
     7
370
    13
100
AcDbLine
 39
0.25
 10
99.91470045219543
 20
172.7220056236933
 30
0.0
 11
99.91470045219543
 21
173.7150056236933
 31
0.0
1001
AUSTER_ANSICHT
1002
{
1000
Det03
1002
}
1001
AUSTER_FOLIE
1002
{
1000
NSB00990_S0_SPU_3POL
1002
}
  0
LINE
  5
53F9
330
20
100
AcDbEntity
  8
10000_FRONT
  6
DASHED
 62
     7
370
    13
100
AcDbLine
 39
0.25
 10
100.9447004521954
 20
173.7150056236933
 30
0.0
 11
100.9447004521954
 21
172.7220056236933
 31
0.0
1001
AUSTER_ANSICHT
1002
{
1000
Det03
1002
}
1001
AUSTER_FOLIE
1002
{
1000
NSB00990_S0_SPU_3POL
1002
}
  0
LINE
  5
53FA
330
20
100
AcDbEntity
  8
10000_FRONT
  6
DASHED
 62
     7
370
    13
100
AcDbLine
 39
0.25
 10
100.9447004521954
 20
171.1530056236933
 30
0.0
 11
100.9447004521954
 21
170.1610056236933
 31
0.0
1001
AUSTER_ANSICHT
1002
{
1000
Det03
1002
}
1001
AUSTER_FOLIE
1002
{
1000
NSB00990_S0_SPU_3POL
1002
}
  0
LINE
  5
53FB
330
20
100
AcDbEntity
  8
10000_FRONT
  6
DASHED
 62
     7
370
    13
100
AcDbLine
 39
0.25
 10
99.91470045219543
 20
170.1610056236933
 30
0.0
 11
99.91470045219543
 21
171.1530056236933
 31
0.0
1001
AUSTER_ANSICHT
1002
{
1000
Det03
1002
}
1001
AUSTER_FOLIE
1002
{
1000
NSB00990_S0_SPU_3POL
1002
}
  0
LINE
  5
53FC
330
20
100
AcDbEntity
  8
10000_FRONT
  6
DASHED
 62
     7
370
    13
100
AcDbLine
 39
0.25
 10
99.91470045219543
 20
171.3330056236933
 30
0.0
 11
97.64370045219543
 21
171.3330056236933
 31
0.0
1001
AUSTER_ANSICHT
1002
{
1000
Det03
1002
}
1001
AUSTER_FOLIE
1002
{
1000
NSB00990_S0_SPU_3POL
1002
}
  0
LINE
  5
53FD
330
20
100
AcDbEntity
  8
10000_FRONT
  6
DASHED
 62
     7
370
    13
100
AcDbLine
 39
0.25
 10
103.2157004521954
 20
171.3330056236933
 30
0.0
 11
100.9447004521954
 21
171.3330056236933
 31
0.0
1001
AUSTER_ANSICHT
1002
{
1000
Det03
1002
}
1001
AUSTER_FOLIE
1002
{
1000
NSB00990_S0_SPU_3POL
1002
}
  0
LINE
  5
53FE
330
20
100
AcDbEntity
  8
10000_FRONT
  6
DASHED
 62
     7
370
    13
100
AcDbLine
 39
0.25
 10
100.9447004521954
 20
172.5420056236933
 30
0.0
 11
103.2157004521954
 21
172.5420056236933
 31
0.0
1001
AUSTER_ANSICHT
1002
{
1000
Det03
1002
}
1001
AUSTER_FOLIE
1002
{
1000
NSB00990_S0_SPU_3POL
1002
}
  0
LINE
  5
53FF
330
20
100
AcDbEntity
  8
10000_FRONT
  6
DASHED
 62
     7
370
    13
100
AcDbLine
 39
0.25
 10
97.64370045219543
 20
172.5420056236933
 30
0.0
 11
99.91470045219543
 21
172.5420056236933
 31
0.0
1001
AUSTER_ANSICHT
1002
{
1000
Det03
1002
}
1001
AUSTER_FOLIE
1002
{
1000
NSB00990_S0_SPU_3POL
1002
}
  0
LINE
  5
5400
330
20
100
AcDbEntity
  8
10000_FRONT
  6
DASHED
 62
     7
370
    13
100
AcDbLine
 39
0.25
 10
85.51470045219543
 20
172.7220056236933
 30
0.0
 11
85.51470045219543
 21
172.5420056236933
 31
0.0
1001
AUSTER_ANSICHT
1002
{
1000
Det03
1002
}
1001
AUSTER_FOLIE
1002
{
1000
NSB00990_S0_SPU_3POL
1002
}
  0
LINE
  5
5401
330
20
100
AcDbEntity
  8
10000_FRONT
  6
DASHED
 62
     7
370
    13
100
AcDbLine
 39
0.25
 10
85.51470045219543
 20
171.1530056236933
 30
0.0
 11
85.51470045219543
 21
171.3330056236933
 31
0.0
1001
AUSTER_ANSICHT
1002
{
1000
Det03
1002
}
1001
AUSTER_FOLIE
1002
{
1000
NSB00990_S0_SPU_3POL
1002
}
  0
LINE
  5
5402
330
20
100
AcDbEntity
  8
10000_FRONT
  6
DASHED
 62
     7
370
    13
100
AcDbLine
 39
0.25
 10
86.54470045219539
 20
172.7220056236933
 30
0.0
 11
86.54470045219539
 21
172.5420056236933
 31
0.0
1001
AUSTER_ANSICHT
1002
{
1000
Det03
1002
}
1001
AUSTER_FOLIE
1002
{
1000
NSB00990_S0_SPU_3POL
1002
}
  0
LINE
  5
5403
330
20
100
AcDbEntity
  8
10000_FRONT
  6
DASHED
 62
     7
370
    13
100
AcDbLine
 39
0.25
 10
86.54470045219539
 20
171.1530056236933
 30
0.0
 11
86.54470045219539
 21
171.3330056236933
 31
0.0
1001
AUSTER_ANSICHT
1002
{
1000
Det03
1002
}
1001
AUSTER_FOLIE
1002
{
1000
NSB00990_S0_SPU_3POL
1002
}
  0
LINE
  5
5404
330
20
100
AcDbEntity
  8
10000_FRONT
  6
DASHED
 62
     7
370
    13
100
AcDbLine
 39
0.25
 10
85.51470045219543
 20
172.7220056236933
 30
0.0
 11
85.51470045219543
 21
173.7150056236933
 31
0.0
1001
AUSTER_ANSICHT
1002
{
1000
Det03
1002
}
1001
AUSTER_FOLIE
1002
{
1000
NSB00990_S0_SPU_3POL
1002
}
  0
LINE
  5
5405
330
20
100
AcDbEntity
  8
10000_FRONT
  6
DASHED
 62
     7
370
    13
100
AcDbLine
 39
0.25
 10
86.54470045219539
 20
173.7150056236933
 30
0.0
 11
86.54470045219539
 21
172.7220056236933
 31
0.0
1001
AUSTER_ANSICHT
1002
{
1000
Det03
1002
}
1001
AUSTER_FOLIE
1002
{
1000
NSB00990_S0_SPU_3POL
1002
}
  0
LINE
  5
5406
330
20
100
AcDbEntity
  8
10000_FRONT
  6
DASHED
 62
     7
370
    13
100
AcDbLine
 39
0.25
 10
86.54470045219539
 20
171.1530056236933
 30
0.0
 11
86.54470045219539
 21
170.1610056236933
 31
0.0
1001
AUSTER_ANSICHT
1002
{
1000
Det03
1002
}
1001
AUSTER_FOLIE
1002
{
1000
NSB00990_S0_SPU_3POL
1002
}
  0
LINE
  5
5407
330
20
100
AcDbEntity
  8
10000_FRONT
  6
DASHED
 62
     7
370
    13
100
AcDbLine
 39
0.25
 10
85.51470045219543
 20
170.1610056236933
 30
0.0
 11
85.51470045219543
 21
171.1530056236933
 31
0.0
1001
AUSTER_ANSICHT
1002
{
1000
Det03
1002
}
1001
AUSTER_FOLIE
1002
{
1000
NSB00990_S0_SPU_3POL
1002
}
  0
LINE
  5
5408
330
20
100
AcDbEntity
  8
10000_FRONT
  6
DASHED
 62
     7
370
    13
100
AcDbLine
 39
0.25
 10
85.51470045219543
 20
171.3330056236933
 30
0.0
 11
83.24370045219541
 21
171.3330056236933
 31
0.0
1001
AUSTER_ANSICHT
1002
{
1000
Det03
1002
}
1001
AUSTER_FOLIE
1002
{
1000
NSB00990_S0_SPU_3POL
1002
}
  0
LINE
  5
5409
330
20
100
AcDbEntity
  8
10000_FRONT
  6
DASHED
 62
     7
370
    13
100
AcDbLine
 39
0.25
 10
88.81570045219541
 20
171.3330056236933
 30
0.0
 11
86.54470045219539
 21
171.3330056236933
 31
0.0
1001
AUSTER_ANSICHT
1002
{
1000
Det03
1002
}
1001
AUSTER_FOLIE
1002
{
1000
NSB00990_S0_SPU_3POL
1002
}
  0
LINE
  5
540A
330
20
100
AcDbEntity
  8
10000_FRONT
  6
DASHED
 62
     7
370
    13
100
AcDbLine
 39
0.25
 10
86.54470045219539
 20
172.5420056236933
 30
0.0
 11
88.81570045219541
 21
172.5420056236933
 31
0.0
1001
AUSTER_ANSICHT
1002
{
1000
Det03
1002
}
1001
AUSTER_FOLIE
1002
{
1000
NSB00990_S0_SPU_3POL
1002
}
  0
LINE
  5
540B
330
20
100
AcDbEntity
  8
10000_FRONT
  6
DASHED
 62
     7
370
    13
100
AcDbLine
 39
0.25
 10
83.24370045219541
 20
172.5420056236933
 30
0.0
 11
85.51470045219543
 21
172.5420056236933
 31
0.0
1001
AUSTER_ANSICHT
1002
{
1000
Det03
1002
}
1001
AUSTER_FOLIE
1002
{
1000
NSB00990_S0_SPU_3POL
1002
}
  0
LINE
  5
540C
330
20
100
AcDbEntity
  8
10000_FRONT
  6
DASHED
 62
     7
370
    13
100
AcDbLine
 39
0.25
 10
114.3147004521954
 20
123.1530056236933
 30
0.0
 11
114.3147004521954
 21
123.3330056236933
 31
0.0
1001
AUSTER_ANSICHT
1002
{
1000
Det03
1002
}
1001
AUSTER_FOLIE
1002
{
1000
NSB00990_S0_SPU_3POL
1002
}
  0
LINE
  5
540D
330
20
100
AcDbEntity
  8
10000_FRONT
  6
DASHED
 62
     7
370
    13
100
AcDbLine
 39
0.25
 10
114.3147004521954
 20
124.7220056236933
 30
0.0
 11
114.3147004521954
 21
124.5420056236933
 31
0.0
1001
AUSTER_ANSICHT
1002
{
1000
Det03
1002
}
1001
AUSTER_FOLIE
1002
{
1000
NSB00990_S0_SPU_3POL
1002
}
  0
LINE
  5
540E
330
20
100
AcDbEntity
  8
10000_FRONT
  6
DASHED
 62
     7
370
    13
100
AcDbLine
 39
0.25
 10
115.3447004521954
 20
123.1530056236933
 30
0.0
 11
115.3447004521954
 21
123.3330056236933
 31
0.0
1001
AUSTER_ANSICHT
1002
{
1000
Det03
1002
}
1001
AUSTER_FOLIE
1002
{
1000
NSB00990_S0_SPU_3POL
1002
}
  0
LINE
  5
540F
330
20
100
AcDbEntity
  8
10000_FRONT
  6
DASHED
 62
     7
370
    13
100
AcDbLine
 39
0.25
 10
115.3447004521954
 20
124.7220056236933
 30
0.0
 11
115.3447004521954
 21
124.5420056236933
 31
0.0
1001
AUSTER_ANSICHT
1002
{
1000
Det03
1002
}
1001
AUSTER_FOLIE
1002
{
1000
NSB00990_S0_SPU_3POL
1002
}
  0
LINE
  5
5410
330
20
100
AcDbEntity
  8
10000_FRONT
  6
DASHED
 62
     7
370
    13
100
AcDbLine
 39
0.25
 10
114.3147004521954
 20
123.1530056236933
 30
0.0
 11
114.3147004521954
 21
122.1610056236933
 31
0.0
1001
AUSTER_ANSICHT
1002
{
1000
Det03
1002
}
1001
AUSTER_FOLIE
1002
{
1000
NSB00990_S0_SPU_3POL
1002
}
  0
LINE
  5
5411
330
20
100
AcDbEntity
  8
10000_FRONT
  6
DASHED
 62
     7
370
    13
100
AcDbLine
 39
0.25
 10
115.3447004521954
 20
122.1610056236933
 30
0.0
 11
115.3447004521954
 21
123.1530056236933
 31
0.0
1001
AUSTER_ANSICHT
1002
{
1000
Det03
1002
}
1001
AUSTER_FOLIE
1002
{
1000
NSB00990_S0_SPU_3POL
1002
}
  0
LINE
  5
5412
330
20
100
AcDbEntity
  8
10000_FRONT
  6
DASHED
 62
     7
370
    13
100
AcDbLine
 39
0.25
 10
115.3447004521954
 20
124.7220056236933
 30
0.0
 11
115.3447004521954
 21
125.7150056236933
 31
0.0
1001
AUSTER_ANSICHT
1002
{
1000
Det03
1002
}
1001
AUSTER_FOLIE
1002
{
1000
NSB00990_S0_SPU_3POL
1002
}
  0
LINE
  5
5413
330
20
100
AcDbEntity
  8
10000_FRONT
  6
DASHED
 62
     7
370
    13
100
AcDbLine
 39
0.25
 10
114.3147004521954
 20
125.7150056236933
 30
0.0
 11
114.3147004521954
 21
124.7220056236933
 31
0.0
1001
AUSTER_ANSICHT
1002
{
1000
Det03
1002
}
1001
AUSTER_FOLIE
1002
{
1000
NSB00990_S0_SPU_3POL
1002
}
  0
LINE
  5
5414
330
20
100
AcDbEntity
  8
10000_FRONT
  6
DASHED
 62
     7
370
    13
100
AcDbLine
 39
0.25
 10
114.3147004521954
 20
124.5420056236933
 30
0.0
 11
112.0437004521954
 21
124.5420056236933
 31
0.0
1001
AUSTER_ANSICHT
1002
{
1000
Det03
1002
}
1001
AUSTER_FOLIE
1002
{
1000
NSB00990_S0_SPU_3POL
1002
}
  0
LINE
  5
5415
330
20
100
AcDbEntity
  8
10000_FRONT
  6
DASHED
 62
     7
370
    13
100
AcDbLine
 39
0.25
 10
117.6157004521954
 20
124.5420056236933
 30
0.0
 11
115.3447004521954
 21
124.5420056236933
 31
0.0
1001
AUSTER_ANSICHT
1002
{
1000
Det03
1002
}
1001
AUSTER_FOLIE
1002
{
1000
NSB00990_S0_SPU_3POL
1002
}
  0
LINE
  5
5416
330
20
100
AcDbEntity
  8
10000_FRONT
  6
DASHED
 62
     7
370
    13
100
AcDbLine
 39
0.25
 10
115.3447004521954
 20
123.3330056236933
 30
0.0
 11
117.6157004521954
 21
123.3330056236933
 31
0.0
1001
AUSTER_ANSICHT
1002
{
1000
Det03
1002
}
1001
AUSTER_FOLIE
1002
{
1000
NSB00990_S0_SPU_3POL
1002
}
  0
LINE
  5
5417
330
20
100
AcDbEntity
  8
10000_FRONT
  6
DASHED
 62
     7
370
    13
100
AcDbLine
 39
0.25
 10
112.0437004521954
 20
123.3330056236933
 30
0.0
 11
114.3147004521954
 21
123.3330056236933
 31
0.0
1001
AUSTER_ANSICHT
1002
{
1000
Det03
1002
}
1001
AUSTER_FOLIE
1002
{
1000
NSB00990_S0_SPU_3POL
1002
}
  0
LINE
  5
5418
330
20
100
AcDbEntity
  8
10000_FRONT
  6
DASHED
 62
     7
370
    13
100
AcDbLine
 39
0.25
 10
99.91470045219543
 20
123.1530056236933
 30
0.0
 11
99.91470045219543
 21
123.3330056236933
 31
0.0
1001
AUSTER_ANSICHT
1002
{
1000
Det03
1002
}
1001
AUSTER_FOLIE
1002
{
1000
NSB00990_S0_SPU_3POL
1002
}
  0
LINE
  5
5419
330
20
100
AcDbEntity
  8
10000_FRONT
  6
DASHED
 62
     7
370
    13
100
AcDbLine
 39
0.25
 10
99.91470045219543
 20
124.7220056236933
 30
0.0
 11
99.91470045219543
 21
124.5420056236933
 31
0.0
1001
AUSTER_ANSICHT
1002
{
1000
Det03
1002
}
1001
AUSTER_FOLIE
1002
{
1000
NSB00990_S0_SPU_3POL
1002
}
  0
LINE
  5
541A
330
20
100
AcDbEntity
  8
10000_FRONT
  6
DASHED
 62
     7
370
    13
100
AcDbLine
 39
0.25
 10
100.9447004521954
 20
123.1530056236933
 30
0.0
 11
100.9447004521954
 21
123.3330056236933
 31
0.0
1001
AUSTER_ANSICHT
1002
{
1000
Det03
1002
}
1001
AUSTER_FOLIE
1002
{
1000
NSB00990_S0_SPU_3POL
1002
}
  0
LINE
  5
541B
330
20
100
AcDbEntity
  8
10000_FRONT
  6
DASHED
 62
     7
370
    13
100
AcDbLine
 39
0.25
 10
100.9447004521954
 20
124.7220056236933
 30
0.0
 11
100.9447004521954
 21
124.5420056236933
 31
0.0
1001
AUSTER_ANSICHT
1002
{
1000
Det03
1002
}
1001
AUSTER_FOLIE
1002
{
1000
NSB00990_S0_SPU_3POL
1002
}
  0
LINE
  5
541C
330
20
100
AcDbEntity
  8
10000_FRONT
  6
DASHED
 62
     7
370
    13
100
AcDbLine
 39
0.25
 10
99.91470045219543
 20
123.1530056236933
 30
0.0
 11
99.91470045219543
 21
122.1610056236933
 31
0.0
1001
AUSTER_ANSICHT
1002
{
1000
Det03
1002
}
1001
AUSTER_FOLIE
1002
{
1000
NSB00990_S0_SPU_3POL
1002
}
  0
LINE
  5
541D
330
20
100
AcDbEntity
  8
10000_FRONT
  6
DASHED
 62
     7
370
    13
100
AcDbLine
 39
0.25
 10
100.9447004521954
 20
124.7220056236933
 30
0.0
 11
100.9447004521954
 21
125.7150056236933
 31
0.0
1001
AUSTER_ANSICHT
1002
{
1000
Det03
1002
}
1001
AUSTER_FOLIE
1002
{
1000
NSB00990_S0_SPU_3POL
1002
}
  0
LINE
  5
541E
330
20
100
AcDbEntity
  8
10000_FRONT
  6
DASHED
 62
     7
370
    13
100
AcDbLine
 39
0.25
 10
99.91470045219543
 20
125.7150056236933
 30
0.0
 11
99.91470045219543
 21
124.7220056236933
 31
0.0
1001
AUSTER_ANSICHT
1002
{
1000
Det03
1002
}
1001
AUSTER_FOLIE
1002
{
1000
NSB00990_S0_SPU_3POL
1002
}
  0
LINE
  5
541F
330
20
100
AcDbEntity
  8
10000_FRONT
  6
DASHED
 62
     7
370
    13
100
AcDbLine
 39
0.25
 10
99.91470045219543
 20
124.5420056236933
 30
0.0
 11
97.64370045219543
 21
124.5420056236933
 31
0.0
1001
AUSTER_ANSICHT
1002
{
1000
Det03
1002
}
1001
AUSTER_FOLIE
1002
{
1000
NSB00990_S0_SPU_3POL
1002
}
  0
LINE
  5
5420
330
20
100
AcDbEntity
  8
10000_FRONT
  6
DASHED
 62
     7
370
    13
100
AcDbLine
 39
0.25
 10
103.2157004521954
 20
124.5420056236933
 30
0.0
 11
100.9447004521954
 21
124.5420056236933
 31
0.0
1001
AUSTER_ANSICHT
1002
{
1000
Det03
1002
}
1001
AUSTER_FOLIE
1002
{
1000
NSB00990_S0_SPU_3POL
1002
}
  0
LINE
  5
5421
330
20
100
AcDbEntity
  8
10000_FRONT
  6
DASHED
 62
     7
370
    13
100
AcDbLine
 39
0.25
 10
100.9447004521954
 20
123.3330056236933
 30
0.0
 11
103.2157004521954
 21
123.3330056236933
 31
0.0
1001
AUSTER_ANSICHT
1002
{
1000
Det03
1002
}
1001
AUSTER_FOLIE
1002
{
1000
NSB00990_S0_SPU_3POL
1002
}
  0
LINE
  5
5422
330
20
100
AcDbEntity
  8
10000_FRONT
  6
DASHED
 62
     7
370
    13
100
AcDbLine
 39
0.25
 10
97.64370045219543
 20
123.3330056236933
 30
0.0
 11
99.91470045219543
 21
123.3330056236933
 31
0.0
1001
AUSTER_ANSICHT
1002
{
1000
Det03
1002
}
1001
AUSTER_FOLIE
1002
{
1000
NSB00990_S0_SPU_3POL
1002
}
  0
LINE
  5
5423
330
20
100
AcDbEntity
  8
10000_FRONT
  6
DASHED
 62
     7
370
    13
100
AcDbLine
 39
0.25
 10
85.51470045219543
 20
123.1530056236933
 30
0.0
 11
85.51470045219543
 21
123.3330056236933
 31
0.0
1001
AUSTER_ANSICHT
1002
{
1000
Det03
1002
}
1001
AUSTER_FOLIE
1002
{
1000
NSB00990_S0_SPU_3POL
1002
}
  0
LINE
  5
5424
330
20
100
AcDbEntity
  8
10000_FRONT
  6
DASHED
 62
     7
370
    13
100
AcDbLine
 39
0.25
 10
85.51470045219543
 20
124.7220056236933
 30
0.0
 11
85.51470045219543
 21
124.5420056236933
 31
0.0
1001
AUSTER_ANSICHT
1002
{
1000
Det03
1002
}
1001
AUSTER_FOLIE
1002
{
1000
NSB00990_S0_SPU_3POL
1002
}
  0
LINE
  5
5425
330
20
100
AcDbEntity
  8
10000_FRONT
  6
DASHED
 62
     7
370
    13
100
AcDbLine
 39
0.25
 10
86.54470045219539
 20
123.1530056236933
 30
0.0
 11
86.54470045219539
 21
123.3330056236933
 31
0.0
1001
AUSTER_ANSICHT
1002
{
1000
Det03
1002
}
1001
AUSTER_FOLIE
1002
{
1000
NSB00990_S0_SPU_3POL
1002
}
  0
LINE
  5
5426
330
20
100
AcDbEntity
  8
10000_FRONT
  6
DASHED
 62
     7
370
    13
100
AcDbLine
 39
0.25
 10
86.54470045219539
 20
124.7220056236933
 30
0.0
 11
86.54470045219539
 21
124.5420056236933
 31
0.0
1001
AUSTER_ANSICHT
1002
{
1000
Det03
1002
}
1001
AUSTER_FOLIE
1002
{
1000
NSB00990_S0_SPU_3POL
1002
}
  0
LINE
  5
5427
330
20
100
AcDbEntity
  8
10000_FRONT
  6
DASHED
 62
     7
370
    13
100
AcDbLine
 39
0.25
 10
85.51470045219543
 20
123.1530056236933
 30
0.0
 11
85.51470045219543
 21
122.1610056236933
 31
0.0
1001
AUSTER_ANSICHT
1002
{
1000
Det03
1002
}
1001
AUSTER_FOLIE
1002
{
1000
NSB00990_S0_SPU_3POL
1002
}
  0
LINE
  5
5428
330
20
100
AcDbEntity
  8
10000_FRONT
  6
DASHED
 62
     7
370
    13
100
AcDbLine
 39
0.25
 10
86.54470045219539
 20
122.1610056236933
 30
0.0
 11
86.54470045219539
 21
123.1530056236933
 31
0.0
1001
AUSTER_ANSICHT
1002
{
1000
Det03
1002
}
1001
AUSTER_FOLIE
1002
{
1000
NSB00990_S0_SPU_3POL
1002
}
  0
LINE
  5
5429
330
20
100
AcDbEntity
  8
10000_FRONT
  6
DASHED
 62
     7
370
    13
100
AcDbLine
 39
0.25
 10
86.54470045219539
 20
124.7220056236933
 30
0.0
 11
86.54470045219539
 21
125.7150056236933
 31
0.0
1001
AUSTER_ANSICHT
1002
{
1000
Det03
1002
}
1001
AUSTER_FOLIE
1002
{
1000
NSB00990_S0_SPU_3POL
1002
}
  0
LINE
  5
542A
330
20
100
AcDbEntity
  8
10000_FRONT
  6
DASHED
 62
     7
370
    13
100
AcDbLine
 39
0.25
 10
85.51470045219543
 20
125.7150056236933
 30
0.0
 11
85.51470045219543
 21
124.7220056236933
 31
0.0
1001
AUSTER_ANSICHT
1002
{
1000
Det03
1002
}
1001
AUSTER_FOLIE
1002
{
1000
NSB00990_S0_SPU_3POL
1002
}
  0
LINE
  5
542B
330
20
100
AcDbEntity
  8
10000_FRONT
  6
DASHED
 62
     7
370
    13
100
AcDbLine
 39
0.25
 10
85.51470045219543
 20
124.5420056236933
 30
0.0
 11
83.24370045219541
 21
124.5420056236933
 31
0.0
1001
AUSTER_ANSICHT
1002
{
1000
Det03
1002
}
1001
AUSTER_FOLIE
1002
{
1000
NSB00990_S0_SPU_3POL
1002
}
  0
LINE
  5
542C
330
20
100
AcDbEntity
  8
10000_FRONT
  6
DASHED
 62
     7
370
    13
100
AcDbLine
 39
0.25
 10
88.81570045219541
 20
124.5420056236933
 30
0.0
 11
86.54470045219539
 21
124.5420056236933
 31
0.0
1001
AUSTER_ANSICHT
1002
{
1000
Det03
1002
}
1001
AUSTER_FOLIE
1002
{
1000
NSB00990_S0_SPU_3POL
1002
}
  0
LINE
  5
542D
330
20
100
AcDbEntity
  8
10000_FRONT
  6
DASHED
 62
     7
370
    13
100
AcDbLine
 39
0.25
 10
86.54470045219539
 20
123.3330056236933
 30
0.0
 11
88.81570045219541
 21
123.3330056236933
 31
0.0
1001
AUSTER_ANSICHT
1002
{
1000
Det03
1002
}
1001
AUSTER_FOLIE
1002
{
1000
NSB00990_S0_SPU_3POL
1002
}
  0
LINE
  5
542E
330
20
100
AcDbEntity
  8
10000_FRONT
  6
DASHED
 62
     7
370
    13
100
AcDbLine
 39
0.25
 10
83.24370045219541
 20
123.3330056236933
 30
0.0
 11
85.51470045219543
 21
123.3330056236933
 31
0.0
1001
AUSTER_ANSICHT
1002
{
1000
Det03
1002
}
1001
AUSTER_FOLIE
1002
{
1000
NSB00990_S0_SPU_3POL
1002
}
  0
LINE
  5
542F
330
20
100
AcDbEntity
  8
10000_FRONT
  6
DASHED
 62
     7
370
    13
100
AcDbLine
 39
0.25
 10
79.4797004521954
 20
181.4380056236933
 30
0.0
 11
121.3797004521954
 21
181.4380056236933
 31
0.0
1001
AUSTER_ANSICHT
1002
{
1000
Det03
1002
}
1001
AUSTER_FOLIE
1002
{
1000
NSB00990_S0_SPU_3POL
1002
}
  0
LINE
  5
5430
330
20
100
AcDbEntity
  8
10000_FRONT
  6
DASHED
 62
     7
370
    13
100
AcDbLine
 39
0.25
 10
122.8797004521954
 20
179.9380056236933
 30
0.0
 11
122.8797004521954
 21
167.4380056236933
 31
0.0
1001
AUSTER_ANSICHT
1002
{
1000
Det03
1002
}
1001
AUSTER_FOLIE
1002
{
1000
NSB00990_S0_SPU_3POL
1002
}
  0
LINE
  5
5431
330
20
100
AcDbEntity
  8
10000_FRONT
  6
DASHED
 62
     7
370
    13
100
AcDbLine
 39
0.25
 10
79.07970045219542
 20
114.4380056236933
 30
0.0
 11
121.8797004521954
 21
114.4380056236933
 31
0.0
1001
AUSTER_ANSICHT
1002
{
1000
Det03
1002
}
1001
AUSTER_FOLIE
1002
{
1000
NSB00990_S0_SPU_3POL
1002
}
  0
LINE
  5
5432
330
20
100
AcDbEntity
  8
10000_FRONT
  6
DASHED
 62
     7
370
    13
100
AcDbLine
 39
0.25
 10
100.9447004521954
 20
122.1610056236933
 30
0.0
 11
100.9447004521954
 21
123.1530056236933
 31
0.0
1001
AUSTER_ANSICHT
1002
{
1000
Det03
1002
}
1001
AUSTER_FOLIE
1002
{
1000
NSB00990_S0_SPU_3POL
1002
}
  0
LINE
  5
5433
330
20
100
AcDbEntity
  8
10000_FRONT
  6
Continuous
 62
     7
370
    20
100
AcDbLine
 39
0.25
 10
94.41470045219542
 20
205.9530056236933
 30
0.0
 11
94.41470045219542
 21
206.1330056236934
 31
0.0
1001
AUSTER_ANSICHT
1002
{
1000
Det03
1002
}
1001
AUSTER_FOLIE
1002
{
1000
NSB00990_S0_SPU_3POL
1002
}
  0
LINE
  5
5434
330
20
100
AcDbEntity
  8
10000_FRONT
  6
Continuous
 62
     7
370
    20
100
AcDbLine
 39
0.25
 10
94.41470045219542
 20
207.5220056236933
 30
0.0
 11
94.41470045219542
 21
207.3420056236933
 31
0.0
1001
AUSTER_ANSICHT
1002
{
1000
Det03
1002
}
1001
AUSTER_FOLIE
1002
{
1000
NSB00990_S0_SPU_3POL
1002
}
  0
LINE
  5
5435
330
20
100
AcDbEntity
  8
10000_FRONT
  6
Continuous
 62
     7
370
    20
100
AcDbLine
 39
0.25
 10
95.44470045219542
 20
205.9530056236933
 30
0.0
 11
95.44470045219542
 21
206.1330056236934
 31
0.0
1001
AUSTER_ANSICHT
1002
{
1000
Det03
1002
}
1001
AUSTER_FOLIE
1002
{
1000
NSB00990_S0_SPU_3POL
1002
}
  0
LINE
  5
5436
330
20
100
AcDbEntity
  8
10000_FRONT
  6
Continuous
 62
     7
370
    20
100
AcDbLine
 39
0.25
 10
95.44470045219542
 20
207.5220056236933
 30
0.0
 11
95.44470045219542
 21
207.3420056236933
 31
0.0
1001
AUSTER_ANSICHT
1002
{
1000
Det03
1002
}
1001
AUSTER_FOLIE
1002
{
1000
NSB00990_S0_SPU_3POL
1002
}
  0
LINE
  5
5437
330
20
100
AcDbEntity
  8
10000_FRONT
  6
Continuous
 62
     7
370
    20
100
AcDbLine
 39
0.25
 10
94.41470045219542
 20
205.9530056236933
 30
0.0
 11
94.41470045219542
 21
204.9610056236933
 31
0.0
1001
AUSTER_ANSICHT
1002
{
1000
Det03
1002
}
1001
AUSTER_FOLIE
1002
{
1000
NSB00990_S0_SPU_3POL
1002
}
  0
LINE
  5
5438
330
20
100
AcDbEntity
  8
10000_FRONT
  6
Continuous
 62
     7
370
    20
100
AcDbLine
 39
0.25
 10
95.44470045219542
 20
204.9610056236933
 30
0.0
 11
95.44470045219542
 21
205.9530056236933
 31
0.0
1001
AUSTER_ANSICHT
1002
{
1000
Det03
1002
}
1001
AUSTER_FOLIE
1002
{
1000
NSB00990_S0_SPU_3POL
1002
}
  0
LINE
  5
5439
330
20
100
AcDbEntity
  8
10000_FRONT
  6
Continuous
 62
     7
370
    20
100
AcDbLine
 39
0.25
 10
95.44470045219542
 20
207.5220056236933
 30
0.0
 11
95.44470045219542
 21
208.5150056236933
 31
0.0
1001
AUSTER_ANSICHT
1002
{
1000
Det03
1002
}
1001
AUSTER_FOLIE
1002
{
1000
NSB00990_S0_SPU_3POL
1002
}
  0
LINE
  5
543A
330
20
100
AcDbEntity
  8
10000_FRONT
  6
Continuous
 62
     7
370
    20
100
AcDbLine
 39
0.25
 10
94.41470045219542
 20
208.5150056236933
 30
0.0
 11
94.41470045219542
 21
207.5220056236933
 31
0.0
1001
AUSTER_ANSICHT
1002
{
1000
Det03
1002
}
1001
AUSTER_FOLIE
1002
{
1000
NSB00990_S0_SPU_3POL
1002
}
  0
LINE
  5
543B
330
20
100
AcDbEntity
  8
10000_FRONT
  6
Continuous
 62
     7
370
    20
100
AcDbLine
 39
0.25
 10
94.41470045219542
 20
207.3420056236933
 30
0.0
 11
92.14370045219542
 21
207.3420056236933
 31
0.0
1001
AUSTER_ANSICHT
1002
{
1000
Det03
1002
}
1001
AUSTER_FOLIE
1002
{
1000
NSB00990_S0_SPU_3POL
1002
}
  0
LINE
  5
543C
330
20
100
AcDbEntity
  8
10000_FRONT
  6
Continuous
 62
     7
370
    20
100
AcDbLine
 39
0.25
 10
97.71570045219542
 20
207.3420056236933
 30
0.0
 11
95.44470045219542
 21
207.3420056236933
 31
0.0
1001
AUSTER_ANSICHT
1002
{
1000
Det03
1002
}
1001
AUSTER_FOLIE
1002
{
1000
NSB00990_S0_SPU_3POL
1002
}
  0
LINE
  5
543D
330
20
100
AcDbEntity
  8
10000_FRONT
  6
Continuous
 62
     7
370
    20
100
AcDbLine
 39
0.25
 10
95.44470045219542
 20
206.1330056236934
 30
0.0
 11
97.71570045219542
 21
206.1330056236934
 31
0.0
1001
AUSTER_ANSICHT
1002
{
1000
Det03
1002
}
1001
AUSTER_FOLIE
1002
{
1000
NSB00990_S0_SPU_3POL
1002
}
  0
LINE
  5
543E
330
20
100
AcDbEntity
  8
10000_FRONT
  6
Continuous
 62
     7
370
    20
100
AcDbLine
 39
0.25
 10
92.14370045219542
 20
206.1330056236934
 30
0.0
 11
94.41470045219542
 21
206.1330056236934
 31
0.0
1001
AUSTER_ANSICHT
1002
{
1000
Det03
1002
}
1001
AUSTER_FOLIE
1002
{
1000
NSB00990_S0_SPU_3POL
1002
}
  0
LINE
  5
543F
330
20
100
AcDbEntity
  8
11000_Left
  6
Continuous
 62
     7
370
    50
100
AcDbLine
 39
0.5
 10
235.9417004521954
 20
187.9360056236933
 30
0.0
 11
221.9417004521954
 21
187.9360056236933
 31
0.0
1001
AUSTER_ANSICHT
1002
{
1000
Det03
1002
}
1001
AUSTER_FOLIE
1002
{
1000
NSB00990_S0_SPU_3POL
1002
}
  0
LINE
  5
5440
330
20
100
AcDbEntity
  8
11000_Left
  6
Continuous
 62
     7
370
    50
100
AcDbLine
 39
0.5
 10
239.9417004521954
 20
212.9360056236933
 30
0.0
 11
241.6377004521954
 21
212.9360056236933
 31
0.0
1001
AUSTER_ANSICHT
1002
{
1000
Det03
1002
}
1001
AUSTER_FOLIE
1002
{
1000
NSB00990_S0_SPU_3POL
1002
}
  0
LINE
  5
5441
330
20
100
AcDbEntity
  8
11000_Left
  6
Continuous
 62
     7
370
    50
100
AcDbLine
 39
0.5
 10
221.9417004521954
 20
187.9360056236933
 30
0.0
 11
221.9417004521954
 21
189.9360056236933
 31
0.0
1001
AUSTER_ANSICHT
1002
{
1000
Det03
1002
}
1001
AUSTER_FOLIE
1002
{
1000
NSB00990_S0_SPU_3POL
1002
}
  0
LINE
  5
5442
330
20
100
AcDbEntity
  8
11000_Left
  6
Continuous
 62
     7
370
    50
100
AcDbLine
 39
0.5
 10
235.9417004521954
 20
187.9360056236933
 30
0.0
 11
235.9417004521954
 21
189.9360056236933
 31
0.0
1001
AUSTER_ANSICHT
1002
{
1000
Det03
1002
}
1001
AUSTER_FOLIE
1002
{
1000
NSB00990_S0_SPU_3POL
1002
}
  0
LINE
  5
5443
330
20
100
AcDbEntity
  8
11000_Left
  6
Continuous
 62
     7
370
    50
100
AcDbLine
 39
0.5
 10
229.6917004521954
 20
181.1360056236933
 30
0.0
 11
228.1917004521954
 21
181.1360056236933
 31
0.0
1001
AUSTER_ANSICHT
1002
{
1000
Det03
1002
}
1001
AUSTER_FOLIE
1002
{
1000
NSB00990_S0_SPU_3POL
1002
}
  0
LINE
  5
5444
330
20
100
AcDbEntity
  8
11000_Left
  6
Continuous
 62
     7
370
    50
100
AcDbLine
 39
0.5
 10
229.6917004521954
 20
181.1360056236933
 30
0.0
 11
229.6917004521954
 21
187.9360056236933
 31
0.0
1001
AUSTER_ANSICHT
1002
{
1000
Det03
1002
}
1001
AUSTER_FOLIE
1002
{
1000
NSB00990_S0_SPU_3POL
1002
}
  0
LINE
  5
5445
330
20
100
AcDbEntity
  8
11000_Left
  6
Continuous
 62
     7
370
    50
100
AcDbLine
 39
0.5
 10
228.1917004521954
 20
187.9380056236933
 30
0.0
 11
228.1917004521954
 21
181.1360056236933
 31
0.0
1001
AUSTER_ANSICHT
1002
{
1000
Det03
1002
}
1001
AUSTER_FOLIE
1002
{
1000
NSB00990_S0_SPU_3POL
1002
}
  0
LINE
  5
5446
330
20
100
AcDbEntity
  8
11000_Left
  6
Continuous
 62
     7
370
    20
100
AcDbLine
 39
0.25
 10
226.9417004521954
 20
194.8360056236933
 30
0.0
 11
222.4417004521954
 21
194.8360056236933
 31
0.0
1001
AUSTER_ANSICHT
1002
{
1000
Det03
1002
}
1001
AUSTER_FOLIE
1002
{
1000
NSB00990_S0_SPU_3POL
1002
}
  0
LINE
  5
5447
330
20
100
AcDbEntity
  8
11000_Left
  6
Continuous
 62
     7
370
    20
100
AcDbLine
 39
0.25
 10
226.9417004521954
 20
197.8360056236933
 30
0.0
 11
226.9417004521954
 21
194.8360056236933
 31
0.0
1001
AUSTER_ANSICHT
1002
{
1000
Det03
1002
}
1001
AUSTER_FOLIE
1002
{
1000
NSB00990_S0_SPU_3POL
1002
}
  0
LINE
  5
5448
330
20
100
AcDbEntity
  8
11000_Left
  6
Continuous
 62
     7
370
    20
100
AcDbLine
 39
0.25
 10
222.4417004521954
 20
197.8360056236933
 30
0.0
 11
226.9417004521954
 21
197.8360056236933
 31
0.0
1001
AUSTER_ANSICHT
1002
{
1000
Det03
1002
}
1001
AUSTER_FOLIE
1002
{
1000
NSB00990_S0_SPU_3POL
1002
}
  0
LINE
  5
5449
330
20
100
AcDbEntity
  8
11000_Left
  6
Continuous
 62
     7
370
    20
100
AcDbLine
 39
0.25
 10
222.4417004521954
 20
194.8360056236933
 30
0.0
 11
222.4417004521954
 21
197.8360056236933
 31
0.0
1001
AUSTER_ANSICHT
1002
{
1000
Det03
1002
}
1001
AUSTER_FOLIE
1002
{
1000
NSB00990_S0_SPU_3POL
1002
}
  0
LINE
  5
544A
330
20
100
AcDbEntity
  8
11000_Left
  6
Continuous
 62
     7
370
    50
100
AcDbLine
 39
0.5
 10
239.9417004521954
 20
212.9360056236933
 30
0.0
 11
239.3807004521954
 21
213.4970056236933
 31
0.0
1001
AUSTER_ANSICHT
1002
{
1000
Det03
1002
}
1001
AUSTER_FOLIE
1002
{
1000
NSB00990_S0_SPU_3POL
1002
}
  0
LINE
  5
544B
330
20
100
AcDbEntity
  8
11000_Left
  6
Continuous
 62
     7
370
    20
100
AcDbLine
 39
0.25
 10
200.4417004521954
 20
197.8360056236933
 30
0.0
 11
204.9417004521954
 21
197.8360056236933
 31
0.0
1001
AUSTER_ANSICHT
1002
{
1000
Det03
1002
}
1001
AUSTER_FOLIE
1002
{
1000
NSB00990_S0_SPU_3POL
1002
}
  0
LINE
  5
544C
330
20
100
AcDbEntity
  8
11000_Left
  6
Continuous
 62
     7
370
    20
100
AcDbLine
 39
0.25
 10
204.9417004521954
 20
197.8360056236933
 30
0.0
 11
204.9417004521954
 21
194.8360056236933
 31
0.0
1001
AUSTER_ANSICHT
1002
{
1000
Det03
1002
}
1001
AUSTER_FOLIE
1002
{
1000
NSB00990_S0_SPU_3POL
1002
}
  0
LINE
  5
544D
330
20
100
AcDbEntity
  8
11000_Left
  6
Continuous
 62
     7
370
    20
100
AcDbLine
 39
0.25
 10
204.9417004521954
 20
194.8360056236933
 30
0.0
 11
200.4417004521954
 21
194.8360056236933
 31
0.0
1001
AUSTER_ANSICHT
1002
{
1000
Det03
1002
}
1001
AUSTER_FOLIE
1002
{
1000
NSB00990_S0_SPU_3POL
1002
}
  0
LINE
  5
544E
330
20
100
AcDbEntity
  8
11000_Left
  6
Continuous
 62
     7
370
    20
100
AcDbLine
 39
0.25
 10
200.4417004521954
 20
194.8360056236933
 30
0.0
 11
200.4417004521954
 21
197.8360056236933
 31
0.0
1001
AUSTER_ANSICHT
1002
{
1000
Det03
1002
}
1001
AUSTER_FOLIE
1002
{
1000
NSB00990_S0_SPU_3POL
1002
}
  0
LINE
  5
544F
330
20
100
AcDbEntity
  8
11000_Left
  6
Continuous
 62
     7
370
    50
100
AcDbLine
 39
0.5
 10
192.9417004521954
 20
192.4360056236933
 30
0.0
 11
192.9417004521954
 21
212.4360056236934
 31
0.0
1001
AUSTER_ANSICHT
1002
{
1000
Det03
1002
}
1001
AUSTER_FOLIE
1002
{
1000
NSB00990_S0_SPU_3POL
1002
}
  0
LINE
  5
5450
330
20
100
AcDbEntity
  8
11000_Left
  6
Continuous
 62
     7
370
    50
100
AcDbLine
 39
0.5
 10
193.4417004521954
 20
212.9360056236933
 30
0.0
 11
221.9417004521954
 21
212.9360056236933
 31
0.0
1001
AUSTER_ANSICHT
1002
{
1000
Det03
1002
}
1001
AUSTER_FOLIE
1002
{
1000
NSB00990_S0_SPU_3POL
1002
}
  0
LINE
  5
5451
330
20
100
AcDbEntity
  8
11000_Left
  6
Continuous
 62
     7
370
    50
100
AcDbLine
 39
0.5
 10
193.4417004521954
 20
189.9360056236933
 30
0.0
 11
221.9417004521954
 21
189.9360056236933
 31
0.0
1001
AUSTER_ANSICHT
1002
{
1000
Det03
1002
}
1001
AUSTER_FOLIE
1002
{
1000
NSB00990_S0_SPU_3POL
1002
}
  0
LINE
  5
5452
330
20
100
AcDbEntity
  8
11000_Left
  6
Continuous
 62
     7
370
    50
100
AcDbLine
 39
0.5
 10
242.4417004521954
 20
201.4360056236934
 30
0.0
 11
242.4417004521954
 21
190.4360056236933
 31
0.0
1001
AUSTER_ANSICHT
1002
{
1000
Det03
1002
}
1001
AUSTER_FOLIE
1002
{
1000
NSB00990_S0_SPU_3POL
1002
}
  0
LINE
  5
5453
330
20
100
AcDbEntity
  8
11000_Left
  6
Continuous
 62
     7
370
    50
100
AcDbLine
 39
0.5
 10
222.5027004521954
 20
213.4970056236933
 30
0.0
 11
221.9417004521954
 21
212.9360056236933
 31
0.0
1001
AUSTER_ANSICHT
1002
{
1000
Det03
1002
}
1001
AUSTER_FOLIE
1002
{
1000
NSB00990_S0_SPU_3POL
1002
}
  0
LINE
  5
5454
330
20
100
AcDbEntity
  8
11000_Left
  6
Continuous
 62
     7
370
    50
100
AcDbLine
 39
0.5
 10
192.9417004521954
 20
192.4360056236933
 30
0.0
 11
192.9417004521954
 21
190.4360056236933
 31
0.0
1001
AUSTER_ANSICHT
1002
{
1000
Det03
1002
}
1001
AUSTER_FOLIE
1002
{
1000
NSB00990_S0_SPU_3POL
1002
}
  0
LINE
  5
5455
330
20
100
AcDbEntity
  8
11000_Left
  6
Continuous
 62
     7
370
    50
100
AcDbLine
 39
0.5
 10
235.9417004521954
 20
189.9360056236933
 30
0.0
 11
241.9417004521954
 21
189.9360056236933
 31
0.0
1001
AUSTER_ANSICHT
1002
{
1000
Det03
1002
}
1001
AUSTER_FOLIE
1002
{
1000
NSB00990_S0_SPU_3POL
1002
}
  0
LINE
  5
5456
330
20
100
AcDbEntity
  8
11000_Left
  6
Continuous
 62
     7
370
    50
100
AcDbLine
 39
0.25
 10
221.9417004521954
 20
189.9360056236933
 30
0.0
 11
235.9417004521954
 21
189.9360056236933
 31
0.0
1001
AUSTER_ANSICHT
1002
{
1000
Det03
1002
}
1001
AUSTER_FOLIE
1002
{
1000
NSB00990_S0_SPU_3POL
1002
}
  0
LINE
  5
5457
330
20
100
AcDbEntity
  8
11000_Left
  6
DASHED
 62
     7
370
    13
100
AcDbLine
 39
0.25
 10
234.9417004521954
 20
202.7370056236933
 30
0.0
 11
234.9417004521954
 21
212.9360056236933
 31
0.0
1001
AUSTER_ANSICHT
1002
{
1000
Det03
1002
}
1001
AUSTER_FOLIE
1002
{
1000
NSB00990_S0_SPU_3POL
1002
}
  0
LINE
  5
5458
330
20
100
AcDbEntity
  8
11000_Left
  6
DASHED
 62
     7
370
    13
100
AcDbLine
 39
0.25
 10
229.9417004521954
 20
202.7370056236933
 30
0.0
 11
234.9417004521954
 21
202.7370056236933
 31
0.0
1001
AUSTER_ANSICHT
1002
{
1000
Det03
1002
}
1001
AUSTER_FOLIE
1002
{
1000
NSB00990_S0_SPU_3POL
1002
}
  0
LINE
  5
5459
330
20
100
AcDbEntity
  8
11000_Left
  6
DASHED
 62
     7
370
    13
100
AcDbLine
 39
0.25
 10
229.9417004521954
 20
212.9360056236933
 30
0.0
 11
229.9417004521954
 21
202.7370056236933
 31
0.0
1001
AUSTER_ANSICHT
1002
{
1000
Det03
1002
}
1001
AUSTER_FOLIE
1002
{
1000
NSB00990_S0_SPU_3POL
1002
}
  0
LINE
  5
545A
330
20
100
AcDbEntity
  8
11000_Left
  6
Continuous
 62
     7
370
    50
100
AcDbLine
 39
0.25
 10
221.9417004521954
 20
212.9360056236933
 30
0.0
 11
239.9417004521954
 21
212.9360056236933
 31
0.0
1001
AUSTER_ANSICHT
1002
{
1000
Det03
1002
}
1001
AUSTER_FOLIE
1002
{
1000
NSB00990_S0_SPU_3POL
1002
}
  0
LINE
  5
545B
330
20
100
AcDbEntity
  8
11000_Left
  6
Continuous
 62
     7
370
    50
100
AcDbLine
 39
0.5
 10
238.3207004521954
 20
213.9360056236934
 30
0.0
 11
223.5627004521954
 21
213.9360056236934
 31
0.0
1001
AUSTER_ANSICHT
1002
{
1000
Det03
1002
}
1001
AUSTER_FOLIE
1002
{
1000
NSB00990_S0_SPU_3POL
1002
}
  0
LINE
  5
545C
330
20
100
AcDbEntity
  8
10000_FRONT
  6
Continuous
 62
     7
370
    50
100
AcDbLine
 39
0.25
 10
84.92970045219539
 20
187.9380056236933
 30
0.0
 11
84.92970045219539
 21
189.9380056236933
 31
0.0
1001
AUSTER_ANSICHT
1002
{
1000
Det03
1002
}
1001
AUSTER_FOLIE
1002
{
1000
NSB00990_S0_SPU_3POL
1002
}
  0
LINE
  5
545D
330
20
100
AcDbEntity
  8
10000_FRONT
  6
Continuous
 62
     7
370
    50
100
AcDbLine
 39
0.25
 10
85.92970045219539
 20
189.9380056236933
 30
0.0
 11
85.92970045219539
 21
187.9380056236933
 31
0.0
1001
AUSTER_ANSICHT
1002
{
1000
Det03
1002
}
1001
AUSTER_FOLIE
1002
{
1000
NSB00990_S0_SPU_3POL
1002
}
  0
LINE
  5
545E
330
20
100
AcDbEntity
  8
10000_FRONT
  6
Continuous
 62
     7
370
    50
100
AcDbLine
 39
0.25
 10
114.9297004521954
 20
187.9380056236933
 30
0.0
 11
114.9297004521954
 21
189.9380056236933
 31
0.0
1001
AUSTER_ANSICHT
1002
{
1000
Det03
1002
}
1001
AUSTER_FOLIE
1002
{
1000
NSB00990_S0_SPU_3POL
1002
}
  0
LINE
  5
545F
330
20
100
AcDbEntity
  8
10000_FRONT
  6
Continuous
 62
     7
370
    50
100
AcDbLine
 39
0.25
 10
115.9297004521954
 20
189.9380056236933
 30
0.0
 11
115.9297004521954
 21
187.9380056236933
 31
0.0
1001
AUSTER_ANSICHT
1002
{
1000
Det03
1002
}
1001
AUSTER_FOLIE
1002
{
1000
NSB00990_S0_SPU_3POL
1002
}
  0
LINE
  5
5460
330
20
100
AcDbEntity
  8
10000_FRONT
  6
Continuous
 62
     7
370
    20
100
AcDbLine
 39
0.25
 10
100.4297004521954
 20
202.7380056236933
 30
0.0
 11
100.4297004521954
 21
203.2380056236933
 31
0.0
1001
AUSTER_ANSICHT
1002
{
1000
Det03
1002
}
1001
AUSTER_FOLIE
1002
{
1000
NSB00990_S0_SPU_3POL
1002
}
  0
LINE
  5
5461
330
20
100
AcDbEntity
  8
10000_FRONT
  6
Continuous
 62
     7
370
    20
100
AcDbLine
 39
0.25
 10
98.02970045219542
 20
201.4380056236933
 30
0.0
 11
98.51370045219542
 21
201.2960056236933
 31
0.0
1001
AUSTER_ANSICHT
1002
{
1000
Det03
1002
}
1001
AUSTER_FOLIE
1002
{
1000
NSB00990_S0_SPU_3POL
1002
}
  0
LINE
  5
5462
330
20
100
AcDbEntity
  8
10000_FRONT
  6
Continuous
 62
     7
370
    50
100
AcDbLine
 39
0.5
 10
109.7297004521954
 20
187.9380056236933
 30
0.0
 11
111.6797004521954
 21
187.9380056236933
 31
0.0
1001
AUSTER_ANSICHT
1002
{
1000
Det03
1002
}
1001
AUSTER_FOLIE
1002
{
1000
NSB00990_S0_SPU_3POL
1002
}
  0
LINE
  5
5463
330
20
100
AcDbEntity
  8
10000_FRONT
  6
Continuous
 62
     7
370
    50
100
AcDbLine
 39
0.5
 10
111.6797004521954
 20
187.9380056236933
 30
0.0
 11
113.6297004521954
 21
187.9380056236933
 31
0.0
1001
AUSTER_ANSICHT
1002
{
1000
Det03
1002
}
1001
AUSTER_FOLIE
1002
{
1000
NSB00990_S0_SPU_3POL
1002
}
  0
LINE
  5
5464
330
20
100
AcDbEntity
  8
10000_FRONT
  6
Continuous
 62
     7
370
    50
100
AcDbLine
 39
0.5
 10
87.22970045219542
 20
187.9380056236933
 30
0.0
 11
89.17970045219538
 21
187.9380056236933
 31
0.0
1001
AUSTER_ANSICHT
1002
{
1000
Det03
1002
}
1001
AUSTER_FOLIE
1002
{
1000
NSB00990_S0_SPU_3POL
1002
}
  0
LINE
  5
5465
330
20
100
AcDbEntity
  8
10000_FRONT
  6
Continuous
 62
     7
370
    50
100
AcDbLine
 39
0.5
 10
89.17970045219538
 20
187.9380056236933
 30
0.0
 11
91.12970045219542
 21
187.9380056236933
 31
0.0
1001
AUSTER_ANSICHT
1002
{
1000
Det03
1002
}
1001
AUSTER_FOLIE
1002
{
1000
NSB00990_S0_SPU_3POL
1002
}
  0
LINE
  5
5466
330
20
100
AcDbEntity
  8
10000_FRONT
  6
Continuous
 62
     7
370
    50
100
AcDbLine
 39
0.5
 10
122.4297004521954
 20
212.9380056236934
 30
0.0
 11
78.42970045219539
 21
212.9380056236934
 31
0.0
1001
AUSTER_ANSICHT
1002
{
1000
Det03
1002
}
1001
AUSTER_FOLIE
1002
{
1000
NSB00990_S0_SPU_3POL
1002
}
  0
LINE
  5
5467
330
20
100
AcDbEntity
  8
10000_FRONT
  6
Continuous
 62
     7
370
    50
100
AcDbLine
 39
0.5
 10
122.9297004521954
 20
212.4380056236934
 30
0.0
 11
122.9297004521954
 21
190.1380056236933
 31
0.0
1001
AUSTER_ANSICHT
1002
{
1000
Det03
1002
}
1001
AUSTER_FOLIE
1002
{
1000
NSB00990_S0_SPU_3POL
1002
}
  0
LINE
  5
5468
330
20
100
AcDbEntity
  8
10000_FRONT
  6
Continuous
 62
     7
370
    50
100
AcDbLine
 39
0.5
 10
77.92970045219539
 20
190.1380056236933
 30
0.0
 11
77.92970045219539
 21
212.4380056236934
 31
0.0
1001
AUSTER_ANSICHT
1002
{
1000
Det03
1002
}
1001
AUSTER_FOLIE
1002
{
1000
NSB00990_S0_SPU_3POL
1002
}
  0
LINE
  5
5469
330
20
100
AcDbEntity
  8
10000_FRONT
  6
Continuous
 62
     7
370
    50
100
AcDbLine
 39
0.5
 10
113.6297004521954
 20
187.9380056236933
 30
0.0
 11
113.8047004521954
 21
189.9380056236933
 31
0.0
1001
AUSTER_ANSICHT
1002
{
1000
Det03
1002
}
1001
AUSTER_FOLIE
1002
{
1000
NSB00990_S0_SPU_3POL
1002
}
  0
LINE
  5
546A
330
20
100
AcDbEntity
  8
10000_FRONT
  6
Continuous
 62
     7
370
    50
100
AcDbLine
 39
0.5
 10
109.7297004521954
 20
187.9380056236933
 30
0.0
 11
109.5547004521954
 21
189.9380056236933
 31
0.0
1001
AUSTER_ANSICHT
1002
{
1000
Det03
1002
}
1001
AUSTER_FOLIE
1002
{
1000
NSB00990_S0_SPU_3POL
1002
}
  0
LINE
  5
546B
330
20
100
AcDbEntity
  8
10000_FRONT
  6
Continuous
 62
     7
370
    50
100
AcDbLine
 39
0.5
 10
91.12970045219542
 20
187.9380056236933
 30
0.0
 11
91.30470045219542
 21
189.9380056236933
 31
0.0
1001
AUSTER_ANSICHT
1002
{
1000
Det03
1002
}
1001
AUSTER_FOLIE
1002
{
1000
NSB00990_S0_SPU_3POL
1002
}
  0
LINE
  5
546C
330
20
100
AcDbEntity
  8
10000_FRONT
  6
Continuous
 62
     7
370
    50
100
AcDbLine
 39
0.5
 10
87.22970045219542
 20
187.9380056236933
 30
0.0
 11
87.05470045219541
 21
189.9380056236933
 31
0.0
1001
AUSTER_ANSICHT
1002
{
1000
Det03
1002
}
1001
AUSTER_FOLIE
1002
{
1000
NSB00990_S0_SPU_3POL
1002
}
  0
LINE
  5
546D
330
20
100
AcDbEntity
  8
10000_FRONT
  6
Continuous
 62
     7
370
    50
100
AcDbLine
 39
0.5
 10
89.92970045219539
 20
181.1380056236933
 30
0.0
 11
89.17970045219538
 21
181.1380056236933
 31
0.0
1001
AUSTER_ANSICHT
1002
{
1000
Det03
1002
}
1001
AUSTER_FOLIE
1002
{
1000
NSB00990_S0_SPU_3POL
1002
}
  0
LINE
  5
546E
330
20
100
AcDbEntity
  8
10000_FRONT
  6
Continuous
 62
     7
370
    50
100
AcDbLine
 39
0.5
 10
89.17970045219538
 20
181.1380056236933
 30
0.0
 11
88.42970045219539
 21
181.1380056236933
 31
0.0
1001
AUSTER_ANSICHT
1002
{
1000
Det03
1002
}
1001
AUSTER_FOLIE
1002
{
1000
NSB00990_S0_SPU_3POL
1002
}
  0
LINE
  5
546F
330
20
100
AcDbEntity
  8
10000_FRONT
  6
Continuous
 62
     7
370
    50
100
AcDbLine
 39
0.5
 10
112.4297004521954
 20
181.1380056236933
 30
0.0
 11
111.6797004521954
 21
181.1380056236933
 31
0.0
1001
AUSTER_ANSICHT
1002
{
1000
Det03
1002
}
1001
AUSTER_FOLIE
1002
{
1000
NSB00990_S0_SPU_3POL
1002
}
  0
LINE
  5
5470
330
20
100
AcDbEntity
  8
10000_FRONT
  6
Continuous
 62
     7
370
    50
100
AcDbLine
 39
0.5
 10
111.6797004521954
 20
181.1380056236933
 30
0.0
 11
110.9297004521954
 21
181.1380056236933
 31
0.0
1001
AUSTER_ANSICHT
1002
{
1000
Det03
1002
}
1001
AUSTER_FOLIE
1002
{
1000
NSB00990_S0_SPU_3POL
1002
}
  0
LINE
  5
5471
330
20
100
AcDbEntity
  8
10000_FRONT
  6
Continuous
 62
     7
370
    50
100
AcDbLine
 39
0.5
 10
89.92970045219539
 20
181.1380056236933
 30
0.0
 11
89.92970045219539
 21
187.9380056236933
 31
0.0
1001
AUSTER_ANSICHT
1002
{
1000
Det03
1002
}
1001
AUSTER_FOLIE
1002
{
1000
NSB00990_S0_SPU_3POL
1002
}
  0
LINE
  5
5472
330
20
100
AcDbEntity
  8
10000_FRONT
  6
Continuous
 62
     7
370
    50
100
AcDbLine
 39
0.5
 10
88.42970045219539
 20
181.1380056236933
 30
0.0
 11
88.42970045219539
 21
187.9380056236933
 31
0.0
1001
AUSTER_ANSICHT
1002
{
1000
Det03
1002
}
1001
AUSTER_FOLIE
1002
{
1000
NSB00990_S0_SPU_3POL
1002
}
  0
LINE
  5
5473
330
20
100
AcDbEntity
  8
10000_FRONT
  6
Continuous
 62
     7
370
    50
100
AcDbLine
 39
0.5
 10
112.4297004521954
 20
181.1380056236933
 30
0.0
 11
112.4297004521954
 21
187.9380056236933
 31
0.0
1001
AUSTER_ANSICHT
1002
{
1000
Det03
1002
}
1001
AUSTER_FOLIE
1002
{
1000
NSB00990_S0_SPU_3POL
1002
}
  0
LINE
  5
5474
330
20
100
AcDbEntity
  8
10000_FRONT
  6
Continuous
 62
     7
370
    50
100
AcDbLine
 39
0.5
 10
110.9297004521954
 20
181.1380056236933
 30
0.0
 11
110.9297004521954
 21
187.9380056236933
 31
0.0
1001
AUSTER_ANSICHT
1002
{
1000
Det03
1002
}
1001
AUSTER_FOLIE
1002
{
1000
NSB00990_S0_SPU_3POL
1002
}
  0
LINE
  5
5475
330
20
100
AcDbEntity
  8
10000_FRONT
  6
Continuous
 62
     7
370
    50
100
AcDbLine
 39
0.5
 10
121.9297004521954
 20
212.9380056236934
 30
0.0
 11
121.9297004521954
 21
213.6380056236934
 31
0.0
1001
AUSTER_ANSICHT
1002
{
1000
Det03
1002
}
1001
AUSTER_FOLIE
1002
{
1000
NSB00990_S0_SPU_3POL
1002
}
  0
LINE
  5
5476
330
20
100
AcDbEntity
  8
10000_FRONT
  6
Continuous
 62
     7
370
    50
100
AcDbLine
 39
0.5
 10
122.5297004521954
 20
213.9380056236934
 30
0.0
 11
122.2297004521954
 21
213.9380056236934
 31
0.0
1001
AUSTER_ANSICHT
1002
{
1000
Det03
1002
}
1001
AUSTER_FOLIE
1002
{
1000
NSB00990_S0_SPU_3POL
1002
}
  0
LINE
  5
5477
330
20
100
AcDbEntity
  8
10000_FRONT
  6
Continuous
 62
     7
370
    50
100
AcDbLine
 39
0.5
 10
122.9297004521954
 20
212.4380056236934
 30
0.0
 11
122.9297004521954
 21
213.5380056236933
 31
0.0
1001
AUSTER_ANSICHT
1002
{
1000
Det03
1002
}
1001
AUSTER_FOLIE
1002
{
1000
NSB00990_S0_SPU_3POL
1002
}
  0
LINE
  5
5478
330
20
100
AcDbEntity
  8
10000_FRONT
  6
Continuous
 62
     7
370
    50
100
AcDbLine
 39
0.5
 10
111.9297004521954
 20
212.9380056236934
 30
0.0
 11
111.9297004521954
 21
213.6380056236934
 31
0.0
1001
AUSTER_ANSICHT
1002
{
1000
Det03
1002
}
1001
AUSTER_FOLIE
1002
{
1000
NSB00990_S0_SPU_3POL
1002
}
  0
LINE
  5
5479
330
20
100
AcDbEntity
  8
10000_FRONT
  6
Continuous
 62
     7
370
    50
100
AcDbLine
 39
0.5
 10
111.2297004521954
 20
213.9380056236934
 30
0.0
 11
111.6297004521954
 21
213.9380056236934
 31
0.0
1001
AUSTER_ANSICHT
1002
{
1000
Det03
1002
}
1001
AUSTER_FOLIE
1002
{
1000
NSB00990_S0_SPU_3POL
1002
}
  0
LINE
  5
547A
330
20
100
AcDbEntity
  8
10000_FRONT
  6
Continuous
 62
     7
370
    50
100
AcDbLine
 39
0.5
 10
110.9297004521954
 20
212.9380056236934
 30
0.0
 11
110.9297004521954
 21
213.6380056236934
 31
0.0
1001
AUSTER_ANSICHT
1002
{
1000
Det03
1002
}
1001
AUSTER_FOLIE
1002
{
1000
NSB00990_S0_SPU_3POL
1002
}
  0
LINE
  5
547B
330
20
100
AcDbEntity
  8
10000_FRONT
  6
Continuous
 62
     7
370
    50
100
AcDbLine
 39
0.5
 10
100.9297004521954
 20
212.9380056236934
 30
0.0
 11
100.9297004521954
 21
213.6380056236934
 31
0.0
1001
AUSTER_ANSICHT
1002
{
1000
Det03
1002
}
1001
AUSTER_FOLIE
1002
{
1000
NSB00990_S0_SPU_3POL
1002
}
  0
LINE
  5
547C
330
20
100
AcDbEntity
  8
10000_FRONT
  6
Continuous
 62
     7
370
    50
100
AcDbLine
 39
0.5
 10
100.2297004521954
 20
213.9380056236934
 30
0.0
 11
100.6297004521954
 21
213.9380056236934
 31
0.0
1001
AUSTER_ANSICHT
1002
{
1000
Det03
1002
}
1001
AUSTER_FOLIE
1002
{
1000
NSB00990_S0_SPU_3POL
1002
}
  0
LINE
  5
547D
330
20
100
AcDbEntity
  8
10000_FRONT
  6
Continuous
 62
     7
370
    50
100
AcDbLine
 39
0.5
 10
99.92970045219543
 20
212.9380056236934
 30
0.0
 11
99.92970045219543
 21
213.6380056236934
 31
0.0
1001
AUSTER_ANSICHT
1002
{
1000
Det03
1002
}
1001
AUSTER_FOLIE
1002
{
1000
NSB00990_S0_SPU_3POL
1002
}
  0
LINE
  5
547E
330
20
100
AcDbEntity
  8
10000_FRONT
  6
Continuous
 62
     7
370
    50
100
AcDbLine
 39
0.5
 10
89.92970045219539
 20
212.9380056236934
 30
0.0
 11
89.92970045219539
 21
213.6380056236934
 31
0.0
1001
AUSTER_ANSICHT
1002
{
1000
Det03
1002
}
1001
AUSTER_FOLIE
1002
{
1000
NSB00990_S0_SPU_3POL
1002
}
  0
LINE
  5
547F
330
20
100
AcDbEntity
  8
10000_FRONT
  6
Continuous
 62
     7
370
    50
100
AcDbLine
 39
0.5
 10
89.22970045219541
 20
213.9380056236934
 30
0.0
 11
89.62970045219542
 21
213.9380056236934
 31
0.0
1001
AUSTER_ANSICHT
1002
{
1000
Det03
1002
}
1001
AUSTER_FOLIE
1002
{
1000
NSB00990_S0_SPU_3POL
1002
}
  0
LINE
  5
5480
330
20
100
AcDbEntity
  8
10000_FRONT
  6
Continuous
 62
     7
370
    50
100
AcDbLine
 39
0.5
 10
88.92970045219541
 20
212.9380056236934
 30
0.0
 11
88.92970045219541
 21
213.6380056236934
 31
0.0
1001
AUSTER_ANSICHT
1002
{
1000
Det03
1002
}
1001
AUSTER_FOLIE
1002
{
1000
NSB00990_S0_SPU_3POL
1002
}
  0
LINE
  5
5481
330
20
100
AcDbEntity
  8
10000_FRONT
  6
Continuous
 62
     7
370
    50
100
AcDbLine
 39
0.5
 10
78.92970045219539
 20
212.9380056236934
 30
0.0
 11
78.92970045219539
 21
213.6380056236934
 31
0.0
1001
AUSTER_ANSICHT
1002
{
1000
Det03
1002
}
1001
AUSTER_FOLIE
1002
{
1000
NSB00990_S0_SPU_3POL
1002
}
  0
LINE
  5
5482
330
20
100
AcDbEntity
  8
10000_FRONT
  6
Continuous
 62
     7
370
    50
100
AcDbLine
 39
0.5
 10
78.32970045219544
 20
213.9380056236934
 30
0.0
 11
78.6297004521954
 21
213.9380056236934
 31
0.0
1001
AUSTER_ANSICHT
1002
{
1000
Det03
1002
}
1001
AUSTER_FOLIE
1002
{
1000
NSB00990_S0_SPU_3POL
1002
}
  0
LINE
  5
5483
330
20
100
AcDbEntity
  8
10000_FRONT
  6
Continuous
 62
     7
370
    50
100
AcDbLine
 39
0.5
 10
77.92970045219539
 20
212.4380056236934
 30
0.0
 11
77.92970045219539
 21
213.5380056236933
 31
0.0
1001
AUSTER_ANSICHT
1002
{
1000
Det03
1002
}
1001
AUSTER_FOLIE
1002
{
1000
NSB00990_S0_SPU_3POL
1002
}
  0
LINE
  5
5484
330
20
100
AcDbEntity
  8
10000_FRONT
  6
Continuous
 62
     7
370
    50
100
AcDbLine
 39
0.5
 10
109.5547004521954
 20
189.9380056236933
 30
0.0
 11
113.8047004521954
 21
189.9380056236933
 31
0.0
1001
AUSTER_ANSICHT
1002
{
1000
Det03
1002
}
1001
AUSTER_FOLIE
1002
{
1000
NSB00990_S0_SPU_3POL
1002
}
  0
LINE
  5
5485
330
20
100
AcDbEntity
  8
10000_FRONT
  6
Continuous
 62
     7
370
    50
100
AcDbLine
 39
0.5
 10
113.8047004521954
 20
189.9380056236933
 30
0.0
 11
122.7297004521954
 21
189.9380056236933
 31
0.0
1001
AUSTER_ANSICHT
1002
{
1000
Det03
1002
}
1001
AUSTER_FOLIE
1002
{
1000
NSB00990_S0_SPU_3POL
1002
}
  0
LINE
  5
5486
330
20
100
AcDbEntity
  8
10000_FRONT
  6
Continuous
 62
     7
370
    50
100
AcDbLine
 39
0.5
 10
91.30470045219542
 20
189.9380056236933
 30
0.0
 11
109.5547004521954
 21
189.9380056236933
 31
0.0
1001
AUSTER_ANSICHT
1002
{
1000
Det03
1002
}
1001
AUSTER_FOLIE
1002
{
1000
NSB00990_S0_SPU_3POL
1002
}
  0
LINE
  5
5487
330
20
100
AcDbEntity
  8
10000_FRONT
  6
Continuous
 62
     7
370
    50
100
AcDbLine
 39
0.5
 10
87.05470045219541
 20
189.9380056236933
 30
0.0
 11
78.1297004521954
 21
189.9380056236933
 31
0.0
1001
AUSTER_ANSICHT
1002
{
1000
Det03
1002
}
1001
AUSTER_FOLIE
1002
{
1000
NSB00990_S0_SPU_3POL
1002
}
  0
LINE
  5
5488
330
20
100
AcDbEntity
  8
10000_FRONT
  6
Continuous
 62
     7
370
    50
100
AcDbLine
 39
0.5
 10
87.05470045219541
 20
189.9380056236933
 30
0.0
 11
91.30470045219542
 21
189.9380056236933
 31
0.0
1001
AUSTER_ANSICHT
1002
{
1000
Det03
1002
}
1001
AUSTER_FOLIE
1002
{
1000
NSB00990_S0_SPU_3POL
1002
}
  0
LINE
  5
5489
330
20
100
AcDbEntity
  8
10000_FRONT
  6
Continuous
 62
     7
370
    20
100
AcDbLine
 39
0.25
 10
99.51370045219542
 20
198.7350056236933
 30
0.0
 11
101.3497004521954
 21
198.7350056236933
 31
0.0
1001
AUSTER_ANSICHT
1002
{
1000
Det03
1002
}
1001
AUSTER_FOLIE
1002
{
1000
NSB00990_S0_SPU_3POL
1002
}
  0
LINE
  5
548A
330
20
100
AcDbEntity
  8
10000_FRONT
  6
Continuous
 62
     7
370
    20
100
AcDbLine
 39
0.25
 10
102.3497004521954
 20
201.2980056236933
 30
0.0
 11
102.3497004521954
 21
199.7350056236933
 31
0.0
1001
AUSTER_ANSICHT
1002
{
1000
Det03
1002
}
1001
AUSTER_FOLIE
1002
{
1000
NSB00990_S0_SPU_3POL
1002
}
  0
LINE
  5
548B
330
20
100
AcDbEntity
  8
10000_FRONT
  6
Continuous
 62
     7
370
    20
100
AcDbLine
 39
0.25
 10
98.51370045219542
 20
201.2960056236933
 30
0.0
 11
98.51370045219542
 21
199.7350056236933
 31
0.0
1001
AUSTER_ANSICHT
1002
{
1000
Det03
1002
}
1001
AUSTER_FOLIE
1002
{
1000
NSB00990_S0_SPU_3POL
1002
}
  0
LINE
  5
548C
330
20
100
AcDbEntity
  8
10000_FRONT
  6
Continuous
 62
     7
370
    20
100
AcDbLine
 39
0.25
 10
117.4447004521954
 20
205.9530056236933
 30
0.0
 11
117.4447004521954
 21
206.1330056236934
 31
0.0
1001
AUSTER_ANSICHT
1002
{
1000
Det03
1002
}
1001
AUSTER_FOLIE
1002
{
1000
NSB00990_S0_SPU_3POL
1002
}
  0
LINE
  5
548D
330
20
100
AcDbEntity
  8
10000_FRONT
  6
Continuous
 62
     7
370
    20
100
AcDbLine
 39
0.25
 10
117.4447004521954
 20
207.5220056236933
 30
0.0
 11
117.4447004521954
 21
207.3420056236933
 31
0.0
1001
AUSTER_ANSICHT
1002
{
1000
Det03
1002
}
1001
AUSTER_FOLIE
1002
{
1000
NSB00990_S0_SPU_3POL
1002
}
  0
LINE
  5
548E
330
20
100
AcDbEntity
  8
10000_FRONT
  6
Continuous
 62
     7
370
    20
100
AcDbLine
 39
0.25
 10
116.4147004521954
 20
205.9530056236933
 30
0.0
 11
116.4147004521954
 21
206.1330056236934
 31
0.0
1001
AUSTER_ANSICHT
1002
{
1000
Det03
1002
}
1001
AUSTER_FOLIE
1002
{
1000
NSB00990_S0_SPU_3POL
1002
}
  0
LINE
  5
548F
330
20
100
AcDbEntity
  8
10000_FRONT
  6
Continuous
 62
     7
370
    20
100
AcDbLine
 39
0.25
 10
116.4147004521954
 20
207.5220056236933
 30
0.0
 11
116.4147004521954
 21
207.3420056236933
 31
0.0
1001
AUSTER_ANSICHT
1002
{
1000
Det03
1002
}
1001
AUSTER_FOLIE
1002
{
1000
NSB00990_S0_SPU_3POL
1002
}
  0
LINE
  5
5490
330
20
100
AcDbEntity
  8
10000_FRONT
  6
Continuous
 62
     7
370
    20
100
AcDbLine
 39
0.25
 10
117.4447004521954
 20
205.9530056236933
 30
0.0
 11
117.4447004521954
 21
204.9610056236933
 31
0.0
1001
AUSTER_ANSICHT
1002
{
1000
Det03
1002
}
1001
AUSTER_FOLIE
1002
{
1000
NSB00990_S0_SPU_3POL
1002
}
  0
LINE
  5
5491
330
20
100
AcDbEntity
  8
10000_FRONT
  6
Continuous
 62
     7
370
    20
100
AcDbLine
 39
0.25
 10
116.4147004521954
 20
204.9610056236933
 30
0.0
 11
116.4147004521954
 21
205.9530056236933
 31
0.0
1001
AUSTER_ANSICHT
1002
{
1000
Det03
1002
}
1001
AUSTER_FOLIE
1002
{
1000
NSB00990_S0_SPU_3POL
1002
}
  0
LINE
  5
5492
330
20
100
AcDbEntity
  8
10000_FRONT
  6
Continuous
 62
     7
370
    20
100
AcDbLine
 39
0.25
 10
116.4147004521954
 20
207.5220056236933
 30
0.0
 11
116.4147004521954
 21
208.5150056236933
 31
0.0
1001
AUSTER_ANSICHT
1002
{
1000
Det03
1002
}
1001
AUSTER_FOLIE
1002
{
1000
NSB00990_S0_SPU_3POL
1002
}
  0
LINE
  5
5493
330
20
100
AcDbEntity
  8
10000_FRONT
  6
Continuous
 62
     7
370
    20
100
AcDbLine
 39
0.25
 10
117.4447004521954
 20
208.5150056236933
 30
0.0
 11
117.4447004521954
 21
207.5220056236933
 31
0.0
1001
AUSTER_ANSICHT
1002
{
1000
Det03
1002
}
1001
AUSTER_FOLIE
1002
{
1000
NSB00990_S0_SPU_3POL
1002
}
  0
LINE
  5
5494
330
20
100
AcDbEntity
  8
10000_FRONT
  6
Continuous
 62
     7
370
    20
100
AcDbLine
 39
0.25
 10
117.4447004521954
 20
207.3420056236933
 30
0.0
 11
119.7157004521954
 21
207.3420056236933
 31
0.0
1001
AUSTER_ANSICHT
1002
{
1000
Det03
1002
}
1001
AUSTER_FOLIE
1002
{
1000
NSB00990_S0_SPU_3POL
1002
}
  0
LINE
  5
5495
330
20
100
AcDbEntity
  8
10000_FRONT
  6
Continuous
 62
     7
370
    20
100
AcDbLine
 39
0.25
 10
114.1437004521954
 20
207.3420056236933
 30
0.0
 11
116.4147004521954
 21
207.3420056236933
 31
0.0
1001
AUSTER_ANSICHT
1002
{
1000
Det03
1002
}
1001
AUSTER_FOLIE
1002
{
1000
NSB00990_S0_SPU_3POL
1002
}
  0
LINE
  5
5496
330
20
100
AcDbEntity
  8
10000_FRONT
  6
Continuous
 62
     7
370
    20
100
AcDbLine
 39
0.25
 10
116.4147004521954
 20
206.1330056236934
 30
0.0
 11
114.1437004521954
 21
206.1330056236934
 31
0.0
1001
AUSTER_ANSICHT
1002
{
1000
Det03
1002
}
1001
AUSTER_FOLIE
1002
{
1000
NSB00990_S0_SPU_3POL
1002
}
  0
LINE
  5
5497
330
20
100
AcDbEntity
  8
10000_FRONT
  6
Continuous
 62
     7
370
    20
100
AcDbLine
 39
0.25
 10
119.7157004521954
 20
206.1330056236934
 30
0.0
 11
117.4447004521954
 21
206.1330056236934
 31
0.0
1001
AUSTER_ANSICHT
1002
{
1000
Det03
1002
}
1001
AUSTER_FOLIE
1002
{
1000
NSB00990_S0_SPU_3POL
1002
}
  0
LINE
  5
5498
330
20
100
AcDbEntity
  8
10000_FRONT
  6
Continuous
 62
     7
370
    20
100
AcDbLine
 39
0.25
 10
83.41470045219541
 20
205.9530056236933
 30
0.0
 11
83.41470045219541
 21
206.1330056236934
 31
0.0
1001
AUSTER_ANSICHT
1002
{
1000
Det03
1002
}
1001
AUSTER_FOLIE
1002
{
1000
NSB00990_S0_SPU_3POL
1002
}
  0
LINE
  5
5499
330
20
100
AcDbEntity
  8
10000_FRONT
  6
Continuous
 62
     7
370
    20
100
AcDbLine
 39
0.25
 10
83.41470045219541
 20
207.5220056236933
 30
0.0
 11
83.41470045219541
 21
207.3420056236933
 31
0.0
1001
AUSTER_ANSICHT
1002
{
1000
Det03
1002
}
1001
AUSTER_FOLIE
1002
{
1000
NSB00990_S0_SPU_3POL
1002
}
  0
LINE
  5
549A
330
20
100
AcDbEntity
  8
10000_FRONT
  6
Continuous
 62
     7
370
    20
100
AcDbLine
 39
0.25
 10
84.4447004521954
 20
205.9530056236933
 30
0.0
 11
84.4447004521954
 21
206.1330056236934
 31
0.0
1001
AUSTER_ANSICHT
1002
{
1000
Det03
1002
}
1001
AUSTER_FOLIE
1002
{
1000
NSB00990_S0_SPU_3POL
1002
}
  0
LINE
  5
549B
330
20
100
AcDbEntity
  8
10000_FRONT
  6
Continuous
 62
     7
370
    20
100
AcDbLine
 39
0.25
 10
84.4447004521954
 20
207.5220056236933
 30
0.0
 11
84.4447004521954
 21
207.3420056236933
 31
0.0
1001
AUSTER_ANSICHT
1002
{
1000
Det03
1002
}
1001
AUSTER_FOLIE
1002
{
1000
NSB00990_S0_SPU_3POL
1002
}
  0
LINE
  5
549C
330
20
100
AcDbEntity
  8
10000_FRONT
  6
Continuous
 62
     7
370
    20
100
AcDbLine
 39
0.25
 10
83.41470045219541
 20
205.9530056236933
 30
0.0
 11
83.41470045219541
 21
204.9610056236933
 31
0.0
1001
AUSTER_ANSICHT
1002
{
1000
Det03
1002
}
1001
AUSTER_FOLIE
1002
{
1000
NSB00990_S0_SPU_3POL
1002
}
  0
LINE
  5
549D
330
20
100
AcDbEntity
  8
10000_FRONT
  6
Continuous
 62
     7
370
    20
100
AcDbLine
 39
0.25
 10
84.4447004521954
 20
204.9610056236933
 30
0.0
 11
84.4447004521954
 21
205.9530056236933
 31
0.0
1001
AUSTER_ANSICHT
1002
{
1000
Det03
1002
}
1001
AUSTER_FOLIE
1002
{
1000
NSB00990_S0_SPU_3POL
1002
}
  0
LINE
  5
549E
330
20
100
AcDbEntity
  8
10000_FRONT
  6
Continuous
 62
     7
370
    20
100
AcDbLine
 39
0.25
 10
84.4447004521954
 20
207.5220056236933
 30
0.0
 11
84.4447004521954
 21
208.5150056236933
 31
0.0
1001
AUSTER_ANSICHT
1002
{
1000
Det03
1002
}
1001
AUSTER_FOLIE
1002
{
1000
NSB00990_S0_SPU_3POL
1002
}
  0
LINE
  5
549F
330
20
100
AcDbEntity
  8
10000_FRONT
  6
Continuous
 62
     7
370
    20
100
AcDbLine
 39
0.25
 10
83.41470045219541
 20
208.5150056236933
 30
0.0
 11
83.41470045219541
 21
207.5220056236933
 31
0.0
1001
AUSTER_ANSICHT
1002
{
1000
Det03
1002
}
1001
AUSTER_FOLIE
1002
{
1000
NSB00990_S0_SPU_3POL
1002
}
  0
LINE
  5
54A0
330
20
100
AcDbEntity
  8
10000_FRONT
  6
Continuous
 62
     7
370
    20
100
AcDbLine
 39
0.25
 10
83.41470045219541
 20
207.3420056236933
 30
0.0
 11
81.14370045219542
 21
207.3420056236933
 31
0.0
1001
AUSTER_ANSICHT
1002
{
1000
Det03
1002
}
1001
AUSTER_FOLIE
1002
{
1000
NSB00990_S0_SPU_3POL
1002
}
  0
LINE
  5
54A1
330
20
100
AcDbEntity
  8
10000_FRONT
  6
Continuous
 62
     7
370
    20
100
AcDbLine
 39
0.25
 10
86.71570045219539
 20
207.3420056236933
 30
0.0
 11
84.4447004521954
 21
207.3420056236933
 31
0.0
1001
AUSTER_ANSICHT
1002
{
1000
Det03
1002
}
1001
AUSTER_FOLIE
1002
{
1000
NSB00990_S0_SPU_3POL
1002
}
  0
LINE
  5
54A2
330
20
100
AcDbEntity
  8
10000_FRONT
  6
Continuous
 62
     7
370
    20
100
AcDbLine
 39
0.25
 10
84.4447004521954
 20
206.1330056236934
 30
0.0
 11
86.71570045219539
 21
206.1330056236934
 31
0.0
1001
AUSTER_ANSICHT
1002
{
1000
Det03
1002
}
1001
AUSTER_FOLIE
1002
{
1000
NSB00990_S0_SPU_3POL
1002
}
  0
LINE
  5
54A3
330
20
100
AcDbEntity
  8
10000_FRONT
  6
Continuous
 62
     7
370
    20
100
AcDbLine
 39
0.25
 10
81.14370045219542
 20
206.1330056236934
 30
0.0
 11
83.41470045219541
 21
206.1330056236934
 31
0.0
1001
AUSTER_ANSICHT
1002
{
1000
Det03
1002
}
1001
AUSTER_FOLIE
1002
{
1000
NSB00990_S0_SPU_3POL
1002
}
  0
LINE
  5
54A4
330
20
100
AcDbEntity
  8
10000_FRONT
  6
Continuous
 62
     7
370
    20
100
AcDbLine
 39
0.25
 10
102.3497004521954
 20
201.2980056236933
 30
0.0
 11
102.8297004521954
 21
201.4380056236933
 31
0.0
1001
AUSTER_ANSICHT
1002
{
1000
Det03
1002
}
1001
AUSTER_FOLIE
1002
{
1000
NSB00990_S0_SPU_3POL
1002
}
  0
LINE
  5
54A5
330
20
100
AcDbEntity
  8
11000_Left
  6
DASHED
 62
     7
370
    13
100
AcDbLine
 39
0.25
 10
206.9917004521954
 20
116.9380056236933
 30
0.0
 11
206.9917004521954
 21
120.1380056236933
 31
0.0
1001
AUSTER_ANSICHT
1002
{
1000
Det03
1002
}
1001
AUSTER_FOLIE
1002
{
1000
NSB00990_S0_SPU_3POL
1002
}
  0
LINE
  5
54A6
330
20
100
AcDbEntity
  8
10000_FRONT
  6
DASHED
 62
     7
370
    13
100
AcDbLine
 39
0.25
 10
80.72970045219539
 20
107.9380056236933
 30
0.0
 11
120.1297004521954
 21
107.9380056236933
 31
0.0
1001
AUSTER_ANSICHT
1002
{
1000
Det03
1002
}
1001
AUSTER_FOLIE
1002
{
1000
NSB00990_S0_SPU_3POL
1002
}
  0
LINE
  5
54A7
330
20
100
AcDbEntity
  8
10000_FRONT
  6
DASHED
 62
     7
370
    13
100
AcDbLine
 39
0.25
 10
80.72970045219539
 20
187.9380056236933
 30
0.0
 11
120.1297004521954
 21
187.9380056236933
 31
0.0
1001
AUSTER_ANSICHT
1002
{
1000
Det03
1002
}
1001
AUSTER_FOLIE
1002
{
1000
NSB00990_S0_SPU_3POL
1002
}
  0
LINE
  5
54A8
330
20
100
AcDbEntity
  8
11000_Left
  6
DASHED
 62
     7
370
    13
100
AcDbLine
 39
0.25
 10
235.7917004521954
 20
111.9380056236933
 30
0.0
 11
268.4917004521954
 21
111.9380056236933
 31
0.0
1001
AUSTER_ANSICHT
1002
{
1000
Det03
1002
}
1001
AUSTER_FOLIE
1002
{
1000
NSB00990_S0_SPU_3POL
1002
}
  0
LINE
  5
54A9
330
20
100
AcDbEntity
  8
10000_FRONT
  6
DASHED
 62
     7
370
    13
100
AcDbLine
 39
0.25
 10
122.8797004521954
 20
167.4380056236933
 30
0.0
 11
122.8797004521954
 21
128.4380056236933
 31
0.0
1001
AUSTER_ANSICHT
1002
{
1000
Det03
1002
}
1001
AUSTER_FOLIE
1002
{
1000
NSB00990_S0_SPU_3POL
1002
}
  0
LINE
  5
54AA
330
20
100
AcDbEntity
  8
11000_Left
  6
DASHED
 62
     7
370
    13
100
AcDbLine
 39
0.25
 10
274.9917004521954
 20
134.9880056236933
 30
0.0
 11
274.9917004521954
 21
128.4380056236933
 31
0.0
1001
AUSTER_ANSICHT
1002
{
1000
Det03
1002
}
1001
AUSTER_FOLIE
1002
{
1000
NSB00990_S0_SPU_3POL
1002
}
  0
LINE
  5
54AB
330
20
100
AcDbEntity
  8
11000_Left
  6
DASHED
 62
     7
370
    13
100
AcDbLine
 39
0.25
 10
274.9917004521954
 20
167.4380056236933
 30
0.0
 11
274.9917004521954
 21
134.9870056236933
 31
0.0
1001
AUSTER_ANSICHT
1002
{
1000
Det03
1002
}
1001
AUSTER_FOLIE
1002
{
1000
NSB00990_S0_SPU_3POL
1002
}
  0
LINE
  5
54AC
330
20
100
AcDbEntity
  8
10000_FRONT
  6
DASHED
 62
     7
370
    13
100
AcDbLine
 39
0.25
 10
100.4297004521954
 20
136.0880056236933
 30
0.0
 11
100.4297004521954
 21
128.9880056236933
 31
0.0
1001
AUSTER_ANSICHT
1002
{
1000
Det03
1002
}
1001
AUSTER_FOLIE
1002
{
1000
NSB00990_S0_SPU_3POL
1002
}
  0
LINE
  5
54AD
330
20
100
AcDbEntity
  8
10000_FRONT
  6
DASHED
 62
     7
370
    13
100
AcDbLine
 39
0.25
 10
122.0477004521954
 20
128.9880056236933
 30
0.0
 11
78.81170045219541
 21
128.9880056236933
 31
0.0
1001
AUSTER_ANSICHT
1002
{
1000
Det03
1002
}
1001
AUSTER_FOLIE
1002
{
1000
NSB00990_S0_SPU_3POL
1002
}
  0
LINE
  5
54AE
330
20
100
AcDbEntity
  8
11000_Left
  6
DASHED
 62
     7
370
    13
100
AcDbLine
 10
178.3417004521954
 20
130.3380056236933
 30
0.0
 11
179.2917004521954
 21
130.3380056236933
 31
-0.75
1001
AUSTER_FOLIE
1002
{
1000
NSB00989_S00_AUF_RUCKFALL
1000
NSB00988_S0_SPU_2POL
1000
NSB00987_S00_AUF_ANZUG
1000
NSB00985_S00_AUFS
1000
NSK9117_LED_ANZEIGEBAUSTEIN
1000
NSB00990_S0_SPU_3POL
1000
NSB00773_S0_SPU_2POL
1000
NSB00772_S0_AUFS
1000
NSB00770_S00_LOT
1000
NSB00257_S00_AUF_RUCKFALL
1000
NSB00256_S00_AUF_ANZUG
1000
NSB00254_S00_AUFS
1002
}
1001
AUSTER_ANSICHT
1002
{
1000
Det03
1002
}
  0
LINE
  5
54AF
330
20
100
AcDbEntity
  8
11000_Left
  6
DASHED
 62
     7
370
    13
100
AcDbLine
 10
178.3417004521954
 20
130.3380056236933
 30
0.0
 11
179.2917004521954
 21
130.3380056236933
 31
-0.75
1001
AUSTER_FOLIE
1002
{
1000
NSB00989_S00_AUF_RUCKFALL
1000
NSB00988_S0_SPU_2POL
1000
NSB00987_S00_AUF_ANZUG
1000
NSB00985_S00_AUFS
1000
NSK9117_LED_ANZEIGEBAUSTEIN
1000
NSB00990_S0_SPU_3POL
1000
NSB00773_S0_SPU_2POL
1000
NSB00772_S0_AUFS
1000
NSB00770_S00_LOT
1000
NSB00257_S00_AUF_RUCKFALL
1000
NSB00256_S00_AUF_ANZUG
1000
NSB00254_S00_AUFS
1002
}
1001
AUSTER_ANSICHT
1002
{
1000
Det03
1002
}
  0
LINE
  5
54B0
330
20
100
AcDbEntity
  8
11000_Left
  6
DASHED
 62
     7
370
    13
100
AcDbLine
 10
178.3417004521954
 20
130.3380056236933
 30
0.0
 11
179.2917004521954
 21
130.3380056236933
 31
-0.75
1001
AUSTER_FOLIE
1002
{
1000
NSB00989_S00_AUF_RUCKFALL
1000
NSB00988_S0_SPU_2POL
1000
NSB00987_S00_AUF_ANZUG
1000
NSB00985_S00_AUFS
1000
NSK9117_LED_ANZEIGEBAUSTEIN
1000
NSB00990_S0_SPU_3POL
1000
NSB00773_S0_SPU_2POL
1000
NSB00772_S0_AUFS
1000
NSB00770_S00_LOT
1000
NSB00257_S00_AUF_RUCKFALL
1000
NSB00256_S00_AUF_ANZUG
1000
NSB00254_S00_AUFS
1002
}
1001
AUSTER_ANSICHT
1002
{
1000
Det03
1002
}
  0
LINE
  5
54B1
330
20
100
AcDbEntity
  8
11000_Left
  6
DASHED
 62
     7
370
    13
100
AcDbLine
 10
178.3417004521954
 20
130.3380056236933
 30
0.0
 11
179.2917004521954
 21
130.3380056236933
 31
-0.75
1001
AUSTER_FOLIE
1002
{
1000
NSB00989_S00_AUF_RUCKFALL
1000
NSB00988_S0_SPU_2POL
1000
NSB00987_S00_AUF_ANZUG
1000
NSB00985_S00_AUFS
1000
NSK9117_LED_ANZEIGEBAUSTEIN
1000
NSB00990_S0_SPU_3POL
1000
NSB00773_S0_SPU_2POL
1000
NSB00772_S0_AUFS
1000
NSB00770_S00_LOT
1000
NSB00257_S00_AUF_RUCKFALL
1000
NSB00256_S00_AUF_ANZUG
1000
NSB00254_S00_AUFS
1002
}
1001
AUSTER_ANSICHT
1002
{
1000
Det03
1002
}
  0
LINE
  5
54B2
330
20
100
AcDbEntity
  8
11000_Left
  6
DASHED
 62
     7
370
    13
100
AcDbLine
 39
0.25
 10
179.2917004521954
 20
135.4880056236932
 30
-1.0
 11
177.2917004521954
 21
137.4880056236932
 31
-1.0
1001
AUSTER_ANSICHT
1002
{
1000
Det03
1002
}
1001
AUSTER_FOLIE
1002
{
1000
NSB00990_S0_SPU_3POL
1000
NSK9118_MSG_S00
1002
}
  0
ARC
  5
54B3
330
20
100
AcDbEntity
  8
11000_Left
  6
DASHED
 62
     7
370
    13
100
AcDbCircle
 39
0.25
 10
175.3917004521954
 20
133.5880056236933
 30
-1.0
 40
1.9
100
AcDbArc
 50
0.0
 51
90.0
1001
AUSTER_ANSICHT
1002
{
1000
Det03
1002
}
1001
AUSTER_FOLIE
1002
{
1000
NSB00990_S0_SPU_3POL
1000
NSK9118_MSG_S00
1002
}
  0
ARC
  5
54B4
330
20
100
AcDbEntity
  8
11000_Left
  6
DASHED
 62
     7
370
    13
100
AcDbCircle
 39
0.25
 10
172.7917004521954
 20
136.4880056236932
 30
0.0
 40
1.0
100
AcDbArc
 50
180.0
 51
270.0
1001
AUSTER_ANSICHT
1002
{
1000
Det03
1002
}
1001
AUSTER_FOLIE
1002
{
1000
NSB00990_S0_SPU_3POL
1000
NSK9118_MSG_S00
1002
}
  0
LINE
  5
54B5
330
20
100
AcDbEntity
  8
11000_Left
  6
DASHED
 62
     7
370
    13
100
AcDbLine
 10
178.3417004521954
 20
130.3380056236933
 30
0.0
 11
179.2917004521954
 21
130.3380056236933
 31
-0.75
1001
AUSTER_FOLIE
1002
{
1000
NSB00989_S00_AUF_RUCKFALL
1000
NSB00988_S0_SPU_2POL
1000
NSB00987_S00_AUF_ANZUG
1000
NSB00985_S00_AUFS
1000
NSK9117_LED_ANZEIGEBAUSTEIN
1000
NSB00990_S0_SPU_3POL
1000
NSB00773_S0_SPU_2POL
1000
NSB00772_S0_AUFS
1000
NSB00770_S00_LOT
1000
NSB00257_S00_AUF_RUCKFALL
1000
NSB00256_S00_AUF_ANZUG
1000
NSB00254_S00_AUFS
1002
}
1001
AUSTER_ANSICHT
1002
{
1000
Det03
1002
}
  0
ARC
  5
54B6
330
20
100
AcDbEntity
  8
11000_Left
  6
DASHED
 62
     7
370
    13
100
AcDbCircle
 39
0.25
 10
177.9917004521954
 20
133.0380056236933
 30
-1.0
 40
0.3
100
AcDbArc
 50
0.0
 51
90.0
1001
AUSTER_ANSICHT
1002
{
1000
Det03
1002
}
1001
AUSTER_FOLIE
1002
{
1000
NSB00990_S0_SPU_3POL
1000
NSK9118_MSG_S00
1002
}
  0
LINE
  5
54B7
330
20
100
AcDbEntity
  8
11000_Left
  6
DASHED
 62
     7
370
    13
100
AcDbLine
 39
0.25
 10
177.9917004521954
 20
133.3380056236933
 30
-1.0
 11
177.2917004521954
 21
133.3380056236933
 31
-1.0
1001
AUSTER_ANSICHT
1002
{
1000
Det03
1002
}
1001
AUSTER_FOLIE
1002
{
1000
NSB00990_S0_SPU_3POL
1000
NSK9118_MSG_S00
1002
}
  0
LINE
  5
54B8
330
20
100
AcDbEntity
  8
11000_Left
  6
DASHED
 62
     7
370
    13
100
AcDbLine
 39
0.25
 10
178.2917004521953
 20
133.0380056236933
 30
-1.0
 11
178.2917004521953
 21
130.3380056236933
 31
-1.0
1001
AUSTER_ANSICHT
1002
{
1000
Det03
1002
}
1001
AUSTER_FOLIE
1002
{
1000
NSB00990_S0_SPU_3POL
1000
NSK9118_MSG_S00
1002
}
  0
LINE
  5
54B9
330
20
100
AcDbEntity
  8
11000_Left
  6
DASHED
 62
     7
370
    13
100
AcDbLine
 39
0.25
 10
177.2917004521954
 20
133.5880056236933
 30
-1.0
 11
177.2917004521954
 21
133.3380056236933
 31
-1.0
1001
AUSTER_ANSICHT
1002
{
1000
Det03
1002
}
1001
AUSTER_FOLIE
1002
{
1000
NSB00990_S0_SPU_3POL
1000
NSK9118_MSG_S00
1002
}
  0
LINE
  5
54BA
330
20
100
AcDbEntity
  8
11000_Left
  6
DASHED
 62
     7
370
    13
100
AcDbLine
 39
0.25
 10
175.3917004521954
 20
135.4880056236932
 30
0.0
 11
172.7917004521954
 21
135.4880056236932
 31
0.0
1001
AUSTER_ANSICHT
1002
{
1000
Det03
1002
}
1001
AUSTER_FOLIE
1002
{
1000
NSB00990_S0_SPU_3POL
1000
NSK9118_MSG_S00
1002
}
  0
ARC
  5
54BB
330
20
100
AcDbEntity
  8
11000_Left
  6
DASHED
 62
     7
370
    13
100
AcDbCircle
 39
0.25
 10
172.7917004521954
 20
159.4880056236933
 30
0.0
 40
1.0
100
AcDbArc
 50
90.0
 51
180.0
1001
AUSTER_ANSICHT
1002
{
1000
Det03
1002
}
1001
AUSTER_FOLIE
1002
{
1000
NSB00990_S0_SPU_3POL
1000
NSK9118_MSG_S00
1002
}
  0
LINE
  5
54BC
330
20
100
AcDbEntity
  8
11000_Left
  6
DASHED
 62
     7
370
    13
100
AcDbLine
 10
178.3417004521954
 20
165.6390056236933
 30
0.0
 11
179.2917004521954
 21
165.6390056236933
 31
-0.75
1001
AUSTER_FOLIE
1002
{
1000
NSB00990_S0_SPU_3POL
1002
}
1001
AUSTER_ANSICHT
1002
{
1000
Det03
1002
}
  0
ARC
  5
54BD
330
20
100
AcDbEntity
  8
11000_Left
  6
DASHED
 62
     7
370
    13
100
AcDbCircle
 39
0.25
 10
175.2917004521954
 20
138.4880056236933
 30
-1.0
 40
1.0
100
AcDbArc
 50
180.0
 51
270.0
1001
AUSTER_ANSICHT
1002
{
1000
Det03
1002
}
1001
AUSTER_FOLIE
1002
{
1000
NSB00990_S0_SPU_3POL
1000
NSK9118_MSG_S00
1002
}
  0
ARC
  5
54BE
330
20
100
AcDbEntity
  8
11000_Left
  6
DASHED
 62
     7
370
    13
100
AcDbCircle
 39
0.25
 10
175.2917004521954
 20
157.4880056236933
 30
-1.0
 40
1.0
100
AcDbArc
 50
90.0
 51
180.0
1001
AUSTER_ANSICHT
1002
{
1000
Det03
1002
}
1001
AUSTER_FOLIE
1002
{
1000
NSB00990_S0_SPU_3POL
1000
NSK9118_MSG_S00
1002
}
  0
ARC
  5
54BF
330
20
100
AcDbEntity
  8
11000_Left
  6
DASHED
 62
     7
370
    13
100
AcDbCircle
 39
0.25
 10
175.3917004521954
 20
162.3880056236933
 30
-1.0
 40
1.9
100
AcDbArc
 50
270.0
 51
0.0
1001
AUSTER_ANSICHT
1002
{
1000
Det03
1002
}
1001
AUSTER_FOLIE
1002
{
1000
NSB00990_S0_SPU_3POL
1000
NSK9118_MSG_S00
1002
}
  0
ARC
  5
54C0
330
20
100
AcDbEntity
  8
11000_Left
  6
DASHED
 62
     7
370
    13
100
AcDbCircle
 39
0.25
 10
177.9917004521954
 20
162.9380056236933
 30
-1.0
 40
0.3
100
AcDbArc
 50
270.0
 51
0.0
1001
AUSTER_ANSICHT
1002
{
1000
Det03
1002
}
1001
AUSTER_FOLIE
1002
{
1000
NSB00990_S0_SPU_3POL
1000
NSK9118_MSG_S00
1002
}
  0
LINE
  5
54C1
330
20
100
AcDbEntity
  8
11000_Left
  6
DASHED
 62
     7
370
    13
100
AcDbLine
 39
0.25
 10
174.2917004521954
 20
157.4880056236933
 30
-1.0
 11
174.2917004521954
 21
147.9880056236933
 31
-1.0
1001
AUSTER_ANSICHT
1002
{
1000
Det03
1002
}
1001
AUSTER_FOLIE
1002
{
1000
NSB00990_S0_SPU_3POL
1000
NSK9118_MSG_S00
1002
}
  0
LINE
  5
54C2
330
20
100
AcDbEntity
  8
11000_Left
  6
DASHED
 62
     7
370
    13
100
AcDbLine
 39
0.25
 10
174.2917004521954
 20
138.4880056236933
 30
-1.0
 11
174.2917004521954
 21
147.9880056236933
 31
-1.0
1001
AUSTER_ANSICHT
1002
{
1000
Det03
1002
}
1001
AUSTER_FOLIE
1002
{
1000
NSB00990_S0_SPU_3POL
1000
NSK9118_MSG_S00
1002
}
  0
LINE
  5
54C3
330
20
100
AcDbEntity
  8
11000_Left
  6
DASHED
 62
     7
370
    13
100
AcDbLine
 39
0.25
 10
175.2917004521954
 20
137.4880056236932
 30
-1.0
 11
177.2917004521954
 21
137.4880056236932
 31
-1.0
1001
AUSTER_ANSICHT
1002
{
1000
Det03
1002
}
1001
AUSTER_FOLIE
1002
{
1000
NSB00990_S0_SPU_3POL
1000
NSK9118_MSG_S00
1002
}
  0
LINE
  5
54C4
330
20
100
AcDbEntity
  8
11000_Left
  6
DASHED
 62
     7
370
    13
100
AcDbLine
 39
0.25
 10
179.2917004521954
 20
160.4880056236933
 30
-1.0
 11
177.2917004521954
 21
158.4880056236933
 31
-1.0
1001
AUSTER_ANSICHT
1002
{
1000
Det03
1002
}
1001
AUSTER_FOLIE
1002
{
1000
NSB00990_S0_SPU_3POL
1000
NSK9118_MSG_S00
1002
}
  0
LINE
  5
54C5
330
20
100
AcDbEntity
  8
11000_Left
  6
DASHED
 62
     7
370
    13
100
AcDbLine
 39
0.25
 10
175.2917004521954
 20
158.4880056236933
 30
-1.0
 11
177.2917004521954
 21
158.4880056236933
 31
-1.0
1001
AUSTER_ANSICHT
1002
{
1000
Det03
1002
}
1001
AUSTER_FOLIE
1002
{
1000
NSB00990_S0_SPU_3POL
1000
NSK9118_MSG_S00
1002
}
  0
LINE
  5
54C6
330
20
100
AcDbEntity
  8
11000_Left
  6
DASHED
 62
     7
370
    13
100
AcDbLine
 39
0.25
 10
177.9917004521954
 20
162.6380056236933
 30
-1.0
 11
177.2917004521954
 21
162.6380056236933
 31
-1.0
1001
AUSTER_ANSICHT
1002
{
1000
Det03
1002
}
1001
AUSTER_FOLIE
1002
{
1000
NSB00990_S0_SPU_3POL
1000
NSK9118_MSG_S00
1002
}
  0
LINE
  5
54C7
330
20
100
AcDbEntity
  8
11000_Left
  6
DASHED
 62
     7
370
    13
100
AcDbLine
 39
0.25
 10
178.2917004521953
 20
163.1380056236933
 30
-1.0
 11
178.2917004521953
 21
165.6380056236933
 31
-1.0
1001
AUSTER_ANSICHT
1002
{
1000
Det03
1002
}
1001
AUSTER_FOLIE
1002
{
1000
NSB00990_S0_SPU_3POL
1000
NSK9118_MSG_S00
1002
}
  0
LINE
  5
54C8
330
20
100
AcDbEntity
  8
11000_Left
  6
DASHED
 62
     7
370
    13
100
AcDbLine
 39
0.25
 10
177.2917004521954
 20
162.3880056236933
 30
-1.0
 11
177.2917004521954
 21
162.6380056236933
 31
-1.0
1001
AUSTER_ANSICHT
1002
{
1000
Det03
1002
}
1001
AUSTER_FOLIE
1002
{
1000
NSB00990_S0_SPU_3POL
1000
NSK9118_MSG_S00
1002
}
  0
LINE
  5
54C9
330
20
100
AcDbEntity
  8
11000_Left
  6
DASHED
 62
     7
370
    13
100
AcDbLine
 39
0.25
 10
175.3917004521954
 20
160.4880056236933
 30
0.0
 11
172.7917004521954
 21
160.4880056236933
 31
0.0
1001
AUSTER_ANSICHT
1002
{
1000
Det03
1002
}
1001
AUSTER_FOLIE
1002
{
1000
NSB00990_S0_SPU_3POL
1000
NSK9118_MSG_S00
1002
}
  0
LINE
  5
54CA
330
20
100
AcDbEntity
  8
11000_Left
  6
DASHED
 62
     7
370
    13
100
AcDbLine
 39
0.25
 10
171.7917004521954
 20
159.4880056236933
 30
0.0
 11
171.7917004521954
 21
136.4880056236932
 31
0.0
1001
AUSTER_ANSICHT
1002
{
1000
Det03
1002
}
1001
AUSTER_FOLIE
1002
{
1000
NSB00990_S0_SPU_3POL
1000
NSK9118_MSG_S00
1002
}
  0
LINE
  5
54CB
330
20
100
AcDbEntity
  8
11000_Left
  6
DASHED
 62
     7
370
    13
100
AcDbLine
 10
178.3417004521954
 20
130.3380056236933
 30
0.0
 11
179.2917004521954
 21
130.3380056236933
 31
-0.75
1001
AUSTER_FOLIE
1002
{
1000
NSB00989_S00_AUF_RUCKFALL
1000
NSB00988_S0_SPU_2POL
1000
NSB00987_S00_AUF_ANZUG
1000
NSB00985_S00_AUFS
1000
NSK9117_LED_ANZEIGEBAUSTEIN
1000
NSB00990_S0_SPU_3POL
1000
NSB00773_S0_SPU_2POL
1000
NSB00772_S0_AUFS
1000
NSB00770_S00_LOT
1000
NSB00257_S00_AUF_RUCKFALL
1000
NSB00256_S00_AUF_ANZUG
1000
NSB00254_S00_AUFS
1002
}
1001
AUSTER_ANSICHT
1002
{
1000
Det03
1002
}
  0
DIMENSION
  5
54CC
330
20
100
AcDbEntity
  8
11100_LEFT_DIM
  6
Continuous
370
    13
100
AcDbDimension
  2
*D4
 10
229.9417004521954
 20
229.7007896673154
 30
0.0
 11
209.6167004521954
 21
229.7007896673154
 31
0.0
 70
    32
 71
     5
 42
40.65
  3
DSTYLE1
100
AcDbAlignedDimension
 13
189.2917004521954
 23
168.8880056236933
 33
0.0
 14
229.9417004521954
 24
212.9360056236933
 34
0.0
100
AcDbRotatedDimension
1001
AUSTER_FOLIE
1002
{
1000
NSB00990_S0_SPU_3POL
1002
}
1001
AUSTER_ANSICHT
1002
{
1000
Det03
1002
}
1001
ACAD
1000
DSTYLE
1002
{
1070
    41
1040
2.0
1070
    42
1040
1.0
1070
    43
1040
1.0
1070
    47
1040
0.005
1070
    48
1040
-0.005
1070
    77
1070
     0
1070
    78
1070
     0
1070
   143
1040
25.4
1070
   171
1070
     0
1070
   172
1070
     1
1070
   271
1070
     0
1070
   272
1070
     1
1070
   277
1070
     6
1070
   279
1070
     0
1002
}
  0
DIMENSION
  5
54EC
330
20
100
AcDbEntity
  8
10100_FRONT_DIM
  6
Continuous
 62
     7
370
    13
100
AcDbDimension
  2
*D5
 10
83.9297004521954
 20
221.9228048242535
 30
0.0
 11
80.92970045219541
 21
221.9228048242535
 31
0.0
 70
    32
 71
     5
 42
6.0
  3
DSTYLE1
100
AcDbAlignedDimension
 13
77.9297004521954
 23
212.4380056236934
 33
0.0
 14
83.9297004521954
 24
210.1070056236933
 34
0.0
100
AcDbRotatedDimension
1001
ACAD
1000
DSTYLE
1002
{
1070
    41
1040
2.0
1070
    42
1040
1.0
1070
    43
1040
1.0
1070
    47
1040
0.005
1070
    48
1040
-0.005
1070
    77
1070
     0
1070
    78
1070
     0
1070
   143
1040
25.4
1070
   171
1070
     0
1070
   172
1070
     1
1070
   271
1070
     0
1070
   272
1070
     1
1070
   277
1070
     6
1070
   279
1070
     0
1002
}
  0
DIMENSION
  5
54FB
330
20
100
AcDbEntity
  8
10100_FRONT_DIM
  6
Continuous
 62
     7
370
    13
100
AcDbDimension
  2
*D6
 10
94.92970045219541
 20
221.9228048242535
 30
0.0
 11
89.42970045219542
 21
221.9228048242535
 31
0.0
 70
    32
 71
     5
 42
11.00000000000001
  3
DSTYLE1
100
AcDbAlignedDimension
 13
83.9297004521954
 23
210.1070056236933
 33
0.0
 14
94.92970045219541
 24
210.1070056236933
 34
0.0
100
AcDbRotatedDimension
1001
ACAD
1000
DSTYLE
1002
{
1070
    41
1040
2.0
1070
    42
1040
1.0
1070
    43
1040
1.0
1070
    47
1040
0.005
1070
    48
1040
-0.005
1070
    77
1070
     0
1070
    78
1070
     0
1070
   143
1040
25.4
1070
   171
1070
     0
1070
   172
1070
     1
1070
   271
1070
     0
1070
   272
1070
     1
1070
   277
1070
     6
1070
   279
1070
     0
1002
}
  0
DIMENSION
  5
551E
330
20
100
AcDbEntity
  8
10100_FRONT_DIM
  6
Continuous
 62
     7
100
AcDbDimension
  2
*D7
 10
122.9297004521954
 20
228.4153474635762
 30
0.0
 11
100.4297004521954
 21
228.4153474635762
 31
0.0
 70
    32
 71
     5
 42
45.00000000000001
  3
DSTYLE1
100
AcDbAlignedDimension
 13
77.9297004521954
 23
212.4380056236934
 33
0.0
 14
122.9297004521954
 24
212.4380056236934
 34
0.0
100
AcDbRotatedDimension
1001
ACAD
1000
DSTYLE
1002
{
1070
    41
1040
2.0
1070
    42
1040
1.0
1070
    43
1040
1.0
1070
    47
1040
0.005
1070
    48
1040
-0.005
1070
    77
1070
     0
1070
    78
1070
     0
1070
   143
1040
25.4
1070
   171
1070
     0
1070
   172
1070
     1
1070
   271
1070
     0
1070
   272
1070
     1
1070
   277
1070
     6
1070
   279
1070
     0
1002
}
  0
DIMENSION
  5
554B
330
20
100
AcDbEntity
  8
11100_LEFT_DIM
  6
Continuous
370
    13
100
AcDbDimension
  2
*D8
 10
242.4417004521954
 20
222.4853577756461
 30
0.0
 11
217.6917004521954
 21
222.4853577756461
 31
0.0
 70
    32
 71
     5
 42
49.49999999999997
  3
DSTYLE1
100
AcDbAlignedDimension
 13
192.9417004521954
 23
212.4360056236934
 33
0.0
 14
242.4417004521954
 24
209.2106816996698
 34
0.0
100
AcDbRotatedDimension
1001
ACAD
1000
DSTYLE
1002
{
1070
    41
1040
2.0
1070
    42
1040
1.0
1070
    43
1040
1.0
1070
    47
1040
0.005
1070
    48
1040
-0.005
1070
    77
1070
     0
1070
    78
1070
     0
1070
   143
1040
25.4
1070
   171
1070
     0
1070
   172
1070
     1
1070
   271
1070
     0
1070
   272
1070
     1
1070
   277
1070
     6
1070
   279
1070
     0
1002
}
  0
DIMENSION
  5
556A
330
20
100
AcDbEntity
  8
11100_LEFT_DIM
  6
Continuous
370
    13
100
AcDbDimension
  2
*D9
 10
251.7003748465679
 20
187.9380056236933
 30
0.0
 11
251.7003748465679
 21
200.9370056236934
 31
0.0
 70
    32
 71
     5
 42
25.99799999999999
  3
DSTYLE1
100
AcDbAlignedDimension
 13
238.3207004521954
 23
213.9360056236934
 33
0.0
 14
235.4917004521954
 24
187.9380056236933
 34
0.0
 50
90.0
100
AcDbRotatedDimension
1001
ACAD
1000
DSTYLE
1002
{
1070
    41
1040
2.0
1070
    42
1040
1.0
1070
    43
1040
1.0
1070
    47
1040
0.005
1070
    48
1040
-0.005
1070
    77
1070
     0
1070
    78
1070
     0
1070
   143
1040
25.4
1070
   171
1070
     0
1070
   172
1070
     1
1070
   271
1070
     0
1070
   272
1070
     1
1070
   277
1070
     6
1070
   279
1070
     0
1002
}
  0
DIMENSION
  5
55BB
330
20
100
AcDbEntity
  8
10100_FRONT_DIM
  6
Continuous
 62
     7
370
    13
100
AcDbDimension
  2
*D10
 10
133.4148852763119
 20
107.9380056236933
 30
0.0
 11
133.4148852763119
 21
160.9380056236933
 31
0.0
 70
    32
 71
     5
 42
106.0
  3
DSTYLE1
100
AcDbAlignedDimension
 13
122.5297004521954
 23
213.9380056236933
 33
0.0
 14
120.1297004521954
 24
107.9380056236933
 34
0.0
 50
90.0
100
AcDbRotatedDimension
1001
ACAD
1000
DSTYLE
1002
{
1070
    41
1040
2.0
1070
    42
1040
1.0
1070
    43
1040
1.0
1070
    47
1040
0.005
1070
    48
1040
-0.005
1070
    77
1070
     0
1070
    78
1070
     0
1070
   143
1040
25.4
1070
   171
1070
     0
1070
   172
1070
     1
1070
   271
1070
     0
1070
   272
1070
     1
1070
   277
1070
     6
1070
   279
1070
     0
1002
}
  0
ENDSEC
  0
SECTION
  2
OBJECTS
  0
DICTIONARY
  5
C
330
0
100
AcDbDictionary
281
     1
  3
ACAD_COLOR
350
1B
  3
ACAD_GROUP
350
D
  3
ACAD_LAYOUT
350
19
  3
ACAD_MATERIAL
350
1A
  3
ACAD_MLINESTYLE
350
16
  3
ACAD_PLOTSETTINGS
350
18
  3
ACAD_PLOTSTYLENAME
350
E
  3
ACDBHEADERROUNDTRIPXREC
350
5C10
  3
AcDbVariableDictionary
350
5BD3
  3
DWGPROPS
350
5C0F
  0
DICTIONARY
  5
1B
102
{ACAD_REACTORS
330
C
102
}
330
C
100
AcDbDictionary
281
     1
  0
DICTIONARY
  5
D
102
{ACAD_REACTORS
330
C
102
}
330
C
100
AcDbDictionary
281
     1
  0
DICTIONARY
  5
19
102
{ACAD_REACTORS
330
C
102
}
330
C
100
AcDbDictionary
281
     1
  3
Layout1
350
1F
  3
Model
350
23
  0
DICTIONARY
  5
1A
102
{ACAD_REACTORS
330
C
102
}
330
C
100
AcDbDictionary
281
     1
  0
DICTIONARY
  5
16
102
{ACAD_REACTORS
330
C
102
}
330
C
100
AcDbDictionary
281
     1
  3
Standard
350
17
  0
DICTIONARY
  5
18
102
{ACAD_REACTORS
330
C
102
}
330
C
100
AcDbDictionary
281
     1
  0
ACDBDICTIONARYWDFLT
  5
E
102
{ACAD_REACTORS
330
C
102
}
330
C
100
AcDbDictionary
281
     1
  3
Normal
350
F
100
AcDbDictionaryWithDefault
340
F
  0
DICTIONARY
  5
5C10
102
{ACAD_REACTORS
330
C
102
}
330
C
100
AcDbDictionary
281
     1
  3
COLORDICT
350
5C12
  3
MATERIALDICT
350
5C11
  0
DICTIONARY
  5
5BD3
102
{ACAD_REACTORS
330
C
102
}
330
C
100
AcDbDictionary
281
     1
  3
DIMASSOC
350
5BD4
  3
PROJECTNAME
350
5BD5
  0
XRECORD
  5
5C0F
102
{ACAD_REACTORS
330
C
102
}
330
C
100
AcDbXrecord
280
     1
  1
DWGPROPS COOKIE
  2

  3

  4

  6

  7

  8

  9

300
=
301
=
302
=
303
=
304
=
305
=
306
=
307
=
308
=
309
=
 40
0.4834295138888889
 41
2452829.417613079
 42
2453405.760819642
  1

 90
        0
  0
LAYOUT
  5
1F
102
{ACAD_XDICTIONARY
360
5C13
102
}
102
{ACAD_REACTORS
330
19
102
}
330
19
100
AcDbPlotSettings
  1

  2
HP LaserJet 5000 Series PS
  4

  6

 40
0.0
 41
0.0
 42
0.0
 43
0.0
 44
0.0
 45
0.0
 46
0.0
 47
0.0
 48
0.0
 49
0.0
140
0.0
141
0.0
142
1.0
143
1.0
 70
   688
 72
     0
 73
     0
 74
     5
  7
monochrome.ctb
 75
    16
147
1.0
148
0.0
149
0.0
100
AcDbLayout
  1
Layout1
 70
     1
 71
     1
 10
0.0
 20
0.0
 11
12.0
 21
9.0
 12
0.0
 22
0.0
 32
0.0
 14
1.000000000000000E+20
 24
1.000000000000000E+20
 34
1.000000000000000E+20
 15
-1.000000000000000E+20
 25
-1.000000000000000E+20
 35
-1.000000000000000E+20
146
0.0
 13
0.0
 23
0.0
 33
0.0
 16
1.0
 26
0.0
 36
0.0
 17
0.0
 27
1.0
 37
0.0
 76
     0
330
1C
  0
LAYOUT
  5
23
102
{ACAD_XDICTIONARY
360
5C15
102
}
102
{ACAD_REACTORS
330
19
102
}
330
19
100
AcDbPlotSettings
  1

  2
\\AMBW779A\A_P00873 (Canon iR2200-3300 PCL6)
  4
A3
  6

 40
4.815417
 41
4.815412
 42
4.815399
 43
4.81543
 44
296.925995
 45
419.9466549999998
 46
0.0
 47
0.0
 48
0.0
 49
0.0
140
0.0
141
0.0
142
1.0
143
1.0
 70
 11952
 72
     1
 73
     1
 74
     1
  7
monochrome.ctb
 75
    16
147
1.0
148
-9.985351685845555
149
0.0045295091865682
100
AcDbLayout
  1
Model
 70
     1
 71
     0
 10
0.0
 20
0.0
 11
12.0
 21
9.0
 12
0.0
 22
0.0
 32
0.0
 14
0.0
 24
0.0
 34
0.0
 15
0.0
 25
0.0
 35
0.0
146
0.0
 13
0.0
 23
0.0
 33
0.0
 16
1.0
 26
0.0
 36
0.0
 17
0.0
 27
1.0
 37
0.0
 76
     0
330
20
  0
MLINESTYLE
  5
17
102
{ACAD_REACTORS
330
16
102
}
330
16
100
AcDbMlineStyle
  2
STANDARD
 70
     0
  3

 62
   256
 51
90.0
 52
90.0
 71
     2
 49
0.5
 62
   256
  6
BYLAYER
 49
-0.5
 62
   256
  6
BYLAYER
  0
ACDBPLACEHOLDER
  5
F
102
{ACAD_REACTORS
330
E
102
}
330
E
  0
XRECORD
  5
5C12
102
{ACAD_REACTORS
330
5C10
102
}
330
5C10
100
AcDbXrecord
280
     1
340
1B
  0
XRECORD
  5
5C11
102
{ACAD_REACTORS
330
5C10
102
}
330
5C10
100
AcDbXrecord
280
     1
340
1A
  0
DICTIONARYVAR
  5
5BD4
102
{ACAD_REACTORS
330
5BD3
102
}
330
5BD3
100
DictionaryVariables
280
     0
  1
1
  0
DICTIONARYVAR
  5
5BD5
102
{ACAD_REACTORS
330
5BD3
102
}
330
5BD3
100
DictionaryVariables
280
     0
  1

  0
DICTIONARY
  5
5C13
330
1F
100
AcDbDictionary
280
     1
281
     1
  3
ACAD_XREC_ROUNDTRIP
360
5C14
  0
DICTIONARY
  5
5C15
330
23
100
AcDbDictionary
280
     1
281
     1
  3
ACAD_XREC_ROUNDTRIP
360
5C16
  0
XRECORD
  5
5C14
102
{ACAD_REACTORS
330
5C13
102
}
330
5C13
100
AcDbXrecord
280
     1
102
SHADEPLOT
 70
     0
102
SHADEPLOTRESLEVEL
 70
     2
102
SHADEPLOTCUSTOMDPI
 70
   300
  0
XRECORD
  5
5C16
102
{ACAD_REACTORS
330
5C15
102
}
330
5C15
100
AcDbXrecord
280
     1
102
SHADEPLOT
 70
     1
102
SHADEPLOTRESLEVEL
 70
     2
102
SHADEPLOTCUSTOMDPI
 70
   300
  0
ENDSEC
  0
EOF
