  0
SECTION
  2
HEADER
  9
$ACADVER
  1
AC1015
  9
$ACADMAINTVER
 70
    20
  9
$DWGCODEPAGE
  3
ANSI_1252
  9
$INSBASE
 10
0.0
 20
0.0
 30
0.0
  9
$EXTMIN
 10
788.6670927066197
 20
294.2029386195354
 30
-1.00009002350256
  9
$EXTMAX
 10
1058.757060749329
 20
494.2265624367014
 30
0.5001184459512649
  9
$LIMMIN
 10
0.0
 20
0.0
  9
$LIMMAX
 10
420.0
 20
297.0
  9
$ORTHOMODE
 70
     0
  9
$REGENMODE
 70
     1
  9
$FILLMODE
 70
     1
  9
$QTEXTMODE
 70
     0
  9
$MIRRTEXT
 70
     0
  9
$LTSCALE
 40
1.0
  9
$ATTMODE
 70
     1
  9
$TEXTSIZE
 40
2.5
  9
$TRACEWID
 40
1.0
  9
$TEXTSTYLE
  7
Standard
  9
$CLAYER
  8
0
  9
$CELTYPE
  6
ByLayer
  9
$CECOLOR
 62
   256
  9
$CELTSCALE
 40
1.0
  9
$DISPSILH
 70
     0
  9
$DIMSCALE
 40
1.0
  9
$DIMASZ
 40
2.5
  9
$DIMEXO
 40
0.625
  9
$DIMDLI
 40
3.75
  9
$DIMRND
 40
0.0
  9
$DIMDLE
 40
0.0
  9
$DIMEXE
 40
1.25
  9
$DIMTP
 40
0.0
  9
$DIMTM
 40
0.0
  9
$DIMTXT
 40
2.5
  9
$DIMCEN
 40
2.5
  9
$DIMTSZ
 40
0.0
  9
$DIMTOL
 70
     0
  9
$DIMLIM
 70
     0
  9
$DIMTIH
 70
     0
  9
$DIMTOH
 70
     0
  9
$DIMSE1
 70
     0
  9
$DIMSE2
 70
     0
  9
$DIMTAD
 70
     1
  9
$DIMZIN
 70
     8
  9
$DIMBLK
  1

  9
$DIMASO
 70
     1
  9
$DIMSHO
 70
     1
  9
$DIMPOST
  1

  9
$DIMAPOST
  1

  9
$DIMALT
 70
     0
  9
$DIMALTD
 70
     3
  9
$DIMALTF
 40
0.03937007874016
  9
$DIMLFAC
 40
1.0
  9
$DIMTOFL
 70
     1
  9
$DIMTVP
 40
0.0
  9
$DIMTIX
 70
     0
  9
$DIMSOXD
 70
     0
  9
$DIMSAH
 70
     0
  9
$DIMBLK1
  1

  9
$DIMBLK2
  1

  9
$DIMSTYLE
  2
ISO-25
  9
$DIMCLRD
 70
     0
  9
$DIMCLRE
 70
     0
  9
$DIMCLRT
 70
     0
  9
$DIMTFAC
 40
1.0
  9
$DIMGAP
 40
0.625
  9
$DIMJUST
 70
     0
  9
$DIMSD1
 70
     0
  9
$DIMSD2
 70
     0
  9
$DIMTOLJ
 70
     0
  9
$DIMTZIN
 70
     8
  9
$DIMALTZ
 70
     0
  9
$DIMALTTZ
 70
     0
  9
$DIMUPT
 70
     0
  9
$DIMDEC
 70
     2
  9
$DIMTDEC
 70
     2
  9
$DIMALTU
 70
     2
  9
$DIMALTTD
 70
     3
  9
$DIMTXSTY
  7
Standard
  9
$DIMAUNIT
 70
     0
  9
$DIMADEC
 70
     0
  9
$DIMALTRND
 40
0.0
  9
$DIMAZIN
 70
     0
  9
$DIMDSEP
 70
    44
  9
$DIMATFIT
 70
     3
  9
$DIMFRAC
 70
     0
  9
$DIMLDRBLK
  1

  9
$DIMLUNIT
 70
     2
  9
$DIMLWD
 70
    -2
  9
$DIMLWE
 70
    -2
  9
$DIMTMOVE
 70
     0
  9
$LUNITS
 70
     2
  9
$LUPREC
 70
     4
  9
$SKETCHINC
 40
1.0
  9
$FILLETRAD
 40
10.0
  9
$AUNITS
 70
     0
  9
$AUPREC
 70
     0
  9
$MENU
  1
.
  9
$ELEVATION
 40
0.0
  9
$PELEVATION
 40
0.0
  9
$THICKNESS
 40
0.0
  9
$LIMCHECK
 70
     0
  9
$CHAMFERA
 40
10.0
  9
$CHAMFERB
 40
10.0
  9
$CHAMFERC
 40
20.0
  9
$CHAMFERD
 40
0.0
  9
$SKPOLY
 70
     0
  9
$TDCREATE
 40
2453928.240428044
  9
$TDUCREATE
 40
2453928.198761378
  9
$TDUPDATE
 40
2454083.570394282
  9
$TDUUPDATE
 40
2454083.528727616
  9
$TDINDWG
 40
0.5504478009
  9
$TDUSRTIMER
 40
0.5504376736
  9
$USRTIMER
 70
     1
  9
$ANGBASE
 50
0.0
  9
$ANGDIR
 70
     0
  9
$PDMODE
 70
     0
  9
$PDSIZE
 40
0.0
  9
$PLINEWID
 40
0.0
  9
$SPLFRAME
 70
     0
  9
$SPLINETYPE
 70
     6
  9
$SPLINESEGS
 70
     8
  9
$HANDSEED
  5
23B2
  9
$SURFTAB1
 70
     6
  9
$SURFTAB2
 70
     6
  9
$SURFTYPE
 70
     6
  9
$SURFU
 70
     6
  9
$SURFV
 70
     6
  9
$UCSBASE
  2

  9
$UCSNAME
  2

  9
$UCSORG
 10
0.0
 20
0.0
 30
0.0
  9
$UCSXDIR
 10
1.0
 20
0.0
 30
0.0
  9
$UCSYDIR
 10
0.0
 20
1.0
 30
0.0
  9
$UCSORTHOREF
  2

  9
$UCSORTHOVIEW
 70
     0
  9
$UCSORGTOP
 10
0.0
 20
0.0
 30
0.0
  9
$UCSORGBOTTOM
 10
0.0
 20
0.0
 30
0.0
  9
$UCSORGLEFT
 10
0.0
 20
0.0
 30
0.0
  9
$UCSORGRIGHT
 10
0.0
 20
0.0
 30
0.0
  9
$UCSORGFRONT
 10
0.0
 20
0.0
 30
0.0
  9
$UCSORGBACK
 10
0.0
 20
0.0
 30
0.0
  9
$PUCSBASE
  2

  9
$PUCSNAME
  2

  9
$PUCSORG
 10
0.0
 20
0.0
 30
0.0
  9
$PUCSXDIR
 10
1.0
 20
0.0
 30
0.0
  9
$PUCSYDIR
 10
0.0
 20
1.0
 30
0.0
  9
$PUCSORTHOREF
  2

  9
$PUCSORTHOVIEW
 70
     0
  9
$PUCSORGTOP
 10
0.0
 20
0.0
 30
0.0
  9
$PUCSORGBOTTOM
 10
0.0
 20
0.0
 30
0.0
  9
$PUCSORGLEFT
 10
0.0
 20
0.0
 30
0.0
  9
$PUCSORGRIGHT
 10
0.0
 20
0.0
 30
0.0
  9
$PUCSORGFRONT
 10
0.0
 20
0.0
 30
0.0
  9
$PUCSORGBACK
 10
0.0
 20
0.0
 30
0.0
  9
$USERI1
 70
     0
  9
$USERI2
 70
     0
  9
$USERI3
 70
     0
  9
$USERI4
 70
     0
  9
$USERI5
 70
     0
  9
$USERR1
 40
0.0
  9
$USERR2
 40
0.0
  9
$USERR3
 40
0.0
  9
$USERR4
 40
0.0
  9
$USERR5
 40
0.0
  9
$WORLDVIEW
 70
     1
  9
$SHADEDGE
 70
     3
  9
$SHADEDIF
 70
    70
  9
$TILEMODE
 70
     1
  9
$MAXACTVP
 70
    64
  9
$PINSBASE
 10
0.0
 20
0.0
 30
0.0
  9
$PLIMCHECK
 70
     0
  9
$PEXTMIN
 10
0.0
 20
0.0
 30
0.0
  9
$PEXTMAX
 10
0.0
 20
0.0
 30
0.0
  9
$PLIMMIN
 10
0.0
 20
0.0
  9
$PLIMMAX
 10
12.0
 20
9.0
  9
$UNITMODE
 70
     0
  9
$VISRETAIN
 70
     1
  9
$PLINEGEN
 70
     0
  9
$PSLTSCALE
 70
     1
  9
$TREEDEPTH
 70
  3020
  9
$CMLSTYLE
  2
Standard
  9
$CMLJUST
 70
     0
  9
$CMLSCALE
 40
20.0
  9
$PROXYGRAPHICS
 70
     1
  9
$MEASUREMENT
 70
     1
  9
$CELWEIGHT
370
    -1
  9
$ENDCAPS
280
     0
  9
$JOINSTYLE
280
     0
  9
$LWDISPLAY
290
     0
  9
$INSUNITS
 70
     4
  9
$HYPERLINKBASE
  1

  9
$STYLESHEET
  1

  9
$XEDIT
290
     1
  9
$CEPSNTYPE
380
     0
  9
$PSTYLEMODE
290
     1
  9
$FINGERPRINTGUID
  2
{FDEAD578-A652-11D2-9A35-0060089B3A3F}
  9
$VERSIONGUID
  2
{6F6DD677-23A9-4E5A-8674-D0FFF0C0ABAE}
  9
$EXTNAMES
290
     1
  9
$PSVPSCALE
 40
0.0
  9
$OLESTARTUP
290
     0
  0
ENDSEC
  0
SECTION
  2
CLASSES
  0
CLASS
  1
ACDBDICTIONARYWDFLT
  2
AcDbDictionaryWithDefault
  3
ObjectDBX Classes
 90
        0
280
     0
281
     0
  0
CLASS
  1
DICTIONARYVAR
  2
AcDbDictionaryVar
  3
ObjectDBX Classes
 90
        0
280
     0
281
     0
  0
CLASS
  1
ACDBPLACEHOLDER
  2
AcDbPlaceHolder
  3
ObjectDBX Classes
 90
        0
280
     0
281
     0
  0
CLASS
  1
LAYOUT
  2
AcDbLayout
  3
ObjectDBX Classes
 90
        0
280
     0
281
     0
  0
CLASS
  1
MATERIAL
  2
AcDbMaterial
  3
ObjectDBX Classes
 90
     1024
280
     0
281
     0
  0
CLASS
  1
VISUALSTYLE
  2
AcDbVisualStyle
  3
ObjectDBX Classes
 90
     4095
280
     0
281
     0
  0
CLASS
  1
TABLESTYLE
  2
AcDbTableStyle
  3
ObjectDBX Classes
 90
     4095
280
     0
281
     0
  0
CLASS
  1
SORTENTSTABLE
  2
AcDbSortentsTable
  3
ObjectDBX Classes
 90
        0
280
     0
281
     0
  0
ENDSEC
  0
SECTION
  2
TABLES
  0
TABLE
  2
VPORT
  5
8
330
0
100
AcDbSymbolTable
 70
     1
  0
VPORT
  5
B14
330
8
100
AcDbSymbolTableRecord
100
AcDbViewportTableRecord
  2
*Active
 70
     0
 10
0.0
 20
0.0
 11
1.0
 21
1.0
 12
923.7120767279744
 22
394.2147505281184
 13
0.0
 23
0.0
 14
10.0
 24
10.0
 15
10.0
 25
10.0
 16
0.0
 26
0.0
 36
1.0
 17
0.0
 27
0.0
 37
0.0
 40
201.2583375444325
 41
1.708547888774459
 42
50.0
 43
0.0
 44
0.0
 50
0.0
 51
0.0
 71
     0
 72
  1000
 73
     1
 74
     3
 75
     0
 76
     0
 77
     0
 78
     0
281
     0
 65
     1
110
0.0
120
0.0
130
0.0
111
1.0
121
0.0
131
0.0
112
0.0
122
1.0
132
0.0
 79
     0
146
0.0
  0
ENDTAB
  0
TABLE
  2
LTYPE
  5
5
330
0
100
AcDbSymbolTable
 70
     6
  0
LTYPE
  5
14
330
5
100
AcDbSymbolTableRecord
100
AcDbLinetypeTableRecord
  2
ByBlock
 70
     0
  3

 72
    65
 73
     0
 40
0.0
  0
LTYPE
  5
15
330
5
100
AcDbSymbolTableRecord
100
AcDbLinetypeTableRecord
  2
ByLayer
 70
     0
  3

 72
    65
 73
     0
 40
0.0
  0
LTYPE
  5
16
330
5
100
AcDbSymbolTableRecord
100
AcDbLinetypeTableRecord
  2
Continuous
 70
     0
  3
Solid line
 72
    65
 73
     0
 40
0.0
  0
LTYPE
  5
1B2
330
5
100
AcDbSymbolTableRecord
100
AcDbLinetypeTableRecord
  2
CENTER
 70
     0
  3
____ _ ____ _ ____ _ ____ _ ____ _ ____ _ ____
 72
    65
 73
     4
 40
0.6
 49
0.375
 74
     0
 49
-0.075
 74
     0
 49
0.075
 74
     0
 49
-0.075
 74
     0
  0
LTYPE
  5
144E
330
5
100
AcDbSymbolTableRecord
100
AcDbLinetypeTableRecord
  2
DASHED
 70
     0
  3
_ _ _ _ _ _ _ _ _ _ _ _ _ _ _ _ _ _ _ _ _ _ _ _
 72
    65
 73
     2
 40
0.375
 49
0.25
 74
     0
 49
-0.125
 74
     0
  0
LTYPE
  5
1988
330
5
100
AcDbSymbolTableRecord
100
AcDbLinetypeTableRecord
  2
LONG_DASH
 70
     0
  3
_ 
 72
    65
 73
     3
 40
9.0
 49
2.25
 74
     0
 49
-4.5
 74
     0
 49
2.25
 74
     0
  0
ENDTAB
  0
TABLE
  2
LAYER
  5
2
330
0
100
AcDbSymbolTable
 70
     8
  0
LAYER
  5
10
330
2
100
AcDbSymbolTableRecord
100
AcDbLayerTableRecord
  2
0
 70
     0
 62
     7
  6
Continuous
370
    -3
390
F
  0
LAYER
  5
1B4
330
2
100
AcDbSymbolTableRecord
100
AcDbLayerTableRecord
  2
Defpoints
 70
     0
 62
     7
  6
Continuous
290
     0
370
    -3
390
F
  0
LAYER
  5
1B5
330
2
100
AcDbSymbolTableRecord
100
AcDbLayerTableRecord
  2
91000_TIP
 70
     0
 62
     7
  6
Continuous
370
    -3
390
F
  0
LAYER
  5
1B6
330
2
100
AcDbSymbolTableRecord
100
AcDbLayerTableRecord
  2
11000_Left
 70
     0
 62
     7
  6
Continuous
370
    -3
390
F
  0
LAYER
  5
1B7
330
2
100
AcDbSymbolTableRecord
100
AcDbLayerTableRecord
  2
10000_FRONT
 70
     0
 62
     7
  6
Continuous
370
    -3
390
F
  0
LAYER
  5
1B8
330
2
100
AcDbSymbolTableRecord
100
AcDbLayerTableRecord
  2
10100_FRONT_DIM
 70
     0
 62
     7
  6
Continuous
370
    -3
390
F
  0
LAYER
  5
1B9
330
2
100
AcDbSymbolTableRecord
100
AcDbLayerTableRecord
  2
90000_FRAME
 70
     0
 62
     7
  6
Continuous
370
    -3
390
F
  0
LAYER
  5
1BA
330
2
100
AcDbSymbolTableRecord
100
AcDbLayerTableRecord
  2
11100_LEFT_DIM
 70
     0
 62
     7
  6
Continuous
370
    -3
390
F
  0
ENDTAB
  0
TABLE
  2
STYLE
  5
3
330
0
100
AcDbSymbolTable
 70
     5
  0
STYLE
  5
11
330
3
100
AcDbSymbolTableRecord
100
AcDbTextStyleTableRecord
  2
Standard
 70
     0
 40
0.0
 41
1.0
 50
0.0
 71
     0
 42
2.5
  3
txt
  4

  0
ENDTAB
  0
TABLE
  2
VIEW
  5
6
330
0
100
AcDbSymbolTable
 70
     0
  0
ENDTAB
  0
TABLE
  2
UCS
  5
7
330
0
100
AcDbSymbolTable
 70
     0
  0
ENDTAB
  0
TABLE
  2
APPID
  5
9
330
0
100
AcDbSymbolTable
 70
     4
  0
APPID
  5
12
330
9
100
AcDbSymbolTableRecord
100
AcDbRegAppTableRecord
  2
ACAD
 70
     0
  0
APPID
  5
1BD
330
9
100
AcDbSymbolTableRecord
100
AcDbRegAppTableRecord
  2
AUSTER_ANSICHT
 70
     0
  0
APPID
  5
1BE
330
9
100
AcDbSymbolTableRecord
100
AcDbRegAppTableRecord
  2
AUSTER_FOLIE
 70
     0
  0
APPID
  5
1989
330
9
100
AcDbSymbolTableRecord
100
AcDbRegAppTableRecord
  2
ACAD_PSEXT
 70
     0
  0
ENDTAB
  0
TABLE
  2
DIMSTYLE
  5
A
330
0
100
AcDbSymbolTable
 70
     9
100
AcDbDimStyleTable
 71
     1
340
27
  0
DIMSTYLE
105
27
330
A
100
AcDbSymbolTableRecord
100
AcDbDimStyleTableRecord
  2
ISO-25
 70
     0
 41
2.5
 42
0.625
 43
3.75
 44
1.25
 73
     0
 74
     0
 77
     1
 78
     8
140
2.5
141
2.5
143
0.03937007874016
147
0.625
171
     3
172
     1
271
     2
272
     2
274
     3
278
    44
283
     0
284
     8
340
11
  0
DIMSTYLE
105
144F
102
{ACAD_REACTORS
330
211B
330
20E9
330
20EA
330
20EB
330
20EC
330
20ED
330
20EE
330
20F2
102
}
330
A
100
AcDbSymbolTableRecord
100
AcDbDimStyleTableRecord
  2
H035
 70
     0
 40
0.0
 41
3.5
 42
0.0
 43
3.75
 44
2.0
 73
     0
 74
     0
 77
     1
 78
     8
140
3.5
141
2.5
143
0.039
147
0.5
171
     4
172
     1
176
   256
177
     7
178
     7
271
     0
272
     2
273
     8
274
     4
340
11
  0
ENDTAB
  0
TABLE
  2
BLOCK_RECORD
  5
1
330
0
100
AcDbSymbolTable
 70
    46
  0
BLOCK_RECORD
  5
1F
102
{ACAD_XDICTIONARY
360
22C4
102
}
330
1
100
AcDbSymbolTableRecord
100
AcDbBlockTableRecord
  2
*Model_Space
340
22
  0
BLOCK_RECORD
  5
50
330
1
100
AcDbSymbolTableRecord
100
AcDbBlockTableRecord
  2
*Paper_Space
340
51
  0
BLOCK_RECORD
  5
55
330
1
100
AcDbSymbolTableRecord
100
AcDbBlockTableRecord
  2
*Paper_Space0
340
56
  0
BLOCK_RECORD
  5
86
330
1
100
AcDbSymbolTableRecord
100
AcDbBlockTableRecord
  2
SIEMENS_OUTLINE_BL0
340
0
102
{BLKREFS
331
1F26
331
1F43
102
}
  0
BLOCK_RECORD
  5
2172
330
1
100
AcDbSymbolTableRecord
100
AcDbBlockTableRecord
  2
*D33
340
0
  0
BLOCK_RECORD
  5
217F
330
1
100
AcDbSymbolTableRecord
100
AcDbBlockTableRecord
  2
*D34
340
0
  0
BLOCK_RECORD
  5
218C
330
1
100
AcDbSymbolTableRecord
100
AcDbBlockTableRecord
  2
*D35
340
0
  0
BLOCK_RECORD
  5
2199
330
1
100
AcDbSymbolTableRecord
100
AcDbBlockTableRecord
  2
*D36
340
0
  0
BLOCK_RECORD
  5
21A6
330
1
100
AcDbSymbolTableRecord
100
AcDbBlockTableRecord
  2
*D37
340
0
  0
BLOCK_RECORD
  5
21B4
330
1
100
AcDbSymbolTableRecord
100
AcDbBlockTableRecord
  2
*D38
340
0
  0
BLOCK_RECORD
  5
21C1
330
1
100
AcDbSymbolTableRecord
100
AcDbBlockTableRecord
  2
*D39
340
0
  0
BLOCK_RECORD
  5
21CE
330
1
100
AcDbSymbolTableRecord
100
AcDbBlockTableRecord
  2
*D40
340
0
  0
ENDTAB
  0
ENDSEC
  0
SECTION
  2
BLOCKS
  0
BLOCK
  5
20
330
1F
100
AcDbEntity
  8
0
100
AcDbBlockBegin
  2
*Model_Space
 70
     0
 10
0.0
 20
0.0
 30
0.0
  3
*Model_Space
  1

  0
ENDBLK
  5
21
330
1F
100
AcDbEntity
  8
0
100
AcDbBlockEnd
  0
BLOCK
  5
52
330
50
100
AcDbEntity
 67
     1
  8
0
100
AcDbBlockBegin
  2
*Paper_Space
 70
     0
 10
0.0
 20
0.0
 30
0.0
  3
*Paper_Space
  1

  0
ENDBLK
  5
53
330
50
100
AcDbEntity
 67
     1
  8
0
100
AcDbBlockEnd
  0
BLOCK
  5
57
330
55
100
AcDbEntity
 67
     1
  8
0
100
AcDbBlockBegin
  2
*Paper_Space0
 70
     0
 10
0.0
 20
0.0
 30
0.0
  3
*Paper_Space0
  1

  0
ENDBLK
  5
58
330
55
100
AcDbEntity
 67
     1
  8
0
100
AcDbBlockEnd
  0
BLOCK
  5
87
330
86
100
AcDbEntity
  8
0
  6
Continuous
 62
     7
100
AcDbBlockBegin
  2
SIEMENS_OUTLINE_BL0
 70
     0
 10
0.0
 20
0.0
 30
0.0
  3
SIEMENS_OUTLINE_BL0
  1

  0
LINE
  5
88
330
86
100
AcDbEntity
  8
0
  6
Continuous
 62
     7
100
AcDbLine
 10
79.186200508
 20
21.4145478991
 30
0.0
 11
79.186200508
 21
16.6612788158
 31
0.0
  0
LINE
  5
89
330
86
100
AcDbEntity
  8
0
  6
Continuous
 62
     7
100
AcDbLine
 10
80.61218123299999
 20
21.4145478991
 30
0.0
 11
80.61218123299999
 21
16.6612788158
 31
0.0
  0
LINE
  5
8A
330
86
100
AcDbEntity
  8
0
  6
Continuous
 62
     7
100
AcDbLine
 10
79.186200508
 20
16.6612788158
 30
0.0
 11
80.61218123299999
 21
16.6612788158
 31
0.0
  0
LINE
  5
8B
330
86
100
AcDbEntity
  8
0
  6
Continuous
 62
     7
100
AcDbLine
 10
79.186200508
 20
21.4145478991
 30
0.0
 11
80.61218123299999
 21
21.4145478991
 31
0.0
  0
LINE
  5
8C
330
86
100
AcDbEntity
  8
0
  6
Continuous
 62
     7
100
AcDbLine
 10
81.7054331221
 20
21.4145478991
 30
0.0
 11
81.7054331221
 21
16.6612788158
 31
0.0
  0
LINE
  5
8D
330
86
100
AcDbEntity
  8
0
  6
Continuous
 62
     7
100
AcDbLine
 10
81.7054331221
 20
16.6612788158
 30
0.0
 11
85.2703849346
 21
16.6612788158
 31
0.0
  0
LINE
  5
8E
330
86
100
AcDbEntity
  8
0
  6
Continuous
 62
     7
100
AcDbLine
 10
85.2703849346
 20
17.56439994169999
 30
0.0
 11
83.0838811563
 21
17.56439994169999
 31
0.0
  0
LINE
  5
8F
330
86
100
AcDbEntity
  8
0
  6
Continuous
 62
     7
100
AcDbLine
 10
85.2703849346
 20
17.56439994169999
 30
0.0
 11
85.2703849346
 21
16.6612788158
 31
0.0
  0
LINE
  5
90
330
86
100
AcDbEntity
  8
0
  6
Continuous
 62
     7
100
AcDbLine
 10
85.2228522438
 20
21.4145478991
 30
0.0
 11
81.7054331221
 21
21.4145478991
 31
0.0
  0
LINE
  5
91
330
86
100
AcDbEntity
  8
0
  6
Continuous
 62
     7
100
AcDbLine
 10
85.2228522438
 20
20.5351931187
 30
0.0
 11
83.0838811563
 21
20.5351931187
 31
0.0
  0
LINE
  5
92
330
86
100
AcDbEntity
  8
0
  6
Continuous
 62
     7
100
AcDbLine
 10
85.2228522438
 20
21.4145478991
 30
0.0
 11
85.2228522438
 21
20.5351931187
 31
0.0
  0
LINE
  5
93
330
86
100
AcDbEntity
  8
0
  6
Continuous
 62
     7
100
AcDbLine
 10
84.9376560988
 20
18.68141817619999
 30
0.0
 11
83.0838811563
 21
18.68141817619999
 31
0.0
  0
LINE
  5
94
330
86
100
AcDbEntity
  8
0
  6
Continuous
 62
     7
100
AcDbLine
 10
84.9376560988
 20
19.46570757499999
 30
0.0
 11
84.9376560988
 21
18.68141817619999
 31
0.0
  0
LINE
  5
95
330
86
100
AcDbEntity
  8
0
  6
Continuous
 62
     7
100
AcDbLine
 10
84.9376560988
 20
19.46570757499999
 30
0.0
 11
83.0838811563
 21
19.46570757499999
 31
0.0
  0
LINE
  5
96
330
86
100
AcDbEntity
  8
0
  6
Continuous
 62
     7
100
AcDbLine
 10
83.0838811563
 20
20.5351931187
 30
0.0
 11
83.0838811563
 21
19.46570757499999
 31
0.0
  0
LINE
  5
97
330
86
100
AcDbEntity
  8
0
  6
Continuous
 62
     7
100
AcDbLine
 10
83.0838811563
 20
18.68141817619999
 30
0.0
 11
83.0838811563
 21
17.56439994169999
 31
0.0
  0
LINE
  5
98
330
86
100
AcDbEntity
  8
0
  6
Continuous
 62
     7
100
AcDbLine
 10
86.0784406788
 20
16.6612788158
 30
0.0
 11
86.0784406788
 21
21.4145478991
 31
0.0
  0
LINE
  5
99
330
86
100
AcDbEntity
  8
0
  6
Continuous
 62
     7
100
AcDbLine
 10
86.0784406788
 20
16.6612788158
 30
0.0
 11
87.02909449539999
 21
16.6612788158
 31
0.0
  0
LINE
  5
9A
330
86
100
AcDbEntity
  8
0
  6
Continuous
 62
     7
100
AcDbLine
 10
91.92496165120001
 20
21.4145478991
 30
0.0
 11
91.92496165120001
 21
16.6612788158
 31
0.0
  0
LINE
  5
9B
330
86
100
AcDbEntity
  8
0
  6
Continuous
 62
     7
100
AcDbLine
 10
91.92496165120001
 20
16.6612788158
 30
0.0
 11
90.54651361700001
 21
16.6612788158
 31
0.0
  0
LINE
  5
9C
330
86
100
AcDbEntity
  8
0
  6
Continuous
 62
     7
100
AcDbLine
 10
88.3600098387
 20
16.61374612499999
 30
0.0
 11
89.21559827370002
 21
16.61374612499999
 31
0.0
  0
LINE
  5
9D
330
86
100
AcDbEntity
  8
0
  6
Continuous
 62
     7
100
AcDbLine
 10
88.3600098387
 20
16.61374612499999
 30
0.0
 11
87.02909449539999
 21
19.7033710291
 31
0.0
  0
LINE
  5
9E
330
86
100
AcDbEntity
  8
0
  6
Continuous
 62
     7
100
AcDbLine
 10
87.02909449539999
 20
16.6612788158
 30
0.0
 11
87.02909449539999
 21
19.7033710291
 31
0.0
  0
LINE
  5
9F
330
86
100
AcDbEntity
  8
0
  6
Continuous
 62
     7
100
AcDbLine
 10
90.54651361700001
 20
19.75090372
 30
0.0
 11
89.21559827370002
 21
16.61374612499999
 31
0.0
  0
LINE
  5
A0
330
86
100
AcDbEntity
  8
0
  6
Continuous
 62
     7
100
AcDbLine
 10
87.78961754870001
 20
21.4145478991
 30
0.0
 11
86.0784406788
 21
21.4145478991
 31
0.0
  0
LINE
  5
A1
330
86
100
AcDbEntity
  8
0
  6
Continuous
 62
     7
100
AcDbLine
 10
91.92496165120001
 20
21.4145478991
 30
0.0
 11
90.2137847812
 21
21.4145478991
 31
0.0
  0
LINE
  5
A2
330
86
100
AcDbEntity
  8
0
  6
Continuous
 62
     7
100
AcDbLine
 10
87.78961754870001
 20
21.4145478991
 30
0.0
 11
89.0254675104
 21
18.51505375829999
 31
0.0
  0
LINE
  5
A3
330
86
100
AcDbEntity
  8
0
  6
Continuous
 62
     7
100
AcDbLine
 10
90.2137847812
 20
21.4145478991
 30
0.0
 11
89.0254675104
 21
18.51505375829999
 31
0.0
  0
LINE
  5
A4
330
86
100
AcDbEntity
  8
0
  6
Continuous
 62
     7
100
AcDbLine
 10
90.54651361700001
 20
19.75090372
 30
0.0
 11
90.54651361700001
 21
16.6612788158
 31
0.0
  0
LINE
  5
A5
330
86
100
AcDbEntity
  8
0
  6
Continuous
 62
     7
100
AcDbLine
 10
93.01821354030002
 20
21.4145478991
 30
0.0
 11
93.01821354030002
 21
16.6612788158
 31
0.0
  0
LINE
  5
A6
330
86
100
AcDbEntity
  8
0
  6
Continuous
 62
     7
100
AcDbLine
 10
93.01821354030002
 20
16.6612788158
 30
0.0
 11
96.5831653528
 21
16.6612788158
 31
0.0
  0
LINE
  5
A7
330
86
100
AcDbEntity
  8
0
  6
Continuous
 62
     7
100
AcDbLine
 10
96.5831653528
 20
17.56439994169999
 30
0.0
 11
94.3966615745
 21
17.56439994169999
 31
0.0
  0
LINE
  5
A8
330
86
100
AcDbEntity
  8
0
  6
Continuous
 62
     7
100
AcDbLine
 10
96.5831653528
 20
17.56439994169999
 30
0.0
 11
96.5831653528
 21
16.6612788158
 31
0.0
  0
LINE
  5
A9
330
86
100
AcDbEntity
  8
0
  6
Continuous
 62
     7
100
AcDbLine
 10
96.53563266200002
 20
21.4145478991
 30
0.0
 11
93.01821354030002
 21
21.4145478991
 31
0.0
  0
LINE
  5
AA
330
86
100
AcDbEntity
  8
0
  6
Continuous
 62
     7
100
AcDbLine
 10
96.53563266200002
 20
20.5351931187
 30
0.0
 11
94.3966615745
 21
20.5351931187
 31
0.0
  0
LINE
  5
AB
330
86
100
AcDbEntity
  8
0
  6
Continuous
 62
     7
100
AcDbLine
 10
96.53563266200002
 20
21.4145478991
 30
0.0
 11
96.53563266200002
 21
20.5351931187
 31
0.0
  0
LINE
  5
AC
330
86
100
AcDbEntity
  8
0
  6
Continuous
 62
     7
100
AcDbLine
 10
96.25043651700002
 20
18.68141817619999
 30
0.0
 11
94.3966615745
 21
18.68141817619999
 31
0.0
  0
LINE
  5
AD
330
86
100
AcDbEntity
  8
0
  6
Continuous
 62
     7
100
AcDbLine
 10
96.25043651700002
 20
19.46570757499999
 30
0.0
 11
96.25043651700002
 21
18.68141817619999
 31
0.0
  0
LINE
  5
AE
330
86
100
AcDbEntity
  8
0
  6
Continuous
 62
     7
100
AcDbLine
 10
96.25043651700002
 20
19.46570757499999
 30
0.0
 11
94.3966615745
 21
19.46570757499999
 31
0.0
  0
LINE
  5
AF
330
86
100
AcDbEntity
  8
0
  6
Continuous
 62
     7
100
AcDbLine
 10
94.3966615745
 20
20.5351931187
 30
0.0
 11
94.3966615745
 21
19.46570757499999
 31
0.0
  0
LINE
  5
B0
330
86
100
AcDbEntity
  8
0
  6
Continuous
 62
     7
100
AcDbLine
 10
94.3966615745
 20
18.68141817619999
 30
0.0
 11
94.3966615745
 21
17.56439994169999
 31
0.0
  0
LINE
  5
B1
330
86
100
AcDbEntity
  8
0
  6
Continuous
 62
     7
100
AcDbLine
 10
97.3674547515
 20
16.6612788158
 30
0.0
 11
97.3674547515
 21
21.4145478991
 31
0.0
  0
LINE
  5
B2
330
86
100
AcDbEntity
  8
0
  6
Continuous
 62
     7
100
AcDbLine
 10
101.5503315447999
 20
21.4145478991
 30
0.0
 11
101.5503315447999
 21
16.6612788158
 31
0.0
  0
LINE
  5
B3
330
86
100
AcDbEntity
  8
0
  6
Continuous
 62
     7
100
AcDbLine
 10
97.3674547515
 20
16.6612788158
 30
0.0
 11
98.3181085682
 21
16.6612788158
 31
0.0
  0
LINE
  5
B4
330
86
100
AcDbEntity
  8
0
  6
Continuous
 62
     7
100
AcDbLine
 10
101.5503315447999
 20
21.4145478991
 30
0.0
 11
100.5996777281999
 21
21.4145478991
 31
0.0
  0
LINE
  5
B5
330
86
100
AcDbEntity
  8
0
  6
Continuous
 62
     7
100
AcDbLine
 10
98.91226720360002
 20
21.4145478991
 30
0.0
 11
97.3674547515
 21
21.4145478991
 31
0.0
  0
LINE
  5
B6
330
86
100
AcDbEntity
  8
0
  6
Continuous
 62
     7
100
AcDbLine
 10
101.5503315447999
 20
16.6612788158
 30
0.0
 11
100.0292854381999
 21
16.6612788158
 31
0.0
  0
LINE
  5
B7
330
86
100
AcDbEntity
  8
0
  6
Continuous
 62
     7
100
AcDbLine
 10
100.0292854381999
 20
16.6612788158
 30
0.0
 11
98.3181085682
 21
19.7033710291
 31
0.0
  0
LINE
  5
B8
330
86
100
AcDbEntity
  8
0
  6
Continuous
 62
     7
100
AcDbLine
 10
98.91226720360002
 20
21.4145478991
 30
0.0
 11
100.5996777281999
 21
18.4675210675
 31
0.0
  0
LINE
  5
B9
330
86
100
AcDbEntity
  8
0
  6
Continuous
 62
     7
100
AcDbLine
 10
100.5996777281999
 20
21.4145478991
 30
0.0
 11
100.5996777281999
 21
18.4675210675
 31
0.0
  0
LINE
  5
BA
330
86
100
AcDbEntity
  8
0
  6
Continuous
 62
     7
100
AcDbLine
 10
98.3181085682
 20
16.6612788158
 30
0.0
 11
98.3181085682
 21
19.7033710291
 31
0.0
  0
LINE
  5
BB
330
86
100
AcDbEntity
  8
0
  6
Continuous
 62
     7
100
AcDbLine
 10
102.3583872889999
 20
16.75634419749999
 30
0.0
 11
102.3583872889999
 21
17.7069980142
 31
0.0
  0
LINE
  5
BC
330
86
100
AcDbEntity
  8
0
  6
Continuous
 62
     7
100
AcDbLine
 10
105.6856756473
 20
20.4163613916
 30
0.0
 11
105.6856756473
 21
21.36701520829999
 31
0.0
  0
ARC
  5
BD
330
86
100
AcDbEntity
  8
0
  6
Continuous
 62
     7
100
AcDbCircle
 10
104.063028414
 20
18.61843736089998
 30
0.0
 40
1.111619360599997
100
AcDbArc
 50
277.7099956934
 51
295.6884927745999
  0
ARC
  5
BE
330
86
100
AcDbEntity
  8
0
  6
Continuous
 62
     7
100
AcDbCircle
 10
104.3473383967
 20
17.8936115972
 30
0.0
 40
0.3401689265
100
AcDbArc
 50
305.503221255
 51
72.46528985229999
  0
ARC
  5
BF
330
86
100
AcDbEntity
  8
0
  6
Continuous
 62
     7
100
AcDbCircle
 10
103.7813445885999
 20
21.2953185068
 30
0.0
 40
4.756794641099999
100
AcDbArc
 50
252.5939200548001
 51
280.9816604255999
  0
ARC
  5
C0
330
86
100
AcDbEntity
  8
0
  6
Continuous
 62
     7
100
AcDbCircle
 10
104.2361799517
 20
18.6773047703
 30
0.0
 40
2.100726595299998
100
AcDbArc
 50
282.4058358519999
 51
311.8644433928
  0
ARC
  5
C1
330
86
100
AcDbEntity
  8
0
  6
Continuous
 62
     7
100
AcDbCircle
 10
103.9626156045999
 20
20.2856464918
 30
0.0
 40
0.3029626476
100
AcDbArc
 50
154.4400348282
 51
221.8201698800999
  0
ARC
  5
C2
330
86
100
AcDbEntity
  8
0
  6
Continuous
 62
     7
100
AcDbCircle
 10
104.0418367559
 20
20.2064253405
 30
0.0
 40
0.4103089737
100
AcDbArc
 50
102.8287828680999
 51
149.2259639003
  0
ARC
  5
C3
330
86
100
AcDbEntity
  8
0
  6
Continuous
 62
     7
100
AcDbCircle
 10
104.4588635915999
 20
18.46409001059999
 30
0.0
 40
2.201836557
100
AcDbArc
 50
84.0400061857
 51
103.3427657870999
  0
ARC
  5
C4
330
86
100
AcDbEntity
  8
0
  6
Continuous
 62
     7
100
AcDbCircle
 10
104.1178997669
 20
16.0467260867
 30
0.0
 40
4.642373736499997
100
AcDbArc
 50
70.2625858546
 51
82.95241863799999
  0
ARC
  5
C5
330
86
100
AcDbEntity
  8
0
  6
Continuous
 62
     7
100
AcDbCircle
 10
103.6038815646999
 20
20.7183489764
 30
0.0
 40
3.258755990899997
100
AcDbArc
 50
247.5300206145
 51
280.7579522143
  0
ARC
  5
C6
330
86
100
AcDbEntity
  8
0
  6
Continuous
 62
     7
100
AcDbCircle
 10
97.21891509270001
 20
2.4668290159
 30
0.0
 40
17.3316084133
100
AcDbArc
 50
65.34146746500001
 51
67.39977707359999
  0
ARC
  5
C7
330
86
100
AcDbEntity
  8
0
  6
Continuous
 62
     7
100
AcDbCircle
 10
108.0147774981
 20
28.259255379
 30
0.0
 40
10.6291642039
100
AcDbArc
 50
242.8620101252001
 51
247.1042029186
  0
ARC
  5
C8
330
86
100
AcDbEntity
  8
0
  6
Continuous
 62
     7
100
AcDbCircle
 10
104.1598762715
 20
20.725323882
 30
0.0
 40
2.166291629199998
100
AcDbArc
 50
227.3119280793999
 51
242.7040315235
  0
ARC
  5
C9
330
86
100
AcDbEntity
  8
0
  6
Continuous
 62
     7
100
AcDbCircle
 10
103.5558454618999
 20
20.0196462412
 30
0.0
 40
1.238521734
100
AcDbArc
 50
194.7952194236
 51
225.7176549047
  0
ARC
  5
CA
330
86
100
AcDbEntity
  8
0
  6
Continuous
 62
     7
100
AcDbCircle
 10
103.6180035961
 20
20.05986621039999
 30
0.0
 40
1.309092072899999
100
AcDbArc
 50
164.1974860461
 51
195.8025139539
  0
ARC
  5
CB
330
86
100
AcDbEntity
  8
0
  6
Continuous
 62
     7
100
AcDbCircle
 10
104.1750273167
 20
19.1715990505
 30
0.0
 40
2.366924815299999
100
AcDbArc
 50
86.22180229280001
 51
120.4272602309
  0
ARC
  5
CC
330
86
100
AcDbEntity
  8
0
  6
Continuous
 62
     7
100
AcDbCircle
 10
103.9061705341999
 20
12.4754312294
 30
0.0
 40
9.0679051661
100
AcDbArc
 50
78.68270492259998
 51
87.3147599624
  0
ARC
  5
CD
330
86
100
AcDbEntity
  8
0
  6
Continuous
 62
     7
100
AcDbCircle
 10
103.4501013557999
 20
20.1673739729
 30
0.0
 40
1.119747444
100
AcDbArc
 50
142.8139179029999
 51
167.1522951416999
  0
ARC
  5
CE
330
86
100
AcDbEntity
  8
0
  6
Continuous
 62
     7
100
AcDbCircle
 10
103.7954106973999
 20
19.86079227619999
 30
0.0
 40
1.580546684499998
100
AcDbArc
 50
121.2140948535
 51
141.5254768286
  0
ARC
  5
CF
330
86
100
AcDbEntity
  8
0
  6
Continuous
 62
     7
100
AcDbCircle
 10
104.372585063
 20
20.6718496049
 30
0.0
 40
0.8661276051999998
100
AcDbArc
 50
222.7760387596
 51
239.0362434679
  0
ARC
  5
D0
330
86
100
AcDbEntity
  8
0
  6
Continuous
 62
     7
100
AcDbCircle
 10
101.8658754847
 20
13.3415774063
 30
0.0
 40
6.858773576299999
100
AcDbArc
 50
59.90202725599999
 51
68.2036481279
  0
ARC
  5
D1
330
86
100
AcDbEntity
  8
0
  6
Continuous
 62
     7
100
AcDbCircle
 10
105.2743699785
 20
22.26746391349999
 30
0.0
 40
2.698741017099999
100
AcDbArc
 50
240.0481997804
 51
251.3779673736999
  0
ARC
  5
D2
330
86
100
AcDbEntity
  8
0
  6
Continuous
 62
     7
100
AcDbCircle
 10
104.6089128116999
 20
18.1105652982
 30
0.0
 40
1.4334474881
100
AcDbArc
 50
315.8904553224
 51
333.5229264372999
  0
ARC
  5
D3
330
86
100
AcDbEntity
  8
0
  6
Continuous
 62
     7
100
AcDbCircle
 10
104.6135510555
 20
18.057158148
 30
0.0
 40
1.406228711899998
100
AcDbArc
 50
335.3867972702
 51
24.39151194019999
  0
ARC
  5
D4
330
86
100
AcDbEntity
  8
0
  6
Continuous
 62
     7
100
AcDbCircle
 10
104.5413461519
 20
17.97930145619999
 30
0.0
 40
1.504702514799999
100
AcDbArc
 50
25.95629166050001
 51
59.4834829668
  0
LINE
  5
D5
330
86
100
AcDbEntity
  8
0
  6
Continuous
 62
     7
100
AcDbLine
 10
74.7656602606
 20
16.75634419749999
 30
0.0
 11
74.7656602606
 21
17.7069980142
 31
0.0
  0
LINE
  5
D6
330
86
100
AcDbEntity
  8
0
  6
Continuous
 62
     7
100
AcDbLine
 10
78.09294861879997
 20
20.4163613916
 30
0.0
 11
78.09294861879997
 21
21.36701520829999
 31
0.0
  0
ARC
  5
D7
330
86
100
AcDbEntity
  8
0
  6
Continuous
 62
     7
100
AcDbCircle
 10
76.4703013855
 20
18.61843736089998
 30
0.0
 40
1.111619360599997
100
AcDbArc
 50
277.7099956934
 51
295.6884927745999
  0
ARC
  5
D8
330
86
100
AcDbEntity
  8
0
  6
Continuous
 62
     7
100
AcDbCircle
 10
76.7546113683
 20
17.8936115972
 30
0.0
 40
0.3401689265
100
AcDbArc
 50
305.5032212556
 51
72.4652898515
  0
ARC
  5
D9
330
86
100
AcDbEntity
  8
0
  6
Continuous
 62
     7
100
AcDbCircle
 10
76.1886175602
 20
21.2953185068
 30
0.0
 40
4.756794641099999
100
AcDbArc
 50
252.5939200545
 51
280.9816604253
  0
ARC
  5
DA
330
86
100
AcDbEntity
  8
0
  6
Continuous
 62
     7
100
AcDbCircle
 10
76.64345292330001
 20
18.6773047703
 30
0.0
 40
2.100726595299998
100
AcDbArc
 50
282.4058358513
 51
311.8644433923
  0
ARC
  5
DB
330
86
100
AcDbEntity
  8
0
  6
Continuous
 62
     7
100
AcDbCircle
 10
76.3698885762
 20
20.2856464918
 30
0.0
 40
0.3029626476
100
AcDbArc
 50
154.4400348282
 51
221.8201698800999
  0
ARC
  5
DC
330
86
100
AcDbEntity
  8
0
  6
Continuous
 62
     7
100
AcDbCircle
 10
76.4491097276
 20
20.2064253405
 30
0.0
 40
0.4103089737
100
AcDbArc
 50
102.8287828727
 51
149.2259639027
  0
ARC
  5
DD
330
86
100
AcDbEntity
  8
0
  6
Continuous
 62
     7
100
AcDbCircle
 10
76.8661365632
 20
18.46409001059999
 30
0.0
 40
2.201836557
100
AcDbArc
 50
84.0400061859
 51
103.3427657871999
  0
ARC
  5
DE
330
86
100
AcDbEntity
  8
0
  6
Continuous
 62
     7
100
AcDbCircle
 10
76.5251727384
 20
16.0467260867
 30
0.0
 40
4.642373736499997
100
AcDbArc
 50
70.2625858546
 51
82.9524186379
  0
ARC
  5
DF
330
86
100
AcDbEntity
  8
0
  6
Continuous
 62
     7
100
AcDbCircle
 10
76.0111545363
 20
20.7183489764
 30
0.0
 40
3.258755990899997
100
AcDbArc
 50
247.5300206148
 51
280.7579522145
  0
ARC
  5
E0
330
86
100
AcDbEntity
  8
0
  6
Continuous
 62
     7
100
AcDbCircle
 10
69.6261880643
 20
2.4668290159
 30
0.0
 40
17.3316084133
100
AcDbArc
 50
65.34146746500001
 51
67.39977707359999
  0
ARC
  5
E1
330
86
100
AcDbEntity
  8
0
  6
Continuous
 62
     7
100
AcDbCircle
 10
80.4220504697
 20
28.259255379
 30
0.0
 40
10.6291642039
100
AcDbArc
 50
242.8620101252001
 51
247.1042029184999
  0
ARC
  5
E2
330
86
100
AcDbEntity
  8
0
  6
Continuous
 62
     7
100
AcDbCircle
 10
76.56714924310001
 20
20.725323882
 30
0.0
 40
2.166291629199998
100
AcDbArc
 50
227.3119280793999
 51
242.7040315235
  0
ARC
  5
E3
330
86
100
AcDbEntity
  8
0
  6
Continuous
 62
     7
100
AcDbCircle
 10
75.9631184335
 20
20.0196462412
 30
0.0
 40
1.238521734
100
AcDbArc
 50
194.7952194234
 51
225.7176549041999
  0
ARC
  5
E4
330
86
100
AcDbEntity
  8
0
  6
Continuous
 62
     7
100
AcDbCircle
 10
76.58230028830002
 20
19.1715990505
 30
0.0
 40
2.366924815299999
100
AcDbArc
 50
86.22180229280001
 51
120.4272602309
  0
ARC
  5
E5
330
86
100
AcDbEntity
  8
0
  6
Continuous
 62
     7
100
AcDbCircle
 10
76.3134435058
 20
12.4754312294
 30
0.0
 40
9.0679051661
100
AcDbArc
 50
78.68270492259998
 51
87.3147599624
  0
ARC
  5
E6
330
86
100
AcDbEntity
  8
0
  6
Continuous
 62
     7
100
AcDbCircle
 10
76.20268366899998
 20
19.86079227619999
 30
0.0
 40
1.580546684599998
100
AcDbArc
 50
121.2140948540999
 51
141.5254768289999
  0
ARC
  5
E7
330
86
100
AcDbEntity
  8
0
  6
Continuous
 62
     7
100
AcDbCircle
 10
76.7798580346
 20
20.6718496049
 30
0.0
 40
0.8661276051999998
100
AcDbArc
 50
222.7760387596
 51
239.0362434679
  0
ARC
  5
E8
330
86
100
AcDbEntity
  8
0
  6
Continuous
 62
     7
100
AcDbCircle
 10
74.2731484563
 20
13.3415774063
 30
0.0
 40
6.858773576299999
100
AcDbArc
 50
59.90202725620001
 51
68.20364812820002
  0
ARC
  5
E9
330
86
100
AcDbEntity
  8
0
  6
Continuous
 62
     7
100
AcDbCircle
 10
77.6816429501
 20
22.26746391349999
 30
0.0
 40
2.698741017099999
100
AcDbArc
 50
240.0481997804
 51
251.3779673734
  0
ARC
  5
EA
330
86
100
AcDbEntity
  8
0
  6
Continuous
 62
     7
100
AcDbCircle
 10
77.0161857833
 20
18.1105652982
 30
0.0
 40
1.4334474881
100
AcDbArc
 50
315.8904553225998
 51
333.5229264375
  0
ARC
  5
EB
330
86
100
AcDbEntity
  8
0
  6
Continuous
 62
     7
100
AcDbCircle
 10
77.020824027
 20
18.057158148
 30
0.0
 40
1.406228711899998
100
AcDbArc
 50
335.3867972703
 51
24.3915119403
  0
ARC
  5
EC
330
86
100
AcDbEntity
  8
0
  6
Continuous
 62
     7
100
AcDbCircle
 10
76.94861912350001
 20
17.97930145619999
 30
0.0
 40
1.504702514699999
100
AcDbArc
 50
25.9562916611
 51
59.4834829676
  0
LINE
  5
ED
330
86
100
AcDbEntity
  8
0
  6
Continuous
 62
     7
100
AcDbLine
 10
74.9574888499
 20
20.8337423583
 30
0.0
 11
75.2315546745
 21
21.10781543579999
 31
0.0
  0
ARC
  5
EE
330
86
100
AcDbEntity
  8
0
  6
Continuous
 62
     7
100
AcDbCircle
 10
76.0252765676
 20
20.05986621039999
 30
0.0
 40
1.309092072899999
100
AcDbArc
 50
164.1974860461
 51
195.8025139539
  0
ARC
  5
EF
330
86
100
AcDbEntity
  8
0
  6
Continuous
 62
     7
100
AcDbCircle
 10
75.8573743274
 20
20.1673739729
 30
0.0
 40
1.119747444
100
AcDbArc
 50
142.8139179029999
 51
167.1522951416999
  0
ENDBLK
  5
F0
330
86
100
AcDbEntity
  8
0
100
AcDbBlockEnd
  0
BLOCK
  5
217D
330
2172
100
AcDbEntity
  8
0
100
AcDbBlockBegin
  2
*D33
 70
     1
 10
0.0
 20
0.0
 30
0.0
  3
*D33
  1

  0
LINE
  5
22BA
330
2172
100
AcDbEntity
  8
11100_LEFT_DIM
  6
Continuous
 62
     7
370
    -2
100
AcDbLine
 10
973.767786118057
 20
392.7977435623982
 30
0.0
 11
973.767786118057
 21
374.7454420623982
 31
0.0
  0
LINE
  5
22BB
330
2172
100
AcDbEntity
  8
11100_LEFT_DIM
  6
Continuous
 62
     7
370
    -2
100
AcDbLine
 10
984.7739861180571
 20
430.6847185623982
 30
0.0
 11
984.7739861180571
 21
374.7454420623982
 31
0.0
  0
LINE
  5
22BC
330
2172
100
AcDbEntity
  8
11100_LEFT_DIM
  6
Continuous
370
    -2
100
AcDbLine
 10
977.267786118057
 20
376.7454420623982
 30
0.0
 11
981.273986118057
 21
376.7454420623982
 31
0.0
  0
MTEXT
  5
22BD
330
2172
100
AcDbEntity
  8
11100_LEFT_DIM
  6
Continuous
 62
     7
370
    13
100
AcDbMText
 10
991.4719657092264
 20
376.7454420623982
 30
0.0
 40
3.5
 41
0.0
 71
     5
 72
     1
  1
\A1;11
 73
     1
 44
1.0
1001
ACAD
1000
MTEXTBEGIN
1070
    73
1070
     1
1070
    44
1040
1.0
1070
    74
1070
     0
1000
MTEXTEND
  0
SOLID
  5
22BE
330
2172
100
AcDbEntity
  8
11100_LEFT_DIM
  6
Continuous
100
AcDbTrace
 10
977.267786118057
 20
377.3287753957315
 30
0.0
 11
977.267786118057
 21
376.1621087290649
 31
0.0
 12
973.767786118057
 22
376.7454420623982
 32
0.0
 13
973.767786118057
 23
376.7454420623982
 33
0.0
  0
SOLID
  5
22BF
330
2172
100
AcDbEntity
  8
11100_LEFT_DIM
  6
Continuous
100
AcDbTrace
 10
981.273986118057
 20
377.3287753957315
 30
0.0
 11
981.273986118057
 21
376.1621087290649
 31
0.0
 12
984.7739861180571
 22
376.7454420623982
 32
0.0
 13
984.7739861180571
 23
376.7454420623982
 33
0.0
  0
POINT
  5
22C0
330
2172
100
AcDbEntity
  8
Defpoints
  6
Continuous
 62
     0
100
AcDbPoint
 10
973.767786118057
 20
392.7977435623982
 30
0.0
  0
POINT
  5
22C1
330
2172
100
AcDbEntity
  8
Defpoints
  6
Continuous
 62
     0
100
AcDbPoint
 10
984.7739861180571
 20
430.6847185623982
 30
0.0
  0
POINT
  5
22C2
330
2172
100
AcDbEntity
  8
Defpoints
  6
Continuous
 62
     0
100
AcDbPoint
 10
984.7739861180571
 20
376.7454420623982
 30
0.0
  0
ENDBLK
  5
217E
330
2172
100
AcDbEntity
  8
0
100
AcDbBlockEnd
  0
BLOCK
  5
218A
330
217F
100
AcDbEntity
  8
0
100
AcDbBlockBegin
  2
*D34
 70
     1
 10
0.0
 20
0.0
 30
0.0
  3
*D34
  1

  0
LINE
  5
2357
330
217F
100
AcDbEntity
  8
10100_FRONT_DIM
  6
Continuous
 62
     7
370
    -2
100
AcDbLine
 10
823.4690109545317
 20
370.2477149002419
 30
0.0
 11
823.4690109545317
 21
349.8025505167698
 31
0.0
  0
LINE
  5
2358
330
217F
100
AcDbEntity
  8
10100_FRONT_DIM
  6
Continuous
 62
     7
370
    -2
100
AcDbLine
 10
868.2690109545317
 20
370.2477149002419
 30
0.0
 11
868.2690109545317
 21
349.8025505167698
 31
0.0
  0
LINE
  5
2359
330
217F
100
AcDbEntity
  8
10100_FRONT_DIM
  6
Continuous
370
    -2
100
AcDbLine
 10
826.9690109545317
 20
351.8025505167698
 30
0.0
 11
841.4523442878651
 21
351.8025505167698
 31
0.0
  0
LINE
  5
235A
330
217F
100
AcDbEntity
  8
10100_FRONT_DIM
  6
Continuous
370
    -2
100
AcDbLine
 10
864.7690109545317
 20
351.8025505167698
 30
0.0
 11
850.2856776211983
 21
351.8025505167698
 31
0.0
  0
SOLID
  5
235B
330
217F
100
AcDbEntity
  8
10100_FRONT_DIM
  6
Continuous
100
AcDbTrace
 10
826.9690109545317
 20
352.3858838501031
 30
0.0
 11
826.9690109545317
 21
351.2192171834365
 31
0.0
 12
823.4690109545317
 22
351.8025505167698
 32
0.0
 13
823.4690109545317
 23
351.8025505167698
 33
0.0
  0
SOLID
  5
235C
330
217F
100
AcDbEntity
  8
10100_FRONT_DIM
  6
Continuous
100
AcDbTrace
 10
864.7690109545317
 20
352.3858838501031
 30
0.0
 11
864.7690109545317
 21
351.2192171834365
 31
0.0
 12
868.2690109545317
 22
351.8025505167698
 32
0.0
 13
868.2690109545317
 23
351.8025505167698
 33
0.0
  0
MTEXT
  5
235D
330
217F
100
AcDbEntity
  8
10100_FRONT_DIM
  6
Continuous
 62
     7
370
    13
100
AcDbMText
 10
845.8690109545317
 20
351.8025505167698
 30
0.0
 40
3.5
 41
0.0
 71
     5
 72
     1
  1
\A1;45
 73
     1
 44
1.0
1001
ACAD
1000
MTEXTBEGIN
1070
    73
1070
     1
1070
    44
1040
1.0
1070
    74
1070
     0
1000
MTEXTEND
  0
POINT
  5
235E
330
217F
100
AcDbEntity
  8
Defpoints
  6
Continuous
 62
     0
100
AcDbPoint
 10
823.4690109545317
 20
370.2477149002419
 30
0.0
  0
POINT
  5
235F
330
217F
100
AcDbEntity
  8
Defpoints
  6
Continuous
 62
     0
100
AcDbPoint
 10
868.2690109545317
 20
370.2477149002419
 30
0.0
  0
POINT
  5
2360
330
217F
100
AcDbEntity
  8
Defpoints
  6
Continuous
 62
     0
100
AcDbPoint
 10
868.2690109545317
 20
351.8025505167698
 30
0.0
  0
ENDBLK
  5
218B
330
217F
100
AcDbEntity
  8
0
100
AcDbBlockEnd
  0
BLOCK
  5
2197
330
218C
100
AcDbEntity
  8
0
100
AcDbBlockBegin
  2
*D35
 70
     1
 10
0.0
 20
0.0
 30
0.0
  3
*D35
  1

  0
LINE
  5
2361
330
218C
100
AcDbEntity
  8
10100_FRONT_DIM
  6
Continuous
 62
     7
370
    -2
100
AcDbLine
 10
867.2690109545317
 20
465.8477149002419
 30
0.0
 11
878.9523299961526
 21
465.8477149002419
 31
0.0
  0
LINE
  5
2362
330
218C
100
AcDbEntity
  8
10100_FRONT_DIM
  6
Continuous
 62
     7
370
    -2
100
AcDbLine
 10
866.7690109545317
 20
368.7477149002419
 30
0.0
 11
878.9523299961526
 21
368.7477149002419
 31
0.0
  0
LINE
  5
2363
330
218C
100
AcDbEntity
  8
10100_FRONT_DIM
  6
Continuous
370
    -2
100
AcDbLine
 10
876.9523299961525
 20
462.3477149002419
 30
0.0
 11
876.9523299961525
 21
421.7143815669086
 31
0.0
  0
LINE
  5
2364
330
218C
100
AcDbEntity
  8
10100_FRONT_DIM
  6
Continuous
370
    -2
100
AcDbLine
 10
876.9523299961525
 20
372.2477149002419
 30
0.0
 11
876.9523299961525
 21
412.8810482335752
 31
0.0
  0
SOLID
  5
2365
330
218C
100
AcDbEntity
  8
10100_FRONT_DIM
  6
Continuous
100
AcDbTrace
 10
876.3689966628191
 20
462.3477149002419
 30
0.0
 11
877.535663329486
 21
462.3477149002419
 31
0.0
 12
876.9523299961525
 22
465.8477149002419
 32
0.0
 13
876.9523299961525
 23
465.8477149002419
 33
0.0
  0
SOLID
  5
2366
330
218C
100
AcDbEntity
  8
10100_FRONT_DIM
  6
Continuous
100
AcDbTrace
 10
876.3689966628191
 20
372.2477149002419
 30
0.0
 11
877.535663329486
 21
372.2477149002419
 31
0.0
 12
876.9523299961525
 22
368.7477149002419
 32
0.0
 13
876.9523299961525
 23
368.7477149002419
 33
0.0
  0
MTEXT
  5
2367
330
218C
100
AcDbEntity
  8
10100_FRONT_DIM
  6
Continuous
 62
     7
370
    13
100
AcDbMText
 10
876.9523299961525
 20
417.297714900242
 30
0.0
 40
3.5
 41
0.0
 71
     5
 72
     1
  1
\A1;97
 11
0.0000000000000001
 21
1.0
 31
0.0
 73
     1
 44
1.0
1001
ACAD
1000
MTEXTBEGIN
1070
    73
1070
     1
1070
    44
1040
1.0
1070
    74
1070
     0
1000
MTEXTEND
  0
POINT
  5
2368
330
218C
100
AcDbEntity
  8
Defpoints
  6
Continuous
 62
     0
100
AcDbPoint
 10
867.2690109545317
 20
465.8477149002419
 30
0.0
  0
POINT
  5
2369
330
218C
100
AcDbEntity
  8
Defpoints
  6
Continuous
 62
     0
100
AcDbPoint
 10
866.7690109545317
 20
368.7477149002419
 30
0.0
  0
POINT
  5
236A
330
218C
100
AcDbEntity
  8
Defpoints
  6
Continuous
 62
     0
100
AcDbPoint
 10
876.9523299961525
 20
368.7477149002419
 30
0.0
  0
ENDBLK
  5
2198
330
218C
100
AcDbEntity
  8
0
100
AcDbBlockEnd
  0
BLOCK
  5
21A4
330
2199
100
AcDbEntity
  8
0
100
AcDbBlockBegin
  2
*D36
 70
     1
 10
0.0
 20
0.0
 30
0.0
  3
*D36
  1

  0
LINE
  5
229C
330
2199
100
AcDbEntity
  8
11100_LEFT_DIM
  6
Continuous
 62
     7
370
    -2
100
AcDbLine
 10
899.8535532931102
 20
401.9477149002418
 30
0.0
 11
899.8535532931102
 21
359.1104049587244
 31
0.0
  0
LINE
  5
229D
330
2199
100
AcDbEntity
  8
11100_LEFT_DIM
  6
Continuous
 62
     7
370
    -2
100
AcDbLine
 10
942.8535532931103
 20
376.0477149002419
 30
0.0
 11
942.8535532931103
 21
359.1104049587244
 31
0.0
  0
LINE
  5
229E
330
2199
100
AcDbEntity
  8
11100_LEFT_DIM
  6
Continuous
370
    -2
100
AcDbLine
 10
903.3535532931102
 20
361.1104049587244
 30
0.0
 11
916.9368866264436
 21
361.1104049587244
 31
0.0
  0
LINE
  5
229F
330
2199
100
AcDbEntity
  8
11100_LEFT_DIM
  6
Continuous
370
    -2
100
AcDbLine
 10
939.3535532931103
 20
361.1104049587244
 30
0.0
 11
925.7702199597769
 21
361.1104049587244
 31
0.0
  0
SOLID
  5
22A0
330
2199
100
AcDbEntity
  8
11100_LEFT_DIM
  6
Continuous
100
AcDbTrace
 10
903.3535532931102
 20
361.6937382920577
 30
0.0
 11
903.3535532931102
 21
360.5270716253911
 31
0.0
 12
899.8535532931102
 22
361.1104049587244
 32
0.0
 13
899.8535532931102
 23
361.1104049587244
 33
0.0
  0
SOLID
  5
22A1
330
2199
100
AcDbEntity
  8
11100_LEFT_DIM
  6
Continuous
100
AcDbTrace
 10
939.3535532931103
 20
361.6937382920577
 30
0.0
 11
939.3535532931103
 21
360.5270716253911
 31
0.0
 12
942.8535532931103
 22
361.1104049587244
 32
0.0
 13
942.8535532931103
 23
361.1104049587244
 33
0.0
  0
MTEXT
  5
22A2
330
2199
100
AcDbEntity
  8
11100_LEFT_DIM
  6
Continuous
 62
     7
370
    13
100
AcDbMText
 10
921.3535532931102
 20
361.1104049587244
 30
0.0
 40
3.5
 41
0.0
 71
     5
 72
     1
  1
\A1;43
 73
     1
 44
1.0
1001
ACAD
1000
MTEXTBEGIN
1070
    73
1070
     1
1070
    44
1040
1.0
1070
    74
1070
     0
1000
MTEXTEND
  0
POINT
  5
22A3
330
2199
100
AcDbEntity
  8
Defpoints
  6
Continuous
 62
     0
100
AcDbPoint
 10
899.8535532931102
 20
401.9477149002418
 30
0.0
  0
POINT
  5
22A4
330
2199
100
AcDbEntity
  8
Defpoints
  6
Continuous
 62
     0
100
AcDbPoint
 10
942.8535532931103
 20
376.0477149002419
 30
0.0
  0
POINT
  5
22A5
330
2199
100
AcDbEntity
  8
Defpoints
  6
Continuous
 62
     0
100
AcDbPoint
 10
942.8535532931103
 20
361.1104049587244
 30
0.0
  0
ENDBLK
  5
21A5
330
2199
100
AcDbEntity
  8
0
100
AcDbBlockEnd
  0
BLOCK
  5
21B2
330
21A6
100
AcDbEntity
  8
0
100
AcDbBlockBegin
  2
*D37
 70
     1
 10
0.0
 20
0.0
 30
0.0
  3
*D37
  1

  0
LINE
  5
2291
330
21A6
100
AcDbEntity
  8
11100_LEFT_DIM
  6
Continuous
 62
     7
370
    -2
100
AcDbLine
 10
894.8535532931103
 20
369.9977149002419
 30
0.0
 11
894.8535532931103
 21
359.1104049587244
 31
0.0
  0
LINE
  5
2292
330
21A6
100
AcDbEntity
  8
11100_LEFT_DIM
  6
Continuous
 62
     7
370
    -2
100
AcDbLine
 10
899.8535532931102
 20
368.7477149002419
 30
0.0
 11
899.8535532931102
 21
359.1104049587244
 31
0.0
  0
LINE
  5
2293
330
21A6
100
AcDbEntity
  8
11100_LEFT_DIM
  6
Continuous
370
    -2
100
AcDbLine
 10
891.3535532931103
 20
361.1104049587244
 30
0.0
 11
887.8535532931103
 21
361.1104049587244
 31
0.0
  0
LINE
  5
2294
330
21A6
100
AcDbEntity
  8
11100_LEFT_DIM
  6
Continuous
370
    -2
100
AcDbLine
 10
903.3535532931102
 20
361.1104049587244
 30
0.0
 11
906.8535532931102
 21
361.1104049587244
 31
0.0
  0
MTEXT
  5
2295
330
21A6
100
AcDbEntity
  8
11100_LEFT_DIM
  6
Continuous
 62
     7
370
    13
100
AcDbMText
 10
885.4465937322489
 20
361.0842528772407
 30
0.0
 40
3.5
 41
0.0
 71
     5
 72
     1
  1
\A1;5
 73
     1
 44
1.0
1001
ACAD
1000
MTEXTBEGIN
1070
    73
1070
     1
1070
    44
1040
1.0
1070
    74
1070
     0
1000
MTEXTEND
  0
LINE
  5
2296
330
21A6
100
AcDbEntity
  8
11100_LEFT_DIM
  6
Continuous
370
    -2
100
AcDbLine
 10
894.8535532931103
 20
361.1104049587244
 30
0.0
 11
899.8535532931102
 21
361.1104049587244
 31
0.0
  0
SOLID
  5
2297
330
21A6
100
AcDbEntity
  8
11100_LEFT_DIM
  6
Continuous
100
AcDbTrace
 10
891.3535532931103
 20
361.6937382920577
 30
0.0
 11
891.3535532931103
 21
360.5270716253911
 31
0.0
 12
894.8535532931103
 22
361.1104049587244
 32
0.0
 13
894.8535532931103
 23
361.1104049587244
 33
0.0
  0
SOLID
  5
2298
330
21A6
100
AcDbEntity
  8
11100_LEFT_DIM
  6
Continuous
100
AcDbTrace
 10
903.3535532931102
 20
361.6937382920577
 30
0.0
 11
903.3535532931102
 21
360.5270716253911
 31
0.0
 12
899.8535532931102
 22
361.1104049587244
 32
0.0
 13
899.8535532931102
 23
361.1104049587244
 33
0.0
  0
POINT
  5
2299
330
21A6
100
AcDbEntity
  8
Defpoints
  6
Continuous
 62
     0
100
AcDbPoint
 10
894.8535532931103
 20
369.9977149002419
 30
0.0
  0
POINT
  5
229A
330
21A6
100
AcDbEntity
  8
Defpoints
  6
Continuous
 62
     0
100
AcDbPoint
 10
899.8535532931102
 20
368.7477149002419
 30
0.0
  0
POINT
  5
229B
330
21A6
100
AcDbEntity
  8
Defpoints
  6
Continuous
 62
     0
100
AcDbPoint
 10
899.8535532931102
 20
361.1104049587244
 30
0.0
  0
ENDBLK
  5
21B3
330
21A6
100
AcDbEntity
  8
0
100
AcDbBlockEnd
  0
BLOCK
  5
21BF
330
21B4
100
AcDbEntity
  8
0
100
AcDbBlockBegin
  2
*D38
 70
     1
 10
0.0
 20
0.0
 30
0.0
  3
*D38
  1

  0
LINE
  5
2287
330
21B4
100
AcDbEntity
  8
11100_LEFT_DIM
  6
Continuous
 62
     7
370
    -2
100
AcDbLine
 10
899.8535532931102
 20
368.7477149002419
 30
0.0
 11
899.8535532931102
 21
353.5180792481134
 31
0.0
  0
LINE
  5
2288
330
21B4
100
AcDbEntity
  8
11100_LEFT_DIM
  6
Continuous
 62
     7
370
    -2
100
AcDbLine
 10
966.0535532931103
 20
392.7977149002419
 30
0.0
 11
966.0535532931103
 21
353.5180792481134
 31
0.0
  0
LINE
  5
2289
330
21B4
100
AcDbEntity
  8
11100_LEFT_DIM
  6
Continuous
370
    -2
100
AcDbLine
 10
903.3535532931102
 20
355.5180792481134
 30
0.0
 11
928.5368866264436
 21
355.5180792481134
 31
0.0
  0
LINE
  5
228A
330
21B4
100
AcDbEntity
  8
11100_LEFT_DIM
  6
Continuous
370
    -2
100
AcDbLine
 10
962.5535532931102
 20
355.5180792481134
 30
0.0
 11
937.3702199597769
 21
355.5180792481134
 31
0.0
  0
SOLID
  5
228B
330
21B4
100
AcDbEntity
  8
11100_LEFT_DIM
  6
Continuous
100
AcDbTrace
 10
903.3535532931102
 20
356.1014125814467
 30
0.0
 11
903.3535532931102
 21
354.9347459147801
 31
0.0
 12
899.8535532931102
 22
355.5180792481134
 32
0.0
 13
899.8535532931102
 23
355.5180792481134
 33
0.0
  0
SOLID
  5
228C
330
21B4
100
AcDbEntity
  8
11100_LEFT_DIM
  6
Continuous
100
AcDbTrace
 10
962.5535532931102
 20
356.1014125814467
 30
0.0
 11
962.5535532931102
 21
354.9347459147801
 31
0.0
 12
966.0535532931103
 22
355.5180792481134
 32
0.0
 13
966.0535532931103
 23
355.5180792481134
 33
0.0
  0
MTEXT
  5
228D
330
21B4
100
AcDbEntity
  8
11100_LEFT_DIM
  6
Continuous
 62
     7
370
    13
100
AcDbMText
 10
932.9535532931103
 20
355.5180792481134
 30
0.0
 40
3.5
 41
0.0
 71
     5
 72
     1
  1
\A1;66
 73
     1
 44
1.0
1001
ACAD
1000
MTEXTBEGIN
1070
    73
1070
     1
1070
    44
1040
1.0
1070
    74
1070
     0
1000
MTEXTEND
  0
POINT
  5
228E
330
21B4
100
AcDbEntity
  8
Defpoints
  6
Continuous
 62
     0
100
AcDbPoint
 10
899.8535532931102
 20
368.7477149002419
 30
0.0
  0
POINT
  5
228F
330
21B4
100
AcDbEntity
  8
Defpoints
  6
Continuous
 62
     0
100
AcDbPoint
 10
966.0535532931103
 20
392.7977149002419
 30
0.0
  0
POINT
  5
2290
330
21B4
100
AcDbEntity
  8
Defpoints
  6
Continuous
 62
     0
100
AcDbPoint
 10
966.0535532931103
 20
355.5180792481134
 30
0.0
  0
ENDBLK
  5
21C0
330
21B4
100
AcDbEntity
  8
0
100
AcDbBlockEnd
  0
BLOCK
  5
21CC
330
21C1
100
AcDbEntity
  8
0
100
AcDbBlockBegin
  2
*D39
 70
     1
 10
0.0
 20
0.0
 30
0.0
  3
*D39
  1

  0
LINE
  5
227D
330
21C1
100
AcDbEntity
  8
11100_LEFT_DIM
  6
Continuous
 62
     7
370
    -2
100
AcDbLine
 10
899.8535532931102
 20
368.7477149002419
 30
0.0
 11
899.8535532931102
 21
347.3562138438071
 31
0.0
  0
LINE
  5
227E
330
21C1
100
AcDbEntity
  8
11100_LEFT_DIM
  6
Continuous
 62
     7
370
    -2
100
AcDbLine
 10
1025.734264442874
 20
423.6817885623981
 30
0.0
 11
1025.734264442874
 21
347.3562138438071
 31
0.0
  0
LINE
  5
227F
330
21C1
100
AcDbEntity
  8
11100_LEFT_DIM
  6
Continuous
370
    -2
100
AcDbLine
 10
903.3535532931102
 20
349.3562138438071
 30
0.0
 11
957.2105755346591
 21
349.3562138438071
 31
0.0
  0
LINE
  5
2280
330
21C1
100
AcDbEntity
  8
11100_LEFT_DIM
  6
Continuous
370
    -2
100
AcDbLine
 10
1022.234264442874
 20
349.3562138438071
 30
0.0
 11
968.3772422013257
 21
349.3562138438071
 31
0.0
  0
SOLID
  5
2281
330
21C1
100
AcDbEntity
  8
11100_LEFT_DIM
  6
Continuous
100
AcDbTrace
 10
903.3535532931102
 20
349.9395471771403
 30
0.0
 11
903.3535532931102
 21
348.7728805104737
 31
0.0
 12
899.8535532931102
 22
349.3562138438071
 32
0.0
 13
899.8535532931102
 23
349.3562138438071
 33
0.0
  0
SOLID
  5
2282
330
21C1
100
AcDbEntity
  8
11100_LEFT_DIM
  6
Continuous
100
AcDbTrace
 10
1022.234264442874
 20
349.9395471771403
 30
0.0
 11
1022.234264442874
 21
348.7728805104737
 31
0.0
 12
1025.734264442874
 22
349.3562138438071
 32
0.0
 13
1025.734264442874
 23
349.3562138438071
 33
0.0
  0
MTEXT
  5
2283
330
21C1
100
AcDbEntity
  8
11100_LEFT_DIM
  6
Continuous
 62
     7
370
    13
100
AcDbMText
 10
962.7939088679923
 20
349.3562138438071
 30
0.0
 40
3.5
 41
0.0
 71
     5
 72
     1
  1
\A1;126
 73
     1
 44
1.0
1001
ACAD
1000
MTEXTBEGIN
1070
    73
1070
     1
1070
    44
1040
1.0
1070
    74
1070
     0
1000
MTEXTEND
  0
POINT
  5
2284
330
21C1
100
AcDbEntity
  8
Defpoints
  6
Continuous
 62
     0
100
AcDbPoint
 10
899.8535532931102
 20
368.7477149002419
 30
0.0
  0
POINT
  5
2285
330
21C1
100
AcDbEntity
  8
Defpoints
  6
Continuous
 62
     0
100
AcDbPoint
 10
1025.734264442874
 20
423.6817885623981
 30
0.0
  0
POINT
  5
2286
330
21C1
100
AcDbEntity
  8
Defpoints
  6
Continuous
 62
     0
100
AcDbPoint
 10
1025.734264442874
 20
349.3562138438071
 30
0.0
  0
ENDBLK
  5
21CD
330
21C1
100
AcDbEntity
  8
0
100
AcDbBlockEnd
  0
BLOCK
  5
21D9
330
21CE
100
AcDbEntity
  8
0
100
AcDbBlockBegin
  2
*D40
 70
     1
 10
0.0
 20
0.0
 30
0.0
  3
*D40
  1

  0
LINE
  5
234D
330
21CE
100
AcDbEntity
  8
10100_FRONT_DIM
  6
Continuous
 62
     7
370
    -2
100
AcDbLine
 10
824.7690109545317
 20
390.2385426007095
 30
0.0
 11
824.7690109545317
 21
355.9552022023879
 31
0.0
  0
LINE
  5
234E
330
21CE
100
AcDbEntity
  8
10100_FRONT_DIM
  6
Continuous
 62
     7
370
    -2
100
AcDbLine
 10
854.7690109545317
 20
408.4923149002417
 30
0.0
 11
854.7690109545317
 21
355.9552022023879
 31
0.0
  0
LINE
  5
234F
330
21CE
100
AcDbEntity
  8
10100_FRONT_DIM
  6
Continuous
370
    -2
100
AcDbLine
 10
828.2690109545317
 20
357.9552022023879
 30
0.0
 11
835.6440109545317
 21
357.9552022023879
 31
0.0
  0
LINE
  5
2350
330
21CE
100
AcDbEntity
  8
10100_FRONT_DIM
  6
Continuous
370
    -2
100
AcDbLine
 10
851.2690109545317
 20
357.9552022023879
 30
0.0
 11
843.8940109545317
 21
357.9552022023879
 31
0.0
  0
SOLID
  5
2351
330
21CE
100
AcDbEntity
  8
10100_FRONT_DIM
  6
Continuous
100
AcDbTrace
 10
828.2690109545317
 20
358.5385355357212
 30
0.0
 11
828.2690109545317
 21
357.3718688690546
 31
0.0
 12
824.7690109545317
 22
357.9552022023879
 32
0.0
 13
824.7690109545317
 23
357.9552022023879
 33
0.0
  0
SOLID
  5
2352
330
21CE
100
AcDbEntity
  8
10100_FRONT_DIM
  6
Continuous
100
AcDbTrace
 10
851.2690109545317
 20
358.5385355357212
 30
0.0
 11
851.2690109545317
 21
357.3718688690546
 31
0.0
 12
854.7690109545317
 22
357.9552022023879
 32
0.0
 13
854.7690109545317
 23
357.9552022023879
 33
0.0
  0
MTEXT
  5
2353
330
21CE
100
AcDbEntity
  8
10100_FRONT_DIM
  6
Continuous
 62
     7
370
    13
100
AcDbMText
 10
839.7690109545317
 20
357.9552022023879
 30
0.0
 40
3.5
 41
0.0
 71
     5
 72
     1
  1
\A1;30
 73
     1
 44
1.0
1001
ACAD
1000
MTEXTBEGIN
1070
    73
1070
     1
1070
    44
1040
1.0
1070
    74
1070
     0
1000
MTEXTEND
  0
POINT
  5
2354
330
21CE
100
AcDbEntity
  8
Defpoints
  6
Continuous
 62
     0
100
AcDbPoint
 10
824.7690109545317
 20
390.2385426007095
 30
0.0
  0
POINT
  5
2355
330
21CE
100
AcDbEntity
  8
Defpoints
  6
Continuous
 62
     0
100
AcDbPoint
 10
854.7690109545317
 20
408.4923149002417
 30
0.0
  0
POINT
  5
2356
330
21CE
100
AcDbEntity
  8
Defpoints
  6
Continuous
 62
     0
100
AcDbPoint
 10
854.7690109545317
 20
357.9552022023879
 30
0.0
  0
ENDBLK
  5
21DA
330
21CE
100
AcDbEntity
  8
0
100
AcDbBlockEnd
  0
ENDSEC
  0
SECTION
  2
ENTITIES
  0
INSERT
  5
1F43
330
1F
100
AcDbEntity
  8
90000_FRAME
  6
Continuous
 62
     7
100
AcDbBlockReference
  2
SIEMENS_OUTLINE_BL0
 10
846.3524974815342
 20
293.8784170552307
 30
0.0
  0
LINE
  5
1F44
330
1F
100
AcDbEntity
  8
90000_FRAME
  6
Continuous
 62
     7
100
AcDbLine
 10
913.7066000976133
 20
304.216676282834
 30
0.0
 11
1048.706600097613
 21
304.216676282834
 31
0.0
  0
LINE
  5
1F45
330
1F
100
AcDbEntity
  8
90000_FRAME
  6
Continuous
 62
     7
100
AcDbLine
 10
913.7066000976133
 20
304.216676282834
 30
0.0
 11
913.7066000976133
 21
322.2166762828341
 31
0.0
  0
LINE
  5
1F46
330
1F
100
AcDbEntity
  8
90000_FRAME
  6
Continuous
 62
     7
100
AcDbLine
 10
963.7066000976133
 20
310.216676282834
 30
0.0
 11
1048.706600097613
 21
310.216676282834
 31
0.0
  0
LINE
  5
1F47
330
1F
100
AcDbEntity
  8
90000_FRAME
  6
Continuous
 62
     7
100
AcDbLine
 10
913.7066000976133
 20
322.2166762828341
 30
0.0
 11
1048.706600097613
 21
322.2166762828341
 31
0.0
  0
LINE
  5
1F48
330
1F
100
AcDbEntity
  8
90000_FRAME
  6
Continuous
 62
     7
100
AcDbLine
 10
963.7066000976133
 20
304.216676282834
 30
0.0
 11
963.7066000976133
 21
322.2166762828341
 31
0.0
  0
LINE
  5
1F49
330
1F
100
AcDbEntity
  8
90000_FRAME
  6
Continuous
 62
     7
100
AcDbLine
 10
1006.206600097613
 20
304.216676282834
 30
0.0
 11
1006.206600097613
 21
310.216676282834
 31
0.0
  0
LINE
  5
1F4A
330
1F
100
AcDbEntity
  8
90000_FRAME
  6
Continuous
 62
     7
100
AcDbLine
 10
1048.706600097613
 20
304.216676282834
 30
0.0
 11
1048.706600097613
 21
322.2166762828341
 31
0.0
  0
TEXT
  5
1F4B
330
1F
100
AcDbEntity
  8
90000_FRAME
  6
Continuous
 62
     7
100
AcDbText
 10
964.3666000976132
 20
306.116676282834
 30
0.0
 40
2.2
  1
Format / Size: DIN A4
 41
0.7994987468660263
 72
     5
 11
997.7856477166131
 21
306.116676282834
 31
0.0
100
AcDbText
  0
TEXT
  5
1F4C
330
1F
100
AcDbEntity
  8
90000_FRAME
  6
Continuous
 62
     7
100
AcDbText
 10
1006.866600097613
 20
306.116676282834
 30
0.0
 40
2.2
  1
Massstab / Scale: 1:1
 41
0.7732634338148462
 72
     5
 11
1037.771362002413
 21
306.116676282834
 31
0.0
100
AcDbText
  0
TEXT
  5
1F4D
330
1F
100
AcDbEntity
  8
90000_FRAME
  6
Continuous
 62
     7
100
AcDbText
 10
976.7897903930318
 20
312.2403526753789
 30
0.0
 40
3.5
  1
Elektr. Fern-Reset
 41
0.9681761631027374
 72
     5
 11
1032.701963812215
 21
312.2403526753789
 31
0.0
100
AcDbText
  0
LINE
  5
1F4E
330
1F
100
AcDbEntity
  8
90000_FRAME
  6
Continuous
 62
     7
100
AcDbLine
 10
788.7066000976143
 20
294.216676282834
 30
0.0
 11
1058.706600097614
 21
294.216676282834
 31
0.0
  0
LINE
  5
1F4F
330
1F
100
AcDbEntity
  8
90000_FRAME
  6
Continuous
 62
     7
100
AcDbLine
 10
1058.706600097614
 20
294.216676282834
 30
0.0
 11
1058.706600097614
 21
494.2166762828339
 31
0.0
  0
TEXT
  5
1F50
330
1F
100
AcDbEntity
  8
91000_TIP
  6
Continuous
 62
     7
100
AcDbText
 10
792.7599498802782
 20
302.9489129045106
 30
0.0
 40
2.5
  1
Alle Bemassungswerte sind in Millimeter (mm) angegeben.
 41
0.6056311217924569
 72
     5
 11
866.4450696983605
 21
302.9489129045106
 31
0.0
100
AcDbText
  0
TEXT
  5
1F51
330
1F
100
AcDbEntity
  8
91000_TIP
  6
Continuous
 62
     7
100
AcDbText
 10
792.7599498802782
 20
297.6989129045107
 30
0.0
 40
2.5
  1
All dimensions are in millimeters (mm).
 41
0.7513350295680232
 72
     5
 11
852.8667522457201
 21
297.6989129045107
 31
0.0
100
AcDbText
  0
LINE
  5
1F52
330
1F
100
AcDbEntity
  8
91000_TIP
  6
Continuous
 62
     7
100
AcDbLine
 10
888.5212702016392
 20
315.5404138052046
 30
0.0
 11
898.5212699974393
 21
318.0404137542046
 31
0.0
  0
LINE
  5
1F53
330
1F
100
AcDbEntity
  8
91000_TIP
  6
CENTER
 62
     7
100
AcDbLine
 10
887.2417597296383
 20
313.0404138563047
 30
0.0
 11
910.8437489937385
 21
313.0404138563047
 31
0.0
  0
LINE
  5
1F54
330
1F
100
AcDbEntity
  8
91000_TIP
  6
Continuous
 62
     7
100
AcDbLine
 10
888.5212702016392
 20
310.5404139074046
 30
0.0
 11
898.5212699974393
 21
308.0404139584045
 31
0.0
  0
LINE
  5
1F55
330
1F
100
AcDbEntity
  8
91000_TIP
  6
Continuous
 62
     7
100
AcDbLine
 10
888.5212702016392
 20
315.5404138052046
 30
0.0
 11
888.5212702016392
 21
310.5404139074046
 31
0.0
  0
LINE
  5
1F56
330
1F
100
AcDbEntity
  8
91000_TIP
  6
Continuous
 62
     7
100
AcDbLine
 10
898.5212699974393
 20
318.0404137542046
 30
0.0
 11
898.5212699974393
 21
308.0404139584045
 31
0.0
  0
LINE
  5
1F57
330
1F
100
AcDbEntity
  8
91000_TIP
  6
CENTER
 62
     7
100
AcDbLine
 10
905.0212698646392
 20
307.3189326499046
 30
0.0
 11
905.0212698646392
 21
318.6023186499046
 31
0.0
  0
CIRCLE
  5
1F58
330
1F
100
AcDbEntity
  8
91000_TIP
  6
Continuous
 62
     7
100
AcDbCircle
 10
905.0212698646392
 20
313.0404138563047
 30
0.0
 40
4.9999998979
  0
CIRCLE
  5
1F59
330
1F
100
AcDbEntity
  8
91000_TIP
  6
Continuous
 62
     7
100
AcDbCircle
 10
905.0212698646392
 20
313.0404138563047
 30
0.0
 40
2.499999948899997
  0
LINE
  5
1F5A
330
1F
100
AcDbEntity
  8
90000_FRAME
  6
Continuous
 62
     7
100
AcDbLine
 10
788.7066000976143
 20
294.216676282834
 30
0.0
 11
788.7066000976143
 21
494.2166762828339
 31
0.0
  0
LINE
  5
1F5B
330
1F
100
AcDbEntity
  8
90000_FRAME
  6
Continuous
 62
     7
100
AcDbLine
 10
788.7066000976143
 20
494.2166762828339
 30
0.0
 11
1058.706600097614
 21
494.2166762828339
 31
0.0
  0
TEXT
  5
1F5C
330
1F
100
AcDbEntity
  8
90000_FRAME
  6
Continuous
 62
     7
100
AcDbText
 10
977.0125246215641
 20
317.1382646117801
 30
0.0
 40
3.5
  1
3RU1900_00001973_000_ALL
 41
0.7430189158695433
 72
     5
 11
1032.924698040747
 21
317.1382646117801
 31
0.0
100
AcDbText
  0
TEXT
  5
1F5D
330
1F
100
AcDbEntity
  8
10000_FRONT
  6
LONG_DASH
 62
     7
370
    13
100
AcDbText
 39
0.25
 10
859.4240109545317
 20
427.8447149002415
 30
0.0
 40
1.5
  1
Test
 41
0.6600000000000003
100
AcDbText
1001
AUSTER_ANSICHT
1002
{
1000
Det03
1002
}
1001
AUSTER_FOLIE
1002
{
1000
NSB00340_S0
1002
}
  0
TEXT
  5
1F5E
330
1F
100
AcDbEntity
  8
10000_FRONT
  6
LONG_DASH
 62
     7
370
    13
100
AcDbText
 39
0.25
 10
857.5940109545317
 20
424.8797149002418
 30
0.0
 40
1.5
  1
0
 41
0.6600000000000003
100
AcDbText
1001
AUSTER_ANSICHT
1002
{
1000
Det03
1002
}
1001
AUSTER_FOLIE
1002
{
1000
NSB00340_S0
1002
}
  0
TEXT
  5
1F5F
330
1F
100
AcDbEntity
  8
10000_FRONT
  6
LONG_DASH
 62
     7
370
    13
100
AcDbText
 39
0.25
 10
865.0940109545317
 20
424.8797149002418
 30
0.0
 40
1.5
  1
1
 41
0.6600000000000003
100
AcDbText
1001
AUSTER_ANSICHT
1002
{
1000
Det03
1002
}
1001
AUSTER_FOLIE
1002
{
1000
NSB00340_S0
1002
}
  0
TEXT
  5
1F60
330
1F
100
AcDbEntity
  8
10000_FRONT
  6
LONG_DASH
 62
     7
370
    13
100
AcDbText
 39
0.25
 10
859.4220109545316
 20
427.8447149002415
 30
0.0
 40
1.5
  1
Test
 41
0.6600000000000003
100
AcDbText
1001
AUSTER_ANSICHT
1002
{
1000
Det03
1002
}
1001
AUSTER_FOLIE
1002
{
1000
NSB00340_S0
1002
}
  0
TEXT
  5
1F61
330
1F
100
AcDbEntity
  8
10000_FRONT
  6
LONG_DASH
 62
     7
370
    13
100
AcDbText
 39
0.25
 10
857.5920109545316
 20
424.8797149002418
 30
0.0
 40
1.5
  1
0
 41
0.6600000000000003
100
AcDbText
1001
AUSTER_ANSICHT
1002
{
1000
Det03
1002
}
1001
AUSTER_FOLIE
1002
{
1000
NSB00340_S0
1002
}
  0
TEXT
  5
1F62
330
1F
100
AcDbEntity
  8
10000_FRONT
  6
LONG_DASH
 62
     7
370
    13
100
AcDbText
 39
0.25
 10
865.0920109545317
 20
424.8797149002418
 30
0.0
 40
1.5
  1
1
 41
0.6600000000000003
100
AcDbText
1001
AUSTER_ANSICHT
1002
{
1000
Det03
1002
}
1001
AUSTER_FOLIE
1002
{
1000
NSB00340_S0
1002
}
  0
TEXT
  5
1F63
330
1F
100
AcDbEntity
  8
10000_FRONT
  6
LONG_DASH
 62
     7
370
    13
100
AcDbText
 39
0.25
 10
859.4240109545317
 20
427.8447149002415
 30
0.0
 40
1.5
  1
Test
 41
0.6600000000000003
100
AcDbText
1001
AUSTER_ANSICHT
1002
{
1000
Det03
1002
}
1001
AUSTER_FOLIE
1002
{
1000
NSB00340_S0
1002
}
  0
TEXT
  5
1F64
330
1F
100
AcDbEntity
  8
10000_FRONT
  6
LONG_DASH
 62
     7
370
    13
100
AcDbText
 39
0.25
 10
857.5940109545317
 20
424.8797149002418
 30
0.0
 40
1.5
  1
0
 41
0.6600000000000003
100
AcDbText
1001
AUSTER_ANSICHT
1002
{
1000
Det03
1002
}
1001
AUSTER_FOLIE
1002
{
1000
NSB00340_S0
1002
}
  0
TEXT
  5
1F65
330
1F
100
AcDbEntity
  8
10000_FRONT
  6
LONG_DASH
 62
     7
370
    13
100
AcDbText
 39
0.25
 10
865.0940109545317
 20
424.8797149002418
 30
0.0
 40
1.5
  1
1
 41
0.6600000000000003
100
AcDbText
1001
AUSTER_ANSICHT
1002
{
1000
Det03
1002
}
1001
AUSTER_FOLIE
1002
{
1000
NSB00340_S0
1002
}
  0
TEXT
  5
1F66
330
1F
100
AcDbEntity
  8
10000_FRONT
  6
LONG_DASH
 62
     7
370
    13
100
AcDbText
 39
0.25
 10
824.9710109545317
 20
439.347714900242
 30
0.0
 40
3.0
  1
SIEMENS
 41
0.6600000000000003
100
AcDbText
1001
AUSTER_ANSICHT
1002
{
1000
Det03
1002
}
1001
AUSTER_FOLIE
1002
{
1000
NSB00340_S0
1002
}
  0
ARC
  5
1F67
330
1F
100
AcDbEntity
  8
10000_FRONT
  6
LONG_DASH
 62
     7
370
    13
100
AcDbCircle
 39
0.25
 10
854.6690109545316
 20
403.1797149002418
 30
0.0
 40
2.85
100
AcDbArc
 50
347.7599999999983
 51
12.2400000000016
1001
AUSTER_ANSICHT
1002
{
1000
Det03
1002
}
1001
AUSTER_FOLIE
1002
{
1000
NSB00340_S0
1002
}
  0
ARC
  5
1F68
330
1F
100
AcDbEntity
  8
10000_FRONT
  6
DASHED
 62
     7
370
    13
100
AcDbCircle
 39
0.25
 10
854.6690109545316
 20
403.1797149002418
 30
0.0
 40
1.85
100
AcDbArc
 50
253.8370000000025
 51
286.1629999999975
1001
AUSTER_ANSICHT
1002
{
1000
Det03
1002
}
1001
AUSTER_FOLIE
1002
{
1000
NSB00340_S0
1002
}
  0
ARC
  5
1F69
330
1F
100
AcDbEntity
  8
10000_FRONT
  6
DASHED
 62
     7
370
    13
100
AcDbCircle
 39
0.25
 10
854.6690109545316
 20
403.1797149002418
 30
0.0
 40
1.85
100
AcDbArc
 50
73.83700000000253
 51
106.1629999999974
1001
AUSTER_ANSICHT
1002
{
1000
Det03
1002
}
1001
AUSTER_FOLIE
1002
{
1000
NSB00340_S0
1002
}
  0
CIRCLE
  5
1F6A
330
1F
100
AcDbEntity
  8
10000_FRONT
  6
LONG_DASH
 62
     7
370
    13
100
AcDbCircle
 39
0.25
 10
846.0690109545318
 20
403.1797149002418
 30
0.0
 40
3.1
1001
AUSTER_ANSICHT
1002
{
1000
Det03
1002
}
1001
AUSTER_FOLIE
1002
{
1000
NSB00340_S0
1002
}
  0
ARC
  5
1F6B
330
1F
100
AcDbEntity
  8
10000_FRONT
  6
DASHED
 62
     7
370
    13
100
AcDbCircle
 39
0.25
 10
846.0690109545318
 20
403.1797149002418
 30
0.0
 40
2.85
100
AcDbArc
 50
347.7599999999983
 51
12.2400000000016
1001
AUSTER_ANSICHT
1002
{
1000
Det03
1002
}
1001
AUSTER_FOLIE
1002
{
1000
NSB00340_S0
1002
}
  0
ARC
  5
1F6C
330
1F
100
AcDbEntity
  8
10000_FRONT
  6
LONG_DASH
 62
     7
370
    13
100
AcDbCircle
 39
0.25
 10
846.0690109545318
 20
403.1797149002418
 30
0.0
 40
1.85
100
AcDbArc
 50
253.8370000000025
 51
286.1629999999975
1001
AUSTER_ANSICHT
1002
{
1000
Det03
1002
}
1001
AUSTER_FOLIE
1002
{
1000
NSB00340_S0
1002
}
  0
ARC
  5
1F6D
330
1F
100
AcDbEntity
  8
10000_FRONT
  6
LONG_DASH
 62
     7
370
    13
100
AcDbCircle
 39
0.25
 10
846.0690109545318
 20
403.1797149002418
 30
0.0
 40
1.85
100
AcDbArc
 50
73.83700000000253
 51
106.1629999999974
1001
AUSTER_ANSICHT
1002
{
1000
Det03
1002
}
1001
AUSTER_FOLIE
1002
{
1000
NSB00340_S0
1002
}
  0
ARC
  5
1F6E
330
1F
100
AcDbEntity
  8
10000_FRONT
  6
LONG_DASH
 62
     7
370
    13
100
AcDbCircle
 39
0.25
 10
846.0690109545318
 20
403.1797149002418
 30
0.0
 40
2.85
100
AcDbArc
 50
167.7599999999983
 51
192.2400000000016
1001
AUSTER_ANSICHT
1002
{
1000
Det03
1002
}
1001
AUSTER_FOLIE
1002
{
1000
NSB00340_S0
1002
}
  0
CIRCLE
  5
1F6F
330
1F
100
AcDbEntity
  8
10000_FRONT
  6
LONG_DASH
 62
     7
370
    13
100
AcDbCircle
 39
0.25
 10
837.4690109545317
 20
403.1797149002418
 30
0.0
 40
3.1
1001
AUSTER_ANSICHT
1002
{
1000
Det03
1002
}
1001
AUSTER_FOLIE
1002
{
1000
NSB00340_S0
1002
}
  0
ARC
  5
1F70
330
1F
100
AcDbEntity
  8
10000_FRONT
  6
LONG_DASH
 62
     7
370
    13
100
AcDbCircle
 39
0.25
 10
837.4690109545317
 20
403.1797149002418
 30
0.0
 40
2.85
100
AcDbArc
 50
347.7599999999983
 51
12.2400000000016
1001
AUSTER_ANSICHT
1002
{
1000
Det03
1002
}
1001
AUSTER_FOLIE
1002
{
1000
NSB00340_S0
1002
}
  0
ARC
  5
1F71
330
1F
100
AcDbEntity
  8
10000_FRONT
  6
LONG_DASH
 62
     7
370
    13
100
AcDbCircle
 39
0.25
 10
837.4690109545317
 20
403.1797149002418
 30
0.0
 40
1.85
100
AcDbArc
 50
253.8370000000025
 51
286.1629999999975
1001
AUSTER_ANSICHT
1002
{
1000
Det03
1002
}
1001
AUSTER_FOLIE
1002
{
1000
NSB00340_S0
1002
}
  0
ARC
  5
1F72
330
1F
100
AcDbEntity
  8
10000_FRONT
  6
LONG_DASH
 62
     7
370
    13
100
AcDbCircle
 39
0.25
 10
837.4690109545317
 20
403.1797149002418
 30
0.0
 40
1.85
100
AcDbArc
 50
73.83700000000253
 51
106.1629999999974
1001
AUSTER_ANSICHT
1002
{
1000
Det03
1002
}
1001
AUSTER_FOLIE
1002
{
1000
NSB00340_S0
1002
}
  0
ARC
  5
1F73
330
1F
100
AcDbEntity
  8
10000_FRONT
  6
LONG_DASH
 62
     7
370
    13
100
AcDbCircle
 39
0.25
 10
837.4690109545317
 20
403.1797149002418
 30
0.0
 40
2.85
100
AcDbArc
 50
167.7599999999983
 51
192.2400000000016
1001
AUSTER_ANSICHT
1002
{
1000
Det03
1002
}
1001
AUSTER_FOLIE
1002
{
1000
NSB00340_S0
1002
}
  0
ARC
  5
1F74
330
1F
100
AcDbEntity
  8
10000_FRONT
  6
LONG_DASH
 62
     7
370
    13
100
AcDbCircle
 39
0.25
 10
828.8690109545319
 20
403.1797149002418
 30
0.0
 40
2.85
100
AcDbArc
 50
347.7599999999983
 51
12.2400000000016
1001
AUSTER_ANSICHT
1002
{
1000
Det03
1002
}
1001
AUSTER_FOLIE
1002
{
1000
NSB00340_S0
1002
}
  0
ARC
  5
1F75
330
1F
100
AcDbEntity
  8
10000_FRONT
  6
LONG_DASH
 62
     7
370
    13
100
AcDbCircle
 39
0.25
 10
828.8690109545319
 20
403.1797149002418
 30
0.0
 40
1.85
100
AcDbArc
 50
253.8370000000025
 51
286.1629999999975
1001
AUSTER_ANSICHT
1002
{
1000
Det03
1002
}
1001
AUSTER_FOLIE
1002
{
1000
NSB00340_S0
1002
}
  0
ARC
  5
1F76
330
1F
100
AcDbEntity
  8
10000_FRONT
  6
LONG_DASH
 62
     7
370
    13
100
AcDbCircle
 39
0.25
 10
828.8690109545319
 20
403.1797149002418
 30
0.0
 40
1.85
100
AcDbArc
 50
73.83700000000253
 51
106.1629999999974
1001
AUSTER_ANSICHT
1002
{
1000
Det03
1002
}
1001
AUSTER_FOLIE
1002
{
1000
NSB00340_S0
1002
}
  0
ARC
  5
1F77
330
1F
100
AcDbEntity
  8
10000_FRONT
  6
LONG_DASH
 62
     7
370
    13
100
AcDbCircle
 39
0.25
 10
828.8690109545319
 20
403.1797149002418
 30
0.0
 40
3.1
100
AcDbArc
 50
222.1034488707445
 51
137.8965511292554
1001
AUSTER_ANSICHT
1002
{
1000
Det03
1002
}
1001
AUSTER_FOLIE
1002
{
1000
NSB00340_S0
1002
}
  0
ARC
  5
1F78
330
1F
100
AcDbEntity
  8
10000_FRONT
  6
LONG_DASH
 62
     7
370
    13
100
AcDbCircle
 39
0.25
 10
854.6690109545316
 20
403.1797149002418
 30
0.0
 40
3.1
100
AcDbArc
 50
229.8222304598534
 51
130.1777695401466
1001
AUSTER_ANSICHT
1002
{
1000
Det03
1002
}
1001
AUSTER_FOLIE
1002
{
1000
NSB00340_S0
1002
}
  0
ARC
  5
1F79
330
1F
100
AcDbEntity
  8
11000_Left
  6
LONG_DASH
 62
     7
370
    20
100
AcDbCircle
 39
0.25
 10
898.3535532931103
 20
436.7477149002417
 30
-1.0
 40
0.5
100
AcDbArc
 50
270.0
 51
0.0
1001
AUSTER_ANSICHT
1002
{
1000
Det03
1002
}
1001
AUSTER_FOLIE
1002
{
1000
NSB00340_S0
1002
}
  0
ARC
  5
1F7A
330
1F
100
AcDbEntity
  8
11000_Left
  6
LONG_DASH
 62
     7
370
    20
100
AcDbCircle
 39
0.25
 10
901.3535532931102
 20
461.7477149002417
 30
0.0
 40
1.0
100
AcDbArc
 50
0.0
 51
90.0
1001
AUSTER_ANSICHT
1002
{
1000
Det03
1002
}
1001
AUSTER_FOLIE
1002
{
1000
NSB00340_S0
1002
}
  0
ARC
  5
1F7B
330
1F
100
AcDbEntity
  8
11000_Left
  6
LONG_DASH
 62
     7
370
    20
100
AcDbCircle
 39
0.25
 10
907.6535532931103
 20
376.5477149002418
 30
0.0
 40
1.0
100
AcDbArc
 50
0.0
 51
40.79800000000125
1001
AUSTER_ANSICHT
1002
{
1000
Det03
1002
}
1001
AUSTER_FOLIE
1002
{
1000
NSB00340_S0
1002
}
  0
ARC
  5
1F7C
330
1F
100
AcDbEntity
  8
11000_Left
  6
LONG_DASH
 62
     7
370
    20
100
AcDbCircle
 39
0.25
 10
901.3535532931102
 20
369.7477149002419
 30
0.0
 40
1.0
100
AcDbArc
 50
270.0
 51
0.0
1001
AUSTER_ANSICHT
1002
{
1000
Det03
1002
}
1001
AUSTER_FOLIE
1002
{
1000
NSB00340_S0
1002
}
  0
ARC
  5
1F7D
330
1F
100
AcDbEntity
  8
11000_Left
  6
LONG_DASH
 62
     7
370
    20
100
AcDbCircle
 39
0.25
 10
959.2535532931103
 20
464.8477149002419
 30
0.0
 40
1.0
100
AcDbArc
 50
90.0
 51
180.0
1001
AUSTER_ANSICHT
1002
{
1000
Det03
1002
}
1001
AUSTER_FOLIE
1002
{
1000
NSB00340_S0
1002
}
  0
ARC
  5
1F7E
330
1F
100
AcDbEntity
  8
11000_Left
  6
LONG_DASH
 62
     7
370
    20
100
AcDbCircle
 39
0.25
 10
903.8535532931103
 20
449.8477149002419
 30
0.0
 40
1.5
100
AcDbArc
 50
180.0
 51
270.0
1001
AUSTER_ANSICHT
1002
{
1000
Det03
1002
}
1001
AUSTER_FOLIE
1002
{
1000
NSB00340_S0
1002
}
  0
ARC
  5
1F7F
330
1F
100
AcDbEntity
  8
11000_Left
  6
LONG_DASH
 62
     7
370
    20
100
AcDbCircle
 39
0.25
 10
899.1535532931104
 20
441.9477149002418
 30
0.0
 40
0.5
100
AcDbArc
 50
90.0
 51
180.0
1001
AUSTER_ANSICHT
1002
{
1000
Det03
1002
}
1001
AUSTER_FOLIE
1002
{
1000
NSB00340_S0
1002
}
  0
ARC
  5
1F80
330
1F
100
AcDbEntity
  8
11000_Left
  6
DASHED
 62
     7
370
    20
100
AcDbCircle
 39
0.25
 10
977.0535532931104
 20
436.8477149002419
 30
0.0
 40
1.0
100
AcDbArc
 50
270.0
 51
0.0
1001
AUSTER_ANSICHT
1002
{
1000
Det03
1002
}
1001
AUSTER_FOLIE
1002
{
1000
NSB00340_S0
1002
}
  0
ARC
  5
1F81
330
1F
100
AcDbEntity
  8
11000_Left
  6
LONG_DASH
 62
     7
370
    20
100
AcDbCircle
 39
0.25
 10
949.7535532931104
 20
449.8477149002419
 30
0.0
 40
1.5
100
AcDbArc
 50
270.0
 51
0.0
1001
AUSTER_ANSICHT
1002
{
1000
Det03
1002
}
1001
AUSTER_FOLIE
1002
{
1000
NSB00340_S0
1002
}
  0
ARC
  5
1F82
330
1F
100
AcDbEntity
  8
11000_Left
  6
LONG_DASH
 62
     7
370
    20
100
AcDbCircle
 39
0.25
 10
807.0895532931102
 20
440.9827149002419
 30
0.0
 40
177.118
100
AcDbArc
 50
1.574000000000393
 51
7.907000000001053
1001
AUSTER_ANSICHT
1002
{
1000
Det03
1002
}
1001
AUSTER_FOLIE
1002
{
1000
NSB00340_S0
1002
}
  0
ARC
  5
1F83
330
1F
100
AcDbEntity
  8
11000_Left
  6
DASHED
 62
     7
370
    20
100
AcDbCircle
 39
0.25
 10
983.6405532931102
 20
445.8477149002419
 30
0.0
 40
0.5
100
AcDbArc
 50
271.4909999999979
 51
0.0
1001
AUSTER_ANSICHT
1002
{
1000
Det03
1002
}
1001
AUSTER_FOLIE
1002
{
1000
NSB00340_S0
1002
}
  0
ARC
  5
1F84
330
1F
100
AcDbEntity
  8
11000_Left
  6
LONG_DASH
 62
     7
370
    20
100
AcDbCircle
 39
0.25
 10
982.0235532931103
 20
465.3477149002419
 30
0.0
 40
0.5
100
AcDbArc
 50
0.0
 51
97.98899999999857
1001
AUSTER_ANSICHT
1002
{
1000
Det03
1002
}
1001
AUSTER_FOLIE
1002
{
1000
NSB00340_S0
1002
}
  0
ARC
  5
1F85
330
1F
100
AcDbEntity
  8
11000_Left
  6
LONG_DASH
 62
     7
370
    20
100
AcDbCircle
 39
0.25
 10
956.9795532931104
 20
463.0457149002419
 30
0.0
 40
1.3
100
AcDbArc
 50
290.1240000000026
 51
349.5269999999995
1001
AUSTER_ANSICHT
1002
{
1000
Det03
1002
}
1001
AUSTER_FOLIE
1002
{
1000
NSB00340_S0
1002
}
  0
ARC
  5
1F86
330
1F
100
AcDbEntity
  8
11000_Left
  6
LONG_DASH
 62
     7
370
    20
100
AcDbCircle
 39
0.25
 10
953.1605532931102
 20
459.1317149002418
 30
0.0
 40
1.942999999999999
100
AcDbArc
 50
110.1090000000043
 51
169.6860000000023
1001
AUSTER_ANSICHT
1002
{
1000
Det03
1002
}
1001
AUSTER_FOLIE
1002
{
1000
NSB00340_S0
1002
}
  0
ARC
  5
1F87
330
1F
100
AcDbEntity
  8
11000_Left
  6
LONG_DASH
 62
     7
370
    20
100
AcDbCircle
 39
0.25
 10
963.8535532931102
 20
396.9477149002419
 30
0.0
 40
0.7
100
AcDbArc
 50
0.0
 51
90.0
1001
AUSTER_ANSICHT
1002
{
1000
Det03
1002
}
1001
AUSTER_FOLIE
1002
{
1000
NSB00340_S0
1002
}
  0
ARC
  5
1F88
330
1F
100
AcDbEntity
  8
11000_Left
  6
LONG_DASH
 62
     7
370
    20
100
AcDbCircle
 39
0.25
 10
953.9535532931102
 20
398.5477149002419
 30
0.0
 40
0.9
100
AcDbArc
 50
180.0
 51
270.0
1001
AUSTER_ANSICHT
1002
{
1000
Det03
1002
}
1001
AUSTER_FOLIE
1002
{
1000
NSB00340_S0
1002
}
  0
ARC
  5
1F89
330
1F
100
AcDbEntity
  8
11000_Left
  6
LONG_DASH
 62
     7
370
    20
100
AcDbCircle
 39
0.25
 10
952.3535532931102
 20
408.4477149002418
 30
0.0
 40
0.7
100
AcDbArc
 50
0.0
 51
90.0
1001
AUSTER_ANSICHT
1002
{
1000
Det03
1002
}
1001
AUSTER_FOLIE
1002
{
1000
NSB00340_S0
1002
}
  0
ARC
  5
1F8A
330
1F
100
AcDbEntity
  8
11000_Left
  6
LONG_DASH
 62
     7
370
    20
100
AcDbCircle
 39
0.25
 10
947.8535532931102
 20
410.0477149002418
 30
0.0
 40
0.9
100
AcDbArc
 50
180.0
 51
270.0
1001
AUSTER_ANSICHT
1002
{
1000
Det03
1002
}
1001
AUSTER_FOLIE
1002
{
1000
NSB00340_S0
1002
}
  0
ARC
  5
1F8B
330
1F
100
AcDbEntity
  8
11000_Left
  6
LONG_DASH
 62
     7
370
    20
100
AcDbCircle
 39
0.25
 10
988.8215532931104
 20
418.2477149002419
 30
0.0
 40
0.3
100
AcDbArc
 50
15.54799999999828
 51
90.0
1001
AUSTER_ANSICHT
1002
{
1000
Det03
1002
}
1001
AUSTER_FOLIE
1002
{
1000
NSB00340_S0
1002
}
  0
ARC
  5
1F8C
330
1F
100
AcDbEntity
  8
11000_Left
  6
LONG_DASH
 62
     7
370
    20
100
AcDbCircle
 39
0.25
 10
979.4765532931103
 20
415.6477149002417
 30
0.0
 40
10.0
100
AcDbArc
 50
0.0
 51
15.54799999999828
1001
AUSTER_ANSICHT
1002
{
1000
Det03
1002
}
1001
AUSTER_FOLIE
1002
{
1000
NSB00340_S0
1002
}
  0
ARC
  5
1F8D
330
1F
100
AcDbEntity
  8
11000_Left
  6
LONG_DASH
 62
     7
370
    20
100
AcDbCircle
 39
0.25
 10
988.8215532931104
 20
413.0477149002415
 30
0.0
 40
0.3
100
AcDbArc
 50
270.0
 51
344.4520000000017
1001
AUSTER_ANSICHT
1002
{
1000
Det03
1002
}
1001
AUSTER_FOLIE
1002
{
1000
NSB00340_S0
1002
}
  0
ARC
  5
1F8E
330
1F
100
AcDbEntity
  8
11000_Left
  6
LONG_DASH
 62
     7
370
    20
100
AcDbCircle
 39
0.25
 10
979.4765532931103
 20
415.6477149002417
 30
0.0
 40
10.0
100
AcDbArc
 50
344.4520000000017
 51
0.0
1001
AUSTER_ANSICHT
1002
{
1000
Det03
1002
}
1001
AUSTER_FOLIE
1002
{
1000
NSB00340_S0
1002
}
  0
ARC
  5
1F8F
330
1F
100
AcDbEntity
  8
11000_Left
  6
DASHED
 62
     7
370
    20
100
AcDbCircle
 39
0.25
 10
983.5435532931104
 20
444.5977149002419
 30
0.0
 40
0.7
100
AcDbArc
 50
4.324999999999805
 51
90.0
1001
AUSTER_ANSICHT
1002
{
1000
Det03
1002
}
1001
AUSTER_FOLIE
1002
{
1000
NSB00340_S0
1002
}
  0
ARC
  5
1F90
330
1F
100
AcDbEntity
  8
11000_Left
  6
LONG_DASH
 62
     7
370
    20
100
AcDbCircle
 39
0.25
 10
940.9675532931103
 20
377.0477149002419
 30
0.0
 40
1.0
100
AcDbArc
 50
224.9999999999997
 51
270.0
1001
AUSTER_ANSICHT
1002
{
1000
Det03
1002
}
1001
AUSTER_FOLIE
1002
{
1000
NSB00340_S0
1002
}
  0
ARC
  5
1F91
330
1F
100
AcDbEntity
  8
11000_Left
  6
LONG_DASH
 62
     7
370
    20
100
AcDbCircle
 39
0.25
 10
961.5535532931103
 20
391.997714900242
 30
0.0
 40
0.8
100
AcDbArc
 50
90.0
 51
180.0
1001
AUSTER_ANSICHT
1002
{
1000
Det03
1002
}
1001
AUSTER_FOLIE
1002
{
1000
NSB00340_S0
1002
}
  0
ARC
  5
1F92
330
1F
100
AcDbEntity
  8
11000_Left
  6
LONG_DASH
 62
     7
370
    20
100
AcDbCircle
 39
0.25
 10
962.2095532931105
 20
376.8477149002419
 30
0.0
 40
0.8
100
AcDbArc
 50
270.0
 51
352.5759999999994
1001
AUSTER_ANSICHT
1002
{
1000
Det03
1002
}
1001
AUSTER_FOLIE
1002
{
1000
NSB00340_S0
1002
}
  0
ARC
  5
1F93
330
1F
100
AcDbEntity
  8
11000_Left
  6
LONG_DASH
 62
     7
370
    20
100
AcDbCircle
 39
0.25
 10
715.0985532931103
 20
409.0477149002415
 30
0.0
 40
250.0
100
AcDbArc
 50
352.5759999999994
 51
356.2729999999989
1001
AUSTER_ANSICHT
1002
{
1000
Det03
1002
}
1001
AUSTER_FOLIE
1002
{
1000
NSB00340_S0
1002
}
  0
ARC
  5
1F95
330
1F
100
AcDbEntity
  8
11000_Left
  6
DASHED
 62
     7
370
    20
100
AcDbCircle
 39
0.25
 10
981.7025532931104
 20
393.9117149002419
 30
0.0
 40
1.200999999999998
100
AcDbArc
 50
291.9460000000043
 51
350.2219999999972
1001
AUSTER_ANSICHT
1002
{
1000
Det03
1002
}
1001
AUSTER_FOLIE
1002
{
1000
NSB00340_S0
1002
}
  0
CIRCLE
  5
1F96
330
1F
100
AcDbEntity
  8
10000_FRONT
  6
LONG_DASH
 62
     7
370
    13
100
AcDbCircle
 39
0.25
 10
831.4690109545317
 20
455.0477149002415
 30
0.0
 40
3.1
1001
AUSTER_ANSICHT
1002
{
1000
Det03
1002
}
1001
AUSTER_FOLIE
1002
{
1000
NSB00340_S0
1002
}
  0
ARC
  5
1F97
330
1F
100
AcDbEntity
  8
10000_FRONT
  6
LONG_DASH
 62
     7
370
    13
100
AcDbCircle
 39
0.25
 10
831.4690109545317
 20
455.0477149002415
 30
0.0
 40
2.85
100
AcDbArc
 50
347.7599999999983
 51
12.2400000000016
1001
AUSTER_ANSICHT
1002
{
1000
Det03
1002
}
1001
AUSTER_FOLIE
1002
{
1000
NSB00340_S0
1002
}
  0
ARC
  5
1F98
330
1F
100
AcDbEntity
  8
10000_FRONT
  6
LONG_DASH
 62
     7
370
    13
100
AcDbCircle
 39
0.25
 10
831.4690109545317
 20
455.0477149002415
 30
0.0
 40
1.85
100
AcDbArc
 50
73.83700000000253
 51
106.1629999999974
1001
AUSTER_ANSICHT
1002
{
1000
Det03
1002
}
1001
AUSTER_FOLIE
1002
{
1000
NSB00340_S0
1002
}
  0
ARC
  5
1F99
330
1F
100
AcDbEntity
  8
10000_FRONT
  6
LONG_DASH
 62
     7
370
    13
100
AcDbCircle
 39
0.25
 10
831.4690109545317
 20
455.0477149002415
 30
0.0
 40
1.85
100
AcDbArc
 50
253.8370000000025
 51
286.1629999999975
1001
AUSTER_ANSICHT
1002
{
1000
Det03
1002
}
1001
AUSTER_FOLIE
1002
{
1000
NSB00340_S0
1002
}
  0
ARC
  5
1F9A
330
1F
100
AcDbEntity
  8
10000_FRONT
  6
LONG_DASH
 62
     7
370
    13
100
AcDbCircle
 39
0.25
 10
831.4690109545317
 20
455.0477149002415
 30
0.0
 40
2.85
100
AcDbArc
 50
167.7599999999983
 51
192.2400000000016
1001
AUSTER_ANSICHT
1002
{
1000
Det03
1002
}
1001
AUSTER_FOLIE
1002
{
1000
NSB00340_S0
1002
}
  0
CIRCLE
  5
1F9B
330
1F
100
AcDbEntity
  8
10000_FRONT
  6
LONG_DASH
 62
     7
370
    13
100
AcDbCircle
 39
0.25
 10
845.8690109545317
 20
455.0477149002415
 30
0.0
 40
3.1
1001
AUSTER_ANSICHT
1002
{
1000
Det03
1002
}
1001
AUSTER_FOLIE
1002
{
1000
NSB00340_S0
1002
}
  0
ARC
  5
1F9C
330
1F
100
AcDbEntity
  8
10000_FRONT
  6
LONG_DASH
 62
     7
370
    13
100
AcDbCircle
 39
0.25
 10
845.8690109545317
 20
455.0477149002415
 30
0.0
 40
2.85
100
AcDbArc
 50
347.7599999999983
 51
12.2400000000016
1001
AUSTER_ANSICHT
1002
{
1000
Det03
1002
}
1001
AUSTER_FOLIE
1002
{
1000
NSB00340_S0
1002
}
  0
ARC
  5
1F9D
330
1F
100
AcDbEntity
  8
10000_FRONT
  6
LONG_DASH
 62
     7
370
    13
100
AcDbCircle
 39
0.25
 10
845.8690109545317
 20
455.0477149002415
 30
0.0
 40
1.85
100
AcDbArc
 50
73.83700000000253
 51
106.1629999999974
1001
AUSTER_ANSICHT
1002
{
1000
Det03
1002
}
1001
AUSTER_FOLIE
1002
{
1000
NSB00340_S0
1002
}
  0
ARC
  5
1F9E
330
1F
100
AcDbEntity
  8
10000_FRONT
  6
LONG_DASH
 62
     7
370
    13
100
AcDbCircle
 39
0.25
 10
845.8690109545317
 20
455.0477149002415
 30
0.0
 40
1.85
100
AcDbArc
 50
253.8370000000025
 51
286.1629999999975
1001
AUSTER_ANSICHT
1002
{
1000
Det03
1002
}
1001
AUSTER_FOLIE
1002
{
1000
NSB00340_S0
1002
}
  0
ARC
  5
1F9F
330
1F
100
AcDbEntity
  8
10000_FRONT
  6
LONG_DASH
 62
     7
370
    13
100
AcDbCircle
 39
0.25
 10
845.8690109545317
 20
455.0477149002415
 30
0.0
 40
2.85
100
AcDbArc
 50
167.7599999999983
 51
192.2400000000016
1001
AUSTER_ANSICHT
1002
{
1000
Det03
1002
}
1001
AUSTER_FOLIE
1002
{
1000
NSB00340_S0
1002
}
  0
CIRCLE
  5
1FA0
330
1F
100
AcDbEntity
  8
10000_FRONT
  6
LONG_DASH
 62
     7
370
    13
100
AcDbCircle
 39
0.25
 10
860.2690109545317
 20
455.0477149002415
 30
0.0
 40
3.1
1001
AUSTER_ANSICHT
1002
{
1000
Det03
1002
}
1001
AUSTER_FOLIE
1002
{
1000
NSB00340_S0
1002
}
  0
ARC
  5
1FA1
330
1F
100
AcDbEntity
  8
10000_FRONT
  6
LONG_DASH
 62
     7
370
    13
100
AcDbCircle
 39
0.25
 10
860.2690109545317
 20
455.0477149002415
 30
0.0
 40
2.85
100
AcDbArc
 50
347.7599999999983
 51
12.2400000000016
1001
AUSTER_ANSICHT
1002
{
1000
Det03
1002
}
1001
AUSTER_FOLIE
1002
{
1000
NSB00340_S0
1002
}
  0
ARC
  5
1FA2
330
1F
100
AcDbEntity
  8
10000_FRONT
  6
LONG_DASH
 62
     7
370
    13
100
AcDbCircle
 39
0.25
 10
860.2690109545317
 20
455.0477149002415
 30
0.0
 40
1.85
100
AcDbArc
 50
73.83700000000253
 51
106.1629999999974
1001
AUSTER_ANSICHT
1002
{
1000
Det03
1002
}
1001
AUSTER_FOLIE
1002
{
1000
NSB00340_S0
1002
}
  0
ARC
  5
1FA3
330
1F
100
AcDbEntity
  8
10000_FRONT
  6
LONG_DASH
 62
     7
370
    13
100
AcDbCircle
 39
0.25
 10
860.2690109545317
 20
455.0477149002415
 30
0.0
 40
1.85
100
AcDbArc
 50
253.8370000000025
 51
286.1629999999975
1001
AUSTER_ANSICHT
1002
{
1000
Det03
1002
}
1001
AUSTER_FOLIE
1002
{
1000
NSB00340_S0
1002
}
  0
ARC
  5
1FA4
330
1F
100
AcDbEntity
  8
10000_FRONT
  6
LONG_DASH
 62
     7
370
    13
100
AcDbCircle
 39
0.25
 10
860.2690109545317
 20
455.0477149002415
 30
0.0
 40
2.85
100
AcDbArc
 50
167.7599999999983
 51
192.2400000000016
1001
AUSTER_ANSICHT
1002
{
1000
Det03
1002
}
1001
AUSTER_FOLIE
1002
{
1000
NSB00340_S0
1002
}
  0
CIRCLE
  5
1FA5
330
1F
100
AcDbEntity
  8
10000_FRONT
  6
LONG_DASH
 62
     7
370
    13
100
AcDbCircle
 39
0.25
 10
831.4690109545317
 20
386.8977149002419
 30
0.0
 40
3.1
1001
AUSTER_ANSICHT
1002
{
1000
Det03
1002
}
1001
AUSTER_FOLIE
1002
{
1000
NSB00340_S0
1002
}
  0
ARC
  5
1FA6
330
1F
100
AcDbEntity
  8
10000_FRONT
  6
LONG_DASH
 62
     7
370
    13
100
AcDbCircle
 39
0.25
 10
831.4690109545317
 20
386.8977149002419
 30
0.0
 40
2.85
100
AcDbArc
 50
347.7599999999983
 51
12.2400000000016
1001
AUSTER_ANSICHT
1002
{
1000
Det03
1002
}
1001
AUSTER_FOLIE
1002
{
1000
NSB00340_S0
1002
}
  0
ARC
  5
1FA7
330
1F
100
AcDbEntity
  8
10000_FRONT
  6
LONG_DASH
 62
     7
370
    13
100
AcDbCircle
 39
0.25
 10
831.4690109545317
 20
386.8977149002419
 30
0.0
 40
1.85
100
AcDbArc
 50
253.8370000000025
 51
286.1629999999975
1001
AUSTER_ANSICHT
1002
{
1000
Det03
1002
}
1001
AUSTER_FOLIE
1002
{
1000
NSB00340_S0
1002
}
  0
ARC
  5
1FA8
330
1F
100
AcDbEntity
  8
10000_FRONT
  6
LONG_DASH
 62
     7
370
    13
100
AcDbCircle
 39
0.25
 10
831.4690109545317
 20
386.8977149002419
 30
0.0
 40
1.85
100
AcDbArc
 50
73.83700000000253
 51
106.1629999999974
1001
AUSTER_ANSICHT
1002
{
1000
Det03
1002
}
1001
AUSTER_FOLIE
1002
{
1000
NSB00340_S0
1002
}
  0
ARC
  5
1FA9
330
1F
100
AcDbEntity
  8
10000_FRONT
  6
LONG_DASH
 62
     7
370
    13
100
AcDbCircle
 39
0.25
 10
831.4690109545317
 20
386.8977149002419
 30
0.0
 40
2.85
100
AcDbArc
 50
167.7599999999983
 51
192.2400000000016
1001
AUSTER_ANSICHT
1002
{
1000
Det03
1002
}
1001
AUSTER_FOLIE
1002
{
1000
NSB00340_S0
1002
}
  0
CIRCLE
  5
1FAA
330
1F
100
AcDbEntity
  8
10000_FRONT
  6
LONG_DASH
 62
     7
370
    13
100
AcDbCircle
 39
0.25
 10
845.8690109545317
 20
386.8977149002419
 30
0.0
 40
3.1
1001
AUSTER_ANSICHT
1002
{
1000
Det03
1002
}
1001
AUSTER_FOLIE
1002
{
1000
NSB00340_S0
1002
}
  0
ARC
  5
1FAB
330
1F
100
AcDbEntity
  8
10000_FRONT
  6
LONG_DASH
 62
     7
370
    13
100
AcDbCircle
 39
0.25
 10
845.8690109545317
 20
386.8977149002419
 30
0.0
 40
2.85
100
AcDbArc
 50
347.7599999999983
 51
12.2400000000016
1001
AUSTER_ANSICHT
1002
{
1000
Det03
1002
}
1001
AUSTER_FOLIE
1002
{
1000
NSB00340_S0
1002
}
  0
ARC
  5
1FAC
330
1F
100
AcDbEntity
  8
10000_FRONT
  6
LONG_DASH
 62
     7
370
    13
100
AcDbCircle
 39
0.25
 10
845.8690109545317
 20
386.8977149002419
 30
0.0
 40
1.85
100
AcDbArc
 50
253.8370000000025
 51
286.1629999999975
1001
AUSTER_ANSICHT
1002
{
1000
Det03
1002
}
1001
AUSTER_FOLIE
1002
{
1000
NSB00340_S0
1002
}
  0
ARC
  5
1FAD
330
1F
100
AcDbEntity
  8
10000_FRONT
  6
LONG_DASH
 62
     7
370
    13
100
AcDbCircle
 39
0.25
 10
845.8690109545317
 20
386.8977149002419
 30
0.0
 40
1.85
100
AcDbArc
 50
73.83700000000253
 51
106.1629999999974
1001
AUSTER_ANSICHT
1002
{
1000
Det03
1002
}
1001
AUSTER_FOLIE
1002
{
1000
NSB00340_S0
1002
}
  0
ARC
  5
1FAE
330
1F
100
AcDbEntity
  8
10000_FRONT
  6
LONG_DASH
 62
     7
370
    13
100
AcDbCircle
 39
0.25
 10
845.8690109545317
 20
386.8977149002419
 30
0.0
 40
2.85
100
AcDbArc
 50
167.7599999999983
 51
192.2400000000016
1001
AUSTER_ANSICHT
1002
{
1000
Det03
1002
}
1001
AUSTER_FOLIE
1002
{
1000
NSB00340_S0
1002
}
  0
CIRCLE
  5
1FAF
330
1F
100
AcDbEntity
  8
10000_FRONT
  6
LONG_DASH
 62
     7
370
    13
100
AcDbCircle
 39
0.25
 10
860.2690109545317
 20
386.8977149002419
 30
0.0
 40
3.1
1001
AUSTER_ANSICHT
1002
{
1000
Det03
1002
}
1001
AUSTER_FOLIE
1002
{
1000
NSB00340_S0
1002
}
  0
ARC
  5
1FB0
330
1F
100
AcDbEntity
  8
10000_FRONT
  6
LONG_DASH
 62
     7
370
    13
100
AcDbCircle
 39
0.25
 10
860.2690109545317
 20
386.8977149002419
 30
0.0
 40
2.85
100
AcDbArc
 50
347.7599999999983
 51
12.2400000000016
1001
AUSTER_ANSICHT
1002
{
1000
Det03
1002
}
1001
AUSTER_FOLIE
1002
{
1000
NSB00340_S0
1002
}
  0
ARC
  5
1FB1
330
1F
100
AcDbEntity
  8
10000_FRONT
  6
LONG_DASH
 62
     7
370
    13
100
AcDbCircle
 39
0.25
 10
860.2690109545317
 20
386.8977149002419
 30
0.0
 40
1.85
100
AcDbArc
 50
253.8370000000025
 51
286.1629999999975
1001
AUSTER_ANSICHT
1002
{
1000
Det03
1002
}
1001
AUSTER_FOLIE
1002
{
1000
NSB00340_S0
1002
}
  0
ARC
  5
1FB2
330
1F
100
AcDbEntity
  8
10000_FRONT
  6
LONG_DASH
 62
     7
370
    13
100
AcDbCircle
 39
0.25
 10
860.2690109545317
 20
386.8977149002419
 30
0.0
 40
1.85
100
AcDbArc
 50
73.83700000000253
 51
106.1629999999974
1001
AUSTER_ANSICHT
1002
{
1000
Det03
1002
}
1001
AUSTER_FOLIE
1002
{
1000
NSB00340_S0
1002
}
  0
ARC
  5
1FB3
330
1F
100
AcDbEntity
  8
10000_FRONT
  6
LONG_DASH
 62
     7
370
    13
100
AcDbCircle
 39
0.25
 10
860.2690109545317
 20
386.8977149002419
 30
0.0
 40
2.85
100
AcDbArc
 50
167.7599999999983
 51
192.2400000000016
1001
AUSTER_ANSICHT
1002
{
1000
Det03
1002
}
1001
AUSTER_FOLIE
1002
{
1000
NSB00340_S0
1002
}
  0
ARC
  5
1FB4
330
1F
100
AcDbEntity
  8
10000_FRONT
  6
LONG_DASH
 62
     7
370
    13
100
AcDbCircle
 39
0.25
 10
867.2700109545317
 20
444.3487149002416
 30
0.0
 40
1.0
100
AcDbArc
 50
359.9930000000011
 51
89.99300000000111
1001
AUSTER_ANSICHT
1002
{
1000
Det03
1002
}
1001
AUSTER_FOLIE
1002
{
1000
NSB00340_S0
1002
}
  0
ARC
  5
1FB5
330
1F
100
AcDbEntity
  8
10000_FRONT
  6
LONG_DASH
 62
     7
370
    13
100
AcDbCircle
 39
0.25
 10
867.2700109545317
 20
393.8487149002419
 30
0.0
 40
1.000999999999999
100
AcDbArc
 50
270.0230000000013
 51
359.9709999999989
1001
AUSTER_ANSICHT
1002
{
1000
Det03
1002
}
1001
AUSTER_FOLIE
1002
{
1000
NSB00340_S0
1002
}
  0
ARC
  5
1FB6
330
1F
100
AcDbEntity
  8
10000_FRONT
  6
LONG_DASH
 62
     7
370
    13
100
AcDbCircle
 39
0.25
 10
867.2700109545317
 20
377.0987149002419
 30
0.0
 40
1.0
100
AcDbArc
 50
270.010000000002
 51
359.9870000000001
1001
AUSTER_ANSICHT
1002
{
1000
Det03
1002
}
1001
AUSTER_FOLIE
1002
{
1000
NSB00340_S0
1002
}
  0
ARC
  5
1FB7
330
1F
100
AcDbEntity
  8
10000_FRONT
  6
LONG_DASH
 62
     7
370
    13
100
AcDbCircle
 39
0.25
 10
824.4700109545316
 20
444.3487149002416
 30
0.0
 40
1.0
100
AcDbArc
 50
90.00799999999735
 51
180.0069999999989
1001
AUSTER_ANSICHT
1002
{
1000
Det03
1002
}
1001
AUSTER_FOLIE
1002
{
1000
NSB00340_S0
1002
}
  0
ARC
  5
1FB8
330
1F
100
AcDbEntity
  8
10000_FRONT
  6
LONG_DASH
 62
     7
370
    13
100
AcDbCircle
 39
0.25
 10
824.4700109545316
 20
377.0977149002419
 30
0.0
 40
1.0
100
AcDbArc
 50
179.9910000000017
 51
270.0139999999981
1001
AUSTER_ANSICHT
1002
{
1000
Det03
1002
}
1001
AUSTER_FOLIE
1002
{
1000
NSB00340_S0
1002
}
  0
CIRCLE
  5
1FB9
330
1F
100
AcDbEntity
  8
10000_FRONT
  6
LONG_DASH
 62
     7
370
    13
100
AcDbCircle
 39
0.25
 10
861.8700109545317
 20
415.7797149002417
 30
0.0
 40
4.0
1001
AUSTER_ANSICHT
1002
{
1000
Det03
1002
}
1001
AUSTER_FOLIE
1002
{
1000
NSB00340_S0
1002
}
  0
ARC
  5
1FBA
330
1F
100
AcDbEntity
  8
10000_FRONT
  6
LONG_DASH
 62
     7
370
    13
100
AcDbCircle
 39
0.25
 10
861.8700109545317
 20
415.7797149002417
 30
0.0
 40
2.85
100
AcDbArc
 50
62.76000000000376
 51
87.24000000000041
1001
AUSTER_ANSICHT
1002
{
1000
Det03
1002
}
1001
AUSTER_FOLIE
1002
{
1000
NSB00340_S0
1002
}
  0
ARC
  5
1FBB
330
1F
100
AcDbEntity
  8
10000_FRONT
  6
LONG_DASH
 62
     7
370
    13
100
AcDbCircle
 39
0.25
 10
861.8700109545317
 20
415.7797149002417
 30
0.0
 40
1.85
100
AcDbArc
 50
328.8369999999978
 51
1.162999999997691
1001
AUSTER_ANSICHT
1002
{
1000
Det03
1002
}
1001
AUSTER_FOLIE
1002
{
1000
NSB00340_S0
1002
}
  0
ARC
  5
1FBC
330
1F
100
AcDbEntity
  8
10000_FRONT
  6
LONG_DASH
 62
     7
370
    13
100
AcDbCircle
 39
0.25
 10
861.8700109545317
 20
415.7797149002417
 30
0.0
 40
1.85
100
AcDbArc
 50
148.8369999999977
 51
181.1629999999976
1001
AUSTER_ANSICHT
1002
{
1000
Det03
1002
}
1001
AUSTER_FOLIE
1002
{
1000
NSB00340_S0
1002
}
  0
ARC
  5
1FBD
330
1F
100
AcDbEntity
  8
10000_FRONT
  6
LONG_DASH
 62
     7
370
    13
100
AcDbCircle
 39
0.25
 10
861.8700109545317
 20
415.7797149002417
 30
0.0
 40
2.85
100
AcDbArc
 50
242.7599999999964
 51
267.2400000000004
1001
AUSTER_ANSICHT
1002
{
1000
Det03
1002
}
1001
AUSTER_FOLIE
1002
{
1000
NSB00340_S0
1002
}
  0
ARC
  5
1FBE
330
1F
100
AcDbEntity
  8
10000_FRONT
  6
LONG_DASH
 62
     7
370
    13
100
AcDbCircle
 39
0.25
 10
866.7690109545317
 20
370.2477149002419
 30
0.0
 40
1.5
100
AcDbArc
 50
270.0
 51
0.0
1001
AUSTER_ANSICHT
1002
{
1000
Det03
1002
}
1001
AUSTER_FOLIE
1002
{
1000
NSB00340_S0
1002
}
  0
ARC
  5
1FBF
330
1F
100
AcDbEntity
  8
10000_FRONT
  6
LONG_DASH
 62
     7
370
    13
100
AcDbCircle
 39
0.25
 10
824.9690109545317
 20
370.2477149002419
 30
0.0
 40
1.5
100
AcDbArc
 50
180.0
 51
270.0
1001
AUSTER_ANSICHT
1002
{
1000
Det03
1002
}
1001
AUSTER_FOLIE
1002
{
1000
NSB00340_S0
1002
}
  0
ARC
  5
1FC0
330
1F
100
AcDbEntity
  8
10000_FRONT
  6
LONG_DASH
 62
     7
370
    13
100
AcDbCircle
 39
0.25
 10
824.4690109545317
 20
464.8477149002419
 30
0.0
 40
1.0
100
AcDbArc
 50
90.0
 51
180.0
1001
AUSTER_ANSICHT
1002
{
1000
Det03
1002
}
1001
AUSTER_FOLIE
1002
{
1000
NSB00340_S0
1002
}
  0
ARC
  5
1FC1
330
1F
100
AcDbEntity
  8
11000_Left
  6
LONG_DASH
 62
     7
370
    20
100
AcDbCircle
 39
0.25
 10
895.8535532931103
 20
431.0977149002419
 30
-1.0
 40
1.0
100
AcDbArc
 50
90.0
 51
180.0
1001
AUSTER_ANSICHT
1002
{
1000
Det03
1002
}
1001
AUSTER_FOLIE
1002
{
1000
NSB00340_S0
1002
}
  0
ARC
  5
1FC2
330
1F
100
AcDbEntity
  8
11000_Left
  6
LONG_DASH
 62
     7
370
    20
100
AcDbCircle
 39
0.25
 10
895.8535532931103
 20
412.0977149002419
 30
-1.0
 40
1.0
100
AcDbArc
 50
180.0
 51
270.0
1001
AUSTER_ANSICHT
1002
{
1000
Det03
1002
}
1001
AUSTER_FOLIE
1002
{
1000
NSB00340_S0
1002
}
  0
ARC
  5
1FC3
330
1F
100
AcDbEntity
  8
11000_Left
  6
LONG_DASH
 62
     7
370
    20
100
AcDbCircle
 39
0.25
 10
895.9535532931102
 20
435.9977149002419
 30
-1.0
 40
1.9
100
AcDbArc
 50
270.0
 51
0.0
1001
AUSTER_ANSICHT
1002
{
1000
Det03
1002
}
1001
AUSTER_FOLIE
1002
{
1000
NSB00340_S0
1002
}
  0
ARC
  5
1FC4
330
1F
100
AcDbEntity
  8
11000_Left
  6
LONG_DASH
 62
     7
370
    20
100
AcDbCircle
 39
0.25
 10
895.9535532931102
 20
407.1977149002418
 30
-1.0
 40
1.9
100
AcDbArc
 50
0.0
 51
90.0
1001
AUSTER_ANSICHT
1002
{
1000
Det03
1002
}
1001
AUSTER_FOLIE
1002
{
1000
NSB00340_S0
1002
}
  0
ARC
  5
1FC5
330
1F
100
AcDbEntity
  8
11000_Left
  6
LONG_DASH
 62
     7
370
    20
100
AcDbCircle
 39
0.25
 10
893.3535532931102
 20
410.0977149002419
 30
0.0
 40
1.0
100
AcDbArc
 50
180.0
 51
270.0
1001
AUSTER_ANSICHT
1002
{
1000
Det03
1002
}
1001
AUSTER_FOLIE
1002
{
1000
NSB00340_S0
1002
}
  0
ARC
  5
1FC6
330
1F
100
AcDbEntity
  8
11000_Left
  6
LONG_DASH
 62
     7
370
    20
100
AcDbCircle
 39
0.25
 10
893.3535532931102
 20
433.097714900242
 30
0.0
 40
1.0
100
AcDbArc
 50
90.0
 51
180.0
1001
AUSTER_ANSICHT
1002
{
1000
Det03
1002
}
1001
AUSTER_FOLIE
1002
{
1000
NSB00340_S0
1002
}
  0
ARC
  5
1FC7
330
1F
100
AcDbEntity
  8
10000_FRONT
  6
LONG_DASH
 62
     7
370
    13
100
AcDbCircle
 39
0.25
 10
867.2690109545317
 20
464.8327149002418
 30
0.0
 40
1.0
100
AcDbArc
 50
0.0
 51
90.0
1001
AUSTER_ANSICHT
1002
{
1000
Det03
1002
}
1001
AUSTER_FOLIE
1002
{
1000
NSB00340_S0
1002
}
  0
ARC
  5
1FC8
330
1F
100
AcDbEntity
  8
11000_Left
  6
LONG_DASH
 62
     7
370
    20
100
AcDbCircle
 39
0.25
 10
898.1535532931102
 20
406.2477149002419
 30
0.0
 40
0.7
100
AcDbArc
 50
0.0
 51
90.0
1001
AUSTER_ANSICHT
1002
{
1000
Det03
1002
}
1001
AUSTER_FOLIE
1002
{
1000
NSB00340_S0
1002
}
  0
LINE
  5
1FC9
330
1F
100
AcDbEntity
  8
11000_Left
  6
LONG_DASH
 62
     7
370
    20
100
AcDbLine
 39
0.25
 10
970.5535532931103
 20
407.7977149002418
 30
0.0
 11
970.5535532931103
 21
392.7977149002419
 31
0.0
1001
AUSTER_ANSICHT
1002
{
1000
Det03
1002
}
1001
AUSTER_FOLIE
1002
{
1000
NSB00340_S0
1002
}
  0
LINE
  5
1FCA
330
1F
100
AcDbEntity
  8
11000_Left
  6
LONG_DASH
 62
     7
370
    20
100
AcDbLine
 39
0.25
 10
966.0535532931103
 20
392.7977149002419
 30
0.0
 11
966.0535532931103
 21
407.7977149002418
 31
0.0
1001
AUSTER_ANSICHT
1002
{
1000
Det03
1002
}
1001
AUSTER_FOLIE
1002
{
1000
NSB00340_S0
1002
}
  0
LINE
  5
1FCB
330
1F
100
AcDbEntity
  8
11000_Left
  6
LONG_DASH
 62
     7
370
    20
100
AcDbLine
 39
0.25
 10
966.0535532931103
 20
407.7977149002418
 30
0.0
 11
970.5535532931103
 21
407.7977149002418
 31
0.0
1001
AUSTER_ANSICHT
1002
{
1000
Det03
1002
}
1001
AUSTER_FOLIE
1002
{
1000
NSB00340_S0
1002
}
  0
LINE
  5
1FCC
330
1F
100
AcDbEntity
  8
11000_Left
  6
LONG_DASH
 62
     7
370
    20
100
AcDbLine
 39
0.25
 10
970.5535532931103
 20
407.7977149002418
 30
0.0
 11
970.5535532931103
 21
392.7977149002419
 31
0.0
1001
AUSTER_ANSICHT
1002
{
1000
Det03
1002
}
1001
AUSTER_FOLIE
1002
{
1000
NSB00340_S0
1002
}
  0
LINE
  5
1FCD
330
1F
100
AcDbEntity
  8
11000_Left
  6
LONG_DASH
 62
     7
370
    20
100
AcDbLine
 39
0.25
 10
966.0535532931103
 20
407.7977149002418
 30
0.0
 11
970.5535532931103
 21
407.7977149002418
 31
0.0
1001
AUSTER_ANSICHT
1002
{
1000
Det03
1002
}
1001
AUSTER_FOLIE
1002
{
1000
NSB00340_S0
1002
}
  0
LINE
  5
1FCE
330
1F
100
AcDbEntity
  8
11000_Left
  6
LONG_DASH
 62
     7
370
    20
100
AcDbLine
 39
0.25
 10
966.0535532931103
 20
392.7977149002419
 30
0.0
 11
966.0535532931103
 21
407.7977149002418
 31
0.0
1001
AUSTER_ANSICHT
1002
{
1000
Det03
1002
}
1001
AUSTER_FOLIE
1002
{
1000
NSB00340_S0
1002
}
  0
LINE
  5
1FCF
330
1F
100
AcDbEntity
  8
10000_FRONT
  6
DASHED
 62
     7
370
    13
100
AcDbLine
 39
0.25
 10
855.1840109545317
 20
402.3957149002419
 30
0.0
 11
855.1840109545317
 21
402.5757149002418
 31
0.0
1001
AUSTER_ANSICHT
1002
{
1000
Det03
1002
}
1001
AUSTER_FOLIE
1002
{
1000
NSB00340_S0
1002
}
  0
LINE
  5
1FD0
330
1F
100
AcDbEntity
  8
10000_FRONT
  6
DASHED
 62
     7
370
    13
100
AcDbLine
 39
0.25
 10
855.1840109545317
 20
403.9647149002418
 30
0.0
 11
855.1840109545317
 21
403.7847149002417
 31
0.0
1001
AUSTER_ANSICHT
1002
{
1000
Det03
1002
}
1001
AUSTER_FOLIE
1002
{
1000
NSB00340_S0
1002
}
  0
LINE
  5
1FD1
330
1F
100
AcDbEntity
  8
10000_FRONT
  6
DASHED
 62
     7
370
    13
100
AcDbLine
 39
0.25
 10
854.1540109545318
 20
402.3957149002419
 30
0.0
 11
854.1540109545318
 21
401.4027149002418
 31
0.0
1001
AUSTER_ANSICHT
1002
{
1000
Det03
1002
}
1001
AUSTER_FOLIE
1002
{
1000
NSB00340_S0
1002
}
  0
LINE
  5
1FD2
330
1F
100
AcDbEntity
  8
10000_FRONT
  6
DASHED
 62
     7
370
    13
100
AcDbLine
 39
0.25
 10
855.1840109545317
 20
401.4027149002418
 30
0.0
 11
855.1840109545317
 21
402.3957149002419
 31
0.0
1001
AUSTER_ANSICHT
1002
{
1000
Det03
1002
}
1001
AUSTER_FOLIE
1002
{
1000
NSB00340_S0
1002
}
  0
LINE
  5
1FD3
330
1F
100
AcDbEntity
  8
10000_FRONT
  6
DASHED
 62
     7
370
    13
100
AcDbLine
 39
0.25
 10
855.1840109545317
 20
403.9647149002418
 30
0.0
 11
855.1840109545317
 21
404.9567149002418
 31
0.0
1001
AUSTER_ANSICHT
1002
{
1000
Det03
1002
}
1001
AUSTER_FOLIE
1002
{
1000
NSB00340_S0
1002
}
  0
LINE
  5
1FD4
330
1F
100
AcDbEntity
  8
10000_FRONT
  6
DASHED
 62
     7
370
    13
100
AcDbLine
 39
0.25
 10
854.1540109545318
 20
404.9567149002418
 30
0.0
 11
854.1540109545318
 21
403.9647149002418
 31
0.0
1001
AUSTER_ANSICHT
1002
{
1000
Det03
1002
}
1001
AUSTER_FOLIE
1002
{
1000
NSB00340_S0
1002
}
  0
LINE
  5
1FD5
330
1F
100
AcDbEntity
  8
10000_FRONT
  6
LONG_DASH
 62
     7
370
    13
100
AcDbLine
 39
0.25
 10
857.4550109545317
 20
403.7847149002417
 30
0.0
 11
855.1840109545317
 21
403.7847149002417
 31
0.0
1001
AUSTER_ANSICHT
1002
{
1000
Det03
1002
}
1001
AUSTER_FOLIE
1002
{
1000
NSB00340_S0
1002
}
  0
LINE
  5
1FD6
330
1F
100
AcDbEntity
  8
10000_FRONT
  6
LONG_DASH
 62
     7
370
    13
100
AcDbLine
 39
0.25
 10
855.1840109545317
 20
402.5757149002418
 30
0.0
 11
857.4550109545317
 21
402.5757149002418
 31
0.0
1001
AUSTER_ANSICHT
1002
{
1000
Det03
1002
}
1001
AUSTER_FOLIE
1002
{
1000
NSB00340_S0
1002
}
  0
LINE
  5
1FD7
330
1F
100
AcDbEntity
  8
10000_FRONT
  6
LONG_DASH
 62
     7
370
    13
100
AcDbLine
 39
0.25
 10
845.5540109545317
 20
402.3957149002419
 30
0.0
 11
845.5540109545317
 21
402.5757149002418
 31
0.0
1001
AUSTER_ANSICHT
1002
{
1000
Det03
1002
}
1001
AUSTER_FOLIE
1002
{
1000
NSB00340_S0
1002
}
  0
LINE
  5
1FD8
330
1F
100
AcDbEntity
  8
10000_FRONT
  6
LONG_DASH
 62
     7
370
    13
100
AcDbLine
 39
0.25
 10
845.5540109545317
 20
403.9647149002418
 30
0.0
 11
845.5540109545317
 21
403.7847149002417
 31
0.0
1001
AUSTER_ANSICHT
1002
{
1000
Det03
1002
}
1001
AUSTER_FOLIE
1002
{
1000
NSB00340_S0
1002
}
  0
LINE
  5
1FD9
330
1F
100
AcDbEntity
  8
10000_FRONT
  6
LONG_DASH
 62
     7
370
    13
100
AcDbLine
 39
0.25
 10
846.5840109545318
 20
402.3957149002419
 30
0.0
 11
846.5840109545318
 21
402.5757149002418
 31
0.0
1001
AUSTER_ANSICHT
1002
{
1000
Det03
1002
}
1001
AUSTER_FOLIE
1002
{
1000
NSB00340_S0
1002
}
  0
LINE
  5
1FDA
330
1F
100
AcDbEntity
  8
10000_FRONT
  6
LONG_DASH
 62
     7
370
    13
100
AcDbLine
 39
0.25
 10
846.5840109545318
 20
403.9647149002418
 30
0.0
 11
846.5840109545318
 21
403.7847149002417
 31
0.0
1001
AUSTER_ANSICHT
1002
{
1000
Det03
1002
}
1001
AUSTER_FOLIE
1002
{
1000
NSB00340_S0
1002
}
  0
LINE
  5
1FDB
330
1F
100
AcDbEntity
  8
10000_FRONT
  6
LONG_DASH
 62
     7
370
    13
100
AcDbLine
 39
0.25
 10
845.5540109545317
 20
402.3957149002419
 30
0.0
 11
845.5540109545317
 21
401.4027149002418
 31
0.0
1001
AUSTER_ANSICHT
1002
{
1000
Det03
1002
}
1001
AUSTER_FOLIE
1002
{
1000
NSB00340_S0
1002
}
  0
LINE
  5
1FDC
330
1F
100
AcDbEntity
  8
10000_FRONT
  6
LONG_DASH
 62
     7
370
    13
100
AcDbLine
 39
0.25
 10
846.5840109545318
 20
401.4027149002418
 30
0.0
 11
846.5840109545318
 21
402.3957149002419
 31
0.0
1001
AUSTER_ANSICHT
1002
{
1000
Det03
1002
}
1001
AUSTER_FOLIE
1002
{
1000
NSB00340_S0
1002
}
  0
LINE
  5
1FDD
330
1F
100
AcDbEntity
  8
10000_FRONT
  6
LONG_DASH
 62
     7
370
    13
100
AcDbLine
 39
0.25
 10
846.5840109545318
 20
403.9647149002418
 30
0.0
 11
846.5840109545318
 21
404.9567149002418
 31
0.0
1001
AUSTER_ANSICHT
1002
{
1000
Det03
1002
}
1001
AUSTER_FOLIE
1002
{
1000
NSB00340_S0
1002
}
  0
LINE
  5
1FDE
330
1F
100
AcDbEntity
  8
10000_FRONT
  6
LONG_DASH
 62
     7
370
    13
100
AcDbLine
 39
0.25
 10
845.5540109545317
 20
404.9567149002418
 30
0.0
 11
845.5540109545317
 21
403.9647149002418
 31
0.0
1001
AUSTER_ANSICHT
1002
{
1000
Det03
1002
}
1001
AUSTER_FOLIE
1002
{
1000
NSB00340_S0
1002
}
  0
LINE
  5
1FDF
330
1F
100
AcDbEntity
  8
10000_FRONT
  6
LONG_DASH
 62
     7
370
    13
100
AcDbLine
 39
0.25
 10
845.5540109545317
 20
403.7847149002417
 30
0.0
 11
843.2830109545317
 21
403.7847149002417
 31
0.0
1001
AUSTER_ANSICHT
1002
{
1000
Det03
1002
}
1001
AUSTER_FOLIE
1002
{
1000
NSB00340_S0
1002
}
  0
LINE
  5
1FE0
330
1F
100
AcDbEntity
  8
10000_FRONT
  6
LONG_DASH
 62
     7
370
    13
100
AcDbLine
 39
0.25
 10
848.8550109545316
 20
403.7847149002417
 30
0.0
 11
846.5840109545318
 21
403.7847149002417
 31
0.0
1001
AUSTER_ANSICHT
1002
{
1000
Det03
1002
}
1001
AUSTER_FOLIE
1002
{
1000
NSB00340_S0
1002
}
  0
LINE
  5
1FE1
330
1F
100
AcDbEntity
  8
10000_FRONT
  6
LONG_DASH
 62
     7
370
    13
100
AcDbLine
 39
0.25
 10
846.5840109545318
 20
402.5757149002418
 30
0.0
 11
848.8550109545316
 21
402.5757149002418
 31
0.0
1001
AUSTER_ANSICHT
1002
{
1000
Det03
1002
}
1001
AUSTER_FOLIE
1002
{
1000
NSB00340_S0
1002
}
  0
LINE
  5
1FE2
330
1F
100
AcDbEntity
  8
10000_FRONT
  6
LONG_DASH
 62
     7
370
    13
100
AcDbLine
 39
0.25
 10
843.2830109545317
 20
402.5757149002418
 30
0.0
 11
845.5540109545317
 21
402.5757149002418
 31
0.0
1001
AUSTER_ANSICHT
1002
{
1000
Det03
1002
}
1001
AUSTER_FOLIE
1002
{
1000
NSB00340_S0
1002
}
  0
LINE
  5
1FE3
330
1F
100
AcDbEntity
  8
10000_FRONT
  6
LONG_DASH
 62
     7
370
    13
100
AcDbLine
 39
0.25
 10
836.9540109545317
 20
402.3957149002419
 30
0.0
 11
836.9540109545317
 21
402.5757149002418
 31
0.0
1001
AUSTER_ANSICHT
1002
{
1000
Det03
1002
}
1001
AUSTER_FOLIE
1002
{
1000
NSB00340_S0
1002
}
  0
LINE
  5
1FE4
330
1F
100
AcDbEntity
  8
10000_FRONT
  6
LONG_DASH
 62
     7
370
    13
100
AcDbLine
 39
0.25
 10
836.9540109545317
 20
403.9647149002418
 30
0.0
 11
836.9540109545317
 21
403.7847149002417
 31
0.0
1001
AUSTER_ANSICHT
1002
{
1000
Det03
1002
}
1001
AUSTER_FOLIE
1002
{
1000
NSB00340_S0
1002
}
  0
LINE
  5
1FE5
330
1F
100
AcDbEntity
  8
10000_FRONT
  6
LONG_DASH
 62
     7
370
    13
100
AcDbLine
 39
0.25
 10
837.9840109545318
 20
402.3957149002419
 30
0.0
 11
837.9840109545318
 21
402.5757149002418
 31
0.0
1001
AUSTER_ANSICHT
1002
{
1000
Det03
1002
}
1001
AUSTER_FOLIE
1002
{
1000
NSB00340_S0
1002
}
  0
LINE
  5
1FE6
330
1F
100
AcDbEntity
  8
10000_FRONT
  6
LONG_DASH
 62
     7
370
    13
100
AcDbLine
 39
0.25
 10
837.9840109545318
 20
403.9647149002418
 30
0.0
 11
837.9840109545318
 21
403.7847149002417
 31
0.0
1001
AUSTER_ANSICHT
1002
{
1000
Det03
1002
}
1001
AUSTER_FOLIE
1002
{
1000
NSB00340_S0
1002
}
  0
LINE
  5
1FE7
330
1F
100
AcDbEntity
  8
10000_FRONT
  6
LONG_DASH
 62
     7
370
    13
100
AcDbLine
 39
0.25
 10
836.9540109545317
 20
402.3957149002419
 30
0.0
 11
836.9540109545317
 21
401.4027149002418
 31
0.0
1001
AUSTER_ANSICHT
1002
{
1000
Det03
1002
}
1001
AUSTER_FOLIE
1002
{
1000
NSB00340_S0
1002
}
  0
LINE
  5
1FE8
330
1F
100
AcDbEntity
  8
10000_FRONT
  6
LONG_DASH
 62
     7
370
    13
100
AcDbLine
 39
0.25
 10
837.9840109545318
 20
401.4027149002418
 30
0.0
 11
837.9840109545318
 21
402.3957149002419
 31
0.0
1001
AUSTER_ANSICHT
1002
{
1000
Det03
1002
}
1001
AUSTER_FOLIE
1002
{
1000
NSB00340_S0
1002
}
  0
LINE
  5
1FE9
330
1F
100
AcDbEntity
  8
10000_FRONT
  6
LONG_DASH
 62
     7
370
    13
100
AcDbLine
 39
0.25
 10
837.9840109545318
 20
403.9647149002418
 30
0.0
 11
837.9840109545318
 21
404.9567149002418
 31
0.0
1001
AUSTER_ANSICHT
1002
{
1000
Det03
1002
}
1001
AUSTER_FOLIE
1002
{
1000
NSB00340_S0
1002
}
  0
LINE
  5
1FEA
330
1F
100
AcDbEntity
  8
10000_FRONT
  6
LONG_DASH
 62
     7
370
    13
100
AcDbLine
 39
0.25
 10
836.9540109545317
 20
404.9567149002418
 30
0.0
 11
836.9540109545317
 21
403.9647149002418
 31
0.0
1001
AUSTER_ANSICHT
1002
{
1000
Det03
1002
}
1001
AUSTER_FOLIE
1002
{
1000
NSB00340_S0
1002
}
  0
LINE
  5
1FEB
330
1F
100
AcDbEntity
  8
10000_FRONT
  6
LONG_DASH
 62
     7
370
    13
100
AcDbLine
 39
0.25
 10
836.9540109545317
 20
403.7847149002417
 30
0.0
 11
834.6830109545319
 21
403.7847149002417
 31
0.0
1001
AUSTER_ANSICHT
1002
{
1000
Det03
1002
}
1001
AUSTER_FOLIE
1002
{
1000
NSB00340_S0
1002
}
  0
LINE
  5
1FEC
330
1F
100
AcDbEntity
  8
10000_FRONT
  6
LONG_DASH
 62
     7
370
    13
100
AcDbLine
 39
0.25
 10
840.2550109545316
 20
403.7847149002417
 30
0.0
 11
837.9840109545318
 21
403.7847149002417
 31
0.0
1001
AUSTER_ANSICHT
1002
{
1000
Det03
1002
}
1001
AUSTER_FOLIE
1002
{
1000
NSB00340_S0
1002
}
  0
LINE
  5
1FED
330
1F
100
AcDbEntity
  8
10000_FRONT
  6
LONG_DASH
 62
     7
370
    13
100
AcDbLine
 39
0.25
 10
837.9840109545318
 20
402.5757149002418
 30
0.0
 11
840.2550109545316
 21
402.5757149002418
 31
0.0
1001
AUSTER_ANSICHT
1002
{
1000
Det03
1002
}
1001
AUSTER_FOLIE
1002
{
1000
NSB00340_S0
1002
}
  0
LINE
  5
1FEE
330
1F
100
AcDbEntity
  8
10000_FRONT
  6
LONG_DASH
 62
     7
370
    13
100
AcDbLine
 39
0.25
 10
834.6830109545319
 20
402.5757149002418
 30
0.0
 11
836.9540109545317
 21
402.5757149002418
 31
0.0
1001
AUSTER_ANSICHT
1002
{
1000
Det03
1002
}
1001
AUSTER_FOLIE
1002
{
1000
NSB00340_S0
1002
}
  0
LINE
  5
1FEF
330
1F
100
AcDbEntity
  8
10000_FRONT
  6
LONG_DASH
 62
     7
370
    13
100
AcDbLine
 39
0.25
 10
828.3540109545317
 20
402.3957149002419
 30
0.0
 11
828.3540109545317
 21
402.5757149002418
 31
0.0
1001
AUSTER_ANSICHT
1002
{
1000
Det03
1002
}
1001
AUSTER_FOLIE
1002
{
1000
NSB00340_S0
1002
}
  0
LINE
  5
1FF0
330
1F
100
AcDbEntity
  8
10000_FRONT
  6
LONG_DASH
 62
     7
370
    13
100
AcDbLine
 39
0.25
 10
828.3540109545317
 20
403.9647149002418
 30
0.0
 11
828.3540109545317
 21
403.7847149002417
 31
0.0
1001
AUSTER_ANSICHT
1002
{
1000
Det03
1002
}
1001
AUSTER_FOLIE
1002
{
1000
NSB00340_S0
1002
}
  0
LINE
  5
1FF1
330
1F
100
AcDbEntity
  8
10000_FRONT
  6
LONG_DASH
 62
     7
370
    13
100
AcDbLine
 39
0.25
 10
829.3840109545318
 20
402.3957149002419
 30
0.0
 11
829.3840109545318
 21
402.5757149002418
 31
0.0
1001
AUSTER_ANSICHT
1002
{
1000
Det03
1002
}
1001
AUSTER_FOLIE
1002
{
1000
NSB00340_S0
1002
}
  0
LINE
  5
1FF2
330
1F
100
AcDbEntity
  8
10000_FRONT
  6
LONG_DASH
 62
     7
370
    13
100
AcDbLine
 39
0.25
 10
829.3840109545318
 20
403.9647149002418
 30
0.0
 11
829.3840109545318
 21
403.7847149002417
 31
0.0
1001
AUSTER_ANSICHT
1002
{
1000
Det03
1002
}
1001
AUSTER_FOLIE
1002
{
1000
NSB00340_S0
1002
}
  0
LINE
  5
1FF3
330
1F
100
AcDbEntity
  8
10000_FRONT
  6
LONG_DASH
 62
     7
370
    13
100
AcDbLine
 39
0.25
 10
829.3840109545318
 20
401.4027149002418
 30
0.0
 11
829.3840109545318
 21
402.3957149002419
 31
0.0
1001
AUSTER_ANSICHT
1002
{
1000
Det03
1002
}
1001
AUSTER_FOLIE
1002
{
1000
NSB00340_S0
1002
}
  0
LINE
  5
1FF4
330
1F
100
AcDbEntity
  8
10000_FRONT
  6
LONG_DASH
 62
     7
370
    13
100
AcDbLine
 39
0.25
 10
829.3840109545318
 20
403.9647149002418
 30
0.0
 11
829.3840109545318
 21
404.9567149002418
 31
0.0
1001
AUSTER_ANSICHT
1002
{
1000
Det03
1002
}
1001
AUSTER_FOLIE
1002
{
1000
NSB00340_S0
1002
}
  0
LINE
  5
1FF5
330
1F
100
AcDbEntity
  8
10000_FRONT
  6
LONG_DASH
 62
     7
370
    13
100
AcDbLine
 39
0.25
 10
831.6550109545318
 20
403.7847149002417
 30
0.0
 11
829.3840109545318
 21
403.7847149002417
 31
0.0
1001
AUSTER_ANSICHT
1002
{
1000
Det03
1002
}
1001
AUSTER_FOLIE
1002
{
1000
NSB00340_S0
1002
}
  0
LINE
  5
1FF6
330
1F
100
AcDbEntity
  8
10000_FRONT
  6
LONG_DASH
 62
     7
370
    13
100
AcDbLine
 39
0.25
 10
829.3840109545318
 20
402.5757149002418
 30
0.0
 11
831.6550109545318
 21
402.5757149002418
 31
0.0
1001
AUSTER_ANSICHT
1002
{
1000
Det03
1002
}
1001
AUSTER_FOLIE
1002
{
1000
NSB00340_S0
1002
}
  0
LINE
  5
1FF7
330
1F
100
AcDbEntity
  8
10000_FRONT
  6
DASHED
 62
     7
370
    13
100
AcDbLine
 39
0.25
 10
854.1540109545318
 20
402.3957149002419
 30
0.0
 11
854.1540109545318
 21
402.5757149002418
 31
0.0
1001
AUSTER_ANSICHT
1002
{
1000
Det03
1002
}
1001
AUSTER_FOLIE
1002
{
1000
NSB00340_S0
1002
}
  0
LINE
  5
1FF8
330
1F
100
AcDbEntity
  8
10000_FRONT
  6
DASHED
 62
     7
370
    13
100
AcDbLine
 39
0.25
 10
854.1540109545318
 20
403.9647149002418
 30
0.0
 11
854.1540109545318
 21
403.7847149002417
 31
0.0
1001
AUSTER_ANSICHT
1002
{
1000
Det03
1002
}
1001
AUSTER_FOLIE
1002
{
1000
NSB00340_S0
1002
}
  0
LINE
  5
1FF9
330
1F
100
AcDbEntity
  8
10000_FRONT
  6
LONG_DASH
 62
     7
370
    13
100
AcDbLine
 39
0.25
 10
828.3540109545317
 20
402.3957149002419
 30
0.0
 11
828.3540109545317
 21
401.4027149002418
 31
0.0
1001
AUSTER_ANSICHT
1002
{
1000
Det03
1002
}
1001
AUSTER_FOLIE
1002
{
1000
NSB00340_S0
1002
}
  0
LINE
  5
1FFA
330
1F
100
AcDbEntity
  8
10000_FRONT
  6
LONG_DASH
 62
     7
370
    13
100
AcDbLine
 39
0.25
 10
828.3540109545317
 20
404.9567149002418
 30
0.0
 11
828.3540109545317
 21
403.9647149002418
 31
0.0
1001
AUSTER_ANSICHT
1002
{
1000
Det03
1002
}
1001
AUSTER_FOLIE
1002
{
1000
NSB00340_S0
1002
}
  0
LINE
  5
1FFB
330
1F
100
AcDbEntity
  8
10000_FRONT
  6
LONG_DASH
 62
     7
370
    13
100
AcDbLine
 39
0.25
 10
826.5690109545316
 20
402.5757149002418
 30
0.0
 11
828.3540109545317
 21
402.5757149002418
 31
0.0
1001
AUSTER_ANSICHT
1002
{
1000
Det03
1002
}
1001
AUSTER_FOLIE
1002
{
1000
NSB00340_S0
1002
}
  0
LINE
  5
1FFC
330
1F
100
AcDbEntity
  8
10000_FRONT
  6
LONG_DASH
 62
     7
370
    13
100
AcDbLine
 39
0.25
 10
828.3540109545317
 20
403.7847149002417
 30
0.0
 11
826.5690109545316
 21
403.7847149002417
 31
0.0
1001
AUSTER_ANSICHT
1002
{
1000
Det03
1002
}
1001
AUSTER_FOLIE
1002
{
1000
NSB00340_S0
1002
}
  0
LINE
  5
1FFD
330
1F
100
AcDbEntity
  8
10000_FRONT
  6
DASHED
 62
     7
370
    13
100
AcDbLine
 39
0.25
 10
854.1540109545318
 20
403.7847149002417
 30
0.0
 11
852.6690109545317
 21
403.7847149002417
 31
0.0
1001
AUSTER_ANSICHT
1002
{
1000
Det03
1002
}
1001
AUSTER_FOLIE
1002
{
1000
NSB00340_S0
1002
}
  0
LINE
  5
1FFE
330
1F
100
AcDbEntity
  8
10000_FRONT
  6
DASHED
 62
     7
370
    13
100
AcDbLine
 39
0.25
 10
852.6690109545317
 20
402.5757149002418
 30
0.0
 11
854.1540109545318
 21
402.5757149002418
 31
0.0
1001
AUSTER_ANSICHT
1002
{
1000
Det03
1002
}
1001
AUSTER_FOLIE
1002
{
1000
NSB00340_S0
1002
}
  0
LINE
  5
1FFF
330
1F
100
AcDbEntity
  8
11000_Left
  6
LONG_DASH
 62
     7
370
    20
100
AcDbLine
 39
0.25
 10
902.3535532931102
 20
377.3477149002419
 30
0.0
 11
902.3535532931102
 21
374.3477149002419
 31
0.0
1001
AUSTER_ANSICHT
1002
{
1000
Det03
1002
}
1001
AUSTER_FOLIE
1002
{
1000
NSB00340_S0
1002
}
  0
LINE
  5
2000
330
1F
100
AcDbEntity
  8
11000_Left
  6
DASHED
 62
     7
370
    20
100
AcDbLine
 39
0.25
 10
980.2535532931104
 20
445.3477149002419
 30
0.0
 11
980.2535532931104
 21
442.8477149002419
 31
0.0
1001
AUSTER_ANSICHT
1002
{
1000
Det03
1002
}
1001
AUSTER_FOLIE
1002
{
1000
NSB00340_S0
1002
}
  0
LINE
  5
2001
330
1F
100
AcDbEntity
  8
11000_Left
  6
LONG_DASH
 62
     7
370
    20
100
AcDbLine
 39
0.25
 10
927.9535532931102
 20
430.6477149002416
 30
0.0
 11
957.4525532931104
 21
430.6477149002416
 31
0.0
1001
AUSTER_ANSICHT
1002
{
1000
Det03
1002
}
1001
AUSTER_FOLIE
1002
{
1000
NSB00340_S0
1002
}
  0
LINE
  5
2002
330
1F
100
AcDbEntity
  8
11000_Left
  6
LONG_DASH
 62
     7
370
    20
100
AcDbLine
 39
0.25
 10
905.1535532931103
 20
430.6477149002416
 30
0.0
 11
927.9535532931102
 21
430.6477149002416
 31
0.0
1001
AUSTER_ANSICHT
1002
{
1000
Det03
1002
}
1001
AUSTER_FOLIE
1002
{
1000
NSB00340_S0
1002
}
  0
LINE
  5
2003
330
1F
100
AcDbEntity
  8
11000_Left
  6
LONG_DASH
 62
     7
370
    20
100
AcDbLine
 39
0.25
 10
898.8535532931102
 20
439.2477149002419
 30
-1.0
 11
899.8535532931102
 21
439.2477149002419
 31
-1.0
1001
AUSTER_ANSICHT
1002
{
1000
Det03
1002
}
1001
AUSTER_FOLIE
1002
{
1000
NSB00340_S0
1002
}
  0
LINE
  5
2004
330
1F
100
AcDbEntity
  8
11000_Left
  6
LONG_DASH
 62
     7
370
    20
100
AcDbLine
 39
0.25
 10
899.8535532931102
 20
434.0977149002419
 30
-1.0
 11
897.8535532931102
 21
432.0977149002419
 31
-1.0
1001
AUSTER_ANSICHT
1002
{
1000
Det03
1002
}
1001
AUSTER_FOLIE
1002
{
1000
NSB00340_S0
1002
}
  0
LINE
  5
2005
330
1F
100
AcDbEntity
  8
10000_FRONT
  6
LONG_DASH
 62
     7
370
    13
100
AcDbLine
 39
0.25
 10
853.6690109545316
 20
376.0977149002419
 30
0.0
 11
853.6690109545316
 21
374.3477149002419
 31
0.0
1001
AUSTER_ANSICHT
1002
{
1000
Det03
1002
}
1001
AUSTER_FOLIE
1002
{
1000
NSB00340_S0
1002
}
  0
LINE
  5
2006
330
1F
100
AcDbEntity
  8
10000_FRONT
  6
LONG_DASH
 62
     7
370
    13
100
AcDbLine
 39
0.25
 10
838.0690109545318
 20
376.0977149002419
 30
0.0
 11
838.0690109545318
 21
374.3477149002419
 31
0.0
1001
AUSTER_ANSICHT
1002
{
1000
Det03
1002
}
1001
AUSTER_FOLIE
1002
{
1000
NSB00340_S0
1002
}
  0
LINE
  5
2007
330
1F
100
AcDbEntity
  8
10000_FRONT
  6
LONG_DASH
 62
     7
370
    13
100
AcDbLine
 39
0.25
 10
868.0700109545318
 20
408.3297149002417
 30
0.0
 11
854.7523124545941
 21
408.3297149002417
 31
0.0
1001
AUSTER_ANSICHT
1002
{
1000
Det03
1002
}
1001
AUSTER_FOLIE
1002
{
1000
NSB00340_S0
1002
}
  0
LINE
  5
2008
330
1F
100
AcDbEntity
  8
10000_FRONT
  6
LONG_DASH
 62
     7
370
    13
100
AcDbLine
 39
0.25
 10
854.7690079545317
 20
429.7107149002418
 30
0.0
 11
868.0700109545318
 21
429.7107149002418
 31
0.0
1001
AUSTER_ANSICHT
1002
{
1000
Det03
1002
}
1001
AUSTER_FOLIE
1002
{
1000
NSB00340_S0
1002
}
  0
LINE
  5
2009
330
1F
100
AcDbEntity
  8
11000_Left
  6
LONG_DASH
 62
     7
370
    20
100
AcDbLine
 39
0.25
 10
942.8535532931103
 20
393.0477149002419
 30
0.0
 11
948.8535532931102
 21
393.0477149002419
 31
0.0
1001
AUSTER_ANSICHT
1002
{
1000
Det03
1002
}
1001
AUSTER_FOLIE
1002
{
1000
NSB00340_S0
1002
}
  0
LINE
  5
200A
330
1F
100
AcDbEntity
  8
11000_Left
  6
LONG_DASH
 62
     7
370
    20
100
AcDbLine
 39
0.25
 10
948.8535532931102
 20
393.0477149002419
 30
0.0
 11
948.8535532931102
 21
376.0477149002419
 31
0.0
1001
AUSTER_ANSICHT
1002
{
1000
Det03
1002
}
1001
AUSTER_FOLIE
1002
{
1000
NSB00340_S0
1002
}
  0
LINE
  5
200B
330
1F
100
AcDbEntity
  8
11000_Left
  6
LONG_DASH
 62
     7
370
    20
100
AcDbLine
 39
0.25
 10
942.8535532931103
 20
376.0477149002419
 30
0.0
 11
942.8535532931103
 21
393.0477149002419
 31
0.0
1001
AUSTER_ANSICHT
1002
{
1000
Det03
1002
}
1001
AUSTER_FOLIE
1002
{
1000
NSB00340_S0
1002
}
  0
LINE
  5
200C
330
1F
100
AcDbEntity
  8
11000_Left
  6
LONG_DASH
 62
     7
370
    20
100
AcDbLine
 39
0.25
 10
967.9685532931102
 20
448.8477149002419
 30
0.0
 11
967.9685532931102
 21
465.8477149002419
 31
0.0
1001
AUSTER_ANSICHT
1002
{
1000
Det03
1002
}
1001
AUSTER_FOLIE
1002
{
1000
NSB00340_S0
1002
}
  0
LINE
  5
200D
330
1F
100
AcDbEntity
  8
11000_Left
  6
LONG_DASH
 62
     7
370
    20
100
AcDbLine
 39
0.25
 10
961.4685532931103
 20
448.8477149002419
 30
0.0
 11
967.9685532931102
 21
448.8477149002419
 31
0.0
1001
AUSTER_ANSICHT
1002
{
1000
Det03
1002
}
1001
AUSTER_FOLIE
1002
{
1000
NSB00340_S0
1002
}
  0
LINE
  5
200E
330
1F
100
AcDbEntity
  8
11000_Left
  6
LONG_DASH
 62
     7
370
    20
100
AcDbLine
 39
0.25
 10
961.4685532931103
 20
465.8477149002419
 30
0.0
 11
961.4685532931103
 21
448.8477149002419
 31
0.0
1001
AUSTER_ANSICHT
1002
{
1000
Det03
1002
}
1001
AUSTER_FOLIE
1002
{
1000
NSB00340_S0
1002
}
  0
LINE
  5
200F
330
1F
100
AcDbEntity
  8
11000_Left
  6
LONG_DASH
 62
     7
370
    20
100
AcDbLine
 39
0.25
 10
898.6535532931103
 20
441.9477149002418
 30
0.0
 11
898.6535532931103
 21
438.1397149002416
 31
0.0
1001
AUSTER_ANSICHT
1002
{
1000
Det03
1002
}
1001
AUSTER_FOLIE
1002
{
1000
NSB00340_S0
1002
}
  0
LINE
  5
2010
330
1F
100
AcDbEntity
  8
11000_Left
  6
LONG_DASH
 62
     7
370
    20
100
AcDbLine
 39
0.25
 10
896.6535532931104
 20
436.9477149002419
 30
0.0
 11
897.6535532931103
 21
436.9477149002419
 31
0.0
1001
AUSTER_ANSICHT
1002
{
1000
Det03
1002
}
1001
AUSTER_FOLIE
1002
{
1000
NSB00340_S0
1002
}
  0
LINE
  5
2011
330
1F
100
AcDbEntity
  8
11000_Left
  6
LONG_DASH
 62
     7
370
    20
100
AcDbLine
 39
0.25
 10
897.6535532931103
 20
436.9477149002419
 30
0.0
 11
898.6535532931103
 21
438.1397149002416
 31
0.0
1001
AUSTER_ANSICHT
1002
{
1000
Det03
1002
}
1001
AUSTER_FOLIE
1002
{
1000
NSB00340_S0
1002
}
  0
LINE
  5
2012
330
1F
100
AcDbEntity
  8
11000_Left
  6
LONG_DASH
 62
     7
370
    20
100
AcDbLine
 39
0.25
 10
895.3535532931102
 20
442.4477149002418
 30
0.0
 11
896.6535532931104
 21
436.9477149002419
 31
0.0
1001
AUSTER_ANSICHT
1002
{
1000
Det03
1002
}
1001
AUSTER_FOLIE
1002
{
1000
NSB00340_S0
1002
}
  0
LINE
  5
2013
330
1F
100
AcDbEntity
  8
11000_Left
  6
LONG_DASH
 62
     7
370
    20
100
AcDbLine
 39
0.25
 10
894.8535532931103
 20
454.9977149002418
 30
0.0
 11
894.8535532931103
 21
461.4977149002419
 31
0.0
1001
AUSTER_ANSICHT
1002
{
1000
Det03
1002
}
1001
AUSTER_FOLIE
1002
{
1000
NSB00340_S0
1002
}
  0
LINE
  5
2014
330
1F
100
AcDbEntity
  8
11000_Left
  6
LONG_DASH
 62
     7
370
    20
100
AcDbLine
 39
0.25
 10
899.8535532931102
 20
401.9477149002418
 30
0.0
 11
895.3535532931102
 21
401.9477149002418
 31
0.0
1001
AUSTER_ANSICHT
1002
{
1000
Det03
1002
}
1001
AUSTER_FOLIE
1002
{
1000
NSB00340_S0
1002
}
  0
LINE
  5
2015
330
1F
100
AcDbEntity
  8
11000_Left
  6
LONG_DASH
 62
     7
370
    20
100
AcDbLine
 39
0.25
 10
895.3535532931102
 20
442.4477149002418
 30
0.0
 11
900.1535532931104
 21
442.4477149002418
 31
0.0
1001
AUSTER_ANSICHT
1002
{
1000
Det03
1002
}
1001
AUSTER_FOLIE
1002
{
1000
NSB00340_S0
1002
}
  0
LINE
  5
2016
330
1F
100
AcDbEntity
  8
11000_Left
  6
LONG_DASH
 62
     7
370
    20
100
AcDbLine
 39
0.25
 10
895.3535532931102
 20
462.7477149002419
 30
0.0
 11
895.3535532931102
 21
442.4477149002418
 31
0.0
1001
AUSTER_ANSICHT
1002
{
1000
Det03
1002
}
1001
AUSTER_FOLIE
1002
{
1000
NSB00340_S0
1002
}
  0
LINE
  5
2017
330
1F
100
AcDbEntity
  8
11000_Left
  6
LONG_DASH
 62
     7
370
    20
100
AcDbLine
 39
0.25
 10
895.3535532931102
 20
401.9477149002418
 30
0.0
 11
895.3535532931102
 21
368.7477149002419
 31
0.0
1001
AUSTER_ANSICHT
1002
{
1000
Det03
1002
}
1001
AUSTER_FOLIE
1002
{
1000
NSB00340_S0
1002
}
  0
LINE
  5
2018
330
1F
100
AcDbEntity
  8
11000_Left
  6
LONG_DASH
 62
     7
370
    20
100
AcDbLine
 39
0.25
 10
905.1535532931103
 20
430.6477149002416
 30
0.0
 11
927.9535532931102
 21
430.6477149002416
 31
0.0
1001
AUSTER_ANSICHT
1002
{
1000
Det03
1002
}
1001
AUSTER_FOLIE
1002
{
1000
NSB00340_S0
1002
}
  0
LINE
  5
2019
330
1F
100
AcDbEntity
  8
11000_Left
  6
LONG_DASH
 62
     7
370
    20
100
AcDbLine
 39
0.25
 10
927.9535532931102
 20
430.6477149002416
 30
0.0
 11
927.9535532931102
 21
432.0257149002418
 31
0.0
1001
AUSTER_ANSICHT
1002
{
1000
Det03
1002
}
1001
AUSTER_FOLIE
1002
{
1000
NSB00340_S0
1002
}
  0
LINE
  5
201A
330
1F
100
AcDbEntity
  8
11000_Left
  6
LONG_DASH
 62
     7
370
    20
100
AcDbLine
 39
0.25
 10
927.9535532931102
 20
432.0257149002418
 30
0.0
 11
938.4535532931105
 21
435.8477149002419
 31
0.0
1001
AUSTER_ANSICHT
1002
{
1000
Det03
1002
}
1001
AUSTER_FOLIE
1002
{
1000
NSB00340_S0
1002
}
  0
LINE
  5
201B
330
1F
100
AcDbEntity
  8
11000_Left
  6
DASHED
 62
     7
370
    20
100
AcDbLine
 39
0.25
 10
978.0535532931104
 20
442.8477149002419
 30
0.0
 11
980.2535532931104
 21
442.8477149002419
 31
0.0
1001
AUSTER_ANSICHT
1002
{
1000
Det03
1002
}
1001
AUSTER_FOLIE
1002
{
1000
NSB00340_S0
1002
}
  0
LINE
  5
201C
330
1F
100
AcDbEntity
  8
11000_Left
  6
LONG_DASH
 62
     7
370
    20
100
AcDbLine
 39
0.25
 10
905.1535532931103
 20
377.3477149002419
 30
0.0
 11
902.3535532931102
 21
377.3477149002419
 31
0.0
1001
AUSTER_ANSICHT
1002
{
1000
Det03
1002
}
1001
AUSTER_FOLIE
1002
{
1000
NSB00340_S0
1002
}
  0
LINE
  5
201D
330
1F
100
AcDbEntity
  8
11000_Left
  6
LONG_DASH
 62
     7
370
    20
100
AcDbLine
 39
0.25
 10
902.3535532931102
 20
374.3477149002419
 30
0.0
 11
907.9535532931103
 21
374.3477149002419
 31
0.0
1001
AUSTER_ANSICHT
1002
{
1000
Det03
1002
}
1001
AUSTER_FOLIE
1002
{
1000
NSB00340_S0
1002
}
  0
LINE
  5
201E
330
1F
100
AcDbEntity
  8
11000_Left
  6
LONG_DASH
 62
     7
370
    20
100
AcDbLine
 39
0.25
 10
907.9535532931103
 20
374.3477149002419
 30
0.0
 11
907.9535532931103
 21
375.8477149002419
 31
0.0
1001
AUSTER_ANSICHT
1002
{
1000
Det03
1002
}
1001
AUSTER_FOLIE
1002
{
1000
NSB00340_S0
1002
}
  0
LINE
  5
201F
330
1F
100
AcDbEntity
  8
11000_Left
  6
LONG_DASH
 62
     7
370
    20
100
AcDbLine
 39
0.25
 10
907.9535532931103
 20
375.8477149002419
 30
0.0
 11
906.4535532931103
 21
377.3477149002419
 31
0.0
1001
AUSTER_ANSICHT
1002
{
1000
Det03
1002
}
1001
AUSTER_FOLIE
1002
{
1000
NSB00340_S0
1002
}
  0
LINE
  5
2020
330
1F
100
AcDbEntity
  8
11000_Left
  6
LONG_DASH
 62
     7
370
    20
100
AcDbLine
 39
0.25
 10
906.4535532931103
 20
377.3477149002419
 30
0.0
 11
905.1535532931103
 21
377.3477149002419
 31
0.0
1001
AUSTER_ANSICHT
1002
{
1000
Det03
1002
}
1001
AUSTER_FOLIE
1002
{
1000
NSB00340_S0
1002
}
  0
LINE
  5
2021
330
1F
100
AcDbEntity
  8
11000_Left
  6
LONG_DASH
 62
     7
370
    20
100
AcDbLine
 39
0.25
 10
907.8555532931103
 20
374.3477149002419
 30
0.0
 11
908.6555532931102
 21
373.5477149002419
 31
0.0
1001
AUSTER_ANSICHT
1002
{
1000
Det03
1002
}
1001
AUSTER_FOLIE
1002
{
1000
NSB00340_S0
1002
}
  0
LINE
  5
2022
330
1F
100
AcDbEntity
  8
11000_Left
  6
LONG_DASH
 62
     7
370
    20
100
AcDbLine
 39
0.25
 10
908.6555532931102
 20
373.5477149002419
 30
0.0
 11
909.8535532931103
 21
373.5477149002419
 31
0.0
1001
AUSTER_ANSICHT
1002
{
1000
Det03
1002
}
1001
AUSTER_FOLIE
1002
{
1000
NSB00340_S0
1002
}
  0
LINE
  5
2023
330
1F
100
AcDbEntity
  8
11000_Left
  6
LONG_DASH
 62
     7
370
    20
100
AcDbLine
 39
0.25
 10
909.8535532931103
 20
373.5477149002419
 30
0.0
 11
909.8535532931103
 21
374.0477149002419
 31
0.0
1001
AUSTER_ANSICHT
1002
{
1000
Det03
1002
}
1001
AUSTER_FOLIE
1002
{
1000
NSB00340_S0
1002
}
  0
LINE
  5
2024
330
1F
100
AcDbEntity
  8
11000_Left
  6
LONG_DASH
 62
     7
370
    20
100
AcDbLine
 39
0.25
 10
909.8535532931103
 20
374.0477149002419
 30
0.0
 11
908.6535532931103
 21
375.247714900242
 31
0.0
1001
AUSTER_ANSICHT
1002
{
1000
Det03
1002
}
1001
AUSTER_FOLIE
1002
{
1000
NSB00340_S0
1002
}
  0
LINE
  5
2025
330
1F
100
AcDbEntity
  8
11000_Left
  6
LONG_DASH
 62
     7
370
    20
100
AcDbLine
 39
0.25
 10
908.6535532931103
 20
375.247714900242
 30
0.0
 11
908.6535532931103
 21
376.5477149002418
 31
0.0
1001
AUSTER_ANSICHT
1002
{
1000
Det03
1002
}
1001
AUSTER_FOLIE
1002
{
1000
NSB00340_S0
1002
}
  0
LINE
  5
2026
330
1F
100
AcDbEntity
  8
11000_Left
  6
LONG_DASH
 62
     7
370
    20
100
AcDbLine
 39
0.25
 10
908.4105532931102
 20
377.2007149002419
 30
0.0
 11
907.5935532931103
 21
378.1477149002419
 31
0.0
1001
AUSTER_ANSICHT
1002
{
1000
Det03
1002
}
1001
AUSTER_FOLIE
1002
{
1000
NSB00340_S0
1002
}
  0
LINE
  5
2027
330
1F
100
AcDbEntity
  8
11000_Left
  6
LONG_DASH
 62
     7
370
    20
100
AcDbLine
 39
0.25
 10
906.9775532931103
 20
376.8237149002419
 30
0.0
 11
907.0935532931102
 21
378.1477149002419
 31
0.0
1001
AUSTER_ANSICHT
1002
{
1000
Det03
1002
}
1001
AUSTER_FOLIE
1002
{
1000
NSB00340_S0
1002
}
  0
LINE
  5
2028
330
1F
100
AcDbEntity
  8
11000_Left
  6
LONG_DASH
 62
     7
370
    20
100
AcDbLine
 39
0.25
 10
907.5935532931103
 20
378.1477149002419
 30
0.0
 11
907.0935532931102
 21
378.1477149002419
 31
0.0
1001
AUSTER_ANSICHT
1002
{
1000
Det03
1002
}
1001
AUSTER_FOLIE
1002
{
1000
NSB00340_S0
1002
}
  0
LINE
  5
2029
330
1F
100
AcDbEntity
  8
11000_Left
  6
LONG_DASH
 62
     7
370
    20
100
AcDbLine
 39
0.25
 10
901.3535532931102
 20
368.7477149002419
 30
0.0
 11
895.3535532931102
 21
368.7477149002419
 31
0.0
1001
AUSTER_ANSICHT
1002
{
1000
Det03
1002
}
1001
AUSTER_FOLIE
1002
{
1000
NSB00340_S0
1002
}
  0
LINE
  5
202A
330
1F
100
AcDbEntity
  8
11000_Left
  6
LONG_DASH
 62
     7
370
    20
100
AcDbLine
 39
0.25
 10
897.5355532931102
 20
404.9477149002418
 30
0.0
 11
895.3535532931102
 21
401.9477149002418
 31
0.0
1001
AUSTER_ANSICHT
1002
{
1000
Det03
1002
}
1001
AUSTER_FOLIE
1002
{
1000
NSB00340_S0
1002
}
  0
LINE
  5
202B
330
1F
100
AcDbEntity
  8
11000_Left
  6
LONG_DASH
 62
     7
370
    20
100
AcDbLine
 39
0.25
 10
898.5355532931103
 20
404.9477149002418
 30
0.0
 11
897.5355532931102
 21
404.9477149002418
 31
0.0
1001
AUSTER_ANSICHT
1002
{
1000
Det03
1002
}
1001
AUSTER_FOLIE
1002
{
1000
NSB00340_S0
1002
}
  0
LINE
  5
202C
330
1F
100
AcDbEntity
  8
11000_Left
  6
LONG_DASH
 62
     7
370
    20
100
AcDbLine
 39
0.25
 10
898.8035532931103
 20
403.9477149002419
 30
0.0
 11
898.5355532931103
 21
404.9477149002418
 31
0.0
1001
AUSTER_ANSICHT
1002
{
1000
Det03
1002
}
1001
AUSTER_FOLIE
1002
{
1000
NSB00340_S0
1002
}
  0
LINE
  5
202D
330
1F
100
AcDbEntity
  8
11000_Left
  6
LONG_DASH
 62
     7
370
    20
100
AcDbLine
 39
0.25
 10
899.8535532931102
 20
403.9477149002419
 30
0.0
 11
898.8035532931103
 21
403.9477149002419
 31
0.0
1001
AUSTER_ANSICHT
1002
{
1000
Det03
1002
}
1001
AUSTER_FOLIE
1002
{
1000
NSB00340_S0
1002
}
  0
LINE
  5
202E
330
1F
100
AcDbEntity
  8
11000_Left
  6
LONG_DASH
 62
     7
370
    20
100
AcDbLine
 39
0.25
 10
899.8535532931102
 20
401.9477149002418
 30
0.0
 11
899.8535532931102
 21
436.9277149002418
 31
0.0
1001
AUSTER_ANSICHT
1002
{
1000
Det03
1002
}
1001
AUSTER_FOLIE
1002
{
1000
NSB00340_S0
1002
}
  0
LINE
  5
202F
330
1F
100
AcDbEntity
  8
11000_Left
  6
LONG_DASH
 62
     7
370
    20
100
AcDbLine
 39
0.25
 10
899.8535532931102
 20
436.9277149002418
 30
0.0
 11
900.1535532931104
 21
437.4527149002419
 31
0.0
1001
AUSTER_ANSICHT
1002
{
1000
Det03
1002
}
1001
AUSTER_FOLIE
1002
{
1000
NSB00340_S0
1002
}
  0
LINE
  5
2030
330
1F
100
AcDbEntity
  8
11000_Left
  6
LONG_DASH
 62
     7
370
    20
100
AcDbLine
 39
0.25
 10
900.1535532931104
 20
437.4527149002419
 30
0.0
 11
900.1535532931104
 21
442.4477149002418
 31
0.0
1001
AUSTER_ANSICHT
1002
{
1000
Det03
1002
}
1001
AUSTER_FOLIE
1002
{
1000
NSB00340_S0
1002
}
  0
LINE
  5
2031
330
1F
100
AcDbEntity
  8
11000_Left
  6
LONG_DASH
 62
     7
370
    20
100
AcDbLine
 39
0.25
 10
895.3535532931102
 20
462.7477149002419
 30
0.0
 11
901.3535532931102
 21
462.7477149002419
 31
0.0
1001
AUSTER_ANSICHT
1002
{
1000
Det03
1002
}
1001
AUSTER_FOLIE
1002
{
1000
NSB00340_S0
1002
}
  0
LINE
  5
2032
330
1F
100
AcDbEntity
  8
11000_Left
  6
LONG_DASH
 62
     7
370
    20
100
AcDbLine
 39
0.25
 10
903.8535532931103
 20
448.3477149002419
 30
0.0
 11
949.7535532931104
 21
448.3477149002419
 31
0.0
1001
AUSTER_ANSICHT
1002
{
1000
Det03
1002
}
1001
AUSTER_FOLIE
1002
{
1000
NSB00340_S0
1002
}
  0
LINE
  5
2033
330
1F
100
AcDbEntity
  8
11000_Left
  6
LONG_DASH
 62
     7
370
    20
100
AcDbLine
 39
0.25
 10
952.4925532931105
 20
460.9567149002418
 30
0.0
 11
957.4265532931104
 21
461.8257149002414
 31
0.0
1001
AUSTER_ANSICHT
1002
{
1000
Det03
1002
}
1001
AUSTER_FOLIE
1002
{
1000
NSB00340_S0
1002
}
  0
LINE
  5
2034
330
1F
100
AcDbEntity
  8
11000_Left
  6
LONG_DASH
 62
     7
370
    20
100
AcDbLine
 39
0.25
 10
951.2535532931103
 20
459.4787149002418
 30
0.0
 11
951.2535532931103
 21
449.8477149002419
 31
0.0
1001
AUSTER_ANSICHT
1002
{
1000
Det03
1002
}
1001
AUSTER_FOLIE
1002
{
1000
NSB00340_S0
1002
}
  0
LINE
  5
2035
330
1F
100
AcDbEntity
  8
11000_Left
  6
LONG_DASH
 62
     7
370
    20
100
AcDbLine
 39
0.25
 10
958.2535532931103
 20
462.8107149002414
 30
0.0
 11
958.2535532931103
 21
464.8477149002419
 31
0.0
1001
AUSTER_ANSICHT
1002
{
1000
Det03
1002
}
1001
AUSTER_FOLIE
1002
{
1000
NSB00340_S0
1002
}
  0
LINE
  5
2036
330
1F
100
AcDbEntity
  8
11000_Left
  6
DASHED
 62
     7
370
    20
100
AcDbLine
 39
0.25
 10
978.0535532931104
 20
436.8477149002419
 30
0.0
 11
978.0535532931104
 21
442.8477149002419
 31
0.0
1001
AUSTER_ANSICHT
1002
{
1000
Det03
1002
}
1001
AUSTER_FOLIE
1002
{
1000
NSB00340_S0
1002
}
  0
LINE
  5
2037
330
1F
100
AcDbEntity
  8
11000_Left
  6
LONG_DASH
 62
     7
370
    20
100
AcDbLine
 39
0.25
 10
938.4535532931105
 20
435.8477149002419
 30
0.0
 11
977.0535532931104
 21
435.8477149002419
 31
0.0
1001
AUSTER_ANSICHT
1002
{
1000
Det03
1002
}
1001
AUSTER_FOLIE
1002
{
1000
NSB00340_S0
1002
}
  0
LINE
  5
2038
330
1F
100
AcDbEntity
  8
11000_Left
  6
LONG_DASH
 62
     7
370
    20
100
AcDbLine
 39
0.25
 10
894.8535532931103
 20
454.9977149002418
 30
0.0
 11
895.3535532931102
 21
454.9977149002418
 31
0.0
1001
AUSTER_ANSICHT
1002
{
1000
Det03
1002
}
1001
AUSTER_FOLIE
1002
{
1000
NSB00340_S0
1002
}
  0
LINE
  5
2039
330
1F
100
AcDbEntity
  8
11000_Left
  6
LONG_DASH
 62
     7
370
    20
100
AcDbLine
 39
0.25
 10
894.8535532931103
 20
461.4977149002419
 30
0.0
 11
895.3535532931102
 21
461.4977149002419
 31
0.0
1001
AUSTER_ANSICHT
1002
{
1000
Det03
1002
}
1001
AUSTER_FOLIE
1002
{
1000
NSB00340_S0
1002
}
  0
LINE
  5
203A
330
1F
100
AcDbEntity
  8
11000_Left
  6
LONG_DASH
 62
     7
370
    20
100
AcDbLine
 39
0.25
 10
895.3535532931102
 20
369.9977149002419
 30
0.0
 11
894.8535532931103
 21
369.9977149002419
 31
0.0
1001
AUSTER_ANSICHT
1002
{
1000
Det03
1002
}
1001
AUSTER_FOLIE
1002
{
1000
NSB00340_S0
1002
}
  0
LINE
  5
203B
330
1F
100
AcDbEntity
  8
11000_Left
  6
LONG_DASH
 62
     7
370
    20
100
AcDbLine
 39
0.25
 10
894.8535532931103
 20
376.4977149002419
 30
0.0
 11
895.3545532931103
 21
376.4977149002419
 31
0.0
1001
AUSTER_ANSICHT
1002
{
1000
Det03
1002
}
1001
AUSTER_FOLIE
1002
{
1000
NSB00340_S0
1002
}
  0
LINE
  5
203C
330
1F
100
AcDbEntity
  8
11000_Left
  6
LONG_DASH
 62
     7
370
    20
100
AcDbLine
 39
0.25
 10
980.2535532931104
 20
442.8477149002419
 30
0.0
 11
980.2535532931104
 21
465.8477149002419
 31
0.0
1001
AUSTER_ANSICHT
1002
{
1000
Det03
1002
}
1001
AUSTER_FOLIE
1002
{
1000
NSB00340_S0
1002
}
  0
LINE
  5
203D
330
1F
100
AcDbEntity
  8
11000_Left
  6
DASHED
 62
     7
370
    20
100
AcDbLine
 39
0.25
 10
980.2535532931104
 20
445.3477149002419
 30
0.0
 11
983.6535532931105
 21
445.3477149002419
 31
0.0
1001
AUSTER_ANSICHT
1002
{
1000
Det03
1002
}
1001
AUSTER_FOLIE
1002
{
1000
NSB00340_S0
1002
}
  0
LINE
  5
203E
330
1F
100
AcDbEntity
  8
11000_Left
  6
LONG_DASH
 62
     7
370
    20
100
AcDbLine
 39
0.25
 10
980.2535532931104
 20
465.8477149002419
 30
0.0
 11
981.9535532931102
 21
465.8477149002419
 31
0.0
1001
AUSTER_ANSICHT
1002
{
1000
Det03
1002
}
1001
AUSTER_FOLIE
1002
{
1000
NSB00340_S0
1002
}
  0
LINE
  5
203F
330
1F
100
AcDbEntity
  8
11000_Left
  6
LONG_DASH
 62
     7
370
    20
100
AcDbLine
 39
0.25
 10
902.3535532931102
 20
374.3477149002419
 30
0.0
 11
902.3535532931102
 21
369.7477149002419
 31
0.0
1001
AUSTER_ANSICHT
1002
{
1000
Det03
1002
}
1001
AUSTER_FOLIE
1002
{
1000
NSB00340_S0
1002
}
  0
LINE
  5
2040
330
1F
100
AcDbEntity
  8
11000_Left
  6
LONG_DASH
 62
     7
370
    20
100
AcDbLine
 39
0.25
 10
894.8535532931103
 20
369.9977149002419
 30
0.0
 11
894.8535532931103
 21
376.4977149002419
 31
0.0
1001
AUSTER_ANSICHT
1002
{
1000
Det03
1002
}
1001
AUSTER_FOLIE
1002
{
1000
NSB00340_S0
1002
}
  0
LINE
  5
2041
330
1F
100
AcDbEntity
  8
11000_Left
  6
LONG_DASH
 62
     7
370
    20
100
AcDbLine
 39
0.25
 10
959.2535532931103
 20
465.8477149002419
 30
0.0
 11
980.2535532931104
 21
465.8477149002419
 31
0.0
1001
AUSTER_ANSICHT
1002
{
1000
Det03
1002
}
1001
AUSTER_FOLIE
1002
{
1000
NSB00340_S0
1002
}
  0
LINE
  5
2042
330
1F
100
AcDbEntity
  8
11000_Left
  6
LONG_DASH
 62
     7
370
    20
100
AcDbLine
 39
0.25
 10
902.3535532931102
 20
461.7477149002417
 30
0.0
 11
902.3535532931102
 21
449.8477149002419
 31
0.0
1001
AUSTER_ANSICHT
1002
{
1000
Det03
1002
}
1001
AUSTER_FOLIE
1002
{
1000
NSB00340_S0
1002
}
  0
LINE
  5
2043
330
1F
100
AcDbEntity
  8
11000_Left
  6
LONG_DASH
 62
     7
370
    20
100
AcDbLine
 39
0.25
 10
948.8535532931102
 20
393.0477149002419
 30
0.0
 11
948.8535532931102
 21
376.0477149002419
 31
0.0
1001
AUSTER_ANSICHT
1002
{
1000
Det03
1002
}
1001
AUSTER_FOLIE
1002
{
1000
NSB00340_S0
1002
}
  0
LINE
  5
2044
330
1F
100
AcDbEntity
  8
11000_Left
  6
LONG_DASH
 62
     7
370
    20
100
AcDbLine
 39
0.25
 10
942.8535532931103
 20
393.0477149002419
 30
0.0
 11
948.8535532931102
 21
393.0477149002419
 31
0.0
1001
AUSTER_ANSICHT
1002
{
1000
Det03
1002
}
1001
AUSTER_FOLIE
1002
{
1000
NSB00340_S0
1002
}
  0
LINE
  5
2045
330
1F
100
AcDbEntity
  8
11000_Left
  6
LONG_DASH
 62
     7
370
    20
100
AcDbLine
 39
0.25
 10
942.8535532931103
 20
376.0477149002419
 30
0.0
 11
942.8535532931103
 21
393.0477149002419
 31
0.0
1001
AUSTER_ANSICHT
1002
{
1000
Det03
1002
}
1001
AUSTER_FOLIE
1002
{
1000
NSB00340_S0
1002
}
  0
LINE
  5
2046
330
1F
100
AcDbEntity
  8
11000_Left
  6
LONG_DASH
 62
     7
370
    20
100
AcDbLine
 39
0.25
 10
957.4525532931104
 20
430.6477149002416
 30
0.0
 11
957.4535532931104
 21
435.8477149002419
 31
0.0
1001
AUSTER_ANSICHT
1002
{
1000
Det03
1002
}
1001
AUSTER_FOLIE
1002
{
1000
NSB00340_S0
1002
}
  0
LINE
  5
2047
330
1F
100
AcDbEntity
  8
11000_Left
  6
LONG_DASH
 62
     7
370
    20
100
AcDbLine
 39
0.7
 10
974.6535532931105
 20
433.6477149002418
 30
0.0
 11
977.1929362783227
 21
433.6477149002418
 31
0.0
1001
AUSTER_ANSICHT
1002
{
1000
Det03
1002
}
1001
AUSTER_FOLIE
1002
{
1000
NSB00340_S0
1002
}
  0
LINE
  5
2048
330
1F
100
AcDbEntity
  8
11000_Left
  6
LONG_DASH
 62
     7
370
    20
100
AcDbLine
 39
0.7
 10
972.3535532931103
 20
431.3477149002419
 30
0.0
 11
974.6535532931105
 21
433.6477149002418
 31
0.0
1001
AUSTER_ANSICHT
1002
{
1000
Det03
1002
}
1001
AUSTER_FOLIE
1002
{
1000
NSB00340_S0
1002
}
  0
LINE
  5
2049
330
1F
100
AcDbEntity
  8
11000_Left
  6
LONG_DASH
 62
     7
370
    20
100
AcDbLine
 39
0.7
 10
972.3545532931105
 20
430.6477149002416
 30
0.0
 11
972.3535532931103
 21
431.3477149002419
 31
0.0
1001
AUSTER_ANSICHT
1002
{
1000
Det03
1002
}
1001
AUSTER_FOLIE
1002
{
1000
NSB00340_S0
1002
}
  0
LINE
  5
204A
330
1F
100
AcDbEntity
  8
11000_Left
  6
LONG_DASH
 62
     7
370
    20
100
AcDbLine
 39
0.25
 10
972.3545532931105
 20
430.6477149002416
 30
0.0
 11
961.6535532931104
 21
430.6477149002416
 31
0.0
1001
AUSTER_ANSICHT
1002
{
1000
Det03
1002
}
1001
AUSTER_FOLIE
1002
{
1000
NSB00340_S0
1002
}
  0
LINE
  5
204B
330
1F
100
AcDbEntity
  8
11000_Left
  6
LONG_DASH
 62
     7
370
    20
100
AcDbLine
 39
0.25
 10
961.6535532931104
 20
435.8477149002419
 30
0.0
 11
961.6535532931104
 21
430.6477149002416
 31
0.0
1001
AUSTER_ANSICHT
1002
{
1000
Det03
1002
}
1001
AUSTER_FOLIE
1002
{
1000
NSB00340_S0
1002
}
  0
LINE
  5
204C
330
1F
100
AcDbEntity
  8
11000_Left
  6
LONG_DASH
 62
     7
370
    20
100
AcDbLine
 39
0.25
 10
964.5535532931104
 20
396.9477149002419
 30
0.0
 11
964.5535532931104
 21
392.7977149002419
 31
0.0
1001
AUSTER_ANSICHT
1002
{
1000
Det03
1002
}
1001
AUSTER_FOLIE
1002
{
1000
NSB00340_S0
1002
}
  0
LINE
  5
204D
330
1F
100
AcDbEntity
  8
11000_Left
  6
LONG_DASH
 62
     7
370
    20
100
AcDbLine
 39
0.25
 10
953.9535532931102
 20
397.6477149002419
 30
0.0
 11
963.8535532931102
 21
397.6477149002419
 31
0.0
1001
AUSTER_ANSICHT
1002
{
1000
Det03
1002
}
1001
AUSTER_FOLIE
1002
{
1000
NSB00340_S0
1002
}
  0
LINE
  5
204E
330
1F
100
AcDbEntity
  8
11000_Left
  6
LONG_DASH
 62
     7
370
    20
100
AcDbLine
 39
0.25
 10
953.0535532931104
 20
408.4477149002418
 30
0.0
 11
953.0535532931104
 21
398.5477149002419
 31
0.0
1001
AUSTER_ANSICHT
1002
{
1000
Det03
1002
}
1001
AUSTER_FOLIE
1002
{
1000
NSB00340_S0
1002
}
  0
LINE
  5
204F
330
1F
100
AcDbEntity
  8
11000_Left
  6
LONG_DASH
 62
     7
370
    20
100
AcDbLine
 39
0.25
 10
947.8535532931102
 20
409.1477149002419
 30
0.0
 11
952.3535532931102
 21
409.1477149002419
 31
0.0
1001
AUSTER_ANSICHT
1002
{
1000
Det03
1002
}
1001
AUSTER_FOLIE
1002
{
1000
NSB00340_S0
1002
}
  0
LINE
  5
2050
330
1F
100
AcDbEntity
  8
11000_Left
  6
LONG_DASH
 62
     7
370
    20
100
AcDbLine
 39
0.25
 10
946.9535532931104
 20
430.6477149002416
 30
0.0
 11
946.9535532931104
 21
410.0477149002418
 31
0.0
1001
AUSTER_ANSICHT
1002
{
1000
Det03
1002
}
1001
AUSTER_FOLIE
1002
{
1000
NSB00340_S0
1002
}
  0
LINE
  5
2051
330
1F
100
AcDbEntity
  8
11000_Left
  6
LONG_DASH
 62
     7
370
    20
100
AcDbLine
 39
0.25
 10
961.6535532931104
 20
430.6477149002416
 30
0.0
 11
957.4525532931104
 21
430.6477149002416
 31
0.0
1001
AUSTER_ANSICHT
1002
{
1000
Det03
1002
}
1001
AUSTER_FOLIE
1002
{
1000
NSB00340_S0
1002
}
  0
LINE
  5
2052
330
1F
100
AcDbEntity
  8
11000_Left
  6
LONG_DASH
 62
     7
370
    20
100
AcDbLine
 39
0.25
 10
980.4535532931105
 20
392.7977149002419
 30
0.0
 11
980.4535532931105
 21
433.6477149002418
 31
0.0
1001
AUSTER_ANSICHT
1002
{
1000
Det03
1002
}
1001
AUSTER_FOLIE
1002
{
1000
NSB00340_S0
1002
}
  0
LINE
  5
2053
330
1F
100
AcDbEntity
  8
11000_Left
  6
LONG_DASH
 62
     7
370
    20
100
AcDbLine
 39
0.25
 10
982.1515532931103
 20
392.7977149002419
 30
0.0
 11
964.5535532931104
 21
392.7977149002419
 31
0.0
1001
AUSTER_ANSICHT
1002
{
1000
Det03
1002
}
1001
AUSTER_FOLIE
1002
{
1000
NSB00340_S0
1002
}
  0
LINE
  5
2054
330
1F
100
AcDbEntity
  8
11000_Left
  6
LONG_DASH
 62
     7
370
    20
100
AcDbLine
 39
0.25
 10
988.8215532931104
 20
418.5477149002418
 30
0.0
 11
984.8475532931104
 21
418.5477149002418
 31
0.0
1001
AUSTER_ANSICHT
1002
{
1000
Det03
1002
}
1001
AUSTER_FOLIE
1002
{
1000
NSB00340_S0
1002
}
  0
LINE
  5
2055
330
1F
100
AcDbEntity
  8
11000_Left
  6
LONG_DASH
 62
     7
370
    20
100
AcDbLine
 39
0.25
 10
984.6125532931102
 20
412.7477149002419
 30
0.0
 11
988.8215532931104
 21
412.7477149002419
 31
0.0
1001
AUSTER_ANSICHT
1002
{
1000
Det03
1002
}
1001
AUSTER_FOLIE
1002
{
1000
NSB00340_S0
1002
}
  0
LINE
  5
2056
330
1F
100
AcDbEntity
  8
11000_Left
  6
DASHED
 62
     7
370
    20
100
AcDbLine
 39
0.25
 10
980.4535532931105
 20
445.2977149002418
 30
0.0
 11
983.5435532931104
 21
445.2977149002418
 31
0.0
1001
AUSTER_ANSICHT
1002
{
1000
Det03
1002
}
1001
AUSTER_FOLIE
1002
{
1000
NSB00340_S0
1002
}
  0
LINE
  5
2057
330
1F
100
AcDbEntity
  8
11000_Left
  6
LONG_DASH
 62
     7
370
    20
100
AcDbLine
 39
0.25
 10
981.9535532931102
 20
420.3477149002419
 30
0.0
 11
983.9535532931105
 21
420.3477149002419
 31
0.0
1001
AUSTER_ANSICHT
1002
{
1000
Det03
1002
}
1001
AUSTER_FOLIE
1002
{
1000
NSB00340_S0
1002
}
  0
LINE
  5
2058
330
1F
100
AcDbEntity
  8
11000_Left
  6
LONG_DASH
 62
     7
370
    20
100
AcDbLine
 39
0.25
 10
981.9535532931102
 20
418.3477149002419
 30
0.0
 11
981.9535532931102
 21
420.3477149002419
 31
0.0
1001
AUSTER_ANSICHT
1002
{
1000
Det03
1002
}
1001
AUSTER_FOLIE
1002
{
1000
NSB00340_S0
1002
}
  0
LINE
  5
2059
330
1F
100
AcDbEntity
  8
11000_Left
  6
LONG_DASH
 62
     7
370
    20
100
AcDbLine
 39
0.25
 10
983.9535532931105
 20
418.3477149002419
 30
0.0
 11
981.9535532931102
 21
418.3477149002419
 31
0.0
1001
AUSTER_ANSICHT
1002
{
1000
Det03
1002
}
1001
AUSTER_FOLIE
1002
{
1000
NSB00340_S0
1002
}
  0
LINE
  5
205A
330
1F
100
AcDbEntity
  8
11000_Left
  6
LONG_DASH
 62
     7
370
    20
100
AcDbLine
 39
0.25
 10
983.9535532931105
 20
420.3477149002419
 30
0.0
 11
983.9535532931105
 21
418.3477149002419
 31
0.0
1001
AUSTER_ANSICHT
1002
{
1000
Det03
1002
}
1001
AUSTER_FOLIE
1002
{
1000
NSB00340_S0
1002
}
  0
LINE
  5
205B
330
1F
100
AcDbEntity
  8
11000_Left
  6
DASHED
 62
     7
370
    20
100
AcDbLine
 39
0.25
 10
980.4535532931105
 20
445.2977149002418
 30
0.0
 11
980.4535532931105
 21
433.6477149002418
 31
0.0
1001
AUSTER_ANSICHT
1002
{
1000
Det03
1002
}
1001
AUSTER_FOLIE
1002
{
1000
NSB00340_S0
1002
}
  0
LINE
  5
205C
330
1F
100
AcDbEntity
  8
11000_Left
  6
LONG_DASH
 62
     7
370
    20
100
AcDbLine
 39
0.25
 10
905.1535532931103
 20
376.7977149002419
 30
0.0
 11
906.9535532931103
 21
376.7977149002419
 31
0.0
1001
AUSTER_ANSICHT
1002
{
1000
Det03
1002
}
1001
AUSTER_FOLIE
1002
{
1000
NSB00340_S0
1002
}
  0
LINE
  5
205D
330
1F
100
AcDbEntity
  8
11000_Left
  6
LONG_DASH
 62
     7
370
    20
100
AcDbLine
 39
0.25
 10
906.9535532931103
 20
376.7977149002419
 30
0.0
 11
906.9535532931103
 21
377.7977149002419
 31
0.0
1001
AUSTER_ANSICHT
1002
{
1000
Det03
1002
}
1001
AUSTER_FOLIE
1002
{
1000
NSB00340_S0
1002
}
  0
LINE
  5
205E
330
1F
100
AcDbEntity
  8
11000_Left
  6
LONG_DASH
 62
     7
370
    20
100
AcDbLine
 39
0.25
 10
905.1535532931103
 20
376.7977149002419
 30
0.0
 11
905.1535532931103
 21
377.3477149002419
 31
0.0
1001
AUSTER_ANSICHT
1002
{
1000
Det03
1002
}
1001
AUSTER_FOLIE
1002
{
1000
NSB00340_S0
1002
}
  0
LINE
  5
205F
330
1F
100
AcDbEntity
  8
11000_Left
  6
LONG_DASH
 62
     7
370
    20
100
AcDbLine
 39
0.25
 10
940.2605532931103
 20
376.3407149002419
 30
0.0
 11
938.8035532931104
 21
377.7977149002419
 31
0.0
1001
AUSTER_ANSICHT
1002
{
1000
Det03
1002
}
1001
AUSTER_FOLIE
1002
{
1000
NSB00340_S0
1002
}
  0
LINE
  5
2060
330
1F
100
AcDbEntity
  8
11000_Left
  6
LONG_DASH
 62
     7
370
    20
100
AcDbLine
 39
0.25
 10
963.7535532931103
 20
392.7977149002419
 30
0.0
 11
961.5535532931103
 21
392.7977149002419
 31
0.0
1001
AUSTER_ANSICHT
1002
{
1000
Det03
1002
}
1001
AUSTER_FOLIE
1002
{
1000
NSB00340_S0
1002
}
  0
LINE
  5
2061
330
1F
100
AcDbEntity
  8
11000_Left
  6
LONG_DASH
 62
     7
370
    20
100
AcDbLine
 39
0.25
 10
964.5535532931104
 20
392.7977149002419
 30
0.0
 11
963.7535532931103
 21
392.7977149002419
 31
0.0
1001
AUSTER_ANSICHT
1002
{
1000
Det03
1002
}
1001
AUSTER_FOLIE
1002
{
1000
NSB00340_S0
1002
}
  0
LINE
  5
2062
330
1F
100
AcDbEntity
  8
11000_Left
  6
LONG_DASH
 62
     7
370
    20
100
AcDbLine
 39
0.25
 10
960.7535532931104
 20
376.0477149002419
 30
0.0
 11
960.7535532931104
 21
391.997714900242
 31
0.0
1001
AUSTER_ANSICHT
1002
{
1000
Det03
1002
}
1001
AUSTER_FOLIE
1002
{
1000
NSB00340_S0
1002
}
  0
LINE
  5
2063
330
1F
100
AcDbEntity
  8
11000_Left
  6
LONG_DASH
 62
     7
370
    20
100
AcDbLine
 39
0.25
 10
962.2095532931105
 20
376.0477149002419
 30
0.0
 11
960.7535532931104
 21
376.0477149002419
 31
0.0
1001
AUSTER_ANSICHT
1002
{
1000
Det03
1002
}
1001
AUSTER_FOLIE
1002
{
1000
NSB00340_S0
1002
}
  0
LINE
  5
2064
330
1F
100
AcDbEntity
  8
11000_Left
  6
LONG_DASH
 62
     7
370
    20
100
AcDbLine
 39
0.25
 10
938.8035532931104
 20
377.7977149002419
 30
0.0
 11
905.1535532931103
 21
377.7977149002419
 31
0.0
1001
AUSTER_ANSICHT
1002
{
1000
Det03
1002
}
1001
AUSTER_FOLIE
1002
{
1000
NSB00340_S0
1002
}
  0
LINE
  5
2065
330
1F
100
AcDbEntity
  8
11000_Left
  6
LONG_DASH
 62
     7
370
    20
100
AcDbLine
 39
0.25
 10
960.7535532931104
 20
376.0477149002419
 30
0.0
 11
940.9675532931103
 21
376.0477149002419
 31
0.0
1001
AUSTER_ANSICHT
1002
{
1000
Det03
1002
}
1001
AUSTER_FOLIE
1002
{
1000
NSB00340_S0
1002
}
  0
LINE
  5
2066
330
1F
100
AcDbEntity
  8
10000_FRONT
  6
LONG_DASH
 62
     7
370
    13
100
AcDbLine
 39
0.25
 10
830.9540109545318
 20
455.8317149002419
 30
0.0
 11
830.9540109545318
 21
455.6517149002419
 31
0.0
1001
AUSTER_ANSICHT
1002
{
1000
Det03
1002
}
1001
AUSTER_FOLIE
1002
{
1000
NSB00340_S0
1002
}
  0
LINE
  5
2067
330
1F
100
AcDbEntity
  8
10000_FRONT
  6
LONG_DASH
 62
     7
370
    13
100
AcDbLine
 39
0.25
 10
830.9540109545318
 20
454.2627149002419
 30
0.0
 11
830.9540109545318
 21
454.4427149002417
 31
0.0
1001
AUSTER_ANSICHT
1002
{
1000
Det03
1002
}
1001
AUSTER_FOLIE
1002
{
1000
NSB00340_S0
1002
}
  0
LINE
  5
2068
330
1F
100
AcDbEntity
  8
10000_FRONT
  6
LONG_DASH
 62
     7
370
    13
100
AcDbLine
 39
0.25
 10
831.9840109545317
 20
455.8317149002419
 30
0.0
 11
831.9840109545317
 21
455.6517149002419
 31
0.0
1001
AUSTER_ANSICHT
1002
{
1000
Det03
1002
}
1001
AUSTER_FOLIE
1002
{
1000
NSB00340_S0
1002
}
  0
LINE
  5
2069
330
1F
100
AcDbEntity
  8
10000_FRONT
  6
LONG_DASH
 62
     7
370
    13
100
AcDbLine
 39
0.25
 10
831.9840109545317
 20
454.2627149002419
 30
0.0
 11
831.9840109545317
 21
454.4427149002417
 31
0.0
1001
AUSTER_ANSICHT
1002
{
1000
Det03
1002
}
1001
AUSTER_FOLIE
1002
{
1000
NSB00340_S0
1002
}
  0
LINE
  5
206A
330
1F
100
AcDbEntity
  8
10000_FRONT
  6
LONG_DASH
 62
     7
370
    13
100
AcDbLine
 39
0.25
 10
830.9540109545318
 20
455.8317149002419
 30
0.0
 11
830.9540109545318
 21
456.8247149002419
 31
0.0
1001
AUSTER_ANSICHT
1002
{
1000
Det03
1002
}
1001
AUSTER_FOLIE
1002
{
1000
NSB00340_S0
1002
}
  0
LINE
  5
206B
330
1F
100
AcDbEntity
  8
10000_FRONT
  6
LONG_DASH
 62
     7
370
    13
100
AcDbLine
 39
0.25
 10
831.9840109545317
 20
456.8247149002419
 30
0.0
 11
831.9840109545317
 21
455.8317149002419
 31
0.0
1001
AUSTER_ANSICHT
1002
{
1000
Det03
1002
}
1001
AUSTER_FOLIE
1002
{
1000
NSB00340_S0
1002
}
  0
LINE
  5
206C
330
1F
100
AcDbEntity
  8
10000_FRONT
  6
LONG_DASH
 62
     7
370
    13
100
AcDbLine
 39
0.25
 10
831.9840109545317
 20
454.2627149002419
 30
0.0
 11
831.9840109545317
 21
453.2707149002419
 31
0.0
1001
AUSTER_ANSICHT
1002
{
1000
Det03
1002
}
1001
AUSTER_FOLIE
1002
{
1000
NSB00340_S0
1002
}
  0
LINE
  5
206D
330
1F
100
AcDbEntity
  8
10000_FRONT
  6
LONG_DASH
 62
     7
370
    13
100
AcDbLine
 39
0.25
 10
830.9540109545318
 20
453.2707149002419
 30
0.0
 11
830.9540109545318
 21
454.2627149002419
 31
0.0
1001
AUSTER_ANSICHT
1002
{
1000
Det03
1002
}
1001
AUSTER_FOLIE
1002
{
1000
NSB00340_S0
1002
}
  0
LINE
  5
206E
330
1F
100
AcDbEntity
  8
10000_FRONT
  6
LONG_DASH
 62
     7
370
    13
100
AcDbLine
 39
0.25
 10
830.9540109545318
 20
454.4427149002417
 30
0.0
 11
828.6830109545318
 21
454.4427149002417
 31
0.0
1001
AUSTER_ANSICHT
1002
{
1000
Det03
1002
}
1001
AUSTER_FOLIE
1002
{
1000
NSB00340_S0
1002
}
  0
LINE
  5
206F
330
1F
100
AcDbEntity
  8
10000_FRONT
  6
LONG_DASH
 62
     7
370
    13
100
AcDbLine
 39
0.25
 10
834.2540109545318
 20
454.4427149002417
 30
0.0
 11
831.9840109545317
 21
454.4427149002417
 31
0.0
1001
AUSTER_ANSICHT
1002
{
1000
Det03
1002
}
1001
AUSTER_FOLIE
1002
{
1000
NSB00340_S0
1002
}
  0
LINE
  5
2070
330
1F
100
AcDbEntity
  8
10000_FRONT
  6
LONG_DASH
 62
     7
370
    13
100
AcDbLine
 39
0.25
 10
831.9840109545317
 20
455.6517149002419
 30
0.0
 11
834.2540109545318
 21
455.6517149002419
 31
0.0
1001
AUSTER_ANSICHT
1002
{
1000
Det03
1002
}
1001
AUSTER_FOLIE
1002
{
1000
NSB00340_S0
1002
}
  0
LINE
  5
2071
330
1F
100
AcDbEntity
  8
10000_FRONT
  6
LONG_DASH
 62
     7
370
    13
100
AcDbLine
 39
0.25
 10
828.6830109545318
 20
455.6517149002419
 30
0.0
 11
830.9540109545318
 21
455.6517149002419
 31
0.0
1001
AUSTER_ANSICHT
1002
{
1000
Det03
1002
}
1001
AUSTER_FOLIE
1002
{
1000
NSB00340_S0
1002
}
  0
LINE
  5
2072
330
1F
100
AcDbEntity
  8
10000_FRONT
  6
LONG_DASH
 62
     7
370
    13
100
AcDbLine
 39
0.25
 10
845.3540109545317
 20
455.8317149002419
 30
0.0
 11
845.3540109545317
 21
455.6517149002419
 31
0.0
1001
AUSTER_ANSICHT
1002
{
1000
Det03
1002
}
1001
AUSTER_FOLIE
1002
{
1000
NSB00340_S0
1002
}
  0
LINE
  5
2073
330
1F
100
AcDbEntity
  8
10000_FRONT
  6
LONG_DASH
 62
     7
370
    13
100
AcDbLine
 39
0.25
 10
845.3540109545317
 20
454.2627149002419
 30
0.0
 11
845.3540109545317
 21
454.4427149002417
 31
0.0
1001
AUSTER_ANSICHT
1002
{
1000
Det03
1002
}
1001
AUSTER_FOLIE
1002
{
1000
NSB00340_S0
1002
}
  0
LINE
  5
2074
330
1F
100
AcDbEntity
  8
10000_FRONT
  6
LONG_DASH
 62
     7
370
    13
100
AcDbLine
 39
0.25
 10
846.3840109545317
 20
455.8317149002419
 30
0.0
 11
846.3840109545317
 21
455.6517149002419
 31
0.0
1001
AUSTER_ANSICHT
1002
{
1000
Det03
1002
}
1001
AUSTER_FOLIE
1002
{
1000
NSB00340_S0
1002
}
  0
LINE
  5
2075
330
1F
100
AcDbEntity
  8
10000_FRONT
  6
LONG_DASH
 62
     7
370
    13
100
AcDbLine
 39
0.25
 10
846.3840109545317
 20
454.2627149002419
 30
0.0
 11
846.3840109545317
 21
454.4427149002417
 31
0.0
1001
AUSTER_ANSICHT
1002
{
1000
Det03
1002
}
1001
AUSTER_FOLIE
1002
{
1000
NSB00340_S0
1002
}
  0
LINE
  5
2076
330
1F
100
AcDbEntity
  8
10000_FRONT
  6
LONG_DASH
 62
     7
370
    13
100
AcDbLine
 39
0.25
 10
845.3540109545317
 20
455.8317149002419
 30
0.0
 11
845.3540109545317
 21
456.8247149002419
 31
0.0
1001
AUSTER_ANSICHT
1002
{
1000
Det03
1002
}
1001
AUSTER_FOLIE
1002
{
1000
NSB00340_S0
1002
}
  0
LINE
  5
2077
330
1F
100
AcDbEntity
  8
10000_FRONT
  6
LONG_DASH
 62
     7
370
    13
100
AcDbLine
 39
0.25
 10
846.3840109545317
 20
456.8247149002419
 30
0.0
 11
846.3840109545317
 21
455.8317149002419
 31
0.0
1001
AUSTER_ANSICHT
1002
{
1000
Det03
1002
}
1001
AUSTER_FOLIE
1002
{
1000
NSB00340_S0
1002
}
  0
LINE
  5
2078
330
1F
100
AcDbEntity
  8
10000_FRONT
  6
LONG_DASH
 62
     7
370
    13
100
AcDbLine
 39
0.25
 10
846.3840109545317
 20
454.2627149002419
 30
0.0
 11
846.3840109545317
 21
453.2707149002419
 31
0.0
1001
AUSTER_ANSICHT
1002
{
1000
Det03
1002
}
1001
AUSTER_FOLIE
1002
{
1000
NSB00340_S0
1002
}
  0
LINE
  5
2079
330
1F
100
AcDbEntity
  8
10000_FRONT
  6
LONG_DASH
 62
     7
370
    13
100
AcDbLine
 39
0.25
 10
845.3540109545317
 20
453.2707149002419
 30
0.0
 11
845.3540109545317
 21
454.2627149002419
 31
0.0
1001
AUSTER_ANSICHT
1002
{
1000
Det03
1002
}
1001
AUSTER_FOLIE
1002
{
1000
NSB00340_S0
1002
}
  0
LINE
  5
207A
330
1F
100
AcDbEntity
  8
10000_FRONT
  6
LONG_DASH
 62
     7
370
    13
100
AcDbLine
 39
0.25
 10
845.3540109545317
 20
454.4427149002417
 30
0.0
 11
843.0830109545318
 21
454.4427149002417
 31
0.0
1001
AUSTER_ANSICHT
1002
{
1000
Det03
1002
}
1001
AUSTER_FOLIE
1002
{
1000
NSB00340_S0
1002
}
  0
LINE
  5
207B
330
1F
100
AcDbEntity
  8
10000_FRONT
  6
LONG_DASH
 62
     7
370
    13
100
AcDbLine
 39
0.25
 10
848.6540109545316
 20
454.4427149002417
 30
0.0
 11
846.3840109545317
 21
454.4427149002417
 31
0.0
1001
AUSTER_ANSICHT
1002
{
1000
Det03
1002
}
1001
AUSTER_FOLIE
1002
{
1000
NSB00340_S0
1002
}
  0
LINE
  5
207C
330
1F
100
AcDbEntity
  8
10000_FRONT
  6
LONG_DASH
 62
     7
370
    13
100
AcDbLine
 39
0.25
 10
846.3840109545317
 20
455.6517149002419
 30
0.0
 11
848.6540109545316
 21
455.6517149002419
 31
0.0
1001
AUSTER_ANSICHT
1002
{
1000
Det03
1002
}
1001
AUSTER_FOLIE
1002
{
1000
NSB00340_S0
1002
}
  0
LINE
  5
207D
330
1F
100
AcDbEntity
  8
10000_FRONT
  6
LONG_DASH
 62
     7
370
    13
100
AcDbLine
 39
0.25
 10
843.0830109545318
 20
455.6517149002419
 30
0.0
 11
845.3540109545317
 21
455.6517149002419
 31
0.0
1001
AUSTER_ANSICHT
1002
{
1000
Det03
1002
}
1001
AUSTER_FOLIE
1002
{
1000
NSB00340_S0
1002
}
  0
LINE
  5
207E
330
1F
100
AcDbEntity
  8
10000_FRONT
  6
LONG_DASH
 62
     7
370
    13
100
AcDbLine
 39
0.25
 10
859.7540109545317
 20
455.8317149002419
 30
0.0
 11
859.7540109545317
 21
455.6517149002419
 31
0.0
1001
AUSTER_ANSICHT
1002
{
1000
Det03
1002
}
1001
AUSTER_FOLIE
1002
{
1000
NSB00340_S0
1002
}
  0
LINE
  5
207F
330
1F
100
AcDbEntity
  8
10000_FRONT
  6
LONG_DASH
 62
     7
370
    13
100
AcDbLine
 39
0.25
 10
859.7540109545317
 20
454.2627149002419
 30
0.0
 11
859.7540109545317
 21
454.4427149002417
 31
0.0
1001
AUSTER_ANSICHT
1002
{
1000
Det03
1002
}
1001
AUSTER_FOLIE
1002
{
1000
NSB00340_S0
1002
}
  0
LINE
  5
2080
330
1F
100
AcDbEntity
  8
10000_FRONT
  6
LONG_DASH
 62
     7
370
    13
100
AcDbLine
 39
0.25
 10
860.7840109545318
 20
455.8317149002419
 30
0.0
 11
860.7840109545318
 21
455.6517149002419
 31
0.0
1001
AUSTER_ANSICHT
1002
{
1000
Det03
1002
}
1001
AUSTER_FOLIE
1002
{
1000
NSB00340_S0
1002
}
  0
LINE
  5
2081
330
1F
100
AcDbEntity
  8
10000_FRONT
  6
LONG_DASH
 62
     7
370
    13
100
AcDbLine
 39
0.25
 10
860.7840109545318
 20
454.2627149002419
 30
0.0
 11
860.7840109545318
 21
454.4427149002417
 31
0.0
1001
AUSTER_ANSICHT
1002
{
1000
Det03
1002
}
1001
AUSTER_FOLIE
1002
{
1000
NSB00340_S0
1002
}
  0
LINE
  5
2082
330
1F
100
AcDbEntity
  8
10000_FRONT
  6
LONG_DASH
 62
     7
370
    13
100
AcDbLine
 39
0.25
 10
859.7540109545317
 20
455.8317149002419
 30
0.0
 11
859.7540109545317
 21
456.8247149002419
 31
0.0
1001
AUSTER_ANSICHT
1002
{
1000
Det03
1002
}
1001
AUSTER_FOLIE
1002
{
1000
NSB00340_S0
1002
}
  0
LINE
  5
2083
330
1F
100
AcDbEntity
  8
10000_FRONT
  6
LONG_DASH
 62
     7
370
    13
100
AcDbLine
 39
0.25
 10
860.7840109545318
 20
456.8247149002419
 30
0.0
 11
860.7840109545318
 21
455.8317149002419
 31
0.0
1001
AUSTER_ANSICHT
1002
{
1000
Det03
1002
}
1001
AUSTER_FOLIE
1002
{
1000
NSB00340_S0
1002
}
  0
LINE
  5
2084
330
1F
100
AcDbEntity
  8
10000_FRONT
  6
LONG_DASH
 62
     7
370
    13
100
AcDbLine
 39
0.25
 10
860.7840109545318
 20
454.2627149002419
 30
0.0
 11
860.7840109545318
 21
453.2707149002419
 31
0.0
1001
AUSTER_ANSICHT
1002
{
1000
Det03
1002
}
1001
AUSTER_FOLIE
1002
{
1000
NSB00340_S0
1002
}
  0
LINE
  5
2085
330
1F
100
AcDbEntity
  8
10000_FRONT
  6
LONG_DASH
 62
     7
370
    13
100
AcDbLine
 39
0.25
 10
859.7540109545317
 20
453.2707149002419
 30
0.0
 11
859.7540109545317
 21
454.2627149002419
 31
0.0
1001
AUSTER_ANSICHT
1002
{
1000
Det03
1002
}
1001
AUSTER_FOLIE
1002
{
1000
NSB00340_S0
1002
}
  0
LINE
  5
2086
330
1F
100
AcDbEntity
  8
10000_FRONT
  6
LONG_DASH
 62
     7
370
    13
100
AcDbLine
 39
0.25
 10
859.7540109545317
 20
454.4427149002417
 30
0.0
 11
857.4830109545317
 21
454.4427149002417
 31
0.0
1001
AUSTER_ANSICHT
1002
{
1000
Det03
1002
}
1001
AUSTER_FOLIE
1002
{
1000
NSB00340_S0
1002
}
  0
LINE
  5
2087
330
1F
100
AcDbEntity
  8
10000_FRONT
  6
LONG_DASH
 62
     7
370
    13
100
AcDbLine
 39
0.25
 10
863.0540109545318
 20
454.4427149002417
 30
0.0
 11
860.7840109545318
 21
454.4427149002417
 31
0.0
1001
AUSTER_ANSICHT
1002
{
1000
Det03
1002
}
1001
AUSTER_FOLIE
1002
{
1000
NSB00340_S0
1002
}
  0
LINE
  5
2088
330
1F
100
AcDbEntity
  8
10000_FRONT
  6
LONG_DASH
 62
     7
370
    13
100
AcDbLine
 39
0.25
 10
860.7840109545318
 20
455.6517149002419
 30
0.0
 11
863.0540109545318
 21
455.6517149002419
 31
0.0
1001
AUSTER_ANSICHT
1002
{
1000
Det03
1002
}
1001
AUSTER_FOLIE
1002
{
1000
NSB00340_S0
1002
}
  0
LINE
  5
2089
330
1F
100
AcDbEntity
  8
10000_FRONT
  6
LONG_DASH
 62
     7
370
    13
100
AcDbLine
 39
0.25
 10
857.4830109545317
 20
455.6517149002419
 30
0.0
 11
859.7540109545317
 21
455.6517149002419
 31
0.0
1001
AUSTER_ANSICHT
1002
{
1000
Det03
1002
}
1001
AUSTER_FOLIE
1002
{
1000
NSB00340_S0
1002
}
  0
LINE
  5
208A
330
1F
100
AcDbEntity
  8
10000_FRONT
  6
LONG_DASH
 62
     7
370
    13
100
AcDbLine
 39
0.25
 10
858.3190109545318
 20
375.8477149002419
 30
0.0
 11
858.3190109545318
 21
376.0977149002419
 31
0.0
1001
AUSTER_ANSICHT
1002
{
1000
Det03
1002
}
1001
AUSTER_FOLIE
1002
{
1000
NSB00340_S0
1002
}
  0
LINE
  5
208B
330
1F
100
AcDbEntity
  8
10000_FRONT
  6
LONG_DASH
 62
     7
370
    13
100
AcDbLine
 39
0.25
 10
853.6690109545316
 20
374.3477149002419
 30
0.0
 11
853.6690109545316
 21
376.0977149002419
 31
0.0
1001
AUSTER_ANSICHT
1002
{
1000
Det03
1002
}
1001
AUSTER_FOLIE
1002
{
1000
NSB00340_S0
1002
}
  0
LINE
  5
208C
330
1F
100
AcDbEntity
  8
10000_FRONT
  6
LONG_DASH
 62
     7
370
    13
100
AcDbLine
 39
0.25
 10
838.0690109545318
 20
374.3477149002419
 30
0.0
 11
838.0690109545318
 21
376.0977149002419
 31
0.0
1001
AUSTER_ANSICHT
1002
{
1000
Det03
1002
}
1001
AUSTER_FOLIE
1002
{
1000
NSB00340_S0
1002
}
  0
LINE
  5
208D
330
1F
100
AcDbEntity
  8
10000_FRONT
  6
LONG_DASH
 62
     7
370
    13
100
AcDbLine
 39
0.25
 10
833.4190109545318
 20
375.8477149002419
 30
0.0
 11
833.4190109545318
 21
376.0977149002419
 31
0.0
1001
AUSTER_ANSICHT
1002
{
1000
Det03
1002
}
1001
AUSTER_FOLIE
1002
{
1000
NSB00340_S0
1002
}
  0
LINE
  5
208E
330
1F
100
AcDbEntity
  8
10000_FRONT
  6
LONG_DASH
 62
     7
370
    13
100
AcDbLine
 39
0.25
 10
830.9540109545318
 20
386.1137149002419
 30
0.0
 11
830.9540109545318
 21
386.2937149002418
 31
0.0
1001
AUSTER_ANSICHT
1002
{
1000
Det03
1002
}
1001
AUSTER_FOLIE
1002
{
1000
NSB00340_S0
1002
}
  0
LINE
  5
208F
330
1F
100
AcDbEntity
  8
10000_FRONT
  6
LONG_DASH
 62
     7
370
    13
100
AcDbLine
 39
0.25
 10
830.9540109545318
 20
387.6827149002419
 30
0.0
 11
830.9540109545318
 21
387.502714900242
 31
0.0
1001
AUSTER_ANSICHT
1002
{
1000
Det03
1002
}
1001
AUSTER_FOLIE
1002
{
1000
NSB00340_S0
1002
}
  0
LINE
  5
2090
330
1F
100
AcDbEntity
  8
10000_FRONT
  6
LONG_DASH
 62
     7
370
    13
100
AcDbLine
 39
0.25
 10
831.9840109545317
 20
386.1137149002419
 30
0.0
 11
831.9840109545317
 21
386.2937149002418
 31
0.0
1001
AUSTER_ANSICHT
1002
{
1000
Det03
1002
}
1001
AUSTER_FOLIE
1002
{
1000
NSB00340_S0
1002
}
  0
LINE
  5
2091
330
1F
100
AcDbEntity
  8
10000_FRONT
  6
LONG_DASH
 62
     7
370
    13
100
AcDbLine
 39
0.25
 10
831.9840109545317
 20
387.6827149002419
 30
0.0
 11
831.9840109545317
 21
387.502714900242
 31
0.0
1001
AUSTER_ANSICHT
1002
{
1000
Det03
1002
}
1001
AUSTER_FOLIE
1002
{
1000
NSB00340_S0
1002
}
  0
LINE
  5
2092
330
1F
100
AcDbEntity
  8
10000_FRONT
  6
LONG_DASH
 62
     7
370
    13
100
AcDbLine
 39
0.25
 10
830.9540109545318
 20
386.1137149002419
 30
0.0
 11
830.9540109545318
 21
385.1217149002419
 31
0.0
1001
AUSTER_ANSICHT
1002
{
1000
Det03
1002
}
1001
AUSTER_FOLIE
1002
{
1000
NSB00340_S0
1002
}
  0
LINE
  5
2093
330
1F
100
AcDbEntity
  8
10000_FRONT
  6
LONG_DASH
 62
     7
370
    13
100
AcDbLine
 39
0.25
 10
831.9840109545317
 20
385.1217149002419
 30
0.0
 11
831.9840109545317
 21
386.1137149002419
 31
0.0
1001
AUSTER_ANSICHT
1002
{
1000
Det03
1002
}
1001
AUSTER_FOLIE
1002
{
1000
NSB00340_S0
1002
}
  0
LINE
  5
2094
330
1F
100
AcDbEntity
  8
10000_FRONT
  6
LONG_DASH
 62
     7
370
    13
100
AcDbLine
 39
0.25
 10
831.9840109545317
 20
387.6827149002419
 30
0.0
 11
831.9840109545317
 21
388.6747149002417
 31
0.0
1001
AUSTER_ANSICHT
1002
{
1000
Det03
1002
}
1001
AUSTER_FOLIE
1002
{
1000
NSB00340_S0
1002
}
  0
LINE
  5
2095
330
1F
100
AcDbEntity
  8
10000_FRONT
  6
LONG_DASH
 62
     7
370
    13
100
AcDbLine
 39
0.25
 10
830.9540109545318
 20
388.6747149002417
 30
0.0
 11
830.9540109545318
 21
387.6827149002419
 31
0.0
1001
AUSTER_ANSICHT
1002
{
1000
Det03
1002
}
1001
AUSTER_FOLIE
1002
{
1000
NSB00340_S0
1002
}
  0
LINE
  5
2096
330
1F
100
AcDbEntity
  8
10000_FRONT
  6
LONG_DASH
 62
     7
370
    13
100
AcDbLine
 39
0.25
 10
830.9540109545318
 20
387.502714900242
 30
0.0
 11
828.6830109545318
 21
387.502714900242
 31
0.0
1001
AUSTER_ANSICHT
1002
{
1000
Det03
1002
}
1001
AUSTER_FOLIE
1002
{
1000
NSB00340_S0
1002
}
  0
LINE
  5
2097
330
1F
100
AcDbEntity
  8
10000_FRONT
  6
LONG_DASH
 62
     7
370
    13
100
AcDbLine
 39
0.25
 10
834.2540109545318
 20
387.502714900242
 30
0.0
 11
831.9840109545317
 21
387.502714900242
 31
0.0
1001
AUSTER_ANSICHT
1002
{
1000
Det03
1002
}
1001
AUSTER_FOLIE
1002
{
1000
NSB00340_S0
1002
}
  0
LINE
  5
2098
330
1F
100
AcDbEntity
  8
10000_FRONT
  6
LONG_DASH
 62
     7
370
    13
100
AcDbLine
 39
0.25
 10
831.9840109545317
 20
386.2937149002418
 30
0.0
 11
834.2540109545318
 21
386.2937149002418
 31
0.0
1001
AUSTER_ANSICHT
1002
{
1000
Det03
1002
}
1001
AUSTER_FOLIE
1002
{
1000
NSB00340_S0
1002
}
  0
LINE
  5
2099
330
1F
100
AcDbEntity
  8
10000_FRONT
  6
LONG_DASH
 62
     7
370
    13
100
AcDbLine
 39
0.25
 10
828.6830109545318
 20
386.2937149002418
 30
0.0
 11
830.9540109545318
 21
386.2937149002418
 31
0.0
1001
AUSTER_ANSICHT
1002
{
1000
Det03
1002
}
1001
AUSTER_FOLIE
1002
{
1000
NSB00340_S0
1002
}
  0
LINE
  5
209A
330
1F
100
AcDbEntity
  8
10000_FRONT
  6
LONG_DASH
 62
     7
370
    13
100
AcDbLine
 39
0.25
 10
845.3540109545317
 20
386.1137149002419
 30
0.0
 11
845.3540109545317
 21
386.2937149002418
 31
0.0
1001
AUSTER_ANSICHT
1002
{
1000
Det03
1002
}
1001
AUSTER_FOLIE
1002
{
1000
NSB00340_S0
1002
}
  0
LINE
  5
209B
330
1F
100
AcDbEntity
  8
10000_FRONT
  6
LONG_DASH
 62
     7
370
    13
100
AcDbLine
 39
0.25
 10
845.3540109545317
 20
387.6827149002419
 30
0.0
 11
845.3540109545317
 21
387.502714900242
 31
0.0
1001
AUSTER_ANSICHT
1002
{
1000
Det03
1002
}
1001
AUSTER_FOLIE
1002
{
1000
NSB00340_S0
1002
}
  0
LINE
  5
209C
330
1F
100
AcDbEntity
  8
10000_FRONT
  6
LONG_DASH
 62
     7
370
    13
100
AcDbLine
 39
0.25
 10
846.3840109545317
 20
386.1137149002419
 30
0.0
 11
846.3840109545317
 21
386.2937149002418
 31
0.0
1001
AUSTER_ANSICHT
1002
{
1000
Det03
1002
}
1001
AUSTER_FOLIE
1002
{
1000
NSB00340_S0
1002
}
  0
LINE
  5
209D
330
1F
100
AcDbEntity
  8
10000_FRONT
  6
LONG_DASH
 62
     7
370
    13
100
AcDbLine
 39
0.25
 10
846.3840109545317
 20
387.6827149002419
 30
0.0
 11
846.3840109545317
 21
387.502714900242
 31
0.0
1001
AUSTER_ANSICHT
1002
{
1000
Det03
1002
}
1001
AUSTER_FOLIE
1002
{
1000
NSB00340_S0
1002
}
  0
LINE
  5
209E
330
1F
100
AcDbEntity
  8
10000_FRONT
  6
LONG_DASH
 62
     7
370
    13
100
AcDbLine
 39
0.25
 10
845.3540109545317
 20
386.1137149002419
 30
0.0
 11
845.3540109545317
 21
385.1217149002419
 31
0.0
1001
AUSTER_ANSICHT
1002
{
1000
Det03
1002
}
1001
AUSTER_FOLIE
1002
{
1000
NSB00340_S0
1002
}
  0
LINE
  5
209F
330
1F
100
AcDbEntity
  8
10000_FRONT
  6
LONG_DASH
 62
     7
370
    13
100
AcDbLine
 39
0.25
 10
846.3840109545317
 20
385.1217149002419
 30
0.0
 11
846.3840109545317
 21
386.1137149002419
 31
0.0
1001
AUSTER_ANSICHT
1002
{
1000
Det03
1002
}
1001
AUSTER_FOLIE
1002
{
1000
NSB00340_S0
1002
}
  0
LINE
  5
20A0
330
1F
100
AcDbEntity
  8
10000_FRONT
  6
LONG_DASH
 62
     7
370
    13
100
AcDbLine
 39
0.25
 10
846.3840109545317
 20
387.6827149002419
 30
0.0
 11
846.3840109545317
 21
388.6747149002417
 31
0.0
1001
AUSTER_ANSICHT
1002
{
1000
Det03
1002
}
1001
AUSTER_FOLIE
1002
{
1000
NSB00340_S0
1002
}
  0
LINE
  5
20A1
330
1F
100
AcDbEntity
  8
10000_FRONT
  6
LONG_DASH
 62
     7
370
    13
100
AcDbLine
 39
0.25
 10
845.3540109545317
 20
388.6747149002417
 30
0.0
 11
845.3540109545317
 21
387.6827149002419
 31
0.0
1001
AUSTER_ANSICHT
1002
{
1000
Det03
1002
}
1001
AUSTER_FOLIE
1002
{
1000
NSB00340_S0
1002
}
  0
LINE
  5
20A2
330
1F
100
AcDbEntity
  8
10000_FRONT
  6
LONG_DASH
 62
     7
370
    13
100
AcDbLine
 39
0.25
 10
845.3540109545317
 20
387.502714900242
 30
0.0
 11
843.0830109545318
 21
387.502714900242
 31
0.0
1001
AUSTER_ANSICHT
1002
{
1000
Det03
1002
}
1001
AUSTER_FOLIE
1002
{
1000
NSB00340_S0
1002
}
  0
LINE
  5
20A3
330
1F
100
AcDbEntity
  8
10000_FRONT
  6
LONG_DASH
 62
     7
370
    13
100
AcDbLine
 39
0.25
 10
848.6540109545316
 20
387.502714900242
 30
0.0
 11
846.3840109545317
 21
387.502714900242
 31
0.0
1001
AUSTER_ANSICHT
1002
{
1000
Det03
1002
}
1001
AUSTER_FOLIE
1002
{
1000
NSB00340_S0
1002
}
  0
LINE
  5
20A4
330
1F
100
AcDbEntity
  8
10000_FRONT
  6
LONG_DASH
 62
     7
370
    13
100
AcDbLine
 39
0.25
 10
846.3840109545317
 20
386.2937149002418
 30
0.0
 11
848.6540109545316
 21
386.2937149002418
 31
0.0
1001
AUSTER_ANSICHT
1002
{
1000
Det03
1002
}
1001
AUSTER_FOLIE
1002
{
1000
NSB00340_S0
1002
}
  0
LINE
  5
20A5
330
1F
100
AcDbEntity
  8
10000_FRONT
  6
LONG_DASH
 62
     7
370
    13
100
AcDbLine
 39
0.25
 10
843.0830109545318
 20
386.2937149002418
 30
0.0
 11
845.3540109545317
 21
386.2937149002418
 31
0.0
1001
AUSTER_ANSICHT
1002
{
1000
Det03
1002
}
1001
AUSTER_FOLIE
1002
{
1000
NSB00340_S0
1002
}
  0
LINE
  5
20A6
330
1F
100
AcDbEntity
  8
10000_FRONT
  6
LONG_DASH
 62
     7
370
    13
100
AcDbLine
 39
0.25
 10
859.7540109545317
 20
386.1137149002419
 30
0.0
 11
859.7540109545317
 21
386.2937149002418
 31
0.0
1001
AUSTER_ANSICHT
1002
{
1000
Det03
1002
}
1001
AUSTER_FOLIE
1002
{
1000
NSB00340_S0
1002
}
  0
LINE
  5
20A7
330
1F
100
AcDbEntity
  8
10000_FRONT
  6
LONG_DASH
 62
     7
370
    13
100
AcDbLine
 39
0.25
 10
859.7540109545317
 20
387.6827149002419
 30
0.0
 11
859.7540109545317
 21
387.502714900242
 31
0.0
1001
AUSTER_ANSICHT
1002
{
1000
Det03
1002
}
1001
AUSTER_FOLIE
1002
{
1000
NSB00340_S0
1002
}
  0
LINE
  5
20A8
330
1F
100
AcDbEntity
  8
10000_FRONT
  6
LONG_DASH
 62
     7
370
    13
100
AcDbLine
 39
0.25
 10
860.7840109545318
 20
386.1137149002419
 30
0.0
 11
860.7840109545318
 21
386.2937149002418
 31
0.0
1001
AUSTER_ANSICHT
1002
{
1000
Det03
1002
}
1001
AUSTER_FOLIE
1002
{
1000
NSB00340_S0
1002
}
  0
LINE
  5
20A9
330
1F
100
AcDbEntity
  8
10000_FRONT
  6
LONG_DASH
 62
     7
370
    13
100
AcDbLine
 39
0.25
 10
860.7840109545318
 20
387.6827149002419
 30
0.0
 11
860.7840109545318
 21
387.502714900242
 31
0.0
1001
AUSTER_ANSICHT
1002
{
1000
Det03
1002
}
1001
AUSTER_FOLIE
1002
{
1000
NSB00340_S0
1002
}
  0
LINE
  5
20AA
330
1F
100
AcDbEntity
  8
10000_FRONT
  6
LONG_DASH
 62
     7
370
    13
100
AcDbLine
 39
0.25
 10
859.7540109545317
 20
386.1137149002419
 30
0.0
 11
859.7540109545317
 21
385.1217149002419
 31
0.0
1001
AUSTER_ANSICHT
1002
{
1000
Det03
1002
}
1001
AUSTER_FOLIE
1002
{
1000
NSB00340_S0
1002
}
  0
LINE
  5
20AB
330
1F
100
AcDbEntity
  8
10000_FRONT
  6
LONG_DASH
 62
     7
370
    13
100
AcDbLine
 39
0.25
 10
860.7840109545318
 20
385.1217149002419
 30
0.0
 11
860.7840109545318
 21
386.1137149002419
 31
0.0
1001
AUSTER_ANSICHT
1002
{
1000
Det03
1002
}
1001
AUSTER_FOLIE
1002
{
1000
NSB00340_S0
1002
}
  0
LINE
  5
20AC
330
1F
100
AcDbEntity
  8
10000_FRONT
  6
LONG_DASH
 62
     7
370
    13
100
AcDbLine
 39
0.25
 10
860.7840109545318
 20
387.6827149002419
 30
0.0
 11
860.7840109545318
 21
388.6747149002417
 31
0.0
1001
AUSTER_ANSICHT
1002
{
1000
Det03
1002
}
1001
AUSTER_FOLIE
1002
{
1000
NSB00340_S0
1002
}
  0
LINE
  5
20AD
330
1F
100
AcDbEntity
  8
10000_FRONT
  6
LONG_DASH
 62
     7
370
    13
100
AcDbLine
 39
0.25
 10
859.7540109545317
 20
388.6747149002417
 30
0.0
 11
859.7540109545317
 21
387.6827149002419
 31
0.0
1001
AUSTER_ANSICHT
1002
{
1000
Det03
1002
}
1001
AUSTER_FOLIE
1002
{
1000
NSB00340_S0
1002
}
  0
LINE
  5
20AE
330
1F
100
AcDbEntity
  8
10000_FRONT
  6
LONG_DASH
 62
     7
370
    13
100
AcDbLine
 39
0.25
 10
859.7540109545317
 20
387.502714900242
 30
0.0
 11
857.4830109545317
 21
387.502714900242
 31
0.0
1001
AUSTER_ANSICHT
1002
{
1000
Det03
1002
}
1001
AUSTER_FOLIE
1002
{
1000
NSB00340_S0
1002
}
  0
LINE
  5
20AF
330
1F
100
AcDbEntity
  8
10000_FRONT
  6
LONG_DASH
 62
     7
370
    13
100
AcDbLine
 39
0.25
 10
863.0540109545318
 20
387.502714900242
 30
0.0
 11
860.7840109545318
 21
387.502714900242
 31
0.0
1001
AUSTER_ANSICHT
1002
{
1000
Det03
1002
}
1001
AUSTER_FOLIE
1002
{
1000
NSB00340_S0
1002
}
  0
LINE
  5
20B0
330
1F
100
AcDbEntity
  8
10000_FRONT
  6
LONG_DASH
 62
     7
370
    13
100
AcDbLine
 39
0.25
 10
860.7840109545318
 20
386.2937149002418
 30
0.0
 11
863.0540109545318
 21
386.2937149002418
 31
0.0
1001
AUSTER_ANSICHT
1002
{
1000
Det03
1002
}
1001
AUSTER_FOLIE
1002
{
1000
NSB00340_S0
1002
}
  0
LINE
  5
20B1
330
1F
100
AcDbEntity
  8
10000_FRONT
  6
LONG_DASH
 62
     7
370
    13
100
AcDbLine
 39
0.25
 10
857.4830109545317
 20
386.2937149002418
 30
0.0
 11
859.7540109545317
 21
386.2937149002418
 31
0.0
1001
AUSTER_ANSICHT
1002
{
1000
Det03
1002
}
1001
AUSTER_FOLIE
1002
{
1000
NSB00340_S0
1002
}
  0
LINE
  5
20B2
330
1F
100
AcDbEntity
  8
10000_FRONT
  6
LONG_DASH
 62
     7
370
    13
100
AcDbLine
 39
0.25
 10
826.3190109545318
 20
436.7737149002415
 30
0.0
 11
826.3190109545318
 21
432.6923149002416
 31
0.0
1001
AUSTER_ANSICHT
1002
{
1000
Det03
1002
}
1001
AUSTER_FOLIE
1002
{
1000
NSB00340_S0
1002
}
  0
LINE
  5
20B3
330
1F
100
AcDbEntity
  8
10000_FRONT
  6
LONG_DASH
 62
     7
370
    13
100
AcDbLine
 39
0.25
 10
846.1190109545317
 20
436.7737149002415
 30
0.0
 11
826.3190109545318
 21
436.7737149002415
 31
0.0
1001
AUSTER_ANSICHT
1002
{
1000
Det03
1002
}
1001
AUSTER_FOLIE
1002
{
1000
NSB00340_S0
1002
}
  0
LINE
  5
20B4
330
1F
100
AcDbEntity
  8
10000_FRONT
  6
LONG_DASH
 62
     7
370
    13
100
AcDbLine
 39
0.25
 10
846.1190109545317
 20
432.6923149002416
 30
0.0
 11
846.1190109545317
 21
436.7737149002415
 31
0.0
1001
AUSTER_ANSICHT
1002
{
1000
Det03
1002
}
1001
AUSTER_FOLIE
1002
{
1000
NSB00340_S0
1002
}
  0
LINE
  5
20B5
330
1F
100
AcDbEntity
  8
10000_FRONT
  6
LONG_DASH
 62
     7
370
    13
100
AcDbLine
 39
0.25
 10
867.2700109545317
 20
392.847714900242
 30
0.0
 11
852.6690109545317
 21
392.8478523690226
 31
0.0
1001
AUSTER_ANSICHT
1002
{
1000
Det03
1002
}
1001
AUSTER_FOLIE
1002
{
1000
NSB00340_S0
1002
}
  0
LINE
  5
20B6
330
1F
100
AcDbEntity
  8
10000_FRONT
  6
LONG_DASH
 62
     7
370
    13
100
AcDbLine
 39
0.25
 10
867.2700109545317
 20
376.0977149002419
 30
0.0
 11
824.4700109545316
 21
376.0977149002419
 31
0.0
1001
AUSTER_ANSICHT
1002
{
1000
Det03
1002
}
1001
AUSTER_FOLIE
1002
{
1000
NSB00340_S0
1002
}
  0
LINE
  5
20B7
330
1F
100
AcDbEntity
  8
10000_FRONT
  6
LONG_DASH
 62
     7
370
    13
100
AcDbLine
 39
0.25
 10
859.3700109545316
 20
424.5797149002418
 30
0.0
 11
859.3700109545316
 21
427.1797149002418
 31
0.0
1001
AUSTER_ANSICHT
1002
{
1000
Det03
1002
}
1001
AUSTER_FOLIE
1002
{
1000
NSB00340_S0
1002
}
  0
LINE
  5
20B8
330
1F
100
AcDbEntity
  8
10000_FRONT
  6
LONG_DASH
 62
     7
370
    13
100
AcDbLine
 39
0.25
 10
864.3700109545317
 20
424.5797149002418
 30
0.0
 11
859.3700109545316
 21
424.5797149002418
 31
0.0
1001
AUSTER_ANSICHT
1002
{
1000
Det03
1002
}
1001
AUSTER_FOLIE
1002
{
1000
NSB00340_S0
1002
}
  0
LINE
  5
20B9
330
1F
100
AcDbEntity
  8
10000_FRONT
  6
LONG_DASH
 62
     7
370
    13
100
AcDbLine
 39
0.25
 10
864.3700109545317
 20
427.1797149002418
 30
0.0
 11
864.3700109545317
 21
424.5797149002418
 31
0.0
1001
AUSTER_ANSICHT
1002
{
1000
Det03
1002
}
1001
AUSTER_FOLIE
1002
{
1000
NSB00340_S0
1002
}
  0
LINE
  5
20BA
330
1F
100
AcDbEntity
  8
10000_FRONT
  6
LONG_DASH
 62
     7
370
    13
100
AcDbLine
 39
0.25
 10
859.3700109545316
 20
427.1797149002418
 30
0.0
 11
864.3700109545317
 21
427.1797149002418
 31
0.0
1001
AUSTER_ANSICHT
1002
{
1000
Det03
1002
}
1001
AUSTER_FOLIE
1002
{
1000
NSB00340_S0
1002
}
  0
LINE
  5
20BB
330
1F
100
AcDbEntity
  8
10000_FRONT
  6
LONG_DASH
 62
     7
370
    13
100
AcDbLine
 39
0.25
 10
863.1700109545318
 20
424.5797149002418
 30
0.0
 11
863.1700109545318
 21
427.1787149002416
 31
0.0
1001
AUSTER_ANSICHT
1002
{
1000
Det03
1002
}
1001
AUSTER_FOLIE
1002
{
1000
NSB00340_S0
1002
}
  0
LINE
  5
20BC
330
1F
100
AcDbEntity
  8
10000_FRONT
  6
LONG_DASH
 62
     7
370
    13
100
AcDbLine
 39
0.25
 10
862.5700109545318
 20
427.1787149002416
 30
0.0
 11
862.5700109545318
 21
424.5797149002418
 31
0.0
1001
AUSTER_ANSICHT
1002
{
1000
Det03
1002
}
1001
AUSTER_FOLIE
1002
{
1000
NSB00340_S0
1002
}
  0
LINE
  5
20BD
330
1F
100
AcDbEntity
  8
10000_FRONT
  6
LONG_DASH
 62
     7
370
    13
100
AcDbLine
 39
0.25
 10
862.4950109545316
 20
415.0797149002419
 30
0.0
 11
862.3210109545317
 21
415.1257149002419
 31
0.0
1001
AUSTER_ANSICHT
1002
{
1000
Det03
1002
}
1001
AUSTER_FOLIE
1002
{
1000
NSB00340_S0
1002
}
  0
LINE
  5
20BE
330
1F
100
AcDbEntity
  8
10000_FRONT
  6
LONG_DASH
 62
     7
370
    13
100
AcDbLine
 39
0.25
 10
860.9790109545317
 20
415.4857149002419
 30
0.0
 11
861.1530109545316
 21
415.4387149002418
 31
0.0
1001
AUSTER_ANSICHT
1002
{
1000
Det03
1002
}
1001
AUSTER_FOLIE
1002
{
1000
NSB00340_S0
1002
}
  0
LINE
  5
20BF
330
1F
100
AcDbEntity
  8
10000_FRONT
  6
LONG_DASH
 62
     7
370
    13
100
AcDbLine
 39
0.25
 10
862.7610109545317
 20
416.0747149002419
 30
0.0
 11
862.5870109545317
 21
416.1207149002418
 31
0.0
1001
AUSTER_ANSICHT
1002
{
1000
Det03
1002
}
1001
AUSTER_FOLIE
1002
{
1000
NSB00340_S0
1002
}
  0
LINE
  5
20C0
330
1F
100
AcDbEntity
  8
10000_FRONT
  6
LONG_DASH
 62
     7
370
    13
100
AcDbLine
 39
0.25
 10
861.2460109545319
 20
416.4807149002418
 30
0.0
 11
861.4200109545318
 21
416.4337149002417
 31
0.0
1001
AUSTER_ANSICHT
1002
{
1000
Det03
1002
}
1001
AUSTER_FOLIE
1002
{
1000
NSB00340_S0
1002
}
  0
LINE
  5
20C1
330
1F
100
AcDbEntity
  8
10000_FRONT
  6
LONG_DASH
 62
     7
370
    13
100
AcDbLine
 39
0.25
 10
862.4950109545316
 20
415.0797149002419
 30
0.0
 11
863.4530109545316
 21
414.8227149002418
 31
0.0
1001
AUSTER_ANSICHT
1002
{
1000
Det03
1002
}
1001
AUSTER_FOLIE
1002
{
1000
NSB00340_S0
1002
}
  0
LINE
  5
20C2
330
1F
100
AcDbEntity
  8
10000_FRONT
  6
LONG_DASH
 62
     7
370
    13
100
AcDbLine
 39
0.25
 10
863.7200109545316
 20
415.8177149002417
 30
0.0
 11
862.7610109545317
 21
416.0747149002419
 31
0.0
1001
AUSTER_ANSICHT
1002
{
1000
Det03
1002
}
1001
AUSTER_FOLIE
1002
{
1000
NSB00340_S0
1002
}
  0
LINE
  5
20C3
330
1F
100
AcDbEntity
  8
10000_FRONT
  6
LONG_DASH
 62
     7
370
    13
100
AcDbLine
 39
0.25
 10
861.2460109545319
 20
416.4807149002418
 30
0.0
 11
860.2870109545319
 21
416.7377149002418
 31
0.0
1001
AUSTER_ANSICHT
1002
{
1000
Det03
1002
}
1001
AUSTER_FOLIE
1002
{
1000
NSB00340_S0
1002
}
  0
LINE
  5
20C4
330
1F
100
AcDbEntity
  8
10000_FRONT
  6
LONG_DASH
 62
     7
370
    13
100
AcDbLine
 39
0.25
 10
860.0210109545317
 20
415.7427149002416
 30
0.0
 11
860.9790109545317
 21
415.4857149002419
 31
0.0
1001
AUSTER_ANSICHT
1002
{
1000
Det03
1002
}
1001
AUSTER_FOLIE
1002
{
1000
NSB00340_S0
1002
}
  0
LINE
  5
20C5
330
1F
100
AcDbEntity
  8
10000_FRONT
  6
LONG_DASH
 62
     7
370
    13
100
AcDbLine
 39
0.25
 10
861.1530109545316
 20
415.4387149002418
 30
0.0
 11
860.5650109545317
 21
413.2457149002418
 31
0.0
1001
AUSTER_ANSICHT
1002
{
1000
Det03
1002
}
1001
AUSTER_FOLIE
1002
{
1000
NSB00340_S0
1002
}
  0
LINE
  5
20C6
330
1F
100
AcDbEntity
  8
10000_FRONT
  6
LONG_DASH
 62
     7
370
    13
100
AcDbLine
 39
0.25
 10
862.0070109545318
 20
418.6267149002419
 30
0.0
 11
861.4200109545318
 21
416.4337149002417
 31
0.0
1001
AUSTER_ANSICHT
1002
{
1000
Det03
1002
}
1001
AUSTER_FOLIE
1002
{
1000
NSB00340_S0
1002
}
  0
LINE
  5
20C7
330
1F
100
AcDbEntity
  8
10000_FRONT
  6
LONG_DASH
 62
     7
370
    13
100
AcDbLine
 39
0.25
 10
862.5870109545317
 20
416.1207149002418
 30
0.0
 11
863.1750109545318
 21
418.3147149002418
 31
0.0
1001
AUSTER_ANSICHT
1002
{
1000
Det03
1002
}
1001
AUSTER_FOLIE
1002
{
1000
NSB00340_S0
1002
}
  0
LINE
  5
20C8
330
1F
100
AcDbEntity
  8
10000_FRONT
  6
LONG_DASH
 62
     7
370
    13
100
AcDbLine
 39
0.25
 10
861.7330109545317
 20
412.9327149002415
 30
0.0
 11
862.3210109545317
 21
415.1257149002419
 31
0.0
1001
AUSTER_ANSICHT
1002
{
1000
Det03
1002
}
1001
AUSTER_FOLIE
1002
{
1000
NSB00340_S0
1002
}
  0
LINE
  5
20C9
330
1F
100
AcDbEntity
  8
10000_FRONT
  6
LONG_DASH
 62
     7
370
    13
100
AcDbLine
 39
0.25
 10
853.6690109545316
 20
374.3477149002419
 30
0.0
 11
853.6690109545316
 21
373.247714900242
 31
0.0
1001
AUSTER_ANSICHT
1002
{
1000
Det03
1002
}
1001
AUSTER_FOLIE
1002
{
1000
NSB00340_S0
1002
}
  0
LINE
  5
20CA
330
1F
100
AcDbEntity
  8
10000_FRONT
  6
LONG_DASH
 62
     7
370
    13
100
AcDbLine
 39
0.25
 10
838.0690109545318
 20
373.247714900242
 30
0.0
 11
838.0690109545318
 21
374.3477149002419
 31
0.0
1001
AUSTER_ANSICHT
1002
{
1000
Det03
1002
}
1001
AUSTER_FOLIE
1002
{
1000
NSB00340_S0
1002
}
  0
LINE
  5
20CB
330
1F
100
AcDbEntity
  8
10000_FRONT
  6
LONG_DASH
 62
     7
370
    13
100
AcDbLine
 39
0.25
 10
853.6690109545316
 20
373.247714900242
 30
0.0
 11
838.0690109545318
 21
373.247714900242
 31
0.0
1001
AUSTER_ANSICHT
1002
{
1000
Det03
1002
}
1001
AUSTER_FOLIE
1002
{
1000
NSB00340_S0
1002
}
  0
LINE
  5
20CC
330
1F
100
AcDbEntity
  8
10000_FRONT
  6
LONG_DASH
 62
     7
370
    13
100
AcDbLine
 39
0.25
 10
833.4190109545318
 20
374.3477149002419
 30
0.0
 11
836.5690109545317
 21
374.3477149002419
 31
0.0
1001
AUSTER_ANSICHT
1002
{
1000
Det03
1002
}
1001
AUSTER_FOLIE
1002
{
1000
NSB00340_S0
1002
}
  0
LINE
  5
20CD
330
1F
100
AcDbEntity
  8
10000_FRONT
  6
LONG_DASH
 62
     7
370
    13
100
AcDbLine
 39
0.25
 10
833.4190109545318
 20
374.3477149002419
 30
0.0
 11
833.4190109545318
 21
375.8477149002419
 31
0.0
1001
AUSTER_ANSICHT
1002
{
1000
Det03
1002
}
1001
AUSTER_FOLIE
1002
{
1000
NSB00340_S0
1002
}
  0
LINE
  5
20CE
330
1F
100
AcDbEntity
  8
10000_FRONT
  6
LONG_DASH
 62
     7
370
    13
100
AcDbLine
 39
0.25
 10
838.0690109545318
 20
374.3477149002419
 30
0.0
 11
836.5690109545317
 21
374.3477149002419
 31
0.0
1001
AUSTER_ANSICHT
1002
{
1000
Det03
1002
}
1001
AUSTER_FOLIE
1002
{
1000
NSB00340_S0
1002
}
  0
LINE
  5
20CF
330
1F
100
AcDbEntity
  8
10000_FRONT
  6
LONG_DASH
 62
     7
370
    13
100
AcDbLine
 39
0.25
 10
866.7690109545317
 20
368.7477149002419
 30
0.0
 11
824.9690109545317
 21
368.7477149002419
 31
0.0
1001
AUSTER_ANSICHT
1002
{
1000
Det03
1002
}
1001
AUSTER_FOLIE
1002
{
1000
NSB00340_S0
1002
}
  0
LINE
  5
20D0
330
1F
100
AcDbEntity
  8
10000_FRONT
  6
LONG_DASH
 62
     7
370
    13
100
AcDbLine
 39
0.25
 10
858.3190109545318
 20
374.3477149002419
 30
0.0
 11
855.1690109545317
 21
374.3477149002419
 31
0.0
1001
AUSTER_ANSICHT
1002
{
1000
Det03
1002
}
1001
AUSTER_FOLIE
1002
{
1000
NSB00340_S0
1002
}
  0
LINE
  5
20D1
330
1F
100
AcDbEntity
  8
10000_FRONT
  6
LONG_DASH
 62
     7
370
    13
100
AcDbLine
 39
0.25
 10
858.3190109545318
 20
374.3477149002419
 30
0.0
 11
858.3190109545318
 21
375.8477149002419
 31
0.0
1001
AUSTER_ANSICHT
1002
{
1000
Det03
1002
}
1001
AUSTER_FOLIE
1002
{
1000
NSB00340_S0
1002
}
  0
LINE
  5
20D2
330
1F
100
AcDbEntity
  8
10000_FRONT
  6
LONG_DASH
 62
     7
370
    13
100
AcDbLine
 39
0.25
 10
853.6690109545316
 20
374.3477149002419
 30
0.0
 11
855.1690109545317
 21
374.3477149002419
 31
0.0
1001
AUSTER_ANSICHT
1002
{
1000
Det03
1002
}
1001
AUSTER_FOLIE
1002
{
1000
NSB00340_S0
1002
}
  0
LINE
  5
20D3
330
1F
100
AcDbEntity
  8
10000_FRONT
  6
LONG_DASH
 62
     7
370
    13
100
AcDbLine
 39
0.25
 10
823.4690109545317
 20
445.3477149002419
 30
0.0
 11
868.2690109545317
 21
445.3477149002419
 31
0.0
1001
AUSTER_ANSICHT
1002
{
1000
Det03
1002
}
1001
AUSTER_FOLIE
1002
{
1000
NSB00340_S0
1002
}
  0
LINE
  5
20D4
330
1F
100
AcDbEntity
  8
10000_FRONT
  6
LONG_DASH
 62
     7
370
    13
100
AcDbLine
 39
0.25
 10
824.4690109545317
 20
465.8477149002419
 30
0.0
 11
867.2690109545317
 21
465.8477149002419
 31
0.0
1001
AUSTER_ANSICHT
1002
{
1000
Det03
1002
}
1001
AUSTER_FOLIE
1002
{
1000
NSB00340_S0
1002
}
  0
LINE
  5
20D5
330
1F
100
AcDbEntity
  8
10000_FRONT
  6
LONG_DASH
 62
     7
370
    13
100
AcDbLine
 39
0.25
 10
823.4690109545317
 20
464.8477149002419
 30
0.0
 11
823.4690109545317
 21
370.2477149002419
 31
0.0
1001
AUSTER_ANSICHT
1002
{
1000
Det03
1002
}
1001
AUSTER_FOLIE
1002
{
1000
NSB00340_S0
1002
}
  0
LINE
  5
20D6
330
1F
100
AcDbEntity
  8
11000_Left
  6
LONG_DASH
 62
     7
370
    20
100
AcDbLine
 39
0.25
 10
898.8535532931102
 20
403.9477149002419
 30
-1.0
 11
898.8535532931102
 21
406.2477149002419
 31
-1.0
1001
AUSTER_ANSICHT
1002
{
1000
Det03
1002
}
1001
AUSTER_FOLIE
1002
{
1000
NSB00340_S0
1002
}
  0
LINE
  5
20D7
330
1F
100
AcDbEntity
  8
11000_Left
  6
LONG_DASH
 62
     7
370
    20
100
AcDbLine
 39
0.25
 10
899.8535532931102
 20
409.0977149002419
 30
-1.0
 11
897.8535532931102
 21
411.0977149002419
 31
-1.0
1001
AUSTER_ANSICHT
1002
{
1000
Det03
1002
}
1001
AUSTER_FOLIE
1002
{
1000
NSB00340_S0
1002
}
  0
LINE
  5
20D8
330
1F
100
AcDbEntity
  8
11000_Left
  6
LONG_DASH
 62
     7
370
    20
100
AcDbLine
 39
0.25
 10
899.8535532931102
 20
439.2477149002419
 30
-1.0
 11
899.8535532931102
 21
434.0977149002419
 31
-1.0
1001
AUSTER_ANSICHT
1002
{
1000
Det03
1002
}
1001
AUSTER_FOLIE
1002
{
1000
NSB00340_S0
1002
}
  0
LINE
  5
20D9
330
1F
100
AcDbEntity
  8
11000_Left
  6
LONG_DASH
 62
     7
370
    20
100
AcDbLine
 39
0.25
 10
898.8535532931102
 20
436.7477149002417
 30
-1.0
 11
898.8535532931102
 21
439.2477149002419
 31
-1.0
1001
AUSTER_ANSICHT
1002
{
1000
Det03
1002
}
1001
AUSTER_FOLIE
1002
{
1000
NSB00340_S0
1002
}
  0
LINE
  5
20DA
330
1F
100
AcDbEntity
  8
11000_Left
  6
LONG_DASH
 62
     7
370
    20
100
AcDbLine
 39
0.25
 10
897.8535532931102
 20
406.9477149002418
 30
-1.0
 11
898.1535532931102
 21
406.9477149002418
 31
-1.0
1001
AUSTER_ANSICHT
1002
{
1000
Det03
1002
}
1001
AUSTER_FOLIE
1002
{
1000
NSB00340_S0
1002
}
  0
LINE
  5
20DB
330
1F
100
AcDbEntity
  8
11000_Left
  6
LONG_DASH
 62
     7
370
    20
100
AcDbLine
 39
0.25
 10
894.8535532931103
 20
431.0977149002419
 30
-1.0
 11
894.8535532931103
 21
421.5977149002419
 31
-1.0
1001
AUSTER_ANSICHT
1002
{
1000
Det03
1002
}
1001
AUSTER_FOLIE
1002
{
1000
NSB00340_S0
1002
}
  0
LINE
  5
20DC
330
1F
100
AcDbEntity
  8
11000_Left
  6
LONG_DASH
 62
     7
370
    20
100
AcDbLine
 39
0.25
 10
894.8535532931103
 20
412.0977149002419
 30
-1.0
 11
894.8535532931103
 21
421.5977149002419
 31
-1.0
1001
AUSTER_ANSICHT
1002
{
1000
Det03
1002
}
1001
AUSTER_FOLIE
1002
{
1000
NSB00340_S0
1002
}
  0
LINE
  5
20DD
330
1F
100
AcDbEntity
  8
11000_Left
  6
LONG_DASH
 62
     7
370
    20
100
AcDbLine
 39
0.25
 10
897.8535532931102
 20
435.9977149002419
 30
-1.0
 11
897.8535532931102
 21
436.2477149002418
 31
-1.0
1001
AUSTER_ANSICHT
1002
{
1000
Det03
1002
}
1001
AUSTER_FOLIE
1002
{
1000
NSB00340_S0
1002
}
  0
LINE
  5
20DE
330
1F
100
AcDbEntity
  8
11000_Left
  6
LONG_DASH
 62
     7
370
    20
100
AcDbLine
 39
0.25
 10
898.3535532931103
 20
436.2477149002418
 30
-1.0
 11
897.8535532931102
 21
436.2477149002418
 31
-1.0
1001
AUSTER_ANSICHT
1002
{
1000
Det03
1002
}
1001
AUSTER_FOLIE
1002
{
1000
NSB00340_S0
1002
}
  0
LINE
  5
20DF
330
1F
100
AcDbEntity
  8
11000_Left
  6
LONG_DASH
 62
     7
370
    20
100
AcDbLine
 39
0.25
 10
897.8535532931102
 20
407.1977149002418
 30
-1.0
 11
897.8535532931102
 21
406.9477149002418
 31
-1.0
1001
AUSTER_ANSICHT
1002
{
1000
Det03
1002
}
1001
AUSTER_FOLIE
1002
{
1000
NSB00340_S0
1002
}
  0
LINE
  5
20E0
330
1F
100
AcDbEntity
  8
11000_Left
  6
LONG_DASH
 62
     7
370
    20
100
AcDbLine
 39
0.25
 10
895.8535532931103
 20
432.0977149002419
 30
-1.0
 11
897.8535532931102
 21
432.0977149002419
 31
-1.0
1001
AUSTER_ANSICHT
1002
{
1000
Det03
1002
}
1001
AUSTER_FOLIE
1002
{
1000
NSB00340_S0
1002
}
  0
LINE
  5
20E1
330
1F
100
AcDbEntity
  8
11000_Left
  6
LONG_DASH
 62
     7
370
    20
100
AcDbLine
 39
0.25
 10
895.8535532931103
 20
411.0977149002419
 30
-1.0
 11
897.8535532931102
 21
411.0977149002419
 31
-1.0
1001
AUSTER_ANSICHT
1002
{
1000
Det03
1002
}
1001
AUSTER_FOLIE
1002
{
1000
NSB00340_S0
1002
}
  0
LINE
  5
20E2
330
1F
100
AcDbEntity
  8
11000_Left
  6
LONG_DASH
 62
     7
370
    20
100
AcDbLine
 39
0.25
 10
895.9535532931102
 20
409.0977149002419
 30
0.0
 11
893.3535532931102
 21
409.0977149002419
 31
0.0
1001
AUSTER_ANSICHT
1002
{
1000
Det03
1002
}
1001
AUSTER_FOLIE
1002
{
1000
NSB00340_S0
1002
}
  0
LINE
  5
20E3
330
1F
100
AcDbEntity
  8
11000_Left
  6
LONG_DASH
 62
     7
370
    20
100
AcDbLine
 39
0.25
 10
892.3535532931103
 20
433.097714900242
 30
0.0
 11
892.3535532931103
 21
410.0977149002419
 31
0.0
1001
AUSTER_ANSICHT
1002
{
1000
Det03
1002
}
1001
AUSTER_FOLIE
1002
{
1000
NSB00340_S0
1002
}
  0
LINE
  5
20E4
330
1F
100
AcDbEntity
  8
11000_Left
  6
LONG_DASH
 62
     7
370
    20
100
AcDbLine
 39
0.25
 10
895.9535532931102
 20
434.0977149002419
 30
0.0
 11
893.3535532931102
 21
434.0977149002419
 31
0.0
1001
AUSTER_ANSICHT
1002
{
1000
Det03
1002
}
1001
AUSTER_FOLIE
1002
{
1000
NSB00340_S0
1002
}
  0
LINE
  5
20E5
330
1F
100
AcDbEntity
  8
10000_FRONT
  6
LONG_DASH
 62
     7
370
    13
100
AcDbLine
 39
0.25
 10
854.7523124545941
 20
408.3297149002417
 30
0.0
 11
868.2700109545317
 21
408.3297149002417
 31
0.0
1001
AUSTER_ANSICHT
1002
{
1000
Det03
1002
}
1001
AUSTER_FOLIE
1002
{
1000
NSB00340_S0
1002
}
  0
LINE
  5
20E6
330
1F
100
AcDbEntity
  8
10000_FRONT
  6
LONG_DASH
 62
     7
370
    13
100
AcDbLine
 39
0.25
 10
854.7690079545317
 20
429.7107149002418
 30
0.0
 11
868.2700109545317
 21
429.7107149002418
 31
0.0
1001
AUSTER_ANSICHT
1002
{
1000
Det03
1002
}
1001
AUSTER_FOLIE
1002
{
1000
NSB00340_S0
1002
}
  0
LINE
  5
20E7
330
1F
100
AcDbEntity
  8
10000_FRONT
  6
LONG_DASH
 62
     7
370
    13
100
AcDbLine
 39
0.25
 10
868.2690109545317
 20
464.8327149002418
 30
0.0
 11
868.2690109545317
 21
370.2477149002419
 31
0.0
1001
AUSTER_ANSICHT
1002
{
1000
Det03
1002
}
1001
AUSTER_FOLIE
1002
{
1000
NSB00340_S0
1002
}
  0
LINE
  5
20E8
330
1F
100
AcDbEntity
  8
11000_Left
  6
LONG_DASH
 62
     7
370
    20
100
AcDbLine
 39
0.25
 10
905.1535532931103
 20
377.3477149002419
 30
0.0
 11
905.1535532931103
 21
377.7977149002419
 31
0.0
1001
AUSTER_ANSICHT
1002
{
1000
Det03
1002
}
1001
AUSTER_FOLIE
1002
{
1000
NSB00340_S0
1002
}
  0
DIMENSION
  5
20E9
330
1F
100
AcDbEntity
  8
10100_FRONT_DIM
  6
Continuous
 62
     7
370
    13
100
AcDbDimension
  2
*D34
 10
868.2690109545317
 20
351.8025505167698
 30
0.0
 11
845.8690109545317
 21
351.8025505167698
 31
0.0
 70
    32
 71
     5
 42
44.79999999999995
  3
H035
100
AcDbAlignedDimension
 13
823.4690109545317
 23
370.2477149002419
 33
0.0
 14
868.2690109545317
 24
370.2477149002419
 34
0.0
100
AcDbRotatedDimension
1001
ACAD
1000
DSTYLE
1002
{
1070
    40
1040
1.0
1070
    77
1070
     0
1070
   147
1040
1.5
1070
   272
1070
     0
1070
   279
1070
     1
1070
   288
1070
     1
1002
}
  0
DIMENSION
  5
20EA
330
1F
100
AcDbEntity
  8
10100_FRONT_DIM
  6
Continuous
 62
     7
370
    13
100
AcDbDimension
  2
*D35
 10
876.9523299961525
 20
368.7477149002419
 30
0.0
 11
876.9523299961525
 21
417.297714900242
 31
0.0
 70
    32
 71
     5
 42
97.10000000000002
  3
H035
100
AcDbAlignedDimension
 13
867.2690109545317
 23
465.8477149002419
 33
0.0
 14
866.7690109545317
 24
368.7477149002419
 34
0.0
 50
90.0
100
AcDbRotatedDimension
1001
ACAD
1000
DSTYLE
1002
{
1070
    40
1040
1.0
1070
    77
1070
     0
1070
   147
1040
1.5
1070
   272
1070
     0
1070
   279
1070
     1
1070
   288
1070
     1
1002
}
  0
DIMENSION
  5
20EB
330
1F
100
AcDbEntity
  8
11100_LEFT_DIM
  6
Continuous
 62
     7
370
    13
100
AcDbDimension
  2
*D36
 10
942.8535532931103
 20
361.1104049587244
 30
0.0
 11
921.3535532931102
 21
361.1104049587244
 31
0.0
 70
    32
 71
     5
 42
43.0
  3
H035
100
AcDbAlignedDimension
 13
899.8535532931102
 23
401.9477149002418
 33
0.0
 14
942.8535532931103
 24
376.0477149002419
 34
0.0
100
AcDbRotatedDimension
1001
ACAD
1000
DSTYLE
1002
{
1070
    40
1040
1.0
1070
    77
1070
     0
1070
   147
1040
1.5
1070
   272
1070
     0
1070
   279
1070
     1
1070
   288
1070
     1
1002
}
  0
DIMENSION
  5
20EC
330
1F
100
AcDbEntity
  8
11100_LEFT_DIM
  6
Continuous
 62
     7
370
    13
100
AcDbDimension
  2
*D37
 10
899.8535532931102
 20
361.1104049587244
 30
0.0
 11
885.4465937322489
 21
361.0842528772407
 31
0.0
 70
   160
 71
     5
 42
5.0
  3
H035
100
AcDbAlignedDimension
 13
894.8535532931103
 23
369.9977149002419
 33
0.0
 14
899.8535532931102
 24
368.7477149002419
 34
0.0
100
AcDbRotatedDimension
1001
ACAD
1000
DSTYLE
1002
{
1070
    40
1040
1.0
1070
    77
1070
     0
1070
   147
1040
1.5
1070
   272
1070
     0
1070
   279
1070
     1
1070
   288
1070
     1
1002
}
  0
DIMENSION
  5
20ED
330
1F
100
AcDbEntity
  8
11100_LEFT_DIM
  6
Continuous
 62
     7
370
    13
100
AcDbDimension
  2
*D38
 10
966.0535532931103
 20
355.5180792481134
 30
0.0
 11
932.9535532931103
 21
355.5180792481134
 31
0.0
 70
    32
 71
     5
 42
66.20000000000004
  3
H035
100
AcDbAlignedDimension
 13
899.8535532931102
 23
368.7477149002419
 33
0.0
 14
966.0535532931103
 24
392.7977149002419
 34
0.0
100
AcDbRotatedDimension
1001
ACAD
1000
DSTYLE
1002
{
1070
    40
1040
1.0
1070
    77
1070
     0
1070
   147
1040
1.5
1070
   272
1070
     0
1070
   279
1070
     1
1070
   288
1070
     1
1002
}
  0
DIMENSION
  5
20EE
330
1F
100
AcDbEntity
  8
11100_LEFT_DIM
  6
Continuous
 62
     7
370
    13
100
AcDbDimension
  2
*D39
 10
1025.734264442874
 20
349.3562138438071
 30
0.0
 11
962.7939088679923
 21
349.3562138438071
 31
0.0
 70
    32
 71
     5
 42
125.8807111497642
  3
H035
100
AcDbAlignedDimension
 13
899.8535532931102
 23
368.7477149002419
 33
0.0
 14
1025.734264442874
 24
423.6817885623981
 34
0.0
100
AcDbRotatedDimension
1001
ACAD
1000
DSTYLE
1002
{
1070
    40
1040
1.0
1070
    77
1070
     0
1070
   147
1040
1.5
1070
   272
1070
     0
1070
   279
1070
     1
1070
   288
1070
     1
1002
}
  0
LINE
  5
20EF
330
1F
100
AcDbEntity
  8
11000_Left
  6
LONG_DASH
 62
     7
370
    20
100
AcDbLine
 39
0.25
 10
905.1535532931103
 20
430.6477149002416
 30
0.0
 11
905.1535532931103
 21
377.3407149002419
 31
0.0
1001
AUSTER_ANSICHT
1002
{
1000
Det03
1002
}
1001
AUSTER_FOLIE
1002
{
1000
NSB_TRAGER_S0
1002
}
  0
CIRCLE
  5
20F0
330
1F
100
AcDbEntity
  8
10000_FRONT
  6
LONG_DASH
 62
     7
370
    13
100
AcDbCircle
 39
0.25
 10
828.3609037288309
 20
373.247714900242
 30
0.0
 40
2.25
1001
AUSTER_ANSICHT
1002
{
1000
Det03
1002
}
1001
AUSTER_FOLIE
1002
{
1000
NSB00340_S0
1002
}
  0
LINE
  5
20F1
330
1F
100
AcDbEntity
  8
10000_FRONT
  6
LONG_DASH
 62
     7
370
    13
100
AcDbLine
 39
0.25
 10
850.8686091273888
 20
392.9318148195898
 30
0.0
 11
826.5690109545316
 21
392.9318149002418
 31
0.0
1001
AUSTER_ANSICHT
1002
{
1000
Det03
1002
}
1001
AUSTER_FOLIE
1002
{
1000
NSB00340_S0
1002
}
  0
DIMENSION
  5
20F2
330
1F
100
AcDbEntity
  8
10100_FRONT_DIM
  6
Continuous
 62
     7
370
    13
100
AcDbDimension
  2
*D40
 10
854.7690109545317
 20
357.9552022023879
 30
0.0
 11
839.7690109545317
 21
357.9552022023879
 31
0.0
 70
    32
 71
     5
 42
30.0
  3
H035
100
AcDbAlignedDimension
 13
824.7690109545317
 23
390.2385426007095
 33
0.0
 14
854.7690109545317
 24
408.4923149002417
 34
0.0
100
AcDbRotatedDimension
1001
ACAD
1000
DSTYLE
1002
{
1070
    40
1040
1.0
1070
    77
1070
     0
1070
   147
1040
1.5
1070
   272
1070
     0
1070
   279
1070
     1
1070
   288
1070
     1
1002
}
  0
LINE
  5
20F9
330
1F
100
AcDbEntity
  8
10000_FRONT
  6
Continuous
 62
     7
370
    13
100
AcDbLine
 10
825.7690109545317
 20
395.4082699002414
 30
0.0
 11
825.7690109545317
 21
393.9082699002414
 31
0.0
  0
LINE
  5
2106
330
1F
100
AcDbEntity
  8
10000_FRONT
  6
Continuous
 62
     7
370
    13
100
AcDbLine
 10
826.6283959545315
 20
395.4082699002414
 30
0.0
 11
825.7690109545317
 21
395.4082699002414
 31
0.0
  0
LINE
  5
2107
330
1F
100
AcDbEntity
  8
10000_FRONT
  6
Continuous
 62
     7
370
    13
100
AcDbLine
 10
826.6283959545315
 20
393.9082699002414
 30
0.0
 11
825.7690109545317
 21
393.9082699002414
 31
0.0
  0
DIMENSION
  5
211B
330
1F
100
AcDbEntity
  8
11100_LEFT_DIM
  6
Continuous
 62
     7
370
    13
100
AcDbDimension
  2
*D33
 10
984.7739861180571
 20
376.7454420623982
 30
0.0
 11
991.4719657092264
 21
376.7454420623982
 31
0.0
 70
   160
 71
     5
 42
11.00620000000003
  3
H035
100
AcDbAlignedDimension
 13
973.767786118057
 23
392.7977435623982
 33
0.0
 14
984.7739861180571
 24
430.6847185623982
 34
0.0
100
AcDbRotatedDimension
1001
ACAD
1000
DSTYLE
1002
{
1070
    40
1040
1.0
1070
    77
1070
     0
1070
   147
1040
1.5
1070
   272
1070
     0
1070
   279
1070
     1
1070
   288
1070
     1
1002
}
  0
LWPOLYLINE
  5
215D
330
1F
100
AcDbEntity
  8
10000_FRONT
  6
Continuous
 62
     7
370
    50
100
AcDbPolyline
 90
        2
 70
     0
 43
0.25
 39
0.5
 10
828.3760359545317
 20
426.1144999002413
 10
829.5074059545317
 20
427.2458699002413
  0
LWPOLYLINE
  5
215F
330
1F
100
AcDbEntity
  8
10000_FRONT
  6
Continuous
 62
     7
370
    50
100
AcDbPolyline
 90
        2
 70
     0
 43
0.25
 39
0.5
 10
830.0730909545317
 20
426.6801849002414
 10
829.5074059545317
 20
427.2458699002413
  0
LWPOLYLINE
  5
2160
330
1F
100
AcDbEntity
  8
10000_FRONT
  6
Continuous
 62
     7
370
    50
100
AcDbPolyline
 90
        2
 70
     0
 43
0.25
 39
0.5
 10
830.6387759545316
 20
426.6801849002414
 10
831.9476751162744
 20
427.8787580252826
  0
LWPOLYLINE
  5
216D
330
1F
100
AcDbEntity
  8
10000_FRONT
  6
Continuous
 62
     7
370
    50
100
AcDbPolyline
 90
        2
 70
     0
 43
0.25
 39
0.5
 10
830.0730909545317
 20
426.6801849002414
 42
0.41421356
 10
830.6387759545316
 20
426.6801849002414
  0
ARC
  5
22C3
330
1F
100
AcDbEntity
  8
11000_Left
  6
Continuous
 62
     7
370
    50
100
AcDbCircle
 39
0.5
 10
998.8767835049596
 20
414.6306354528717
 30
0.0
 40
22.95236247548301
100
AcDbArc
 50
75.91829265405319
 51
105.4020121754186
  0
ARC
  5
22C6
330
1F
100
AcDbEntity
  8
11000_Left
  6
Continuous
 62
     7
370
    50
100
AcDbCircle
 39
0.5
 10
1004.280867117981
 20
435.1198265189511
 30
0.0
 40
0.4999990000802381
100
AcDbArc
 50
277.6636971187068
 51
0.0002341622471343
  0
ARC
  5
22C7
330
1F
100
AcDbEntity
  8
11000_Left
  6
Continuous
 62
     7
370
    50
100
AcDbCircle
 39
0.5
 10
1004.280867812315
 20
436.4269337781624
 30
0.0
 40
0.4999983057420434
100
AcDbArc
 50
359.9999752751533
 51
68.85694143948907
  0
ARC
  5
22C8
330
1F
100
AcDbEntity
  8
11000_Left
  6
Continuous
 62
     7
370
    50
100
AcDbCircle
 39
0.5
 10
1024.40458351697
 20
430.8817879102225
 30
0.0
 40
0.80000065217938
100
AcDbArc
 50
8.41514082924573
 51
90.00017180929978
  0
LINE
  5
22C9
330
1F
100
AcDbEntity
  8
11000_Left
  6
Continuous
 62
     7
370
    50
100
AcDbLine
 39
0.5
 10
1004.347546118057
 20
434.6242935623982
 30
0.0
 11
989.8665211180571
 21
432.6757885623981
 31
0.0
  0
LINE
  5
22CA
330
1F
100
AcDbEntity
  8
11000_Left
  6
Continuous
 62
     7
370
    50
100
AcDbLine
 39
0.5
 10
1015.034261118057
 20
431.6817885623981
 30
0.0
 11
1015.034261118057
 21
407.4988785623981
 31
0.0
  0
LINE
  5
22CB
330
1F
100
AcDbEntity
  8
11000_Left
  6
Continuous
 62
     7
370
    50
100
AcDbLine
 39
0.5
 10
1015.434261118057
 20
415.6817885623981
 30
0.0
 11
1024.404581118057
 21
415.6817885623981
 31
0.0
  0
LINE
  5
22CC
330
1F
100
AcDbEntity
  8
11000_Left
  6
Continuous
 62
     7
370
    50
100
AcDbLine
 39
0.5
 10
991.7924911180572
 20
406.6988785623981
 30
0.0
 11
1014.234261118057
 21
406.6988785623981
 31
0.0
  0
LINE
  5
22CD
330
1F
100
AcDbEntity
  8
11000_Left
  6
Continuous
 62
     7
370
    50
100
AcDbLine
 39
0.5
 10
1019.775671118057
 20
410.1817885623981
 30
0.0
 11
1015.034261118057
 21
410.1817885623981
 31
0.0
  0
LINE
  5
22CE
330
1F
100
AcDbEntity
  8
11000_Left
  6
Continuous
 62
     7
370
    50
100
AcDbLine
 39
0.5
 10
1023.919011118057
 20
412.1817885623981
 30
0.0
 11
1020.575671118057
 21
412.1817885623981
 31
0.0
  0
LINE
  5
22CF
330
1F
100
AcDbEntity
  8
11000_Left
  6
Continuous
 62
     7
370
    50
100
AcDbLine
 39
0.5
 10
1024.719011118057
 20
412.9817885623981
 30
0.0
 11
1024.719011118057
 21
415.7461685623982
 31
0.0
  0
LINE
  5
22D0
330
1F
100
AcDbEntity
  8
11000_Left
  6
Continuous
 62
     7
370
    50
100
AcDbLine
 39
0.5
 10
1020.575671118057
 20
410.9817885623981
 30
0.0
 11
1020.575671118057
 21
415.6817885623981
 31
0.0
  0
ARC
  5
22D1
330
1F
100
AcDbEntity
  8
11000_Left
  6
Continuous
 62
     7
370
    50
100
AcDbCircle
 39
0.5
 10
1015.434261119677
 20
415.2817885607778
 30
0.0
 40
0.4000000016202421
100
AcDbArc
 50
90.0000002321347
 51
179.9999997679141
  0
LINE
  5
22D2
330
1F
100
AcDbEntity
  8
11000_Left
  6
Continuous
 62
     7
370
    50
100
AcDbLine
 39
0.5
 10
1004.780866118057
 20
435.1198285623981
 30
0.0
 11
1004.780866118057
 21
436.4269335623982
 31
0.0
  0
ARC
  5
22D3
330
1F
100
AcDbEntity
  8
11000_Left
  6
Continuous
 62
     7
370
    50
100
AcDbCircle
 39
0.5
 10
1014.234261114816
 20
407.4988785656391
 30
0.0
 40
0.8000000032409957
100
AcDbArc
 50
270.0000002321103
 51
359.9999997678816
  0
ARC
  5
22D4
330
1F
100
AcDbEntity
  8
11000_Left
  6
Continuous
 62
     7
370
    50
100
AcDbCircle
 39
0.5
 10
975.7342516455324
 20
423.6817885623981
 30
0.0
 40
50.00001279734211
100
AcDbArc
 50
351.5850319656824
 51
8.414968034317594
  0
LINE
  5
22D5
330
1F
100
AcDbEntity
  8
11000_Left
  6
Continuous
 62
     7
370
    50
100
AcDbLine
 39
0.5
 10
1024.404581118057
 20
431.6817885623981
 30
0.0
 11
993.502196118057
 21
431.6817885623981
 31
0.0
  0
ARC
  5
22D6
330
1F
100
AcDbEntity
  8
11000_Left
  6
Continuous
 62
     7
370
    50
100
AcDbCircle
 39
0.5
 10
1019.775671114816
 20
410.9817885656392
 30
0.0
 40
0.8000000032410525
100
AcDbArc
 50
270.0000002321103
 51
359.9999997678775
  0
ARC
  5
22D7
330
1F
100
AcDbEntity
  8
11000_Left
  6
Continuous
 62
     7
370
    50
100
AcDbCircle
 10
1024.40458351697
 20
416.4817892145737
 30
0.0
 40
0.8000006521792371
100
AcDbArc
 50
269.9998281907002
 51
351.5848591707543
  0
ARC
  5
22D8
330
1F
100
AcDbEntity
  8
11000_Left
  6
Continuous
 62
     7
370
    50
100
AcDbCircle
 39
0.5
 10
1023.919011114816
 20
412.9817885656391
 30
0.0
 40
0.8000000032410525
100
AcDbArc
 50
270.0000002321103
 51
359.9999997678775
  0
LINE
  5
22D9
330
1F
100
AcDbEntity
  8
11000_Left
  6
Continuous
 62
     7
370
    50
100
AcDbLine
 39
0.5
 10
1015.058796118057
 20
420.6758285623981
 30
0.0
 11
1015.058796118057
 21
430.6817885623981
 31
0.0
  0
ARC
  5
22DA
330
1F
100
AcDbEntity
  8
11000_Left
  6
Continuous
 62
     7
370
    50
100
AcDbCircle
 39
0.5
 10
992.9001511156263
 20
431.2847185648289
 30
0.0
 40
0.6000000024307042
100
AcDbArc
 50
270.0000002321075
 51
359.9999997678816
  0
ARC
  5
22DB
330
1F
100
AcDbEntity
  8
11000_Left
  6
Continuous
 62
     7
370
    50
100
AcDbCircle
 39
0.5
 10
989.999875786389
 20
431.6847193691167
 30
0.0
 40
1.000000806718441
100
AcDbArc
 50
97.6634828614101
 51
270.0000190031575
  0
LINE
  5
22DC
330
1F
100
AcDbEntity
  8
11000_Left
  6
Continuous
 62
     7
370
    50
100
AcDbLine
 39
0.5
 10
992.7808661180572
 20
436.7586885623981
 30
0.0
 11
976.8496311180571
 21
433.4743685623981
 31
0.0
  0
LINE
  5
22DD
330
1F
100
AcDbEntity
  8
11000_Left
  6
Continuous
 62
     7
370
    50
100
AcDbLine
 39
0.5
 10
992.9001511180571
 20
430.6847185623982
 30
0.0
 11
989.9998761180571
 21
430.6847185623982
 31
0.0
  0
LINE
  5
22DE
330
1F
100
AcDbEntity
  8
11000_Left
  6
Continuous
 62
     7
370
    50
100
AcDbLine
 39
0.5
 10
993.5001511180571
 20
431.2847185623981
 30
0.0
 11
993.5001511180571
 21
431.6786635623981
 31
0.0
  0
LINE
  5
22DF
330
1F
100
AcDbEntity
  8
11000_Left
  6
Continuous
 62
     7
370
    50
100
AcDbLine
 39
0.5
 10
992.7808661180572
 20
436.7586885623981
 30
0.0
 11
992.7808661180572
 21
433.0679285623981
 31
0.0
  0
ARC
  5
22E0
330
1F
100
AcDbEntity
  8
11000_Left
  6
Continuous
 62
     7
370
    50
100
AcDbCircle
 39
0.5
 10
986.3081208460618
 20
431.6847192148438
 30
0.0
 40
1.000000652445672
100
AcDbArc
 50
270.0000155841793
 51
150.5440660033493
  0
LINE
  5
22E1
330
1F
100
AcDbEntity
  8
11000_Left
  6
Continuous
 62
     7
370
    50
100
AcDbLine
 39
0.5
 10
984.7669811180571
 20
430.6847185623982
 30
0.0
 11
986.3081211180572
 21
430.6847185623982
 31
0.0
  0
LINE
  5
22E4
330
1F
100
AcDbEntity
  8
11000_Left
  6
Continuous
 62
     7
370
    50
100
AcDbLine
 39
0.5
 10
978.2385261180573
 20
432.1764735623981
 30
0.0
 11
985.4373861180572
 21
432.1764735623981
 31
0.0
  0
ARC
  5
22E5
330
1F
100
AcDbEntity
  8
11000_Left
  6
Continuous
 62
     7
370
    50
100
AcDbCircle
 39
0.5
 10
976.5490787820787
 20
431.8909349156125
 30
0.0
 40
0.4999976640232385
100
AcDbArc
 50
180.0001550676626
 51
240.0001545478211
  0
ARC
  5
22E6
330
1F
100
AcDbEntity
  8
11000_Left
  6
Continuous
 62
     7
370
    50
100
AcDbCircle
 39
0.5
 10
977.0490830900913
 20
432.4886224224295
 30
0.0
 40
1.00000197203457
100
AcDbArc
 50
101.8260785103841
 51
179.9999346847382
  0
LINE
  5
22E7
330
1F
100
AcDbEntity
  8
11000_Left
  6
Continuous
 62
     7
370
    50
100
AcDbLine
 39
0.5
 10
976.2990811180573
 20
431.4579235623981
 30
0.0
 11
977.7738211180572
 21
430.6064835623981
 31
0.0
  0
LINE
  5
22E8
330
1F
100
AcDbEntity
  8
11000_Left
  6
Continuous
 62
     7
370
    50
100
AcDbLine
 39
0.5
 10
976.0490811180572
 20
431.8909335623981
 30
0.0
 11
976.0490811180572
 21
432.4886235623981
 31
0.0
  0
LINE
  5
22E9
330
1F
100
AcDbEntity
  8
11000_Left
  6
Continuous
 62
     7
370
    50
100
AcDbLine
 39
0.5
 10
978.1011711180571
 20
430.6064835623981
 30
0.0
 11
977.7738211180572
 21
430.6064835623981
 31
0.0
  0
LINE
  5
22EA
330
1F
100
AcDbEntity
  8
11000_Left
  6
Continuous
 62
     7
370
    50
100
AcDbLine
 39
0.5
 10
978.2385261180573
 20
432.1764735623981
 30
0.0
 11
978.1011711180571
 21
430.6064835623981
 31
0.0
  0
ARC
  5
22EB
330
1F
100
AcDbEntity
  8
11000_Left
  6
Continuous
 62
     7
370
    50
100
AcDbCircle
 39
0.5
 10
734.7739646334625
 20
423.6817750152678
 30
0.0
 40
250.0000162553308
100
AcDbArc
 50
353.0662016520885
 51
1.604536943658043
  0
ARC
  5
22EC
330
1F
100
AcDbEntity
  8
11000_Left
  6
Continuous
 62
     7
370
    50
100
AcDbCircle
 39
0.5
 10
913.5973229890677
 20
423.596088533389
 30
0.0
 40
80.0000001470293
100
AcDbArc
 50
336.0985797703721
 51
347.8064288685858
  0
LINE
  5
22ED
330
1F
100
AcDbEntity
  8
11000_Left
  6
Continuous
 62
     7
370
    50
100
AcDbLine
 39
0.5
 10
985.3654661180572
 20
390.2906935623981
 30
0.0
 11
973.666946118057
 21
390.2906935623981
 31
0.0
  0
ARC
  5
22EE
330
1F
100
AcDbEntity
  8
11000_Left
  6
Continuous
 62
     7
370
    50
100
AcDbCircle
 39
0.5
 10
985.3654670425077
 20
391.7906975558741
 30
0.0
 40
1.500003993476241
100
AcDbArc
 50
269.9999646886843
 51
336.0985379016942
  0
ARC
  5
22EF
330
1F
100
AcDbEntity
  8
11000_Left
  6
Continuous
 62
     7
370
    50
100
AcDbCircle
 10
982.1514077310343
 20
393.5977431053515
 30
0.0
 40
0.7999995429549703
100
AcDbArc
 50
269.9998844789474
 51
353.066082770469
  0
ARC
  5
22F0
330
1F
100
AcDbEntity
  8
11000_Left
  6
Continuous
 62
     7
370
    50
100
AcDbCircle
 10
982.1733211192725
 20
395.0977435611828
 30
0.0
 40
0.3000000012153237
100
AcDbArc
 50
90.00000023210752
 51
179.9999997678924
  0
ARC
  5
22F1
330
1F
100
AcDbEntity
  8
11000_Left
  6
Continuous
 62
     7
370
    50
100
AcDbCircle
 10
982.1733211192725
 20
394.1977435636135
 30
0.0
 40
0.3000000012152668
100
AcDbArc
 50
180.0000002321075
 51
269.9999997678925
  0
LINE
  5
22F2
330
1F
100
AcDbEntity
  8
11000_Left
  6
Continuous
 62
     7
370
    50
100
AcDbLine
 39
0.5
 10
973.7686911180572
 20
392.7977435623982
 30
0.0
 11
982.1514061180572
 21
392.7977435623982
 31
0.0
  0
LINE
  5
22F3
330
1F
100
AcDbEntity
  8
11000_Left
  6
Continuous
 62
     7
370
    50
100
AcDbLine
 10
981.8733211180571
 20
394.1977435623982
 30
0.0
 11
981.8733211180571
 21
395.0977435623981
 31
0.0
  0
LINE
  5
22F4
330
1F
100
AcDbEntity
  8
11000_Left
  6
Continuous
 62
     7
370
    50
100
AcDbLine
 10
982.1733211180571
 20
393.8977435623982
 30
0.0
 11
982.8813161180571
 21
393.8977435623982
 31
0.0
  0
LINE
  5
22F5
330
1F
100
AcDbEntity
  8
11000_Left
  6
Continuous
 62
     7
370
    50
100
AcDbLine
 10
982.1733211180571
 20
395.3977435623981
 30
0.0
 11
983.0420811180571
 21
395.3977435623981
 31
0.0
  0
ARC
  5
22F6
330
1F
100
AcDbEntity
  8
11000_Left
  6
Continuous
 62
     7
370
    50
100
AcDbCircle
 39
0.5
 10
973.6669461241337
 20
391.7906935684748
 30
0.0
 40
1.500000006076675
100
AcDbArc
 50
180.0000002321119
 51
269.9999997678881
  0
LINE
  5
22F7
330
1F
100
AcDbEntity
  8
11000_Left
  6
Continuous
 62
     7
370
    50
100
AcDbLine
 10
973.6448161180572
 20
394.2033285623982
 30
0.0
 11
973.2950161180571
 21
394.2033285623982
 31
0.0
  0
LINE
  5
22F8
330
1F
100
AcDbEntity
  8
11000_Left
  6
Continuous
 62
     7
370
    50
100
AcDbLine
 39
0.5
 10
972.1669461180569
 20
393.0752635623982
 30
0.0
 11
973.2950161180571
 21
394.2033285623982
 31
0.0
  0
LINE
  5
22F9
330
1F
100
AcDbEntity
  8
11000_Left
  6
Continuous
 62
     7
370
    50
100
AcDbLine
 39
0.5
 10
973.6448161180572
 20
394.2033285623982
 30
0.0
 11
973.767786118057
 21
392.7977435623982
 31
0.0
  0
LINE
  5
22FA
330
1F
100
AcDbEntity
  8
11000_Left
  6
Continuous
 62
     7
370
    50
100
AcDbLine
 10
973.7686911180572
 20
392.7977435623982
 30
0.0
 11
973.7686911180572
 21
392.2618985623982
 31
0.0
  0
LINE
  5
22FB
330
1F
100
AcDbEntity
  8
11000_Left
  6
Continuous
 62
     7
370
    50
100
AcDbLine
 39
0.5
 10
972.1669461180569
 20
391.7906935623981
 30
0.0
 11
972.1669461180569
 21
393.0752635623982
 31
0.0
  0
ARC
  5
2304
330
1F
100
AcDbEntity
  8
11000_Left
  6
LONG_DASH
 62
     7
370
    20
100
AcDbCircle
 39
0.25
 10
734.9525532931103
 20
425.7977149002418
 30
0.0
 40
250.0
100
AcDbArc
 50
2.135898432743504
 51
4.324999999999807
1001
AUSTER_ANSICHT
1002
{
1000
Det03
1002
}
1001
AUSTER_FOLIE
1002
{
1000
NSB00340_S0
1002
}
  0
ARC
  5
230B
330
1F
100
AcDbEntity
  8
10000_FRONT
  6
Continuous
 62
     7
370
    50
100
AcDbCircle
 39
0.5
 10
850.9513259557468
 20
391.3184949014567
 30
0.0
 40
0.3000000012153805
100
AcDbArc
 50
180.0000002321184
 51
269.9999997678925
  0
ARC
  5
230C
330
1F
100
AcDbEntity
  8
10000_FRONT
  6
Continuous
 62
     7
370
    50
100
AcDbCircle
 39
0.5
 10
852.1495359533163
 20
391.3184949014567
 30
0.0
 40
0.3000000012153237
100
AcDbArc
 50
270.0000002320858
 51
359.9999997678816
  0
LINE
  5
230D
330
1F
100
AcDbEntity
  8
10000_FRONT
  6
Continuous
 62
     7
370
    50
100
AcDbLine
 39
0.5
 10
850.9513259545316
 20
391.0184949002414
 30
0.0
 11
852.1495359545316
 21
391.0184949002414
 31
0.0
  0
LINE
  5
230E
330
1F
100
AcDbEntity
  8
10000_FRONT
  6
Continuous
 62
     7
370
    50
100
AcDbLine
 39
0.5
 10
850.6513259545315
 20
391.3184949002414
 30
0.0
 11
850.6513259545315
 21
406.7116899002413
 31
0.0
  0
LINE
  5
230F
330
1F
100
AcDbEntity
  8
10000_FRONT
  6
Continuous
 62
     7
370
    50
100
AcDbLine
 39
0.5
 10
852.4495359545316
 20
391.3184949002414
 30
0.0
 11
852.4495359545316
 21
406.7116899002413
 31
0.0
  0
ARC
  5
2310
330
1F
100
AcDbEntity
  8
10000_FRONT
  6
Continuous
 62
     7
370
    50
100
AcDbCircle
 39
0.5
 10
826.3283959533163
 20
391.3184949014567
 30
0.0
 40
0.3000000012153237
100
AcDbArc
 50
270.0000002320858
 51
359.9999997678816
  0
ARC
  5
2311
330
1F
100
AcDbEntity
  8
10000_FRONT
  6
Continuous
 62
     7
370
    50
100
AcDbCircle
 39
0.5
 10
825.0690109557469
 20
391.3184949014567
 30
0.0
 40
0.3000000012152668
100
AcDbArc
 50
180.0000002321075
 51
269.9999997678925
  0
LINE
  5
2312
330
1F
100
AcDbEntity
  8
10000_FRONT
  6
Continuous
 62
     7
370
    50
100
AcDbLine
 39
0.5
 10
826.6283959545315
 20
391.3184949002414
 30
0.0
 11
826.6283959545315
 21
406.6972949002414
 31
0.0
  0
LINE
  5
2313
330
1F
100
AcDbEntity
  8
10000_FRONT
  6
Continuous
 62
     7
370
    50
100
AcDbLine
 39
0.5
 10
826.3283959545315
 20
391.0184949002414
 30
0.0
 11
825.0690109545315
 21
391.0184949002414
 31
0.0
  0
LINE
  5
2314
330
1F
100
AcDbEntity
  8
10000_FRONT
  6
Continuous
 62
     7
370
    50
100
AcDbLine
 39
0.5
 10
824.7690109545315
 20
430.1802049002414
 30
0.0
 11
824.7690109545315
 21
391.3184949002414
 31
0.0
  0
LINE
  5
2315
330
1F
100
AcDbEntity
  8
10000_FRONT
  6
Continuous
 62
     7
370
    50
100
AcDbLine
 39
0.5
 10
826.2690109545316
 20
406.6972949002414
 30
0.0
 11
853.2042009545316
 21
406.6972949002414
 31
0.0
  0
LINE
  5
2316
330
1F
100
AcDbEntity
  8
10000_FRONT
  6
Continuous
 62
     7
370
    50
100
AcDbLine
 39
0.5
 10
854.7042009545316
 20
430.1802049002414
 30
0.0
 11
854.7042009545316
 21
408.1972949002414
 31
0.0
  0
ARC
  5
2317
330
1F
100
AcDbEntity
  8
10000_FRONT
  6
Continuous
 62
     7
370
    50
100
AcDbCircle
 39
0.5
 10
853.204200948455
 20
408.1972949063181
 30
0.0
 40
1.500000006076675
100
AcDbArc
 50
270.0000002321119
 51
359.9999997678881
  0
ARC
  5
2318
330
1F
100
AcDbEntity
  8
10000_FRONT
  6
Continuous
 62
     7
370
    50
100
AcDbCircle
 39
0.5
 10
830.3559334545315
 20
423.7103323985226
 30
0.0
 40
0.300000659735381
100
AcDbArc
 50
45.00000023211559
 51
134.9999997678844
  0
ARC
  5
2319
330
1F
100
AcDbEntity
  8
10000_FRONT
  6
Continuous
 62
     7
370
    50
100
AcDbCircle
 39
0.5
 10
831.9115659562504
 20
425.2659699002413
 30
0.0
 40
0.2999971242015242
100
AcDbArc
 50
135.0000002321106
 51
224.9999997678894
  0
ARC
  5
231A
330
1F
100
AcDbEntity
  8
10000_FRONT
  6
Continuous
 62
     7
370
    50
100
AcDbCircle
 39
0.5
 10
828.8003009528129
 20
425.2659699002413
 30
0.0
 40
0.2999971242015242
100
AcDbArc
 50
315.0000002321106
 51
44.99999976788935
  0
ARC
  5
231B
330
1F
100
AcDbEntity
  8
10000_FRONT
  6
Continuous
 62
     7
370
    50
100
AcDbCircle
 39
0.5
 10
849.1549834545317
 20
423.7653573985226
 30
0.0
 40
0.3000006597354213
100
AcDbArc
 50
45.00000023212327
 51
134.999999767892
  0
ARC
  5
231C
330
1F
100
AcDbEntity
  8
10000_FRONT
  6
Continuous
 62
     7
370
    50
100
AcDbCircle
 39
0.5
 10
850.7106184562504
 20
425.3209924002414
 30
0.0
 40
0.3000006597354615
100
AcDbArc
 50
135.0000002321156
 51
224.9999997678845
  0
ARC
  5
231D
330
1F
100
AcDbEntity
  8
10000_FRONT
  6
Continuous
 62
     7
370
    50
100
AcDbCircle
 39
0.5
 10
847.5993484528128
 20
425.3209924002414
 30
0.0
 40
0.3000006597354615
100
AcDbArc
 50
315.0000002321156
 51
44.99999976788441
  0
ARC
  5
231E
330
1F
100
AcDbEntity
  8
10000_FRONT
  6
Continuous
 62
     7
370
    50
100
AcDbCircle
 39
0.5
 10
849.1541159545315
 20
425.3188849002413
 30
0.0
 40
3.099999999999909
100
AcDbArc
 50
180.0
 51
0.0
  0
ARC
  5
231F
330
1F
100
AcDbEntity
  8
10000_FRONT
  6
Continuous
 62
     7
370
    50
100
AcDbCircle
 39
0.5
 10
849.1541159545315
 20
425.3188849002413
 30
0.0
 40
3.100000000000022
100
AcDbArc
 50
0.0
 51
180.0
  0
ARC
  5
2320
330
1F
100
AcDbEntity
  8
10000_FRONT
  6
Continuous
 62
     7
370
    50
100
AcDbCircle
 39
0.5
 10
830.3512009545315
 20
425.2638649002413
 30
0.0
 40
3.099999999999909
100
AcDbArc
 50
180.0
 51
0.0
  0
ARC
  5
2321
330
1F
100
AcDbEntity
  8
10000_FRONT
  6
Continuous
 62
     7
370
    50
100
AcDbCircle
 39
0.5
 10
830.3512009545315
 20
425.2638649002413
 30
0.0
 40
3.100000000000022
100
AcDbArc
 50
0.0
 51
180.0
  0
LINE
  5
2322
330
1F
100
AcDbEntity
  8
10000_FRONT
  6
Continuous
 62
     7
370
    50
100
AcDbLine
 39
0.5
 10
830.5680659545314
 20
423.9224649002413
 30
0.0
 11
831.2044609545317
 21
423.2860699002413
 31
0.0
  0
LINE
  5
2323
330
1F
100
AcDbEntity
  8
10000_FRONT
  6
Continuous
 62
     7
370
    50
100
AcDbLine
 39
0.5
 10
830.1438009545316
 20
423.9224649002413
 30
0.0
 11
828.8015803603743
 21
422.578967134187
 31
0.0
  0
LINE
  5
2324
330
1F
100
AcDbEntity
  8
10000_FRONT
  6
Continuous
 62
     7
370
    50
100
AcDbLine
 39
0.5
 10
831.6994359545315
 20
425.0538399002413
 30
0.0
 11
832.3358309545316
 21
424.4174399002414
 31
0.0
  0
LINE
  5
2325
330
1F
100
AcDbEntity
  8
10000_FRONT
  6
Continuous
 62
     7
370
    50
100
AcDbLine
 39
0.5
 10
831.6994359545315
 20
425.4780999002413
 30
0.0
 11
833.0316308877916
 21
426.7448702805231
 31
0.0
  0
LINE
  5
2326
330
1F
100
AcDbEntity
  8
10000_FRONT
  6
Continuous
 62
     7
370
    50
100
AcDbLine
 39
0.5
 10
827.6679525342588
 20
423.7113901290764
 30
0.0
 11
829.0124309545316
 21
425.0538399002413
 31
0.0
  0
LINE
  5
2327
330
1F
100
AcDbEntity
  8
10000_FRONT
  6
Continuous
 62
     7
370
    50
100
AcDbLine
 39
0.5
 10
829.0124309545316
 20
425.4780999002413
 30
0.0
 11
828.3760359545317
 21
426.1144999002413
 31
0.0
  0
LINE
  5
2328
330
1F
100
AcDbEntity
  8
10000_FRONT
  6
Continuous
 62
     7
370
    50
100
AcDbLine
 39
0.5
 10
831.2044609545317
 20
423.2860699002413
 30
0.0
 11
832.3358309545316
 21
424.4174399002414
 31
0.0
  0
LINE
  5
2329
330
1F
100
AcDbEntity
  8
10000_FRONT
  6
Continuous
 62
     7
370
    50
100
AcDbLine
 39
0.5
 10
849.3671159545316
 20
423.9774899002413
 30
0.0
 11
850.0035109545317
 21
423.3410949002413
 31
0.0
  0
LINE
  5
232A
330
1F
100
AcDbEntity
  8
10000_FRONT
  6
Continuous
 62
     7
370
    50
100
AcDbLine
 39
0.5
 10
848.9428509545316
 20
423.9774899002413
 30
0.0
 11
847.614192121645
 21
422.7029026651526
 31
0.0
  0
LINE
  5
232B
330
1F
100
AcDbEntity
  8
10000_FRONT
  6
Continuous
 62
     7
370
    50
100
AcDbLine
 10
850.4984859545317
 20
425.1088599002414
 30
0.0
 11
851.1348809545317
 21
424.4724649002414
 31
0.0
  0
LINE
  5
232C
330
1F
100
AcDbEntity
  8
10000_FRONT
  6
Continuous
 62
     7
370
    50
100
AcDbLine
 39
0.5
 10
850.4984859545317
 20
425.5331249002414
 30
0.0
 11
851.8669077860788
 21
426.9538062072299
 31
0.0
  0
LINE
  5
232D
330
1F
100
AcDbEntity
  8
10000_FRONT
  6
Continuous
 62
     7
370
    50
100
AcDbLine
 39
0.5
 10
846.4726715646664
 20
423.8215611775628
 30
0.0
 11
847.8114809545317
 21
425.1088599002414
 31
0.0
  0
LINE
  5
232E
330
1F
100
AcDbEntity
  8
10000_FRONT
  6
Continuous
 62
     7
370
    50
100
AcDbLine
 39
0.5
 10
847.8114809545317
 20
425.5331249002414
 30
0.0
 11
847.1750859545316
 21
426.1695199002414
 31
0.0
  0
LINE
  5
232F
330
1F
100
AcDbEntity
  8
10000_FRONT
  6
Continuous
 62
     7
370
    50
100
AcDbLine
 39
0.5
 10
850.0035109545317
 20
423.3410949002413
 30
0.0
 11
851.1348809545317
 21
424.4724649002414
 31
0.0
  0
ARC
  5
2330
330
1F
100
AcDbEntity
  8
10000_FRONT
  6
Continuous
 62
     7
370
    50
100
AcDbCircle
 39
0.5
 10
839.7690109545315
 20
415.692312275244
 30
0.0
 40
5.499999923248267
100
AcDbArc
 50
7.185088369160401
 51
172.8149116308396
  0
ARC
  5
2331
330
1F
100
AcDbEntity
  8
10000_FRONT
  6
Continuous
 62
     7
370
    50
100
AcDbCircle
 39
0.5
 10
846.0195398775219
 20
416.4802861377128
 30
0.0
 40
0.80000123747225
100
AcDbArc
 50
187.185165111824
 51
270.0000771350225
  0
ARC
  5
2332
330
1F
100
AcDbEntity
  8
10000_FRONT
  6
Continuous
 62
     7
370
    50
100
AcDbCircle
 39
0.5
 10
839.7690109545315
 20
415.6923124848368
 30
0.0
 40
5.49999989703345
100
AcDbArc
 50
172.8149137971086
 51
7.18508620289134
  0
ARC
  5
2333
330
1F
100
AcDbEntity
  8
10000_FRONT
  6
Continuous
 62
     7
370
    50
100
AcDbCircle
 39
0.5
 10
839.7690109545315
 20
415.6923149002413
 30
0.0
 40
3.0
100
AcDbArc
 50
180.0
 51
0.0
  0
ARC
  5
2334
330
1F
100
AcDbEntity
  8
10000_FRONT
  6
Continuous
 62
     7
370
    50
100
AcDbCircle
 39
0.5
 10
839.7690109545315
 20
415.6923149002413
 30
0.0
 40
3.0
100
AcDbArc
 50
0.0
 51
180.0
  0
LINE
  5
2335
330
1F
100
AcDbEntity
  8
10000_FRONT
  6
Continuous
 62
     7
370
    50
100
AcDbLine
 39
0.5
 10
826.2690109545316
 20
415.6802849002414
 30
0.0
 11
833.5184859545316
 21
415.6802849002414
 31
0.0
  0
LINE
  5
2336
330
1F
100
AcDbEntity
  8
10000_FRONT
  6
Continuous
 62
     7
370
    50
100
AcDbLine
 39
0.5
 10
853.2042009545316
 20
415.6802849002414
 30
0.0
 11
846.0195409545317
 21
415.6802849002414
 31
0.0
  0
ARC
  5
2337
330
1F
100
AcDbEntity
  8
10000_FRONT
  6
Continuous
 62
     7
370
    50
100
AcDbCircle
 10
833.5184845315414
 20
416.4802833027632
 30
0.0
 40
0.7999984025231166
100
AcDbArc
 50
270.0001019143681
 51
352.8150139375723
  0
ARC
  5
2338
330
1F
100
AcDbEntity
  8
10000_FRONT
  6
Continuous
 62
     7
370
    50
100
AcDbCircle
 39
0.5
 10
826.2690109606083
 20
417.1802849063181
 30
0.0
 40
1.500000006076675
100
AcDbArc
 50
180.0000002321119
 51
269.9999997678881
  0
ARC
  5
2339
330
1F
100
AcDbEntity
  8
10000_FRONT
  6
Continuous
 62
     7
370
    50
100
AcDbCircle
 39
0.5
 10
853.8441459533164
 20
437.465724899026
 30
0.0
 40
0.3000000012152668
100
AcDbArc
 50
0.0000002321184064
 51
89.99999976791416
  0
ARC
  5
233A
330
1F
100
AcDbEntity
  8
10000_FRONT
  6
Continuous
 62
     7
370
    50
100
AcDbCircle
 39
0.5
 10
847.4390959557469
 20
437.4657248990261
 30
0.0
 40
0.3000000012152668
100
AcDbArc
 50
90.00000023210752
 51
179.9999997678924
  0
ARC
  5
233B
330
1F
100
AcDbEntity
  8
10000_FRONT
  6
Continuous
 62
     7
370
    50
100
AcDbCircle
 39
0.5
 10
853.204200948455
 20
430.1802048941647
 30
0.0
 40
1.500000006076675
100
AcDbArc
 50
0.0000002321118926
 51
89.99999976788812
  0
ARC
  5
233C
330
1F
100
AcDbEntity
  8
10000_FRONT
  6
Continuous
 62
     7
370
    15
100
AcDbCircle
 39
0.5
 10
847.4390959557469
 20
436.3917648990261
 30
0.0
 40
0.3000000012152668
100
AcDbArc
 50
90.00000023210752
 51
179.9999997679033
  0
LINE
  5
233D
330
1F
100
AcDbEntity
  8
10000_FRONT
  6
Continuous
 62
     7
370
    50
100
AcDbLine
 39
0.5
 10
853.8441459545316
 20
437.7657249002413
 30
0.0
 11
847.4390959545315
 21
437.7657249002413
 31
0.0
  0
LINE
  5
233E
330
1F
100
AcDbEntity
  8
10000_FRONT
  6
Continuous
 62
     7
370
    50
100
AcDbLine
 39
0.5
 10
851.0533459545316
 20
431.7522449002414
 30
0.0
 11
851.0533459545316
 21
433.0746199002414
 31
0.0
  0
LINE
  5
233F
330
1F
100
AcDbEntity
  8
10000_FRONT
  6
Continuous
 62
     7
370
    50
100
AcDbLine
 39
0.5
 10
847.1390959545315
 20
433.0662249002414
 30
0.0
 11
854.1441459545316
 21
433.0662249002414
 31
0.0
  0
LINE
  5
2340
330
1F
100
AcDbEntity
  8
10000_FRONT
  6
Continuous
 62
     7
370
    15
100
AcDbLine
 39
0.5
 10
847.1390959545315
 20
434.6831749002413
 30
0.0
 11
854.1406859545316
 21
434.6831749002413
 31
0.0
  0
LINE
  5
2341
330
1F
100
AcDbEntity
  8
10000_FRONT
  6
Continuous
 62
     7
370
    15
100
AcDbLine
 39
0.5
 10
853.8441459545316
 20
436.6917649002414
 30
0.0
 11
847.4390959545315
 21
436.6917649002414
 31
0.0
  0
LINE
  5
2342
330
1F
100
AcDbEntity
  8
10000_FRONT
  6
Continuous
 62
     7
370
    50
100
AcDbLine
 39
0.5
 10
853.2042009545316
 20
431.6802049002413
 30
0.0
 11
826.2690109545316
 21
431.6802049002413
 31
0.0
  0
ARC
  5
2343
330
1F
100
AcDbEntity
  8
10000_FRONT
  6
Continuous
 62
     7
370
    15
100
AcDbCircle
 10
853.8441459533164
 20
436.3917648990261
 30
0.0
 40
0.3000000012152668
100
AcDbArc
 50
0.0000002321075501
 51
89.99999976791416
  0
LINE
  5
2344
330
1F
100
AcDbEntity
  8
10000_FRONT
  6
Continuous
 62
     7
370
    50
100
AcDbLine
 39
0.5
 10
854.1441459545316
 20
431.3491799002413
 30
0.0
 11
854.1441459545316
 21
437.4657249002414
 31
0.0
  0
LINE
  5
2345
330
1F
100
AcDbEntity
  8
10000_FRONT
  6
Continuous
 62
     7
370
    50
100
AcDbLine
 39
0.5
 10
847.1390959545315
 20
433.0662249002414
 30
0.0
 11
847.1390959545315
 21
437.4657249002414
 31
0.0
  0
ARC
  5
2346
330
1F
100
AcDbEntity
  8
10000_FRONT
  6
Continuous
 62
     7
370
    50
100
AcDbCircle
 39
0.5
 10
826.2690109606083
 20
430.1802048941647
 30
0.0
 40
1.500000006076675
100
AcDbArc
 50
90.00000023211189
 51
179.9999997678881
  0
ARC
  5
2347
330
1F
100
AcDbEntity
  8
10000_FRONT
  6
Continuous
 62
     7
370
    50
100
AcDbCircle
 39
0.5
 10
849.1549834545315
 20
427.0180474025329
 30
0.0
 40
0.3999997011359695
100
AcDbArc
 50
225.0000002321105
 51
314.9999997678895
  0
LINE
  5
2348
330
1F
100
AcDbEntity
  8
10000_FRONT
  6
Continuous
 62
     7
370
    50
100
AcDbLine
 39
0.5
 10
849.4378259545316
 20
426.7352049002413
 30
0.0
 11
850.7925380257812
 21
428.0724647196402
 31
0.0
  0
LINE
  5
2349
330
1F
100
AcDbEntity
  8
10000_FRONT
  6
Continuous
 62
     7
370
    50
100
AcDbLine
 39
0.5
 10
848.8721409545316
 20
426.7352049002413
 30
0.0
 11
848.3064559545317
 21
427.3008949002413
 31
0.0
  0
LINE
  5
234A
330
1F
100
AcDbEntity
  8
10000_FRONT
  6
Continuous
 62
     7
370
    50
100
AcDbLine
 39
0.5
 10
847.1750859545316
 20
426.1695199002414
 30
0.0
 11
848.3064559545317
 21
427.3008949002413
 31
0.0
  0
ARC
  5
234B
330
1F
100
AcDbEntity
  8
10000_FRONT
  6
Continuous
 62
     7
370
    50
100
AcDbCircle
 39
0.5
 10
826.2690109606083
 20
408.1972949063181
 30
0.0
 40
1.500000006076675
100
AcDbArc
 50
180.0000002321119
 51
269.9999997678881
  0
ARC
  5
234C
330
1F
100
AcDbEntity
  8
10000_FRONT
  6
Continuous
 62
     7
370
    50
100
AcDbCircle
 39
0.5
 10
853.204200948455
 20
417.1802849063181
 30
0.0
 40
1.500000006076675
100
AcDbArc
 50
270.0000002321119
 51
359.9999997678881
  0
ENDSEC
  0
SECTION
  2
OBJECTS
  0
DICTIONARY
  5
C
330
0
100
AcDbDictionary
281
     1
  3
ACAD_COLOR
350
6B
  3
ACAD_GROUP
350
D
  3
ACAD_LAYOUT
350
1A
  3
ACAD_MATERIAL
350
6A
  3
ACAD_MLINESTYLE
350
17
  3
ACAD_PLOTSETTINGS
350
19
  3
ACAD_PLOTSTYLENAME
350
E
  3
ACAD_TABLESTYLE
350
B36
  3
ACAD_VISUALSTYLE
350
B25
  3
AcDbVariableDictionary
350
5E
  3
DWGPROPS
350
23A3
  0
DICTIONARY
  5
22C4
330
1F
100
AcDbDictionary
280
     1
281
     1
  3
ACAD_SORTENTS
360
22C5
  0
DICTIONARY
  5
6B
102
{ACAD_REACTORS
330
C
102
}
330
C
100
AcDbDictionary
281
     1
  0
DICTIONARY
  5
D
102
{ACAD_REACTORS
330
C
102
}
330
C
100
AcDbDictionary
281
     1
  0
DICTIONARY
  5
1A
102
{ACAD_REACTORS
330
C
102
}
330
C
100
AcDbDictionary
281
     1
  3
Layout1
350
51
  3
Layout2
350
56
  3
Model
350
22
  0
DICTIONARY
  5
6A
102
{ACAD_REACTORS
330
C
102
}
330
C
100
AcDbDictionary
281
     1
  3
ByBlock
350
B23
  3
ByLayer
350
B22
  3
Global
350
B24
  0
DICTIONARY
  5
17
102
{ACAD_REACTORS
330
C
102
}
330
C
100
AcDbDictionary
281
     1
  3
Standard
350
18
  0
DICTIONARY
  5
19
102
{ACAD_REACTORS
330
C
102
}
330
C
100
AcDbDictionary
281
     1
  0
ACDBDICTIONARYWDFLT
  5
E
102
{ACAD_REACTORS
330
C
102
}
330
C
100
AcDbDictionary
281
     1
  3
Normal
350
F
100
AcDbDictionaryWithDefault
340
F
  0
DICTIONARY
  5
B36
102
{ACAD_REACTORS
330
C
102
}
330
C
100
AcDbDictionary
281
     1
  3
Standard
350
B37
  0
DICTIONARY
  5
B25
102
{ACAD_REACTORS
330
C
102
}
330
C
100
AcDbDictionary
281
     1
  3
2dWireframe
350
B2B
  3
3dWireframe
350
B2C
  3
Basic
350
B2A
  3
Brighten
350
B31
  3
ColorChange
350
B35
  3
Dim
350
B30
  3
Facepattern
350
B34
  3
Flat
350
B26
  3
FlatWithEdges
350
B27
  3
Gouraud
350
B28
  3
GouraudWithEdges
350
B29
  3
Linepattern
350
B33
  3
Realistic
350
B2F
  3
Thicken
350
B32
  0
DICTIONARY
  5
5E
102
{ACAD_REACTORS
330
C
102
}
330
C
100
AcDbDictionary
281
     1
  3
CTABLESTYLE
350
B39
  3
DIMASSOC
350
5F
  3
HIDETEXT
350
63
  3
INDEXCTL
350
237C
  3
PROJECTNAME
350
B07
  3
SORTENTS
350
237B
  0
XRECORD
  5
23A3
102
{ACAD_REACTORS
330
C
102
}
330
C
100
AcDbXrecord
280
     1
  1
DWGPROPS COOKIE
  2

  3

  4

  6

  7

  8
adgsan0
  9

300
=
301
=
302
=
303
=
304
=
305
=
306
=
307
=
308
=
309
=
 40
0.5504476157407408
 41
2453928.240428044
 42
2454083.570394282
  1

 90
        0
  0
SORTENTSTABLE
  5
22C5
102
{ACAD_REACTORS
330
22C4
102
}
330
22C4
100
AcDbSortentsTable
330
1F
331
1F80
  5
1F80
331
2329
  5
2334
331
1F68
  5
1F68
331
2091
  5
2092
331
1FA2
  5
1FA3
331
20B3
  5
20B4
331
1FC4
  5
1FC5
331
2345
  5
2100
331
20D5
  5
20D6
331
1FE6
  5
1FE7
331
20EF
  5
20F0
331
2000
  5
2001
331
2022
  5
2023
331
22D4
  5
22DE
331
2044
  5
2045
331
22F6
  5
22D4
331
2066
  5
2067
331
1F57
  5
1F57
331
2318
  5
234B
331
2080
  5
2081
331
1F91
  5
1F91
331
233A
  5
22C9
331
1F79
  5
1F79
331
20A2
  5
20A3
331
1FB3
  5
1FB4
331
20C4
  5
20C5
331
1FD5
  5
1FD6
331
20E6
  5
20E7
331
1FF7
  5
1FF8
331
2011
  5
2012
331
2033
  5
2034
331
22E5
  5
231D
331
2055
  5
2056
331
1F46
  5
1F46
331
1FA0
  5
1FA1
331
20B1
  5
20B2
331
1FC2
  5
1FC3
331
2343
  5
2106
331
20D3
  5
20D4
331
1FE4
  5
1FE5
331
20ED
  5
20EE
331
1FFE
  5
1FFF
331
2020
  5
2021
331
22D2
  5
22E0
331
2042
  5
2043
331
22F4
  5
22CF
331
2064
  5
2065
331
1F55
  5
1F55
331
2316
  5
2154
331
207E
  5
207F
331
1F8F
  5
1F8F
331
2338
  5
210C
331
1F77
  5
1F77
331
20A0
  5
20A1
331
1FB1
  5
1FB2
331
20C2
  5
20C3
331
1FD3
  5
1FD4
331
20E4
  5
20E5
331
1FF5
  5
1FF6
331
200F
  5
2010
331
2031
  5
2032
331
2053
  5
2054
331
1F44
  5
1F44
331
2327
  5
2339
331
1F66
  5
1F66
331
208F
  5
2090
331
1FC0
  5
1FC1
331
2341
  5
2117
331
20D1
  5
20D2
331
1FE2
  5
1FE3
331
20EB
  5
20EC
331
1FFC
  5
1FFD
331
201E
  5
201F
331
22D0
  5
22E2
331
2040
  5
2041
331
22F2
  5
22D5
331
2062
  5
2063
331
1F53
  5
1F53
331
2314
  5
234C
331
207C
  5
207D
331
1F8D
  5
1F8D
331
2336
  5
214E
331
1F75
  5
1F75
331
209E
  5
209F
331
1FAF
  5
1FB0
331
20C0
  5
20C1
331
1FD1
  5
1FD2
331
20E2
  5
20E3
331
1FF3
  5
1FF4
331
200D
  5
200E
331
22C7
  5
2325
331
202F
  5
2030
331
22E1
  5
22F7
331
2051
  5
2052
331
2325
  5
233B
331
1F64
  5
1F64
331
208D
  5
208E
331
1F9E
  5
1F9F
331
20AF
  5
20B0
331
1FE0
  5
1FE1
331
20E9
  5
20EA
331
1FFA
  5
1FFB
331
201C
  5
201D
331
22CE
  5
22E9
331
203E
  5
203F
331
22F0
  5
231C
331
2060
  5
2061
331
1F51
  5
1F51
331
2312
  5
214B
331
207A
  5
207B
331
1F8B
  5
1F8B
331
2334
  5
2166
331
1F73
  5
1F73
331
209C
  5
209D
331
1FAD
  5
1FAE
331
20BE
  5
20BF
331
1FCF
  5
1FD0
331
20E0
  5
20E1
331
1FF1
  5
1FF2
331
200B
  5
200C
331
202D
  5
202E
331
22DF
  5
22F6
331
204F
  5
2050
331
2323
  5
233D
331
1F62
  5
1F62
331
208B
  5
208C
331
1F9C
  5
1F9D
331
20AD
  5
20AE
331
1FBE
  5
1FBF
331
20CF
  5
20D0
331
1FF8
  5
1FF9
331
201A
  5
201B
331
22CC
  5
22EC
331
203C
  5
203D
331
22EE
  5
22DC
331
205E
  5
205F
331
1F4F
  5
1F4F
331
2310
  5
216D
331
2078
  5
2079
331
1F89
  5
1F89
331
2332
  5
216E
331
1F71
  5
1F71
331
209A
  5
209B
331
1FAB
  5
1FAC
331
20BC
  5
20BD
331
1FCD
  5
1FCE
331
20DE
  5
20DF
331
1FEF
  5
1FF0
331
2009
  5
200A
331
22C3
  5
232A
331
202B
  5
202C
331
22DD
  5
2312
331
204D
  5
204E
331
206F
  5
2070
331
2321
  5
2341
331
1F60
  5
1F60
331
2089
  5
208A
331
1F9A
  5
1F9B
331
20AB
  5
20AC
331
1FBC
  5
1FBD
331
20CD
  5
20CE
331
1FDE
  5
1FDF
331
2018
  5
2019
331
22CA
  5
22F4
331
203A
  5
203B
331
22EC
  5
2321
331
205C
  5
205D
331
1F4D
  5
1F4D
331
230E
  5
211E
331
2076
  5
2077
331
1F87
  5
1F87
331
2330
  5
22C3
331
1F6F
  5
1F6F
331
2098
  5
2099
331
1FA9
  5
1FAA
331
20BA
  5
20BB
331
1FCB
  5
1FCC
331
234C
  5
210F
331
20DC
  5
20DD
331
1FED
  5
1FEE
331
2007
  5
2008
331
2029
  5
202A
331
22DB
  5
2322
331
204B
  5
204C
331
206D
  5
206E
331
1F5E
  5
1F5E
331
231F
  5
2343
331
2087
  5
2088
331
1F98
  5
1F99
331
20A9
  5
20AA
331
1FBA
  5
1FBB
331
20CB
  5
20CC
331
1FDC
  5
1FDD
331
2107
  5
214D
331
22C8
  5
231E
331
2038
  5
2039
331
22EA
  5
22E3
331
205A
  5
205B
331
1F4B
  5
1F4B
331
230C
  5
216A
331
2074
  5
2075
331
1F85
  5
1F85
331
232E
  5
232F
331
1F6D
  5
1F6D
331
2096
  5
2097
331
1FA7
  5
1FA8
331
20B8
  5
20B9
331
1FC9
  5
1FCA
331
234A
  5
232B
331
20DA
  5
20DB
331
1FEB
  5
1FEC
331
2005
  5
2006
331
2027
  5
2028
331
22D9
  5
22CD
331
2049
  5
204A
331
22FB
  5
22CB
331
206B
  5
206C
331
1F5C
  5
1F5C
331
231D
  5
2345
331
2085
  5
2086
331
1F96
  5
1F97
331
233F
  5
215D
331
1F7E
  5
1F7E
331
20A7
  5
20A8
331
1FB8
  5
1FB9
331
20C9
  5
20CA
331
1FDA
  5
1FDB
331
2016
  5
2017
331
22E8
  5
22E6
331
2058
  5
2059
331
1F49
  5
1F49
331
2072
  5
2073
331
1F83
  5
1F83
331
232C
  5
2331
331
1F6B
  5
1F6B
331
2094
  5
2095
331
1FA5
  5
1FA6
331
20B6
  5
20B7
331
1FC7
  5
1FC8
331
2348
  5
232E
331
20D8
  5
20D9
331
1FE9
  5
1FEA
331
20F2
  5
20F3
331
2003
  5
2004
331
2025
  5
2026
331
2047
  5
2048
331
22F9
  5
22D2
331
2069
  5
206A
331
1F5A
  5
1F5A
331
231B
  5
2347
331
2083
  5
2084
331
233D
  5
2161
331
1F7C
  5
1F7C
331
20A5
  5
20A6
331
1FB6
  5
1FB7
331
20C7
  5
20C8
331
1FD8
  5
1FD9
331
2014
  5
2015
331
2036
  5
2037
331
2070
  5
2071
331
1F81
  5
1F81
331
232A
  5
2333
331
1F69
  5
1F69
331
2092
  5
2093
331
1FA3
  5
1FA4
331
20B4
  5
20B5
331
1FC5
  5
1FC6
331
2346
  5
20FD
331
20D6
  5
20D7
331
1FE7
  5
1FE8
331
20F0
  5
20F1
331
2001
  5
2002
331
2023
  5
2024
331
22D5
  5
22DA
331
2045
  5
2046
331
22F7
  5
22E4
331
2067
  5
2068
331
1F58
  5
1F58
331
2319
  5
234A
331
2081
  5
2082
331
1F92
  5
1F92
331
233B
  5
22C7
331
1F7A
  5
1F7A
331
20A3
  5
20A4
331
1FB4
  5
1FB5
331
20C5
  5
20C6
331
1FD6
  5
1FD7
331
20E7
  5
20E8
331
2012
  5
2013
331
2034
  5
2035
331
22E6
  5
231B
331
2056
  5
2057
331
1F47
  5
1F47
331
2328
  5
2336
331
2090
  5
2091
331
1FA1
  5
1FA2
331
20B2
  5
20B3
331
1FC3
  5
1FC4
331
2344
  5
2104
331
20D4
  5
20D5
331
1FE5
  5
1FE6
331
20EE
  5
20EF
331
1FFF
  5
2000
331
2021
  5
2022
331
22D3
  5
22DF
331
2043
  5
2044
331
22F5
  5
22CE
331
2065
  5
2066
331
1F56
  5
1F56
331
2317
  5
20FB
331
207F
  5
2080
331
1F90
  5
1F90
331
2339
  5
22CA
331
1F78
  5
1F78
331
20A1
  5
20A2
331
1FB2
  5
1FB3
331
20C3
  5
20C4
331
1FD4
  5
1FD5
331
20E5
  5
20E6
331
1FF6
  5
1FF7
331
2010
  5
2011
331
2032
  5
2033
331
22E4
  5
22D9
331
2054
  5
2055
331
1F45
  5
1F45
331
1F67
  5
1F67
331
20B0
  5
20B1
331
1FC1
  5
1FC2
331
2342
  5
2115
331
20D2
  5
20D3
331
1FE3
  5
1FE4
331
20EC
  5
20ED
331
1FFD
  5
1FFE
331
201F
  5
2020
331
22D1
  5
22E1
331
2041
  5
2042
331
22F3
  5
22D0
331
2063
  5
2064
331
1F54
  5
1F54
331
2315
  5
2116
331
207D
  5
207E
331
1F8E
  5
1F8E
331
2337
  5
210B
331
1F76
  5
1F76
331
209F
  5
20A0
331
1FB0
  5
1FB1
331
20C1
  5
20C2
331
1FD2
  5
1FD3
331
20E3
  5
20E4
331
1FF4
  5
1FF5
331
200E
  5
200F
331
2030
  5
2031
331
2052
  5
2053
331
1F43
  5
1F43
331
2304
  5
1F95
331
2326
  5
233A
331
1F65
  5
1F65
331
208E
  5
208F
331
1F9F
  5
1FA0
331
2160
  5
2338
331
2340
  5
2143
331
20D0
  5
20D1
331
1FE1
  5
1FE2
331
20EA
  5
20EB
331
1FFB
  5
1FFC
331
201D
  5
201E
331
22CF
  5
22E8
331
203F
  5
2040
331
22F1
  5
22DB
331
2061
  5
2062
331
1F52
  5
1F52
331
2313
  5
2146
331
207B
  5
207C
331
1F8C
  5
1F8C
331
2335
  5
214F
331
1F74
  5
1F74
331
209D
  5
209E
331
1FAE
  5
1FAF
331
20BF
  5
20C0
331
1FD0
  5
1FD1
331
20E1
  5
20E2
331
1FF2
  5
1FF3
331
200C
  5
200D
331
22C6
  5
2327
331
202E
  5
202F
331
22E0
  5
2323
331
2050
  5
2051
331
2324
  5
233C
331
1F63
  5
1F63
331
208C
  5
208D
331
1F9D
  5
1F9E
331
20AE
  5
20AF
331
1FBF
  5
1FC0
331
20E8
  5
20E9
331
1FF9
  5
1FFA
331
201B
  5
201C
331
22CD
  5
22EA
331
203D
  5
203E
331
22EF
  5
2320
331
205F
  5
2060
331
1F50
  5
1F50
331
2311
  5
216C
331
2079
  5
207A
331
1F8A
  5
1F8A
331
2333
  5
2163
331
1F72
  5
1F72
331
209B
  5
209C
331
1FAC
  5
1FAD
331
20BD
  5
20BE
331
1FCE
  5
1FCF
331
20DF
  5
20E0
331
1FF0
  5
1FF1
331
20F9
  5
210A
331
200A
  5
200B
331
211B
  5
22CC
331
202C
  5
202D
331
22DE
  5
230E
331
204E
  5
204F
331
215F
  5
2337
331
2322
  5
233F
331
1F61
  5
1F61
331
208A
  5
208B
331
1F9B
  5
1F9C
331
20AC
  5
20AD
331
1FBD
  5
1FBE
331
20CE
  5
20CF
331
1FDF
  5
1FE0
331
2019
  5
201A
331
22CB
  5
22ED
331
203B
  5
203C
331
22ED
  5
22DD
331
205D
  5
205E
331
1F4E
  5
1F4E
331
230F
  5
211B
331
2077
  5
2078
331
1F88
  5
1F88
331
2331
  5
2171
331
1F70
  5
1F70
331
2099
  5
209A
331
1FAA
  5
1FAB
331
20BB
  5
20BC
331
216D
  5
2348
331
1FCC
  5
1FCD
331
20DD
  5
20DE
331
1FEE
  5
1FEF
331
2008
  5
2009
331
202A
  5
202B
331
22DC
  5
2318
331
204C
  5
204D
331
215D
  5
2335
331
206E
  5
206F
331
1F5F
  5
1F5F
331
2320
  5
2340
331
2088
  5
2089
331
1F99
  5
1F9A
331
20AA
  5
20AB
331
1FBB
  5
1FBC
331
20CC
  5
20CD
331
1FDD
  5
1FDE
331
22C9
  5
2317
331
2039
  5
203A
331
22EB
  5
231F
331
205B
  5
205C
331
1F4C
  5
1F4C
331
230D
  5
2135
331
2075
  5
2076
331
1F86
  5
1F86
331
232F
  5
232C
331
1F6E
  5
1F6E
331
2097
  5
2098
331
1FA8
  5
1FA9
331
20B9
  5
20BA
331
1FCA
  5
1FCB
331
234B
  5
20F6
331
20DB
  5
20DC
331
1FEC
  5
1FED
331
2006
  5
2007
331
2028
  5
2029
331
22DA
  5
2324
331
204A
  5
204B
331
206C
  5
206D
331
1F5D
  5
1F5D
331
231E
  5
2342
331
2086
  5
2087
331
1F97
  5
1F98
331
1F7F
  5
1F7F
331
20A8
  5
20A9
331
1FB9
  5
1FBA
331
20CA
  5
20CB
331
1FDB
  5
1FDC
331
2106
  5
214C
331
2017
  5
2018
331
22E9
  5
22E5
331
2059
  5
205A
331
1F4A
  5
1F4A
331
230B
  5
216B
331
2073
  5
2074
331
1F84
  5
1F84
331
232D
  5
2330
331
1F6C
  5
1F6C
331
2095
  5
2096
331
1FA6
  5
1FA7
331
20B7
  5
20B8
331
1FC8
  5
1FC9
331
2349
  5
232D
331
20D9
  5
20DA
331
1FEA
  5
1FEB
331
2004
  5
2005
331
2026
  5
2027
331
22D8
  5
22D6
331
2048
  5
2049
331
22FA
  5
22D1
331
206A
  5
206B
331
1F5B
  5
1F5B
331
231C
  5
2346
331
2084
  5
2085
331
1F95
  5
1F96
331
233E
  5
2160
331
1F7D
  5
1F7D
331
20A6
  5
20A7
331
1FB7
  5
1FB8
331
20C8
  5
20C9
331
1FD9
  5
1FDA
331
2015
  5
2016
331
2037
  5
2038
331
1F48
  5
1F48
331
2071
  5
2072
331
1F82
  5
1F82
331
232B
  5
2332
331
1F6A
  5
1F6A
331
2093
  5
2094
331
1FA4
  5
1FA5
331
20B5
  5
20B6
331
1FC6
  5
1FC7
331
2347
  5
2344
331
20D7
  5
20D8
331
1FE8
  5
1FE9
331
20F1
  5
20F2
331
2002
  5
2003
331
2024
  5
2025
331
22D6
  5
22D8
331
2046
  5
2047
331
22F8
  5
22D3
331
2068
  5
2069
331
1F59
  5
1F59
331
231A
  5
2349
331
2082
  5
2083
331
1F93
  5
1F93
331
233C
  5
2168
331
1F7B
  5
1F7B
331
20A4
  5
20A5
331
1FB5
  5
1FB6
331
20C6
  5
20C7
331
1FD7
  5
1FD8
331
2013
  5
2014
331
2035
  5
2036
331
2057
  5
2058
  0
LAYOUT
  5
51
102
{ACAD_XDICTIONARY
360
23A6
102
}
102
{ACAD_REACTORS
330
1A
102
}
330
1A
100
AcDbPlotSettings
  1

  2
None
  4

  6

 40
0.0
 41
0.0
 42
0.0
 43
0.0
 44
0.0
 45
0.0
 46
0.0
 47
0.0
 48
0.0
 49
0.0
140
0.0
141
0.0
142
1.0
143
1.0
 70
   688
 72
     0
 73
     0
 74
     5
  7

 75
    16
147
1.0
148
0.0
149
0.0
100
AcDbLayout
  1
Layout1
 70
     1
 71
     1
 10
0.0
 20
0.0
 11
12.0
 21
9.0
 12
0.0
 22
0.0
 32
0.0
 14
0.0
 24
0.0
 34
0.0
 15
0.0
 25
0.0
 35
0.0
146
0.0
 13
0.0
 23
0.0
 33
0.0
 16
1.0
 26
0.0
 36
0.0
 17
0.0
 27
1.0
 37
0.0
 76
     0
330
50
  0
LAYOUT
  5
56
102
{ACAD_XDICTIONARY
360
23A8
102
}
102
{ACAD_REACTORS
330
1A
102
}
330
1A
100
AcDbPlotSettings
  1

  2
None
  4

  6

 40
0.0
 41
0.0
 42
0.0
 43
0.0
 44
0.0
 45
0.0
 46
0.0
 47
0.0
 48
0.0
 49
0.0
140
0.0
141
0.0
142
1.0
143
1.0
 70
   688
 72
     0
 73
     0
 74
     5
  7

 75
    16
147
1.0
148
0.0
149
0.0
100
AcDbLayout
  1
Layout2
 70
     1
 71
     2
 10
0.0
 20
0.0
 11
12.0
 21
9.0
 12
0.0
 22
0.0
 32
0.0
 14
0.0
 24
0.0
 34
0.0
 15
0.0
 25
0.0
 35
0.0
146
0.0
 13
0.0
 23
0.0
 33
0.0
 16
1.0
 26
0.0
 36
0.0
 17
0.0
 27
1.0
 37
0.0
 76
     0
330
55
  0
LAYOUT
  5
22
102
{ACAD_XDICTIONARY
360
23A4
102
}
102
{ACAD_REACTORS
330
1A
102
}
330
1A
100
AcDbPlotSettings
  1

  2
\\ambd016a\A_P00390
  4
A4
  6

 40
6.01133346557617
 41
4.233341693878172
 42
6.011322021484375
 43
4.23333740234375
 44
209.9733276367186
 45
296.9259948730469
 46
0.0
 47
0.0
 48
0.0
 49
0.0
140
0.0
141
0.0
142
1.0
143
1.120478845573932
 70
 11952
 72
     1
 73
     1
 74
     0
  7

 75
     0
147
0.8924755732338514
148
-72.60255222484921
149
-79.17712082009773
100
AcDbLayout
  1
Model
 70
     1
 71
     0
 10
0.0
 20
0.0
 11
12.0
 21
9.0
 12
0.0
 22
0.0
 32
0.0
 14
0.0
 24
0.0
 34
0.0
 15
0.0
 25
0.0
 35
0.0
146
0.0
 13
0.0
 23
0.0
 33
0.0
 16
1.0
 26
0.0
 36
0.0
 17
0.0
 27
1.0
 37
0.0
 76
     0
330
1F
331
B14
  0
MATERIAL
  5
B23
102
{ACAD_XDICTIONARY
360
23AC
102
}
102
{ACAD_REACTORS
330
6A
102
}
330
6A
100
AcDbMaterial
  1
ByBlock
  0
MATERIAL
  5
B22
102
{ACAD_XDICTIONARY
360
23AA
102
}
102
{ACAD_REACTORS
330
6A
102
}
330
6A
100
AcDbMaterial
  1
ByLayer
  0
MATERIAL
  5
B24
102
{ACAD_XDICTIONARY
360
23AE
102
}
102
{ACAD_REACTORS
330
6A
102
}
330
6A
100
AcDbMaterial
  1
Global
  0
MLINESTYLE
  5
18
102
{ACAD_REACTORS
330
17
102
}
330
17
100
AcDbMlineStyle
  2
STANDARD
 70
     0
  3

 62
   256
 51
90.0
 52
90.0
 71
     2
 49
0.5
 62
   256
  6
BYLAYER
 49
-0.5
 62
   256
  6
BYLAYER
  0
ACDBPLACEHOLDER
  5
F
102
{ACAD_REACTORS
330
E
102
}
330
E
  0
TABLESTYLE
  5
B37
102
{ACAD_XDICTIONARY
360
23B0
102
}
102
{ACAD_REACTORS
330
B36
102
}
330
B36
100
AcDbTableStyle
  3
Standard
 70
     0
 71
     0
 40
1.5
 41
1.5
280
     0
281
     0
  7
Standard
140
4.5
170
     2
 62
     0
 63
     7
283
     0
274
    -2
284
     1
 64
     0
275
    -2
285
     1
 65
     0
276
    -2
286
     1
 66
     0
277
    -2
287
     1
 67
     0
278
    -2
288
     1
 68
     0
279
    -2
289
     1
 69
     0
  7
Standard
140
6.0
170
     5
 62
     0
 63
     7
283
     0
274
    -2
284
     1
 64
     0
275
    -2
285
     1
 65
     0
276
    -2
286
     1
 66
     0
277
    -2
287
     1
 67
     0
278
    -2
288
     1
 68
     0
279
    -2
289
     1
 69
     0
  7
Standard
140
4.5
170
     5
 62
     0
 63
     7
283
     0
274
    -2
284
     1
 64
     0
275
    -2
285
     1
 65
     0
276
    -2
286
     1
 66
     0
277
    -2
287
     1
 67
     0
278
    -2
288
     1
 68
     0
279
    -2
289
     1
 69
     0
  0
VISUALSTYLE
  5
B2B
102
{ACAD_REACTORS
330
B25
102
}
330
B25
100
AcDbVisualStyle
  2
2dWireframe
 70
     4
 71
     0
 72
     2
 73
     0
 90
        0
 40
-0.6
 41
-30.0
 62
     5
 63
     7
 74
     1
 91
        4
 64
     7
 65
   257
 75
     1
175
     1
 42
1.0
 92
        0
 66
   257
 43
1.0
 76
     1
 77
     6
 78
     2
 67
     7
 79
     5
170
     0
171
     0
290
     0
174
     0
 93
        1
 44
0.0
173
     0
291
     0
 45
0.0
1001
ACAD
1000
AcDbSavedByObjectVersion
1070
     0
  0
VISUALSTYLE
  5
B2C
102
{ACAD_REACTORS
330
B25
102
}
330
B25
100
AcDbVisualStyle
  2
3dWireframe
 70
     5
 71
     0
 72
     2
 73
     0
 90
        0
 40
-0.6
 41
-30.0
 62
     5
 63
     7
 74
     1
 91
        4
 64
     7
 65
   257
 75
     1
175
     1
 42
1.0
 92
        0
 66
   257
 43
1.0
 76
     1
 77
     6
 78
     2
 67
     7
 79
     5
170
     0
171
     0
290
     0
174
     0
 93
        1
 44
0.0
173
     0
291
     0
 45
0.0
1001
ACAD
1000
AcDbSavedByObjectVersion
1070
     0
  0
VISUALSTYLE
  5
B2A
102
{ACAD_REACTORS
330
B25
102
}
330
B25
100
AcDbVisualStyle
  2
Basic
 70
     7
 71
     1
 72
     0
 73
     1
 90
        0
 40
-0.6
 41
-30.0
 62
     5
 63
     7
 74
     0
 91
        4
 64
     7
 65
   257
 75
     1
175
     1
 42
1.0
 92
        8
 66
     7
 43
1.0
 76
     1
 77
     6
 78
     2
 67
     7
 79
     5
170
     0
171
     0
290
     0
174
     0
 93
        1
 44
0.0
173
     0
291
     1
 45
0.0
1001
ACAD
1000
AcDbSavedByObjectVersion
1070
     0
  0
VISUALSTYLE
  5
B31
102
{ACAD_REACTORS
330
B25
102
}
330
B25
100
AcDbVisualStyle
  2
Brighten
 70
    12
 71
     2
 72
     2
 73
     0
 90
        0
 40
-0.6
 41
-30.0
 62
     5
 63
     7
 74
     1
 91
        4
 64
     7
 65
   257
 75
     1
175
     1
 42
1.0
 92
        8
 66
     7
 43
1.0
 76
     1
 77
     6
 78
     2
 67
     7
 79
     5
170
     0
171
     0
290
     0
174
     0
 93
        1
 44
50.0
173
     0
291
     1
 45
0.0
1001
ACAD
1000
AcDbSavedByObjectVersion
1070
     0
  0
VISUALSTYLE
  5
B35
102
{ACAD_REACTORS
330
B25
102
}
330
B25
100
AcDbVisualStyle
  2
ColorChange
 70
    16
 71
     2
 72
     2
 73
     3
 90
        0
 40
-0.6
 41
-30.0
 62
     5
 63
     8
 74
     1
 91
        4
 64
     7
 65
   257
 75
     1
175
     1
 42
1.0
 92
        8
 66
     8
 43
1.0
 76
     1
 77
     6
 78
     2
 67
     7
 79
     5
170
     0
171
     0
290
     0
174
     0
 93
        1
 44
0.0
173
     0
291
     1
 45
0.0
1001
ACAD
1000
AcDbSavedByObjectVersion
1070
     0
  0
VISUALSTYLE
  5
B30
102
{ACAD_REACTORS
330
B25
102
}
330
B25
100
AcDbVisualStyle
  2
Dim
 70
    11
 71
     2
 72
     2
 73
     0
 90
        0
 40
-0.6
 41
-30.0
 62
     5
 63
     7
 74
     1
 91
        4
 64
     7
 65
   257
 75
     1
175
     1
 42
1.0
 92
        8
 66
     7
 43
1.0
 76
     1
 77
     6
 78
     2
 67
     7
 79
     5
170
     0
171
     0
290
     0
174
     0
 93
        1
 44
-50.0
173
     0
291
     1
 45
0.0
1001
ACAD
1000
AcDbSavedByObjectVersion
1070
     0
  0
VISUALSTYLE
  5
B34
102
{ACAD_REACTORS
330
B25
102
}
330
B25
100
AcDbVisualStyle
  2
Facepattern
 70
    15
 71
     2
 72
     2
 73
     0
 90
        0
 40
-0.6
 41
-30.0
 62
     5
 63
     7
 74
     1
 91
        4
 64
     7
 65
   257
 75
     1
175
     1
 42
1.0
 92
        8
 66
     7
 43
1.0
 76
     1
 77
     6
 78
     2
 67
     7
 79
     5
170
     0
171
     0
290
     0
174
     0
 93
        1
 44
0.0
173
     0
291
     1
 45
0.0
1001
ACAD
1000
AcDbSavedByObjectVersion
1070
     0
  0
VISUALSTYLE
  5
B26
102
{ACAD_REACTORS
330
B25
102
}
330
B25
100
AcDbVisualStyle
  2
Flat
 70
     0
 71
     2
 72
     1
 73
     1
 90
        2
 40
-0.6
 41
30.0
 62
     5
 63
     7
 74
     0
 91
        4
 64
     7
 65
   257
 75
     1
175
     1
 42
1.0
 92
        8
 66
     7
 43
1.0
 76
     1
 77
     6
 78
     2
 67
     7
 79
     5
170
     0
171
     0
290
     0
174
     0
 93
       13
 44
0.0
173
     0
291
     1
 45
0.0
1001
ACAD
1000
AcDbSavedByObjectVersion
1070
     0
  0
VISUALSTYLE
  5
B27
102
{ACAD_REACTORS
330
B25
102
}
330
B25
100
AcDbVisualStyle
  2
FlatWithEdges
 70
     1
 71
     2
 72
     1
 73
     1
 90
        2
 40
-0.6
 41
30.0
 62
     5
 63
     7
 74
     1
 91
        4
 64
     7
 65
   257
 75
     1
175
     1
 42
1.0
 92
        0
 66
   257
 43
1.0
 76
     1
 77
     6
 78
     2
 67
     7
 79
     5
170
     0
171
     0
290
     0
174
     0
 93
       13
 44
0.0
173
     0
291
     1
 45
0.0
1001
ACAD
1000
AcDbSavedByObjectVersion
1070
     0
  0
VISUALSTYLE
  5
B28
102
{ACAD_REACTORS
330
B25
102
}
330
B25
100
AcDbVisualStyle
  2
Gouraud
 70
     2
 71
     2
 72
     2
 73
     1
 90
        2
 40
-0.6
 41
30.0
 62
     5
 63
     7
 74
     0
 91
        4
 64
     7
 65
   257
 75
     1
175
     1
 42
1.0
 92
        0
 66
     7
 43
1.0
 76
     1
 77
     6
 78
     2
 67
     7
 79
     5
170
     0
171
     0
290
     0
174
     0
 93
       13
 44
0.0
173
     0
291
     1
 45
0.0
1001
ACAD
1000
AcDbSavedByObjectVersion
1070
     0
  0
VISUALSTYLE
  5
B29
102
{ACAD_REACTORS
330
B25
102
}
330
B25
100
AcDbVisualStyle
  2
GouraudWithEdges
 70
     3
 71
     2
 72
     2
 73
     1
 90
        2
 40
-0.6
 41
30.0
 62
     5
 63
     7
 74
     1
 91
        4
 64
     7
 65
   257
 75
     1
175
     1
 42
1.0
 92
        0
 66
   257
 43
1.0
 76
     1
 77
     6
 78
     2
 67
     7
 79
     5
170
     0
171
     0
290
     0
174
     0
 93
       13
 44
0.0
173
     0
291
     1
 45
0.0
1001
ACAD
1000
AcDbSavedByObjectVersion
1070
     0
  0
VISUALSTYLE
  5
B33
102
{ACAD_REACTORS
330
B25
102
}
330
B25
100
AcDbVisualStyle
  2
Linepattern
 70
    14
 71
     2
 72
     2
 73
     0
 90
        0
 40
-0.6
 41
-30.0
 62
     5
 63
     7
 74
     1
 91
        4
 64
     7
 65
   257
 75
     7
175
     7
 42
1.0
 92
        8
 66
     7
 43
1.0
 76
     1
 77
     6
 78
     2
 67
     7
 79
     5
170
     0
171
     0
290
     0
174
     0
 93
        1
 44
0.0
173
     0
291
     1
 45
0.0
1001
ACAD
1000
AcDbSavedByObjectVersion
1070
     0
  0
VISUALSTYLE
  5
B2F
102
{ACAD_REACTORS
330
B25
102
}
330
B25
100
AcDbVisualStyle
  2
Realistic
 70
     8
 71
     2
 72
     2
 73
     0
 90
        0
 40
-0.6
 41
-30.0
 62
     5
 63
     7
 74
     1
 91
        0
 64
     7
 65
   257
 75
     1
175
     1
 42
1.0
 92
        8
 66
     8
 43
1.0
 76
     1
 77
     6
 78
     2
 67
     7
 79
     5
170
     0
171
     0
290
     0
174
     0
 93
       13
 44
0.0
173
     0
291
     0
 45
0.0
1001
ACAD
1000
AcDbSavedByObjectVersion
1070
     0
  0
VISUALSTYLE
  5
B32
102
{ACAD_REACTORS
330
B25
102
}
330
B25
100
AcDbVisualStyle
  2
Thicken
 70
    13
 71
     2
 72
     2
 73
     0
 90
        0
 40
-0.6
 41
-30.0
 62
     5
 63
     7
 74
     1
 91
        4
 64
     7
 65
   257
 75
     1
175
     1
 42
1.0
 92
       12
 66
     7
 43
1.0
 76
     1
 77
     6
 78
     2
 67
     7
 79
     5
170
     0
171
     0
290
     0
174
     0
 93
        1
 44
0.0
173
     0
291
     1
 45
0.0
1001
ACAD
1000
AcDbSavedByObjectVersion
1070
     0
  0
DICTIONARYVAR
  5
B39
102
{ACAD_REACTORS
330
5E
102
}
330
5E
100
DictionaryVariables
280
     0
  1
STANDARD
  0
DICTIONARYVAR
  5
5F
102
{ACAD_REACTORS
330
5E
102
}
330
5E
100
DictionaryVariables
280
     0
  1
2
  0
DICTIONARYVAR
  5
63
102
{ACAD_REACTORS
330
5E
102
}
330
5E
100
DictionaryVariables
280
     0
  1
1
  0
DICTIONARYVAR
  5
237C
102
{ACAD_REACTORS
330
5E
102
}
330
5E
100
DictionaryVariables
280
     0
  1
0
  0
DICTIONARYVAR
  5
B07
102
{ACAD_REACTORS
330
5E
102
}
330
5E
100
DictionaryVariables
280
     0
  1

  0
DICTIONARYVAR
  5
237B
102
{ACAD_REACTORS
330
5E
102
}
330
5E
100
DictionaryVariables
280
     0
  1
127
  0
DICTIONARY
  5
23A6
330
51
100
AcDbDictionary
280
     1
281
     1
  3
ACAD_XREC_ROUNDTRIP
360
23A7
  0
DICTIONARY
  5
23A8
330
56
100
AcDbDictionary
280
     1
281
     1
  3
ACAD_XREC_ROUNDTRIP
360
23A9
  0
DICTIONARY
  5
23A4
330
22
100
AcDbDictionary
280
     1
281
     1
  3
ACAD_XREC_ROUNDTRIP
360
23A5
  0
DICTIONARY
  5
23AC
330
B23
100
AcDbDictionary
280
     1
281
     1
  3
ACAD_XREC_ROUNDTRIP
360
23AD
  0
DICTIONARY
  5
23AA
330
B22
100
AcDbDictionary
280
     1
281
     1
  3
ACAD_XREC_ROUNDTRIP
360
23AB
  0
DICTIONARY
  5
23AE
330
B24
100
AcDbDictionary
280
     1
281
     1
  3
ACAD_XREC_ROUNDTRIP
360
23AF
  0
DICTIONARY
  5
23B0
330
B37
100
AcDbDictionary
280
     1
281
     1
  3
ACAD_XREC_ROUNDTRIP
360
23B1
  0
XRECORD
  5
23A7
102
{ACAD_REACTORS
330
23A6
102
}
330
23A6
100
AcDbXrecord
280
     1
102
SHADEPLOT
 70
     0
102
SHADEPLOTRESLEVEL
 70
     2
102
SHADEPLOTCUSTOMDPI
 70
   300
  0
XRECORD
  5
23A9
102
{ACAD_REACTORS
330
23A8
102
}
330
23A8
100
AcDbXrecord
280
     1
102
SHADEPLOT
 70
     0
102
SHADEPLOTRESLEVEL
 70
     2
102
SHADEPLOTCUSTOMDPI
 70
   300
  0
XRECORD
  5
23A5
102
{ACAD_REACTORS
330
23A4
102
}
330
23A4
100
AcDbXrecord
280
     1
102
SHADEPLOT
 70
     0
102
SHADEPLOTRESLEVEL
 70
     2
102
SHADEPLOTCUSTOMDPI
 70
   300
  0
XRECORD
  5
23AD
102
{ACAD_REACTORS
330
23AC
102
}
330
23AC
100
AcDbXrecord
280
     1
102
MATERIAL
148
0.0
149
0.0
149
0.0
 93
        0
 94
       63
282
     0
 72
     1
 77
     1
171
     1
175
     1
179
     1
273
     0
  0
XRECORD
  5
23AB
102
{ACAD_REACTORS
330
23AA
102
}
330
23AA
100
AcDbXrecord
280
     1
102
MATERIAL
148
0.0
149
0.0
149
0.0
 93
        0
 94
       63
282
     0
 72
     1
 77
     1
171
     1
175
     1
179
     1
273
     0
  0
XRECORD
  5
23AF
102
{ACAD_REACTORS
330
23AE
102
}
330
23AE
100
AcDbXrecord
280
     1
102
MATERIAL
148
0.0
149
0.0
149
0.0
 93
        0
 94
       63
282
     0
 72
     1
 77
     1
171
     1
175
     1
179
     1
273
     0
  0
XRECORD
  5
23B1
102
{ACAD_REACTORS
330
23B0
102
}
330
23B0
100
AcDbXrecord
280
     1
102
ACAD_ROUNDTRIP_PRE2007_TABLESTYLE
 90
      512
 91
        0
  1

 92
      512
 93
        0
  2

 94
      512
 95
        0
  3

  0
ENDSEC
  0
EOF
