  0
SECTION
  2
HEADER
  9
$ACADVER
  1
AC1015
  9
$ACADMAINTVER
 70
    20
  9
$DWGCODEPAGE
  3
ANSI_1252
  9
$INSBASE
 10
0.0
 20
0.0
 30
0.0
  9
$EXTMIN
 10
69.39541662230897
 20
288.7994897070327
 30
-1.0
  9
$EXTMAX
 10
339.3954166223088
 20
488.7994897070324
 30
0.7
  9
$LIMMIN
 10
0.0
 20
0.0
  9
$LIMMAX
 10
420.0
 20
297.0
  9
$ORTHOMODE
 70
     1
  9
$REGENMODE
 70
     1
  9
$FILLMODE
 70
     1
  9
$QTEXTMODE
 70
     0
  9
$MIRRTEXT
 70
     0
  9
$LTSCALE
 40
23.1
  9
$ATTMODE
 70
     1
  9
$TEXTSIZE
 40
0.2
  9
$TRACEWID
 40
0.05
  9
$TEXTSTYLE
  7
Standard
  9
$CLAYER
  8
0
  9
$CELTYPE
  6
ByLayer
  9
$CECOLOR
 62
   256
  9
$CELTSCALE
 40
1.0
  9
$DISPSILH
 70
     0
  9
$DIMSCALE
 40
0.0
  9
$DIMASZ
 40
3.5
  9
$DIMEXO
 40
0.0
  9
$DIMDLI
 40
3.75
  9
$DIMRND
 40
0.0
  9
$DIMDLE
 40
0.0
  9
$DIMEXE
 40
2.0
  9
$DIMTP
 40
0.0
  9
$DIMTM
 40
0.0
  9
$DIMTXT
 40
3.5
  9
$DIMCEN
 40
2.5
  9
$DIMTSZ
 40
0.0
  9
$DIMTOL
 70
     0
  9
$DIMLIM
 70
     0
  9
$DIMTIH
 70
     0
  9
$DIMTOH
 70
     0
  9
$DIMSE1
 70
     0
  9
$DIMSE2
 70
     0
  9
$DIMTAD
 70
     1
  9
$DIMZIN
 70
     8
  9
$DIMBLK
  1

  9
$DIMASO
 70
     1
  9
$DIMSHO
 70
     1
  9
$DIMPOST
  1

  9
$DIMAPOST
  1

  9
$DIMALT
 70
     0
  9
$DIMALTD
 70
     4
  9
$DIMALTF
 40
0.039
  9
$DIMLFAC
 40
1.0
  9
$DIMTOFL
 70
     1
  9
$DIMTVP
 40
0.0
  9
$DIMTIX
 70
     0
  9
$DIMSOXD
 70
     0
  9
$DIMSAH
 70
     0
  9
$DIMBLK1
  1

  9
$DIMBLK2
  1

  9
$DIMSTYLE
  2
H035
  9
$DIMCLRD
 70
   256
  9
$DIMCLRE
 70
     7
  9
$DIMCLRT
 70
     7
  9
$DIMTFAC
 40
1.0
  9
$DIMGAP
 40
0.5
  9
$DIMJUST
 70
     0
  9
$DIMSD1
 70
     0
  9
$DIMSD2
 70
     0
  9
$DIMTOLJ
 70
     1
  9
$DIMTZIN
 70
     0
  9
$DIMALTZ
 70
     0
  9
$DIMALTTZ
 70
     0
  9
$DIMUPT
 70
     0
  9
$DIMDEC
 70
     0
  9
$DIMTDEC
 70
     2
  9
$DIMALTU
 70
     8
  9
$DIMALTTD
 70
     4
  9
$DIMTXSTY
  7
Standard
  9
$DIMAUNIT
 70
     0
  9
$DIMADEC
 70
     0
  9
$DIMALTRND
 40
0.0
  9
$DIMAZIN
 70
     0
  9
$DIMDSEP
 70
    46
  9
$DIMATFIT
 70
     3
  9
$DIMFRAC
 70
     0
  9
$DIMLDRBLK
  1

  9
$DIMLUNIT
 70
     2
  9
$DIMLWD
 70
    -2
  9
$DIMLWE
 70
    -2
  9
$DIMTMOVE
 70
     0
  9
$LUNITS
 70
     2
  9
$LUPREC
 70
     4
  9
$SKETCHINC
 40
0.1
  9
$FILLETRAD
 40
0.5
  9
$AUNITS
 70
     0
  9
$AUPREC
 70
     0
  9
$MENU
  1
.
  9
$ELEVATION
 40
0.0
  9
$PELEVATION
 40
0.0
  9
$THICKNESS
 40
0.0
  9
$LIMCHECK
 70
     0
  9
$CHAMFERA
 40
0.0
  9
$CHAMFERB
 40
0.0
  9
$CHAMFERC
 40
0.0
  9
$CHAMFERD
 40
0.0
  9
$SKPOLY
 70
     0
  9
$TDCREATE
 40
2452829.417613079
  9
$TDUCREATE
 40
2452829.375946412
  9
$TDUPDATE
 40
2453424.694857570
  9
$TDUUPDATE
 40
2453424.653190903
  9
$TDINDWG
 40
1.7472743634
  9
$TDUSRTIMER
 40
1.7472682292
  9
$USRTIMER
 70
     1
  9
$ANGBASE
 50
0.0
  9
$ANGDIR
 70
     0
  9
$PDMODE
 70
     0
  9
$PDSIZE
 40
0.0
  9
$PLINEWID
 40
0.0
  9
$SPLFRAME
 70
     0
  9
$SPLINETYPE
 70
     6
  9
$SPLINESEGS
 70
     8
  9
$HANDSEED
  5
9C08
  9
$SURFTAB1
 70
     6
  9
$SURFTAB2
 70
     6
  9
$SURFTYPE
 70
     6
  9
$SURFU
 70
     6
  9
$SURFV
 70
     6
  9
$UCSBASE
  2

  9
$UCSNAME
  2

  9
$UCSORG
 10
0.0
 20
0.0
 30
0.0
  9
$UCSXDIR
 10
1.0
 20
0.0
 30
0.0
  9
$UCSYDIR
 10
0.0
 20
1.0
 30
0.0
  9
$UCSORTHOREF
  2

  9
$UCSORTHOVIEW
 70
     0
  9
$UCSORGTOP
 10
0.0
 20
0.0
 30
0.0
  9
$UCSORGBOTTOM
 10
0.0
 20
0.0
 30
0.0
  9
$UCSORGLEFT
 10
0.0
 20
0.0
 30
0.0
  9
$UCSORGRIGHT
 10
0.0
 20
0.0
 30
0.0
  9
$UCSORGFRONT
 10
0.0
 20
0.0
 30
0.0
  9
$UCSORGBACK
 10
0.0
 20
0.0
 30
0.0
  9
$PUCSBASE
  2

  9
$PUCSNAME
  2

  9
$PUCSORG
 10
0.0
 20
0.0
 30
0.0
  9
$PUCSXDIR
 10
1.0
 20
0.0
 30
0.0
  9
$PUCSYDIR
 10
0.0
 20
1.0
 30
0.0
  9
$PUCSORTHOREF
  2

  9
$PUCSORTHOVIEW
 70
     0
  9
$PUCSORGTOP
 10
0.0
 20
0.0
 30
0.0
  9
$PUCSORGBOTTOM
 10
0.0
 20
0.0
 30
0.0
  9
$PUCSORGLEFT
 10
0.0
 20
0.0
 30
0.0
  9
$PUCSORGRIGHT
 10
0.0
 20
0.0
 30
0.0
  9
$PUCSORGFRONT
 10
0.0
 20
0.0
 30
0.0
  9
$PUCSORGBACK
 10
0.0
 20
0.0
 30
0.0
  9
$USERI1
 70
     0
  9
$USERI2
 70
     0
  9
$USERI3
 70
     0
  9
$USERI4
 70
     0
  9
$USERI5
 70
     0
  9
$USERR1
 40
0.0
  9
$USERR2
 40
0.0
  9
$USERR3
 40
0.0
  9
$USERR4
 40
0.0
  9
$USERR5
 40
0.0
  9
$WORLDVIEW
 70
     1
  9
$SHADEDGE
 70
     3
  9
$SHADEDIF
 70
    70
  9
$TILEMODE
 70
     1
  9
$MAXACTVP
 70
    64
  9
$PINSBASE
 10
0.0
 20
0.0
 30
0.0
  9
$PLIMCHECK
 70
     0
  9
$PEXTMIN
 10
1.000000000000000E+20
 20
1.000000000000000E+20
 30
1.000000000000000E+20
  9
$PEXTMAX
 10
-1.000000000000000E+20
 20
-1.000000000000000E+20
 30
-1.000000000000000E+20
  9
$PLIMMIN
 10
0.0
 20
0.0
  9
$PLIMMAX
 10
12.0
 20
9.0
  9
$UNITMODE
 70
     0
  9
$VISRETAIN
 70
     1
  9
$PLINEGEN
 70
     0
  9
$PSLTSCALE
 70
     1
  9
$TREEDEPTH
 70
  3020
  9
$CMLSTYLE
  2
Standard
  9
$CMLJUST
 70
     0
  9
$CMLSCALE
 40
1.0
  9
$PROXYGRAPHICS
 70
     1
  9
$MEASUREMENT
 70
     0
  9
$CELWEIGHT
370
    -1
  9
$ENDCAPS
280
     0
  9
$JOINSTYLE
280
     0
  9
$LWDISPLAY
290
     0
  9
$INSUNITS
 70
     0
  9
$HYPERLINKBASE
  1

  9
$STYLESHEET
  1
MONOCHROME.CTB
  9
$XEDIT
290
     1
  9
$CEPSNTYPE
380
     0
  9
$PSTYLEMODE
290
     1
  9
$FINGERPRINTGUID
  2
{D88032C4-1185-41D3-97DD-7638FCF99E3F}
  9
$VERSIONGUID
  2
{1B5816EC-CE99-4F34-B6E8-41A34371DEB6}
  9
$EXTNAMES
290
     1
  9
$PSVPSCALE
 40
0.0
  9
$OLESTARTUP
290
     0
  0
ENDSEC
  0
SECTION
  2
CLASSES
  0
CLASS
  1
ACDBDICTIONARYWDFLT
  2
AcDbDictionaryWithDefault
  3
ObjectDBX Classes
 90
        0
280
     0
281
     0
  0
CLASS
  1
DICTIONARYVAR
  2
AcDbDictionaryVar
  3
ObjectDBX Classes
 90
        0
280
     0
281
     0
  0
CLASS
  1
ACDBPLACEHOLDER
  2
AcDbPlaceHolder
  3
ObjectDBX Classes
 90
        0
280
     0
281
     0
  0
CLASS
  1
LAYOUT
  2
AcDbLayout
  3
ObjectDBX Classes
 90
        0
280
     0
281
     0
  0
ENDSEC
  0
SECTION
  2
TABLES
  0
TABLE
  2
VPORT
  5
8
330
0
100
AcDbSymbolTable
 70
     2
  0
VPORT
  5
9BFF
330
8
100
AcDbSymbolTableRecord
100
AcDbViewportTableRecord
  2
*Active
 70
     0
 10
0.0
 20
0.0
 11
1.0
 21
1.0
 12
204.4084177194262
 22
391.2857383307752
 13
0.0
 23
0.0
 14
1.0
 24
1.0
 15
0.0
 25
0.0
 16
0.0
 26
0.0
 36
1.0
 17
0.0
 27
0.0
 37
0.0
 40
206.5972905884208
 41
1.571994715984147
 42
50.0
 43
0.0
 44
0.0
 50
0.0
 51
0.0
 71
     0
 72
   100
 73
     1
 74
     1
 75
     0
 76
     0
 77
     0
 78
     0
281
     0
 65
     1
110
0.0
120
0.0
130
0.0
111
1.0
121
0.0
131
0.0
112
0.0
122
1.0
132
0.0
 79
     0
146
0.0
  0
ENDTAB
  0
TABLE
  2
LTYPE
  5
5
330
0
100
AcDbSymbolTable
 70
     3
  0
LTYPE
  5
13
330
5
100
AcDbSymbolTableRecord
100
AcDbLinetypeTableRecord
  2
ByBlock
 70
     0
  3

 72
    65
 73
     0
 40
0.0
  0
LTYPE
  5
14
330
5
100
AcDbSymbolTableRecord
100
AcDbLinetypeTableRecord
  2
ByLayer
 70
     0
  3

 72
    65
 73
     0
 40
0.0
  0
LTYPE
  5
15
330
5
100
AcDbSymbolTableRecord
100
AcDbLinetypeTableRecord
  2
CONTINUOUS
 70
     0
  3
Solid line
 72
    65
 73
     0
 40
0.0
  0
LTYPE
  5
26
330
5
100
AcDbSymbolTableRecord
100
AcDbLinetypeTableRecord
  2
CENTER
 70
     0
  3
____ _ ____ _ ____ _ ____ _ ____ _ ____ _ ____
 72
    65
 73
     4
 40
0.6
 49
0.375
 74
     0
 49
-0.075
 74
     0
 49
0.075
 74
     0
 49
-0.075
 74
     0
  0
LTYPE
  5
4F7A
330
5
100
AcDbSymbolTableRecord
100
AcDbLinetypeTableRecord
  2
DASHED
 70
     0
  3
_ _ _ _ _ _ _ _ _ _ _ _ _ _ _ _ _ _ _ _ _ _ _ _
 72
    65
 73
     2
 40
0.375
 49
0.25
 74
     0
 49
-0.125
 74
     0
  0
ENDTAB
  0
TABLE
  2
LAYER
  5
2
330
0
100
AcDbSymbolTable
 70
    10
  0
LAYER
  5
10
330
2
100
AcDbSymbolTableRecord
100
AcDbLayerTableRecord
  2
0
 70
     0
 62
     7
  6
CONTINUOUS
370
    -3
390
F
  0
LAYER
  5
1D8
330
2
100
AcDbSymbolTableRecord
100
AcDbLayerTableRecord
  2
Defpoints
 70
     0
 62
     7
  6
CONTINUOUS
290
     0
370
    -3
390
F
  0
LAYER
  5
1D9
330
2
100
AcDbSymbolTableRecord
100
AcDbLayerTableRecord
  2
91000_TIP
 70
     0
 62
     7
  6
CONTINUOUS
370
    -3
390
F
  0
LAYER
  5
1DA
330
2
100
AcDbSymbolTableRecord
100
AcDbLayerTableRecord
  2
11000_Left
 70
     0
 62
     7
  6
CONTINUOUS
370
    -3
390
F
  0
LAYER
  5
1DB
330
2
100
AcDbSymbolTableRecord
100
AcDbLayerTableRecord
  2
10000_FRONT
 70
     0
 62
     7
  6
CONTINUOUS
370
    -3
390
F
  0
LAYER
  5
1DC
330
2
100
AcDbSymbolTableRecord
100
AcDbLayerTableRecord
  2
10100_FRONT_DIM
 70
     0
 62
     7
  6
CONTINUOUS
370
    -3
390
F
  0
LAYER
  5
1DD
330
2
100
AcDbSymbolTableRecord
100
AcDbLayerTableRecord
  2
90000_FRAME
 70
     0
 62
     7
  6
CONTINUOUS
370
    -3
390
F
  0
LAYER
  5
1DE
330
2
100
AcDbSymbolTableRecord
100
AcDbLayerTableRecord
  2
11100_LEFT_DIM
 70
     0
 62
     7
  6
CONTINUOUS
370
    -3
390
F
  0
LAYER
  5
8E71
330
2
100
AcDbSymbolTableRecord
100
AcDbLayerTableRecord
  2
30000_Drilling
 70
     0
 62
     7
  6
CONTINUOUS
370
    -3
390
F
  0
LAYER
  5
8E72
330
2
100
AcDbSymbolTableRecord
100
AcDbLayerTableRecord
  2
30100_Drilling_DIM
 70
     0
 62
     7
  6
CONTINUOUS
370
    -3
390
F
  0
ENDTAB
  0
TABLE
  2
STYLE
  5
3
330
0
100
AcDbSymbolTable
 70
     1
  0
STYLE
  5
11
330
3
100
AcDbSymbolTableRecord
100
AcDbTextStyleTableRecord
  2
Standard
 70
     0
 40
0.0
 41
1.0
 50
0.0
 71
     0
 42
0.2
  3
txt
  4

  0
ENDTAB
  0
TABLE
  2
VIEW
  5
6
330
0
100
AcDbSymbolTable
 70
     0
  0
ENDTAB
  0
TABLE
  2
UCS
  5
7
330
0
100
AcDbSymbolTable
 70
     0
  0
ENDTAB
  0
TABLE
  2
APPID
  5
9
330
0
100
AcDbSymbolTable
 70
     3
  0
APPID
  5
12
330
9
100
AcDbSymbolTableRecord
100
AcDbRegAppTableRecord
  2
ACAD
 70
     0
  0
APPID
  5
1E8
330
9
100
AcDbSymbolTableRecord
100
AcDbRegAppTableRecord
  2
AUSTER_ANSICHT
 70
     0
  0
APPID
  5
1E9
330
9
100
AcDbSymbolTableRecord
100
AcDbRegAppTableRecord
  2
AUSTER_FOLIE
 70
     0
  0
ENDTAB
  0
TABLE
  2
DIMSTYLE
  5
A
330
0
100
AcDbSymbolTable
 70
     2
100
AcDbDimStyleTable
 71
     2
340
3A1A
340
BA
  0
DIMSTYLE
105
BA
330
A
100
AcDbSymbolTableRecord
100
AcDbDimStyleTableRecord
  2
Standard
 70
     0
340
11
  0
DIMSTYLE
105
3A1A
102
{ACAD_REACTORS
330
9692
330
969F
330
96DD
330
9700
330
96F3
330
96C3
330
9747
330
973A
330
9754
102
}
330
A
100
AcDbSymbolTableRecord
100
AcDbDimStyleTableRecord
  2
H035
 70
     0
 40
0.0
 41
3.5
 42
0.0
 43
3.75
 44
2.0
 73
     0
 74
     0
 77
     1
 78
     8
140
3.5
141
2.5
143
0.039
147
0.5
171
     4
172
     1
176
   256
177
     7
178
     7
271
     0
272
     2
273
     8
274
     4
340
11
  0
ENDTAB
  0
TABLE
  2
BLOCK_RECORD
  5
1
330
0
100
AcDbSymbolTable
 70
    10
  0
BLOCK_RECORD
  5
20
330
1
100
AcDbSymbolTableRecord
100
AcDbBlockTableRecord
  2
*Model_Space
340
23
  0
BLOCK_RECORD
  5
1C
330
1
100
AcDbSymbolTableRecord
100
AcDbBlockTableRecord
  2
*Paper_Space
340
1F
  0
BLOCK_RECORD
  5
3A
330
1
100
AcDbSymbolTableRecord
100
AcDbBlockTableRecord
  2
SIEMENS_OUTLINE_BL0
340
0
102
{BLKREFS
331
8CC5
102
}
  0
BLOCK_RECORD
  5
9693
330
1
100
AcDbSymbolTableRecord
100
AcDbBlockTableRecord
  2
*D1
340
0
  0
BLOCK_RECORD
  5
96A0
330
1
100
AcDbSymbolTableRecord
100
AcDbBlockTableRecord
  2
*D2
340
0
  0
BLOCK_RECORD
  5
96C4
330
1
100
AcDbSymbolTableRecord
100
AcDbBlockTableRecord
  2
*D3
340
0
  0
BLOCK_RECORD
  5
96DE
330
1
100
AcDbSymbolTableRecord
100
AcDbBlockTableRecord
  2
*D4
340
0
  0
BLOCK_RECORD
  5
96F4
330
1
100
AcDbSymbolTableRecord
100
AcDbBlockTableRecord
  2
*D5
340
0
  0
BLOCK_RECORD
  5
9701
330
1
100
AcDbSymbolTableRecord
100
AcDbBlockTableRecord
  2
*D6
340
0
  0
BLOCK_RECORD
  5
973B
330
1
100
AcDbSymbolTableRecord
100
AcDbBlockTableRecord
  2
*D7
340
0
  0
BLOCK_RECORD
  5
9748
330
1
100
AcDbSymbolTableRecord
100
AcDbBlockTableRecord
  2
*D8
340
0
  0
BLOCK_RECORD
  5
9755
330
1
100
AcDbSymbolTableRecord
100
AcDbBlockTableRecord
  2
*D9
340
0
  0
ENDTAB
  0
ENDSEC
  0
SECTION
  2
BLOCKS
  0
BLOCK
  5
21
330
20
100
AcDbEntity
  8
0
100
AcDbBlockBegin
  2
*Model_Space
 70
     0
 10
0.0
 20
0.0
 30
0.0
  3
*Model_Space
  1

  0
ENDBLK
  5
22
330
20
100
AcDbEntity
  8
0
100
AcDbBlockEnd
  0
BLOCK
  5
1D
330
1C
100
AcDbEntity
 67
     1
  8
0
100
AcDbBlockBegin
  2
*Paper_Space
 70
     0
 10
0.0
 20
0.0
 30
0.0
  3
*Paper_Space
  1

  0
ENDBLK
  5
1E
330
1C
100
AcDbEntity
 67
     1
  8
0
100
AcDbBlockEnd
  0
BLOCK
  5
3B
330
3A
100
AcDbEntity
  8
0
  6
Continuous
 62
     7
100
AcDbBlockBegin
  2
SIEMENS_OUTLINE_BL0
 70
     0
 10
0.0
 20
0.0
 30
0.0
  3
SIEMENS_OUTLINE_BL0
  1

  0
LINE
  5
3C
330
3A
100
AcDbEntity
  8
0
  6
Continuous
 62
     7
100
AcDbLine
 10
289.1235341257
 20
21.4969115175
 30
0.0
 11
289.1235341257
 21
16.7436424342
 31
0.0
  0
LINE
  5
3D
330
3A
100
AcDbEntity
  8
0
  6
Continuous
 62
     7
100
AcDbLine
 10
290.5495148507
 20
21.4969115175
 30
0.0
 11
290.5495148507
 21
16.7436424342
 31
0.0
  0
LINE
  5
3E
330
3A
100
AcDbEntity
  8
0
  6
Continuous
 62
     7
100
AcDbLine
 10
289.1235341257
 20
16.7436424342
 30
0.0
 11
290.5495148507
 21
16.7436424342
 31
0.0
  0
LINE
  5
3F
330
3A
100
AcDbEntity
  8
0
  6
Continuous
 62
     7
100
AcDbLine
 10
289.1235341257
 20
21.4969115175
 30
0.0
 11
290.5495148507
 21
21.4969115175
 31
0.0
  0
LINE
  5
40
330
3A
100
AcDbEntity
  8
0
  6
Continuous
 62
     7
100
AcDbLine
 10
291.6427667399
 20
21.4969115175
 30
0.0
 11
291.6427667399
 21
16.7436424342
 31
0.0
  0
LINE
  5
41
330
3A
100
AcDbEntity
  8
0
  6
Continuous
 62
     7
100
AcDbLine
 10
291.6427667399
 20
16.7436424342
 30
0.0
 11
295.2077185523
 21
16.7436424342
 31
0.0
  0
LINE
  5
42
330
3A
100
AcDbEntity
  8
0
  6
Continuous
 62
     7
100
AcDbLine
 10
295.2077185523
 20
17.64676356
 30
0.0
 11
293.021214774
 21
17.64676356
 31
0.0
  0
LINE
  5
43
330
3A
100
AcDbEntity
  8
0
  6
Continuous
 62
     7
100
AcDbLine
 10
295.2077185523
 20
17.64676356
 30
0.0
 11
295.2077185523
 21
16.7436424342
 31
0.0
  0
LINE
  5
44
330
3A
100
AcDbEntity
  8
0
  6
Continuous
 62
     7
100
AcDbLine
 10
295.1601858615
 20
21.4969115175
 30
0.0
 11
291.6427667399
 21
21.4969115175
 31
0.0
  0
LINE
  5
45
330
3A
100
AcDbEntity
  8
0
  6
Continuous
 62
     7
100
AcDbLine
 10
295.1601858615
 20
20.6175567371
 30
0.0
 11
293.021214774
 21
20.6175567371
 31
0.0
  0
LINE
  5
46
330
3A
100
AcDbEntity
  8
0
  6
Continuous
 62
     7
100
AcDbLine
 10
295.1601858615
 20
21.4969115175
 30
0.0
 11
295.1601858615
 21
20.6175567371
 31
0.0
  0
LINE
  5
47
330
3A
100
AcDbEntity
  8
0
  6
Continuous
 62
     7
100
AcDbLine
 10
294.8749897165
 20
18.7637817946
 30
0.0
 11
293.021214774
 21
18.7637817946
 31
0.0
  0
LINE
  5
48
330
3A
100
AcDbEntity
  8
0
  6
Continuous
 62
     7
100
AcDbLine
 10
294.8749897165
 20
19.5480711933
 30
0.0
 11
294.8749897165
 21
18.7637817946
 31
0.0
  0
LINE
  5
49
330
3A
100
AcDbEntity
  8
0
  6
Continuous
 62
     7
100
AcDbLine
 10
294.8749897165
 20
19.5480711933
 30
0.0
 11
293.021214774
 21
19.5480711933
 31
0.0
  0
LINE
  5
4A
330
3A
100
AcDbEntity
  8
0
  6
Continuous
 62
     7
100
AcDbLine
 10
293.021214774
 20
20.6175567371
 30
0.0
 11
293.021214774
 21
19.5480711933
 31
0.0
  0
LINE
  5
4B
330
3A
100
AcDbEntity
  8
0
  6
Continuous
 62
     7
100
AcDbLine
 10
293.021214774
 20
18.7637817946
 30
0.0
 11
293.021214774
 21
17.64676356
 31
0.0
  0
LINE
  5
4C
330
3A
100
AcDbEntity
  8
0
  6
Continuous
 62
     7
100
AcDbLine
 10
296.0157742965
 20
16.7436424342
 30
0.0
 11
296.0157742965
 21
21.4969115175
 31
0.0
  0
LINE
  5
4D
330
3A
100
AcDbEntity
  8
0
  6
Continuous
 62
     7
100
AcDbLine
 10
296.0157742965
 20
16.7436424342
 30
0.0
 11
296.9664281131
 21
16.7436424342
 31
0.0
  0
LINE
  5
4E
330
3A
100
AcDbEntity
  8
0
  6
Continuous
 62
     7
100
AcDbLine
 10
301.8622952689
 20
21.4969115175
 30
0.0
 11
301.8622952689
 21
16.7436424342
 31
0.0
  0
LINE
  5
4F
330
3A
100
AcDbEntity
  8
0
  6
Continuous
 62
     7
100
AcDbLine
 10
301.8622952689
 20
16.7436424342
 30
0.0
 11
300.4838472348
 21
16.7436424342
 31
0.0
  0
LINE
  5
50
330
3A
100
AcDbEntity
  8
0
  6
Continuous
 62
     7
100
AcDbLine
 10
298.2973434565
 20
16.6961097434
 30
0.0
 11
299.1529318914
 21
16.6961097434
 31
0.0
  0
LINE
  5
51
330
3A
100
AcDbEntity
  8
0
  6
Continuous
 62
     7
100
AcDbLine
 10
298.2973434565
 20
16.6961097434
 30
0.0
 11
296.9664281131
 21
19.7857346475
 31
0.0
  0
LINE
  5
52
330
3A
100
AcDbEntity
  8
0
  6
Continuous
 62
     7
100
AcDbLine
 10
296.9664281131
 20
16.7436424342
 30
0.0
 11
296.9664281131
 21
19.7857346475
 31
0.0
  0
LINE
  5
53
330
3A
100
AcDbEntity
  8
0
  6
Continuous
 62
     7
100
AcDbLine
 10
300.4838472348
 20
19.8332673383
 30
0.0
 11
299.1529318914
 21
16.6961097434
 31
0.0
  0
LINE
  5
54
330
3A
100
AcDbEntity
  8
0
  6
Continuous
 62
     7
100
AcDbLine
 10
297.7269511665
 20
21.4969115175
 30
0.0
 11
296.0157742965
 21
21.4969115175
 31
0.0
  0
LINE
  5
55
330
3A
100
AcDbEntity
  8
0
  6
Continuous
 62
     7
100
AcDbLine
 10
301.8622952689
 20
21.4969115175
 30
0.0
 11
300.1511183989
 21
21.4969115175
 31
0.0
  0
LINE
  5
56
330
3A
100
AcDbEntity
  8
0
  6
Continuous
 62
     7
100
AcDbLine
 10
297.7269511665
 20
21.4969115175
 30
0.0
 11
298.9628011281
 21
18.5974173767
 31
0.0
  0
LINE
  5
57
330
3A
100
AcDbEntity
  8
0
  6
Continuous
 62
     7
100
AcDbLine
 10
300.1511183989
 20
21.4969115175
 30
0.0
 11
298.9628011281
 21
18.5974173767
 31
0.0
  0
LINE
  5
58
330
3A
100
AcDbEntity
  8
0
  6
Continuous
 62
     7
100
AcDbLine
 10
300.4838472348
 20
19.8332673383
 30
0.0
 11
300.4838472348
 21
16.7436424342
 31
0.0
  0
LINE
  5
59
330
3A
100
AcDbEntity
  8
0
  6
Continuous
 62
     7
100
AcDbLine
 10
302.9555471581
 20
21.4969115175
 30
0.0
 11
302.9555471581
 21
16.7436424342
 31
0.0
  0
LINE
  5
5A
330
3A
100
AcDbEntity
  8
0
  6
Continuous
 62
     7
100
AcDbLine
 10
302.9555471581
 20
16.7436424342
 30
0.0
 11
306.5204989705
 21
16.7436424342
 31
0.0
  0
LINE
  5
5B
330
3A
100
AcDbEntity
  8
0
  6
Continuous
 62
     7
100
AcDbLine
 10
306.5204989705
 20
17.64676356
 30
0.0
 11
304.3339951922
 21
17.64676356
 31
0.0
  0
LINE
  5
5C
330
3A
100
AcDbEntity
  8
0
  6
Continuous
 62
     7
100
AcDbLine
 10
306.5204989705
 20
17.64676356
 30
0.0
 11
306.5204989705
 21
16.7436424342
 31
0.0
  0
LINE
  5
5D
330
3A
100
AcDbEntity
  8
0
  6
Continuous
 62
     7
100
AcDbLine
 10
306.4729662797
 20
21.4969115175
 30
0.0
 11
302.9555471581
 21
21.4969115175
 31
0.0
  0
LINE
  5
5E
330
3A
100
AcDbEntity
  8
0
  6
Continuous
 62
     7
100
AcDbLine
 10
306.4729662797
 20
20.6175567371
 30
0.0
 11
304.3339951922
 21
20.6175567371
 31
0.0
  0
LINE
  5
5F
330
3A
100
AcDbEntity
  8
0
  6
Continuous
 62
     7
100
AcDbLine
 10
306.4729662797
 20
21.4969115175
 30
0.0
 11
306.4729662797
 21
20.6175567371
 31
0.0
  0
LINE
  5
60
330
3A
100
AcDbEntity
  8
0
  6
Continuous
 62
     7
100
AcDbLine
 10
306.1877701347
 20
18.7637817946
 30
0.0
 11
304.3339951922
 21
18.7637817946
 31
0.0
  0
LINE
  5
61
330
3A
100
AcDbEntity
  8
0
  6
Continuous
 62
     7
100
AcDbLine
 10
306.1877701347
 20
19.5480711933
 30
0.0
 11
306.1877701347
 21
18.7637817946
 31
0.0
  0
LINE
  5
62
330
3A
100
AcDbEntity
  8
0
  6
Continuous
 62
     7
100
AcDbLine
 10
306.1877701347
 20
19.5480711933
 30
0.0
 11
304.3339951922
 21
19.5480711933
 31
0.0
  0
LINE
  5
63
330
3A
100
AcDbEntity
  8
0
  6
Continuous
 62
     7
100
AcDbLine
 10
304.3339951922
 20
20.6175567371
 30
0.0
 11
304.3339951922
 21
19.5480711933
 31
0.0
  0
LINE
  5
64
330
3A
100
AcDbEntity
  8
0
  6
Continuous
 62
     7
100
AcDbLine
 10
304.3339951922
 20
18.7637817946
 30
0.0
 11
304.3339951922
 21
17.64676356
 31
0.0
  0
LINE
  5
65
330
3A
100
AcDbEntity
  8
0
  6
Continuous
 62
     7
100
AcDbLine
 10
307.3047883693
 20
16.7436424342
 30
0.0
 11
307.3047883693
 21
21.4969115175
 31
0.0
  0
LINE
  5
66
330
3A
100
AcDbEntity
  8
0
  6
Continuous
 62
     7
100
AcDbLine
 10
311.4876651625
 20
21.4969115175
 30
0.0
 11
311.4876651625
 21
16.7436424342
 31
0.0
  0
LINE
  5
67
330
3A
100
AcDbEntity
  8
0
  6
Continuous
 62
     7
100
AcDbLine
 10
307.3047883693
 20
16.7436424342
 30
0.0
 11
308.2554421859
 21
16.7436424342
 31
0.0
  0
LINE
  5
68
330
3A
100
AcDbEntity
  8
0
  6
Continuous
 62
     7
100
AcDbLine
 10
311.4876651625
 20
21.4969115175
 30
0.0
 11
310.5370113459
 21
21.4969115175
 31
0.0
  0
LINE
  5
69
330
3A
100
AcDbEntity
  8
0
  6
Continuous
 62
     7
100
AcDbLine
 10
308.8496008213
 20
21.4969115175
 30
0.0
 11
307.3047883693
 21
21.4969115175
 31
0.0
  0
LINE
  5
6A
330
3A
100
AcDbEntity
  8
0
  6
Continuous
 62
     7
100
AcDbLine
 10
311.4876651625
 20
16.7436424342
 30
0.0
 11
309.9666190559
 21
16.7436424342
 31
0.0
  0
LINE
  5
6B
330
3A
100
AcDbEntity
  8
0
  6
Continuous
 62
     7
100
AcDbLine
 10
309.9666190559
 20
16.7436424342
 30
0.0
 11
308.2554421859
 21
19.7857346475
 31
0.0
  0
LINE
  5
6C
330
3A
100
AcDbEntity
  8
0
  6
Continuous
 62
     7
100
AcDbLine
 10
308.8496008213
 20
21.4969115175
 30
0.0
 11
310.5370113459
 21
18.5498846858
 31
0.0
  0
LINE
  5
6D
330
3A
100
AcDbEntity
  8
0
  6
Continuous
 62
     7
100
AcDbLine
 10
310.5370113459
 20
21.4969115175
 30
0.0
 11
310.5370113459
 21
18.5498846858
 31
0.0
  0
LINE
  5
6E
330
3A
100
AcDbEntity
  8
0
  6
Continuous
 62
     7
100
AcDbLine
 10
308.2554421859
 20
16.7436424342
 30
0.0
 11
308.2554421859
 21
19.7857346475
 31
0.0
  0
LINE
  5
6F
330
3A
100
AcDbEntity
  8
0
  6
Continuous
 62
     7
100
AcDbLine
 10
312.2957209067
 20
16.8387078159
 30
0.0
 11
312.2957209067
 21
17.7893616325
 31
0.0
  0
LINE
  5
70
330
3A
100
AcDbEntity
  8
0
  6
Continuous
 62
     7
100
AcDbLine
 10
315.623009265
 20
20.49872501
 30
0.0
 11
315.623009265
 21
21.4493788266
 31
0.0
  0
ARC
  5
71
330
3A
100
AcDbEntity
  8
0
  6
Continuous
 62
     7
100
AcDbCircle
 10
314.0003620317
 20
18.7008009792
 30
0.0
 40
1.111619360599997
100
AcDbArc
 50
277.7099956934
 51
295.6884927746
  0
ARC
  5
72
330
3A
100
AcDbEntity
  8
0
  6
Continuous
 62
     7
100
AcDbCircle
 10
314.2846720145
 20
17.9759752156
 30
0.0
 40
0.3401689265
100
AcDbArc
 50
305.503221255
 51
72.46528985229999
  0
ARC
  5
73
330
3A
100
AcDbEntity
  8
0
  6
Continuous
 62
     7
100
AcDbCircle
 10
313.7186782063
 20
21.3776821252
 30
0.0
 40
4.756794641099999
100
AcDbArc
 50
252.5939200548001
 51
280.9816604256
  0
ARC
  5
74
330
3A
100
AcDbEntity
  8
0
  6
Continuous
 62
     7
100
AcDbCircle
 10
314.1735135694
 20
18.7596683887
 30
0.0
 40
2.100726595299998
100
AcDbArc
 50
282.405835852
 51
311.8644433928
  0
ARC
  5
75
330
3A
100
AcDbEntity
  8
0
  6
Continuous
 62
     7
100
AcDbCircle
 10
313.8999492223
 20
20.3680101102
 30
0.0
 40
0.3029626476
100
AcDbArc
 50
154.4400348282
 51
221.8201698801
  0
ARC
  5
76
330
3A
100
AcDbEntity
  8
0
  6
Continuous
 62
     7
100
AcDbCircle
 10
313.9791703737
 20
20.2887889588
 30
0.0
 40
0.4103089737
100
AcDbArc
 50
102.8287828681
 51
149.2259639003
  0
ARC
  5
77
330
3A
100
AcDbEntity
  8
0
  6
Continuous
 62
     7
100
AcDbCircle
 10
314.3961972093
 20
18.546453629
 30
0.0
 40
2.201836557
100
AcDbArc
 50
84.0400061857
 51
103.3427657870999
  0
ARC
  5
78
330
3A
100
AcDbEntity
  8
0
  6
Continuous
 62
     7
100
AcDbCircle
 10
314.0552333846
 20
16.1290897051
 30
0.0
 40
4.642373736499997
100
AcDbArc
 50
70.2625858546
 51
82.95241863799999
  0
ARC
  5
79
330
3A
100
AcDbEntity
  8
0
  6
Continuous
 62
     7
100
AcDbCircle
 10
313.5412151824001
 20
20.8007125947
 30
0.0
 40
3.258755990899997
100
AcDbArc
 50
247.5300206145
 51
280.7579522143
  0
ARC
  5
7A
330
3A
100
AcDbEntity
  8
0
  6
Continuous
 62
     7
100
AcDbCircle
 10
307.1562487104
 20
2.5491926343
 30
0.0
 40
17.3316084133
100
AcDbArc
 50
65.34146746500001
 51
67.39977707359999
  0
ARC
  5
7B
330
3A
100
AcDbEntity
  8
0
  6
Continuous
 62
     7
100
AcDbCircle
 10
317.9521111158
 20
28.3416189974
 30
0.0
 40
10.6291642039
100
AcDbArc
 50
242.8620101252001
 51
247.1042029186
  0
ARC
  5
7C
330
3A
100
AcDbEntity
  8
0
  6
Continuous
 62
     7
100
AcDbCircle
 10
314.0972098893
 20
20.8076875004
 30
0.0
 40
2.166291629199998
100
AcDbArc
 50
227.3119280794
 51
242.7040315235
  0
ARC
  5
7D
330
3A
100
AcDbEntity
  8
0
  6
Continuous
 62
     7
100
AcDbCircle
 10
313.4931790796
 20
20.1020098596
 30
0.0
 40
1.238521734
100
AcDbArc
 50
194.7952194236
 51
225.7176549047
  0
ARC
  5
7E
330
3A
100
AcDbEntity
  8
0
  6
Continuous
 62
     7
100
AcDbCircle
 10
313.5553372138
 20
20.1422298287
 30
0.0
 40
1.309092072899999
100
AcDbArc
 50
164.1974860461
 51
195.8025139539
  0
ARC
  5
7F
330
3A
100
AcDbEntity
  8
0
  6
Continuous
 62
     7
100
AcDbCircle
 10
314.1123609345001
 20
19.2539626688
 30
0.0
 40
2.366924815299999
100
AcDbArc
 50
86.22180229280001
 51
120.4272602309
  0
ARC
  5
80
330
3A
100
AcDbEntity
  8
0
  6
Continuous
 62
     7
100
AcDbCircle
 10
313.8435041519
 20
12.5577948477
 30
0.0
 40
9.0679051661
100
AcDbArc
 50
78.68270492259998
 51
87.3147599624
  0
ARC
  5
81
330
3A
100
AcDbEntity
  8
0
  6
Continuous
 62
     7
100
AcDbCircle
 10
313.3874349735
 20
20.2497375912
 30
0.0
 40
1.119747444
100
AcDbArc
 50
142.813917903
 51
167.1522951417
  0
ARC
  5
82
330
3A
100
AcDbEntity
  8
0
  6
Continuous
 62
     7
100
AcDbCircle
 10
313.7327443151
 20
19.9431558946
 30
0.0
 40
1.580546684499998
100
AcDbArc
 50
121.2140948535
 51
141.5254768286
  0
ARC
  5
83
330
3A
100
AcDbEntity
  8
0
  6
Continuous
 62
     7
100
AcDbCircle
 10
314.3099186807
 20
20.7542132232
 30
0.0
 40
0.8661276051999998
100
AcDbArc
 50
222.7760387596
 51
239.0362434679
  0
ARC
  5
84
330
3A
100
AcDbEntity
  8
0
  6
Continuous
 62
     7
100
AcDbCircle
 10
311.8032091024
 20
13.4239410246
 30
0.0
 40
6.858773576299999
100
AcDbArc
 50
59.90202725600001
 51
68.2036481279
  0
ARC
  5
85
330
3A
100
AcDbEntity
  8
0
  6
Continuous
 62
     7
100
AcDbCircle
 10
315.2117035963
 20
22.3498275319
 30
0.0
 40
2.698741017099999
100
AcDbArc
 50
240.0481997804
 51
251.3779673736999
  0
ARC
  5
86
330
3A
100
AcDbEntity
  8
0
  6
Continuous
 62
     7
100
AcDbCircle
 10
314.5462464295
 20
18.1929289165
 30
0.0
 40
1.4334474881
100
AcDbArc
 50
315.8904553224
 51
333.5229264373
  0
ARC
  5
87
330
3A
100
AcDbEntity
  8
0
  6
Continuous
 62
     7
100
AcDbCircle
 10
314.5508846732
 20
18.1395217664
 30
0.0
 40
1.406228711899998
100
AcDbArc
 50
335.3867972702
 51
24.3915119402
  0
ARC
  5
88
330
3A
100
AcDbEntity
  8
0
  6
Continuous
 62
     7
100
AcDbCircle
 10
314.4786797697
 20
18.0616650746
 30
0.0
 40
1.504702514799999
100
AcDbArc
 50
25.95629166050001
 51
59.4834829668
  0
LINE
  5
89
330
3A
100
AcDbEntity
  8
0
  6
Continuous
 62
     7
100
AcDbLine
 10
284.7029938783
 20
16.8387078159
 30
0.0
 11
284.7029938783
 21
17.7893616325
 31
0.0
  0
LINE
  5
8A
330
3A
100
AcDbEntity
  8
0
  6
Continuous
 62
     7
100
AcDbLine
 10
288.0302822366
 20
20.49872501
 30
0.0
 11
288.0302822366
 21
21.4493788266
 31
0.0
  0
ARC
  5
8B
330
3A
100
AcDbEntity
  8
0
  6
Continuous
 62
     7
100
AcDbCircle
 10
286.4076350033
 20
18.7008009792
 30
0.0
 40
1.111619360599997
100
AcDbArc
 50
277.7099956934
 51
295.6884927746
  0
ARC
  5
8C
330
3A
100
AcDbEntity
  8
0
  6
Continuous
 62
     7
100
AcDbCircle
 10
286.691944986
 20
17.9759752156
 30
0.0
 40
0.3401689265
100
AcDbArc
 50
305.5032212556
 51
72.4652898515
  0
ARC
  5
8D
330
3A
100
AcDbEntity
  8
0
  6
Continuous
 62
     7
100
AcDbCircle
 10
286.1259511779
 20
21.3776821252
 30
0.0
 40
4.756794641099999
100
AcDbArc
 50
252.5939200545
 51
280.9816604253
  0
ARC
  5
8E
330
3A
100
AcDbEntity
  8
0
  6
Continuous
 62
     7
100
AcDbCircle
 10
286.580786541
 20
18.7596683887
 30
0.0
 40
2.100726595299998
100
AcDbArc
 50
282.4058358513
 51
311.8644433923
  0
ARC
  5
8F
330
3A
100
AcDbEntity
  8
0
  6
Continuous
 62
     7
100
AcDbCircle
 10
286.3072221939
 20
20.3680101102
 30
0.0
 40
0.3029626476
100
AcDbArc
 50
154.4400348282
 51
221.8201698801
  0
ARC
  5
90
330
3A
100
AcDbEntity
  8
0
  6
Continuous
 62
     7
100
AcDbCircle
 10
286.3864433453
 20
20.2887889588
 30
0.0
 40
0.4103089737
100
AcDbArc
 50
102.8287828727
 51
149.2259639027
  0
ARC
  5
91
330
3A
100
AcDbEntity
  8
0
  6
Continuous
 62
     7
100
AcDbCircle
 10
286.8034701809
 20
18.546453629
 30
0.0
 40
2.201836557
100
AcDbArc
 50
84.0400061859
 51
103.3427657872
  0
ARC
  5
92
330
3A
100
AcDbEntity
  8
0
  6
Continuous
 62
     7
100
AcDbCircle
 10
286.4625063562
 20
16.1290897051
 30
0.0
 40
4.642373736499997
100
AcDbArc
 50
70.2625858546
 51
82.9524186379
  0
ARC
  5
93
330
3A
100
AcDbEntity
  8
0
  6
Continuous
 62
     7
100
AcDbCircle
 10
285.948488154
 20
20.8007125947
 30
0.0
 40
3.258755990899997
100
AcDbArc
 50
247.5300206148
 51
280.7579522145
  0
ARC
  5
94
330
3A
100
AcDbEntity
  8
0
  6
Continuous
 62
     7
100
AcDbCircle
 10
279.563521682
 20
2.5491926343
 30
0.0
 40
17.3316084133
100
AcDbArc
 50
65.34146746500001
 51
67.39977707359999
  0
ARC
  5
95
330
3A
100
AcDbEntity
  8
0
  6
Continuous
 62
     7
100
AcDbCircle
 10
290.3593840874
 20
28.3416189974
 30
0.0
 40
10.6291642039
100
AcDbArc
 50
242.8620101252001
 51
247.1042029185
  0
ARC
  5
96
330
3A
100
AcDbEntity
  8
0
  6
Continuous
 62
     7
100
AcDbCircle
 10
286.5044828608
 20
20.8076875004
 30
0.0
 40
2.166291629199998
100
AcDbArc
 50
227.3119280794
 51
242.7040315235
  0
ARC
  5
97
330
3A
100
AcDbEntity
  8
0
  6
Continuous
 62
     7
100
AcDbCircle
 10
285.9004520512
 20
20.1020098596
 30
0.0
 40
1.238521734
100
AcDbArc
 50
194.7952194234
 51
225.7176549042
  0
ARC
  5
98
330
3A
100
AcDbEntity
  8
0
  6
Continuous
 62
     7
100
AcDbCircle
 10
286.519633906
 20
19.2539626688
 30
0.0
 40
2.366924815299999
100
AcDbArc
 50
86.22180229280001
 51
120.4272602309
  0
ARC
  5
99
330
3A
100
AcDbEntity
  8
0
  6
Continuous
 62
     7
100
AcDbCircle
 10
286.2507771235
 20
12.5577948477
 30
0.0
 40
9.0679051661
100
AcDbArc
 50
78.68270492259998
 51
87.3147599624
  0
ARC
  5
9A
330
3A
100
AcDbEntity
  8
0
  6
Continuous
 62
     7
100
AcDbCircle
 10
286.1400172867
 20
19.9431558946
 30
0.0
 40
1.580546684599998
100
AcDbArc
 50
121.2140948541
 51
141.525476829
  0
ARC
  5
9B
330
3A
100
AcDbEntity
  8
0
  6
Continuous
 62
     7
100
AcDbCircle
 10
286.7171916523
 20
20.7542132232
 30
0.0
 40
0.8661276051999998
100
AcDbArc
 50
222.7760387596
 51
239.0362434679
  0
ARC
  5
9C
330
3A
100
AcDbEntity
  8
0
  6
Continuous
 62
     7
100
AcDbCircle
 10
284.210482074
 20
13.4239410246
 30
0.0
 40
6.858773576299999
100
AcDbArc
 50
59.90202725620001
 51
68.20364812820002
  0
ARC
  5
9D
330
3A
100
AcDbEntity
  8
0
  6
Continuous
 62
     7
100
AcDbCircle
 10
287.6189765678
 20
22.3498275319
 30
0.0
 40
2.698741017099999
100
AcDbArc
 50
240.0481997804
 51
251.3779673734
  0
ARC
  5
9E
330
3A
100
AcDbEntity
  8
0
  6
Continuous
 62
     7
100
AcDbCircle
 10
286.953519401
 20
18.1929289165
 30
0.0
 40
1.4334474881
100
AcDbArc
 50
315.8904553226
 51
333.5229264375
  0
ARC
  5
9F
330
3A
100
AcDbEntity
  8
0
  6
Continuous
 62
     7
100
AcDbCircle
 10
286.9581576447
 20
18.1395217664
 30
0.0
 40
1.406228711899998
100
AcDbArc
 50
335.3867972703
 51
24.3915119403
  0
ARC
  5
A0
330
3A
100
AcDbEntity
  8
0
  6
Continuous
 62
     7
100
AcDbCircle
 10
286.8859527412
 20
18.0616650746
 30
0.0
 40
1.504702514699999
100
AcDbArc
 50
25.9562916611
 51
59.4834829676
  0
LINE
  5
A1
330
3A
100
AcDbEntity
  8
0
  6
Continuous
 62
     7
100
AcDbLine
 10
284.8948224676
 20
20.9161059766
 30
0.0
 11
285.1688882922
 21
21.1901790542
 31
0.0
  0
ARC
  5
A2
330
3A
100
AcDbEntity
  8
0
  6
Continuous
 62
     7
100
AcDbCircle
 10
285.9626101853
 20
20.1422298287
 30
0.0
 40
1.309092072899999
100
AcDbArc
 50
164.1974860461
 51
195.8025139539
  0
ARC
  5
A3
330
3A
100
AcDbEntity
  8
0
  6
Continuous
 62
     7
100
AcDbCircle
 10
285.7947079451
 20
20.2497375912
 30
0.0
 40
1.119747444
100
AcDbArc
 50
142.813917903
 51
167.1522951417
  0
ENDBLK
  5
A4
330
3A
100
AcDbEntity
  8
0
100
AcDbBlockEnd
  0
BLOCK
  5
969D
330
9693
100
AcDbEntity
  8
0
100
AcDbBlockBegin
  2
*D1
 70
     1
 10
0.0
 20
0.0
 30
0.0
  3
*D1
  1

  0
LINE
  5
989E
330
9693
100
AcDbEntity
  8
10100_FRONT_DIM
  6
Continuous
 62
     7
370
    -2
100
AcDbLine
 10
88.18777836814584
 20
380.5304998707434
 30
0.0
 11
88.18777836814584
 21
369.1980770868706
 31
0.0
  0
LINE
  5
989F
330
9693
100
AcDbEntity
  8
10100_FRONT_DIM
  6
Continuous
 62
     7
370
    -2
100
AcDbLine
 10
133.1651044097389
 20
380.5304998707434
 30
0.0
 11
133.1651044097389
 21
369.1980770868706
 31
0.0
  0
LINE
  5
98A0
330
9693
100
AcDbEntity
  8
10100_FRONT_DIM
  6
Continuous
370
    -2
100
AcDbLine
 10
91.68777836814584
 20
371.1980770868706
 30
0.0
 11
106.2597747222757
 21
371.1980770868706
 31
0.0
  0
LINE
  5
98A1
330
9693
100
AcDbEntity
  8
10100_FRONT_DIM
  6
Continuous
370
    -2
100
AcDbLine
 10
129.6651044097389
 20
371.1980770868706
 30
0.0
 11
115.093108055609
 21
371.1980770868706
 31
0.0
  0
SOLID
  5
98A2
330
9693
100
AcDbEntity
  8
10100_FRONT_DIM
  6
Continuous
100
AcDbTrace
 10
91.68777836814584
 20
371.781410420204
 30
0.0
 11
91.68777836814584
 21
370.6147437535373
 31
0.0
 12
88.18777836814584
 22
371.1980770868706
 32
0.0
 13
88.18777836814584
 23
371.1980770868706
 33
0.0
  0
SOLID
  5
98A3
330
9693
100
AcDbEntity
  8
10100_FRONT_DIM
  6
Continuous
100
AcDbTrace
 10
129.6651044097389
 20
371.781410420204
 30
0.0
 11
129.6651044097389
 21
370.6147437535373
 31
0.0
 12
133.1651044097389
 22
371.1980770868706
 32
0.0
 13
133.1651044097389
 23
371.1980770868706
 33
0.0
  0
MTEXT
  5
98A4
330
9693
100
AcDbEntity
  8
10100_FRONT_DIM
  6
Continuous
 62
     7
370
    13
100
AcDbMText
 10
110.6764413889423
 20
371.1980770868706
 30
0.0
 40
3.5
 41
0.0
 71
     5
 72
     1
  1
\A1;45
 73
     1
 44
1.0
1001
ACAD
1000
MTEXTBEGIN
1070
    73
1070
     1
1070
    44
1040
1.0
1070
    74
1070
     0
1000
MTEXTEND
  0
POINT
  5
98A5
330
9693
100
AcDbEntity
  8
Defpoints
  6
Continuous
 62
     0
100
AcDbPoint
 10
88.18777836814584
 20
380.5304998707434
 30
0.0
  0
POINT
  5
98A6
330
9693
100
AcDbEntity
  8
Defpoints
  6
Continuous
 62
     0
100
AcDbPoint
 10
133.1651044097389
 20
380.5304998707434
 30
0.0
  0
POINT
  5
98A7
330
9693
100
AcDbEntity
  8
Defpoints
  6
Continuous
 62
     0
100
AcDbPoint
 10
133.1651044097389
 20
371.1980770868706
 30
0.0
  0
ENDBLK
  5
969E
330
9693
100
AcDbEntity
  8
0
100
AcDbBlockEnd
  0
BLOCK
  5
96AA
330
96A0
100
AcDbEntity
  8
0
100
AcDbBlockBegin
  2
*D2
 70
     1
 10
0.0
 20
0.0
 30
0.0
  3
*D2
  1

  0
LINE
  5
9894
330
96A0
100
AcDbEntity
  8
10100_FRONT_DIM
  6
Continuous
 62
     7
370
    -2
100
AcDbLine
 10
131.6651044097389
 20
379.2903053804344
 30
0.0
 11
142.4813203035221
 21
379.2903053804344
 31
0.0
  0
LINE
  5
9895
330
96A0
100
AcDbEntity
  8
10100_FRONT_DIM
  6
Continuous
 62
     7
370
    -2
100
AcDbLine
 10
131.6651044097389
 20
466.3903053804343
 30
0.0
 11
142.4813203035221
 21
466.3903053804343
 31
0.0
  0
LINE
  5
9896
330
96A0
100
AcDbEntity
  8
10100_FRONT_DIM
  6
Continuous
370
    -2
100
AcDbLine
 10
140.4813203035221
 20
382.7903053804344
 30
0.0
 11
140.4813203035221
 21
418.4236387137674
 31
0.0
  0
LINE
  5
9897
330
96A0
100
AcDbEntity
  8
10100_FRONT_DIM
  6
Continuous
370
    -2
100
AcDbLine
 10
140.4813203035221
 20
462.8903053804343
 30
0.0
 11
140.4813203035221
 21
427.2569720471009
 31
0.0
  0
SOLID
  5
9898
330
96A0
100
AcDbEntity
  8
10100_FRONT_DIM
  6
Continuous
100
AcDbTrace
 10
139.8979869701887
 20
382.7903053804344
 30
0.0
 11
141.0646536368554
 21
382.7903053804344
 31
0.0
 12
140.4813203035221
 22
379.2903053804344
 32
0.0
 13
140.4813203035221
 23
379.2903053804344
 33
0.0
  0
SOLID
  5
9899
330
96A0
100
AcDbEntity
  8
10100_FRONT_DIM
  6
Continuous
100
AcDbTrace
 10
139.8979869701888
 20
462.8903053804343
 30
0.0
 11
141.0646536368554
 21
462.8903053804343
 31
0.0
 12
140.4813203035221
 22
466.3903053804343
 32
0.0
 13
140.4813203035221
 23
466.3903053804343
 33
0.0
  0
MTEXT
  5
989A
330
96A0
100
AcDbEntity
  8
10100_FRONT_DIM
  6
Continuous
 62
     7
370
    13
100
AcDbMText
 10
140.481320303522
 20
422.8403053804343
 30
0.0
 40
3.5
 41
0.0
 71
     5
 72
     1
  1
\A1;87
 11
0.0000000000000001
 21
1.0
 31
0.0
 73
     1
 44
1.0
1001
ACAD
1000
MTEXTBEGIN
1070
    73
1070
     1
1070
    44
1040
1.0
1070
    74
1070
     0
1000
MTEXTEND
  0
POINT
  5
989B
330
96A0
100
AcDbEntity
  8
Defpoints
  6
Continuous
 62
     0
100
AcDbPoint
 10
131.6651044097389
 20
379.2903053804344
 30
0.0
  0
POINT
  5
989C
330
96A0
100
AcDbEntity
  8
Defpoints
  6
Continuous
 62
     0
100
AcDbPoint
 10
131.6651044097389
 20
466.3903053804343
 30
0.0
  0
POINT
  5
989D
330
96A0
100
AcDbEntity
  8
Defpoints
  6
Continuous
 62
     0
100
AcDbPoint
 10
140.4813203035221
 20
466.3903053804343
 30
0.0
  0
ENDBLK
  5
96AB
330
96A0
100
AcDbEntity
  8
0
100
AcDbBlockEnd
  0
BLOCK
  5
96D0
330
96C4
100
AcDbEntity
  8
0
100
AcDbBlockBegin
  2
*D3
 70
     1
 10
0.0
 20
0.0
 30
0.0
  3
*D3
  1

  0
LINE
  5
9BA9
330
96C4
100
AcDbEntity
  8
11100_LEFT_DIM
  6
Continuous
 62
     7
370
    -2
100
AcDbLine
 10
175.7584330983216
 20
379.2903053804344
 30
0.0
 11
175.7584330983216
 21
368.8404358537298
 31
0.0
  0
LINE
  5
9BAA
330
96C4
100
AcDbEntity
  8
11100_LEFT_DIM
  6
Continuous
 62
     7
370
    -2
100
AcDbLine
 10
170.7584330983217
 20
379.8903053804343
 30
0.0
 11
170.7584330983217
 21
368.8404358537298
 31
0.0
  0
LINE
  5
9BAB
330
96C4
100
AcDbEntity
  8
11100_LEFT_DIM
  6
Continuous
370
    -2
100
AcDbLine
 10
179.2584330983216
 20
370.8404358537298
 30
0.0
 11
182.7584330983216
 21
370.8404358537298
 31
0.0
  0
LINE
  5
9BAC
330
96C4
100
AcDbEntity
  8
11100_LEFT_DIM
  6
Continuous
370
    -2
100
AcDbLine
 10
167.2584330983217
 20
370.8404358537298
 30
0.0
 11
163.7584330983217
 21
370.8404358537298
 31
0.0
  0
MTEXT
  5
9BAD
330
96C4
100
AcDbEntity
  8
11100_LEFT_DIM
  6
Continuous
 62
     7
370
    13
100
AcDbMText
 10
161.8457216223418
 20
370.8404358537298
 30
0.0
 40
3.5
 41
0.0
 71
     5
 72
     1
  1
\A1;5
 73
     1
 44
1.0
1001
ACAD
1000
MTEXTBEGIN
1070
    73
1070
     1
1070
    44
1040
1.0
1070
    74
1070
     0
1000
MTEXTEND
  0
LINE
  5
9BAE
330
96C4
100
AcDbEntity
  8
11100_LEFT_DIM
  6
Continuous
370
    -2
100
AcDbLine
 10
175.7584330983216
 20
370.8404358537298
 30
0.0
 11
170.7584330983217
 21
370.8404358537298
 31
0.0
  0
SOLID
  5
9BAF
330
96C4
100
AcDbEntity
  8
11100_LEFT_DIM
  6
Continuous
100
AcDbTrace
 10
179.2584330983216
 20
371.4237691870632
 30
0.0
 11
179.2584330983216
 21
370.2571025203965
 31
0.0
 12
175.7584330983216
 22
370.8404358537298
 32
0.0
 13
175.7584330983216
 23
370.8404358537298
 33
0.0
  0
SOLID
  5
9BB0
330
96C4
100
AcDbEntity
  8
11100_LEFT_DIM
  6
Continuous
100
AcDbTrace
 10
167.2584330983217
 20
371.4237691870632
 30
0.0
 11
167.2584330983217
 21
370.2571025203965
 31
0.0
 12
170.7584330983217
 22
370.8404358537298
 32
0.0
 13
170.7584330983217
 23
370.8404358537298
 33
0.0
  0
POINT
  5
9BB1
330
96C4
100
AcDbEntity
  8
Defpoints
  6
Continuous
 62
     0
100
AcDbPoint
 10
175.7584330983216
 20
379.2903053804344
 30
0.0
  0
POINT
  5
9BB2
330
96C4
100
AcDbEntity
  8
Defpoints
  6
Continuous
 62
     0
100
AcDbPoint
 10
170.7584330983217
 20
379.8903053804343
 30
0.0
  0
POINT
  5
9BB3
330
96C4
100
AcDbEntity
  8
Defpoints
  6
Continuous
 62
     0
100
AcDbPoint
 10
170.7584330983217
 20
370.8404358537298
 30
0.0
  0
ENDBLK
  5
96D1
330
96C4
100
AcDbEntity
  8
0
100
AcDbBlockEnd
  0
BLOCK
  5
96E8
330
96DE
100
AcDbEntity
  8
0
100
AcDbBlockBegin
  2
*D4
 70
     1
 10
0.0
 20
0.0
 30
0.0
  3
*D4
  1

  0
LINE
  5
9B9F
330
96DE
100
AcDbEntity
  8
11100_LEFT_DIM
  6
Continuous
 62
     7
370
    -2
100
AcDbLine
 10
175.7584330983216
 20
379.2903053804344
 30
0.0
 11
175.7584330983216
 21
356.8929743875285
 31
0.0
  0
LINE
  5
9BA0
330
96DE
100
AcDbEntity
  8
11100_LEFT_DIM
  6
Continuous
 62
     7
370
    -2
100
AcDbLine
 10
248.1822330983216
 20
423.7403053804343
 30
0.0
 11
248.1822330983216
 21
356.8929743875285
 31
0.0
  0
LINE
  5
9BA1
330
96DE
100
AcDbEntity
  8
11100_LEFT_DIM
  6
Continuous
370
    -2
100
AcDbLine
 10
179.2584330983216
 20
358.8929743875285
 30
0.0
 11
207.5536664316549
 21
358.8929743875285
 31
0.0
  0
LINE
  5
9BA2
330
96DE
100
AcDbEntity
  8
11100_LEFT_DIM
  6
Continuous
370
    -2
100
AcDbLine
 10
244.6822330983216
 20
358.8929743875285
 30
0.0
 11
216.3869997649882
 21
358.8929743875285
 31
0.0
  0
SOLID
  5
9BA3
330
96DE
100
AcDbEntity
  8
11100_LEFT_DIM
  6
Continuous
100
AcDbTrace
 10
179.2584330983216
 20
359.4763077208618
 30
0.0
 11
179.2584330983216
 21
358.3096410541952
 31
0.0
 12
175.7584330983216
 22
358.8929743875285
 32
0.0
 13
175.7584330983216
 23
358.8929743875285
 33
0.0
  0
SOLID
  5
9BA4
330
96DE
100
AcDbEntity
  8
11100_LEFT_DIM
  6
Continuous
100
AcDbTrace
 10
244.6822330983216
 20
359.4763077208618
 30
0.0
 11
244.6822330983216
 21
358.3096410541952
 31
0.0
 12
248.1822330983216
 22
358.8929743875285
 32
0.0
 13
248.1822330983216
 23
358.8929743875285
 33
0.0
  0
MTEXT
  5
9BA5
330
96DE
100
AcDbEntity
  8
11100_LEFT_DIM
  6
Continuous
 62
     7
370
    13
100
AcDbMText
 10
211.9703330983216
 20
358.8929743875285
 30
0.0
 40
3.5
 41
0.0
 71
     5
 72
     1
  1
\A1;72
 73
     1
 44
1.0
1001
ACAD
1000
MTEXTBEGIN
1070
    73
1070
     1
1070
    44
1040
1.0
1070
    74
1070
     0
1000
MTEXTEND
  0
POINT
  5
9BA6
330
96DE
100
AcDbEntity
  8
Defpoints
  6
Continuous
 62
     0
100
AcDbPoint
 10
175.7584330983216
 20
379.2903053804344
 30
0.0
  0
POINT
  5
9BA7
330
96DE
100
AcDbEntity
  8
Defpoints
  6
Continuous
 62
     0
100
AcDbPoint
 10
248.1822330983216
 20
423.7403053804343
 30
0.0
  0
POINT
  5
9BA8
330
96DE
100
AcDbEntity
  8
Defpoints
  6
Continuous
 62
     0
100
AcDbPoint
 10
248.1822330983216
 20
358.8929743875285
 30
0.0
  0
ENDBLK
  5
96E9
330
96DE
100
AcDbEntity
  8
0
100
AcDbBlockEnd
  0
BLOCK
  5
96FE
330
96F4
100
AcDbEntity
  8
0
100
AcDbBlockBegin
  2
*D5
 70
     1
 10
0.0
 20
0.0
 30
0.0
  3
*D5
  1

  0
LINE
  5
9B95
330
96F4
100
AcDbEntity
  8
11100_LEFT_DIM
  6
Continuous
 62
     7
370
    -2
100
AcDbLine
 10
175.7584330983216
 20
379.2903053804344
 30
0.0
 11
175.7584330983216
 21
368.8404358537298
 31
0.0
  0
LINE
  5
9B96
330
96F4
100
AcDbEntity
  8
11100_LEFT_DIM
  6
Continuous
 62
     7
370
    -2
100
AcDbLine
 10
208.2584330983217
 20
386.7903053804344
 30
0.0
 11
208.2584330983217
 21
368.8404358537298
 31
0.0
  0
LINE
  5
9B97
330
96F4
100
AcDbEntity
  8
11100_LEFT_DIM
  6
Continuous
370
    -2
100
AcDbLine
 10
179.2584330983216
 20
370.8404358537298
 30
0.0
 11
187.5917664316549
 21
370.8404358537298
 31
0.0
  0
LINE
  5
9B98
330
96F4
100
AcDbEntity
  8
11100_LEFT_DIM
  6
Continuous
370
    -2
100
AcDbLine
 10
204.7584330983217
 20
370.8404358537298
 30
0.0
 11
196.4250997649883
 21
370.8404358537298
 31
0.0
  0
SOLID
  5
9B99
330
96F4
100
AcDbEntity
  8
11100_LEFT_DIM
  6
Continuous
100
AcDbTrace
 10
179.2584330983216
 20
371.4237691870632
 30
0.0
 11
179.2584330983216
 21
370.2571025203965
 31
0.0
 12
175.7584330983216
 22
370.8404358537298
 32
0.0
 13
175.7584330983216
 23
370.8404358537298
 33
0.0
  0
SOLID
  5
9B9A
330
96F4
100
AcDbEntity
  8
11100_LEFT_DIM
  6
Continuous
100
AcDbTrace
 10
204.7584330983217
 20
371.4237691870632
 30
0.0
 11
204.7584330983217
 21
370.2571025203965
 31
0.0
 12
208.2584330983217
 22
370.8404358537298
 32
0.0
 13
208.2584330983217
 23
370.8404358537298
 33
0.0
  0
MTEXT
  5
9B9B
330
96F4
100
AcDbEntity
  8
11100_LEFT_DIM
  6
Continuous
 62
     7
370
    13
100
AcDbMText
 10
192.0084330983216
 20
370.8404358537298
 30
0.0
 40
3.5
 41
0.0
 71
     5
 72
     1
  1
\A1;33
 73
     1
 44
1.0
1001
ACAD
1000
MTEXTBEGIN
1070
    73
1070
     1
1070
    44
1040
1.0
1070
    74
1070
     0
1000
MTEXTEND
  0
POINT
  5
9B9C
330
96F4
100
AcDbEntity
  8
Defpoints
  6
Continuous
 62
     0
100
AcDbPoint
 10
175.7584330983216
 20
379.2903053804344
 30
0.0
  0
POINT
  5
9B9D
330
96F4
100
AcDbEntity
  8
Defpoints
  6
Continuous
 62
     0
100
AcDbPoint
 10
208.2584330983217
 20
386.7903053804344
 30
0.0
  0
POINT
  5
9B9E
330
96F4
100
AcDbEntity
  8
Defpoints
  6
Continuous
 62
     0
100
AcDbPoint
 10
208.2584330983217
 20
370.8404358537298
 30
0.0
  0
ENDBLK
  5
96FF
330
96F4
100
AcDbEntity
  8
0
100
AcDbBlockEnd
  0
BLOCK
  5
970B
330
9701
100
AcDbEntity
  8
0
100
AcDbBlockBegin
  2
*D6
 70
     1
 10
0.0
 20
0.0
 30
0.0
  3
*D6
  1

  0
LINE
  5
9B8B
330
9701
100
AcDbEntity
  8
11100_LEFT_DIM
  6
Continuous
 62
     7
370
    -2
100
AcDbLine
 10
175.7584330983216
 20
379.2903053804344
 30
0.0
 11
175.7584330983216
 21
363.061069284234
 31
0.0
  0
LINE
  5
9B8C
330
9701
100
AcDbEntity
  8
11100_LEFT_DIM
  6
Continuous
 62
     7
370
    -2
100
AcDbLine
 10
224.7375330983217
 20
400.9111053804343
 30
0.0
 11
224.7375330983217
 21
363.061069284234
 31
0.0
  0
LINE
  5
9B8D
330
9701
100
AcDbEntity
  8
11100_LEFT_DIM
  6
Continuous
370
    -2
100
AcDbLine
 10
179.2584330983216
 20
365.061069284234
 30
0.0
 11
195.831316431655
 21
365.061069284234
 31
0.0
  0
LINE
  5
9B8E
330
9701
100
AcDbEntity
  8
11100_LEFT_DIM
  6
Continuous
370
    -2
100
AcDbLine
 10
221.2375330983217
 20
365.061069284234
 30
0.0
 11
204.6646497649883
 21
365.061069284234
 31
0.0
  0
SOLID
  5
9B8F
330
9701
100
AcDbEntity
  8
11100_LEFT_DIM
  6
Continuous
100
AcDbTrace
 10
179.2584330983216
 20
365.6444026175673
 30
0.0
 11
179.2584330983216
 21
364.4777359509006
 31
0.0
 12
175.7584330983216
 22
365.061069284234
 32
0.0
 13
175.7584330983216
 23
365.061069284234
 33
0.0
  0
SOLID
  5
9B90
330
9701
100
AcDbEntity
  8
11100_LEFT_DIM
  6
Continuous
100
AcDbTrace
 10
221.2375330983217
 20
365.6444026175673
 30
0.0
 11
221.2375330983217
 21
364.4777359509006
 31
0.0
 12
224.7375330983217
 22
365.061069284234
 32
0.0
 13
224.7375330983217
 23
365.061069284234
 33
0.0
  0
MTEXT
  5
9B91
330
9701
100
AcDbEntity
  8
11100_LEFT_DIM
  6
Continuous
 62
     7
370
    13
100
AcDbMText
 10
200.2479830983217
 20
365.061069284234
 30
0.0
 40
3.5
 41
0.0
 71
     5
 72
     1
  1
\A1;49
 73
     1
 44
1.0
1001
ACAD
1000
MTEXTBEGIN
1070
    73
1070
     1
1070
    44
1040
1.0
1070
    74
1070
     0
1000
MTEXTEND
  0
POINT
  5
9B92
330
9701
100
AcDbEntity
  8
Defpoints
  6
Continuous
 62
     0
100
AcDbPoint
 10
175.7584330983216
 20
379.2903053804344
 30
0.0
  0
POINT
  5
9B93
330
9701
100
AcDbEntity
  8
Defpoints
  6
Continuous
 62
     0
100
AcDbPoint
 10
224.7375330983217
 20
400.9111053804343
 30
0.0
  0
POINT
  5
9B94
330
9701
100
AcDbEntity
  8
Defpoints
  6
Continuous
 62
     0
100
AcDbPoint
 10
224.7375330983217
 20
365.061069284234
 30
0.0
  0
ENDBLK
  5
970C
330
9701
100
AcDbEntity
  8
0
100
AcDbBlockEnd
  0
BLOCK
  5
9745
330
973B
100
AcDbEntity
  8
0
100
AcDbBlockBegin
  2
*D7
 70
     1
 10
0.0
 20
0.0
 30
0.0
  3
*D7
  1

  0
LINE
  5
9BBE
330
973B
100
AcDbEntity
  8
30100_Drilling_DIM
  6
Continuous
 62
     7
370
    -2
100
AcDbLine
 10
312.7007992200719
 20
460.8403053804344
 30
0.0
 11
312.7007992200719
 21
469.086983656487
 31
0.0
  0
LINE
  5
9BBF
330
973B
100
AcDbEntity
  8
30100_Drilling_DIM
  6
Continuous
 62
     7
370
    -2
100
AcDbLine
 10
277.9508022200719
 20
386.0403053804343
 30
0.0
 11
277.9508022200719
 21
469.086983656487
 31
0.0
  0
LINE
  5
9BC0
330
973B
100
AcDbEntity
  8
30100_Drilling_DIM
  6
Continuous
370
    -2
100
AcDbLine
 10
309.2007992200719
 20
467.0869836564872
 30
0.0
 11
299.7424673867386
 21
467.0869836564872
 31
0.0
  0
LINE
  5
9BC1
330
973B
100
AcDbEntity
  8
30100_Drilling_DIM
  6
Continuous
370
    -2
100
AcDbLine
 10
281.4508022200719
 20
467.0869836564872
 30
0.0
 11
290.9091340534052
 21
467.0869836564872
 31
0.0
  0
SOLID
  5
9BC2
330
973B
100
AcDbEntity
  8
30100_Drilling_DIM
  6
Continuous
100
AcDbTrace
 10
309.2007992200719
 20
467.6703169898203
 30
0.0
 11
309.2007992200719
 21
466.5036503231538
 31
0.0
 12
312.7007992200719
 22
467.0869836564872
 32
0.0
 13
312.7007992200719
 23
467.0869836564872
 33
0.0
  0
SOLID
  5
9BC3
330
973B
100
AcDbEntity
  8
30100_Drilling_DIM
  6
Continuous
100
AcDbTrace
 10
281.4508022200719
 20
467.6703169898203
 30
0.0
 11
281.4508022200719
 21
466.5036503231538
 31
0.0
 12
277.9508022200719
 22
467.0869836564872
 32
0.0
 13
277.9508022200719
 23
467.0869836564872
 33
0.0
  0
MTEXT
  5
9BC4
330
973B
100
AcDbEntity
  8
30100_Drilling_DIM
  6
Continuous
 62
     7
370
    13
100
AcDbMText
 10
295.3258007200719
 20
467.0869836564872
 30
0.0
 40
3.5
 41
0.0
 71
     5
 72
     1
  1
\A1;35
 73
     1
 44
1.0
1001
ACAD
1000
MTEXTBEGIN
1070
    73
1070
     1
1070
    44
1040
1.0
1070
    74
1070
     0
1000
MTEXTEND
  0
POINT
  5
9BC5
330
973B
100
AcDbEntity
  8
Defpoints
  6
Continuous
 62
     0
100
AcDbPoint
 10
312.7007992200719
 20
460.8403053804344
 30
0.0
  0
POINT
  5
9BC6
330
973B
100
AcDbEntity
  8
Defpoints
  6
Continuous
 62
     0
100
AcDbPoint
 10
277.9508022200719
 20
386.0403053804343
 30
0.0
  0
POINT
  5
9BC7
330
973B
100
AcDbEntity
  8
Defpoints
  6
Continuous
 62
     0
100
AcDbPoint
 10
277.9508022200719
 20
467.0869836564872
 30
0.0
  0
ENDBLK
  5
9746
330
973B
100
AcDbEntity
  8
0
100
AcDbBlockEnd
  0
BLOCK
  5
9752
330
9748
100
AcDbEntity
  8
0
100
AcDbBlockBegin
  2
*D8
 70
     1
 10
0.0
 20
0.0
 30
0.0
  3
*D8
  1

  0
LINE
  5
9BB4
330
9748
100
AcDbEntity
  8
30100_Drilling_DIM
  6
Continuous
 62
     7
370
    -2
100
AcDbLine
 10
310.4507992200719
 20
458.5903053804343
 30
0.0
 11
266.8379683404329
 21
458.5903053804343
 31
0.0
  0
LINE
  5
9BB5
330
9748
100
AcDbEntity
  8
30100_Drilling_DIM
  6
Continuous
 62
     7
370
    -2
100
AcDbLine
 10
275.7008022200718
 20
383.7903053804343
 30
0.0
 11
266.8379683404329
 21
383.7903053804343
 31
0.0
  0
LINE
  5
9BB6
330
9748
100
AcDbEntity
  8
30100_Drilling_DIM
  6
Continuous
370
    -2
100
AcDbLine
 10
268.8379683404329
 20
455.0903053804344
 30
0.0
 11
268.8379683404329
 21
425.606972047101
 31
0.0
  0
LINE
  5
9BB7
330
9748
100
AcDbEntity
  8
30100_Drilling_DIM
  6
Continuous
370
    -2
100
AcDbLine
 10
268.8379683404329
 20
387.2903053804344
 30
0.0
 11
268.8379683404329
 21
416.7736387137677
 31
0.0
  0
SOLID
  5
9BB8
330
9748
100
AcDbEntity
  8
30100_Drilling_DIM
  6
Continuous
100
AcDbTrace
 10
268.2546350070996
 20
455.0903053804344
 30
0.0
 11
269.4213016737663
 21
455.0903053804344
 31
0.0
 12
268.8379683404329
 22
458.5903053804343
 32
0.0
 13
268.8379683404329
 23
458.5903053804343
 33
0.0
  0
SOLID
  5
9BB9
330
9748
100
AcDbEntity
  8
30100_Drilling_DIM
  6
Continuous
100
AcDbTrace
 10
268.2546350070996
 20
387.2903053804344
 30
0.0
 11
269.4213016737663
 21
387.2903053804344
 31
0.0
 12
268.8379683404329
 22
383.7903053804343
 32
0.0
 13
268.8379683404329
 23
383.7903053804343
 33
0.0
  0
MTEXT
  5
9BBA
330
9748
100
AcDbEntity
  8
30100_Drilling_DIM
  6
Continuous
 62
     7
370
    13
100
AcDbMText
 10
268.8379683404328
 20
421.1903053804343
 30
0.0
 40
3.5
 41
0.0
 71
     5
 72
     1
  1
\A1;75
 11
0.0000000000000001
 21
1.0
 31
0.0
 73
     1
 44
1.0
1001
ACAD
1000
MTEXTBEGIN
1070
    73
1070
     1
1070
    44
1040
1.0
1070
    74
1070
     0
1000
MTEXTEND
  0
POINT
  5
9BBB
330
9748
100
AcDbEntity
  8
Defpoints
  6
Continuous
 62
     0
100
AcDbPoint
 10
310.4507992200719
 20
458.5903053804343
 30
0.0
  0
POINT
  5
9BBC
330
9748
100
AcDbEntity
  8
Defpoints
  6
Continuous
 62
     0
100
AcDbPoint
 10
275.7008022200718
 20
383.7903053804343
 30
0.0
  0
POINT
  5
9BBD
330
9748
100
AcDbEntity
  8
Defpoints
  6
Continuous
 62
     0
100
AcDbPoint
 10
268.8379683404329
 20
383.7903053804343
 30
0.0
  0
ENDBLK
  5
9753
330
9748
100
AcDbEntity
  8
0
100
AcDbBlockEnd
  0
BLOCK
  5
975E
330
9755
100
AcDbEntity
  8
0
100
AcDbBlockBegin
  2
*D9
 70
     1
 10
0.0
 20
0.0
 30
0.0
  3
*D9
  1

  0
LINE
  5
9BC8
330
9755
100
AcDbEntity
  8
30100_Drilling_DIM
  6
Continuous
370
    -2
100
AcDbLine
 10
305.1739856940658
 20
453.2135425862681
 30
0.0
 11
308.0219691903926
 21
455.24799337325
 31
0.0
  0
LINE
  5
9BC9
330
9755
100
AcDbEntity
  8
30100_Drilling_DIM
  6
Continuous
370
    -2
100
AcDbLine
 10
317.3796292497517
 20
461.9326173876189
 30
0.0
 11
320.2276127460782
 21
463.9670681746009
 31
0.0
  0
MTEXT
  5
9BCA
330
9755
100
AcDbEntity
  8
30100_Drilling_DIM
  6
Continuous
 62
     7
370
    13
100
AcDbMText
 10
301.5801017582251
 20
450.6462594503148
 30
0.0
 40
3.5
 41
0.0
 71
     5
 72
     1
  1
\A1;\U+22055
 11
0.8137095703790397
 21
0.5812716534233874
 31
0.0
 73
     1
 44
1.0
1001
ACAD
1000
MTEXTBEGIN
1070
    73
1070
     1
1070
    44
1040
1.0
1070
    74
1070
     0
1000
MTEXTEND
  0
LINE
  5
9BCB
330
9755
100
AcDbEntity
  8
30100_Drilling_DIM
  6
Continuous
370
    -2
100
AcDbLine
 10
314.5316457534249
 20
459.8981666006372
 30
0.0
 11
310.8699526867192
 21
457.2824441602318
 31
0.0
  0
SOLID
  5
9BCC
330
9755
100
AcDbEntity
  8
30100_Drilling_DIM
  6
Continuous
100
AcDbTrace
 10
317.0405541185879
 20
462.4072813036733
 30
0.0
 11
317.7187043809152
 21
461.4579534715645
 31
0.0
 12
314.5316457534249
 22
459.8981666006372
 32
0.0
 13
314.5316457534249
 23
459.8981666006372
 33
0.0
  0
SOLID
  5
9BCD
330
9755
100
AcDbEntity
  8
30100_Drilling_DIM
  6
Continuous
100
AcDbTrace
 10
307.6828940592289
 20
455.7226572893044
 30
0.0
 11
308.3610443215562
 21
454.7733294571955
 31
0.0
 12
310.8699526867192
 22
457.2824441602318
 32
0.0
 13
310.8699526867192
 23
457.2824441602318
 33
0.0
  0
POINT
  5
9BCE
330
9755
100
AcDbEntity
  8
Defpoints
  6
Continuous
 62
     0
100
AcDbPoint
 10
310.8699526867192
 20
457.2824441602318
 30
0.0
  0
POINT
  5
9BCF
330
9755
100
AcDbEntity
  8
Defpoints
  6
Continuous
 62
     0
100
AcDbPoint
 10
314.5316457534249
 20
459.8981666006372
 30
0.0
  0
ENDBLK
  5
975F
330
9755
100
AcDbEntity
  8
0
100
AcDbBlockEnd
  0
ENDSEC
  0
SECTION
  2
ENTITIES
  0
TEXT
  5
8CAC
330
20
100
AcDbEntity
  8
91000_TIP
  6
Continuous
 62
     7
100
AcDbText
 10
73.44876640497284
 20
297.5317263287093
 30
0.0
 40
2.5
  1
Alle Bemassungswerte sind in Millimeter (mm) angegeben.
 41
0.6056311217924565
 72
     5
 11
147.1338862230551
 21
297.5317263287093
 31
0.0
100
AcDbText
  0
TEXT
  5
8CAD
330
20
100
AcDbEntity
  8
91000_TIP
  6
Continuous
 62
     7
100
AcDbText
 10
73.44876640497284
 20
292.2817263287094
 30
0.0
 40
2.5
  1
All dimensions are in millimeters (mm).
 41
0.7513350295680264
 72
     5
 11
133.5555687704149
 21
292.2817263287094
 31
0.0
100
AcDbText
  0
LINE
  5
8CAE
330
20
100
AcDbEntity
  8
90000_FRAME
  6
Continuous
 62
     7
100
AcDbLine
 10
329.3954166223081
 20
298.7994897070328
 30
0.0
 11
329.3954166223081
 21
316.7994897070327
 31
0.0
  0
LINE
  5
8CAF
330
20
100
AcDbEntity
  8
90000_FRAME
  6
Continuous
 62
     7
100
AcDbLine
 10
69.39541662230897
 20
288.7994897070327
 30
0.0
 11
69.39541662230897
 21
488.7994897070324
 31
0.0
  0
LINE
  5
8CB0
330
20
100
AcDbEntity
  8
90000_FRAME
  6
Continuous
 62
     7
100
AcDbLine
 10
69.39541662230897
 20
488.7994897070324
 30
0.0
 11
339.3954166223088
 21
488.7994897070324
 31
0.0
  0
LINE
  5
8CB1
330
20
100
AcDbEntity
  8
90000_FRAME
  6
Continuous
 62
     7
100
AcDbLine
 10
69.39541662230897
 20
288.7994897070327
 30
0.0
 11
339.3954166223088
 21
288.7994897070327
 31
0.0
  0
LINE
  5
8CB2
330
20
100
AcDbEntity
  8
90000_FRAME
  6
Continuous
 62
     7
100
AcDbLine
 10
339.3954166223088
 20
288.7994897070327
 30
0.0
 11
339.3954166223088
 21
488.7994897070324
 31
0.0
  0
TEXT
  5
8CB3
330
20
100
AcDbEntity
  8
90000_FRAME
  6
Continuous
 62
     7
100
AcDbText
 10
257.7013411462589
 20
309.0494897070328
 30
0.0
 40
3.5
  1
3RU1916_00000214_000_ALL
 41
0.7488237511497717
 72
     5
 11
313.6135145654419
 21
309.0494897070328
 31
0.0
100
AcDbText
  0
CIRCLE
  5
8CB4
330
20
100
AcDbEntity
  8
91000_TIP
  6
Continuous
 62
     7
100
AcDbCircle
 10
185.710086389334
 20
307.6232272805033
 30
0.0
 40
2.499999948899997
  0
CIRCLE
  5
8CB5
330
20
100
AcDbEntity
  8
91000_TIP
  6
Continuous
 62
     7
100
AcDbCircle
 10
185.710086389334
 20
307.6232272805033
 30
0.0
 40
4.9999998979
  0
LINE
  5
8CB6
330
20
100
AcDbEntity
  8
91000_TIP
  6
CENTER
 62
     7
100
AcDbLine
 10
185.710086389334
 20
301.9017460741033
 30
0.0
 11
185.710086389334
 21
313.1851320741033
 31
0.0
  0
LINE
  5
8CB7
330
20
100
AcDbEntity
  8
91000_TIP
  6
Continuous
 62
     7
100
AcDbLine
 10
179.2100865221341
 20
312.6232271784033
 30
0.0
 11
179.2100865221341
 21
302.6232273826032
 31
0.0
  0
LINE
  5
8CB8
330
20
100
AcDbEntity
  8
91000_TIP
  6
Continuous
 62
     7
100
AcDbLine
 10
169.210086726334
 20
310.1232272294034
 30
0.0
 11
169.210086726334
 21
305.1232273316033
 31
0.0
  0
LINE
  5
8CB9
330
20
100
AcDbEntity
  8
91000_TIP
  6
Continuous
 62
     7
100
AcDbLine
 10
169.210086726334
 20
305.1232273316033
 30
0.0
 11
179.2100865221341
 21
302.6232273826032
 31
0.0
  0
LINE
  5
8CBA
330
20
100
AcDbEntity
  8
91000_TIP
  6
CENTER
 62
     7
100
AcDbLine
 10
167.930576254333
 20
307.6232272805033
 30
0.0
 11
191.532565518433
 21
307.6232272805033
 31
0.0
  0
LINE
  5
8CBB
330
20
100
AcDbEntity
  8
91000_TIP
  6
Continuous
 62
     7
100
AcDbLine
 10
169.210086726334
 20
310.1232272294034
 30
0.0
 11
179.2100865221341
 21
312.6232271784033
 31
0.0
  0
TEXT
  5
8CBC
330
20
100
AcDbEntity
  8
90000_FRAME
  6
Continuous
 62
     7
100
AcDbText
 10
287.5554166223082
 20
300.6994897070327
 30
0.0
 40
2.2
  1
Massstab / Scale: 1:1
 41
0.7732634338148454
 72
     5
 11
318.4601785271082
 21
300.6994897070327
 31
0.0
100
AcDbText
  0
TEXT
  5
8CBD
330
20
100
AcDbEntity
  8
90000_FRAME
  6
Continuous
 62
     7
100
AcDbText
 10
245.0554166223081
 20
300.6994897070327
 30
0.0
 40
2.2
  1
Format / Size: DIN A4
 41
0.7994987468660261
 72
     5
 11
278.474464241308
 21
300.6994897070327
 31
0.0
100
AcDbText
  0
LINE
  5
8CBE
330
20
100
AcDbEntity
  8
90000_FRAME
  6
Continuous
 62
     7
100
AcDbLine
 10
329.3954166223081
 20
298.7994897070328
 30
0.0
 11
329.3954166223081
 21
316.7994897070327
 31
0.0
  0
LINE
  5
8CBF
330
20
100
AcDbEntity
  8
90000_FRAME
  6
Continuous
 62
     7
100
AcDbLine
 10
286.8954166223081
 20
298.7994897070328
 30
0.0
 11
286.8954166223081
 21
304.7994897070328
 31
0.0
  0
LINE
  5
8CC0
330
20
100
AcDbEntity
  8
90000_FRAME
  6
Continuous
 62
     7
100
AcDbLine
 10
244.3954166223081
 20
298.7994897070328
 30
0.0
 11
244.3954166223081
 21
316.7994897070327
 31
0.0
  0
LINE
  5
8CC1
330
20
100
AcDbEntity
  8
90000_FRAME
  6
Continuous
 62
     7
100
AcDbLine
 10
194.395416622308
 20
316.7994897070327
 30
0.0
 11
329.3954166223081
 21
316.7994897070327
 31
0.0
  0
LINE
  5
8CC2
330
20
100
AcDbEntity
  8
90000_FRAME
  6
Continuous
 62
     7
100
AcDbLine
 10
244.3954166223081
 20
304.7994897070328
 30
0.0
 11
329.3954166223081
 21
304.7994897070328
 31
0.0
  0
LINE
  5
8CC3
330
20
100
AcDbEntity
  8
90000_FRAME
  6
Continuous
 62
     7
100
AcDbLine
 10
194.395416622308
 20
298.7994897070328
 30
0.0
 11
194.395416622308
 21
316.7994897070327
 31
0.0
  0
LINE
  5
8CC4
330
20
100
AcDbEntity
  8
90000_FRAME
  6
Continuous
 62
     7
100
AcDbLine
 10
194.395416622308
 20
298.7994897070328
 30
0.0
 11
329.3954166223081
 21
298.7994897070328
 31
0.0
  0
INSERT
  5
8CC5
330
20
100
AcDbEntity
  8
90000_FRAME
  6
Continuous
 62
     7
100
AcDbBlockReference
  2
SIEMENS_OUTLINE_BL0
 10
-80.60458337769194
 20
288.7994897070327
 30
0.0
  0
LINE
  5
9258
330
20
100
AcDbEntity
  8
11000_Left
  6
DASHED
 62
     7
370
    20
100
AcDbLine
 39
0.25
 10
228.7375330983217
 20
415.9111053804343
 30
0.0
 11
228.7375330983217
 21
400.9111053804343
 31
0.0
1001
AUSTER_ANSICHT
1002
{
1000
SL
1002
}
1001
AUSTER_FOLIE
1002
{
1000
EINZELAUFSTELLUNG
1002
}
  0
LINE
  5
9259
330
20
100
AcDbEntity
  8
11000_Left
  6
DASHED
 62
     7
370
    20
100
AcDbLine
 39
0.25
 10
208.2584330983217
 20
401.7903053804343
 30
0.0
 11
212.2584330983217
 21
401.7903053804343
 31
0.0
1001
AUSTER_ANSICHT
1002
{
1000
SL
1002
}
1001
AUSTER_FOLIE
1002
{
1000
EINZELAUFSTELLUNG
1002
}
  0
LINE
  5
925A
330
20
100
AcDbEntity
  8
11000_Left
  6
DASHED
 62
     7
370
    20
100
AcDbLine
 39
0.25
 10
224.7375330983217
 20
400.9111053804343
 30
0.0
 11
224.7375330983217
 21
415.9111053804343
 31
0.0
1001
AUSTER_ANSICHT
1002
{
1000
SL
1002
}
1001
AUSTER_FOLIE
1002
{
1000
EINZELAUFSTELLUNG
1002
}
  0
LINE
  5
925B
330
20
100
AcDbEntity
  8
11000_Left
  6
DASHED
 62
     7
370
    20
100
AcDbLine
 39
0.25
 10
224.7375330983217
 20
415.9111053804343
 30
0.0
 11
228.7375330983217
 21
415.9111053804343
 31
0.0
1001
AUSTER_ANSICHT
1002
{
1000
SL
1002
}
1001
AUSTER_FOLIE
1002
{
1000
EINZELAUFSTELLUNG
1002
}
  0
LINE
  5
925C
330
20
100
AcDbEntity
  8
11000_Left
  6
DASHED
 62
     7
370
    20
100
AcDbLine
 39
0.25
 10
212.2584330983217
 20
401.7903053804343
 30
0.0
 11
212.2584330983217
 21
386.7903053804344
 31
0.0
1001
AUSTER_ANSICHT
1002
{
1000
SL
1002
}
1001
AUSTER_FOLIE
1002
{
1000
EINZELAUFSTELLUNG
1002
}
  0
LINE
  5
925D
330
20
100
AcDbEntity
  8
11000_Left
  6
DASHED
 62
     7
370
    20
100
AcDbLine
 39
0.25
 10
208.2584330983217
 20
386.7903053804344
 30
0.0
 11
208.2584330983217
 21
401.7903053804343
 31
0.0
1001
AUSTER_ANSICHT
1002
{
1000
SL
1002
}
1001
AUSTER_FOLIE
1002
{
1000
EINZELAUFSTELLUNG
1002
}
  0
LWPOLYLINE
  5
9264
330
20
100
AcDbEntity
  8
11000_Left
  6
Continuous
 62
     7
370
    50
100
AcDbPolyline
 90
       75
 70
     0
 43
0.0
 39
0.7
 10
226.4581330983216
 20
466.4402053804344
 10
226.4311330983217
 20
466.4402053804344
 10
226.4041330983216
 20
466.4392053804343
 10
226.3781330983217
 20
466.4382053804343
 10
226.3521330983216
 20
466.4372053804343
 10
226.3281330983217
 20
466.4352053804343
 10
226.3041330983216
 20
466.4322053804343
 10
226.2801330983217
 20
466.4292053804343
 10
226.2581330983216
 20
466.4262053804343
 10
226.2361330983216
 20
466.4222053804343
 10
226.2141330983217
 20
466.4182053804343
 10
226.1931330983216
 20
466.4132053804343
 10
226.1731330983216
 20
466.4082053804341
 10
226.1531330983217
 20
466.4022053804343
 10
226.1331330983217
 20
466.3962053804343
 10
226.1141330983217
 20
466.3892053804342
 10
226.0951330983216
 20
466.3822053804343
 10
226.0771330983216
 20
466.3742053804343
 10
226.0581330983216
 20
466.366205380434
 10
226.0401330983217
 20
466.3572053804343
 10
226.0221330983217
 20
466.3482053804343
 10
226.0041330983217
 20
466.3382053804343
 10
225.9861330983216
 20
466.3282053804343
 10
225.9691330983216
 20
466.3172053804343
 10
225.9511330983216
 20
466.3052053804343
 10
225.9511330983216
 20
466.3052053804343
 10
225.9341330983216
 20
466.2932053804341
 10
225.9161330983217
 20
466.2802053804343
 10
225.8981330983216
 20
466.2672053804343
 10
225.8811330983216
 20
466.2532053804343
 10
225.8641330983216
 20
466.2392053804343
 10
225.8461330983216
 20
466.2252053804343
 10
225.8291330983217
 20
466.2102053804343
 10
225.8121330983216
 20
466.1942053804343
 10
225.7951330983217
 20
466.1792053804343
 10
225.7791330983216
 20
466.1632053804344
 10
225.7621330983217
 20
466.1472053804343
 10
225.7461330983216
 20
466.1302053804343
 10
225.7301330983216
 20
466.1132053804343
 10
225.7151330983216
 20
466.0962053804341
 10
225.7001330983217
 20
466.0792053804343
 10
225.6851330983216
 20
466.0622053804344
 10
225.6701330983217
 20
466.0442053804343
 10
225.6561330983217
 20
466.0272053804343
 10
225.6431330983216
 20
466.0092053804341
 10
225.6291330983216
 20
465.9922053804343
 10
225.6161330983216
 20
465.9742053804343
 10
225.6041330983217
 20
465.9562053804343
 10
225.5921330983216
 20
465.9392053804343
 10
225.5811330983216
 20
465.9212053804343
 10
225.5811330983216
 20
465.9212053804343
 10
225.5701330983217
 20
465.9042053804343
 10
225.5601330983217
 20
465.8862053804343
 10
225.5511330983217
 20
465.8692053804343
 10
225.5411330983217
 20
465.8522053804343
 10
225.5331330983216
 20
465.8342053804343
 10
225.5251330983216
 20
465.8172053804341
 10
225.5171330983217
 20
465.7992053804343
 10
225.5101330983216
 20
465.7812053804343
 10
225.5041330983216
 20
465.7632053804343
 10
225.4971330983217
 20
465.7452053804343
 10
225.4921330983217
 20
465.7262053804343
 10
225.4871330983217
 20
465.707205380434
 10
225.4821330983217
 20
465.688205380434
 10
225.4781330983217
 20
465.6682053804344
 10
225.4741330983216
 20
465.6482053804343
 10
225.4711330983216
 20
465.6282053804343
 10
225.4681330983216
 20
465.606205380434
 10
225.4651330983216
 20
465.5852053804343
 10
225.4631330983217
 20
465.5622053804343
 10
225.4611330983216
 20
465.5392053804343
 10
225.4601330983216
 20
465.5162053804343
 10
225.4591330983215
 20
465.491205380434
 10
225.4581330983216
 20
465.4662053804343
 10
225.4581330983216
 20
465.4402053804343
1001
AUSTER_ANSICHT
1002
{
1000
SL
1002
}
1001
AUSTER_FOLIE
1002
{
1000
EINZELAUFSTELLUNG
1002
}
  0
LWPOLYLINE
  5
9266
330
20
100
AcDbEntity
  8
11000_Left
  6
Continuous
 62
     7
370
    50
100
AcDbPolyline
 90
       50
 70
     0
 43
0.0
 39
0.7
 10
241.5141330983216
 20
465.7432053804343
 10
241.5141330983216
 20
465.7432053804343
 10
241.5141330983216
 20
465.7432053804343
 10
241.5141330983216
 20
465.7432053804343
 10
241.5141330983216
 20
465.7432053804343
 10
241.5141330983216
 20
465.7432053804343
 10
241.5141330983216
 20
465.7432053804343
 10
241.5141330983216
 20
465.7432053804343
 10
241.5141330983216
 20
465.7432053804343
 10
241.5141330983216
 20
465.7432053804343
 10
241.5151330983216
 20
465.7422053804343
 10
241.5151330983216
 20
465.7422053804343
 10
241.5151330983216
 20
465.7422053804343
 10
241.5151330983216
 20
465.7422053804343
 10
241.5151330983216
 20
465.7422053804343
 10
241.5151330983216
 20
465.7422053804343
 10
241.5151330983216
 20
465.7422053804343
 10
241.5151330983216
 20
465.7422053804343
 10
241.5151330983216
 20
465.7422053804343
 10
241.5151330983216
 20
465.7422053804343
 10
241.5151330983216
 20
465.7422053804343
 10
241.5151330983216
 20
465.7422053804343
 10
241.5151330983216
 20
465.7422053804343
 10
241.5151330983216
 20
465.7422053804343
 10
241.5151330983216
 20
465.7422053804343
 10
241.5151330983216
 20
465.7422053804343
 10
241.5151330983216
 20
465.7422053804343
 10
241.5151330983216
 20
465.7422053804343
 10
241.5151330983216
 20
465.7422053804343
 10
241.5151330983216
 20
465.7422053804343
 10
241.5151330983216
 20
465.7422053804343
 10
241.5151330983216
 20
465.7422053804343
 10
241.5151330983216
 20
465.7412053804343
 10
241.5151330983216
 20
465.7412053804343
 10
241.5151330983216
 20
465.7412053804343
 10
241.5151330983216
 20
465.7412053804343
 10
241.5151330983216
 20
465.7412053804343
 10
241.5151330983216
 20
465.7412053804343
 10
241.5151330983216
 20
465.7412053804343
 10
241.5151330983216
 20
465.7412053804343
 10
241.5151330983216
 20
465.7412053804343
 10
241.5151330983216
 20
465.7412053804343
 10
241.5151330983216
 20
465.7412053804343
 10
241.5151330983216
 20
465.7412053804343
 10
241.5151330983216
 20
465.7412053804343
 10
241.5151330983216
 20
465.7412053804343
 10
241.5151330983216
 20
465.7412053804343
 10
241.5151330983216
 20
465.7412053804343
 10
241.5151330983216
 20
465.7412053804343
 10
241.5151330983216
 20
465.7412053804343
1001
AUSTER_ANSICHT
1002
{
1000
SL
1002
}
1001
AUSTER_FOLIE
1002
{
1000
EINZELAUFSTELLUNG
1002
}
  0
LWPOLYLINE
  5
9269
330
20
100
AcDbEntity
  8
11000_Left
  6
DASHED
 62
     7
370
    20
100
AcDbPolyline
 90
       50
 70
     0
 43
0.0
 39
0.25
 10
221.8781330983217
 20
387.4852053804344
 10
221.8781330983217
 20
387.4852053804344
 10
221.8781330983217
 20
387.4862053804343
 10
221.8781330983217
 20
387.4862053804343
 10
221.8781330983217
 20
387.4862053804343
 10
221.8781330983217
 20
387.4862053804343
 10
221.8781330983217
 20
387.4862053804343
 10
221.8781330983217
 20
387.4862053804343
 10
221.8781330983217
 20
387.4862053804343
 10
221.8781330983217
 20
387.4862053804343
 10
221.8781330983217
 20
387.4862053804343
 10
221.8781330983217
 20
387.4862053804343
 10
221.8781330983217
 20
387.4862053804343
 10
221.8781330983217
 20
387.4862053804343
 10
221.8781330983217
 20
387.4862053804343
 10
221.8781330983217
 20
387.4862053804343
 10
221.8781330983217
 20
387.4862053804343
 10
221.8781330983217
 20
387.4862053804343
 10
221.8781330983217
 20
387.4862053804343
 10
221.8781330983217
 20
387.4872053804343
 10
221.8781330983217
 20
387.4872053804343
 10
221.8781330983217
 20
387.4872053804343
 10
221.8781330983217
 20
387.4872053804343
 10
221.8781330983217
 20
387.4872053804343
 10
221.8781330983217
 20
387.4872053804343
 10
221.8781330983217
 20
387.4872053804343
 10
221.8781330983217
 20
387.4872053804343
 10
221.8781330983217
 20
387.4872053804343
 10
221.8781330983217
 20
387.4872053804343
 10
221.8781330983217
 20
387.4872053804343
 10
221.8781330983217
 20
387.4872053804343
 10
221.8781330983217
 20
387.4872053804343
 10
221.8781330983217
 20
387.4872053804343
 10
221.8781330983217
 20
387.4872053804343
 10
221.8781330983217
 20
387.4872053804343
 10
221.8781330983217
 20
387.4872053804343
 10
221.8781330983217
 20
387.4872053804343
 10
221.8781330983217
 20
387.4872053804343
 10
221.8781330983217
 20
387.4872053804343
 10
221.8781330983217
 20
387.4872053804343
 10
221.8781330983217
 20
387.4872053804343
 10
221.8781330983217
 20
387.4872053804343
 10
221.8781330983217
 20
387.4872053804343
 10
221.8781330983217
 20
387.4872053804343
 10
221.8781330983217
 20
387.4872053804343
 10
221.8781330983217
 20
387.4872053804343
 10
221.8781330983217
 20
387.4872053804343
 10
221.8781330983217
 20
387.4872053804343
 10
221.8781330983217
 20
387.4872053804343
 10
221.8781330983217
 20
387.4872053804343
1001
AUSTER_ANSICHT
1002
{
1000
SL
1002
}
1001
AUSTER_FOLIE
1002
{
1000
EINZELAUFSTELLUNG
1002
}
  0
LWPOLYLINE
  5
926A
330
20
100
AcDbEntity
  8
11000_Left
  6
DASHED
 62
     7
370
    20
100
AcDbPolyline
 90
      200
 70
     0
 43
0.0
 39
0.25
 10
221.9041330983216
 20
387.6872053804344
 10
221.9041330983216
 20
387.6852053804343
 10
221.9031330983217
 20
387.6832053804344
 10
221.9031330983217
 20
387.6812053804343
 10
221.9031330983217
 20
387.6792053804343
 10
221.9031330983217
 20
387.6772053804343
 10
221.9021330983216
 20
387.6752053804344
 10
221.9021330983216
 20
387.6742053804343
 10
221.9021330983216
 20
387.6722053804343
 10
221.9021330983216
 20
387.6702053804344
 10
221.9011330983216
 20
387.6682053804344
 10
221.9011330983216
 20
387.6662053804344
 10
221.9011330983216
 20
387.6642053804344
 10
221.9011330983216
 20
387.6622053804343
 10
221.9011330983216
 20
387.6602053804343
 10
221.9001330983216
 20
387.6592053804344
 10
221.9001330983216
 20
387.6572053804343
 10
221.9001330983216
 20
387.6552053804343
 10
221.9001330983216
 20
387.6532053804343
 10
221.8991330983216
 20
387.6512053804344
 10
221.8991330983216
 20
387.6502053804344
 10
221.8991330983216
 20
387.6482053804343
 10
221.8991330983216
 20
387.6462053804344
 10
221.8981330983216
 20
387.6442053804344
 10
221.8981330983216
 20
387.6432053804343
 10
221.8981330983216
 20
387.6432053804343
 10
221.8981330983216
 20
387.6412053804342
 10
221.8981330983216
 20
387.6392053804344
 10
221.8981330983216
 20
387.6372053804344
 10
221.8971330983217
 20
387.6362053804343
 10
221.8971330983217
 20
387.6342053804344
 10
221.8971330983217
 20
387.6322053804344
 10
221.8971330983217
 20
387.6302053804344
 10
221.8961330983217
 20
387.6292053804343
 10
221.8961330983217
 20
387.6272053804344
 10
221.8961330983217
 20
387.6252053804344
 10
221.8961330983217
 20
387.6242053804343
 10
221.8961330983217
 20
387.6222053804344
 10
221.8951330983217
 20
387.6202053804344
 10
221.8951330983217
 20
387.6182053804344
 10
221.8951330983217
 20
387.6172053804343
 10
221.8951330983217
 20
387.6152053804344
 10
221.8941330983216
 20
387.6132053804344
 10
221.8941330983216
 20
387.6122053804343
 10
221.8941330983216
 20
387.6102053804343
 10
221.8941330983216
 20
387.6082053804343
 10
221.8941330983216
 20
387.6072053804343
 10
221.8931330983216
 20
387.6052053804343
 10
221.8931330983216
 20
387.6042053804344
 10
221.8931330983216
 20
387.6022053804343
 10
221.8931330983216
 20
387.6022053804343
 10
221.8931330983216
 20
387.6002053804343
 10
221.8921330983217
 20
387.5992053804343
 10
221.8921330983217
 20
387.5972053804344
 10
221.8921330983217
 20
387.5962053804343
 10
221.8921330983217
 20
387.5942053804343
 10
221.8921330983217
 20
387.5922053804343
 10
221.8911330983216
 20
387.5912053804344
 10
221.8911330983216
 20
387.5892053804344
 10
221.8911330983216
 20
387.5882053804343
 10
221.8911330983216
 20
387.5862053804344
 10
221.8911330983216
 20
387.5852053804343
 10
221.8901330983216
 20
387.5832053804343
 10
221.8901330983216
 20
387.5822053804343
 10
221.8901330983216
 20
387.5802053804343
 10
221.8901330983216
 20
387.5792053804344
 10
221.8901330983216
 20
387.5772053804343
 10
221.8901330983216
 20
387.5762053804343
 10
221.8891330983216
 20
387.5742053804344
 10
221.8891330983216
 20
387.5732053804343
 10
221.8891330983216
 20
387.5722053804344
 10
221.8891330983216
 20
387.5702053804344
 10
221.8891330983216
 20
387.5692053804344
 10
221.8881330983216
 20
387.5672053804344
 10
221.8881330983216
 20
387.5662053804343
 10
221.8881330983216
 20
387.5662053804343
 10
221.8881330983216
 20
387.5642053804343
 10
221.8881330983216
 20
387.5632053804343
 10
221.8881330983216
 20
387.5622053804343
 10
221.8881330983216
 20
387.5602053804343
 10
221.8871330983217
 20
387.5592053804343
 10
221.8871330983217
 20
387.5582053804344
 10
221.8871330983217
 20
387.5562053804344
 10
221.8871330983217
 20
387.5552053804343
 10
221.8871330983217
 20
387.5542053804343
 10
221.8861330983217
 20
387.5522053804343
 10
221.8861330983217
 20
387.5512053804343
 10
221.8861330983217
 20
387.5502053804344
 10
221.8861330983217
 20
387.5492053804343
 10
221.8861330983217
 20
387.5472053804343
 10
221.8861330983217
 20
387.5462053804343
 10
221.8851330983216
 20
387.5452053804344
 10
221.8851330983216
 20
387.5442053804343
 10
221.8851330983216
 20
387.5422053804343
 10
221.8851330983216
 20
387.5412053804343
 10
221.8851330983216
 20
387.5402053804343
 10
221.8851330983216
 20
387.5392053804343
 10
221.8851330983216
 20
387.5382053804344
 10
221.8841330983216
 20
387.5372053804343
 10
221.8841330983216
 20
387.5352053804343
 10
221.8841330983216
 20
387.5352053804343
 10
221.8841330983216
 20
387.5342053804343
 10
221.8841330983216
 20
387.5332053804344
 10
221.8841330983216
 20
387.5322053804343
 10
221.8841330983216
 20
387.5312053804344
 10
221.8841330983216
 20
387.5302053804343
 10
221.8831330983217
 20
387.5292053804344
 10
221.8831330983217
 20
387.5282053804343
 10
221.8831330983217
 20
387.5272053804343
 10
221.8831330983217
 20
387.5262053804344
 10
221.8831330983217
 20
387.5252053804343
 10
221.8831330983217
 20
387.5242053804344
 10
221.8831330983217
 20
387.5232053804343
 10
221.8831330983217
 20
387.5222053804344
 10
221.8821330983217
 20
387.5212053804344
 10
221.8821330983217
 20
387.5202053804343
 10
221.8821330983217
 20
387.5202053804343
 10
221.8821330983217
 20
387.5192053804344
 10
221.8821330983217
 20
387.5182053804343
 10
221.8821330983217
 20
387.5172053804344
 10
221.8821330983217
 20
387.5162053804343
 10
221.8821330983217
 20
387.5152053804344
 10
221.8821330983217
 20
387.5152053804344
 10
221.8811330983216
 20
387.5142053804344
 10
221.8811330983216
 20
387.5132053804343
 10
221.8811330983216
 20
387.5132053804343
 10
221.8811330983216
 20
387.5122053804344
 10
221.8811330983216
 20
387.5122053804344
 10
221.8811330983216
 20
387.5112053804343
 10
221.8811330983216
 20
387.5102053804344
 10
221.8811330983216
 20
387.5092053804344
 10
221.8811330983216
 20
387.5092053804344
 10
221.8811330983216
 20
387.5082053804344
 10
221.8811330983216
 20
387.5072053804343
 10
221.8811330983216
 20
387.5072053804343
 10
221.8801330983216
 20
387.5062053804342
 10
221.8801330983216
 20
387.5062053804342
 10
221.8801330983216
 20
387.5052053804343
 10
221.8801330983216
 20
387.5042053804343
 10
221.8801330983216
 20
387.5042053804343
 10
221.8801330983216
 20
387.5032053804344
 10
221.8801330983216
 20
387.5032053804344
 10
221.8801330983216
 20
387.5022053804343
 10
221.8801330983216
 20
387.5022053804343
 10
221.8801330983216
 20
387.5012053804343
 10
221.8801330983216
 20
387.5002053804344
 10
221.8801330983216
 20
387.5002053804344
 10
221.8801330983216
 20
387.4992053804343
 10
221.8801330983216
 20
387.4992053804343
 10
221.8791330983216
 20
387.4982053804343
 10
221.8791330983216
 20
387.4982053804343
 10
221.8791330983216
 20
387.4982053804343
 10
221.8791330983216
 20
387.4982053804343
 10
221.8791330983216
 20
387.4972053804344
 10
221.8791330983216
 20
387.4972053804344
 10
221.8791330983216
 20
387.4962053804343
 10
221.8791330983216
 20
387.4962053804343
 10
221.8791330983216
 20
387.4952053804344
 10
221.8791330983216
 20
387.4952053804344
 10
221.8791330983216
 20
387.4952053804344
 10
221.8791330983216
 20
387.4942053804343
 10
221.8791330983216
 20
387.4942053804343
 10
221.8791330983216
 20
387.4932053804343
 10
221.8791330983216
 20
387.4932053804343
 10
221.8791330983216
 20
387.4932053804343
 10
221.8791330983216
 20
387.4922053804343
 10
221.8791330983216
 20
387.4922053804343
 10
221.8791330983216
 20
387.4922053804343
 10
221.8791330983216
 20
387.4912053804343
 10
221.8791330983216
 20
387.4912053804343
 10
221.8781330983217
 20
387.4912053804343
 10
221.8781330983217
 20
387.4912053804343
 10
221.8781330983217
 20
387.4902053804344
 10
221.8781330983217
 20
387.4902053804344
 10
221.8781330983217
 20
387.4902053804344
 10
221.8781330983217
 20
387.4902053804344
 10
221.8781330983217
 20
387.4892053804343
 10
221.8781330983217
 20
387.4892053804343
 10
221.8781330983217
 20
387.4892053804343
 10
221.8781330983217
 20
387.4892053804343
 10
221.8781330983217
 20
387.4892053804343
 10
221.8781330983217
 20
387.4882053804343
 10
221.8781330983217
 20
387.4882053804343
 10
221.8781330983217
 20
387.4882053804343
 10
221.8781330983217
 20
387.4882053804343
 10
221.8781330983217
 20
387.4882053804343
 10
221.8781330983217
 20
387.4882053804343
 10
221.8781330983217
 20
387.4872053804343
 10
221.8781330983217
 20
387.4872053804343
 10
221.8781330983217
 20
387.4872053804343
 10
221.8781330983217
 20
387.4872053804343
 10
221.8781330983217
 20
387.4872053804343
 10
221.8781330983217
 20
387.4872053804343
 10
221.8781330983217
 20
387.4872053804343
 10
221.8781330983217
 20
387.4872053804343
 10
221.8781330983217
 20
387.4872053804343
 10
221.8781330983217
 20
387.4872053804343
 10
221.8781330983217
 20
387.4872053804343
 10
221.8781330983217
 20
387.4872053804343
 10
221.8781330983217
 20
387.4872053804343
1001
AUSTER_ANSICHT
1002
{
1000
SL
1002
}
1001
AUSTER_FOLIE
1002
{
1000
EINZELAUFSTELLUNG
1002
}
  0
LWPOLYLINE
  5
926B
330
20
100
AcDbEntity
  8
11000_Left
  6
DASHED
 62
     7
370
    20
100
AcDbPolyline
 90
       25
 70
     0
 43
0.0
 39
0.25
 10
222.5831330983216
 20
393.4582053804343
 10
222.5831330983216
 20
393.4602053804344
 10
222.5841330983215
 20
393.4622053804344
 10
222.5841330983215
 20
393.4642053804343
 10
222.5841330983215
 20
393.4662053804343
 10
222.5841330983215
 20
393.4682053804344
 10
222.5841330983215
 20
393.4702053804343
 10
222.5841330983215
 20
393.4712053804344
 10
222.5841330983215
 20
393.4732053804344
 10
222.5841330983215
 20
393.4752053804343
 10
222.5851330983216
 20
393.4772053804343
 10
222.5851330983216
 20
393.4792053804343
 10
222.5851330983216
 20
393.4812053804344
 10
222.5851330983216
 20
393.4822053804343
 10
222.5851330983216
 20
393.4842053804343
 10
222.5851330983216
 20
393.4862053804343
 10
222.5851330983216
 20
393.4882053804344
 10
222.5851330983216
 20
393.4902053804344
 10
222.5851330983216
 20
393.4922053804343
 10
222.5851330983216
 20
393.4932053804343
 10
222.5851330983216
 20
393.4952053804344
 10
222.5851330983216
 20
393.4972053804344
 10
222.5851330983216
 20
393.4992053804343
 10
222.5851330983216
 20
393.5012053804343
 10
222.5851330983216
 20
393.5032053804343
1001
AUSTER_ANSICHT
1002
{
1000
SL
1002
}
1001
AUSTER_FOLIE
1002
{
1000
EINZELAUFSTELLUNG
1002
}
  0
ARC
  5
9271
330
20
100
AcDbEntity
  8
11000_Left
  6
Continuous
 62
     7
370
    50
100
AcDbCircle
 39
0.7
 10
221.7584330983217
 20
460.7306053804343
 30
0.0
 40
1.5
100
AcDbArc
 50
104.0000000000028
 51
180.0
1001
AUSTER_ANSICHT
1002
{
1000
SL
1002
}
1001
AUSTER_FOLIE
1002
{
1000
EINZELAUFSTELLUNG
1002
}
  0
ARC
  5
9272
330
20
100
AcDbEntity
  8
11000_Left
  6
Continuous
 62
     7
370
    50
100
AcDbCircle
 39
0.7
 10
223.9584330983216
 20
464.3709053804343
 30
0.0
 40
1.5
100
AcDbArc
 50
284.0000000000028
 51
0.0
1001
AUSTER_ANSICHT
1002
{
1000
SL
1002
}
1001
AUSTER_FOLIE
1002
{
1000
EINZELAUFSTELLUNG
1002
}
  0
ARC
  5
9273
330
20
100
AcDbEntity
  8
11000_Left
  6
Continuous
 62
     7
370
    50
100
AcDbCircle
 39
0.7
 10
235.9584330983216
 20
443.7403053804343
 30
0.0
 40
1.0
100
AcDbArc
 50
270.0
 51
0.0
1001
AUSTER_ANSICHT
1002
{
1000
SL
1002
}
1001
AUSTER_FOLIE
1002
{
1000
EINZELAUFSTELLUNG
1002
}
  0
ARC
  5
9274
330
20
100
AcDbEntity
  8
11000_Left
  6
Continuous
 62
     7
370
    50
100
AcDbCircle
 39
0.7
 10
-6.441600901678383
 20
433.840305380434
 30
0.0
 40
249.9999
100
AcDbArc
 50
3.312670000000863
 51
7.285055999999712
1001
AUSTER_ANSICHT
1002
{
1000
SL
1002
}
1001
AUSTER_FOLIE
1002
{
1000
EINZELAUFSTELLUNG
1002
}
  0
ARC
  5
9275
330
20
100
AcDbEntity
  8
11000_Left
  6
Continuous
 62
     7
370
    50
100
AcDbCircle
 39
0.7
 10
240.7211330983216
 20
465.6403053804343
 30
0.0
 40
0.7999996000000003
100
AcDbArc
 50
7.562560999998691
 51
90.00003000000305
1001
AUSTER_ANSICHT
1002
{
1000
SL
1002
}
1001
AUSTER_FOLIE
1002
{
1000
EINZELAUFSTELLUNG
1002
}
  0
ARC
  5
9276
330
20
100
AcDbEntity
  8
11000_Left
  6
Continuous
 62
     7
370
    50
100
AcDbCircle
 39
0.7
 10
242.3419330983216
 20
448.2402053804341
 30
0.0
 40
0.7999692
100
AcDbArc
 50
270.003199999998
 51
3.312699999999146
1001
AUSTER_ANSICHT
1002
{
1000
SL
1002
}
1001
AUSTER_FOLIE
1002
{
1000
EINZELAUFSTELLUNG
1002
}
  0
ARC
  5
9277
330
20
100
AcDbEntity
  8
11000_Left
  6
Continuous
 62
     7
370
    50
100
AcDbCircle
 39
0.7
 10
237.4584330983216
 20
446.9403053804342
 30
0.0
 40
0.5
100
AcDbArc
 50
90.0
 51
180.0
1001
AUSTER_ANSICHT
1002
{
1000
SL
1002
}
1001
AUSTER_FOLIE
1002
{
1000
EINZELAUFSTELLUNG
1002
}
  0
ARC
  5
9278
330
20
100
AcDbEntity
  8
11000_Left
 62
     7
370
    20
100
AcDbCircle
 39
0.45
 10
175.0584330983216
 20
449.6403053804343
 30
0.0
 40
0.5
100
AcDbArc
 50
90.0
 51
180.0
1001
AUSTER_ANSICHT
1002
{
1000
SL
1002
}
1001
AUSTER_FOLIE
1002
{
1000
EINZELAUFSTELLUNG
1002
}
  0
ARC
  5
9279
330
20
100
AcDbEntity
  8
11000_Left
  6
Continuous
 62
     7
370
    50
100
AcDbCircle
 39
0.7
 10
177.2584330983217
 20
380.2903053804343
 30
0.0
 40
1.0
100
AcDbArc
 50
270.0
 51
0.0
1001
AUSTER_ANSICHT
1002
{
1000
SL
1002
}
1001
AUSTER_FOLIE
1002
{
1000
EINZELAUFSTELLUNG
1002
}
  0
ARC
  5
927A
330
20
100
AcDbEntity
  8
11000_Left
  6
Continuous
 62
     7
370
    50
100
AcDbCircle
 39
0.7
 10
177.2584330983217
 20
462.2903053804343
 30
0.0
 40
1.0
100
AcDbArc
 50
0.0
 51
90.0
1001
AUSTER_ANSICHT
1002
{
1000
SL
1002
}
1001
AUSTER_FOLIE
1002
{
1000
EINZELAUFSTELLUNG
1002
}
  0
ARC
  5
927B
330
20
100
AcDbEntity
  8
11000_Left
  6
Continuous
 62
     7
370
    50
100
AcDbCircle
 39
0.7
 10
179.7584330983217
 20
453.8403053804342
 30
0.0
 40
1.5
100
AcDbArc
 50
180.0
 51
270.0
1001
AUSTER_ANSICHT
1002
{
1000
SL
1002
}
1001
AUSTER_FOLIE
1002
{
1000
EINZELAUFSTELLUNG
1002
}
  0
ARC
  5
927C
330
20
100
AcDbEntity
  8
11000_Left
  6
Continuous
 62
     7
370
    50
100
AcDbCircle
 39
0.7
 10
218.7584330983217
 20
453.8403053804342
 30
0.0
 40
1.5
100
AcDbArc
 50
270.0
 51
0.0
1001
AUSTER_ANSICHT
1002
{
1000
SL
1002
}
1001
AUSTER_FOLIE
1002
{
1000
EINZELAUFSTELLUNG
1002
}
  0
ARC
  5
927D
330
20
100
AcDbEntity
  8
11000_Left
  6
DASHED
 62
     7
370
    20
100
AcDbCircle
 39
0.25
 10
-26.02613690167834
 20
419.7903053804343
 30
0.0
 40
250.0
100
AcDbArc
 50
352.6221999999996
 51
355.6642999999992
1001
AUSTER_ANSICHT
1002
{
1000
SL
1002
}
1001
AUSTER_FOLIE
1002
{
1000
EINZELAUFSTELLUNG
1002
}
  0
ARC
  5
927E
330
20
100
AcDbEntity
  8
11000_Left
  6
DASHED
 62
     7
370
    20
100
AcDbCircle
 39
0.25
 10
222.5584330983216
 20
405.0403053804343
 30
0.0
 40
0.7
100
AcDbArc
 50
0.0
 51
90.0
1001
AUSTER_ANSICHT
1002
{
1000
SL
1002
}
1001
AUSTER_FOLIE
1002
{
1000
EINZELAUFSTELLUNG
1002
}
  0
ARC
  5
927F
330
20
100
AcDbEntity
  8
11000_Left
  6
DASHED
 62
     7
370
    20
100
AcDbCircle
 39
0.25
 10
220.2584330983217
 20
400.0903053804343
 30
0.0
 40
0.8
100
AcDbArc
 50
90.0
 51
180.0
1001
AUSTER_ANSICHT
1002
{
1000
SL
1002
}
1001
AUSTER_FOLIE
1002
{
1000
EINZELAUFSTELLUNG
1002
}
  0
ARC
  5
9280
330
20
100
AcDbEntity
  8
11000_Left
  6
DASHED
 62
     7
370
    20
100
AcDbCircle
 39
0.25
 10
221.0847330983217
 20
387.5903053804344
 30
0.0
 40
0.8
100
AcDbArc
 50
270.0
 51
352.3843000000005
1001
AUSTER_ANSICHT
1002
{
1000
SL
1002
}
1001
AUSTER_FOLIE
1002
{
1000
EINZELAUFSTELLUNG
1002
}
  0
ARC
  5
9281
330
20
100
AcDbEntity
  8
11000_Left
  6
DASHED
 62
     7
370
    20
100
AcDbCircle
 39
0.25
 10
212.6584330983217
 20
406.6403053804343
 30
0.0
 40
0.9
100
AcDbArc
 50
180.0
 51
270.0
1001
AUSTER_ANSICHT
1002
{
1000
SL
1002
}
1001
AUSTER_FOLIE
1002
{
1000
EINZELAUFSTELLUNG
1002
}
  0
ARC
  5
9282
330
20
100
AcDbEntity
  8
11000_Left
  6
DASHED
 62
     7
370
    20
100
AcDbCircle
 39
0.25
 10
211.0584330983217
 20
416.5403053804343
 30
0.0
 40
0.7
100
AcDbArc
 50
0.0
 51
90.0
1001
AUSTER_ANSICHT
1002
{
1000
SL
1002
}
1001
AUSTER_FOLIE
1002
{
1000
EINZELAUFSTELLUNG
1002
}
  0
ARC
  5
9283
330
20
100
AcDbEntity
  8
11000_Left
  6
DASHED
 62
     7
370
    20
100
AcDbCircle
 39
0.25
 10
206.5584330983216
 20
418.1403053804343
 30
0.0
 40
0.9
100
AcDbArc
 50
180.0
 51
270.0
1001
AUSTER_ANSICHT
1002
{
1000
SL
1002
}
1001
AUSTER_FOLIE
1002
{
1000
EINZELAUFSTELLUNG
1002
}
  0
ARC
  5
9284
330
20
100
AcDbEntity
  8
11000_Left
  6
DASHED
 62
     7
370
    20
100
AcDbCircle
 39
0.25
 10
204.2270330983216
 20
387.1903053804343
 30
0.0
 40
0.8
100
AcDbArc
 50
45.0
 51
90.0
1001
AUSTER_ANSICHT
1002
{
1000
SL
1002
}
1001
AUSTER_FOLIE
1002
{
1000
EINZELAUFSTELLUNG
1002
}
  0
ARC
  5
9285
330
20
100
AcDbEntity
  8
11000_Left
  6
DASHED
 62
     7
370
    20
100
AcDbCircle
 39
0.25
 10
206.0898330983216
 20
387.5903053804344
 30
0.0
 40
0.8
100
AcDbArc
 50
225.0
 51
270.0
1001
AUSTER_ANSICHT
1002
{
1000
SL
1002
}
1001
AUSTER_FOLIE
1002
{
1000
EINZELAUFSTELLUNG
1002
}
  0
ARC
  5
9286
330
20
100
AcDbEntity
  8
11000_Left
  6
DASHED
 62
     7
370
    20
100
AcDbCircle
 39
0.25
 10
238.1822330983216
 20
423.7403053804343
 30
0.0
 40
10.0
100
AcDbArc
 50
0.0
 51
15.547740000001
1001
AUSTER_ANSICHT
1002
{
1000
SL
1002
}
1001
AUSTER_FOLIE
1002
{
1000
EINZELAUFSTELLUNG
1002
}
  0
ARC
  5
9287
330
20
100
AcDbEntity
  8
11000_Left
  6
DASHED
 62
     7
370
    20
100
AcDbCircle
 39
0.25
 10
247.5272330983216
 20
426.3403053804343
 30
0.0
 40
0.3
100
AcDbArc
 50
15.547740000001
 51
90.0
1001
AUSTER_ANSICHT
1002
{
1000
SL
1002
}
1001
AUSTER_FOLIE
1002
{
1000
EINZELAUFSTELLUNG
1002
}
  0
ARC
  5
9288
330
20
100
AcDbEntity
  8
11000_Left
  6
DASHED
 62
     7
370
    20
100
AcDbCircle
 39
0.25
 10
238.1822330983216
 20
423.7403053804343
 30
0.0
 40
10.0
100
AcDbArc
 50
344.4523000000004
 51
0.0
1001
AUSTER_ANSICHT
1002
{
1000
SL
1002
}
1001
AUSTER_FOLIE
1002
{
1000
EINZELAUFSTELLUNG
1002
}
  0
ARC
  5
9289
330
20
100
AcDbEntity
  8
11000_Left
  6
DASHED
 62
     7
370
    20
100
AcDbCircle
 39
0.25
 10
247.5272330983216
 20
421.1403053804342
 30
0.0
 40
0.3
100
AcDbArc
 50
270.0
 51
344.4523000000004
1001
AUSTER_ANSICHT
1002
{
1000
SL
1002
}
1001
AUSTER_FOLIE
1002
{
1000
EINZELAUFSTELLUNG
1002
}
  0
ARC
  5
928A
330
20
100
AcDbEntity
  8
11000_Left
 62
     7
370
    30
100
AcDbCircle
 39
0.45
 10
180.7582330983216
 20
385.7903053804344
 30
0.0
 40
1.000221999999999
100
AcDbArc
 50
0.0
 51
40.78985999999974
1001
AUSTER_ANSICHT
1002
{
1000
SL
1002
}
1001
AUSTER_FOLIE
1002
{
1000
EINZELAUFSTELLUNG
1002
}
  0
ARC
  5
928B
330
20
100
AcDbEntity
  8
11000_Left
  6
DASHED
 62
     7
370
    20
100
AcDbCircle
 39
0.25
 10
240.6771330983216
 20
401.8004053804343
 30
0.0
 40
0.9101481999999998
100
AcDbArc
 50
270.0
 51
0.0
1001
AUSTER_ANSICHT
1002
{
1000
SL
1002
}
1001
AUSTER_FOLIE
1002
{
1000
EINZELAUFSTELLUNG
1002
}
  0
ARC
  5
928C
330
20
100
AcDbEntity
  8
11000_Left
  6
DASHED
 62
     7
370
    20
100
AcDbCircle
 39
0.25
 10
-6.341580901678412
 20
439.3903053804343
 30
0.0
 40
252.0
100
AcDbArc
 50
357.4487
 51
359.5447
1001
AUSTER_ANSICHT
1002
{
1000
SL
1002
}
1001
AUSTER_FOLIE
1002
{
1000
EINZELAUFSTELLUNG
1002
}
  0
ARC
  5
928D
330
20
100
AcDbEntity
  8
11000_Left
  6
DASHED
 62
     7
370
    20
100
AcDbCircle
 39
0.25
 10
245.3504330983216
 20
437.3903053804343
 30
0.0
 40
0.3
100
AcDbArc
 50
359.544800000001
 51
90.0
1001
AUSTER_ANSICHT
1002
{
1000
SL
1002
}
1001
AUSTER_FOLIE
1002
{
1000
EINZELAUFSTELLUNG
1002
}
  0
ARC
  5
928E
330
20
100
AcDbEntity
  8
11000_Left
  6
DASHED
 62
     7
370
    20
100
AcDbCircle
 39
0.25
 10
245.1133330983216
 20
428.1859053804343
 30
0.0
 40
0.295619
100
AcDbArc
 50
270.0
 51
357.4487
1001
AUSTER_ANSICHT
1002
{
1000
SL
1002
}
1001
AUSTER_FOLIE
1002
{
1000
EINZELAUFSTELLUNG
1002
}
  0
ARC
  5
928F
330
20
100
AcDbEntity
  8
11000_Left
  6
DASHED
 62
     7
370
    20
100
AcDbCircle
 39
0.25
 10
242.6296330983216
 20
446.7403053804343
 30
0.0
 40
0.6992181
100
AcDbArc
 50
358.8476000000012
 51
90.0
1001
AUSTER_ANSICHT
1002
{
1000
SL
1002
}
1001
AUSTER_FOLIE
1002
{
1000
EINZELAUFSTELLUNG
1002
}
  0
ARC
  5
9290
330
20
100
AcDbEntity
  8
11000_Left
  6
DASHED
 62
     7
370
    20
100
AcDbCircle
 39
0.25
 10
-6.341580901678412
 20
433.8903053804343
 30
0.0
 40
250.0
100
AcDbArc
 50
352.6251999999989
 51
2.943100000000147
1001
AUSTER_ANSICHT
1002
{
1000
SL
1002
}
1001
AUSTER_FOLIE
1002
{
1000
EINZELAUFSTELLUNG
1002
}
  0
LINE
  5
9292
330
20
100
AcDbEntity
  8
11000_Left
 62
     7
370
    20
100
AcDbLine
 39
0.45
 10
239.0584330983216
 20
447.4403053804343
 30
0.0
 11
239.0584330983216
 21
448.2403053804343
 31
0.0
1001
AUSTER_ANSICHT
1002
{
1000
SL
1002
}
1001
AUSTER_FOLIE
1002
{
1000
EINZELAUFSTELLUNG
1002
}
  0
LINE
  5
9293
330
20
100
AcDbEntity
  8
11000_Left
  6
Continuous
 62
     7
370
    50
100
AcDbLine
 39
0.7
 10
220.2584330983217
 20
453.8403053804342
 30
0.0
 11
220.2584330983217
 21
460.7306053804343
 31
0.0
1001
AUSTER_ANSICHT
1002
{
1000
SL
1002
}
1001
AUSTER_FOLIE
1002
{
1000
EINZELAUFSTELLUNG
1002
}
  0
LINE
  5
9294
330
20
100
AcDbEntity
  8
11000_Left
  6
Continuous
 62
     7
370
    50
100
AcDbLine
 39
0.7
 10
224.3213330983216
 20
462.9155053804343
 30
0.0
 11
221.3955330983216
 21
462.1860053804343
 31
0.0
1001
AUSTER_ANSICHT
1002
{
1000
SL
1002
}
1001
AUSTER_FOLIE
1002
{
1000
EINZELAUFSTELLUNG
1002
}
  0
LINE
  5
9295
330
20
100
AcDbEntity
  8
11000_Left
  6
Continuous
 62
     7
370
    50
100
AcDbLine
 39
0.7
 10
225.4584330983216
 20
465.4403053804343
 30
0.0
 11
225.4584330983216
 21
464.3709053804343
 31
0.0
1001
AUSTER_ANSICHT
1002
{
1000
SL
1002
}
1001
AUSTER_FOLIE
1002
{
1000
EINZELAUFSTELLUNG
1002
}
  0
LINE
  5
9296
330
20
100
AcDbEntity
  8
11000_Left
  6
Continuous
 62
     7
370
    50
100
AcDbLine
 39
0.7
 10
200.3271330983216
 20
442.7403053804343
 30
0.0
 11
235.9584330983216
 21
442.7403053804343
 31
0.0
1001
AUSTER_ANSICHT
1002
{
1000
SL
1002
}
1001
AUSTER_FOLIE
1002
{
1000
EINZELAUFSTELLUNG
1002
}
  0
LINE
  5
9297
330
20
100
AcDbEntity
  8
11000_Left
  6
Continuous
 62
     7
370
    50
100
AcDbLine
 39
0.7
 10
193.3584330983216
 20
438.7403053804343
 30
0.0
 11
193.3584330983216
 21
440.2289053804341
 31
0.0
1001
AUSTER_ANSICHT
1002
{
1000
SL
1002
}
1001
AUSTER_FOLIE
1002
{
1000
EINZELAUFSTELLUNG
1002
}
  0
LINE
  5
9298
330
20
100
AcDbEntity
  8
11000_Left
  6
DASHED
 62
     7
370
    20
100
AcDbLine
 39
0.25
 10
229.6584330983217
 20
442.2403053804343
 30
0.0
 11
229.6584330983217
 21
442.7403053804343
 31
0.0
1001
AUSTER_ANSICHT
1002
{
1000
SL
1002
}
1001
AUSTER_FOLIE
1002
{
1000
EINZELAUFSTELLUNG
1002
}
  0
LINE
  5
9299
330
20
100
AcDbEntity
  8
11000_Left
  6
DASHED
 62
     7
370
    20
100
AcDbLine
 39
0.25
 10
234.1584330983216
 20
442.7403053804343
 30
0.0
 11
234.1584330983216
 21
442.2403053804343
 31
0.0
1001
AUSTER_ANSICHT
1002
{
1000
SL
1002
}
1001
AUSTER_FOLIE
1002
{
1000
EINZELAUFSTELLUNG
1002
}
  0
LINE
  5
929A
330
20
100
AcDbEntity
  8
11000_Left
  6
DASHED
 62
     7
370
    20
100
AcDbLine
 39
0.25
 10
229.6588330983217
 20
438.7403053804343
 30
0.0
 11
229.6584330983217
 21
442.2403053804343
 31
0.0
1001
AUSTER_ANSICHT
1002
{
1000
SL
1002
}
1001
AUSTER_FOLIE
1002
{
1000
EINZELAUFSTELLUNG
1002
}
  0
LINE
  5
929B
330
20
100
AcDbEntity
  8
11000_Left
 62
     7
370
    20
100
AcDbLine
 39
0.45
 10
239.0584330983216
 20
447.4403053804343
 30
0.0
 11
239.0584330983216
 21
446.6403053804341
 31
0.0
1001
AUSTER_ANSICHT
1002
{
1000
SL
1002
}
1001
AUSTER_FOLIE
1002
{
1000
EINZELAUFSTELLUNG
1002
}
  0
LINE
  5
929C
330
20
100
AcDbEntity
  8
11000_Left
  6
DASHED
 62
     7
370
    20
100
AcDbLine
 39
0.25
 10
239.0581330983216
 20
441.7403053804343
 30
0.0
 11
239.0584330983216
 21
446.6403053804341
 31
0.0
1001
AUSTER_ANSICHT
1002
{
1000
SL
1002
}
1001
AUSTER_FOLIE
1002
{
1000
EINZELAUFSTELLUNG
1002
}
  0
LINE
  5
929D
330
20
100
AcDbEntity
  8
11000_Left
  6
DASHED
 62
     7
370
    20
100
AcDbLine
 39
0.25
 10
234.1584330983216
 20
442.2403053804343
 30
0.0
 11
234.1584330983216
 21
441.7403053804343
 31
0.0
1001
AUSTER_ANSICHT
1002
{
1000
SL
1002
}
1001
AUSTER_FOLIE
1002
{
1000
EINZELAUFSTELLUNG
1002
}
  0
LINE
  5
929E
330
20
100
AcDbEntity
  8
11000_Left
  6
Continuous
 62
     7
370
    50
100
AcDbLine
 39
0.7
 10
234.1584330983216
 20
442.7403053804343
 30
0.0
 11
235.9584330983216
 21
442.7403053804343
 31
0.0
1001
AUSTER_ANSICHT
1002
{
1000
SL
1002
}
1001
AUSTER_FOLIE
1002
{
1000
EINZELAUFSTELLUNG
1002
}
  0
LINE
  5
929F
330
20
100
AcDbEntity
  8
11000_Left
 62
     7
370
    20
100
AcDbLine
 39
0.45
 10
233.5584330983216
 20
442.7403053804343
 30
0.0
 11
234.1584330983216
 21
442.7403053804343
 31
0.0
1001
AUSTER_ANSICHT
1002
{
1000
SL
1002
}
1001
AUSTER_FOLIE
1002
{
1000
EINZELAUFSTELLUNG
1002
}
  0
LINE
  5
92A0
330
20
100
AcDbEntity
  8
11000_Left
 62
     7
370
    20
100
AcDbLine
 39
0.45
 10
229.6584330983217
 20
442.7403053804343
 30
0.0
 11
230.2584330983217
 21
442.7403053804343
 31
0.0
1001
AUSTER_ANSICHT
1002
{
1000
SL
1002
}
1001
AUSTER_FOLIE
1002
{
1000
EINZELAUFSTELLUNG
1002
}
  0
LINE
  5
92A1
330
20
100
AcDbEntity
  8
11000_Left
  6
Continuous
 62
     7
370
    50
100
AcDbLine
 39
0.7
 10
200.3271330983216
 20
442.7403053804343
 30
0.0
 11
229.6584330983217
 21
442.7403053804343
 31
0.0
1001
AUSTER_ANSICHT
1002
{
1000
SL
1002
}
1001
AUSTER_FOLIE
1002
{
1000
EINZELAUFSTELLUNG
1002
}
  0
LINE
  5
92A2
330
20
100
AcDbEntity
  8
11000_Left
  6
Continuous
 62
     7
370
    50
100
AcDbLine
 39
0.7
 10
236.9584330983216
 20
446.9403053804342
 30
0.0
 11
236.9584330983216
 21
443.7403053804343
 31
0.0
1001
AUSTER_ANSICHT
1002
{
1000
SL
1002
}
1001
AUSTER_FOLIE
1002
{
1000
EINZELAUFSTELLUNG
1002
}
  0
LINE
  5
92A3
330
20
100
AcDbEntity
  8
11000_Left
  6
Continuous
 62
     7
370
    50
100
AcDbLine
 39
0.7
 10
193.3584330983216
 20
440.2289053804341
 30
0.0
 11
200.2584330983217
 21
442.7403053804343
 31
0.0
1001
AUSTER_ANSICHT
1002
{
1000
SL
1002
}
1001
AUSTER_FOLIE
1002
{
1000
EINZELAUFSTELLUNG
1002
}
  0
LINE
  5
92A4
330
20
100
AcDbEntity
  8
11000_Left
  6
DASHED
 62
     7
370
    20
100
AcDbLine
 39
0.25
 10
239.0581330983216
 20
441.7403053804343
 30
0.0
 11
239.0581330983216
 21
400.8903053804343
 31
0.0
1001
AUSTER_ANSICHT
1002
{
1000
SL
1002
}
1001
AUSTER_FOLIE
1002
{
1000
EINZELAUFSTELLUNG
1002
}
  0
LINE
  5
92A5
330
20
100
AcDbEntity
  8
11000_Left
  6
Continuous
 62
     7
370
    50
100
AcDbLine
 39
0.7
 10
241.5141330983216
 20
465.7455053804343
 30
0.0
 11
241.5403330983216
 21
465.5417053804343
 31
0.0
1001
AUSTER_ANSICHT
1002
{
1000
SL
1002
}
1001
AUSTER_FOLIE
1002
{
1000
EINZELAUFSTELLUNG
1002
}
  0
LINE
  5
92A6
330
20
100
AcDbEntity
  8
11000_Left
 62
     7
370
    20
100
AcDbLine
 39
0.45
 10
239.0584330983216
 20
447.6403053804343
 30
0.0
 11
239.0584330983216
 21
448.4403053804343
 31
0.0
1001
AUSTER_ANSICHT
1002
{
1000
SL
1002
}
1001
AUSTER_FOLIE
1002
{
1000
EINZELAUFSTELLUNG
1002
}
  0
LINE
  5
92A7
330
20
100
AcDbEntity
  8
11000_Left
 62
     7
370
    20
100
AcDbLine
 39
0.45
 10
239.0584330983216
 20
465.4403053804343
 30
0.0
 11
239.0584330983216
 21
466.4403053804343
 31
0.0
1001
AUSTER_ANSICHT
1002
{
1000
SL
1002
}
1001
AUSTER_FOLIE
1002
{
1000
EINZELAUFSTELLUNG
1002
}
  0
LINE
  5
92A8
330
20
100
AcDbEntity
  8
11000_Left
  6
Continuous
 62
     7
370
    50
100
AcDbLine
 39
0.7
 10
239.0584330983216
 20
466.4403053804343
 30
0.0
 11
240.7211330983216
 21
466.4403053804343
 31
0.0
1001
AUSTER_ANSICHT
1002
{
1000
SL
1002
}
1001
AUSTER_FOLIE
1002
{
1000
EINZELAUFSTELLUNG
1002
}
  0
LINE
  5
92A9
330
20
100
AcDbEntity
  8
11000_Left
 62
     7
370
    20
100
AcDbLine
 39
0.45
 10
239.0584330983216
 20
465.4403053804343
 30
0.0
 11
239.0584330983216
 21
448.2403053804343
 31
0.0
1001
AUSTER_ANSICHT
1002
{
1000
SL
1002
}
1001
AUSTER_FOLIE
1002
{
1000
EINZELAUFSTELLUNG
1002
}
  0
LINE
  5
92AA
330
20
100
AcDbEntity
  8
11000_Left
 62
     7
370
    20
100
AcDbLine
 39
0.45
 10
239.0584330983216
 20
465.6403053804343
 30
0.0
 11
239.0584330983216
 21
448.4403053804343
 31
0.0
1001
AUSTER_ANSICHT
1002
{
1000
SL
1002
}
1001
AUSTER_FOLIE
1002
{
1000
EINZELAUFSTELLUNG
1002
}
  0
LINE
  5
92AB
330
20
100
AcDbEntity
  8
11000_Left
  6
Continuous
 62
     7
370
    50
100
AcDbLine
 39
0.7
 10
226.4584330983216
 20
466.4403053804343
 30
0.0
 11
239.1584330983217
 21
466.4403053804343
 31
0.0
1001
AUSTER_ANSICHT
1002
{
1000
SL
1002
}
1001
AUSTER_FOLIE
1002
{
1000
EINZELAUFSTELLUNG
1002
}
  0
LINE
  5
92AC
330
20
100
AcDbEntity
  8
11000_Left
 62
     7
370
    20
100
AcDbLine
 39
0.45
 10
242.3420330983216
 20
447.4403053804343
 30
0.0
 11
239.0584330983216
 21
447.4403053804343
 31
0.0
1001
AUSTER_ANSICHT
1002
{
1000
SL
1002
}
1001
AUSTER_FOLIE
1002
{
1000
EINZELAUFSTELLUNG
1002
}
  0
LINE
  5
92AD
330
20
100
AcDbEntity
  8
11000_Left
  6
Continuous
 62
     7
370
    50
100
AcDbLine
 39
0.7
 10
237.4584330983216
 20
447.4403053804343
 30
0.0
 11
239.0584330983216
 21
447.4403053804343
 31
0.0
1001
AUSTER_ANSICHT
1002
{
1000
SL
1002
}
1001
AUSTER_FOLIE
1002
{
1000
EINZELAUFSTELLUNG
1002
}
  0
LINE
  5
92AE
330
20
100
AcDbEntity
  8
11000_Left
  6
Continuous
 62
     7
370
    50
100
AcDbLine
 39
0.7
 10
239.0584330983216
 20
447.4403053804343
 30
0.0
 11
242.6296330983216
 21
447.4395053804341
 31
0.0
1001
AUSTER_ANSICHT
1002
{
1000
SL
1002
}
1001
AUSTER_FOLIE
1002
{
1000
EINZELAUFSTELLUNG
1002
}
  0
LINE
  5
92B0
330
20
100
AcDbEntity
  8
11000_Left
  6
DASHED
 62
     7
370
    20
100
AcDbLine
 39
0.25
 10
231.5584330983217
 20
439.2403053804343
 30
0.0
 11
231.5584330983217
 21
438.7403053804343
 31
0.0
1001
AUSTER_ANSICHT
1002
{
1000
SL
1002
}
1001
AUSTER_FOLIE
1002
{
1000
EINZELAUFSTELLUNG
1002
}
  0
LINE
  5
92B2
330
20
100
AcDbEntity
  8
11000_Left
 62
     7
370
    20
100
AcDbLine
 39
0.45
 10
173.4404330983217
 20
412.6403053804343
 30
0.0
 11
171.2584330983217
 21
409.640305380434
 31
0.0
1001
AUSTER_ANSICHT
1002
{
1000
SL
1002
}
1001
AUSTER_FOLIE
1002
{
1000
EINZELAUFSTELLUNG
1002
}
  0
LINE
  5
92B3
330
20
100
AcDbEntity
  8
11000_Left
 62
     7
370
    20
100
AcDbLine
 39
0.45
 10
174.4404330983217
 20
412.6403053804343
 30
0.0
 11
173.4404330983217
 21
412.6403053804343
 31
0.0
1001
AUSTER_ANSICHT
1002
{
1000
SL
1002
}
1001
AUSTER_FOLIE
1002
{
1000
EINZELAUFSTELLUNG
1002
}
  0
LINE
  5
92B4
330
20
100
AcDbEntity
  8
11000_Left
 62
     7
370
    20
100
AcDbLine
 39
0.45
 10
174.7084330983216
 20
411.6403053804343
 30
0.0
 11
174.4404330983217
 21
412.6403053804343
 31
0.0
1001
AUSTER_ANSICHT
1002
{
1000
SL
1002
}
1001
AUSTER_FOLIE
1002
{
1000
EINZELAUFSTELLUNG
1002
}
  0
LINE
  5
92B5
330
20
100
AcDbEntity
  8
11000_Left
 62
     7
370
    20
100
AcDbLine
 39
0.45
 10
175.7584330983217
 20
411.6403053804343
 30
0.0
 11
174.7084330983216
 21
411.6403053804343
 31
0.0
1001
AUSTER_ANSICHT
1002
{
1000
SL
1002
}
1001
AUSTER_FOLIE
1002
{
1000
EINZELAUFSTELLUNG
1002
}
  0
LINE
  5
92B6
330
20
100
AcDbEntity
  8
11000_Left
 62
     7
370
    20
100
AcDbLine
 39
0.45
 10
174.5584330983216
 20
449.6403053804343
 30
0.0
 11
174.5584330983216
 21
445.8320053804343
 31
0.0
1001
AUSTER_ANSICHT
1002
{
1000
SL
1002
}
1001
AUSTER_FOLIE
1002
{
1000
EINZELAUFSTELLUNG
1002
}
  0
LINE
  5
92B7
330
20
100
AcDbEntity
  8
11000_Left
 62
     7
370
    20
100
AcDbLine
 39
0.45
 10
173.5584330983216
 20
444.6403053804343
 30
0.0
 11
174.5584330983216
 21
445.8320053804343
 31
0.0
1001
AUSTER_ANSICHT
1002
{
1000
SL
1002
}
1001
AUSTER_FOLIE
1002
{
1000
EINZELAUFSTELLUNG
1002
}
  0
LINE
  5
92B8
330
20
100
AcDbEntity
  8
11000_Left
 62
     7
370
    20
100
AcDbLine
 39
0.45
 10
172.5584330983216
 20
444.6403053804343
 30
0.0
 11
173.5584330983216
 21
444.6403053804343
 31
0.0
1001
AUSTER_ANSICHT
1002
{
1000
SL
1002
}
1001
AUSTER_FOLIE
1002
{
1000
EINZELAUFSTELLUNG
1002
}
  0
LINE
  5
92B9
330
20
100
AcDbEntity
  8
11000_Left
 62
     7
370
    20
100
AcDbLine
 39
0.45
 10
171.2584330983217
 20
450.1403053804343
 30
0.0
 11
172.5584330983216
 21
444.6403053804343
 31
0.0
1001
AUSTER_ANSICHT
1002
{
1000
SL
1002
}
1001
AUSTER_FOLIE
1002
{
1000
EINZELAUFSTELLUNG
1002
}
  0
LINE
  5
92BA
330
20
100
AcDbEntity
  8
11000_Left
  6
Continuous
 62
     7
370
    50
100
AcDbLine
 39
0.7
 10
171.2584330983217
 20
463.2903053804343
 30
0.0
 11
171.2584330983217
 21
461.7903053804343
 31
0.0
1001
AUSTER_ANSICHT
1002
{
1000
SL
1002
}
1001
AUSTER_FOLIE
1002
{
1000
EINZELAUFSTELLUNG
1002
}
  0
LINE
  5
92BB
330
20
100
AcDbEntity
  8
11000_Left
  6
Continuous
 62
     7
370
    50
100
AcDbLine
 39
0.7
 10
177.2584330983217
 20
379.2903053804344
 30
0.0
 11
171.2584330983217
 21
379.2903053804344
 31
0.0
1001
AUSTER_ANSICHT
1002
{
1000
SL
1002
}
1001
AUSTER_FOLIE
1002
{
1000
EINZELAUFSTELLUNG
1002
}
  0
LINE
  5
92BC
330
20
100
AcDbEntity
  8
11000_Left
 62
     7
370
    30
100
AcDbLine
 39
0.45
 10
181.5154330983216
 20
386.4437053804343
 30
0.0
 11
180.7575330983217
 21
387.3217053804344
 31
0.0
1001
AUSTER_ANSICHT
1002
{
1000
SL
1002
}
1001
AUSTER_FOLIE
1002
{
1000
EINZELAUFSTELLUNG
1002
}
  0
LINE
  5
92BD
330
20
100
AcDbEntity
  8
11000_Left
 62
     7
370
    30
100
AcDbLine
 39
0.45
 10
181.7584330983217
 20
385.7903053804344
 30
0.0
 11
180.7582330983216
 21
385.7903053804344
 31
0.0
1001
AUSTER_ANSICHT
1002
{
1000
SL
1002
}
1001
AUSTER_FOLIE
1002
{
1000
EINZELAUFSTELLUNG
1002
}
  0
LINE
  5
92BE
330
20
100
AcDbEntity
  8
11000_Left
 62
     7
370
    30
100
AcDbLine
 39
0.45
 10
181.7584330983217
 20
384.4903053804344
 30
0.0
 11
181.7584330983217
 21
385.7903053804344
 31
0.0
1001
AUSTER_ANSICHT
1002
{
1000
SL
1002
}
1001
AUSTER_FOLIE
1002
{
1000
EINZELAUFSTELLUNG
1002
}
  0
LINE
  5
92BF
330
20
100
AcDbEntity
  8
11000_Left
 62
     7
370
    30
100
AcDbLine
 39
0.45
 10
182.9584330983216
 20
383.2903053804344
 30
0.0
 11
181.7584330983217
 21
384.4903053804344
 31
0.0
1001
AUSTER_ANSICHT
1002
{
1000
SL
1002
}
1001
AUSTER_FOLIE
1002
{
1000
EINZELAUFSTELLUNG
1002
}
  0
LINE
  5
92C0
330
20
100
AcDbEntity
  8
11000_Left
 62
     7
370
    30
100
AcDbLine
 39
0.45
 10
182.9584330983216
 20
382.7903053804344
 30
0.0
 11
182.9584330983216
 21
383.2903053804344
 31
0.0
1001
AUSTER_ANSICHT
1002
{
1000
SL
1002
}
1001
AUSTER_FOLIE
1002
{
1000
EINZELAUFSTELLUNG
1002
}
  0
LINE
  5
92C1
330
20
100
AcDbEntity
  8
11000_Left
 62
     7
370
    30
100
AcDbLine
 39
0.45
 10
181.7613330983216
 20
382.7903053804344
 30
0.0
 11
182.9584330983216
 21
382.7903053804344
 31
0.0
1001
AUSTER_ANSICHT
1002
{
1000
SL
1002
}
1001
AUSTER_FOLIE
1002
{
1000
EINZELAUFSTELLUNG
1002
}
  0
LINE
  5
92C2
330
20
100
AcDbEntity
  8
11000_Left
 62
     7
370
    30
100
AcDbLine
 39
0.45
 10
180.2613330983216
 20
384.2903053804343
 30
0.0
 11
181.7613330983216
 21
382.7903053804344
 31
0.0
1001
AUSTER_ANSICHT
1002
{
1000
SL
1002
}
1001
AUSTER_FOLIE
1002
{
1000
EINZELAUFSTELLUNG
1002
}
  0
LINE
  5
92C3
330
20
100
AcDbEntity
  8
11000_Left
 62
     7
370
    30
100
AcDbLine
 39
0.45
 10
178.2584330983217
 20
387.7903053804343
 30
0.0
 11
180.7584330983217
 21
387.7903053804343
 31
0.0
1001
AUSTER_ANSICHT
1002
{
1000
SL
1002
}
1001
AUSTER_FOLIE
1002
{
1000
EINZELAUFSTELLUNG
1002
}
  0
LINE
  5
92C4
330
20
100
AcDbEntity
  8
11000_Left
 62
     7
370
    30
100
AcDbLine
 39
0.45
 10
180.7584330983217
 20
387.7903053804343
 30
0.0
 11
180.7584330983217
 21
387.0903053804344
 31
0.0
1001
AUSTER_ANSICHT
1002
{
1000
SL
1002
}
1001
AUSTER_FOLIE
1002
{
1000
EINZELAUFSTELLUNG
1002
}
  0
LINE
  5
92C5
330
20
100
AcDbEntity
  8
11000_Left
 62
     7
370
    30
100
AcDbLine
 39
0.45
 10
180.7584330983217
 20
387.0903053804344
 30
0.0
 11
180.7584330983217
 21
384.2903053804343
 31
0.0
1001
AUSTER_ANSICHT
1002
{
1000
SL
1002
}
1001
AUSTER_FOLIE
1002
{
1000
EINZELAUFSTELLUNG
1002
}
  0
LINE
  5
92C6
330
20
100
AcDbEntity
  8
11000_Left
 62
     7
370
    30
100
AcDbLine
 39
0.45
 10
180.7584330983217
 20
384.2903053804343
 30
0.0
 11
178.2584330983217
 21
384.2903053804343
 31
0.0
1001
AUSTER_ANSICHT
1002
{
1000
SL
1002
}
1001
AUSTER_FOLIE
1002
{
1000
EINZELAUFSTELLUNG
1002
}
  0
LINE
  5
92C7
330
20
100
AcDbEntity
  8
11000_Left
  6
Continuous
 62
     7
370
    50
100
AcDbLine
 39
0.7
 10
171.2584330983217
 20
380.7903053804344
 30
0.0
 11
171.2584330983217
 21
379.2903053804344
 31
0.0
1001
AUSTER_ANSICHT
1002
{
1000
SL
1002
}
1001
AUSTER_FOLIE
1002
{
1000
EINZELAUFSTELLUNG
1002
}
  0
LINE
  5
92C8
330
20
100
AcDbEntity
  8
11000_Left
  6
Continuous
 62
     7
370
    50
100
AcDbLine
 39
0.7
 10
170.7584330983217
 20
386.2657053804343
 30
0.0
 11
170.7584330983217
 21
387.6903053804343
 31
0.0
1001
AUSTER_ANSICHT
1002
{
1000
SL
1002
}
1001
AUSTER_FOLIE
1002
{
1000
EINZELAUFSTELLUNG
1002
}
  0
LINE
  5
92C9
330
20
100
AcDbEntity
  8
11000_Left
  6
Continuous
 62
     7
370
    50
100
AcDbLine
 39
0.7
 10
178.2584330983217
 20
380.7903053804344
 30
0.0
 11
178.2584330983217
 21
380.2903053804343
 31
0.0
1001
AUSTER_ANSICHT
1002
{
1000
SL
1002
}
1001
AUSTER_FOLIE
1002
{
1000
EINZELAUFSTELLUNG
1002
}
  0
LINE
  5
92CB
330
20
100
AcDbEntity
  8
11000_Left
  6
Continuous
 62
     7
370
    50
100
AcDbLine
 39
0.7
 10
171.2584330983217
 20
463.2903053804343
 30
0.0
 11
177.2584330983217
 21
463.2903053804343
 31
0.0
1001
AUSTER_ANSICHT
1002
{
1000
SL
1002
}
1001
AUSTER_FOLIE
1002
{
1000
EINZELAUFSTELLUNG
1002
}
  0
LINE
  5
92CC
330
20
100
AcDbEntity
  8
11000_Left
  6
Continuous
 62
     7
370
    50
100
AcDbLine
 39
0.7
 10
178.2584330983217
 20
462.2903053804343
 30
0.0
 11
178.2584330983217
 21
461.7903053804343
 31
0.0
1001
AUSTER_ANSICHT
1002
{
1000
SL
1002
}
1001
AUSTER_FOLIE
1002
{
1000
EINZELAUFSTELLUNG
1002
}
  0
LINE
  5
92CD
330
20
100
AcDbEntity
  8
11000_Left
  6
Continuous
 62
     7
370
    50
100
AcDbLine
 39
0.7
 10
179.7584330983217
 20
452.3403053804343
 30
0.0
 11
218.7584330983217
 21
452.3403053804343
 31
0.0
1001
AUSTER_ANSICHT
1002
{
1000
SL
1002
}
1001
AUSTER_FOLIE
1002
{
1000
EINZELAUFSTELLUNG
1002
}
  0
LINE
  5
92CE
330
20
100
AcDbEntity
  8
11000_Left
  6
Continuous
 62
     7
370
    50
100
AcDbLine
 39
0.7
 10
171.2584330983217
 20
461.7903053804343
 30
0.0
 11
171.2584330983217
 21
450.1403053804343
 31
0.0
1001
AUSTER_ANSICHT
1002
{
1000
SL
1002
}
1001
AUSTER_FOLIE
1002
{
1000
EINZELAUFSTELLUNG
1002
}
  0
LINE
  5
92CF
330
20
100
AcDbEntity
  8
11000_Left
 62
     7
370
    20
100
AcDbLine
 39
0.45
 10
178.2584330983217
 20
388.7903053804344
 30
0.0
 11
178.2584330983217
 21
438.7403053804343
 31
0.0
1001
AUSTER_ANSICHT
1002
{
1000
SL
1002
}
1001
AUSTER_FOLIE
1002
{
1000
EINZELAUFSTELLUNG
1002
}
  0
LINE
  5
92D0
330
20
100
AcDbEntity
  8
11000_Left
  6
Continuous
 62
     7
370
    50
100
AcDbLine
 39
0.7
 10
171.2584330983217
 20
409.640305380434
 30
0.0
 11
171.2584330983217
 21
380.7903053804344
 31
0.0
1001
AUSTER_ANSICHT
1002
{
1000
SL
1002
}
1001
AUSTER_FOLIE
1002
{
1000
EINZELAUFSTELLUNG
1002
}
  0
LINE
  5
92D1
330
20
100
AcDbEntity
  8
11000_Left
  6
Continuous
 62
     7
370
    50
100
AcDbLine
 39
0.7
 10
176.0584330983216
 20
445.1458053804343
 30
0.0
 11
176.0584330983216
 21
450.1403053804343
 31
0.0
1001
AUSTER_ANSICHT
1002
{
1000
SL
1002
}
1001
AUSTER_FOLIE
1002
{
1000
EINZELAUFSTELLUNG
1002
}
  0
LINE
  5
92D2
330
20
100
AcDbEntity
  8
11000_Left
  6
Continuous
 62
     7
370
    50
100
AcDbLine
 39
0.7
 10
175.7584330983217
 20
409.640305380434
 30
0.0
 11
175.7584330983217
 21
444.6206053804344
 31
0.0
1001
AUSTER_ANSICHT
1002
{
1000
SL
1002
}
1001
AUSTER_FOLIE
1002
{
1000
EINZELAUFSTELLUNG
1002
}
  0
LINE
  5
92D3
330
20
100
AcDbEntity
  8
11000_Left
  6
Continuous
 62
     7
370
    50
100
AcDbLine
 39
0.7
 10
171.2584330983217
 20
462.6903053804343
 30
0.0
 11
170.7584330983217
 21
462.6903053804343
 31
0.0
1001
AUSTER_ANSICHT
1002
{
1000
SL
1002
}
1001
AUSTER_FOLIE
1002
{
1000
EINZELAUFSTELLUNG
1002
}
  0
LINE
  5
92D4
330
20
100
AcDbEntity
  8
11000_Left
  6
Continuous
 62
     7
370
    50
100
AcDbLine
 39
0.7
 10
170.7584330983217
 20
454.8903053804343
 30
0.0
 11
171.2569330983216
 21
454.8903053804343
 31
0.0
1001
AUSTER_ANSICHT
1002
{
1000
SL
1002
}
1001
AUSTER_FOLIE
1002
{
1000
EINZELAUFSTELLUNG
1002
}
  0
LINE
  5
92D5
330
20
100
AcDbEntity
  8
11000_Left
  6
Continuous
 62
     7
370
    50
100
AcDbLine
 39
0.7
 10
171.2584330983217
 20
379.8903053804343
 30
0.0
 11
170.7584330983217
 21
379.8903053804343
 31
0.0
1001
AUSTER_ANSICHT
1002
{
1000
SL
1002
}
1001
AUSTER_FOLIE
1002
{
1000
EINZELAUFSTELLUNG
1002
}
  0
LINE
  5
92D6
330
20
100
AcDbEntity
  8
11000_Left
  6
Continuous
 62
     7
370
    50
100
AcDbLine
 39
0.7
 10
170.7584330983217
 20
387.6903053804343
 30
0.0
 11
171.2569330983216
 21
387.6903053804343
 31
0.0
1001
AUSTER_ANSICHT
1002
{
1000
SL
1002
}
1001
AUSTER_FOLIE
1002
{
1000
EINZELAUFSTELLUNG
1002
}
  0
LINE
  5
92D7
330
20
100
AcDbEntity
  8
11000_Left
  6
Continuous
 62
     7
370
    50
100
AcDbLine
 39
0.7
 10
171.2584330983217
 20
409.640305380434
 30
0.0
 11
175.7584330983217
 21
409.640305380434
 31
0.0
1001
AUSTER_ANSICHT
1002
{
1000
SL
1002
}
1001
AUSTER_FOLIE
1002
{
1000
EINZELAUFSTELLUNG
1002
}
  0
LINE
  5
92D8
330
20
100
AcDbEntity
  8
11000_Left
  6
Continuous
 62
     7
370
    50
100
AcDbLine
 39
0.7
 10
176.0584330983216
 20
445.1458053804343
 30
0.0
 11
175.7584330983217
 21
444.6206053804344
 31
0.0
1001
AUSTER_ANSICHT
1002
{
1000
SL
1002
}
1001
AUSTER_FOLIE
1002
{
1000
EINZELAUFSTELLUNG
1002
}
  0
LINE
  5
92D9
330
20
100
AcDbEntity
  8
11000_Left
  6
Continuous
 62
     7
370
    50
100
AcDbLine
 39
0.7
 10
171.2584330983217
 20
450.1403053804343
 30
0.0
 11
176.0584330983216
 21
450.1403053804343
 31
0.0
1001
AUSTER_ANSICHT
1002
{
1000
SL
1002
}
1001
AUSTER_FOLIE
1002
{
1000
EINZELAUFSTELLUNG
1002
}
  0
LINE
  5
92DA
330
20
100
AcDbEntity
  8
11000_Left
 62
     7
370
    20
100
AcDbLine
 39
0.45
 10
223.2584330983217
 20
400.8903053804343
 30
0.0
 11
223.2584330983217
 21
401.6903053804343
 31
0.0
1001
AUSTER_ANSICHT
1002
{
1000
SL
1002
}
1001
AUSTER_FOLIE
1002
{
1000
EINZELAUFSTELLUNG
1002
}
  0
LINE
  5
92DB
330
20
100
AcDbEntity
  8
11000_Left
 62
     7
370
    20
100
AcDbLine
 39
0.45
 10
223.2584330983217
 20
405.0403053804343
 30
0.0
 11
223.2584330983217
 21
401.6903053804343
 31
0.0
1001
AUSTER_ANSICHT
1002
{
1000
SL
1002
}
1001
AUSTER_FOLIE
1002
{
1000
EINZELAUFSTELLUNG
1002
}
  0
LINE
  5
92DC
330
20
100
AcDbEntity
  8
11000_Left
  6
DASHED
 62
     7
370
    20
100
AcDbLine
 39
0.25
 10
212.6584330983217
 20
405.7403053804343
 30
0.0
 11
222.5584330983216
 21
405.7403053804343
 31
0.0
1001
AUSTER_ANSICHT
1002
{
1000
SL
1002
}
1001
AUSTER_FOLIE
1002
{
1000
EINZELAUFSTELLUNG
1002
}
  0
LINE
  5
92DD
330
20
100
AcDbEntity
  8
11000_Left
  6
DASHED
 62
     7
370
    20
100
AcDbLine
 39
0.25
 10
230.7584330983217
 20
400.8903053804343
 30
0.0
 11
223.2584330983217
 21
400.8903053804343
 31
0.0
1001
AUSTER_ANSICHT
1002
{
1000
SL
1002
}
1001
AUSTER_FOLIE
1002
{
1000
EINZELAUFSTELLUNG
1002
}
  0
LINE
  5
92DE
330
20
100
AcDbEntity
  8
11000_Left
  6
DASHED
 62
     7
370
    20
100
AcDbLine
 39
0.25
 10
232.6584330983217
 20
400.8903053804343
 30
0.0
 11
230.7584330983217
 21
400.8903053804343
 31
0.0
1001
AUSTER_ANSICHT
1002
{
1000
SL
1002
}
1001
AUSTER_FOLIE
1002
{
1000
EINZELAUFSTELLUNG
1002
}
  0
LINE
  5
92DF
330
20
100
AcDbEntity
  8
11000_Left
  6
DASHED
 62
     7
370
    20
100
AcDbLine
 39
0.25
 10
221.0847330983217
 20
386.7903053804344
 30
0.0
 11
219.4584330983216
 21
386.7903053804344
 31
0.0
1001
AUSTER_ANSICHT
1002
{
1000
SL
1002
}
1001
AUSTER_FOLIE
1002
{
1000
EINZELAUFSTELLUNG
1002
}
  0
LINE
  5
92E0
330
20
100
AcDbEntity
  8
11000_Left
  6
DASHED
 62
     7
370
    20
100
AcDbLine
 39
0.25
 10
219.4584330983216
 20
400.0903053804343
 30
0.0
 11
219.4584330983216
 21
387.7909053804344
 31
0.0
1001
AUSTER_ANSICHT
1002
{
1000
SL
1002
}
1001
AUSTER_FOLIE
1002
{
1000
EINZELAUFSTELLUNG
1002
}
  0
LINE
  5
92E1
330
20
100
AcDbEntity
  8
11000_Left
  6
DASHED
 62
     7
370
    20
100
AcDbLine
 39
0.25
 10
222.4561330983216
 20
400.8903053804343
 30
0.0
 11
220.2584330983217
 21
400.8903053804343
 31
0.0
1001
AUSTER_ANSICHT
1002
{
1000
SL
1002
}
1001
AUSTER_FOLIE
1002
{
1000
EINZELAUFSTELLUNG
1002
}
  0
LINE
  5
92E2
330
20
100
AcDbEntity
  8
11000_Left
  6
DASHED
 62
     7
370
    20
100
AcDbLine
 39
0.25
 10
222.4561330983216
 20
400.8903053804343
 30
0.0
 11
223.2584330983217
 21
400.8903053804343
 31
0.0
1001
AUSTER_ANSICHT
1002
{
1000
SL
1002
}
1001
AUSTER_FOLIE
1002
{
1000
EINZELAUFSTELLUNG
1002
}
  0
LINE
  5
92E3
330
20
100
AcDbEntity
  8
11000_Left
  6
DASHED
 62
     7
370
    20
100
AcDbLine
 39
0.25
 10
219.4584330983216
 20
386.7903053804344
 30
0.0
 11
219.4584330983216
 21
387.5903053804344
 31
0.0
1001
AUSTER_ANSICHT
1002
{
1000
SL
1002
}
1001
AUSTER_FOLIE
1002
{
1000
EINZELAUFSTELLUNG
1002
}
  0
LINE
  5
92E4
330
20
100
AcDbEntity
  8
11000_Left
  6
DASHED
 62
     7
370
    20
100
AcDbLine
 39
0.25
 10
219.4584330983216
 20
387.5903053804344
 30
0.0
 11
219.4584330983216
 21
387.7909053804344
 31
0.0
1001
AUSTER_ANSICHT
1002
{
1000
SL
1002
}
1001
AUSTER_FOLIE
1002
{
1000
EINZELAUFSTELLUNG
1002
}
  0
LINE
  5
92E5
330
20
100
AcDbEntity
  8
11000_Left
  6
DASHED
 62
     7
370
    20
100
AcDbLine
 39
0.25
 10
240.6771330983216
 20
400.8903053804343
 30
0.0
 11
239.1584330983217
 21
400.8903053804343
 31
0.0
1001
AUSTER_ANSICHT
1002
{
1000
SL
1002
}
1001
AUSTER_FOLIE
1002
{
1000
EINZELAUFSTELLUNG
1002
}
  0
LINE
  5
92E6
330
20
100
AcDbEntity
  8
11000_Left
 62
     7
370
    20
100
AcDbLine
 39
0.45
 10
178.2584330983217
 20
438.7403053804343
 30
0.0
 11
193.3584330983216
 21
438.7403053804343
 31
0.0
1001
AUSTER_ANSICHT
1002
{
1000
SL
1002
}
1001
AUSTER_FOLIE
1002
{
1000
EINZELAUFSTELLUNG
1002
}
  0
LINE
  5
92E7
330
20
100
AcDbEntity
  8
11000_Left
  6
DASHED
 62
     7
370
    20
100
AcDbLine
 39
0.25
 10
229.6588330983217
 20
438.7403053804343
 30
0.0
 11
193.3584330983216
 21
438.7403053804343
 31
0.0
1001
AUSTER_ANSICHT
1002
{
1000
SL
1002
}
1001
AUSTER_FOLIE
1002
{
1000
EINZELAUFSTELLUNG
1002
}
  0
LINE
  5
92E8
330
20
100
AcDbEntity
  8
11000_Left
  6
DASHED
 62
     7
370
    20
100
AcDbLine
 39
0.25
 10
211.7584330983217
 20
416.5403053804343
 30
0.0
 11
211.7584330983217
 21
406.6403053804343
 31
0.0
1001
AUSTER_ANSICHT
1002
{
1000
SL
1002
}
1001
AUSTER_FOLIE
1002
{
1000
EINZELAUFSTELLUNG
1002
}
  0
LINE
  5
92E9
330
20
100
AcDbEntity
  8
11000_Left
  6
DASHED
 62
     7
370
    20
100
AcDbLine
 39
0.25
 10
206.5584330983216
 20
417.2403053804343
 30
0.0
 11
211.0584330983217
 21
417.2403053804343
 31
0.0
1001
AUSTER_ANSICHT
1002
{
1000
SL
1002
}
1001
AUSTER_FOLIE
1002
{
1000
EINZELAUFSTELLUNG
1002
}
  0
LINE
  5
92EA
330
20
100
AcDbEntity
  8
11000_Left
  6
DASHED
 62
     7
370
    20
100
AcDbLine
 39
0.25
 10
205.6584330983217
 20
438.7403053804343
 30
0.0
 11
205.6584330983217
 21
418.1403053804343
 31
0.0
1001
AUSTER_ANSICHT
1002
{
1000
SL
1002
}
1001
AUSTER_FOLIE
1002
{
1000
EINZELAUFSTELLUNG
1002
}
  0
LINE
  5
92EB
330
20
100
AcDbEntity
  8
11000_Left
  6
DASHED
 62
     7
370
    20
100
AcDbLine
 39
0.25
 10
231.5584330983217
 20
438.7403053804343
 30
0.0
 11
229.6588330983217
 21
438.7403053804343
 31
0.0
1001
AUSTER_ANSICHT
1002
{
1000
SL
1002
}
1001
AUSTER_FOLIE
1002
{
1000
EINZELAUFSTELLUNG
1002
}
  0
LINE
  5
92EC
330
20
100
AcDbEntity
  8
11000_Left
  6
DASHED
 62
     7
370
    20
100
AcDbLine
 39
0.25
 10
205.5241330983216
 20
387.0246053804344
 30
0.0
 11
204.7927330983216
 21
387.7559053804343
 31
0.0
1001
AUSTER_ANSICHT
1002
{
1000
SL
1002
}
1001
AUSTER_FOLIE
1002
{
1000
EINZELAUFSTELLUNG
1002
}
  0
LINE
  5
92ED
330
20
100
AcDbEntity
  8
11000_Left
  6
DASHED
 62
     7
370
    20
100
AcDbLine
 39
0.25
 10
204.2270330983216
 20
387.9903053804343
 30
0.0
 11
178.2584330983217
 21
387.9903053804343
 31
0.0
1001
AUSTER_ANSICHT
1002
{
1000
SL
1002
}
1001
AUSTER_FOLIE
1002
{
1000
EINZELAUFSTELLUNG
1002
}
  0
LINE
  5
92EE
330
20
100
AcDbEntity
  8
11000_Left
  6
DASHED
 62
     7
370
    20
100
AcDbLine
 39
0.25
 10
234.1584330983216
 20
441.7403053804343
 30
0.0
 11
231.5584330983217
 21
439.2403053804343
 31
0.0
1001
AUSTER_ANSICHT
1002
{
1000
SL
1002
}
1001
AUSTER_FOLIE
1002
{
1000
EINZELAUFSTELLUNG
1002
}
  0
LINE
  5
92EF
330
20
100
AcDbEntity
  8
11000_Left
  6
DASHED
 62
     7
370
    20
100
AcDbLine
 39
0.25
 10
234.1584330983216
 20
441.7403053804343
 30
0.0
 11
239.0581330983216
 21
441.7403053804343
 31
0.0
1001
AUSTER_ANSICHT
1002
{
1000
SL
1002
}
1001
AUSTER_FOLIE
1002
{
1000
EINZELAUFSTELLUNG
1002
}
  0
LINE
  5
92F0
330
20
100
AcDbEntity
  8
11000_Left
  6
Continuous
 62
     7
370
    50
100
AcDbLine
 39
0.7
 10
178.2584330983217
 20
387.7903053804343
 30
0.0
 11
178.2584330983217
 21
380.7903053804344
 31
0.0
1001
AUSTER_ANSICHT
1002
{
1000
SL
1002
}
1001
AUSTER_FOLIE
1002
{
1000
EINZELAUFSTELLUNG
1002
}
  0
LINE
  5
92F1
330
20
100
AcDbEntity
  8
11000_Left
  6
Continuous
 62
     7
370
    50
100
AcDbLine
 39
0.7
 10
178.2584330983217
 20
438.7403053804343
 30
0.0
 11
193.3584330983216
 21
438.7403053804343
 31
0.0
1001
AUSTER_ANSICHT
1002
{
1000
SL
1002
}
1001
AUSTER_FOLIE
1002
{
1000
EINZELAUFSTELLUNG
1002
}
  0
LINE
  5
92F2
330
20
100
AcDbEntity
  8
11000_Left
  6
Continuous
 62
     7
370
    50
100
AcDbLine
 39
0.7
 10
178.2584330983217
 20
438.7403053804343
 30
0.0
 11
178.2584330983217
 21
387.7903053804343
 31
0.0
1001
AUSTER_ANSICHT
1002
{
1000
SL
1002
}
1001
AUSTER_FOLIE
1002
{
1000
EINZELAUFSTELLUNG
1002
}
  0
LINE
  5
92F3
330
20
100
AcDbEntity
  8
11000_Left
  6
DASHED
 62
     7
370
    20
100
AcDbLine
 39
0.25
 10
247.5272330983216
 20
426.6403053804343
 30
0.0
 11
243.5533330983215
 21
426.6403053804343
 31
0.0
1001
AUSTER_ANSICHT
1002
{
1000
SL
1002
}
1001
AUSTER_FOLIE
1002
{
1000
EINZELAUFSTELLUNG
1002
}
  0
LINE
  5
92F4
330
20
100
AcDbEntity
  8
11000_Left
  6
DASHED
 62
     7
370
    20
100
AcDbLine
 39
0.25
 10
243.3175330983216
 20
420.8403053804341
 30
0.0
 11
247.5272330983216
 21
420.8403053804341
 31
0.0
1001
AUSTER_ANSICHT
1002
{
1000
SL
1002
}
1001
AUSTER_FOLIE
1002
{
1000
EINZELAUFSTELLUNG
1002
}
  0
LINE
  5
92F5
330
20
100
AcDbEntity
  8
11000_Left
  6
Continuous
 62
     7
370
    50
100
AcDbLine
 39
0.7
 10
178.2584330983217
 20
461.7903053804343
 30
0.0
 11
178.2584330983217
 21
453.8403053804342
 31
0.0
1001
AUSTER_ANSICHT
1002
{
1000
SL
1002
}
1001
AUSTER_FOLIE
1002
{
1000
EINZELAUFSTELLUNG
1002
}
  0
LINE
  5
92F6
330
20
100
AcDbEntity
  8
11000_Left
  6
DASHED
 62
     7
370
    20
100
AcDbLine
 39
0.25
 10
219.4584330983216
 20
386.7903053804344
 30
0.0
 11
206.0898330983216
 21
386.7903053804344
 31
0.0
1001
AUSTER_ANSICHT
1002
{
1000
SL
1002
}
1001
AUSTER_FOLIE
1002
{
1000
EINZELAUFSTELLUNG
1002
}
  0
LINE
  5
92F7
330
20
100
AcDbEntity
  8
11000_Left
  6
DASHED
 62
     7
370
    20
100
AcDbLine
 39
0.25
 10
239.1584330983217
 20
400.8903053804343
 30
0.0
 11
232.6584330983217
 21
400.8903053804343
 31
0.0
1001
AUSTER_ANSICHT
1002
{
1000
SL
1002
}
1001
AUSTER_FOLIE
1002
{
1000
EINZELAUFSTELLUNG
1002
}
  0
LINE
  5
92F8
330
20
100
AcDbEntity
  8
11000_Left
  6
Continuous
 62
     7
370
    50
100
AcDbLine
 39
0.7
 10
170.7584330983217
 20
379.8903053804343
 30
0.0
 11
170.7584330983217
 21
386.2657053804343
 31
0.0
1001
AUSTER_ANSICHT
1002
{
1000
SL
1002
}
1001
AUSTER_FOLIE
1002
{
1000
EINZELAUFSTELLUNG
1002
}
  0
LINE
  5
92F9
330
20
100
AcDbEntity
  8
11000_Left
  6
Continuous
 62
     7
370
    50
100
AcDbLine
 39
0.7
 10
170.7584330983217
 20
454.8903053804343
 30
0.0
 11
170.7584330983217
 21
462.6903053804343
 31
0.0
1001
AUSTER_ANSICHT
1002
{
1000
SL
1002
}
1001
AUSTER_FOLIE
1002
{
1000
EINZELAUFSTELLUNG
1002
}
  0
LINE
  5
92FA
330
20
100
AcDbEntity
  8
11000_Left
  6
DASHED
 62
     7
370
    20
100
AcDbLine
 39
0.25
 10
243.6295330983217
 20
437.6899053804343
 30
0.0
 11
245.3504330983216
 21
437.6903053804343
 31
0.0
1001
AUSTER_ANSICHT
1002
{
1000
SL
1002
}
1001
AUSTER_FOLIE
1002
{
1000
EINZELAUFSTELLUNG
1002
}
  0
LINE
  5
92FB
330
20
100
AcDbEntity
  8
11000_Left
  6
DASHED
 62
     7
370
    20
100
AcDbLine
 39
0.25
 10
245.1133330983216
 20
427.8903053804341
 30
0.0
 11
243.5864330983217
 21
427.8903053804341
 31
0.0
1001
AUSTER_ANSICHT
1002
{
1000
SL
1002
}
1001
AUSTER_FOLIE
1002
{
1000
EINZELAUFSTELLUNG
1002
}
  0
TEXT
  5
92FC
330
20
100
AcDbEntity
  8
10000_FRONT
  6
DASHED
 62
     7
370
    13
100
AcDbText
 39
0.25
 10
129.9865941097389
 20
432.8403053804342
 30
0.0
 40
1.5
  1
1
 41
0.6600000000000003
100
AcDbText
1001
AUSTER_ANSICHT
1002
{
1000
V
1002
}
1001
AUSTER_FOLIE
1002
{
1000
EINZELAUFSTELLUNG
1002
}
  0
TEXT
  5
9301
330
20
100
AcDbEntity
  8
10000_FRONT
  6
DASHED
 62
     7
370
    13
100
AcDbText
 39
0.25
 10
122.4865944097388
 20
432.8403053804342
 30
0.0
 40
1.5
  1
0
 41
0.6600000000000003
100
AcDbText
1001
AUSTER_ANSICHT
1002
{
1000
V
1002
}
1001
AUSTER_FOLIE
1002
{
1000
EINZELAUFSTELLUNG
1002
}
  0
TEXT
  5
9302
330
20
100
AcDbEntity
  8
10000_FRONT
  6
DASHED
 62
     7
370
    13
100
AcDbText
 39
0.25
 10
106.2715374097388
 20
427.8151053804343
 30
0.0
 40
2.0
  1
A
 41
0.6600000000000003
100
AcDbText
1001
AUSTER_ANSICHT
1002
{
1000
V
1002
}
1001
AUSTER_FOLIE
1002
{
1000
EINZELAUFSTELLUNG
1002
}
  0
TEXT
  5
9306
330
20
100
AcDbEntity
  8
10000_FRONT
  6
DASHED
 62
     7
370
    13
100
AcDbText
 39
0.25
 10
99.27153740973878
 20
427.8151053804343
 30
0.0
 40
2.0
  1
H
 41
0.6600000000000003
100
AcDbText
1001
AUSTER_ANSICHT
1002
{
1000
V
1002
}
1001
AUSTER_FOLIE
1002
{
1000
EINZELAUFSTELLUNG
1002
}
  0
TEXT
  5
9307
330
20
100
AcDbEntity
  8
10000_FRONT
  6
DASHED
 62
     7
370
    13
100
AcDbText
 39
0.25
 10
89.81510740973886
 20
418.7403053804343
 30
0.0
 40
1.5
  1
STOP
 41
0.6600000000000003
100
AcDbText
1001
AUSTER_ANSICHT
1002
{
1000
V
1002
}
1001
AUSTER_FOLIE
1002
{
1000
EINZELAUFSTELLUNG
1002
}
  0
TEXT
  5
930B
330
20
100
AcDbEntity
  8
10000_FRONT
  6
DASHED
 62
     7
370
    13
100
AcDbText
 39
0.25
 10
100.8151074097388
 20
418.7403053804343
 30
0.0
 40
1.5
  1
RESET
 41
0.6600000000000003
100
AcDbText
1001
AUSTER_ANSICHT
1002
{
1000
V
1002
}
1001
AUSTER_FOLIE
1002
{
1000
EINZELAUFSTELLUNG
1002
}
  0
TEXT
  5
930C
330
20
100
AcDbEntity
  8
10000_FRONT
  6
DASHED
 62
     7
370
    13
100
AcDbText
 39
0.25
 10
91.03190740973888
 20
434.4329053804343
 30
0.0
 40
2.5
  1
SIEMENS
 41
0.6600000000000003
100
AcDbText
1001
AUSTER_ANSICHT
1002
{
1000
V
1002
}
1001
AUSTER_FOLIE
1002
{
1000
EINZELAUFSTELLUNG
1002
}
  0
TEXT
  5
930D
330
20
100
AcDbEntity
  8
10000_FRONT
  6
DASHED
 62
     7
370
    13
100
AcDbText
 39
0.25
 10
124.3166854097388
 20
435.8055053804343
 30
0.0
 40
1.5
  1
Test
 41
0.6600000000000003
100
AcDbText
1001
AUSTER_ANSICHT
1002
{
1000
V
1002
}
1001
AUSTER_FOLIE
1002
{
1000
EINZELAUFSTELLUNG
1002
}
  0
TEXT
  5
930E
330
20
100
AcDbEntity
  8
10000_FRONT
  6
DASHED
 62
     7
370
    13
100
AcDbText
 39
0.25
 10
122.9441164097388
 20
438.7794053804343
 30
0.0
 40
2.0
  1
3RU11
 41
0.6600000000000003
100
AcDbText
1001
AUSTER_ANSICHT
1002
{
1000
V
1002
}
1001
AUSTER_FOLIE
1002
{
1000
EINZELAUFSTELLUNG
1002
}
  0
ARC
  5
9321
330
20
100
AcDbEntity
  8
10000_FRONT
  6
DASHED
 62
     7
370
    13
100
AcDbCircle
 39
0.7
 10
89.16510740973889
 20
401.8924053804343
 30
0.0
 40
1.0
100
AcDbArc
 50
180.0
 51
270.0
1001
AUSTER_ANSICHT
1002
{
1000
V
1002
}
1001
AUSTER_FOLIE
1002
{
1000
EINZELAUFSTELLUNG
1002
}
  0
CIRCLE
  5
9322
330
20
100
AcDbEntity
  8
10000_FRONT
  6
DASHED
 62
     7
370
    13
100
AcDbCircle
 39
0.25
 10
103.6651074097389
 20
423.7403053804343
 30
0.0
 40
3.02
1001
AUSTER_ANSICHT
1002
{
1000
V
1002
}
1001
AUSTER_FOLIE
1002
{
1000
EINZELAUFSTELLUNG
1002
}
  0
ARC
  5
9323
330
20
100
AcDbEntity
  8
10000_FRONT
  6
DASHED
 62
     7
370
    13
100
AcDbCircle
 39
0.25
 10
103.6651074097389
 20
423.7403053804343
 30
0.0
 40
2.850490999999998
100
AcDbArc
 50
122.7603999999966
 51
147.2396000000004
1001
AUSTER_ANSICHT
1002
{
1000
V
1002
}
1001
AUSTER_FOLIE
1002
{
1000
EINZELAUFSTELLUNG
1002
}
  0
ARC
  5
9324
330
20
100
AcDbEntity
  8
10000_FRONT
  6
DASHED
 62
     7
370
    13
100
AcDbCircle
 39
0.25
 10
103.6651074097389
 20
423.7403053804343
 30
0.0
 40
1.85
100
AcDbArc
 50
28.83654999999987
 51
61.16345000000093
1001
AUSTER_ANSICHT
1002
{
1000
V
1002
}
1001
AUSTER_FOLIE
1002
{
1000
EINZELAUFSTELLUNG
1002
}
  0
ARC
  5
9325
330
20
100
AcDbEntity
  8
10000_FRONT
  6
DASHED
 62
     7
370
    13
100
AcDbCircle
 39
0.25
 10
103.6651074097389
 20
423.7403053804343
 30
0.0
 40
1.85
100
AcDbArc
 50
208.8366
 51
241.1633999999979
1001
AUSTER_ANSICHT
1002
{
1000
V
1002
}
1001
AUSTER_FOLIE
1002
{
1000
EINZELAUFSTELLUNG
1002
}
  0
ARC
  5
9326
330
20
100
AcDbEntity
  8
10000_FRONT
  6
DASHED
 62
     7
370
    13
100
AcDbCircle
 39
0.25
 10
103.6651074097389
 20
423.7403053804343
 30
0.0
 40
2.850490999999998
100
AcDbArc
 50
302.7603999999966
 51
327.2396000000004
1001
AUSTER_ANSICHT
1002
{
1000
V
1002
}
1001
AUSTER_FOLIE
1002
{
1000
EINZELAUFSTELLUNG
1002
}
  0
ARC
  5
9327
330
20
100
AcDbEntity
  8
10000_FRONT
  6
Continuous
 62
     7
370
    50
100
AcDbCircle
 39
0.7
 10
132.3651044097388
 20
448.1903053804343
 30
0.0
 40
0.8
100
AcDbArc
 50
270.0
 51
359.9977999999995
1001
AUSTER_ANSICHT
1002
{
1000
V
1002
}
1001
AUSTER_FOLIE
1002
{
1000
EINZELAUFSTELLUNG
1002
}
  0
ARC
  5
9328
330
20
100
AcDbEntity
  8
10000_FRONT
  6
Continuous
 62
     7
370
    50
100
AcDbCircle
 39
0.7
 10
88.96510740973885
 20
448.1903053804343
 30
0.0
 40
0.8
100
AcDbArc
 50
180.0022000000005
 51
270.0
1001
AUSTER_ANSICHT
1002
{
1000
V
1002
}
1001
AUSTER_FOLIE
1002
{
1000
EINZELAUFSTELLUNG
1002
}
  0
CIRCLE
  5
9329
330
20
100
AcDbEntity
  8
10000_FRONT
  6
Continuous
 62
     7
370
    20
100
AcDbCircle
 39
0.25
 10
110.7651174097389
 20
457.3904053804343
 30
0.0
 40
3.1
1001
AUSTER_ANSICHT
1002
{
1000
V
1002
}
1001
AUSTER_FOLIE
1002
{
1000
EINZELAUFSTELLUNG
1002
}
  0
ARC
  5
932A
330
20
100
AcDbEntity
  8
10000_FRONT
  6
Continuous
 62
     7
370
    20
100
AcDbCircle
 39
0.25
 10
110.7651174097389
 20
457.3904053804343
 30
0.0
 40
2.850490999999998
100
AcDbArc
 50
347.7603999999987
 51
12.23960000000126
1001
AUSTER_ANSICHT
1002
{
1000
V
1002
}
1001
AUSTER_FOLIE
1002
{
1000
EINZELAUFSTELLUNG
1002
}
  0
ARC
  5
932B
330
20
100
AcDbEntity
  8
10000_FRONT
  6
Continuous
 62
     7
370
    20
100
AcDbCircle
 39
0.25
 10
110.7651174097389
 20
457.3904053804343
 30
0.0
 40
1.85
100
AcDbArc
 50
73.83654999999746
 51
106.1634000000003
1001
AUSTER_ANSICHT
1002
{
1000
V
1002
}
1001
AUSTER_FOLIE
1002
{
1000
EINZELAUFSTELLUNG
1002
}
  0
ARC
  5
932C
330
20
100
AcDbEntity
  8
10000_FRONT
  6
Continuous
 62
     7
370
    20
100
AcDbCircle
 39
0.25
 10
110.7651174097389
 20
457.3904053804343
 30
0.0
 40
1.85
100
AcDbArc
 50
253.8365999999997
 51
286.1634000000003
1001
AUSTER_ANSICHT
1002
{
1000
V
1002
}
1001
AUSTER_FOLIE
1002
{
1000
EINZELAUFSTELLUNG
1002
}
  0
ARC
  5
932D
330
20
100
AcDbEntity
  8
10000_FRONT
  6
Continuous
 62
     7
370
    20
100
AcDbCircle
 39
0.25
 10
110.7651174097389
 20
457.3904053804343
 30
0.0
 40
2.850490999999998
100
AcDbArc
 50
167.7603999999987
 51
192.2396000000013
1001
AUSTER_ANSICHT
1002
{
1000
V
1002
}
1001
AUSTER_FOLIE
1002
{
1000
EINZELAUFSTELLUNG
1002
}
  0
CIRCLE
  5
932E
330
20
100
AcDbEntity
  8
10000_FRONT
  6
Continuous
 62
     7
370
    20
100
AcDbCircle
 39
0.25
 10
102.1651174097388
 20
457.3904053804343
 30
0.0
 40
3.1
1001
AUSTER_ANSICHT
1002
{
1000
V
1002
}
1001
AUSTER_FOLIE
1002
{
1000
EINZELAUFSTELLUNG
1002
}
  0
ARC
  5
932F
330
20
100
AcDbEntity
  8
10000_FRONT
  6
Continuous
 62
     7
370
    20
100
AcDbCircle
 39
0.25
 10
102.1651174097388
 20
457.3904053804343
 30
0.0
 40
2.850490999999998
100
AcDbArc
 50
347.7603999999987
 51
12.23960000000126
1001
AUSTER_ANSICHT
1002
{
1000
V
1002
}
1001
AUSTER_FOLIE
1002
{
1000
EINZELAUFSTELLUNG
1002
}
  0
ARC
  5
9330
330
20
100
AcDbEntity
  8
10000_FRONT
  6
Continuous
 62
     7
370
    20
100
AcDbCircle
 39
0.25
 10
102.1651174097388
 20
457.3904053804343
 30
0.0
 40
1.85
100
AcDbArc
 50
73.83654999999746
 51
106.1634000000003
1001
AUSTER_ANSICHT
1002
{
1000
V
1002
}
1001
AUSTER_FOLIE
1002
{
1000
EINZELAUFSTELLUNG
1002
}
  0
ARC
  5
9331
330
20
100
AcDbEntity
  8
10000_FRONT
  6
Continuous
 62
     7
370
    20
100
AcDbCircle
 39
0.25
 10
102.1651174097388
 20
457.3904053804343
 30
0.0
 40
1.85
100
AcDbArc
 50
253.8365999999997
 51
286.1634000000003
1001
AUSTER_ANSICHT
1002
{
1000
V
1002
}
1001
AUSTER_FOLIE
1002
{
1000
EINZELAUFSTELLUNG
1002
}
  0
ARC
  5
9332
330
20
100
AcDbEntity
  8
10000_FRONT
  6
Continuous
 62
     7
370
    20
100
AcDbCircle
 39
0.25
 10
102.1651174097388
 20
457.3904053804343
 30
0.0
 40
2.850490999999998
100
AcDbArc
 50
167.7603999999987
 51
192.2396000000013
1001
AUSTER_ANSICHT
1002
{
1000
V
1002
}
1001
AUSTER_FOLIE
1002
{
1000
EINZELAUFSTELLUNG
1002
}
  0
CIRCLE
  5
9333
330
20
100
AcDbEntity
  8
10000_FRONT
  6
Continuous
 62
     7
370
    20
100
AcDbCircle
 39
0.25
 10
93.56511740973884
 20
457.3904053804343
 30
0.0
 40
3.1
1001
AUSTER_ANSICHT
1002
{
1000
V
1002
}
1001
AUSTER_FOLIE
1002
{
1000
EINZELAUFSTELLUNG
1002
}
  0
ARC
  5
9334
330
20
100
AcDbEntity
  8
10000_FRONT
  6
Continuous
 62
     7
370
    20
100
AcDbCircle
 39
0.25
 10
93.56511740973884
 20
457.3904053804343
 30
0.0
 40
2.850490999999998
100
AcDbArc
 50
347.7603999999987
 51
12.23960000000126
1001
AUSTER_ANSICHT
1002
{
1000
V
1002
}
1001
AUSTER_FOLIE
1002
{
1000
EINZELAUFSTELLUNG
1002
}
  0
ARC
  5
9335
330
20
100
AcDbEntity
  8
10000_FRONT
  6
Continuous
 62
     7
370
    20
100
AcDbCircle
 39
0.25
 10
93.56511740973884
 20
457.3904053804343
 30
0.0
 40
1.85
100
AcDbArc
 50
73.83654999999746
 51
106.1634000000003
1001
AUSTER_ANSICHT
1002
{
1000
V
1002
}
1001
AUSTER_FOLIE
1002
{
1000
EINZELAUFSTELLUNG
1002
}
  0
ARC
  5
9336
330
20
100
AcDbEntity
  8
10000_FRONT
  6
Continuous
 62
     7
370
    20
100
AcDbCircle
 39
0.25
 10
93.56511740973884
 20
457.3904053804343
 30
0.0
 40
1.85
100
AcDbArc
 50
253.8365999999997
 51
286.1634000000003
1001
AUSTER_ANSICHT
1002
{
1000
V
1002
}
1001
AUSTER_FOLIE
1002
{
1000
EINZELAUFSTELLUNG
1002
}
  0
ARC
  5
9337
330
20
100
AcDbEntity
  8
10000_FRONT
  6
Continuous
 62
     7
370
    20
100
AcDbCircle
 39
0.25
 10
93.56511740973884
 20
457.3904053804343
 30
0.0
 40
2.850490999999998
100
AcDbArc
 50
167.7603999999987
 51
192.2396000000013
1001
AUSTER_ANSICHT
1002
{
1000
V
1002
}
1001
AUSTER_FOLIE
1002
{
1000
EINZELAUFSTELLUNG
1002
}
  0
ARC
  5
9338
330
20
100
AcDbEntity
  8
10000_FRONT
  6
Continuous
 62
     7
370
    50
100
AcDbCircle
 39
0.7
 10
132.1651044097389
 20
465.3903053804341
 30
0.0
 40
1.0
100
AcDbArc
 50
0.0
 51
90.0
1001
AUSTER_ANSICHT
1002
{
1000
V
1002
}
1001
AUSTER_FOLIE
1002
{
1000
EINZELAUFSTELLUNG
1002
}
  0
ARC
  5
9339
330
20
100
AcDbEntity
  8
10000_FRONT
  6
Continuous
 62
     7
370
    50
100
AcDbCircle
 39
0.7
 10
89.16510740973889
 20
465.3903053804341
 30
0.0
 40
0.9999721
100
AcDbArc
 50
90.0
 51
180.0
1001
AUSTER_ANSICHT
1002
{
1000
V
1002
}
1001
AUSTER_FOLIE
1002
{
1000
EINZELAUFSTELLUNG
1002
}
  0
CIRCLE
  5
933A
330
20
100
AcDbEntity
  8
10000_FRONT
  6
DASHED
 62
     7
370
    13
100
AcDbCircle
 39
0.25
 10
126.7651044097389
 20
423.7403053804343
 30
0.0
 40
3.7
1001
AUSTER_ANSICHT
1002
{
1000
V
1002
}
1001
AUSTER_FOLIE
1002
{
1000
EINZELAUFSTELLUNG
1002
}
  0
ARC
  5
933B
330
20
100
AcDbEntity
  8
10000_FRONT
  6
Continuous
 62
     7
370
    20
100
AcDbCircle
 39
0.25
 10
103.8151074097388
 20
382.5903053804344
 30
0.0
 40
0.8
100
AcDbArc
 50
180.0
 51
270.0
1001
AUSTER_ANSICHT
1002
{
1000
V
1002
}
1001
AUSTER_FOLIE
1002
{
1000
EINZELAUFSTELLUNG
1002
}
  0
ARC
  5
933C
330
20
100
AcDbEntity
  8
10000_FRONT
  6
Continuous
 62
     7
370
    20
100
AcDbCircle
 39
0.25
 10
117.7151074097388
 20
382.5903053804344
 30
0.0
 40
0.8
100
AcDbArc
 50
270.0
 51
0.0
1001
AUSTER_ANSICHT
1002
{
1000
V
1002
}
1001
AUSTER_FOLIE
1002
{
1000
EINZELAUFSTELLUNG
1002
}
  0
ARC
  5
933D
330
20
100
AcDbEntity
  8
10000_FRONT
  6
Continuous
 62
     7
370
    50
100
AcDbCircle
 39
0.7
 10
131.6651044097389
 20
380.7903053804344
 30
0.0
 40
1.5
100
AcDbArc
 50
270.0
 51
0.0
1001
AUSTER_ANSICHT
1002
{
1000
V
1002
}
1001
AUSTER_FOLIE
1002
{
1000
EINZELAUFSTELLUNG
1002
}
  0
CIRCLE
  5
933E
330
20
100
AcDbEntity
  8
10000_FRONT
  6
Continuous
 62
     7
370
    20
100
AcDbCircle
 39
0.25
 10
93.2651074097389
 20
383.7903053804343
 30
0.0
 40
2.25
1001
AUSTER_ANSICHT
1002
{
1000
V
1002
}
1001
AUSTER_FOLIE
1002
{
1000
EINZELAUFSTELLUNG
1002
}
  0
ARC
  5
933F
330
20
100
AcDbEntity
  8
10000_FRONT
  6
DASHED
 62
     7
370
    13
100
AcDbCircle
 39
0.7
 10
132.1651044097389
 20
387.7903053804343
 30
0.0
 40
1.0
100
AcDbArc
 50
270.0
 51
0.0
1001
AUSTER_ANSICHT
1002
{
1000
V
1002
}
1001
AUSTER_FOLIE
1002
{
1000
EINZELAUFSTELLUNG
1002
}
  0
ARC
  5
9340
330
20
100
AcDbEntity
  8
10000_FRONT
  6
DASHED
 62
     7
370
    13
100
AcDbCircle
 39
0.7
 10
89.16510740973889
 20
387.7903053804343
 30
0.0
 40
1.0
100
AcDbArc
 50
180.0
 51
270.0
1001
AUSTER_ANSICHT
1002
{
1000
V
1002
}
1001
AUSTER_FOLIE
1002
{
1000
EINZELAUFSTELLUNG
1002
}
  0
ARC
  5
9341
330
20
100
AcDbEntity
  8
10000_FRONT
  6
DASHED
 62
     7
370
    13
100
AcDbCircle
 39
0.25
 10
132.1650464097389
 20
446.3903053804343
 30
0.0
 40
1.000057999999999
100
AcDbArc
 50
359.9967999999987
 51
89.99669999999822
1001
AUSTER_ANSICHT
1002
{
1000
V
1002
}
1001
AUSTER_FOLIE
1002
{
1000
EINZELAUFSTELLUNG
1002
}
  0
CIRCLE
  5
9342
330
20
100
AcDbEntity
  8
10000_FRONT
  6
DASHED
 62
     7
370
    13
100
AcDbCircle
 39
0.25
 10
127.9151044097389
 20
397.0903053804343
 30
0.0
 40
3.1
1001
AUSTER_ANSICHT
1002
{
1000
V
1002
}
1001
AUSTER_FOLIE
1002
{
1000
EINZELAUFSTELLUNG
1002
}
  0
ARC
  5
9343
330
20
100
AcDbEntity
  8
10000_FRONT
  6
DASHED
 62
     7
370
    13
100
AcDbCircle
 39
0.25
 10
127.9151044097389
 20
397.0903053804343
 30
0.0
 40
2.850490999999998
100
AcDbArc
 50
347.7603999999987
 51
12.23960000000126
1001
AUSTER_ANSICHT
1002
{
1000
V
1002
}
1001
AUSTER_FOLIE
1002
{
1000
EINZELAUFSTELLUNG
1002
}
  0
ARC
  5
9344
330
20
100
AcDbEntity
  8
10000_FRONT
  6
DASHED
 62
     7
370
    13
100
AcDbCircle
 39
0.25
 10
127.9151044097389
 20
397.0903053804343
 30
0.0
 40
1.85
100
AcDbArc
 50
253.8365999999997
 51
286.1634000000003
1001
AUSTER_ANSICHT
1002
{
1000
V
1002
}
1001
AUSTER_FOLIE
1002
{
1000
EINZELAUFSTELLUNG
1002
}
  0
ARC
  5
9345
330
20
100
AcDbEntity
  8
10000_FRONT
  6
DASHED
 62
     7
370
    13
100
AcDbCircle
 39
0.25
 10
127.9151044097389
 20
397.0903053804343
 30
0.0
 40
1.85
100
AcDbArc
 50
73.83654999999746
 51
106.1634000000003
1001
AUSTER_ANSICHT
1002
{
1000
V
1002
}
1001
AUSTER_FOLIE
1002
{
1000
EINZELAUFSTELLUNG
1002
}
  0
ARC
  5
9346
330
20
100
AcDbEntity
  8
10000_FRONT
  6
DASHED
 62
     7
370
    13
100
AcDbCircle
 39
0.25
 10
127.9151044097389
 20
397.0903053804343
 30
0.0
 40
2.850490999999998
100
AcDbArc
 50
167.7603999999987
 51
192.2396000000013
1001
AUSTER_ANSICHT
1002
{
1000
V
1002
}
1001
AUSTER_FOLIE
1002
{
1000
EINZELAUFSTELLUNG
1002
}
  0
CIRCLE
  5
9347
330
20
100
AcDbEntity
  8
10000_FRONT
  6
DASHED
 62
     7
370
    13
100
AcDbCircle
 39
0.25
 10
118.2151074097388
 20
397.0903053804343
 30
0.0
 40
3.1
1001
AUSTER_ANSICHT
1002
{
1000
V
1002
}
1001
AUSTER_FOLIE
1002
{
1000
EINZELAUFSTELLUNG
1002
}
  0
ARC
  5
9348
330
20
100
AcDbEntity
  8
10000_FRONT
  6
DASHED
 62
     7
370
    13
100
AcDbCircle
 39
0.25
 10
118.2151074097388
 20
397.0903053804343
 30
0.0
 40
2.850490999999998
100
AcDbArc
 50
347.7603999999987
 51
12.23960000000126
1001
AUSTER_ANSICHT
1002
{
1000
V
1002
}
1001
AUSTER_FOLIE
1002
{
1000
EINZELAUFSTELLUNG
1002
}
  0
ARC
  5
9349
330
20
100
AcDbEntity
  8
10000_FRONT
  6
DASHED
 62
     7
370
    13
100
AcDbCircle
 39
0.25
 10
118.2151074097388
 20
397.0903053804343
 30
0.0
 40
1.85
100
AcDbArc
 50
253.8365999999997
 51
286.1634000000003
1001
AUSTER_ANSICHT
1002
{
1000
V
1002
}
1001
AUSTER_FOLIE
1002
{
1000
EINZELAUFSTELLUNG
1002
}
  0
ARC
  5
934A
330
20
100
AcDbEntity
  8
10000_FRONT
  6
DASHED
 62
     7
370
    13
100
AcDbCircle
 39
0.25
 10
118.2151074097388
 20
397.0903053804343
 30
0.0
 40
1.85
100
AcDbArc
 50
73.83654999999746
 51
106.1634000000003
1001
AUSTER_ANSICHT
1002
{
1000
V
1002
}
1001
AUSTER_FOLIE
1002
{
1000
EINZELAUFSTELLUNG
1002
}
  0
ARC
  5
934B
330
20
100
AcDbEntity
  8
10000_FRONT
  6
DASHED
 62
     7
370
    13
100
AcDbCircle
 39
0.25
 10
118.2151074097388
 20
397.0903053804343
 30
0.0
 40
2.850490999999998
100
AcDbArc
 50
167.7603999999987
 51
192.2396000000013
1001
AUSTER_ANSICHT
1002
{
1000
V
1002
}
1001
AUSTER_FOLIE
1002
{
1000
EINZELAUFSTELLUNG
1002
}
  0
CIRCLE
  5
934C
330
20
100
AcDbEntity
  8
10000_FRONT
  6
DASHED
 62
     7
370
    13
100
AcDbCircle
 39
0.25
 10
106.1151074097388
 20
397.0903053804343
 30
0.0
 40
3.1
1001
AUSTER_ANSICHT
1002
{
1000
V
1002
}
1001
AUSTER_FOLIE
1002
{
1000
EINZELAUFSTELLUNG
1002
}
  0
ARC
  5
934D
330
20
100
AcDbEntity
  8
10000_FRONT
  6
DASHED
 62
     7
370
    13
100
AcDbCircle
 39
0.25
 10
106.1151074097388
 20
397.0903053804343
 30
0.0
 40
2.850490999999998
100
AcDbArc
 50
347.7603999999987
 51
12.23960000000126
1001
AUSTER_ANSICHT
1002
{
1000
V
1002
}
1001
AUSTER_FOLIE
1002
{
1000
EINZELAUFSTELLUNG
1002
}
  0
ARC
  5
934E
330
20
100
AcDbEntity
  8
10000_FRONT
  6
DASHED
 62
     7
370
    13
100
AcDbCircle
 39
0.25
 10
106.1151074097388
 20
397.0903053804343
 30
0.0
 40
1.85
100
AcDbArc
 50
253.8365999999997
 51
286.1634000000003
1001
AUSTER_ANSICHT
1002
{
1000
V
1002
}
1001
AUSTER_FOLIE
1002
{
1000
EINZELAUFSTELLUNG
1002
}
  0
ARC
  5
934F
330
20
100
AcDbEntity
  8
10000_FRONT
  6
DASHED
 62
     7
370
    13
100
AcDbCircle
 39
0.25
 10
106.1151074097388
 20
397.0903053804343
 30
0.0
 40
1.85
100
AcDbArc
 50
73.83654999999746
 51
106.1634000000003
1001
AUSTER_ANSICHT
1002
{
1000
V
1002
}
1001
AUSTER_FOLIE
1002
{
1000
EINZELAUFSTELLUNG
1002
}
  0
ARC
  5
9350
330
20
100
AcDbEntity
  8
10000_FRONT
  6
DASHED
 62
     7
370
    13
100
AcDbCircle
 39
0.25
 10
106.1151074097388
 20
397.0903053804343
 30
0.0
 40
2.850490999999998
100
AcDbArc
 50
167.7603999999987
 51
192.2396000000013
1001
AUSTER_ANSICHT
1002
{
1000
V
1002
}
1001
AUSTER_FOLIE
1002
{
1000
EINZELAUFSTELLUNG
1002
}
  0
CIRCLE
  5
9351
330
20
100
AcDbEntity
  8
10000_FRONT
  6
DASHED
 62
     7
370
    13
100
AcDbCircle
 39
0.25
 10
94.0151074097389
 20
397.0903053804343
 30
0.0
 40
3.1
1001
AUSTER_ANSICHT
1002
{
1000
V
1002
}
1001
AUSTER_FOLIE
1002
{
1000
EINZELAUFSTELLUNG
1002
}
  0
ARC
  5
9352
330
20
100
AcDbEntity
  8
10000_FRONT
  6
DASHED
 62
     7
370
    13
100
AcDbCircle
 39
0.25
 10
94.0151074097389
 20
397.0903053804343
 30
0.0
 40
2.850490999999998
100
AcDbArc
 50
347.7603999999987
 51
12.23960000000126
1001
AUSTER_ANSICHT
1002
{
1000
V
1002
}
1001
AUSTER_FOLIE
1002
{
1000
EINZELAUFSTELLUNG
1002
}
  0
ARC
  5
9353
330
20
100
AcDbEntity
  8
10000_FRONT
  6
DASHED
 62
     7
370
    13
100
AcDbCircle
 39
0.25
 10
94.0151074097389
 20
397.0903053804343
 30
0.0
 40
1.85
100
AcDbArc
 50
253.8365999999997
 51
286.1634000000003
1001
AUSTER_ANSICHT
1002
{
1000
V
1002
}
1001
AUSTER_FOLIE
1002
{
1000
EINZELAUFSTELLUNG
1002
}
  0
ARC
  5
9354
330
20
100
AcDbEntity
  8
10000_FRONT
  6
DASHED
 62
     7
370
    13
100
AcDbCircle
 39
0.25
 10
94.0151074097389
 20
397.0903053804343
 30
0.0
 40
1.85
100
AcDbArc
 50
73.83654999999746
 51
106.1634000000003
1001
AUSTER_ANSICHT
1002
{
1000
V
1002
}
1001
AUSTER_FOLIE
1002
{
1000
EINZELAUFSTELLUNG
1002
}
  0
ARC
  5
9355
330
20
100
AcDbEntity
  8
10000_FRONT
  6
DASHED
 62
     7
370
    13
100
AcDbCircle
 39
0.25
 10
94.0151074097389
 20
397.0903053804343
 30
0.0
 40
2.850490999999998
100
AcDbArc
 50
167.7603999999987
 51
192.2396000000013
1001
AUSTER_ANSICHT
1002
{
1000
V
1002
}
1001
AUSTER_FOLIE
1002
{
1000
EINZELAUFSTELLUNG
1002
}
  0
ARC
  5
9356
330
20
100
AcDbEntity
  8
10000_FRONT
  6
DASHED
 62
     7
370
    13
100
AcDbCircle
 39
0.25
 10
89.16510740973889
 20
446.3903053804343
 30
0.0
 40
1.0
100
AcDbArc
 50
90.0
 51
180.0
1001
AUSTER_ANSICHT
1002
{
1000
V
1002
}
1001
AUSTER_FOLIE
1002
{
1000
EINZELAUFSTELLUNG
1002
}
  0
CIRCLE
  5
9357
330
20
100
AcDbEntity
  8
10000_FRONT
  6
DASHED
 62
     7
370
    13
100
AcDbCircle
 39
0.25
 10
127.9651204097389
 20
411.1403053804343
 30
0.0
 40
3.1
1001
AUSTER_ANSICHT
1002
{
1000
V
1002
}
1001
AUSTER_FOLIE
1002
{
1000
EINZELAUFSTELLUNG
1002
}
  0
ARC
  5
9358
330
20
100
AcDbEntity
  8
10000_FRONT
  6
DASHED
 62
     7
370
    13
100
AcDbCircle
 39
0.25
 10
127.9651204097389
 20
411.1403053804343
 30
0.0
 40
2.850490999999998
100
AcDbArc
 50
347.7603999999987
 51
12.23960000000126
1001
AUSTER_ANSICHT
1002
{
1000
V
1002
}
1001
AUSTER_FOLIE
1002
{
1000
EINZELAUFSTELLUNG
1002
}
  0
ARC
  5
9359
330
20
100
AcDbEntity
  8
10000_FRONT
  6
DASHED
 62
     7
370
    13
100
AcDbCircle
 39
0.25
 10
127.9651204097389
 20
411.1403053804343
 30
0.0
 40
1.85
100
AcDbArc
 50
253.8365999999997
 51
286.1634000000003
1001
AUSTER_ANSICHT
1002
{
1000
V
1002
}
1001
AUSTER_FOLIE
1002
{
1000
EINZELAUFSTELLUNG
1002
}
  0
ARC
  5
935A
330
20
100
AcDbEntity
  8
10000_FRONT
  6
DASHED
 62
     7
370
    13
100
AcDbCircle
 39
0.25
 10
127.9651204097389
 20
411.1403053804343
 30
0.0
 40
1.85
100
AcDbArc
 50
73.83654999999746
 51
106.1634000000003
1001
AUSTER_ANSICHT
1002
{
1000
V
1002
}
1001
AUSTER_FOLIE
1002
{
1000
EINZELAUFSTELLUNG
1002
}
  0
ARC
  5
935B
330
20
100
AcDbEntity
  8
10000_FRONT
  6
DASHED
 62
     7
370
    13
100
AcDbCircle
 39
0.25
 10
127.9651204097389
 20
411.1403053804343
 30
0.0
 40
2.850490999999998
100
AcDbArc
 50
167.7603999999987
 51
192.2396000000013
1001
AUSTER_ANSICHT
1002
{
1000
V
1002
}
1001
AUSTER_FOLIE
1002
{
1000
EINZELAUFSTELLUNG
1002
}
  0
CIRCLE
  5
935C
330
20
100
AcDbEntity
  8
10000_FRONT
  6
DASHED
 62
     7
370
    13
100
AcDbCircle
 39
0.25
 10
119.3651204097389
 20
411.1403053804343
 30
0.0
 40
3.1
1001
AUSTER_ANSICHT
1002
{
1000
V
1002
}
1001
AUSTER_FOLIE
1002
{
1000
EINZELAUFSTELLUNG
1002
}
  0
ARC
  5
935D
330
20
100
AcDbEntity
  8
10000_FRONT
  6
DASHED
 62
     7
370
    13
100
AcDbCircle
 39
0.25
 10
119.3651204097389
 20
411.1403053804343
 30
0.0
 40
2.850490999999998
100
AcDbArc
 50
347.7603999999987
 51
12.23960000000126
1001
AUSTER_ANSICHT
1002
{
1000
V
1002
}
1001
AUSTER_FOLIE
1002
{
1000
EINZELAUFSTELLUNG
1002
}
  0
ARC
  5
935E
330
20
100
AcDbEntity
  8
10000_FRONT
  6
DASHED
 62
     7
370
    13
100
AcDbCircle
 39
0.25
 10
119.3651204097389
 20
411.1403053804343
 30
0.0
 40
1.85
100
AcDbArc
 50
253.8365999999997
 51
286.1634000000003
1001
AUSTER_ANSICHT
1002
{
1000
V
1002
}
1001
AUSTER_FOLIE
1002
{
1000
EINZELAUFSTELLUNG
1002
}
  0
ARC
  5
935F
330
20
100
AcDbEntity
  8
10000_FRONT
  6
DASHED
 62
     7
370
    13
100
AcDbCircle
 39
0.25
 10
119.3651204097389
 20
411.1403053804343
 30
0.0
 40
1.85
100
AcDbArc
 50
73.83654999999746
 51
106.1634000000003
1001
AUSTER_ANSICHT
1002
{
1000
V
1002
}
1001
AUSTER_FOLIE
1002
{
1000
EINZELAUFSTELLUNG
1002
}
  0
ARC
  5
9360
330
20
100
AcDbEntity
  8
10000_FRONT
  6
DASHED
 62
     7
370
    13
100
AcDbCircle
 39
0.25
 10
119.3651204097389
 20
411.1403053804343
 30
0.0
 40
2.850490999999998
100
AcDbArc
 50
167.7603999999987
 51
192.2396000000013
1001
AUSTER_ANSICHT
1002
{
1000
V
1002
}
1001
AUSTER_FOLIE
1002
{
1000
EINZELAUFSTELLUNG
1002
}
  0
ARC
  5
9362
330
20
100
AcDbEntity
  8
10000_FRONT
  6
DASHED
 62
     7
370
    13
100
AcDbCircle
 39
0.25
 10
110.7651174097389
 20
411.1403053804343
 30
0.0
 40
2.850490999999998
100
AcDbArc
 50
347.7603999999987
 51
12.23960000000126
1001
AUSTER_ANSICHT
1002
{
1000
V
1002
}
1001
AUSTER_FOLIE
1002
{
1000
EINZELAUFSTELLUNG
1002
}
  0
ARC
  5
9363
330
20
100
AcDbEntity
  8
10000_FRONT
  6
DASHED
 62
     7
370
    13
100
AcDbCircle
 39
0.25
 10
110.7651174097389
 20
411.1403053804343
 30
0.0
 40
1.85
100
AcDbArc
 50
253.8365999999997
 51
286.1634000000003
1001
AUSTER_ANSICHT
1002
{
1000
V
1002
}
1001
AUSTER_FOLIE
1002
{
1000
EINZELAUFSTELLUNG
1002
}
  0
ARC
  5
9364
330
20
100
AcDbEntity
  8
10000_FRONT
  6
DASHED
 62
     7
370
    13
100
AcDbCircle
 39
0.25
 10
110.7651174097389
 20
411.1403053804343
 30
0.0
 40
1.85
100
AcDbArc
 50
73.83654999999746
 51
106.1634000000003
1001
AUSTER_ANSICHT
1002
{
1000
V
1002
}
1001
AUSTER_FOLIE
1002
{
1000
EINZELAUFSTELLUNG
1002
}
  0
ARC
  5
9365
330
20
100
AcDbEntity
  8
10000_FRONT
  6
DASHED
 62
     7
370
    13
100
AcDbCircle
 39
0.25
 10
110.7651174097389
 20
411.1403053804343
 30
0.0
 40
2.850490999999998
100
AcDbArc
 50
167.7603999999987
 51
192.2396000000013
1001
AUSTER_ANSICHT
1002
{
1000
V
1002
}
1001
AUSTER_FOLIE
1002
{
1000
EINZELAUFSTELLUNG
1002
}
  0
CIRCLE
  5
9366
330
20
100
AcDbEntity
  8
10000_FRONT
  6
DASHED
 62
     7
370
    13
100
AcDbCircle
 39
0.25
 10
102.1651174097388
 20
411.1403053804343
 30
0.0
 40
3.1
1001
AUSTER_ANSICHT
1002
{
1000
V
1002
}
1001
AUSTER_FOLIE
1002
{
1000
EINZELAUFSTELLUNG
1002
}
  0
ARC
  5
9367
330
20
100
AcDbEntity
  8
10000_FRONT
  6
DASHED
 62
     7
370
    13
100
AcDbCircle
 39
0.25
 10
102.1651174097388
 20
411.1403053804343
 30
0.0
 40
2.850490999999998
100
AcDbArc
 50
347.7603999999987
 51
12.23960000000126
1001
AUSTER_ANSICHT
1002
{
1000
V
1002
}
1001
AUSTER_FOLIE
1002
{
1000
EINZELAUFSTELLUNG
1002
}
  0
ARC
  5
9368
330
20
100
AcDbEntity
  8
10000_FRONT
  6
DASHED
 62
     7
370
    13
100
AcDbCircle
 39
0.25
 10
102.1651174097388
 20
411.1403053804343
 30
0.0
 40
1.85
100
AcDbArc
 50
253.8365999999997
 51
286.1634000000003
1001
AUSTER_ANSICHT
1002
{
1000
V
1002
}
1001
AUSTER_FOLIE
1002
{
1000
EINZELAUFSTELLUNG
1002
}
  0
ARC
  5
9369
330
20
100
AcDbEntity
  8
10000_FRONT
  6
DASHED
 62
     7
370
    13
100
AcDbCircle
 39
0.25
 10
102.1651174097388
 20
411.1403053804343
 30
0.0
 40
1.85
100
AcDbArc
 50
73.83654999999746
 51
106.1634000000003
1001
AUSTER_ANSICHT
1002
{
1000
V
1002
}
1001
AUSTER_FOLIE
1002
{
1000
EINZELAUFSTELLUNG
1002
}
  0
ARC
  5
936A
330
20
100
AcDbEntity
  8
10000_FRONT
  6
DASHED
 62
     7
370
    13
100
AcDbCircle
 39
0.25
 10
102.1651174097388
 20
411.1403053804343
 30
0.0
 40
2.850490999999998
100
AcDbArc
 50
167.7603999999987
 51
192.2396000000013
1001
AUSTER_ANSICHT
1002
{
1000
V
1002
}
1001
AUSTER_FOLIE
1002
{
1000
EINZELAUFSTELLUNG
1002
}
  0
CIRCLE
  5
936B
330
20
100
AcDbEntity
  8
10000_FRONT
  6
DASHED
 62
     7
370
    13
100
AcDbCircle
 39
0.25
 10
93.56511740973884
 20
411.1403053804343
 30
0.0
 40
3.1
1001
AUSTER_ANSICHT
1002
{
1000
V
1002
}
1001
AUSTER_FOLIE
1002
{
1000
EINZELAUFSTELLUNG
1002
}
  0
ARC
  5
936C
330
20
100
AcDbEntity
  8
10000_FRONT
  6
DASHED
 62
     7
370
    13
100
AcDbCircle
 39
0.25
 10
93.56511740973884
 20
411.1403053804343
 30
0.0
 40
2.850490999999998
100
AcDbArc
 50
347.7603999999987
 51
12.23960000000126
1001
AUSTER_ANSICHT
1002
{
1000
V
1002
}
1001
AUSTER_FOLIE
1002
{
1000
EINZELAUFSTELLUNG
1002
}
  0
ARC
  5
936D
330
20
100
AcDbEntity
  8
10000_FRONT
  6
DASHED
 62
     7
370
    13
100
AcDbCircle
 39
0.25
 10
93.56511740973884
 20
411.1403053804343
 30
0.0
 40
1.85
100
AcDbArc
 50
253.8365999999997
 51
286.1634000000003
1001
AUSTER_ANSICHT
1002
{
1000
V
1002
}
1001
AUSTER_FOLIE
1002
{
1000
EINZELAUFSTELLUNG
1002
}
  0
ARC
  5
936E
330
20
100
AcDbEntity
  8
10000_FRONT
  6
DASHED
 62
     7
370
    13
100
AcDbCircle
 39
0.25
 10
93.56511740973884
 20
411.1403053804343
 30
0.0
 40
1.85
100
AcDbArc
 50
73.83654999999746
 51
106.1634000000003
1001
AUSTER_ANSICHT
1002
{
1000
V
1002
}
1001
AUSTER_FOLIE
1002
{
1000
EINZELAUFSTELLUNG
1002
}
  0
ARC
  5
936F
330
20
100
AcDbEntity
  8
10000_FRONT
  6
DASHED
 62
     7
370
    13
100
AcDbCircle
 39
0.25
 10
93.56511740973884
 20
411.1403053804343
 30
0.0
 40
2.850490999999998
100
AcDbArc
 50
167.7603999999987
 51
192.2396000000013
1001
AUSTER_ANSICHT
1002
{
1000
V
1002
}
1001
AUSTER_FOLIE
1002
{
1000
EINZELAUFSTELLUNG
1002
}
  0
ARC
  5
9370
330
20
100
AcDbEntity
  8
10000_FRONT
  6
DASHED
 62
     7
370
    13
100
AcDbCircle
 39
0.7
 10
89.16510740973889
 20
387.7903053804343
 30
0.0
 40
1.0
100
AcDbArc
 50
180.0
 51
270.0
1001
AUSTER_ANSICHT
1002
{
1000
V
1002
}
1001
AUSTER_FOLIE
1002
{
1000
EINZELAUFSTELLUNG
1002
}
  0
ARC
  5
9371
330
20
100
AcDbEntity
  8
10000_FRONT
  6
DASHED
 62
     7
370
    13
100
AcDbCircle
 39
0.7
 10
132.1651044097389
 20
387.7903053804343
 30
0.0
 40
0.9999985
100
AcDbArc
 50
270.0
 51
0.0
1001
AUSTER_ANSICHT
1002
{
1000
V
1002
}
1001
AUSTER_FOLIE
1002
{
1000
EINZELAUFSTELLUNG
1002
}
  0
ARC
  5
9373
330
20
100
AcDbEntity
  8
10000_FRONT
  6
DASHED
 62
     7
370
    13
100
AcDbCircle
 39
0.7
 10
132.1651044097389
 20
401.8903053804343
 30
0.0
 40
0.9999985
100
AcDbArc
 50
270.0
 51
0.0
1001
AUSTER_ANSICHT
1002
{
1000
V
1002
}
1001
AUSTER_FOLIE
1002
{
1000
EINZELAUFSTELLUNG
1002
}
  0
ARC
  5
9374
330
20
100
AcDbEntity
  8
10000_FRONT
  6
DASHED
 62
     7
370
    13
100
AcDbCircle
 39
0.25
 10
126.7650864097388
 20
423.7402053804343
 30
0.0
 40
2.850490999999998
100
AcDbArc
 50
62.76036999999747
 51
87.23963000000173
1001
AUSTER_ANSICHT
1002
{
1000
V
1002
}
1001
AUSTER_FOLIE
1002
{
1000
EINZELAUFSTELLUNG
1002
}
  0
ARC
  5
9375
330
20
100
AcDbEntity
  8
10000_FRONT
  6
DASHED
 62
     7
370
    13
100
AcDbCircle
 39
0.25
 10
126.7650864097388
 20
423.7402053804343
 30
0.0
 40
1.85
100
AcDbArc
 50
328.8365999999997
 51
1.163399999999014
1001
AUSTER_ANSICHT
1002
{
1000
V
1002
}
1001
AUSTER_FOLIE
1002
{
1000
EINZELAUFSTELLUNG
1002
}
  0
ARC
  5
9376
330
20
100
AcDbEntity
  8
10000_FRONT
  6
DASHED
 62
     7
370
    13
100
AcDbCircle
 39
0.25
 10
126.7650864097388
 20
423.7402053804343
 30
0.0
 40
1.85
100
AcDbArc
 50
148.8365999999997
 51
181.163399999999
1001
AUSTER_ANSICHT
1002
{
1000
V
1002
}
1001
AUSTER_FOLIE
1002
{
1000
EINZELAUFSTELLUNG
1002
}
  0
ARC
  5
9377
330
20
100
AcDbEntity
  8
10000_FRONT
  6
DASHED
 62
     7
370
    13
100
AcDbCircle
 39
0.25
 10
126.7650864097388
 20
423.7402053804343
 30
0.0
 40
2.850490999999998
100
AcDbArc
 50
242.7604000000016
 51
267.2395999999984
1001
AUSTER_ANSICHT
1002
{
1000
V
1002
}
1001
AUSTER_FOLIE
1002
{
1000
EINZELAUFSTELLUNG
1002
}
  0
ARC
  5
9378
330
20
100
AcDbEntity
  8
10000_FRONT
  6
Continuous
 62
     7
370
    50
100
AcDbCircle
 39
0.7
 10
89.66510740973888
 20
380.7903053804344
 30
0.0
 40
1.5
100
AcDbArc
 50
180.0
 51
270.0
1001
AUSTER_ANSICHT
1002
{
1000
V
1002
}
1001
AUSTER_FOLIE
1002
{
1000
EINZELAUFSTELLUNG
1002
}
  0
CIRCLE
  5
9379
330
20
100
AcDbEntity
  8
10000_FRONT
  6
DASHED
 62
     7
370
    13
100
AcDbCircle
 39
0.25
 10
92.21510740973885
 20
423.7403053804343
 30
0.0
 40
2.9
1001
AUSTER_ANSICHT
1002
{
1000
V
1002
}
1001
AUSTER_FOLIE
1002
{
1000
EINZELAUFSTELLUNG
1002
}
  0
LINE
  5
937A
330
20
100
AcDbEntity
  8
10000_FRONT
  6
Continuous
 62
     7
370
    20
100
AcDbLine
 39
0.25
 10
113.0651074097388
 20
386.6903053804343
 30
0.0
 11
113.0651074097388
 21
384.7903053804344
 31
0.0
1001
AUSTER_ANSICHT
1002
{
1000
V
1002
}
1001
AUSTER_FOLIE
1002
{
1000
EINZELAUFSTELLUNG
1002
}
  0
LINE
  5
937B
330
20
100
AcDbEntity
  8
10000_FRONT
  6
Continuous
 62
     7
370
    20
100
AcDbLine
 39
0.25
 10
108.4651074097388
 20
386.6903053804343
 30
0.0
 11
113.0651074097388
 21
386.6903053804343
 31
0.0
1001
AUSTER_ANSICHT
1002
{
1000
V
1002
}
1001
AUSTER_FOLIE
1002
{
1000
EINZELAUFSTELLUNG
1002
}
  0
LINE
  5
937C
330
20
100
AcDbEntity
  8
10000_FRONT
  6
DASHED
 62
     7
370
    13
100
AcDbLine
 39
0.7
 10
89.16510740973889
 20
400.892405380434
 30
0.0
 11
132.1651044097389
 21
400.8903053804343
 31
0.0
1001
AUSTER_ANSICHT
1002
{
1000
V
1002
}
1001
AUSTER_FOLIE
1002
{
1000
EINZELAUFSTELLUNG
1002
}
  0
LINE
  5
9385
330
20
100
AcDbEntity
  8
10000_FRONT
  6
DASHED
 62
     7
370
    13
100
AcDbLine
 39
0.25
 10
100.6651074097389
 20
426.5462053804343
 30
0.0
 11
100.6651074097389
 21
424.0526053804343
 31
0.0
1001
AUSTER_ANSICHT
1002
{
1000
V
1002
}
1001
AUSTER_FOLIE
1002
{
1000
EINZELAUFSTELLUNG
1002
}
  0
LINE
  5
9386
330
20
100
AcDbEntity
  8
10000_FRONT
  6
DASHED
 62
     7
370
    13
100
AcDbLine
 39
0.25
 10
103.4025174097388
 20
426.7403053804343
 30
0.0
 11
100.8591874097388
 21
426.7403053804343
 31
0.0
1001
AUSTER_ANSICHT
1002
{
1000
V
1002
}
1001
AUSTER_FOLIE
1002
{
1000
EINZELAUFSTELLUNG
1002
}
  0
LINE
  5
9387
330
20
100
AcDbEntity
  8
10000_FRONT
  6
DASHED
 62
     7
370
    13
100
AcDbLine
 39
0.25
 10
100.8591874097388
 20
426.7403053804343
 30
0.0
 11
100.6651074097389
 21
426.7398053804343
 31
0.0
1001
AUSTER_ANSICHT
1002
{
1000
V
1002
}
1001
AUSTER_FOLIE
1002
{
1000
EINZELAUFSTELLUNG
1002
}
  0
LINE
  5
9388
330
20
100
AcDbEntity
  8
10000_FRONT
  6
DASHED
 62
     7
370
    13
100
AcDbLine
 39
0.25
 10
100.6651074097389
 20
426.7398053804343
 30
0.0
 11
100.6651074097389
 21
426.5462053804343
 31
0.0
1001
AUSTER_ANSICHT
1002
{
1000
V
1002
}
1001
AUSTER_FOLIE
1002
{
1000
EINZELAUFSTELLUNG
1002
}
  0
LINE
  5
9389
330
20
100
AcDbEntity
  8
10000_FRONT
  6
DASHED
 62
     7
370
    13
100
AcDbLine
 39
0.25
 10
104.5840474097389
 20
423.930905380434
 30
0.0
 11
104.4565774097389
 21
423.8034053804343
 31
0.0
1001
AUSTER_ANSICHT
1002
{
1000
V
1002
}
1001
AUSTER_FOLIE
1002
{
1000
EINZELAUFSTELLUNG
1002
}
  0
LINE
  5
938A
330
20
100
AcDbEntity
  8
10000_FRONT
  6
DASHED
 62
     7
370
    13
100
AcDbLine
 39
0.25
 10
103.8557274097388
 20
424.6592053804342
 30
0.0
 11
103.7282574097388
 21
424.5317053804343
 31
0.0
1001
AUSTER_ANSICHT
1002
{
1000
V
1002
}
1001
AUSTER_FOLIE
1002
{
1000
EINZELAUFSTELLUNG
1002
}
  0
LINE
  5
938B
330
20
100
AcDbEntity
  8
10000_FRONT
  6
DASHED
 62
     7
370
    13
100
AcDbLine
 39
0.25
 10
102.7461674097388
 20
423.549605380434
 30
0.0
 11
102.8736374097388
 21
423.6771053804343
 31
0.0
1001
AUSTER_ANSICHT
1002
{
1000
V
1002
}
1001
AUSTER_FOLIE
1002
{
1000
EINZELAUFSTELLUNG
1002
}
  0
LINE
  5
938C
330
20
100
AcDbEntity
  8
10000_FRONT
  6
DASHED
 62
     7
370
    13
100
AcDbLine
 39
0.25
 10
104.5840474097389
 20
423.930905380434
 30
0.0
 11
105.2857074097388
 21
424.6325053804343
 31
0.0
1001
AUSTER_ANSICHT
1002
{
1000
V
1002
}
1001
AUSTER_FOLIE
1002
{
1000
EINZELAUFSTELLUNG
1002
}
  0
LINE
  5
938D
330
20
100
AcDbEntity
  8
10000_FRONT
  6
DASHED
 62
     7
370
    13
100
AcDbLine
 39
0.25
 10
104.5573874097389
 20
425.3609053804344
 30
0.0
 11
103.8557174097388
 21
424.6592053804342
 31
0.0
1001
AUSTER_ANSICHT
1002
{
1000
V
1002
}
1001
AUSTER_FOLIE
1002
{
1000
EINZELAUFSTELLUNG
1002
}
  0
LINE
  5
938E
330
20
100
AcDbEntity
  8
10000_FRONT
  6
DASHED
 62
     7
370
    13
100
AcDbLine
 39
0.25
 10
102.7461674097388
 20
423.549605380434
 30
0.0
 11
102.0445074097389
 21
422.8480053804343
 31
0.0
1001
AUSTER_ANSICHT
1002
{
1000
V
1002
}
1001
AUSTER_FOLIE
1002
{
1000
EINZELAUFSTELLUNG
1002
}
  0
LINE
  5
938F
330
20
100
AcDbEntity
  8
10000_FRONT
  6
DASHED
 62
     7
370
    13
100
AcDbLine
 39
0.25
 10
102.7728274097388
 20
422.1197053804344
 30
0.0
 11
103.4744874097389
 21
422.8213053804343
 31
0.0
1001
AUSTER_ANSICHT
1002
{
1000
V
1002
}
1001
AUSTER_FOLIE
1002
{
1000
EINZELAUFSTELLUNG
1002
}
  0
LINE
  5
9390
330
20
100
AcDbEntity
  8
10000_FRONT
  6
DASHED
 62
     7
370
    13
100
AcDbLine
 39
0.25
 10
103.6019574097388
 20
422.9488053804344
 30
0.0
 11
105.2075774097388
 21
421.3432053804344
 31
0.0
1001
AUSTER_ANSICHT
1002
{
1000
V
1002
}
1001
AUSTER_FOLIE
1002
{
1000
EINZELAUFSTELLUNG
1002
}
  0
LINE
  5
9391
330
20
100
AcDbEntity
  8
10000_FRONT
  6
DASHED
 62
     7
370
    13
100
AcDbLine
 39
0.25
 10
101.2680074097388
 20
425.2827053804343
 30
0.0
 11
102.8736374097388
 21
423.6771053804343
 31
0.0
1001
AUSTER_ANSICHT
1002
{
1000
V
1002
}
1001
AUSTER_FOLIE
1002
{
1000
EINZELAUFSTELLUNG
1002
}
  0
LINE
  5
9392
330
20
100
AcDbEntity
  8
10000_FRONT
  6
DASHED
 62
     7
370
    13
100
AcDbLine
 39
0.25
 10
103.7282574097388
 20
424.5317053804343
 30
0.0
 11
102.1226274097388
 21
426.1374053804344
 31
0.0
1001
AUSTER_ANSICHT
1002
{
1000
V
1002
}
1001
AUSTER_FOLIE
1002
{
1000
EINZELAUFSTELLUNG
1002
}
  0
LINE
  5
9393
330
20
100
AcDbEntity
  8
10000_FRONT
  6
DASHED
 62
     7
370
    13
100
AcDbLine
 39
0.25
 10
106.0621974097388
 20
422.1978053804343
 30
0.0
 11
104.4565774097389
 21
423.8034053804343
 31
0.0
1001
AUSTER_ANSICHT
1002
{
1000
V
1002
}
1001
AUSTER_FOLIE
1002
{
1000
EINZELAUFSTELLUNG
1002
}
  0
LINE
  5
9394
330
20
100
AcDbEntity
  8
10000_FRONT
  6
DASHED
 62
     7
370
    13
100
AcDbLine
 39
0.7
 10
88.16510740973887
 20
386.7903053804344
 30
0.0
 11
89.16510740973889
 21
386.7903053804344
 31
0.0
1001
AUSTER_ANSICHT
1002
{
1000
V
1002
}
1001
AUSTER_FOLIE
1002
{
1000
EINZELAUFSTELLUNG
1002
}
  0
LINE
  5
9395
330
20
100
AcDbEntity
  8
10000_FRONT
  6
DASHED
 62
     7
370
    13
100
AcDbLine
 39
0.7
 10
132.1651044097389
 20
386.7903053804344
 30
0.0
 11
133.1651044097389
 21
386.7903053804344
 31
0.0
1001
AUSTER_ANSICHT
1002
{
1000
V
1002
}
1001
AUSTER_FOLIE
1002
{
1000
EINZELAUFSTELLUNG
1002
}
  0
LINE
  5
9396
330
20
100
AcDbEntity
  8
10000_FRONT
  6
Continuous
 62
     7
370
    20
100
AcDbLine
 39
0.25
 10
110.2501174097389
 20
458.175005380434
 30
0.0
 11
110.2501174097389
 21
457.9947053804342
 31
0.0
1001
AUSTER_ANSICHT
1002
{
1000
V
1002
}
1001
AUSTER_FOLIE
1002
{
1000
EINZELAUFSTELLUNG
1002
}
  0
LINE
  5
9397
330
20
100
AcDbEntity
  8
10000_FRONT
  6
Continuous
 62
     7
370
    20
100
AcDbLine
 39
0.25
 10
110.2501174097389
 20
456.6059053804344
 30
0.0
 11
110.2501174097389
 21
456.7861053804342
 31
0.0
1001
AUSTER_ANSICHT
1002
{
1000
V
1002
}
1001
AUSTER_FOLIE
1002
{
1000
EINZELAUFSTELLUNG
1002
}
  0
LINE
  5
9398
330
20
100
AcDbEntity
  8
10000_FRONT
  6
Continuous
 62
     7
370
    20
100
AcDbLine
 39
0.25
 10
111.2801174097388
 20
458.175005380434
 30
0.0
 11
111.2801174097388
 21
457.9947053804342
 31
0.0
1001
AUSTER_ANSICHT
1002
{
1000
V
1002
}
1001
AUSTER_FOLIE
1002
{
1000
EINZELAUFSTELLUNG
1002
}
  0
LINE
  5
9399
330
20
100
AcDbEntity
  8
10000_FRONT
  6
Continuous
 62
     7
370
    20
100
AcDbLine
 39
0.25
 10
111.2801174097388
 20
456.6059053804344
 30
0.0
 11
111.2801174097388
 21
456.7861053804342
 31
0.0
1001
AUSTER_ANSICHT
1002
{
1000
V
1002
}
1001
AUSTER_FOLIE
1002
{
1000
EINZELAUFSTELLUNG
1002
}
  0
LINE
  5
939A
330
20
100
AcDbEntity
  8
10000_FRONT
  6
Continuous
 62
     7
370
    20
100
AcDbLine
 39
0.25
 10
110.2501174097389
 20
458.175005380434
 30
0.0
 11
110.2501174097389
 21
459.1673053804343
 31
0.0
1001
AUSTER_ANSICHT
1002
{
1000
V
1002
}
1001
AUSTER_FOLIE
1002
{
1000
EINZELAUFSTELLUNG
1002
}
  0
LINE
  5
939B
330
20
100
AcDbEntity
  8
10000_FRONT
  6
Continuous
 62
     7
370
    20
100
AcDbLine
 39
0.25
 10
111.2801174097388
 20
459.1673053804343
 30
0.0
 11
111.2801174097388
 21
458.175005380434
 31
0.0
1001
AUSTER_ANSICHT
1002
{
1000
V
1002
}
1001
AUSTER_FOLIE
1002
{
1000
EINZELAUFSTELLUNG
1002
}
  0
LINE
  5
939C
330
20
100
AcDbEntity
  8
10000_FRONT
  6
Continuous
 62
     7
370
    20
100
AcDbLine
 39
0.25
 10
111.2801174097388
 20
456.6059053804344
 30
0.0
 11
111.2801174097388
 21
455.6136053804343
 31
0.0
1001
AUSTER_ANSICHT
1002
{
1000
V
1002
}
1001
AUSTER_FOLIE
1002
{
1000
EINZELAUFSTELLUNG
1002
}
  0
LINE
  5
939D
330
20
100
AcDbEntity
  8
10000_FRONT
  6
Continuous
 62
     7
370
    20
100
AcDbLine
 39
0.25
 10
110.2501174097389
 20
455.6136053804343
 30
0.0
 11
110.2501174097389
 21
456.6059053804344
 31
0.0
1001
AUSTER_ANSICHT
1002
{
1000
V
1002
}
1001
AUSTER_FOLIE
1002
{
1000
EINZELAUFSTELLUNG
1002
}
  0
LINE
  5
939E
330
20
100
AcDbEntity
  8
10000_FRONT
  6
Continuous
 62
     7
370
    20
100
AcDbLine
 39
0.25
 10
110.2501174097389
 20
456.7861053804342
 30
0.0
 11
107.9794274097388
 21
456.7861053804342
 31
0.0
1001
AUSTER_ANSICHT
1002
{
1000
V
1002
}
1001
AUSTER_FOLIE
1002
{
1000
EINZELAUFSTELLUNG
1002
}
  0
LINE
  5
939F
330
20
100
AcDbEntity
  8
10000_FRONT
  6
Continuous
 62
     7
370
    20
100
AcDbLine
 39
0.25
 10
113.5508174097389
 20
456.7861053804342
 30
0.0
 11
111.2801174097388
 21
456.7861053804342
 31
0.0
1001
AUSTER_ANSICHT
1002
{
1000
V
1002
}
1001
AUSTER_FOLIE
1002
{
1000
EINZELAUFSTELLUNG
1002
}
  0
LINE
  5
93A0
330
20
100
AcDbEntity
  8
10000_FRONT
  6
Continuous
 62
     7
370
    20
100
AcDbLine
 39
0.25
 10
111.2801174097388
 20
457.9947053804342
 30
0.0
 11
113.5508174097389
 21
457.9947053804342
 31
0.0
1001
AUSTER_ANSICHT
1002
{
1000
V
1002
}
1001
AUSTER_FOLIE
1002
{
1000
EINZELAUFSTELLUNG
1002
}
  0
LINE
  5
93A1
330
20
100
AcDbEntity
  8
10000_FRONT
  6
Continuous
 62
     7
370
    20
100
AcDbLine
 39
0.25
 10
107.9794274097388
 20
457.9947053804342
 30
0.0
 11
110.2501174097389
 21
457.9947053804342
 31
0.0
1001
AUSTER_ANSICHT
1002
{
1000
V
1002
}
1001
AUSTER_FOLIE
1002
{
1000
EINZELAUFSTELLUNG
1002
}
  0
LINE
  5
93A2
330
20
100
AcDbEntity
  8
10000_FRONT
  6
Continuous
 62
     7
370
    20
100
AcDbLine
 39
0.25
 10
101.6501174097388
 20
458.175005380434
 30
0.0
 11
101.6501174097388
 21
457.9947053804342
 31
0.0
1001
AUSTER_ANSICHT
1002
{
1000
V
1002
}
1001
AUSTER_FOLIE
1002
{
1000
EINZELAUFSTELLUNG
1002
}
  0
LINE
  5
93A3
330
20
100
AcDbEntity
  8
10000_FRONT
  6
Continuous
 62
     7
370
    20
100
AcDbLine
 39
0.25
 10
101.6501174097388
 20
456.6059053804344
 30
0.0
 11
101.6501174097388
 21
456.7861053804342
 31
0.0
1001
AUSTER_ANSICHT
1002
{
1000
V
1002
}
1001
AUSTER_FOLIE
1002
{
1000
EINZELAUFSTELLUNG
1002
}
  0
LINE
  5
93A4
330
20
100
AcDbEntity
  8
10000_FRONT
  6
Continuous
 62
     7
370
    20
100
AcDbLine
 39
0.25
 10
102.6801174097388
 20
458.175005380434
 30
0.0
 11
102.6801174097388
 21
457.9947053804342
 31
0.0
1001
AUSTER_ANSICHT
1002
{
1000
V
1002
}
1001
AUSTER_FOLIE
1002
{
1000
EINZELAUFSTELLUNG
1002
}
  0
LINE
  5
93A5
330
20
100
AcDbEntity
  8
10000_FRONT
  6
Continuous
 62
     7
370
    20
100
AcDbLine
 39
0.25
 10
102.6801174097388
 20
456.6059053804344
 30
0.0
 11
102.6801174097388
 21
456.7861053804342
 31
0.0
1001
AUSTER_ANSICHT
1002
{
1000
V
1002
}
1001
AUSTER_FOLIE
1002
{
1000
EINZELAUFSTELLUNG
1002
}
  0
LINE
  5
93A6
330
20
100
AcDbEntity
  8
10000_FRONT
  6
Continuous
 62
     7
370
    20
100
AcDbLine
 39
0.25
 10
101.6501174097388
 20
458.175005380434
 30
0.0
 11
101.6501174097388
 21
459.1673053804343
 31
0.0
1001
AUSTER_ANSICHT
1002
{
1000
V
1002
}
1001
AUSTER_FOLIE
1002
{
1000
EINZELAUFSTELLUNG
1002
}
  0
LINE
  5
93A7
330
20
100
AcDbEntity
  8
10000_FRONT
  6
Continuous
 62
     7
370
    20
100
AcDbLine
 39
0.25
 10
102.6801174097388
 20
459.1673053804343
 30
0.0
 11
102.6801174097388
 21
458.175005380434
 31
0.0
1001
AUSTER_ANSICHT
1002
{
1000
V
1002
}
1001
AUSTER_FOLIE
1002
{
1000
EINZELAUFSTELLUNG
1002
}
  0
LINE
  5
93A8
330
20
100
AcDbEntity
  8
10000_FRONT
  6
Continuous
 62
     7
370
    20
100
AcDbLine
 39
0.25
 10
102.6801174097388
 20
456.6059053804344
 30
0.0
 11
102.6801174097388
 21
455.6136053804343
 31
0.0
1001
AUSTER_ANSICHT
1002
{
1000
V
1002
}
1001
AUSTER_FOLIE
1002
{
1000
EINZELAUFSTELLUNG
1002
}
  0
LINE
  5
93A9
330
20
100
AcDbEntity
  8
10000_FRONT
  6
Continuous
 62
     7
370
    20
100
AcDbLine
 39
0.25
 10
101.6501174097388
 20
455.6136053804343
 30
0.0
 11
101.6501174097388
 21
456.6059053804344
 31
0.0
1001
AUSTER_ANSICHT
1002
{
1000
V
1002
}
1001
AUSTER_FOLIE
1002
{
1000
EINZELAUFSTELLUNG
1002
}
  0
LINE
  5
93AA
330
20
100
AcDbEntity
  8
10000_FRONT
  6
Continuous
 62
     7
370
    20
100
AcDbLine
 39
0.25
 10
101.6501174097388
 20
456.7861053804342
 30
0.0
 11
99.37942740973893
 21
456.7861053804342
 31
0.0
1001
AUSTER_ANSICHT
1002
{
1000
V
1002
}
1001
AUSTER_FOLIE
1002
{
1000
EINZELAUFSTELLUNG
1002
}
  0
LINE
  5
93AB
330
20
100
AcDbEntity
  8
10000_FRONT
  6
Continuous
 62
     7
370
    20
100
AcDbLine
 39
0.25
 10
104.9508174097389
 20
456.7861053804342
 30
0.0
 11
102.6801174097388
 21
456.7861053804342
 31
0.0
1001
AUSTER_ANSICHT
1002
{
1000
V
1002
}
1001
AUSTER_FOLIE
1002
{
1000
EINZELAUFSTELLUNG
1002
}
  0
LINE
  5
93AC
330
20
100
AcDbEntity
  8
10000_FRONT
  6
Continuous
 62
     7
370
    20
100
AcDbLine
 39
0.25
 10
102.6801174097388
 20
457.9947053804342
 30
0.0
 11
104.9508174097389
 21
457.9947053804342
 31
0.0
1001
AUSTER_ANSICHT
1002
{
1000
V
1002
}
1001
AUSTER_FOLIE
1002
{
1000
EINZELAUFSTELLUNG
1002
}
  0
LINE
  5
93AD
330
20
100
AcDbEntity
  8
10000_FRONT
  6
Continuous
 62
     7
370
    20
100
AcDbLine
 39
0.25
 10
99.37942740973893
 20
457.9947053804342
 30
0.0
 11
101.6501174097388
 21
457.9947053804342
 31
0.0
1001
AUSTER_ANSICHT
1002
{
1000
V
1002
}
1001
AUSTER_FOLIE
1002
{
1000
EINZELAUFSTELLUNG
1002
}
  0
LINE
  5
93AE
330
20
100
AcDbEntity
  8
10000_FRONT
  6
Continuous
 62
     7
370
    20
100
AcDbLine
 39
0.25
 10
93.05011740973885
 20
458.175005380434
 30
0.0
 11
93.05011740973885
 21
457.9947053804342
 31
0.0
1001
AUSTER_ANSICHT
1002
{
1000
V
1002
}
1001
AUSTER_FOLIE
1002
{
1000
EINZELAUFSTELLUNG
1002
}
  0
LINE
  5
93AF
330
20
100
AcDbEntity
  8
10000_FRONT
  6
Continuous
 62
     7
370
    20
100
AcDbLine
 39
0.25
 10
93.05011740973885
 20
456.6059053804344
 30
0.0
 11
93.05011740973885
 21
456.7861053804342
 31
0.0
1001
AUSTER_ANSICHT
1002
{
1000
V
1002
}
1001
AUSTER_FOLIE
1002
{
1000
EINZELAUFSTELLUNG
1002
}
  0
LINE
  5
93B0
330
20
100
AcDbEntity
  8
10000_FRONT
  6
Continuous
 62
     7
370
    20
100
AcDbLine
 39
0.25
 10
94.08011740973879
 20
458.175005380434
 30
0.0
 11
94.08011740973879
 21
457.9947053804342
 31
0.0
1001
AUSTER_ANSICHT
1002
{
1000
V
1002
}
1001
AUSTER_FOLIE
1002
{
1000
EINZELAUFSTELLUNG
1002
}
  0
LINE
  5
93B1
330
20
100
AcDbEntity
  8
10000_FRONT
  6
Continuous
 62
     7
370
    20
100
AcDbLine
 39
0.25
 10
94.08011740973879
 20
456.6059053804344
 30
0.0
 11
94.08011740973879
 21
456.7861053804342
 31
0.0
1001
AUSTER_ANSICHT
1002
{
1000
V
1002
}
1001
AUSTER_FOLIE
1002
{
1000
EINZELAUFSTELLUNG
1002
}
  0
LINE
  5
93B2
330
20
100
AcDbEntity
  8
10000_FRONT
  6
Continuous
 62
     7
370
    20
100
AcDbLine
 39
0.25
 10
93.05011740973885
 20
458.175005380434
 30
0.0
 11
93.05011740973885
 21
459.1673053804343
 31
0.0
1001
AUSTER_ANSICHT
1002
{
1000
V
1002
}
1001
AUSTER_FOLIE
1002
{
1000
EINZELAUFSTELLUNG
1002
}
  0
LINE
  5
93B3
330
20
100
AcDbEntity
  8
10000_FRONT
  6
Continuous
 62
     7
370
    20
100
AcDbLine
 39
0.25
 10
94.08011740973879
 20
459.1673053804343
 30
0.0
 11
94.08011740973879
 21
458.175005380434
 31
0.0
1001
AUSTER_ANSICHT
1002
{
1000
V
1002
}
1001
AUSTER_FOLIE
1002
{
1000
EINZELAUFSTELLUNG
1002
}
  0
LINE
  5
93B4
330
20
100
AcDbEntity
  8
10000_FRONT
  6
Continuous
 62
     7
370
    20
100
AcDbLine
 39
0.25
 10
94.08011740973879
 20
456.6059053804344
 30
0.0
 11
94.08011740973879
 21
455.6136053804343
 31
0.0
1001
AUSTER_ANSICHT
1002
{
1000
V
1002
}
1001
AUSTER_FOLIE
1002
{
1000
EINZELAUFSTELLUNG
1002
}
  0
LINE
  5
93B5
330
20
100
AcDbEntity
  8
10000_FRONT
  6
Continuous
 62
     7
370
    20
100
AcDbLine
 39
0.25
 10
93.05011740973885
 20
455.6136053804343
 30
0.0
 11
93.05011740973885
 21
456.6059053804344
 31
0.0
1001
AUSTER_ANSICHT
1002
{
1000
V
1002
}
1001
AUSTER_FOLIE
1002
{
1000
EINZELAUFSTELLUNG
1002
}
  0
LINE
  5
93B6
330
20
100
AcDbEntity
  8
10000_FRONT
  6
Continuous
 62
     7
370
    20
100
AcDbLine
 39
0.25
 10
93.05011740973885
 20
456.7861053804342
 30
0.0
 11
90.7794274097389
 21
456.7861053804342
 31
0.0
1001
AUSTER_ANSICHT
1002
{
1000
V
1002
}
1001
AUSTER_FOLIE
1002
{
1000
EINZELAUFSTELLUNG
1002
}
  0
LINE
  5
93B7
330
20
100
AcDbEntity
  8
10000_FRONT
  6
Continuous
 62
     7
370
    20
100
AcDbLine
 39
0.25
 10
96.35081740973888
 20
456.7861053804342
 30
0.0
 11
94.08011740973879
 21
456.7861053804342
 31
0.0
1001
AUSTER_ANSICHT
1002
{
1000
V
1002
}
1001
AUSTER_FOLIE
1002
{
1000
EINZELAUFSTELLUNG
1002
}
  0
LINE
  5
93B8
330
20
100
AcDbEntity
  8
10000_FRONT
  6
Continuous
 62
     7
370
    20
100
AcDbLine
 39
0.25
 10
94.08011740973879
 20
457.9947053804342
 30
0.0
 11
96.35081740973888
 21
457.9947053804342
 31
0.0
1001
AUSTER_ANSICHT
1002
{
1000
V
1002
}
1001
AUSTER_FOLIE
1002
{
1000
EINZELAUFSTELLUNG
1002
}
  0
LINE
  5
93B9
330
20
100
AcDbEntity
  8
10000_FRONT
  6
Continuous
 62
     7
370
    20
100
AcDbLine
 39
0.25
 10
90.7794274097389
 20
457.9947053804342
 30
0.0
 11
93.05011740973885
 21
457.9947053804342
 31
0.0
1001
AUSTER_ANSICHT
1002
{
1000
V
1002
}
1001
AUSTER_FOLIE
1002
{
1000
EINZELAUFSTELLUNG
1002
}
  0
LINE
  5
93BA
330
20
100
AcDbEntity
  8
10000_FRONT
  6
Continuous
 62
     7
370
    50
100
AcDbLine
 39
0.7
 10
89.16510740973889
 20
466.3903053804343
 30
0.0
 11
132.1651044097389
 21
466.3903053804343
 31
0.0
1001
AUSTER_ANSICHT
1002
{
1000
V
1002
}
1001
AUSTER_FOLIE
1002
{
1000
EINZELAUFSTELLUNG
1002
}
  0
LINE
  5
93BB
330
20
100
AcDbEntity
  8
10000_FRONT
  6
Continuous
 62
     7
370
    50
100
AcDbLine
 39
0.7
 10
88.16510740973887
 20
386.7903053804344
 30
0.0
 11
88.16510740973887
 21
387.7903053804343
 31
0.0
1001
AUSTER_ANSICHT
1002
{
1000
V
1002
}
1001
AUSTER_FOLIE
1002
{
1000
EINZELAUFSTELLUNG
1002
}
  0
LINE
  5
93BC
330
20
100
AcDbEntity
  8
10000_FRONT
  6
Continuous
 62
     7
370
    50
100
AcDbLine
 39
0.7
 10
133.1651044097389
 20
387.7903053804343
 30
0.0
 11
133.1651044097389
 21
386.7903053804344
 31
0.0
1001
AUSTER_ANSICHT
1002
{
1000
V
1002
}
1001
AUSTER_FOLIE
1002
{
1000
EINZELAUFSTELLUNG
1002
}
  0
LINE
  5
93BD
330
20
100
AcDbEntity
  8
10000_FRONT
  6
Continuous
 62
     7
370
    50
100
AcDbLine
 39
0.7
 10
88.16510740973887
 20
446.3903053804343
 30
0.0
 11
88.16510740973887
 21
465.3903053804341
 31
0.0
1001
AUSTER_ANSICHT
1002
{
1000
V
1002
}
1001
AUSTER_FOLIE
1002
{
1000
EINZELAUFSTELLUNG
1002
}
  0
LINE
  5
93BE
330
20
100
AcDbEntity
  8
10000_FRONT
  6
Continuous
 62
     7
370
    20
100
AcDbLine
 39
0.25
 10
104.2651074097389
 20
381.7903053804343
 30
0.0
 11
117.2651074097389
 21
381.7903053804343
 31
0.0
1001
AUSTER_ANSICHT
1002
{
1000
V
1002
}
1001
AUSTER_FOLIE
1002
{
1000
EINZELAUFSTELLUNG
1002
}
  0
LINE
  5
93BF
330
20
100
AcDbEntity
  8
10000_FRONT
  6
Continuous
 62
     7
370
    50
100
AcDbLine
 39
0.7
 10
123.9924544097389
 20
386.7903053804344
 30
0.0
 11
124.9151044097389
 21
386.7903053804344
 31
0.0
1001
AUSTER_ANSICHT
1002
{
1000
V
1002
}
1001
AUSTER_FOLIE
1002
{
1000
EINZELAUFSTELLUNG
1002
}
  0
LINE
  5
93C0
330
20
100
AcDbEntity
  8
10000_FRONT
  6
Continuous
 62
     7
370
    50
100
AcDbLine
 39
0.7
 10
97.53775740973892
 20
386.7903053804344
 30
0.0
 11
96.61510740973879
 21
386.7903053804344
 31
0.0
1001
AUSTER_ANSICHT
1002
{
1000
V
1002
}
1001
AUSTER_FOLIE
1002
{
1000
EINZELAUFSTELLUNG
1002
}
  0
LINE
  5
93C1
330
20
100
AcDbEntity
  8
10000_FRONT
  6
Continuous
 62
     7
370
    20
100
AcDbLine
 39
0.25
 10
118.5151074097389
 20
383.2903053804344
 30
0.0
 11
123.6094434097389
 21
383.2903053804344
 31
0.0
1001
AUSTER_ANSICHT
1002
{
1000
V
1002
}
1001
AUSTER_FOLIE
1002
{
1000
EINZELAUFSTELLUNG
1002
}
  0
LINE
  5
93C2
330
20
100
AcDbEntity
  8
10000_FRONT
  6
Continuous
 62
     7
370
    20
100
AcDbLine
 39
0.25
 10
123.6094434097389
 20
383.2903053804344
 30
0.0
 11
124.9151044097389
 21
386.0903053804344
 31
0.0
1001
AUSTER_ANSICHT
1002
{
1000
V
1002
}
1001
AUSTER_FOLIE
1002
{
1000
EINZELAUFSTELLUNG
1002
}
  0
LINE
  5
93C3
330
20
100
AcDbEntity
  8
10000_FRONT
  6
Continuous
 62
     7
370
    20
100
AcDbLine
 39
0.25
 10
124.9151044097389
 20
386.7903053804344
 30
0.0
 11
124.9151044097389
 21
386.0903053804344
 31
0.0
1001
AUSTER_ANSICHT
1002
{
1000
V
1002
}
1001
AUSTER_FOLIE
1002
{
1000
EINZELAUFSTELLUNG
1002
}
  0
LINE
  5
93C4
330
20
100
AcDbEntity
  8
10000_FRONT
  6
Continuous
 62
     7
370
    20
100
AcDbLine
 39
0.25
 10
104.2651074097389
 20
383.4903053804343
 30
0.0
 11
104.2651074097389
 21
384.7903053804344
 31
0.0
1001
AUSTER_ANSICHT
1002
{
1000
V
1002
}
1001
AUSTER_FOLIE
1002
{
1000
EINZELAUFSTELLUNG
1002
}
  0
LINE
  5
93C5
330
20
100
AcDbEntity
  8
10000_FRONT
  6
Continuous
 62
     7
370
    20
100
AcDbLine
 39
0.25
 10
104.2651074097389
 20
382.2903053804343
 30
0.0
 11
104.2651074097389
 21
383.4903053804343
 31
0.0
1001
AUSTER_ANSICHT
1002
{
1000
V
1002
}
1001
AUSTER_FOLIE
1002
{
1000
EINZELAUFSTELLUNG
1002
}
  0
LINE
  5
93C6
330
20
100
AcDbEntity
  8
10000_FRONT
  6
Continuous
 62
     7
370
    20
100
AcDbLine
 39
0.25
 10
104.2651074097389
 20
381.7903053804343
 30
0.0
 11
104.2651074097389
 21
382.2903053804343
 31
0.0
1001
AUSTER_ANSICHT
1002
{
1000
V
1002
}
1001
AUSTER_FOLIE
1002
{
1000
EINZELAUFSTELLUNG
1002
}
  0
LINE
  5
93C7
330
20
100
AcDbEntity
  8
10000_FRONT
  6
Continuous
 62
     7
370
    20
100
AcDbLine
 39
0.25
 10
117.2651074097389
 20
382.2903053804343
 30
0.0
 11
117.2651074097389
 21
381.7903053804343
 31
0.0
1001
AUSTER_ANSICHT
1002
{
1000
V
1002
}
1001
AUSTER_FOLIE
1002
{
1000
EINZELAUFSTELLUNG
1002
}
  0
LINE
  5
93C8
330
20
100
AcDbEntity
  8
10000_FRONT
  6
Continuous
 62
     7
370
    20
100
AcDbLine
 39
0.25
 10
117.2651074097389
 20
383.4903053804343
 30
0.0
 11
117.2651074097389
 21
382.2903053804343
 31
0.0
1001
AUSTER_ANSICHT
1002
{
1000
V
1002
}
1001
AUSTER_FOLIE
1002
{
1000
EINZELAUFSTELLUNG
1002
}
  0
LINE
  5
93C9
330
20
100
AcDbEntity
  8
10000_FRONT
  6
Continuous
 62
     7
370
    20
100
AcDbLine
 39
0.25
 10
117.2651074097389
 20
384.7903053804344
 30
0.0
 11
117.2651074097389
 21
383.4903053804343
 31
0.0
1001
AUSTER_ANSICHT
1002
{
1000
V
1002
}
1001
AUSTER_FOLIE
1002
{
1000
EINZELAUFSTELLUNG
1002
}
  0
LINE
  5
93CA
330
20
100
AcDbEntity
  8
10000_FRONT
  6
Continuous
 62
     7
370
    20
100
AcDbLine
 39
0.25
 10
96.61510740973879
 20
386.7903053804344
 30
0.0
 11
96.61510740973879
 21
386.0903053804344
 31
0.0
1001
AUSTER_ANSICHT
1002
{
1000
V
1002
}
1001
AUSTER_FOLIE
1002
{
1000
EINZELAUFSTELLUNG
1002
}
  0
LINE
  5
93CB
330
20
100
AcDbEntity
  8
10000_FRONT
  6
Continuous
 62
     7
370
    20
100
AcDbLine
 39
0.25
 10
96.61510740973879
 20
386.0903053804344
 30
0.0
 11
97.92076740973893
 21
383.2903053804344
 31
0.0
1001
AUSTER_ANSICHT
1002
{
1000
V
1002
}
1001
AUSTER_FOLIE
1002
{
1000
EINZELAUFSTELLUNG
1002
}
  0
LINE
  5
93CC
330
20
100
AcDbEntity
  8
10000_FRONT
  6
Continuous
 62
     7
370
    20
100
AcDbLine
 39
0.25
 10
97.92076740973893
 20
383.2903053804344
 30
0.0
 11
103.0151074097389
 21
383.2903053804344
 31
0.0
1001
AUSTER_ANSICHT
1002
{
1000
V
1002
}
1001
AUSTER_FOLIE
1002
{
1000
EINZELAUFSTELLUNG
1002
}
  0
LINE
  5
93CD
330
20
100
AcDbEntity
  8
10000_FRONT
  6
Continuous
 62
     7
370
    20
100
AcDbLine
 39
0.25
 10
103.0151074097389
 20
382.5903053804344
 30
0.0
 11
103.0151074097389
 21
383.2903053804344
 31
0.0
1001
AUSTER_ANSICHT
1002
{
1000
V
1002
}
1001
AUSTER_FOLIE
1002
{
1000
EINZELAUFSTELLUNG
1002
}
  0
LINE
  5
93CE
330
20
100
AcDbEntity
  8
10000_FRONT
  6
Continuous
 62
     7
370
    20
100
AcDbLine
 39
0.25
 10
104.2664374097387
 20
381.7903053804343
 30
0.0
 11
103.8151074097388
 21
381.7903053804343
 31
0.0
1001
AUSTER_ANSICHT
1002
{
1000
V
1002
}
1001
AUSTER_FOLIE
1002
{
1000
EINZELAUFSTELLUNG
1002
}
  0
LINE
  5
93CF
330
20
100
AcDbEntity
  8
10000_FRONT
  6
Continuous
 62
     7
370
    20
100
AcDbLine
 39
0.25
 10
117.7151074097388
 20
381.7903053804343
 30
0.0
 11
117.2667274097389
 21
381.7903053804343
 31
0.0
1001
AUSTER_ANSICHT
1002
{
1000
V
1002
}
1001
AUSTER_FOLIE
1002
{
1000
EINZELAUFSTELLUNG
1002
}
  0
LINE
  5
93D0
330
20
100
AcDbEntity
  8
10000_FRONT
  6
Continuous
 62
     7
370
    20
100
AcDbLine
 39
0.25
 10
118.5151074097389
 20
383.2903053804344
 30
0.0
 11
118.5151074097389
 21
382.5903053804344
 31
0.0
1001
AUSTER_ANSICHT
1002
{
1000
V
1002
}
1001
AUSTER_FOLIE
1002
{
1000
EINZELAUFSTELLUNG
1002
}
  0
LINE
  5
93D1
330
20
100
AcDbEntity
  8
10000_FRONT
  6
Continuous
 62
     7
370
    50
100
AcDbLine
 39
0.7
 10
133.1651044097389
 20
386.7903053804344
 30
0.0
 11
133.1651044097389
 21
380.7903053804344
 31
0.0
1001
AUSTER_ANSICHT
1002
{
1000
V
1002
}
1001
AUSTER_FOLIE
1002
{
1000
EINZELAUFSTELLUNG
1002
}
  0
LINE
  5
93D2
330
20
100
AcDbEntity
  8
10000_FRONT
  6
Continuous
 62
     7
370
    50
100
AcDbLine
 39
0.7
 10
88.16510740973887
 20
386.7903053804344
 30
0.0
 11
88.16510740973887
 21
380.7903053804344
 31
0.0
1001
AUSTER_ANSICHT
1002
{
1000
V
1002
}
1001
AUSTER_FOLIE
1002
{
1000
EINZELAUFSTELLUNG
1002
}
  0
LINE
  5
93D3
330
20
100
AcDbEntity
  8
10000_FRONT
  6
DASHED
 62
     7
370
    13
100
AcDbLine
 39
0.7
 10
123.2651044097389
 20
385.8903053804343
 30
0.0
 11
98.2651074097389
 21
385.8903053804343
 31
0.0
1001
AUSTER_ANSICHT
1002
{
1000
V
1002
}
1001
AUSTER_FOLIE
1002
{
1000
EINZELAUFSTELLUNG
1002
}
  0
LINE
  5
93D4
330
20
100
AcDbEntity
  8
10000_FRONT
  6
DASHED
 62
     7
370
    13
100
AcDbLine
 39
0.7
 10
123.2651044097389
 20
386.7914053804343
 30
0.0
 11
123.2651044097389
 21
385.8903053804343
 31
0.0
1001
AUSTER_ANSICHT
1002
{
1000
V
1002
}
1001
AUSTER_FOLIE
1002
{
1000
EINZELAUFSTELLUNG
1002
}
  0
LINE
  5
93D5
330
20
100
AcDbEntity
  8
10000_FRONT
  6
DASHED
 62
     7
370
    13
100
AcDbLine
 39
0.7
 10
98.2651074097389
 20
385.8903053804343
 30
0.0
 11
98.2651074097389
 21
386.7914053804343
 31
0.0
1001
AUSTER_ANSICHT
1002
{
1000
V
1002
}
1001
AUSTER_FOLIE
1002
{
1000
EINZELAUFSTELLUNG
1002
}
  0
LINE
  5
93D6
330
20
100
AcDbEntity
  8
10000_FRONT
  6
DASHED
 62
     7
370
    13
100
AcDbLine
 39
0.7
 10
89.16510740973889
 20
386.7903053804344
 30
0.0
 11
132.1651044097389
 21
386.7903053804344
 31
0.0
1001
AUSTER_ANSICHT
1002
{
1000
V
1002
}
1001
AUSTER_FOLIE
1002
{
1000
EINZELAUFSTELLUNG
1002
}
  0
LINE
  5
93D7
330
20
100
AcDbEntity
  8
10000_FRONT
  6
DASHED
 62
     7
370
    13
100
AcDbLine
 39
0.25
 10
127.4001064097389
 20
396.3057053804344
 30
0.0
 11
127.4001044097389
 21
396.4860053804343
 31
0.0
1001
AUSTER_ANSICHT
1002
{
1000
V
1002
}
1001
AUSTER_FOLIE
1002
{
1000
EINZELAUFSTELLUNG
1002
}
  0
LINE
  5
93D8
330
20
100
AcDbEntity
  8
10000_FRONT
  6
DASHED
 62
     7
370
    13
100
AcDbLine
 39
0.25
 10
127.4001044097389
 20
397.8748053804343
 30
0.0
 11
127.4001044097389
 21
397.6946053804343
 31
0.0
1001
AUSTER_ANSICHT
1002
{
1000
V
1002
}
1001
AUSTER_FOLIE
1002
{
1000
EINZELAUFSTELLUNG
1002
}
  0
LINE
  5
93D9
330
20
100
AcDbEntity
  8
10000_FRONT
  6
DASHED
 62
     7
370
    13
100
AcDbLine
 39
0.25
 10
128.4301030097389
 20
396.3057053804344
 30
0.0
 11
128.4301045097388
 21
396.4860053804343
 31
0.0
1001
AUSTER_ANSICHT
1002
{
1000
V
1002
}
1001
AUSTER_FOLIE
1002
{
1000
EINZELAUFSTELLUNG
1002
}
  0
LINE
  5
93DA
330
20
100
AcDbEntity
  8
10000_FRONT
  6
DASHED
 62
     7
370
    13
100
AcDbLine
 39
0.25
 10
128.4301030097389
 20
397.8748053804343
 30
0.0
 11
128.4301045097388
 21
397.6946053804343
 31
0.0
1001
AUSTER_ANSICHT
1002
{
1000
V
1002
}
1001
AUSTER_FOLIE
1002
{
1000
EINZELAUFSTELLUNG
1002
}
  0
LINE
  5
93DB
330
20
100
AcDbEntity
  8
10000_FRONT
  6
DASHED
 62
     7
370
    13
100
AcDbLine
 39
0.25
 10
127.4001064097389
 20
396.3057053804344
 30
0.0
 11
127.4001044097389
 21
395.3134053804344
 31
0.0
1001
AUSTER_ANSICHT
1002
{
1000
V
1002
}
1001
AUSTER_FOLIE
1002
{
1000
EINZELAUFSTELLUNG
1002
}
  0
LINE
  5
93DC
330
20
100
AcDbEntity
  8
10000_FRONT
  6
DASHED
 62
     7
370
    13
100
AcDbLine
 39
0.25
 10
128.4301045097388
 20
395.3134053804344
 30
0.0
 11
128.4301045097388
 21
396.3057053804344
 31
0.0
1001
AUSTER_ANSICHT
1002
{
1000
V
1002
}
1001
AUSTER_FOLIE
1002
{
1000
EINZELAUFSTELLUNG
1002
}
  0
LINE
  5
93DD
330
20
100
AcDbEntity
  8
10000_FRONT
  6
DASHED
 62
     7
370
    13
100
AcDbLine
 39
0.25
 10
128.4301045097388
 20
397.8748053804343
 30
0.0
 11
128.4301045097388
 21
398.8671053804343
 31
0.0
1001
AUSTER_ANSICHT
1002
{
1000
V
1002
}
1001
AUSTER_FOLIE
1002
{
1000
EINZELAUFSTELLUNG
1002
}
  0
LINE
  5
93DE
330
20
100
AcDbEntity
  8
10000_FRONT
  6
DASHED
 62
     7
370
    13
100
AcDbLine
 39
0.25
 10
127.4001044097389
 20
398.8671053804343
 30
0.0
 11
127.4001044097389
 21
397.8748053804343
 31
0.0
1001
AUSTER_ANSICHT
1002
{
1000
V
1002
}
1001
AUSTER_FOLIE
1002
{
1000
EINZELAUFSTELLUNG
1002
}
  0
LINE
  5
93DF
330
20
100
AcDbEntity
  8
10000_FRONT
  6
DASHED
 62
     7
370
    13
100
AcDbLine
 39
0.25
 10
127.4001044097389
 20
397.6946053804343
 30
0.0
 11
125.1294064097388
 21
397.6946053804343
 31
0.0
1001
AUSTER_ANSICHT
1002
{
1000
V
1002
}
1001
AUSTER_FOLIE
1002
{
1000
EINZELAUFSTELLUNG
1002
}
  0
LINE
  5
93E0
330
20
100
AcDbEntity
  8
10000_FRONT
  6
DASHED
 62
     7
370
    13
100
AcDbLine
 39
0.25
 10
130.7008024097389
 20
397.6946053804343
 30
0.0
 11
128.4301045097388
 21
397.6946053804343
 31
0.0
1001
AUSTER_ANSICHT
1002
{
1000
V
1002
}
1001
AUSTER_FOLIE
1002
{
1000
EINZELAUFSTELLUNG
1002
}
  0
LINE
  5
93E1
330
20
100
AcDbEntity
  8
10000_FRONT
  6
DASHED
 62
     7
370
    13
100
AcDbLine
 39
0.25
 10
128.4301045097388
 20
396.4860053804343
 30
0.0
 11
130.7008024097389
 21
396.4860053804343
 31
0.0
1001
AUSTER_ANSICHT
1002
{
1000
V
1002
}
1001
AUSTER_FOLIE
1002
{
1000
EINZELAUFSTELLUNG
1002
}
  0
LINE
  5
93E2
330
20
100
AcDbEntity
  8
10000_FRONT
  6
DASHED
 62
     7
370
    13
100
AcDbLine
 39
0.25
 10
125.1294064097388
 20
396.4860053804343
 30
0.0
 11
127.4001044097389
 21
396.4860053804343
 31
0.0
1001
AUSTER_ANSICHT
1002
{
1000
V
1002
}
1001
AUSTER_FOLIE
1002
{
1000
EINZELAUFSTELLUNG
1002
}
  0
LINE
  5
93E3
330
20
100
AcDbEntity
  8
10000_FRONT
  6
DASHED
 62
     7
370
    13
100
AcDbLine
 39
0.25
 10
117.7001074097388
 20
396.3057053804344
 30
0.0
 11
117.7001074097388
 21
396.4860053804343
 31
0.0
1001
AUSTER_ANSICHT
1002
{
1000
V
1002
}
1001
AUSTER_FOLIE
1002
{
1000
EINZELAUFSTELLUNG
1002
}
  0
LINE
  5
93E4
330
20
100
AcDbEntity
  8
10000_FRONT
  6
DASHED
 62
     7
370
    13
100
AcDbLine
 39
0.25
 10
117.7001074097388
 20
397.8748053804343
 30
0.0
 11
117.7001074097388
 21
397.6946053804343
 31
0.0
1001
AUSTER_ANSICHT
1002
{
1000
V
1002
}
1001
AUSTER_FOLIE
1002
{
1000
EINZELAUFSTELLUNG
1002
}
  0
LINE
  5
93E5
330
20
100
AcDbEntity
  8
10000_FRONT
  6
DASHED
 62
     7
370
    13
100
AcDbLine
 39
0.25
 10
118.7301074097388
 20
396.3057053804344
 30
0.0
 11
118.7301074097388
 21
396.4860053804343
 31
0.0
1001
AUSTER_ANSICHT
1002
{
1000
V
1002
}
1001
AUSTER_FOLIE
1002
{
1000
EINZELAUFSTELLUNG
1002
}
  0
LINE
  5
93E6
330
20
100
AcDbEntity
  8
10000_FRONT
  6
DASHED
 62
     7
370
    13
100
AcDbLine
 39
0.25
 10
118.7301074097388
 20
397.8748053804343
 30
0.0
 11
118.7301074097388
 21
397.6946053804343
 31
0.0
1001
AUSTER_ANSICHT
1002
{
1000
V
1002
}
1001
AUSTER_FOLIE
1002
{
1000
EINZELAUFSTELLUNG
1002
}
  0
LINE
  5
93E7
330
20
100
AcDbEntity
  8
10000_FRONT
  6
DASHED
 62
     7
370
    13
100
AcDbLine
 39
0.25
 10
117.7001074097388
 20
396.3057053804344
 30
0.0
 11
117.7001074097388
 21
395.3134053804344
 31
0.0
1001
AUSTER_ANSICHT
1002
{
1000
V
1002
}
1001
AUSTER_FOLIE
1002
{
1000
EINZELAUFSTELLUNG
1002
}
  0
LINE
  5
93E8
330
20
100
AcDbEntity
  8
10000_FRONT
  6
DASHED
 62
     7
370
    13
100
AcDbLine
 39
0.25
 10
118.7301074097388
 20
395.3134053804344
 30
0.0
 11
118.7301074097388
 21
396.3057053804344
 31
0.0
1001
AUSTER_ANSICHT
1002
{
1000
V
1002
}
1001
AUSTER_FOLIE
1002
{
1000
EINZELAUFSTELLUNG
1002
}
  0
LINE
  5
93E9
330
20
100
AcDbEntity
  8
10000_FRONT
  6
DASHED
 62
     7
370
    13
100
AcDbLine
 39
0.25
 10
118.7301074097388
 20
397.8748053804343
 30
0.0
 11
118.7301074097388
 21
398.8671053804343
 31
0.0
1001
AUSTER_ANSICHT
1002
{
1000
V
1002
}
1001
AUSTER_FOLIE
1002
{
1000
EINZELAUFSTELLUNG
1002
}
  0
LINE
  5
93EA
330
20
100
AcDbEntity
  8
10000_FRONT
  6
DASHED
 62
     7
370
    13
100
AcDbLine
 39
0.25
 10
117.7001074097388
 20
398.8671053804343
 30
0.0
 11
117.7001074097388
 21
397.8748053804343
 31
0.0
1001
AUSTER_ANSICHT
1002
{
1000
V
1002
}
1001
AUSTER_FOLIE
1002
{
1000
EINZELAUFSTELLUNG
1002
}
  0
LINE
  5
93EB
330
20
100
AcDbEntity
  8
10000_FRONT
  6
DASHED
 62
     7
370
    13
100
AcDbLine
 39
0.25
 10
117.7001074097388
 20
397.6946053804343
 30
0.0
 11
115.4294074097388
 21
397.6946053804343
 31
0.0
1001
AUSTER_ANSICHT
1002
{
1000
V
1002
}
1001
AUSTER_FOLIE
1002
{
1000
EINZELAUFSTELLUNG
1002
}
  0
LINE
  5
93EC
330
20
100
AcDbEntity
  8
10000_FRONT
  6
DASHED
 62
     7
370
    13
100
AcDbLine
 39
0.25
 10
121.0008024097388
 20
397.6946053804343
 30
0.0
 11
118.7301074097388
 21
397.6946053804343
 31
0.0
1001
AUSTER_ANSICHT
1002
{
1000
V
1002
}
1001
AUSTER_FOLIE
1002
{
1000
EINZELAUFSTELLUNG
1002
}
  0
LINE
  5
93ED
330
20
100
AcDbEntity
  8
10000_FRONT
  6
DASHED
 62
     7
370
    13
100
AcDbLine
 39
0.25
 10
118.7301074097388
 20
396.4860053804343
 30
0.0
 11
121.0008024097388
 21
396.4860053804343
 31
0.0
1001
AUSTER_ANSICHT
1002
{
1000
V
1002
}
1001
AUSTER_FOLIE
1002
{
1000
EINZELAUFSTELLUNG
1002
}
  0
LINE
  5
93EE
330
20
100
AcDbEntity
  8
10000_FRONT
  6
DASHED
 62
     7
370
    13
100
AcDbLine
 39
0.25
 10
115.4294074097388
 20
396.4860053804343
 30
0.0
 11
117.7001074097388
 21
396.4860053804343
 31
0.0
1001
AUSTER_ANSICHT
1002
{
1000
V
1002
}
1001
AUSTER_FOLIE
1002
{
1000
EINZELAUFSTELLUNG
1002
}
  0
LINE
  5
93EF
330
20
100
AcDbEntity
  8
10000_FRONT
  6
DASHED
 62
     7
370
    13
100
AcDbLine
 39
0.25
 10
105.6001074097387
 20
396.3057053804344
 30
0.0
 11
105.6001074097387
 21
396.4860053804343
 31
0.0
1001
AUSTER_ANSICHT
1002
{
1000
V
1002
}
1001
AUSTER_FOLIE
1002
{
1000
EINZELAUFSTELLUNG
1002
}
  0
LINE
  5
93F0
330
20
100
AcDbEntity
  8
10000_FRONT
  6
DASHED
 62
     7
370
    13
100
AcDbLine
 39
0.25
 10
105.6001074097387
 20
397.8748053804343
 30
0.0
 11
105.6001074097387
 21
397.6946053804343
 31
0.0
1001
AUSTER_ANSICHT
1002
{
1000
V
1002
}
1001
AUSTER_FOLIE
1002
{
1000
EINZELAUFSTELLUNG
1002
}
  0
LINE
  5
93F1
330
20
100
AcDbEntity
  8
10000_FRONT
  6
DASHED
 62
     7
370
    13
100
AcDbLine
 39
0.25
 10
106.6301074097389
 20
396.3057053804344
 30
0.0
 11
106.6301074097389
 21
396.4860053804343
 31
0.0
1001
AUSTER_ANSICHT
1002
{
1000
V
1002
}
1001
AUSTER_FOLIE
1002
{
1000
EINZELAUFSTELLUNG
1002
}
  0
LINE
  5
93F2
330
20
100
AcDbEntity
  8
10000_FRONT
  6
DASHED
 62
     7
370
    13
100
AcDbLine
 39
0.25
 10
106.6301074097389
 20
397.8748053804343
 30
0.0
 11
106.6301074097389
 21
397.6946053804343
 31
0.0
1001
AUSTER_ANSICHT
1002
{
1000
V
1002
}
1001
AUSTER_FOLIE
1002
{
1000
EINZELAUFSTELLUNG
1002
}
  0
LINE
  5
93F3
330
20
100
AcDbEntity
  8
10000_FRONT
  6
DASHED
 62
     7
370
    13
100
AcDbLine
 39
0.25
 10
105.6001074097387
 20
396.3057053804344
 30
0.0
 11
105.6001074097387
 21
395.3134053804344
 31
0.0
1001
AUSTER_ANSICHT
1002
{
1000
V
1002
}
1001
AUSTER_FOLIE
1002
{
1000
EINZELAUFSTELLUNG
1002
}
  0
LINE
  5
93F4
330
20
100
AcDbEntity
  8
10000_FRONT
  6
DASHED
 62
     7
370
    13
100
AcDbLine
 39
0.25
 10
106.6301074097389
 20
395.3134053804344
 30
0.0
 11
106.6301074097389
 21
396.3057053804344
 31
0.0
1001
AUSTER_ANSICHT
1002
{
1000
V
1002
}
1001
AUSTER_FOLIE
1002
{
1000
EINZELAUFSTELLUNG
1002
}
  0
LINE
  5
93F5
330
20
100
AcDbEntity
  8
10000_FRONT
  6
DASHED
 62
     7
370
    13
100
AcDbLine
 39
0.25
 10
106.6301074097389
 20
397.8748053804343
 30
0.0
 11
106.6301074097389
 21
398.8671053804343
 31
0.0
1001
AUSTER_ANSICHT
1002
{
1000
V
1002
}
1001
AUSTER_FOLIE
1002
{
1000
EINZELAUFSTELLUNG
1002
}
  0
LINE
  5
93F6
330
20
100
AcDbEntity
  8
10000_FRONT
  6
DASHED
 62
     7
370
    13
100
AcDbLine
 39
0.25
 10
105.6001074097387
 20
398.8671053804343
 30
0.0
 11
105.6001074097387
 21
397.8748053804343
 31
0.0
1001
AUSTER_ANSICHT
1002
{
1000
V
1002
}
1001
AUSTER_FOLIE
1002
{
1000
EINZELAUFSTELLUNG
1002
}
  0
LINE
  5
93F7
330
20
100
AcDbEntity
  8
10000_FRONT
  6
DASHED
 62
     7
370
    13
100
AcDbLine
 39
0.25
 10
105.6001074097387
 20
397.6946053804343
 30
0.0
 11
103.3294074097389
 21
397.6946053804343
 31
0.0
1001
AUSTER_ANSICHT
1002
{
1000
V
1002
}
1001
AUSTER_FOLIE
1002
{
1000
EINZELAUFSTELLUNG
1002
}
  0
LINE
  5
93F8
330
20
100
AcDbEntity
  8
10000_FRONT
  6
DASHED
 62
     7
370
    13
100
AcDbLine
 39
0.25
 10
108.9008074097388
 20
397.6946053804343
 30
0.0
 11
106.6301074097389
 21
397.6946053804343
 31
0.0
1001
AUSTER_ANSICHT
1002
{
1000
V
1002
}
1001
AUSTER_FOLIE
1002
{
1000
EINZELAUFSTELLUNG
1002
}
  0
LINE
  5
93F9
330
20
100
AcDbEntity
  8
10000_FRONT
  6
DASHED
 62
     7
370
    13
100
AcDbLine
 39
0.25
 10
106.6301074097389
 20
396.4860053804343
 30
0.0
 11
108.9008074097388
 21
396.4860053804343
 31
0.0
1001
AUSTER_ANSICHT
1002
{
1000
V
1002
}
1001
AUSTER_FOLIE
1002
{
1000
EINZELAUFSTELLUNG
1002
}
  0
LINE
  5
93FA
330
20
100
AcDbEntity
  8
10000_FRONT
  6
DASHED
 62
     7
370
    13
100
AcDbLine
 39
0.25
 10
103.3294074097389
 20
396.4860053804343
 30
0.0
 11
105.6001074097387
 21
396.4860053804343
 31
0.0
1001
AUSTER_ANSICHT
1002
{
1000
V
1002
}
1001
AUSTER_FOLIE
1002
{
1000
EINZELAUFSTELLUNG
1002
}
  0
LINE
  5
93FB
330
20
100
AcDbEntity
  8
10000_FRONT
  6
DASHED
 62
     7
370
    13
100
AcDbLine
 39
0.25
 10
93.50010740973891
 20
396.3057053804344
 30
0.0
 11
93.50010740973891
 21
396.4860053804343
 31
0.0
1001
AUSTER_ANSICHT
1002
{
1000
V
1002
}
1001
AUSTER_FOLIE
1002
{
1000
EINZELAUFSTELLUNG
1002
}
  0
LINE
  5
93FC
330
20
100
AcDbEntity
  8
10000_FRONT
  6
DASHED
 62
     7
370
    13
100
AcDbLine
 39
0.25
 10
93.50010740973891
 20
397.8748053804343
 30
0.0
 11
93.50010740973891
 21
397.6946053804343
 31
0.0
1001
AUSTER_ANSICHT
1002
{
1000
V
1002
}
1001
AUSTER_FOLIE
1002
{
1000
EINZELAUFSTELLUNG
1002
}
  0
LINE
  5
93FD
330
20
100
AcDbEntity
  8
10000_FRONT
  6
DASHED
 62
     7
370
    13
100
AcDbLine
 39
0.25
 10
94.53010740973889
 20
396.3057053804344
 30
0.0
 11
94.53010740973889
 21
396.4860053804343
 31
0.0
1001
AUSTER_ANSICHT
1002
{
1000
V
1002
}
1001
AUSTER_FOLIE
1002
{
1000
EINZELAUFSTELLUNG
1002
}
  0
LINE
  5
93FE
330
20
100
AcDbEntity
  8
10000_FRONT
  6
DASHED
 62
     7
370
    13
100
AcDbLine
 39
0.25
 10
94.53010740973889
 20
397.8748053804343
 30
0.0
 11
94.53010740973889
 21
397.6946053804343
 31
0.0
1001
AUSTER_ANSICHT
1002
{
1000
V
1002
}
1001
AUSTER_FOLIE
1002
{
1000
EINZELAUFSTELLUNG
1002
}
  0
LINE
  5
93FF
330
20
100
AcDbEntity
  8
10000_FRONT
  6
DASHED
 62
     7
370
    13
100
AcDbLine
 39
0.25
 10
93.50010740973891
 20
396.3057053804344
 30
0.0
 11
93.50010740973891
 21
395.3134053804344
 31
0.0
1001
AUSTER_ANSICHT
1002
{
1000
V
1002
}
1001
AUSTER_FOLIE
1002
{
1000
EINZELAUFSTELLUNG
1002
}
  0
LINE
  5
9400
330
20
100
AcDbEntity
  8
10000_FRONT
  6
DASHED
 62
     7
370
    13
100
AcDbLine
 39
0.25
 10
94.53010740973889
 20
395.3134053804344
 30
0.0
 11
94.53010740973889
 21
396.3057053804344
 31
0.0
1001
AUSTER_ANSICHT
1002
{
1000
V
1002
}
1001
AUSTER_FOLIE
1002
{
1000
EINZELAUFSTELLUNG
1002
}
  0
LINE
  5
9401
330
20
100
AcDbEntity
  8
10000_FRONT
  6
DASHED
 62
     7
370
    13
100
AcDbLine
 39
0.25
 10
94.53010740973889
 20
397.8748053804343
 30
0.0
 11
94.53010740973889
 21
398.8671053804343
 31
0.0
1001
AUSTER_ANSICHT
1002
{
1000
V
1002
}
1001
AUSTER_FOLIE
1002
{
1000
EINZELAUFSTELLUNG
1002
}
  0
LINE
  5
9402
330
20
100
AcDbEntity
  8
10000_FRONT
  6
DASHED
 62
     7
370
    13
100
AcDbLine
 39
0.25
 10
93.50010740973891
 20
398.8671053804343
 30
0.0
 11
93.50010740973891
 21
397.8748053804343
 31
0.0
1001
AUSTER_ANSICHT
1002
{
1000
V
1002
}
1001
AUSTER_FOLIE
1002
{
1000
EINZELAUFSTELLUNG
1002
}
  0
LINE
  5
9403
330
20
100
AcDbEntity
  8
10000_FRONT
  6
DASHED
 62
     7
370
    13
100
AcDbLine
 39
0.25
 10
93.50010740973891
 20
397.6946053804343
 30
0.0
 11
91.22940740973888
 21
397.6946053804343
 31
0.0
1001
AUSTER_ANSICHT
1002
{
1000
V
1002
}
1001
AUSTER_FOLIE
1002
{
1000
EINZELAUFSTELLUNG
1002
}
  0
LINE
  5
9404
330
20
100
AcDbEntity
  8
10000_FRONT
  6
DASHED
 62
     7
370
    13
100
AcDbLine
 39
0.25
 10
96.80080740973892
 20
397.6946053804343
 30
0.0
 11
94.53010740973889
 21
397.6946053804343
 31
0.0
1001
AUSTER_ANSICHT
1002
{
1000
V
1002
}
1001
AUSTER_FOLIE
1002
{
1000
EINZELAUFSTELLUNG
1002
}
  0
LINE
  5
9405
330
20
100
AcDbEntity
  8
10000_FRONT
  6
DASHED
 62
     7
370
    13
100
AcDbLine
 39
0.25
 10
94.53010740973889
 20
396.4860053804343
 30
0.0
 11
96.80080740973892
 21
396.4860053804343
 31
0.0
1001
AUSTER_ANSICHT
1002
{
1000
V
1002
}
1001
AUSTER_FOLIE
1002
{
1000
EINZELAUFSTELLUNG
1002
}
  0
LINE
  5
9406
330
20
100
AcDbEntity
  8
10000_FRONT
  6
DASHED
 62
     7
370
    13
100
AcDbLine
 39
0.25
 10
91.22940740973888
 20
396.4860053804343
 30
0.0
 11
93.50010740973891
 21
396.4860053804343
 31
0.0
1001
AUSTER_ANSICHT
1002
{
1000
V
1002
}
1001
AUSTER_FOLIE
1002
{
1000
EINZELAUFSTELLUNG
1002
}
  0
LINE
  5
9407
330
20
100
AcDbEntity
  8
10000_FRONT
  6
DASHED
 62
     7
370
    13
100
AcDbLine
 39
0.25
 10
127.4501224097388
 20
410.3557053804341
 30
0.0
 11
127.4501204097388
 21
410.5359053804343
 31
0.0
1001
AUSTER_ANSICHT
1002
{
1000
V
1002
}
1001
AUSTER_FOLIE
1002
{
1000
EINZELAUFSTELLUNG
1002
}
  0
LINE
  5
9408
330
20
100
AcDbEntity
  8
10000_FRONT
  6
DASHED
 62
     7
370
    13
100
AcDbLine
 39
0.25
 10
127.4501204097388
 20
411.9248053804343
 30
0.0
 11
127.4501204097388
 21
411.7446053804343
 31
0.0
1001
AUSTER_ANSICHT
1002
{
1000
V
1002
}
1001
AUSTER_FOLIE
1002
{
1000
EINZELAUFSTELLUNG
1002
}
  0
LINE
  5
9409
330
20
100
AcDbEntity
  8
10000_FRONT
  6
DASHED
 62
     7
370
    13
100
AcDbLine
 39
0.25
 10
128.4801190097388
 20
410.3557053804341
 30
0.0
 11
128.4801205097388
 21
410.5359053804343
 31
0.0
1001
AUSTER_ANSICHT
1002
{
1000
V
1002
}
1001
AUSTER_FOLIE
1002
{
1000
EINZELAUFSTELLUNG
1002
}
  0
LINE
  5
940A
330
20
100
AcDbEntity
  8
10000_FRONT
  6
DASHED
 62
     7
370
    13
100
AcDbLine
 39
0.25
 10
128.4801190097388
 20
411.9248053804343
 30
0.0
 11
128.4801205097388
 21
411.7446053804343
 31
0.0
1001
AUSTER_ANSICHT
1002
{
1000
V
1002
}
1001
AUSTER_FOLIE
1002
{
1000
EINZELAUFSTELLUNG
1002
}
  0
LINE
  5
940B
330
20
100
AcDbEntity
  8
10000_FRONT
  6
DASHED
 62
     7
370
    13
100
AcDbLine
 39
0.25
 10
127.4501224097388
 20
410.3557053804341
 30
0.0
 11
127.4501204097388
 21
409.3634053804342
 31
0.0
1001
AUSTER_ANSICHT
1002
{
1000
V
1002
}
1001
AUSTER_FOLIE
1002
{
1000
EINZELAUFSTELLUNG
1002
}
  0
LINE
  5
940C
330
20
100
AcDbEntity
  8
10000_FRONT
  6
DASHED
 62
     7
370
    13
100
AcDbLine
 39
0.25
 10
128.4801205097388
 20
409.3634053804342
 30
0.0
 11
128.4801205097388
 21
410.3557053804341
 31
0.0
1001
AUSTER_ANSICHT
1002
{
1000
V
1002
}
1001
AUSTER_FOLIE
1002
{
1000
EINZELAUFSTELLUNG
1002
}
  0
LINE
  5
940D
330
20
100
AcDbEntity
  8
10000_FRONT
  6
DASHED
 62
     7
370
    13
100
AcDbLine
 39
0.25
 10
128.4801205097388
 20
411.9248053804343
 30
0.0
 11
128.4801205097388
 21
412.9171053804343
 31
0.0
1001
AUSTER_ANSICHT
1002
{
1000
V
1002
}
1001
AUSTER_FOLIE
1002
{
1000
EINZELAUFSTELLUNG
1002
}
  0
LINE
  5
940E
330
20
100
AcDbEntity
  8
10000_FRONT
  6
DASHED
 62
     7
370
    13
100
AcDbLine
 39
0.25
 10
127.4501204097388
 20
412.9171053804343
 30
0.0
 11
127.4501204097388
 21
411.9248053804343
 31
0.0
1001
AUSTER_ANSICHT
1002
{
1000
V
1002
}
1001
AUSTER_FOLIE
1002
{
1000
EINZELAUFSTELLUNG
1002
}
  0
LINE
  5
940F
330
20
100
AcDbEntity
  8
10000_FRONT
  6
DASHED
 62
     7
370
    13
100
AcDbLine
 39
0.25
 10
127.4501204097388
 20
411.7446053804343
 30
0.0
 11
125.1794224097389
 21
411.7446053804343
 31
0.0
1001
AUSTER_ANSICHT
1002
{
1000
V
1002
}
1001
AUSTER_FOLIE
1002
{
1000
EINZELAUFSTELLUNG
1002
}
  0
LINE
  5
9410
330
20
100
AcDbEntity
  8
10000_FRONT
  6
DASHED
 62
     7
370
    13
100
AcDbLine
 39
0.25
 10
130.7508184097388
 20
411.7446053804343
 30
0.0
 11
128.4801205097388
 21
411.7446053804343
 31
0.0
1001
AUSTER_ANSICHT
1002
{
1000
V
1002
}
1001
AUSTER_FOLIE
1002
{
1000
EINZELAUFSTELLUNG
1002
}
  0
LINE
  5
9411
330
20
100
AcDbEntity
  8
10000_FRONT
  6
DASHED
 62
     7
370
    13
100
AcDbLine
 39
0.25
 10
128.4801205097388
 20
410.5359053804343
 30
0.0
 11
130.7508184097388
 21
410.5359053804343
 31
0.0
1001
AUSTER_ANSICHT
1002
{
1000
V
1002
}
1001
AUSTER_FOLIE
1002
{
1000
EINZELAUFSTELLUNG
1002
}
  0
LINE
  5
9412
330
20
100
AcDbEntity
  8
10000_FRONT
  6
DASHED
 62
     7
370
    13
100
AcDbLine
 39
0.25
 10
125.1794224097389
 20
410.5359053804343
 30
0.0
 11
127.4501204097388
 21
410.5359053804343
 31
0.0
1001
AUSTER_ANSICHT
1002
{
1000
V
1002
}
1001
AUSTER_FOLIE
1002
{
1000
EINZELAUFSTELLUNG
1002
}
  0
LINE
  5
9413
330
20
100
AcDbEntity
  8
10000_FRONT
  6
DASHED
 62
     7
370
    13
100
AcDbLine
 39
0.25
 10
118.8501174097389
 20
410.3557053804341
 30
0.0
 11
118.8501174097389
 21
410.5359053804343
 31
0.0
1001
AUSTER_ANSICHT
1002
{
1000
V
1002
}
1001
AUSTER_FOLIE
1002
{
1000
EINZELAUFSTELLUNG
1002
}
  0
LINE
  5
9414
330
20
100
AcDbEntity
  8
10000_FRONT
  6
DASHED
 62
     7
370
    13
100
AcDbLine
 39
0.25
 10
118.8501174097389
 20
411.9248053804343
 30
0.0
 11
118.8501174097389
 21
411.7446053804343
 31
0.0
1001
AUSTER_ANSICHT
1002
{
1000
V
1002
}
1001
AUSTER_FOLIE
1002
{
1000
EINZELAUFSTELLUNG
1002
}
  0
LINE
  5
9415
330
20
100
AcDbEntity
  8
10000_FRONT
  6
DASHED
 62
     7
370
    13
100
AcDbLine
 39
0.25
 10
119.8801194097389
 20
410.3557053804341
 30
0.0
 11
119.8801204097389
 21
410.5359053804343
 31
0.0
1001
AUSTER_ANSICHT
1002
{
1000
V
1002
}
1001
AUSTER_FOLIE
1002
{
1000
EINZELAUFSTELLUNG
1002
}
  0
LINE
  5
9416
330
20
100
AcDbEntity
  8
10000_FRONT
  6
DASHED
 62
     7
370
    13
100
AcDbLine
 39
0.25
 10
119.8801194097389
 20
411.9248053804343
 30
0.0
 11
119.8801204097389
 21
411.7446053804343
 31
0.0
1001
AUSTER_ANSICHT
1002
{
1000
V
1002
}
1001
AUSTER_FOLIE
1002
{
1000
EINZELAUFSTELLUNG
1002
}
  0
LINE
  5
9417
330
20
100
AcDbEntity
  8
10000_FRONT
  6
DASHED
 62
     7
370
    13
100
AcDbLine
 39
0.25
 10
118.8501174097389
 20
410.3557053804341
 30
0.0
 11
118.8501174097389
 21
409.3634053804342
 31
0.0
1001
AUSTER_ANSICHT
1002
{
1000
V
1002
}
1001
AUSTER_FOLIE
1002
{
1000
EINZELAUFSTELLUNG
1002
}
  0
LINE
  5
9418
330
20
100
AcDbEntity
  8
10000_FRONT
  6
DASHED
 62
     7
370
    13
100
AcDbLine
 39
0.25
 10
119.8801204097389
 20
409.3634053804342
 30
0.0
 11
119.8801204097389
 21
410.3557053804341
 31
0.0
1001
AUSTER_ANSICHT
1002
{
1000
V
1002
}
1001
AUSTER_FOLIE
1002
{
1000
EINZELAUFSTELLUNG
1002
}
  0
LINE
  5
9419
330
20
100
AcDbEntity
  8
10000_FRONT
  6
DASHED
 62
     7
370
    13
100
AcDbLine
 39
0.25
 10
119.8801204097389
 20
411.9248053804343
 30
0.0
 11
119.8801204097389
 21
412.9171053804343
 31
0.0
1001
AUSTER_ANSICHT
1002
{
1000
V
1002
}
1001
AUSTER_FOLIE
1002
{
1000
EINZELAUFSTELLUNG
1002
}
  0
LINE
  5
941A
330
20
100
AcDbEntity
  8
10000_FRONT
  6
DASHED
 62
     7
370
    13
100
AcDbLine
 39
0.25
 10
118.8501174097389
 20
412.9171053804343
 30
0.0
 11
118.8501174097389
 21
411.9248053804343
 31
0.0
1001
AUSTER_ANSICHT
1002
{
1000
V
1002
}
1001
AUSTER_FOLIE
1002
{
1000
EINZELAUFSTELLUNG
1002
}
  0
LINE
  5
941B
330
20
100
AcDbEntity
  8
10000_FRONT
  6
DASHED
 62
     7
370
    13
100
AcDbLine
 39
0.25
 10
118.8501174097389
 20
411.7446053804343
 30
0.0
 11
116.5794274097388
 21
411.7446053804343
 31
0.0
1001
AUSTER_ANSICHT
1002
{
1000
V
1002
}
1001
AUSTER_FOLIE
1002
{
1000
EINZELAUFSTELLUNG
1002
}
  0
LINE
  5
941C
330
20
100
AcDbEntity
  8
10000_FRONT
  6
DASHED
 62
     7
370
    13
100
AcDbLine
 39
0.25
 10
122.1508184097389
 20
411.7446053804343
 30
0.0
 11
119.8801204097389
 21
411.7446053804343
 31
0.0
1001
AUSTER_ANSICHT
1002
{
1000
V
1002
}
1001
AUSTER_FOLIE
1002
{
1000
EINZELAUFSTELLUNG
1002
}
  0
LINE
  5
941D
330
20
100
AcDbEntity
  8
10000_FRONT
  6
DASHED
 62
     7
370
    13
100
AcDbLine
 39
0.25
 10
119.8801204097389
 20
410.5359053804343
 30
0.0
 11
122.1508184097389
 21
410.5359053804343
 31
0.0
1001
AUSTER_ANSICHT
1002
{
1000
V
1002
}
1001
AUSTER_FOLIE
1002
{
1000
EINZELAUFSTELLUNG
1002
}
  0
LINE
  5
941E
330
20
100
AcDbEntity
  8
10000_FRONT
  6
DASHED
 62
     7
370
    13
100
AcDbLine
 39
0.25
 10
116.5794274097388
 20
410.5359053804343
 30
0.0
 11
118.8501174097389
 21
410.5359053804343
 31
0.0
1001
AUSTER_ANSICHT
1002
{
1000
V
1002
}
1001
AUSTER_FOLIE
1002
{
1000
EINZELAUFSTELLUNG
1002
}
  0
LINE
  5
941F
330
20
100
AcDbEntity
  8
10000_FRONT
  6
DASHED
 62
     7
370
    13
100
AcDbLine
 39
0.25
 10
110.2501174097389
 20
410.3557053804341
 30
0.0
 11
110.2501174097389
 21
410.5359053804343
 31
0.0
1001
AUSTER_ANSICHT
1002
{
1000
V
1002
}
1001
AUSTER_FOLIE
1002
{
1000
EINZELAUFSTELLUNG
1002
}
  0
LINE
  5
9420
330
20
100
AcDbEntity
  8
10000_FRONT
  6
DASHED
 62
     7
370
    13
100
AcDbLine
 39
0.25
 10
110.2501174097389
 20
411.9248053804343
 30
0.0
 11
110.2501174097389
 21
411.7446053804343
 31
0.0
1001
AUSTER_ANSICHT
1002
{
1000
V
1002
}
1001
AUSTER_FOLIE
1002
{
1000
EINZELAUFSTELLUNG
1002
}
  0
LINE
  5
9421
330
20
100
AcDbEntity
  8
10000_FRONT
  6
DASHED
 62
     7
370
    13
100
AcDbLine
 39
0.25
 10
111.2801174097388
 20
410.3557053804341
 30
0.0
 11
111.2801174097388
 21
410.5359053804343
 31
0.0
1001
AUSTER_ANSICHT
1002
{
1000
V
1002
}
1001
AUSTER_FOLIE
1002
{
1000
EINZELAUFSTELLUNG
1002
}
  0
LINE
  5
9422
330
20
100
AcDbEntity
  8
10000_FRONT
  6
DASHED
 62
     7
370
    13
100
AcDbLine
 39
0.25
 10
111.2801174097388
 20
411.9248053804343
 30
0.0
 11
111.2801174097388
 21
411.7446053804343
 31
0.0
1001
AUSTER_ANSICHT
1002
{
1000
V
1002
}
1001
AUSTER_FOLIE
1002
{
1000
EINZELAUFSTELLUNG
1002
}
  0
LINE
  5
9423
330
20
100
AcDbEntity
  8
10000_FRONT
  6
DASHED
 62
     7
370
    13
100
AcDbLine
 39
0.25
 10
110.2501174097389
 20
410.3557053804341
 30
0.0
 11
110.2501174097389
 21
409.3634053804342
 31
0.0
1001
AUSTER_ANSICHT
1002
{
1000
V
1002
}
1001
AUSTER_FOLIE
1002
{
1000
EINZELAUFSTELLUNG
1002
}
  0
LINE
  5
9424
330
20
100
AcDbEntity
  8
10000_FRONT
  6
DASHED
 62
     7
370
    13
100
AcDbLine
 39
0.25
 10
111.2801174097388
 20
409.3634053804342
 30
0.0
 11
111.2801174097388
 21
410.3557053804341
 31
0.0
1001
AUSTER_ANSICHT
1002
{
1000
V
1002
}
1001
AUSTER_FOLIE
1002
{
1000
EINZELAUFSTELLUNG
1002
}
  0
LINE
  5
9425
330
20
100
AcDbEntity
  8
10000_FRONT
  6
DASHED
 62
     7
370
    13
100
AcDbLine
 39
0.25
 10
111.2801174097388
 20
411.9248053804343
 30
0.0
 11
111.2801174097388
 21
412.9171053804343
 31
0.0
1001
AUSTER_ANSICHT
1002
{
1000
V
1002
}
1001
AUSTER_FOLIE
1002
{
1000
EINZELAUFSTELLUNG
1002
}
  0
LINE
  5
9426
330
20
100
AcDbEntity
  8
10000_FRONT
  6
DASHED
 62
     7
370
    13
100
AcDbLine
 39
0.25
 10
110.2501174097389
 20
412.9171053804343
 30
0.0
 11
110.2501174097389
 21
411.9248053804343
 31
0.0
1001
AUSTER_ANSICHT
1002
{
1000
V
1002
}
1001
AUSTER_FOLIE
1002
{
1000
EINZELAUFSTELLUNG
1002
}
  0
LINE
  5
9427
330
20
100
AcDbEntity
  8
10000_FRONT
  6
DASHED
 62
     7
370
    13
100
AcDbLine
 39
0.25
 10
110.2501174097389
 20
411.7446053804343
 30
0.0
 11
107.9794274097388
 21
411.7446053804343
 31
0.0
1001
AUSTER_ANSICHT
1002
{
1000
V
1002
}
1001
AUSTER_FOLIE
1002
{
1000
EINZELAUFSTELLUNG
1002
}
  0
LINE
  5
9428
330
20
100
AcDbEntity
  8
10000_FRONT
  6
DASHED
 62
     7
370
    13
100
AcDbLine
 39
0.25
 10
113.5508174097389
 20
411.7446053804343
 30
0.0
 11
111.2801174097388
 21
411.7446053804343
 31
0.0
1001
AUSTER_ANSICHT
1002
{
1000
V
1002
}
1001
AUSTER_FOLIE
1002
{
1000
EINZELAUFSTELLUNG
1002
}
  0
LINE
  5
9429
330
20
100
AcDbEntity
  8
10000_FRONT
  6
DASHED
 62
     7
370
    13
100
AcDbLine
 39
0.25
 10
111.2801174097388
 20
410.5359053804343
 30
0.0
 11
113.5508174097389
 21
410.5359053804343
 31
0.0
1001
AUSTER_ANSICHT
1002
{
1000
V
1002
}
1001
AUSTER_FOLIE
1002
{
1000
EINZELAUFSTELLUNG
1002
}
  0
LINE
  5
942A
330
20
100
AcDbEntity
  8
10000_FRONT
  6
DASHED
 62
     7
370
    13
100
AcDbLine
 39
0.25
 10
107.9794274097388
 20
410.5359053804343
 30
0.0
 11
110.2501174097389
 21
410.5359053804343
 31
0.0
1001
AUSTER_ANSICHT
1002
{
1000
V
1002
}
1001
AUSTER_FOLIE
1002
{
1000
EINZELAUFSTELLUNG
1002
}
  0
LINE
  5
942B
330
20
100
AcDbEntity
  8
10000_FRONT
  6
DASHED
 62
     7
370
    13
100
AcDbLine
 39
0.25
 10
101.6501174097388
 20
410.3557053804341
 30
0.0
 11
101.6501174097388
 21
410.5359053804343
 31
0.0
1001
AUSTER_ANSICHT
1002
{
1000
V
1002
}
1001
AUSTER_FOLIE
1002
{
1000
EINZELAUFSTELLUNG
1002
}
  0
LINE
  5
942C
330
20
100
AcDbEntity
  8
10000_FRONT
  6
DASHED
 62
     7
370
    13
100
AcDbLine
 39
0.25
 10
101.6501174097388
 20
411.9248053804343
 30
0.0
 11
101.6501174097388
 21
411.7446053804343
 31
0.0
1001
AUSTER_ANSICHT
1002
{
1000
V
1002
}
1001
AUSTER_FOLIE
1002
{
1000
EINZELAUFSTELLUNG
1002
}
  0
LINE
  5
942D
330
20
100
AcDbEntity
  8
10000_FRONT
  6
DASHED
 62
     7
370
    13
100
AcDbLine
 39
0.25
 10
102.6801174097388
 20
410.3557053804341
 30
0.0
 11
102.6801174097388
 21
410.5359053804343
 31
0.0
1001
AUSTER_ANSICHT
1002
{
1000
V
1002
}
1001
AUSTER_FOLIE
1002
{
1000
EINZELAUFSTELLUNG
1002
}
  0
LINE
  5
942E
330
20
100
AcDbEntity
  8
10000_FRONT
  6
DASHED
 62
     7
370
    13
100
AcDbLine
 39
0.25
 10
102.6801174097388
 20
411.9248053804343
 30
0.0
 11
102.6801174097388
 21
411.7446053804343
 31
0.0
1001
AUSTER_ANSICHT
1002
{
1000
V
1002
}
1001
AUSTER_FOLIE
1002
{
1000
EINZELAUFSTELLUNG
1002
}
  0
LINE
  5
942F
330
20
100
AcDbEntity
  8
10000_FRONT
  6
DASHED
 62
     7
370
    13
100
AcDbLine
 39
0.25
 10
101.6501174097388
 20
410.3557053804341
 30
0.0
 11
101.6501174097388
 21
409.3634053804342
 31
0.0
1001
AUSTER_ANSICHT
1002
{
1000
V
1002
}
1001
AUSTER_FOLIE
1002
{
1000
EINZELAUFSTELLUNG
1002
}
  0
LINE
  5
9430
330
20
100
AcDbEntity
  8
10000_FRONT
  6
DASHED
 62
     7
370
    13
100
AcDbLine
 39
0.25
 10
102.6801174097388
 20
409.3634053804342
 30
0.0
 11
102.6801174097388
 21
410.3557053804341
 31
0.0
1001
AUSTER_ANSICHT
1002
{
1000
V
1002
}
1001
AUSTER_FOLIE
1002
{
1000
EINZELAUFSTELLUNG
1002
}
  0
LINE
  5
9431
330
20
100
AcDbEntity
  8
10000_FRONT
  6
DASHED
 62
     7
370
    13
100
AcDbLine
 39
0.25
 10
102.6801174097388
 20
411.9248053804343
 30
0.0
 11
102.6801174097388
 21
412.9171053804343
 31
0.0
1001
AUSTER_ANSICHT
1002
{
1000
V
1002
}
1001
AUSTER_FOLIE
1002
{
1000
EINZELAUFSTELLUNG
1002
}
  0
LINE
  5
9432
330
20
100
AcDbEntity
  8
10000_FRONT
  6
DASHED
 62
     7
370
    13
100
AcDbLine
 39
0.25
 10
101.6501174097388
 20
412.9171053804343
 30
0.0
 11
101.6501174097388
 21
411.9248053804343
 31
0.0
1001
AUSTER_ANSICHT
1002
{
1000
V
1002
}
1001
AUSTER_FOLIE
1002
{
1000
EINZELAUFSTELLUNG
1002
}
  0
LINE
  5
9433
330
20
100
AcDbEntity
  8
10000_FRONT
  6
DASHED
 62
     7
370
    13
100
AcDbLine
 39
0.25
 10
101.6501174097388
 20
411.7446053804343
 30
0.0
 11
99.37942740973893
 21
411.7446053804343
 31
0.0
1001
AUSTER_ANSICHT
1002
{
1000
V
1002
}
1001
AUSTER_FOLIE
1002
{
1000
EINZELAUFSTELLUNG
1002
}
  0
LINE
  5
9434
330
20
100
AcDbEntity
  8
10000_FRONT
  6
DASHED
 62
     7
370
    13
100
AcDbLine
 39
0.25
 10
104.9508174097389
 20
411.7446053804343
 30
0.0
 11
102.6801174097388
 21
411.7446053804343
 31
0.0
1001
AUSTER_ANSICHT
1002
{
1000
V
1002
}
1001
AUSTER_FOLIE
1002
{
1000
EINZELAUFSTELLUNG
1002
}
  0
LINE
  5
9435
330
20
100
AcDbEntity
  8
10000_FRONT
  6
DASHED
 62
     7
370
    13
100
AcDbLine
 39
0.25
 10
102.6801174097388
 20
410.5359053804343
 30
0.0
 11
104.9508174097389
 21
410.5359053804343
 31
0.0
1001
AUSTER_ANSICHT
1002
{
1000
V
1002
}
1001
AUSTER_FOLIE
1002
{
1000
EINZELAUFSTELLUNG
1002
}
  0
LINE
  5
9436
330
20
100
AcDbEntity
  8
10000_FRONT
  6
DASHED
 62
     7
370
    13
100
AcDbLine
 39
0.25
 10
99.37942740973893
 20
410.5359053804343
 30
0.0
 11
101.6501174097388
 21
410.5359053804343
 31
0.0
1001
AUSTER_ANSICHT
1002
{
1000
V
1002
}
1001
AUSTER_FOLIE
1002
{
1000
EINZELAUFSTELLUNG
1002
}
  0
LINE
  5
9437
330
20
100
AcDbEntity
  8
10000_FRONT
  6
DASHED
 62
     7
370
    13
100
AcDbLine
 39
0.25
 10
93.05011740973885
 20
410.3557053804341
 30
0.0
 11
93.05011740973885
 21
410.5359053804343
 31
0.0
1001
AUSTER_ANSICHT
1002
{
1000
V
1002
}
1001
AUSTER_FOLIE
1002
{
1000
EINZELAUFSTELLUNG
1002
}
  0
LINE
  5
9438
330
20
100
AcDbEntity
  8
10000_FRONT
  6
DASHED
 62
     7
370
    13
100
AcDbLine
 39
0.25
 10
93.05011740973885
 20
411.9248053804343
 30
0.0
 11
93.05011740973885
 21
411.7446053804343
 31
0.0
1001
AUSTER_ANSICHT
1002
{
1000
V
1002
}
1001
AUSTER_FOLIE
1002
{
1000
EINZELAUFSTELLUNG
1002
}
  0
LINE
  5
9439
330
20
100
AcDbEntity
  8
10000_FRONT
  6
DASHED
 62
     7
370
    13
100
AcDbLine
 39
0.25
 10
94.08011740973879
 20
410.3557053804341
 30
0.0
 11
94.08011740973879
 21
410.5359053804343
 31
0.0
1001
AUSTER_ANSICHT
1002
{
1000
V
1002
}
1001
AUSTER_FOLIE
1002
{
1000
EINZELAUFSTELLUNG
1002
}
  0
LINE
  5
943A
330
20
100
AcDbEntity
  8
10000_FRONT
  6
DASHED
 62
     7
370
    13
100
AcDbLine
 39
0.25
 10
94.08011740973879
 20
411.9248053804343
 30
0.0
 11
94.08011740973879
 21
411.7446053804343
 31
0.0
1001
AUSTER_ANSICHT
1002
{
1000
V
1002
}
1001
AUSTER_FOLIE
1002
{
1000
EINZELAUFSTELLUNG
1002
}
  0
LINE
  5
943B
330
20
100
AcDbEntity
  8
10000_FRONT
  6
DASHED
 62
     7
370
    13
100
AcDbLine
 39
0.25
 10
93.05011740973885
 20
410.3557053804341
 30
0.0
 11
93.05011740973885
 21
409.3634053804342
 31
0.0
1001
AUSTER_ANSICHT
1002
{
1000
V
1002
}
1001
AUSTER_FOLIE
1002
{
1000
EINZELAUFSTELLUNG
1002
}
  0
LINE
  5
943C
330
20
100
AcDbEntity
  8
10000_FRONT
  6
DASHED
 62
     7
370
    13
100
AcDbLine
 39
0.25
 10
94.08011740973879
 20
409.3634053804342
 30
0.0
 11
94.08011740973879
 21
410.3557053804341
 31
0.0
1001
AUSTER_ANSICHT
1002
{
1000
V
1002
}
1001
AUSTER_FOLIE
1002
{
1000
EINZELAUFSTELLUNG
1002
}
  0
LINE
  5
943D
330
20
100
AcDbEntity
  8
10000_FRONT
  6
DASHED
 62
     7
370
    13
100
AcDbLine
 39
0.25
 10
94.08011740973879
 20
411.9248053804343
 30
0.0
 11
94.08011740973879
 21
412.9171053804343
 31
0.0
1001
AUSTER_ANSICHT
1002
{
1000
V
1002
}
1001
AUSTER_FOLIE
1002
{
1000
EINZELAUFSTELLUNG
1002
}
  0
LINE
  5
943E
330
20
100
AcDbEntity
  8
10000_FRONT
  6
DASHED
 62
     7
370
    13
100
AcDbLine
 39
0.25
 10
93.05011740973885
 20
412.9171053804343
 30
0.0
 11
93.05011740973885
 21
411.9248053804343
 31
0.0
1001
AUSTER_ANSICHT
1002
{
1000
V
1002
}
1001
AUSTER_FOLIE
1002
{
1000
EINZELAUFSTELLUNG
1002
}
  0
LINE
  5
943F
330
20
100
AcDbEntity
  8
10000_FRONT
  6
DASHED
 62
     7
370
    13
100
AcDbLine
 39
0.25
 10
93.05011740973885
 20
411.7446053804343
 30
0.0
 11
90.7794274097389
 21
411.7446053804343
 31
0.0
1001
AUSTER_ANSICHT
1002
{
1000
V
1002
}
1001
AUSTER_FOLIE
1002
{
1000
EINZELAUFSTELLUNG
1002
}
  0
LINE
  5
9440
330
20
100
AcDbEntity
  8
10000_FRONT
  6
DASHED
 62
     7
370
    13
100
AcDbLine
 39
0.25
 10
96.35081740973888
 20
411.7446053804343
 30
0.0
 11
94.08011740973879
 21
411.7446053804343
 31
0.0
1001
AUSTER_ANSICHT
1002
{
1000
V
1002
}
1001
AUSTER_FOLIE
1002
{
1000
EINZELAUFSTELLUNG
1002
}
  0
LINE
  5
9441
330
20
100
AcDbEntity
  8
10000_FRONT
  6
DASHED
 62
     7
370
    13
100
AcDbLine
 39
0.25
 10
94.08011740973879
 20
410.5359053804343
 30
0.0
 11
96.35081740973888
 21
410.5359053804343
 31
0.0
1001
AUSTER_ANSICHT
1002
{
1000
V
1002
}
1001
AUSTER_FOLIE
1002
{
1000
EINZELAUFSTELLUNG
1002
}
  0
LINE
  5
9442
330
20
100
AcDbEntity
  8
10000_FRONT
  6
DASHED
 62
     7
370
    13
100
AcDbLine
 39
0.25
 10
90.7794274097389
 20
410.5359053804343
 30
0.0
 11
93.05011740973885
 21
410.5359053804343
 31
0.0
1001
AUSTER_ANSICHT
1002
{
1000
V
1002
}
1001
AUSTER_FOLIE
1002
{
1000
EINZELAUFSTELLUNG
1002
}
  0
LINE
  5
9443
330
20
100
AcDbEntity
  8
10000_FRONT
  6
Continuous
 62
     7
370
    50
100
AcDbLine
 39
0.7
 10
123.4151044097389
 20
386.7903053804344
 30
0.0
 11
123.9924544097389
 21
386.7903053804344
 31
0.0
1001
AUSTER_ANSICHT
1002
{
1000
V
1002
}
1001
AUSTER_FOLIE
1002
{
1000
EINZELAUFSTELLUNG
1002
}
  0
LINE
  5
9444
330
20
100
AcDbEntity
  8
10000_FRONT
  6
Continuous
 62
     7
370
    50
100
AcDbLine
 39
0.7
 10
97.53775740973892
 20
386.7903053804344
 30
0.0
 11
98.11510740973879
 21
386.7903053804344
 31
0.0
1001
AUSTER_ANSICHT
1002
{
1000
V
1002
}
1001
AUSTER_FOLIE
1002
{
1000
EINZELAUFSTELLUNG
1002
}
  0
LINE
  5
9445
330
20
100
AcDbEntity
  8
10000_FRONT
  6
Continuous
 62
     7
370
    50
100
AcDbLine
 39
0.7
 10
133.1652024097389
 20
401.8903053804343
 30
0.0
 11
133.1651044097389
 21
387.7903053804343
 31
0.0
1001
AUSTER_ANSICHT
1002
{
1000
V
1002
}
1001
AUSTER_FOLIE
1002
{
1000
EINZELAUFSTELLUNG
1002
}
  0
LINE
  5
9446
330
20
100
AcDbEntity
  8
10000_FRONT
  6
Continuous
 62
     7
370
    50
100
AcDbLine
 39
0.7
 10
88.16510740973887
 20
401.8924053804343
 30
0.0
 11
88.16510740973887
 21
387.7903053804343
 31
0.0
1001
AUSTER_ANSICHT
1002
{
1000
V
1002
}
1001
AUSTER_FOLIE
1002
{
1000
EINZELAUFSTELLUNG
1002
}
  0
LINE
  5
9447
330
20
100
AcDbEntity
  8
10000_FRONT
  6
DASHED
 62
     7
370
    13
100
AcDbLine
 39
0.25
 10
124.2651044097389
 20
432.5403053804343
 30
0.0
 11
124.2651044097389
 21
435.1403053804343
 31
0.0
1001
AUSTER_ANSICHT
1002
{
1000
V
1002
}
1001
AUSTER_FOLIE
1002
{
1000
EINZELAUFSTELLUNG
1002
}
  0
LINE
  5
9448
330
20
100
AcDbEntity
  8
10000_FRONT
  6
DASHED
 62
     7
370
    13
100
AcDbLine
 39
0.25
 10
129.2651044797388
 20
432.5403053804343
 30
0.0
 11
124.2651044097389
 21
432.5403053804343
 31
0.0
1001
AUSTER_ANSICHT
1002
{
1000
V
1002
}
1001
AUSTER_FOLIE
1002
{
1000
EINZELAUFSTELLUNG
1002
}
  0
LINE
  5
9449
330
20
100
AcDbEntity
  8
10000_FRONT
  6
DASHED
 62
     7
370
    13
100
AcDbLine
 39
0.25
 10
129.2651044797388
 20
435.1403053804343
 30
0.0
 11
129.2651044797388
 21
432.5403053804343
 31
0.0
1001
AUSTER_ANSICHT
1002
{
1000
V
1002
}
1001
AUSTER_FOLIE
1002
{
1000
EINZELAUFSTELLUNG
1002
}
  0
LINE
  5
944A
330
20
100
AcDbEntity
  8
10000_FRONT
  6
DASHED
 62
     7
370
    13
100
AcDbLine
 39
0.25
 10
124.2651044097389
 20
435.1403053804343
 30
0.0
 11
129.2651044797388
 21
435.1403053804343
 31
0.0
1001
AUSTER_ANSICHT
1002
{
1000
V
1002
}
1001
AUSTER_FOLIE
1002
{
1000
EINZELAUFSTELLUNG
1002
}
  0
LINE
  5
944B
330
20
100
AcDbEntity
  8
10000_FRONT
  6
DASHED
 62
     7
370
    13
100
AcDbLine
 39
0.25
 10
128.0651044097387
 20
432.5401053804343
 30
0.0
 11
128.0651044097387
 21
435.1393053804343
 31
0.0
1001
AUSTER_ANSICHT
1002
{
1000
V
1002
}
1001
AUSTER_FOLIE
1002
{
1000
EINZELAUFSTELLUNG
1002
}
  0
LINE
  5
944C
330
20
100
AcDbEntity
  8
10000_FRONT
  6
DASHED
 62
     7
370
    13
100
AcDbLine
 39
0.25
 10
127.4651044097388
 20
435.1393053804343
 30
0.0
 11
127.4651044097388
 21
432.5401053804343
 31
0.0
1001
AUSTER_ANSICHT
1002
{
1000
V
1002
}
1001
AUSTER_FOLIE
1002
{
1000
EINZELAUFSTELLUNG
1002
}
  0
LINE
  5
944F
330
20
100
AcDbEntity
  8
10000_FRONT
  6
Continuous
 62
     7
370
    50
100
AcDbLine
 39
0.7
 10
133.1651044097389
 20
416.2903053804343
 30
0.0
 11
133.1652024097389
 21
401.8903053804343
 31
0.0
1001
AUSTER_ANSICHT
1002
{
1000
V
1002
}
1001
AUSTER_FOLIE
1002
{
1000
EINZELAUFSTELLUNG
1002
}
  0
LINE
  5
9450
330
20
100
AcDbEntity
  8
10000_FRONT
  6
Continuous
 62
     7
370
    50
100
AcDbLine
 39
0.7
 10
88.16521740973881
 20
446.3903053804343
 30
0.0
 11
88.16510740973887
 21
401.8924053804343
 31
0.0
1001
AUSTER_ANSICHT
1002
{
1000
V
1002
}
1001
AUSTER_FOLIE
1002
{
1000
EINZELAUFSTELLUNG
1002
}
  0
LINE
  5
9451
330
20
100
AcDbEntity
  8
10000_FRONT
  6
Continuous
 62
     7
370
    50
100
AcDbLine
 39
0.7
 10
133.1651044097389
 20
437.6714053804342
 30
0.0
 11
133.1651044097389
 21
416.2903053804343
 31
0.0
1001
AUSTER_ANSICHT
1002
{
1000
V
1002
}
1001
AUSTER_FOLIE
1002
{
1000
EINZELAUFSTELLUNG
1002
}
  0
LINE
  5
9452
330
20
100
AcDbEntity
  8
10000_FRONT
  6
DASHED
 62
     7
370
    13
100
AcDbLine
 39
0.25
 10
91.01510740973891
 20
444.7343053804344
 30
0.0
 11
91.01510740973891
 21
437.9384053804343
 31
0.0
1001
AUSTER_ANSICHT
1002
{
1000
V
1002
}
1001
AUSTER_FOLIE
1002
{
1000
EINZELAUFSTELLUNG
1002
}
  0
LINE
  5
9453
330
20
100
AcDbEntity
  8
10000_FRONT
  6
DASHED
 62
     7
370
    13
100
AcDbLine
 39
0.25
 10
110.8151074097388
 20
444.7343053804344
 30
0.0
 11
91.01510740973891
 21
444.7343053804344
 31
0.0
1001
AUSTER_ANSICHT
1002
{
1000
V
1002
}
1001
AUSTER_FOLIE
1002
{
1000
EINZELAUFSTELLUNG
1002
}
  0
LINE
  5
9456
330
20
100
AcDbEntity
  8
10000_FRONT
  6
DASHED
 62
     7
370
    13
100
AcDbLine
 39
0.25
 10
119.1651074097389
 20
416.2903053804343
 30
0.0
 11
133.1651044097389
 21
416.2903053804343
 31
0.0
1001
AUSTER_ANSICHT
1002
{
1000
V
1002
}
1001
AUSTER_FOLIE
1002
{
1000
EINZELAUFSTELLUNG
1002
}
  0
LINE
  5
9457
330
20
100
AcDbEntity
  8
10000_FRONT
  6
DASHED
 62
     7
370
    13
100
AcDbLine
 39
0.25
 10
119.1651074097389
 20
437.6714053804342
 30
0.0
 11
119.1651074097389
 21
416.2903053804343
 31
0.0
1001
AUSTER_ANSICHT
1002
{
1000
V
1002
}
1001
AUSTER_FOLIE
1002
{
1000
EINZELAUFSTELLUNG
1002
}
  0
LINE
  5
9458
330
20
100
AcDbEntity
  8
10000_FRONT
  6
DASHED
 62
     7
370
    13
100
AcDbLine
 39
0.25
 10
119.1651074097389
 20
437.6714053804342
 30
0.0
 11
133.1651044097389
 21
437.6714053804342
 31
0.0
1001
AUSTER_ANSICHT
1002
{
1000
V
1002
}
1001
AUSTER_FOLIE
1002
{
1000
EINZELAUFSTELLUNG
1002
}
  0
LINE
  5
945A
330
20
100
AcDbEntity
  8
10000_FRONT
  6
DASHED
 62
     7
370
    13
100
AcDbLine
 39
0.25
 10
103.4744874097389
 20
422.8213053804343
 30
0.0
 11
103.6019574097388
 21
422.9488053804344
 31
0.0
1001
AUSTER_ANSICHT
1002
{
1000
V
1002
}
1001
AUSTER_FOLIE
1002
{
1000
EINZELAUFSTELLUNG
1002
}
  0
LINE
  5
945B
330
20
100
AcDbEntity
  8
10000_FRONT
  6
DASHED
 62
     7
370
    13
100
AcDbLine
 39
0.25
 10
127.3896374097388
 20
423.0397053804343
 30
0.0
 11
127.2155094097388
 21
423.0864053804343
 31
0.0
1001
AUSTER_ANSICHT
1002
{
1000
V
1002
}
1001
AUSTER_FOLIE
1002
{
1000
EINZELAUFSTELLUNG
1002
}
  0
LINE
  5
945C
330
20
100
AcDbEntity
  8
10000_FRONT
  6
DASHED
 62
     7
370
    13
100
AcDbLine
 39
0.25
 10
125.8739544097388
 20
423.4458053804344
 30
0.0
 11
126.0480794097389
 21
423.3992053804342
 31
0.0
1001
AUSTER_ANSICHT
1002
{
1000
V
1002
}
1001
AUSTER_FOLIE
1002
{
1000
EINZELAUFSTELLUNG
1002
}
  0
LINE
  5
945D
330
20
100
AcDbEntity
  8
10000_FRONT
  6
DASHED
 62
     7
370
    13
100
AcDbLine
 39
0.25
 10
127.6562204097388
 20
424.0346053804342
 30
0.0
 11
127.4820934097388
 21
424.0813053804343
 31
0.0
1001
AUSTER_ANSICHT
1002
{
1000
V
1002
}
1001
AUSTER_FOLIE
1002
{
1000
EINZELAUFSTELLUNG
1002
}
  0
LINE
  5
945E
330
20
100
AcDbEntity
  8
10000_FRONT
  6
DASHED
 62
     7
370
    13
100
AcDbLine
 39
0.25
 10
126.1405354097388
 20
424.4407053804343
 30
0.0
 11
126.3146634097388
 21
424.3941053804343
 31
0.0
1001
AUSTER_ANSICHT
1002
{
1000
V
1002
}
1001
AUSTER_FOLIE
1002
{
1000
EINZELAUFSTELLUNG
1002
}
  0
LINE
  5
945F
330
20
100
AcDbEntity
  8
10000_FRONT
  6
DASHED
 62
     7
370
    13
100
AcDbLine
 39
0.25
 10
127.3896374097388
 20
423.0397053804343
 30
0.0
 11
128.3481214097388
 21
422.7829053804343
 31
0.0
1001
AUSTER_ANSICHT
1002
{
1000
V
1002
}
1001
AUSTER_FOLIE
1002
{
1000
EINZELAUFSTELLUNG
1002
}
  0
LINE
  5
9460
330
20
100
AcDbEntity
  8
10000_FRONT
  6
DASHED
 62
     7
370
    13
100
AcDbLine
 39
0.25
 10
128.6147050097388
 20
423.7778053804341
 30
0.0
 11
127.6562184097388
 21
424.0346053804342
 31
0.0
1001
AUSTER_ANSICHT
1002
{
1000
V
1002
}
1001
AUSTER_FOLIE
1002
{
1000
EINZELAUFSTELLUNG
1002
}
  0
LINE
  5
9461
330
20
100
AcDbEntity
  8
10000_FRONT
  6
DASHED
 62
     7
370
    13
100
AcDbLine
 39
0.25
 10
126.1405374097388
 20
424.4407053804343
 30
0.0
 11
125.1820514097388
 21
424.6976053804344
 31
0.0
1001
AUSTER_ANSICHT
1002
{
1000
V
1002
}
1001
AUSTER_FOLIE
1002
{
1000
EINZELAUFSTELLUNG
1002
}
  0
LINE
  5
9462
330
20
100
AcDbEntity
  8
10000_FRONT
  6
DASHED
 62
     7
370
    13
100
AcDbLine
 39
0.25
 10
124.9154674097389
 20
423.702705380434
 30
0.0
 11
125.8739544097388
 21
423.4458053804344
 31
0.0
1001
AUSTER_ANSICHT
1002
{
1000
V
1002
}
1001
AUSTER_FOLIE
1002
{
1000
EINZELAUFSTELLUNG
1002
}
  0
LINE
  5
9463
330
20
100
AcDbEntity
  8
10000_FRONT
  6
DASHED
 62
     7
370
    13
100
AcDbLine
 39
0.25
 10
126.0480794097389
 20
423.3992053804342
 30
0.0
 11
125.4603794097388
 21
421.2059053804343
 31
0.0
1001
AUSTER_ANSICHT
1002
{
1000
V
1002
}
1001
AUSTER_FOLIE
1002
{
1000
EINZELAUFSTELLUNG
1002
}
  0
LINE
  5
9464
330
20
100
AcDbEntity
  8
10000_FRONT
  6
DASHED
 62
     7
370
    13
100
AcDbLine
 39
0.25
 10
126.9023634097389
 20
426.5874053804343
 30
0.0
 11
126.3146634097388
 21
424.3941053804343
 31
0.0
1001
AUSTER_ANSICHT
1002
{
1000
V
1002
}
1001
AUSTER_FOLIE
1002
{
1000
EINZELAUFSTELLUNG
1002
}
  0
LINE
  5
9465
330
20
100
AcDbEntity
  8
10000_FRONT
  6
DASHED
 62
     7
370
    13
100
AcDbLine
 39
0.25
 10
127.4820934097388
 20
424.0813053804343
 30
0.0
 11
128.0697934097388
 21
426.2746053804344
 31
0.0
1001
AUSTER_ANSICHT
1002
{
1000
V
1002
}
1001
AUSTER_FOLIE
1002
{
1000
EINZELAUFSTELLUNG
1002
}
  0
LINE
  5
9466
330
20
100
AcDbEntity
  8
10000_FRONT
  6
DASHED
 62
     7
370
    13
100
AcDbLine
 39
0.25
 10
126.6278094097389
 20
420.8930053804341
 30
0.0
 11
127.2155094097388
 21
423.0864053804343
 31
0.0
1001
AUSTER_ANSICHT
1002
{
1000
V
1002
}
1001
AUSTER_FOLIE
1002
{
1000
EINZELAUFSTELLUNG
1002
}
  0
LINE
  5
9467
330
20
100
AcDbEntity
  8
10000_FRONT
  6
Continuous
 62
     7
370
    50
100
AcDbLine
 39
0.7
 10
133.1651044097389
 20
446.3903053804343
 30
0.0
 11
133.1651044097389
 21
437.6714053804342
 31
0.0
1001
AUSTER_ANSICHT
1002
{
1000
V
1002
}
1001
AUSTER_FOLIE
1002
{
1000
EINZELAUFSTELLUNG
1002
}
  0
LINE
  5
9469
330
20
100
AcDbEntity
  8
10000_FRONT
  6
Continuous
 62
     7
370
    50
100
AcDbLine
 39
0.7
 10
131.6651044097389
 20
379.2903053804344
 30
0.0
 11
89.86510740973882
 21
379.2903053804344
 31
0.0
1001
AUSTER_ANSICHT
1002
{
1000
V
1002
}
1001
AUSTER_FOLIE
1002
{
1000
EINZELAUFSTELLUNG
1002
}
  0
LINE
  5
946A
330
20
100
AcDbEntity
  8
10000_FRONT
  6
Continuous
 62
     7
370
    50
100
AcDbLine
 39
0.7
 10
133.1651044097389
 20
465.3903053804341
 30
0.0
 11
133.1651044097389
 21
446.3903053804343
 31
0.0
1001
AUSTER_ANSICHT
1002
{
1000
V
1002
}
1001
AUSTER_FOLIE
1002
{
1000
EINZELAUFSTELLUNG
1002
}
  0
LINE
  5
946B
330
20
100
AcDbEntity
  8
10000_FRONT
  6
Continuous
 62
     7
370
    50
100
AcDbLine
 39
0.7
 10
88.96510740973885
 20
447.3903053804343
 30
0.0
 11
132.3651044097388
 21
447.3903053804343
 31
0.0
1001
AUSTER_ANSICHT
1002
{
1000
V
1002
}
1001
AUSTER_FOLIE
1002
{
1000
EINZELAUFSTELLUNG
1002
}
  0
LINE
  5
946C
330
20
100
AcDbEntity
  8
10000_FRONT
  6
DASHED
 62
     7
370
    13
100
AcDbLine
 39
0.25
 10
110.8151074097388
 20
437.9384053804343
 30
0.0
 11
110.8151074097388
 21
444.7343053804344
 31
0.0
1001
AUSTER_ANSICHT
1002
{
1000
V
1002
}
1001
AUSTER_FOLIE
1002
{
1000
EINZELAUFSTELLUNG
1002
}
  0
LINE
  5
946D
330
20
100
AcDbEntity
  8
10000_FRONT
  6
DASHED
 62
     7
370
    13
100
AcDbLine
 39
0.25
 10
91.01510740973891
 20
437.9384053804343
 30
0.0
 11
110.8151074097388
 21
437.9384053804343
 31
0.0
1001
AUSTER_ANSICHT
1002
{
1000
V
1002
}
1001
AUSTER_FOLIE
1002
{
1000
EINZELAUFSTELLUNG
1002
}
  0
CIRCLE
  5
946F
330
20
100
AcDbEntity
  8
10000_FRONT
  6
DASHED
 62
     7
370
    20
100
AcDbCircle
 39
0.25
 10
128.0151044097389
 20
458.5903053804343
 30
0.0
 40
2.25
1001
AUSTER_ANSICHT
1002
{
1000
V
1002
}
1001
AUSTER_FOLIE
1002
{
1000
EINZELAUFSTELLUNG
1002
}
  0
LINE
  5
9470
330
20
100
AcDbEntity
  8
10000_FRONT
  6
Continuous
 62
     7
370
    20
100
AcDbLine
 39
0.25
 10
113.0651074097388
 20
384.7903053804344
 30
0.0
 11
117.2651074097389
 21
384.7903053804344
 31
0.0
1001
AUSTER_ANSICHT
1002
{
1000
V
1002
}
1001
AUSTER_FOLIE
1002
{
1000
EINZELAUFSTELLUNG
1002
}
  0
LINE
  5
9471
330
20
100
AcDbEntity
  8
10000_FRONT
  6
Continuous
 62
     7
370
    20
100
AcDbLine
 39
0.25
 10
108.4651074097388
 20
384.7903053804344
 30
0.0
 11
108.4651074097388
 21
386.6903053804343
 31
0.0
1001
AUSTER_ANSICHT
1002
{
1000
V
1002
}
1001
AUSTER_FOLIE
1002
{
1000
EINZELAUFSTELLUNG
1002
}
  0
LINE
  5
9472
330
20
100
AcDbEntity
  8
10000_FRONT
  6
Continuous
 62
     7
370
    20
100
AcDbLine
 39
0.25
 10
104.2651074097389
 20
384.7903053804344
 30
0.0
 11
108.4651074097388
 21
384.7903053804344
 31
0.0
1001
AUSTER_ANSICHT
1002
{
1000
V
1002
}
1001
AUSTER_FOLIE
1002
{
1000
EINZELAUFSTELLUNG
1002
}
  0
CIRCLE
  5
968F
330
20
100
AcDbEntity
  8
30000_Drilling
 62
     7
370
    50
100
AcDbCircle
 39
0.25
 10
277.9508022200719
 20
383.7903053804343
 30
0.0
 40
2.25
1001
AUSTER_ANSICHT
1002
{
1000
V
1002
}
1001
AUSTER_FOLIE
1002
{
1000
EINZELAUFSTELLUNG
1002
}
  0
CIRCLE
  5
9690
330
20
100
AcDbEntity
  8
30000_Drilling
 62
     7
370
    50
100
AcDbCircle
 39
0.25
 10
312.7007992200719
 20
458.5903053804343
 30
0.0
 40
2.25
1001
AUSTER_ANSICHT
1002
{
1000
V
1002
}
1001
AUSTER_FOLIE
1002
{
1000
EINZELAUFSTELLUNG
1002
}
  0
DIMENSION
  5
9692
330
20
100
AcDbEntity
  8
10100_FRONT_DIM
  6
Continuous
 62
     7
370
    13
100
AcDbDimension
  2
*D1
 10
133.1651044097389
 20
371.1980770868706
 30
0.0
 11
110.6764413889423
 21
371.1980770868706
 31
0.0
 70
    32
 71
     5
 42
44.97732604159302
  3
H035
100
AcDbAlignedDimension
 13
88.18777836814584
 23
380.5304998707434
 33
0.0
 14
133.1651044097389
 24
380.5304998707434
 34
0.0
100
AcDbRotatedDimension
1001
ACAD
1000
DSTYLE
1002
{
1070
    40
1040
1.0
1070
    77
1070
     0
1070
   147
1040
1.5
1070
   272
1070
     0
1070
   279
1070
     1
1070
   288
1070
     1
1002
}
  0
DIMENSION
  5
969F
330
20
100
AcDbEntity
  8
10100_FRONT_DIM
  6
Continuous
 62
     7
370
    13
100
AcDbDimension
  2
*D2
 10
140.4813203035221
 20
466.3903053804343
 30
0.0
 11
140.481320303522
 21
422.8403053804343
 31
0.0
 70
    32
 71
     5
 42
87.10000000000002
  3
H035
100
AcDbAlignedDimension
 13
131.6651044097389
 23
379.2903053804344
 33
0.0
 14
131.6651044097389
 24
466.3903053804343
 34
0.0
 50
90.0
100
AcDbRotatedDimension
1001
ACAD
1000
DSTYLE
1002
{
1070
    40
1040
1.0
1070
    77
1070
     0
1070
   147
1040
1.5
1070
   272
1070
     0
1070
   279
1070
     1
1070
   288
1070
     1
1002
}
  0
LINE
  5
96AC
330
20
100
AcDbEntity
  8
11000_Left
  6
DASHED
 62
     7
370
    20
100
AcDbLine
 39
0.25
 10
175.7584330983217
 20
416.7903053804343
 30
-1.0
 11
173.7584330983217
 21
418.7903053804346
 31
-1.0
1001
AUSTER_ANSICHT
1002
{
1000
Det03
1002
}
1001
AUSTER_FOLIE
1002
{
1000
NSB00030_RELAIS
1000
NSB00027_S0
1002
}
  0
LINE
  5
96AD
330
20
100
AcDbEntity
  8
11000_Left
  6
DASHED
 62
     7
370
    20
100
AcDbLine
 39
0.25
 10
174.2584330983217
 20
414.6403053804343
 30
-1.0
 11
173.7584330983217
 21
414.6403053804343
 31
-1.0
1001
AUSTER_ANSICHT
1002
{
1000
Det03
1002
}
1001
AUSTER_FOLIE
1002
{
1000
NSB00030_RELAIS
1000
NSB00027_S0
1002
}
  0
LINE
  5
96AE
330
20
100
AcDbEntity
  8
11000_Left
  6
DASHED
 62
     7
370
    20
100
AcDbLine
 39
0.25
 10
173.7584330983217
 20
414.8903053804342
 30
-1.0
 11
173.7584330983217
 21
414.6403053804343
 31
-1.0
1001
AUSTER_ANSICHT
1002
{
1000
Det03
1002
}
1001
AUSTER_FOLIE
1002
{
1000
NSB00030_RELAIS
1000
NSB00027_S0
1002
}
  0
LINE
  5
96AF
330
20
100
AcDbEntity
  8
11000_Left
  6
DASHED
 62
     7
370
    20
100
AcDbLine
 39
0.25
 10
174.7584330983217
 20
414.1403053804343
 30
-1.0
 11
174.7584330983217
 21
411.6403053804343
 31
-1.0
1001
AUSTER_ANSICHT
1002
{
1000
Det03
1002
}
1001
AUSTER_FOLIE
1002
{
1000
NSB00030_RELAIS
1000
NSB00027_S0
1002
}
  0
ARC
  5
96B0
330
20
100
AcDbEntity
  8
11000_Left
  6
DASHED
 62
     7
370
    20
100
AcDbCircle
 39
0.25
 10
171.8584330983217
 20
414.8903053804342
 30
-1.0
 40
1.9
100
AcDbArc
 50
0.0
 51
90.0
1001
AUSTER_ANSICHT
1002
{
1000
Det03
1002
}
1001
AUSTER_FOLIE
1002
{
1000
NSB00030_RELAIS
1000
NSB00027_S0
1002
}
  0
LINE
  5
96B1
330
20
100
AcDbEntity
  8
11000_Left
  6
DASHED
 62
     7
370
    20
100
AcDbLine
 39
0.25
 10
171.7584330983217
 20
418.7903053804346
 30
-1.0
 11
173.7584330983217
 21
418.7903053804346
 31
-1.0
1001
AUSTER_ANSICHT
1002
{
1000
Det03
1002
}
1001
AUSTER_FOLIE
1002
{
1000
NSB00030_RELAIS
1000
NSB00027_S0
1002
}
  0
LINE
  5
96B2
330
20
100
AcDbEntity
  8
11000_Left
  6
DASHED
 62
     7
370
    20
100
AcDbLine
 39
0.25
 10
170.7584330983217
 20
419.7903053804343
 30
-1.0
 11
170.7584330983217
 21
429.2903053804344
 31
-1.0
1001
AUSTER_ANSICHT
1002
{
1000
Det03
1002
}
1001
AUSTER_FOLIE
1002
{
1000
NSB00030_RELAIS
1000
NSB00027_S0
1002
}
  0
LINE
  5
96B3
330
20
100
AcDbEntity
  8
11000_Left
  6
DASHED
 62
     7
370
    20
100
AcDbLine
 39
0.25
 10
168.2584330983217
 20
440.7903053804343
 30
0.0
 11
168.2584330983217
 21
417.7903053804343
 31
0.0
1001
AUSTER_ANSICHT
1002
{
1000
Det03
1002
}
1001
AUSTER_FOLIE
1002
{
1000
NSB00030_RELAIS
1000
NSB00027_S0
1002
}
  0
LINE
  5
96B4
330
20
100
AcDbEntity
  8
11000_Left
  6
DASHED
 62
     7
370
    20
100
AcDbLine
 39
0.25
 10
171.8584330983217
 20
416.7903053804343
 30
0.0
 11
169.2584330983217
 21
416.7903053804343
 31
0.0
1001
AUSTER_ANSICHT
1002
{
1000
Det03
1002
}
1001
AUSTER_FOLIE
1002
{
1000
NSB00030_RELAIS
1000
NSB00027_S0
1002
}
  0
ARC
  5
96B5
330
20
100
AcDbEntity
  8
11000_Left
  6
DASHED
 62
     7
370
    20
100
AcDbCircle
 39
0.25
 10
169.2584330983217
 20
417.7903053804343
 30
0.0
 40
1.0
100
AcDbArc
 50
180.0
 51
270.0
1001
AUSTER_ANSICHT
1002
{
1000
Det03
1002
}
1001
AUSTER_FOLIE
1002
{
1000
NSB00030_RELAIS
1000
NSB00027_S0
1002
}
  0
ARC
  5
96B6
330
20
100
AcDbEntity
  8
11000_Left
  6
DASHED
 62
     7
370
    20
100
AcDbCircle
 39
0.25
 10
171.7584330983217
 20
419.7903053804343
 30
-1.0
 40
1.0
100
AcDbArc
 50
180.0
 51
270.0
1001
AUSTER_ANSICHT
1002
{
1000
Det03
1002
}
1001
AUSTER_FOLIE
1002
{
1000
NSB00030_RELAIS
1000
NSB00027_S0
1002
}
  0
LINE
  5
96B7
330
20
100
AcDbEntity
  8
11000_Left
  6
DASHED
 62
     7
370
    20
100
AcDbLine
 39
0.25
 10
171.7584330983217
 20
439.7903053804343
 30
-1.0
 11
173.7584330983217
 21
439.7903053804343
 31
-1.0
1001
AUSTER_ANSICHT
1002
{
1000
Det03
1002
}
1001
AUSTER_FOLIE
1002
{
1000
NSB00030_RELAIS
1000
NSB00027_S0
1002
}
  0
LINE
  5
96B8
330
20
100
AcDbEntity
  8
11000_Left
  6
DASHED
 62
     7
370
    20
100
AcDbLine
 39
0.25
 10
175.7584330983217
 20
441.7903053804344
 30
-1.0
 11
173.7584330983217
 21
439.7903053804343
 31
-1.0
1001
AUSTER_ANSICHT
1002
{
1000
Det03
1002
}
1001
AUSTER_FOLIE
1002
{
1000
NSB00030_RELAIS
1000
NSB00027_S0
1002
}
  0
LINE
  5
96B9
330
20
100
AcDbEntity
  8
11000_Left
  6
DASHED
 62
     7
370
    20
100
AcDbLine
 39
0.25
 10
174.2584330983217
 20
443.9403053804343
 30
-1.0
 11
173.7584330983217
 21
443.9403053804343
 31
-1.0
1001
AUSTER_ANSICHT
1002
{
1000
Det03
1002
}
1001
AUSTER_FOLIE
1002
{
1000
NSB00030_RELAIS
1000
NSB00027_S0
1002
}
  0
LINE
  5
96BA
330
20
100
AcDbEntity
  8
11000_Left
  6
DASHED
 62
     7
370
    20
100
AcDbLine
 39
0.25
 10
173.7584330983217
 20
443.6903053804342
 30
-1.0
 11
173.7584330983217
 21
443.9403053804343
 31
-1.0
1001
AUSTER_ANSICHT
1002
{
1000
Det03
1002
}
1001
AUSTER_FOLIE
1002
{
1000
NSB00030_RELAIS
1000
NSB00027_S0
1002
}
  0
LINE
  5
96BB
330
20
100
AcDbEntity
  8
11000_Left
  6
DASHED
 62
     7
370
    20
100
AcDbLine
 39
0.25
 10
170.7584330983217
 20
438.7903053804343
 30
-1.0
 11
170.7584330983217
 21
429.2903053804344
 31
-1.0
1001
AUSTER_ANSICHT
1002
{
1000
Det03
1002
}
1001
AUSTER_FOLIE
1002
{
1000
NSB00030_RELAIS
1000
NSB00027_S0
1002
}
  0
LINE
  5
96BC
330
20
100
AcDbEntity
  8
11000_Left
  6
DASHED
 62
     7
370
    20
100
AcDbLine
 39
0.25
 10
171.8584330983217
 20
441.7903053804344
 30
0.0
 11
169.2584330983217
 21
441.7903053804344
 31
0.0
1001
AUSTER_ANSICHT
1002
{
1000
Det03
1002
}
1001
AUSTER_FOLIE
1002
{
1000
NSB00030_RELAIS
1000
NSB00027_S0
1002
}
  0
ARC
  5
96BD
330
20
100
AcDbEntity
  8
11000_Left
  6
DASHED
 62
     7
370
    20
100
AcDbCircle
 39
0.25
 10
169.2584330983217
 20
440.7903053804343
 30
0.0
 40
1.0
100
AcDbArc
 50
90.0
 51
180.0
1001
AUSTER_ANSICHT
1002
{
1000
Det03
1002
}
1001
AUSTER_FOLIE
1002
{
1000
NSB00030_RELAIS
1000
NSB00027_S0
1002
}
  0
ARC
  5
96BE
330
20
100
AcDbEntity
  8
11000_Left
  6
DASHED
 62
     7
370
    20
100
AcDbCircle
 39
0.25
 10
174.2584330983217
 20
444.4403053804343
 30
-1.0
 40
0.5
100
AcDbArc
 50
270.0
 51
0.0
1001
AUSTER_ANSICHT
1002
{
1000
Det03
1002
}
1001
AUSTER_FOLIE
1002
{
1000
NSB00030_RELAIS
1000
NSB00027_S0
1002
}
  0
ARC
  5
96BF
330
20
100
AcDbEntity
  8
11000_Left
  6
DASHED
 62
     7
370
    20
100
AcDbCircle
 39
0.25
 10
171.8584330983217
 20
443.6903053804342
 30
-1.0
 40
1.9
100
AcDbArc
 50
270.0
 51
0.0
1001
AUSTER_ANSICHT
1002
{
1000
Det03
1002
}
1001
AUSTER_FOLIE
1002
{
1000
NSB00030_RELAIS
1000
NSB00027_S0
1002
}
  0
ARC
  5
96C0
330
20
100
AcDbEntity
  8
11000_Left
  6
DASHED
 62
     7
370
    20
100
AcDbCircle
 39
0.25
 10
171.7584330983217
 20
438.7903053804343
 30
-1.0
 40
1.0
100
AcDbArc
 50
90.0
 51
180.0
1001
AUSTER_ANSICHT
1002
{
1000
Det03
1002
}
1001
AUSTER_FOLIE
1002
{
1000
NSB00030_RELAIS
1000
NSB00027_S0
1002
}
  0
LINE
  5
96C1
330
20
100
AcDbEntity
  8
11000_Left
  6
DASHED
 62
     7
370
    20
100
AcDbLine
 39
0.25
 10
174.7584330983217
 20
444.4403053804343
 30
-1.0
 11
174.7584330983217
 21
446.9403053804342
 31
-1.0
1001
AUSTER_ANSICHT
1002
{
1000
Det03
1002
}
1001
AUSTER_FOLIE
1002
{
1000
NSB00030_RELAIS
1000
NSB00027_S0
1002
}
  0
LINE
  5
96C2
330
20
100
AcDbEntity
  8
11000_Left
  6
DASHED
 62
     7
370
    20
100
AcDbLine
 39
0.25
 10
174.7584330983217
 20
446.9403053804342
 30
-1.0
 11
175.7584330983217
 21
446.9403053804342
 31
-1.0
1001
AUSTER_ANSICHT
1002
{
1000
Det03
1002
}
1001
AUSTER_FOLIE
1002
{
1000
NSB00030_RELAIS
1000
NSB00027_S0
1002
}
  0
DIMENSION
  5
96C3
330
20
100
AcDbEntity
  8
11100_LEFT_DIM
  6
Continuous
 62
     7
370
    13
100
AcDbDimension
  2
*D3
 10
170.7584330983217
 20
370.8404358537298
 30
0.0
 11
161.8457216223418
 21
370.8404358537298
 31
0.0
 70
   160
 71
     5
 42
4.999999999999913
  3
H035
100
AcDbAlignedDimension
 13
175.7584330983216
 23
379.2903053804344
 33
0.0
 14
170.7584330983217
 24
379.8903053804343
 34
0.0
100
AcDbRotatedDimension
1001
ACAD
1000
DSTYLE
1002
{
1070
    40
1040
1.0
1070
    77
1070
     0
1070
   147
1040
1.5
1070
   272
1070
     0
1070
   279
1070
     1
1070
   288
1070
     1
1002
}
  0
DIMENSION
  5
96DD
330
20
100
AcDbEntity
  8
11100_LEFT_DIM
  6
Continuous
 62
     7
370
    13
100
AcDbDimension
  2
*D4
 10
248.1822330983216
 20
358.8929743875285
 30
0.0
 11
211.9703330983216
 21
358.8929743875285
 31
0.0
 70
    32
 71
     5
 42
72.4238
  3
H035
100
AcDbAlignedDimension
 13
175.7584330983216
 23
379.2903053804344
 33
0.0
 14
248.1822330983216
 24
423.7403053804343
 34
0.0
100
AcDbRotatedDimension
1001
ACAD
1000
DSTYLE
1002
{
1070
    40
1040
1.0
1070
    77
1070
     0
1070
   147
1040
1.5
1070
   272
1070
     0
1070
   279
1070
     1
1070
   288
1070
     1
1002
}
  0
DIMENSION
  5
96F3
330
20
100
AcDbEntity
  8
11100_LEFT_DIM
  6
Continuous
 62
     7
370
    13
100
AcDbDimension
  2
*D5
 10
208.2584330983217
 20
370.8404358537298
 30
0.0
 11
192.0084330983216
 21
370.8404358537298
 31
0.0
 70
    32
 71
     5
 42
32.50000000000009
  3
H035
100
AcDbAlignedDimension
 13
175.7584330983216
 23
379.2903053804344
 33
0.0
 14
208.2584330983217
 24
386.7903053804344
 34
0.0
100
AcDbRotatedDimension
1001
ACAD
1000
DSTYLE
1002
{
1070
    40
1040
1.0
1070
    77
1070
     0
1070
   147
1040
1.5
1070
   272
1070
     0
1070
   279
1070
     1
1070
   288
1070
     1
1002
}
  0
DIMENSION
  5
9700
330
20
100
AcDbEntity
  8
11100_LEFT_DIM
  6
Continuous
 62
     7
370
    13
100
AcDbDimension
  2
*D6
 10
224.7375330983217
 20
365.061069284234
 30
0.0
 11
200.2479830983217
 21
365.061069284234
 31
0.0
 70
    32
 71
     5
 42
48.97910000000006
  3
H035
100
AcDbAlignedDimension
 13
175.7584330983216
 23
379.2903053804344
 33
0.0
 14
224.7375330983217
 24
400.9111053804343
 34
0.0
100
AcDbRotatedDimension
1001
ACAD
1000
DSTYLE
1002
{
1070
    40
1040
1.0
1070
    77
1070
     0
1070
   147
1040
1.5
1070
   272
1070
     0
1070
   279
1070
     1
1070
   288
1070
     1
1002
}
  0
DIMENSION
  5
973A
330
20
100
AcDbEntity
  8
30100_Drilling_DIM
  6
Continuous
 62
     7
370
    13
100
AcDbDimension
  2
*D7
 10
277.9508022200719
 20
467.0869836564872
 30
0.0
 11
295.3258007200719
 21
467.0869836564872
 31
0.0
 70
    32
 71
     5
 42
34.74999699999995
  3
H035
100
AcDbAlignedDimension
 13
312.7007992200719
 23
460.8403053804344
 33
0.0
 14
277.9508022200719
 24
386.0403053804343
 34
0.0
100
AcDbRotatedDimension
1001
ACAD
1000
DSTYLE
1002
{
1070
    40
1040
1.0
1070
    77
1070
     0
1070
   147
1040
1.5
1070
   272
1070
     0
1070
   279
1070
     1
1070
   288
1070
     1
1002
}
  0
DIMENSION
  5
9747
330
20
100
AcDbEntity
  8
30100_Drilling_DIM
  6
Continuous
 62
     7
370
    13
100
AcDbDimension
  2
*D8
 10
268.8379683404329
 20
383.7903053804343
 30
0.0
 11
268.8379683404328
 21
421.1903053804343
 31
0.0
 70
    32
 71
     5
 42
74.80000000000003
  3
H035
100
AcDbAlignedDimension
 13
310.4507992200719
 23
458.5903053804343
 33
0.0
 14
275.7008022200718
 24
383.7903053804343
 34
0.0
 50
90.0
100
AcDbRotatedDimension
1001
ACAD
1000
DSTYLE
1002
{
1070
    40
1040
1.0
1070
    77
1070
     0
1070
   147
1040
1.5
1070
   272
1070
     0
1070
   279
1070
     1
1070
   288
1070
     1
1002
}
  0
DIMENSION
  5
9754
330
20
100
AcDbEntity
  8
30100_Drilling_DIM
  6
Continuous
 62
     7
370
    13
100
AcDbDimension
  2
*D9
 10
314.5316457534249
 20
459.8981666006372
 30
0.0
 11
301.5801017582251
 21
450.6462594503148
 31
0.0
 70
    35
 71
     5
 42
4.500000000000113
  3
H035
100
AcDbDiametricDimension
 15
310.8699526867192
 25
457.2824441602318
 35
0.0
 40
0.0
1001
ACAD
1000
DSTYLE
1002
{
1070
    40
1040
1.0
1070
    77
1070
     0
1070
   147
1040
1.5
1070
   272
1070
     0
1070
   279
1070
     1
1070
   288
1070
     1
1002
}
  0
ENDSEC
  0
SECTION
  2
OBJECTS
  0
DICTIONARY
  5
C
330
0
100
AcDbDictionary
281
     1
  3
ACAD_COLOR
350
1B
  3
ACAD_GROUP
350
D
  3
ACAD_LAYOUT
350
19
  3
ACAD_MATERIAL
350
1A
  3
ACAD_MLINESTYLE
350
16
  3
ACAD_PLOTSETTINGS
350
18
  3
ACAD_PLOTSTYLENAME
350
E
  3
ACDBHEADERROUNDTRIPXREC
350
9C01
  3
AcDbVariableDictionary
350
687E
  3
DWGPROPS
350
9C00
  0
DICTIONARY
  5
1B
102
{ACAD_REACTORS
330
C
102
}
330
C
100
AcDbDictionary
281
     1
  0
DICTIONARY
  5
D
102
{ACAD_REACTORS
330
C
102
}
330
C
100
AcDbDictionary
281
     1
  0
DICTIONARY
  5
19
102
{ACAD_REACTORS
330
C
102
}
330
C
100
AcDbDictionary
281
     1
  3
Layout1
350
1F
  3
Model
350
23
  0
DICTIONARY
  5
1A
102
{ACAD_REACTORS
330
C
102
}
330
C
100
AcDbDictionary
281
     1
  0
DICTIONARY
  5
16
102
{ACAD_REACTORS
330
C
102
}
330
C
100
AcDbDictionary
281
     1
  3
Standard
350
17
  0
DICTIONARY
  5
18
102
{ACAD_REACTORS
330
C
102
}
330
C
100
AcDbDictionary
281
     1
  0
ACDBDICTIONARYWDFLT
  5
E
102
{ACAD_REACTORS
330
C
102
}
330
C
100
AcDbDictionary
281
     1
  3
Normal
350
F
100
AcDbDictionaryWithDefault
340
F
  0
DICTIONARY
  5
9C01
102
{ACAD_REACTORS
330
C
102
}
330
C
100
AcDbDictionary
281
     1
  3
COLORDICT
350
9C03
  3
MATERIALDICT
350
9C02
  0
DICTIONARY
  5
687E
102
{ACAD_REACTORS
330
C
102
}
330
C
100
AcDbDictionary
281
     1
  3
DIMASSOC
350
687F
  3
PROJECTNAME
350
6880
  0
XRECORD
  5
9C00
102
{ACAD_REACTORS
330
C
102
}
330
C
100
AcDbXrecord
280
     1
  1
DWGPROPS COOKIE
  2

  3

  4

  6

  7

  8

  9

300
=
301
=
302
=
303
=
304
=
305
=
306
=
307
=
308
=
309
=
 40
1.747274363425925
 41
2452829.417613079
 42
2453424.69485757
  1

 90
        0
  0
LAYOUT
  5
1F
102
{ACAD_XDICTIONARY
360
9C04
102
}
102
{ACAD_REACTORS
330
19
102
}
330
19
100
AcDbPlotSettings
  1

  2
HP LaserJet 5000 Series PS
  4

  6

 40
0.0
 41
0.0
 42
0.0
 43
0.0
 44
0.0
 45
0.0
 46
0.0
 47
0.0
 48
0.0
 49
0.0
140
0.0
141
0.0
142
1.0
143
1.0
 70
   688
 72
     0
 73
     0
 74
     5
  7
monochrome.ctb
 75
    16
147
1.0
148
0.0
149
0.0
100
AcDbLayout
  1
Layout1
 70
     1
 71
     1
 10
0.0
 20
0.0
 11
12.0
 21
9.0
 12
0.0
 22
0.0
 32
0.0
 14
1.000000000000000E+20
 24
1.000000000000000E+20
 34
1.000000000000000E+20
 15
-1.000000000000000E+20
 25
-1.000000000000000E+20
 35
-1.000000000000000E+20
146
0.0
 13
0.0
 23
0.0
 33
0.0
 16
1.0
 26
0.0
 36
0.0
 17
0.0
 27
1.0
 37
0.0
 76
     0
330
1C
  0
LAYOUT
  5
23
102
{ACAD_XDICTIONARY
360
9C06
102
}
102
{ACAD_REACTORS
330
19
102
}
330
19
100
AcDbPlotSettings
  1

  2
\\AMBW779A\A_P00873 (Canon iR2200-3300 PCL6)
  4
A4
  6

 40
4.815416812896728
 41
4.815412044525146
 42
4.815414428710936
 43
4.8154296875
 44
209.9733276367186
 45
296.9259948730469
 46
0.0
 47
0.0
 48
0.0
 49
0.0
140
0.0
141
0.0
142
1.0
143
1.0
 70
 11952
 72
     1
 73
     1
 74
     1
  7
monochrome.ctb
 75
    16
147
1.0
148
-69.39331160554821
149
-288.7777517561915
100
AcDbLayout
  1
Model
 70
     1
 71
     0
 10
0.0
 20
0.0
 11
12.0
 21
9.0
 12
0.0
 22
0.0
 32
0.0
 14
0.0
 24
0.0
 34
0.0
 15
0.0
 25
0.0
 35
0.0
146
0.0
 13
0.0
 23
0.0
 33
0.0
 16
1.0
 26
0.0
 36
0.0
 17
0.0
 27
1.0
 37
0.0
 76
     0
330
20
  0
MLINESTYLE
  5
17
102
{ACAD_REACTORS
330
16
102
}
330
16
100
AcDbMlineStyle
  2
STANDARD
 70
     0
  3

 62
   256
 51
90.0
 52
90.0
 71
     2
 49
0.5
 62
   256
  6
BYLAYER
 49
-0.5
 62
   256
  6
BYLAYER
  0
ACDBPLACEHOLDER
  5
F
102
{ACAD_REACTORS
330
E
102
}
330
E
  0
XRECORD
  5
9C03
102
{ACAD_REACTORS
330
9C01
102
}
330
9C01
100
AcDbXrecord
280
     1
340
1B
  0
XRECORD
  5
9C02
102
{ACAD_REACTORS
330
9C01
102
}
330
9C01
100
AcDbXrecord
280
     1
340
1A
  0
DICTIONARYVAR
  5
687F
102
{ACAD_REACTORS
330
687E
102
}
330
687E
100
DictionaryVariables
280
     0
  1
1
  0
DICTIONARYVAR
  5
6880
102
{ACAD_REACTORS
330
687E
102
}
330
687E
100
DictionaryVariables
280
     0
  1

  0
DICTIONARY
  5
9C04
330
1F
100
AcDbDictionary
280
     1
281
     1
  3
ACAD_XREC_ROUNDTRIP
360
9C05
  0
DICTIONARY
  5
9C06
330
23
100
AcDbDictionary
280
     1
281
     1
  3
ACAD_XREC_ROUNDTRIP
360
9C07
  0
XRECORD
  5
9C05
102
{ACAD_REACTORS
330
9C04
102
}
330
9C04
100
AcDbXrecord
280
     1
102
SHADEPLOT
 70
     0
102
SHADEPLOTRESLEVEL
 70
     2
102
SHADEPLOTCUSTOMDPI
 70
   300
  0
XRECORD
  5
9C07
102
{ACAD_REACTORS
330
9C06
102
}
330
9C06
100
AcDbXrecord
280
     1
102
SHADEPLOT
 70
     1
102
SHADEPLOTRESLEVEL
 70
     2
102
SHADEPLOTCUSTOMDPI
 70
   300
  0
ENDSEC
  0
EOF
