  0
SECTION
  2
HEADER
  9
$ACADVER
  1
AC1015
  9
$ACADMAINTVER
 70
    20
  9
$DWGCODEPAGE
  3
ANSI_1252
  9
$INSBASE
 10
0.0
 20
0.0
 30
0.0
  9
$EXTMIN
 10
-70.60458337769119
 20
288.7994897070327
 30
-1.0
  9
$EXTMAX
 10
339.3954166223088
 20
558.7994897070326
 30
0.7
  9
$LIMMIN
 10
0.0
 20
0.0
  9
$LIMMAX
 10
420.0
 20
297.0
  9
$ORTHOMODE
 70
     0
  9
$REGENMODE
 70
     1
  9
$FILLMODE
 70
     1
  9
$QTEXTMODE
 70
     0
  9
$MIRRTEXT
 70
     0
  9
$LTSCALE
 40
23.1
  9
$ATTMODE
 70
     1
  9
$TEXTSIZE
 40
0.2
  9
$TRACEWID
 40
0.05
  9
$TEXTSTYLE
  7
Standard
  9
$CLAYER
  8
0
  9
$CELTYPE
  6
ByLayer
  9
$CECOLOR
 62
   256
  9
$CELTSCALE
 40
1.0
  9
$DISPSILH
 70
     0
  9
$DIMSCALE
 40
0.0
  9
$DIMASZ
 40
3.5
  9
$DIMEXO
 40
0.0
  9
$DIMDLI
 40
3.75
  9
$DIMRND
 40
0.0
  9
$DIMDLE
 40
0.0
  9
$DIMEXE
 40
2.0
  9
$DIMTP
 40
0.0
  9
$DIMTM
 40
0.0
  9
$DIMTXT
 40
3.5
  9
$DIMCEN
 40
2.5
  9
$DIMTSZ
 40
0.0
  9
$DIMTOL
 70
     0
  9
$DIMLIM
 70
     0
  9
$DIMTIH
 70
     0
  9
$DIMTOH
 70
     0
  9
$DIMSE1
 70
     0
  9
$DIMSE2
 70
     0
  9
$DIMTAD
 70
     1
  9
$DIMZIN
 70
     8
  9
$DIMBLK
  1

  9
$DIMASO
 70
     1
  9
$DIMSHO
 70
     1
  9
$DIMPOST
  1

  9
$DIMAPOST
  1

  9
$DIMALT
 70
     0
  9
$DIMALTD
 70
     4
  9
$DIMALTF
 40
0.039
  9
$DIMLFAC
 40
1.0
  9
$DIMTOFL
 70
     1
  9
$DIMTVP
 40
0.0
  9
$DIMTIX
 70
     0
  9
$DIMSOXD
 70
     0
  9
$DIMSAH
 70
     0
  9
$DIMBLK1
  1

  9
$DIMBLK2
  1

  9
$DIMSTYLE
  2
H035
  9
$DIMCLRD
 70
   256
  9
$DIMCLRE
 70
     7
  9
$DIMCLRT
 70
     7
  9
$DIMTFAC
 40
1.0
  9
$DIMGAP
 40
0.5
  9
$DIMJUST
 70
     0
  9
$DIMSD1
 70
     0
  9
$DIMSD2
 70
     0
  9
$DIMTOLJ
 70
     1
  9
$DIMTZIN
 70
     0
  9
$DIMALTZ
 70
     0
  9
$DIMALTTZ
 70
     0
  9
$DIMUPT
 70
     0
  9
$DIMDEC
 70
     0
  9
$DIMTDEC
 70
     2
  9
$DIMALTU
 70
     8
  9
$DIMALTTD
 70
     4
  9
$DIMTXSTY
  7
Standard
  9
$DIMAUNIT
 70
     0
  9
$DIMADEC
 70
     0
  9
$DIMALTRND
 40
0.0
  9
$DIMAZIN
 70
     0
  9
$DIMDSEP
 70
    46
  9
$DIMATFIT
 70
     3
  9
$DIMFRAC
 70
     0
  9
$DIMLDRBLK
  1

  9
$DIMLUNIT
 70
     2
  9
$DIMLWD
 70
    -2
  9
$DIMLWE
 70
    -2
  9
$DIMTMOVE
 70
     0
  9
$LUNITS
 70
     2
  9
$LUPREC
 70
     4
  9
$SKETCHINC
 40
0.1
  9
$FILLETRAD
 40
0.5
  9
$AUNITS
 70
     0
  9
$AUPREC
 70
     0
  9
$MENU
  1
.
  9
$ELEVATION
 40
0.0
  9
$PELEVATION
 40
0.0
  9
$THICKNESS
 40
0.0
  9
$LIMCHECK
 70
     0
  9
$CHAMFERA
 40
0.0
  9
$CHAMFERB
 40
0.0
  9
$CHAMFERC
 40
0.0
  9
$CHAMFERD
 40
0.0
  9
$SKPOLY
 70
     0
  9
$TDCREATE
 40
2452829.417613079
  9
$TDUCREATE
 40
2452829.375946412
  9
$TDUPDATE
 40
2453424.696260428
  9
$TDUUPDATE
 40
2453424.654593762
  9
$TDINDWG
 40
2.0804898264
  9
$TDUSRTIMER
 40
2.0804838542
  9
$USRTIMER
 70
     1
  9
$ANGBASE
 50
0.0
  9
$ANGDIR
 70
     0
  9
$PDMODE
 70
     0
  9
$PDSIZE
 40
0.0
  9
$PLINEWID
 40
0.0
  9
$SPLFRAME
 70
     0
  9
$SPLINETYPE
 70
     6
  9
$SPLINESEGS
 70
     8
  9
$HANDSEED
  5
CE50
  9
$SURFTAB1
 70
     6
  9
$SURFTAB2
 70
     6
  9
$SURFTYPE
 70
     6
  9
$SURFU
 70
     6
  9
$SURFV
 70
     6
  9
$UCSBASE
  2

  9
$UCSNAME
  2

  9
$UCSORG
 10
0.0
 20
0.0
 30
0.0
  9
$UCSXDIR
 10
1.0
 20
0.0
 30
0.0
  9
$UCSYDIR
 10
0.0
 20
1.0
 30
0.0
  9
$UCSORTHOREF
  2

  9
$UCSORTHOVIEW
 70
     0
  9
$UCSORGTOP
 10
0.0
 20
0.0
 30
0.0
  9
$UCSORGBOTTOM
 10
0.0
 20
0.0
 30
0.0
  9
$UCSORGLEFT
 10
0.0
 20
0.0
 30
0.0
  9
$UCSORGRIGHT
 10
0.0
 20
0.0
 30
0.0
  9
$UCSORGFRONT
 10
0.0
 20
0.0
 30
0.0
  9
$UCSORGBACK
 10
0.0
 20
0.0
 30
0.0
  9
$PUCSBASE
  2

  9
$PUCSNAME
  2

  9
$PUCSORG
 10
0.0
 20
0.0
 30
0.0
  9
$PUCSXDIR
 10
1.0
 20
0.0
 30
0.0
  9
$PUCSYDIR
 10
0.0
 20
1.0
 30
0.0
  9
$PUCSORTHOREF
  2

  9
$PUCSORTHOVIEW
 70
     0
  9
$PUCSORGTOP
 10
0.0
 20
0.0
 30
0.0
  9
$PUCSORGBOTTOM
 10
0.0
 20
0.0
 30
0.0
  9
$PUCSORGLEFT
 10
0.0
 20
0.0
 30
0.0
  9
$PUCSORGRIGHT
 10
0.0
 20
0.0
 30
0.0
  9
$PUCSORGFRONT
 10
0.0
 20
0.0
 30
0.0
  9
$PUCSORGBACK
 10
0.0
 20
0.0
 30
0.0
  9
$USERI1
 70
     0
  9
$USERI2
 70
     0
  9
$USERI3
 70
     0
  9
$USERI4
 70
     0
  9
$USERI5
 70
     0
  9
$USERR1
 40
0.0
  9
$USERR2
 40
0.0
  9
$USERR3
 40
0.0
  9
$USERR4
 40
0.0
  9
$USERR5
 40
0.0
  9
$WORLDVIEW
 70
     1
  9
$SHADEDGE
 70
     3
  9
$SHADEDIF
 70
    70
  9
$TILEMODE
 70
     1
  9
$MAXACTVP
 70
    64
  9
$PINSBASE
 10
0.0
 20
0.0
 30
0.0
  9
$PLIMCHECK
 70
     0
  9
$PEXTMIN
 10
1.000000000000000E+20
 20
1.000000000000000E+20
 30
1.000000000000000E+20
  9
$PEXTMAX
 10
-1.000000000000000E+20
 20
-1.000000000000000E+20
 30
-1.000000000000000E+20
  9
$PLIMMIN
 10
0.0
 20
0.0
  9
$PLIMMAX
 10
12.0
 20
9.0
  9
$UNITMODE
 70
     0
  9
$VISRETAIN
 70
     1
  9
$PLINEGEN
 70
     0
  9
$PSLTSCALE
 70
     1
  9
$TREEDEPTH
 70
  3020
  9
$CMLSTYLE
  2
Standard
  9
$CMLJUST
 70
     0
  9
$CMLSCALE
 40
1.0
  9
$PROXYGRAPHICS
 70
     1
  9
$MEASUREMENT
 70
     0
  9
$CELWEIGHT
370
    -1
  9
$ENDCAPS
280
     0
  9
$JOINSTYLE
280
     0
  9
$LWDISPLAY
290
     0
  9
$INSUNITS
 70
     0
  9
$HYPERLINKBASE
  1

  9
$STYLESHEET
  1
MONOCHROME.CTB
  9
$XEDIT
290
     1
  9
$CEPSNTYPE
380
     0
  9
$PSTYLEMODE
290
     1
  9
$FINGERPRINTGUID
  2
{D88032C4-1185-41D3-97DD-7638FCF99E3F}
  9
$VERSIONGUID
  2
{87836D60-F03D-4BEA-8346-1FA603F046A3}
  9
$EXTNAMES
290
     1
  9
$PSVPSCALE
 40
0.0
  9
$OLESTARTUP
290
     0
  0
ENDSEC
  0
SECTION
  2
CLASSES
  0
CLASS
  1
ACDBDICTIONARYWDFLT
  2
AcDbDictionaryWithDefault
  3
ObjectDBX Classes
 90
        0
280
     0
281
     0
  0
CLASS
  1
DICTIONARYVAR
  2
AcDbDictionaryVar
  3
ObjectDBX Classes
 90
        0
280
     0
281
     0
  0
CLASS
  1
ACDBPLACEHOLDER
  2
AcDbPlaceHolder
  3
ObjectDBX Classes
 90
        0
280
     0
281
     0
  0
CLASS
  1
LAYOUT
  2
AcDbLayout
  3
ObjectDBX Classes
 90
        0
280
     0
281
     0
  0
ENDSEC
  0
SECTION
  2
TABLES
  0
TABLE
  2
VPORT
  5
8
330
0
100
AcDbSymbolTable
 70
     2
  0
VPORT
  5
CE47
330
8
100
AcDbSymbolTableRecord
100
AcDbViewportTableRecord
  2
*Active
 70
     0
 10
0.0
 20
0.0
 11
1.0
 21
1.0
 12
134.4042238742535
 22
427.1506532018196
 13
0.0
 23
0.0
 14
1.0
 24
1.0
 15
0.0
 25
0.0
 16
0.0
 26
0.0
 36
1.0
 17
0.0
 27
0.0
 37
0.0
 40
278.9166033842575
 41
1.571994715984147
 42
50.0
 43
0.0
 44
0.0
 50
0.0
 51
0.0
 71
     0
 72
   100
 73
     1
 74
     1
 75
     0
 76
     0
 77
     0
 78
     0
281
     0
 65
     1
110
0.0
120
0.0
130
0.0
111
1.0
121
0.0
131
0.0
112
0.0
122
1.0
132
0.0
 79
     0
146
0.0
  0
ENDTAB
  0
TABLE
  2
LTYPE
  5
5
330
0
100
AcDbSymbolTable
 70
     3
  0
LTYPE
  5
13
330
5
100
AcDbSymbolTableRecord
100
AcDbLinetypeTableRecord
  2
ByBlock
 70
     0
  3

 72
    65
 73
     0
 40
0.0
  0
LTYPE
  5
14
330
5
100
AcDbSymbolTableRecord
100
AcDbLinetypeTableRecord
  2
ByLayer
 70
     0
  3

 72
    65
 73
     0
 40
0.0
  0
LTYPE
  5
15
330
5
100
AcDbSymbolTableRecord
100
AcDbLinetypeTableRecord
  2
CONTINUOUS
 70
     0
  3
Solid line
 72
    65
 73
     0
 40
0.0
  0
LTYPE
  5
26
330
5
100
AcDbSymbolTableRecord
100
AcDbLinetypeTableRecord
  2
CENTER
 70
     0
  3
____ _ ____ _ ____ _ ____ _ ____ _ ____ _ ____
 72
    65
 73
     4
 40
0.6
 49
0.375
 74
     0
 49
-0.075
 74
     0
 49
0.075
 74
     0
 49
-0.075
 74
     0
  0
LTYPE
  5
4F7A
330
5
100
AcDbSymbolTableRecord
100
AcDbLinetypeTableRecord
  2
DASHED
 70
     0
  3
_ _ _ _ _ _ _ _ _ _ _ _ _ _ _ _ _ _ _ _ _ _ _ _
 72
    65
 73
     2
 40
0.375
 49
0.25
 74
     0
 49
-0.125
 74
     0
  0
ENDTAB
  0
TABLE
  2
LAYER
  5
2
330
0
100
AcDbSymbolTable
 70
    10
  0
LAYER
  5
10
330
2
100
AcDbSymbolTableRecord
100
AcDbLayerTableRecord
  2
0
 70
     0
 62
     7
  6
CONTINUOUS
370
    -3
390
F
  0
LAYER
  5
1D8
330
2
100
AcDbSymbolTableRecord
100
AcDbLayerTableRecord
  2
Defpoints
 70
     0
 62
     7
  6
CONTINUOUS
290
     0
370
    -3
390
F
  0
LAYER
  5
1D9
330
2
100
AcDbSymbolTableRecord
100
AcDbLayerTableRecord
  2
91000_TIP
 70
     0
 62
     7
  6
CONTINUOUS
370
    -3
390
F
  0
LAYER
  5
1DA
330
2
100
AcDbSymbolTableRecord
100
AcDbLayerTableRecord
  2
11000_Left
 70
     0
 62
     7
  6
CONTINUOUS
370
    -3
390
F
  0
LAYER
  5
1DB
330
2
100
AcDbSymbolTableRecord
100
AcDbLayerTableRecord
  2
10000_FRONT
 70
     0
 62
     7
  6
CONTINUOUS
370
    -3
390
F
  0
LAYER
  5
1DC
330
2
100
AcDbSymbolTableRecord
100
AcDbLayerTableRecord
  2
10100_FRONT_DIM
 70
     0
 62
     7
  6
CONTINUOUS
370
    -3
390
F
  0
LAYER
  5
1DD
330
2
100
AcDbSymbolTableRecord
100
AcDbLayerTableRecord
  2
90000_FRAME
 70
     0
 62
     7
  6
CONTINUOUS
370
    -3
390
F
  0
LAYER
  5
1DE
330
2
100
AcDbSymbolTableRecord
100
AcDbLayerTableRecord
  2
11100_LEFT_DIM
 70
     0
 62
     7
  6
CONTINUOUS
370
    -3
390
F
  0
LAYER
  5
CB80
330
2
100
AcDbSymbolTableRecord
100
AcDbLayerTableRecord
  2
30000_Drilling
 70
     0
 62
     7
  6
CONTINUOUS
370
    -3
390
F
  0
LAYER
  5
CB81
330
2
100
AcDbSymbolTableRecord
100
AcDbLayerTableRecord
  2
30100_Drilling_Dim
 70
     0
 62
     7
  6
CONTINUOUS
370
    -3
390
F
  0
ENDTAB
  0
TABLE
  2
STYLE
  5
3
330
0
100
AcDbSymbolTable
 70
     1
  0
STYLE
  5
11
330
3
100
AcDbSymbolTableRecord
100
AcDbTextStyleTableRecord
  2
Standard
 70
     0
 40
0.0
 41
1.0
 50
0.0
 71
     0
 42
0.2
  3
txt
  4

  0
ENDTAB
  0
TABLE
  2
VIEW
  5
6
330
0
100
AcDbSymbolTable
 70
     0
  0
ENDTAB
  0
TABLE
  2
UCS
  5
7
330
0
100
AcDbSymbolTable
 70
     0
  0
ENDTAB
  0
TABLE
  2
APPID
  5
9
330
0
100
AcDbSymbolTable
 70
     3
  0
APPID
  5
12
330
9
100
AcDbSymbolTableRecord
100
AcDbRegAppTableRecord
  2
ACAD
 70
     0
  0
APPID
  5
1E8
330
9
100
AcDbSymbolTableRecord
100
AcDbRegAppTableRecord
  2
AUSTER_ANSICHT
 70
     0
  0
APPID
  5
1E9
330
9
100
AcDbSymbolTableRecord
100
AcDbRegAppTableRecord
  2
AUSTER_FOLIE
 70
     0
  0
ENDTAB
  0
TABLE
  2
DIMSTYLE
  5
A
330
0
100
AcDbSymbolTable
 70
     2
100
AcDbDimStyleTable
 71
     2
340
3A1A
340
BA
  0
DIMSTYLE
105
BA
330
A
100
AcDbSymbolTableRecord
100
AcDbDimStyleTableRecord
  2
Standard
 70
     0
340
11
  0
DIMSTYLE
105
3A1A
102
{ACAD_REACTORS
330
C985
330
C993
330
CA47
330
CA54
330
CA61
330
C9DE
330
C9AD
330
C9A0
330
C9EB
102
}
330
A
100
AcDbSymbolTableRecord
100
AcDbDimStyleTableRecord
  2
H035
 70
     0
 40
0.0
 41
3.5
 42
0.0
 43
3.75
 44
2.0
 73
     0
 74
     0
 77
     1
 78
     8
140
3.5
141
2.5
143
0.039
147
0.5
171
     4
172
     1
176
   256
177
     7
178
     7
271
     0
272
     2
273
     8
274
     4
340
11
  0
ENDTAB
  0
TABLE
  2
BLOCK_RECORD
  5
1
330
0
100
AcDbSymbolTable
 70
    10
  0
BLOCK_RECORD
  5
20
330
1
100
AcDbSymbolTableRecord
100
AcDbBlockTableRecord
  2
*Model_Space
340
23
  0
BLOCK_RECORD
  5
1C
330
1
100
AcDbSymbolTableRecord
100
AcDbBlockTableRecord
  2
*Paper_Space
340
1F
  0
BLOCK_RECORD
  5
3A
330
1
100
AcDbSymbolTableRecord
100
AcDbBlockTableRecord
  2
SIEMENS_OUTLINE_BL0
340
0
102
{BLKREFS
331
8CC5
102
}
  0
BLOCK_RECORD
  5
C986
330
1
100
AcDbSymbolTableRecord
100
AcDbBlockTableRecord
  2
*D1
340
0
  0
BLOCK_RECORD
  5
C994
330
1
100
AcDbSymbolTableRecord
100
AcDbBlockTableRecord
  2
*D2
340
0
  0
BLOCK_RECORD
  5
C9A1
330
1
100
AcDbSymbolTableRecord
100
AcDbBlockTableRecord
  2
*D3
340
0
  0
BLOCK_RECORD
  5
C9AE
330
1
100
AcDbSymbolTableRecord
100
AcDbBlockTableRecord
  2
*D4
340
0
  0
BLOCK_RECORD
  5
C9DF
330
1
100
AcDbSymbolTableRecord
100
AcDbBlockTableRecord
  2
*D5
340
0
  0
BLOCK_RECORD
  5
C9EC
330
1
100
AcDbSymbolTableRecord
100
AcDbBlockTableRecord
  2
*D6
340
0
  0
BLOCK_RECORD
  5
CA48
330
1
100
AcDbSymbolTableRecord
100
AcDbBlockTableRecord
  2
*D7
340
0
  0
BLOCK_RECORD
  5
CA55
330
1
100
AcDbSymbolTableRecord
100
AcDbBlockTableRecord
  2
*D8
340
0
  0
BLOCK_RECORD
  5
CA62
330
1
100
AcDbSymbolTableRecord
100
AcDbBlockTableRecord
  2
*D9
340
0
  0
ENDTAB
  0
ENDSEC
  0
SECTION
  2
BLOCKS
  0
BLOCK
  5
21
330
20
100
AcDbEntity
  8
0
100
AcDbBlockBegin
  2
*Model_Space
 70
     0
 10
0.0
 20
0.0
 30
0.0
  3
*Model_Space
  1

  0
ENDBLK
  5
22
330
20
100
AcDbEntity
  8
0
100
AcDbBlockEnd
  0
BLOCK
  5
1D
330
1C
100
AcDbEntity
 67
     1
  8
0
100
AcDbBlockBegin
  2
*Paper_Space
 70
     0
 10
0.0
 20
0.0
 30
0.0
  3
*Paper_Space
  1

  0
ENDBLK
  5
1E
330
1C
100
AcDbEntity
 67
     1
  8
0
100
AcDbBlockEnd
  0
BLOCK
  5
3B
330
3A
100
AcDbEntity
  8
0
  6
Continuous
 62
     7
100
AcDbBlockBegin
  2
SIEMENS_OUTLINE_BL0
 70
     0
 10
0.0
 20
0.0
 30
0.0
  3
SIEMENS_OUTLINE_BL0
  1

  0
LINE
  5
3C
330
3A
100
AcDbEntity
  8
0
  6
Continuous
 62
     7
100
AcDbLine
 10
289.1235341257
 20
21.4969115175
 30
0.0
 11
289.1235341257
 21
16.7436424342
 31
0.0
  0
LINE
  5
3D
330
3A
100
AcDbEntity
  8
0
  6
Continuous
 62
     7
100
AcDbLine
 10
290.5495148507
 20
21.4969115175
 30
0.0
 11
290.5495148507
 21
16.7436424342
 31
0.0
  0
LINE
  5
3E
330
3A
100
AcDbEntity
  8
0
  6
Continuous
 62
     7
100
AcDbLine
 10
289.1235341257
 20
16.7436424342
 30
0.0
 11
290.5495148507
 21
16.7436424342
 31
0.0
  0
LINE
  5
3F
330
3A
100
AcDbEntity
  8
0
  6
Continuous
 62
     7
100
AcDbLine
 10
289.1235341257
 20
21.4969115175
 30
0.0
 11
290.5495148507
 21
21.4969115175
 31
0.0
  0
LINE
  5
40
330
3A
100
AcDbEntity
  8
0
  6
Continuous
 62
     7
100
AcDbLine
 10
291.6427667399
 20
21.4969115175
 30
0.0
 11
291.6427667399
 21
16.7436424342
 31
0.0
  0
LINE
  5
41
330
3A
100
AcDbEntity
  8
0
  6
Continuous
 62
     7
100
AcDbLine
 10
291.6427667399
 20
16.7436424342
 30
0.0
 11
295.2077185523
 21
16.7436424342
 31
0.0
  0
LINE
  5
42
330
3A
100
AcDbEntity
  8
0
  6
Continuous
 62
     7
100
AcDbLine
 10
295.2077185523
 20
17.64676356
 30
0.0
 11
293.021214774
 21
17.64676356
 31
0.0
  0
LINE
  5
43
330
3A
100
AcDbEntity
  8
0
  6
Continuous
 62
     7
100
AcDbLine
 10
295.2077185523
 20
17.64676356
 30
0.0
 11
295.2077185523
 21
16.7436424342
 31
0.0
  0
LINE
  5
44
330
3A
100
AcDbEntity
  8
0
  6
Continuous
 62
     7
100
AcDbLine
 10
295.1601858615
 20
21.4969115175
 30
0.0
 11
291.6427667399
 21
21.4969115175
 31
0.0
  0
LINE
  5
45
330
3A
100
AcDbEntity
  8
0
  6
Continuous
 62
     7
100
AcDbLine
 10
295.1601858615
 20
20.6175567371
 30
0.0
 11
293.021214774
 21
20.6175567371
 31
0.0
  0
LINE
  5
46
330
3A
100
AcDbEntity
  8
0
  6
Continuous
 62
     7
100
AcDbLine
 10
295.1601858615
 20
21.4969115175
 30
0.0
 11
295.1601858615
 21
20.6175567371
 31
0.0
  0
LINE
  5
47
330
3A
100
AcDbEntity
  8
0
  6
Continuous
 62
     7
100
AcDbLine
 10
294.8749897165
 20
18.7637817946
 30
0.0
 11
293.021214774
 21
18.7637817946
 31
0.0
  0
LINE
  5
48
330
3A
100
AcDbEntity
  8
0
  6
Continuous
 62
     7
100
AcDbLine
 10
294.8749897165
 20
19.5480711933
 30
0.0
 11
294.8749897165
 21
18.7637817946
 31
0.0
  0
LINE
  5
49
330
3A
100
AcDbEntity
  8
0
  6
Continuous
 62
     7
100
AcDbLine
 10
294.8749897165
 20
19.5480711933
 30
0.0
 11
293.021214774
 21
19.5480711933
 31
0.0
  0
LINE
  5
4A
330
3A
100
AcDbEntity
  8
0
  6
Continuous
 62
     7
100
AcDbLine
 10
293.021214774
 20
20.6175567371
 30
0.0
 11
293.021214774
 21
19.5480711933
 31
0.0
  0
LINE
  5
4B
330
3A
100
AcDbEntity
  8
0
  6
Continuous
 62
     7
100
AcDbLine
 10
293.021214774
 20
18.7637817946
 30
0.0
 11
293.021214774
 21
17.64676356
 31
0.0
  0
LINE
  5
4C
330
3A
100
AcDbEntity
  8
0
  6
Continuous
 62
     7
100
AcDbLine
 10
296.0157742965
 20
16.7436424342
 30
0.0
 11
296.0157742965
 21
21.4969115175
 31
0.0
  0
LINE
  5
4D
330
3A
100
AcDbEntity
  8
0
  6
Continuous
 62
     7
100
AcDbLine
 10
296.0157742965
 20
16.7436424342
 30
0.0
 11
296.9664281131
 21
16.7436424342
 31
0.0
  0
LINE
  5
4E
330
3A
100
AcDbEntity
  8
0
  6
Continuous
 62
     7
100
AcDbLine
 10
301.8622952689
 20
21.4969115175
 30
0.0
 11
301.8622952689
 21
16.7436424342
 31
0.0
  0
LINE
  5
4F
330
3A
100
AcDbEntity
  8
0
  6
Continuous
 62
     7
100
AcDbLine
 10
301.8622952689
 20
16.7436424342
 30
0.0
 11
300.4838472348
 21
16.7436424342
 31
0.0
  0
LINE
  5
50
330
3A
100
AcDbEntity
  8
0
  6
Continuous
 62
     7
100
AcDbLine
 10
298.2973434565
 20
16.6961097434
 30
0.0
 11
299.1529318914
 21
16.6961097434
 31
0.0
  0
LINE
  5
51
330
3A
100
AcDbEntity
  8
0
  6
Continuous
 62
     7
100
AcDbLine
 10
298.2973434565
 20
16.6961097434
 30
0.0
 11
296.9664281131
 21
19.7857346475
 31
0.0
  0
LINE
  5
52
330
3A
100
AcDbEntity
  8
0
  6
Continuous
 62
     7
100
AcDbLine
 10
296.9664281131
 20
16.7436424342
 30
0.0
 11
296.9664281131
 21
19.7857346475
 31
0.0
  0
LINE
  5
53
330
3A
100
AcDbEntity
  8
0
  6
Continuous
 62
     7
100
AcDbLine
 10
300.4838472348
 20
19.8332673383
 30
0.0
 11
299.1529318914
 21
16.6961097434
 31
0.0
  0
LINE
  5
54
330
3A
100
AcDbEntity
  8
0
  6
Continuous
 62
     7
100
AcDbLine
 10
297.7269511665
 20
21.4969115175
 30
0.0
 11
296.0157742965
 21
21.4969115175
 31
0.0
  0
LINE
  5
55
330
3A
100
AcDbEntity
  8
0
  6
Continuous
 62
     7
100
AcDbLine
 10
301.8622952689
 20
21.4969115175
 30
0.0
 11
300.1511183989
 21
21.4969115175
 31
0.0
  0
LINE
  5
56
330
3A
100
AcDbEntity
  8
0
  6
Continuous
 62
     7
100
AcDbLine
 10
297.7269511665
 20
21.4969115175
 30
0.0
 11
298.9628011281
 21
18.5974173767
 31
0.0
  0
LINE
  5
57
330
3A
100
AcDbEntity
  8
0
  6
Continuous
 62
     7
100
AcDbLine
 10
300.1511183989
 20
21.4969115175
 30
0.0
 11
298.9628011281
 21
18.5974173767
 31
0.0
  0
LINE
  5
58
330
3A
100
AcDbEntity
  8
0
  6
Continuous
 62
     7
100
AcDbLine
 10
300.4838472348
 20
19.8332673383
 30
0.0
 11
300.4838472348
 21
16.7436424342
 31
0.0
  0
LINE
  5
59
330
3A
100
AcDbEntity
  8
0
  6
Continuous
 62
     7
100
AcDbLine
 10
302.9555471581
 20
21.4969115175
 30
0.0
 11
302.9555471581
 21
16.7436424342
 31
0.0
  0
LINE
  5
5A
330
3A
100
AcDbEntity
  8
0
  6
Continuous
 62
     7
100
AcDbLine
 10
302.9555471581
 20
16.7436424342
 30
0.0
 11
306.5204989705
 21
16.7436424342
 31
0.0
  0
LINE
  5
5B
330
3A
100
AcDbEntity
  8
0
  6
Continuous
 62
     7
100
AcDbLine
 10
306.5204989705
 20
17.64676356
 30
0.0
 11
304.3339951922
 21
17.64676356
 31
0.0
  0
LINE
  5
5C
330
3A
100
AcDbEntity
  8
0
  6
Continuous
 62
     7
100
AcDbLine
 10
306.5204989705
 20
17.64676356
 30
0.0
 11
306.5204989705
 21
16.7436424342
 31
0.0
  0
LINE
  5
5D
330
3A
100
AcDbEntity
  8
0
  6
Continuous
 62
     7
100
AcDbLine
 10
306.4729662797
 20
21.4969115175
 30
0.0
 11
302.9555471581
 21
21.4969115175
 31
0.0
  0
LINE
  5
5E
330
3A
100
AcDbEntity
  8
0
  6
Continuous
 62
     7
100
AcDbLine
 10
306.4729662797
 20
20.6175567371
 30
0.0
 11
304.3339951922
 21
20.6175567371
 31
0.0
  0
LINE
  5
5F
330
3A
100
AcDbEntity
  8
0
  6
Continuous
 62
     7
100
AcDbLine
 10
306.4729662797
 20
21.4969115175
 30
0.0
 11
306.4729662797
 21
20.6175567371
 31
0.0
  0
LINE
  5
60
330
3A
100
AcDbEntity
  8
0
  6
Continuous
 62
     7
100
AcDbLine
 10
306.1877701347
 20
18.7637817946
 30
0.0
 11
304.3339951922
 21
18.7637817946
 31
0.0
  0
LINE
  5
61
330
3A
100
AcDbEntity
  8
0
  6
Continuous
 62
     7
100
AcDbLine
 10
306.1877701347
 20
19.5480711933
 30
0.0
 11
306.1877701347
 21
18.7637817946
 31
0.0
  0
LINE
  5
62
330
3A
100
AcDbEntity
  8
0
  6
Continuous
 62
     7
100
AcDbLine
 10
306.1877701347
 20
19.5480711933
 30
0.0
 11
304.3339951922
 21
19.5480711933
 31
0.0
  0
LINE
  5
63
330
3A
100
AcDbEntity
  8
0
  6
Continuous
 62
     7
100
AcDbLine
 10
304.3339951922
 20
20.6175567371
 30
0.0
 11
304.3339951922
 21
19.5480711933
 31
0.0
  0
LINE
  5
64
330
3A
100
AcDbEntity
  8
0
  6
Continuous
 62
     7
100
AcDbLine
 10
304.3339951922
 20
18.7637817946
 30
0.0
 11
304.3339951922
 21
17.64676356
 31
0.0
  0
LINE
  5
65
330
3A
100
AcDbEntity
  8
0
  6
Continuous
 62
     7
100
AcDbLine
 10
307.3047883693
 20
16.7436424342
 30
0.0
 11
307.3047883693
 21
21.4969115175
 31
0.0
  0
LINE
  5
66
330
3A
100
AcDbEntity
  8
0
  6
Continuous
 62
     7
100
AcDbLine
 10
311.4876651625
 20
21.4969115175
 30
0.0
 11
311.4876651625
 21
16.7436424342
 31
0.0
  0
LINE
  5
67
330
3A
100
AcDbEntity
  8
0
  6
Continuous
 62
     7
100
AcDbLine
 10
307.3047883693
 20
16.7436424342
 30
0.0
 11
308.2554421859
 21
16.7436424342
 31
0.0
  0
LINE
  5
68
330
3A
100
AcDbEntity
  8
0
  6
Continuous
 62
     7
100
AcDbLine
 10
311.4876651625
 20
21.4969115175
 30
0.0
 11
310.5370113459
 21
21.4969115175
 31
0.0
  0
LINE
  5
69
330
3A
100
AcDbEntity
  8
0
  6
Continuous
 62
     7
100
AcDbLine
 10
308.8496008213
 20
21.4969115175
 30
0.0
 11
307.3047883693
 21
21.4969115175
 31
0.0
  0
LINE
  5
6A
330
3A
100
AcDbEntity
  8
0
  6
Continuous
 62
     7
100
AcDbLine
 10
311.4876651625
 20
16.7436424342
 30
0.0
 11
309.9666190559
 21
16.7436424342
 31
0.0
  0
LINE
  5
6B
330
3A
100
AcDbEntity
  8
0
  6
Continuous
 62
     7
100
AcDbLine
 10
309.9666190559
 20
16.7436424342
 30
0.0
 11
308.2554421859
 21
19.7857346475
 31
0.0
  0
LINE
  5
6C
330
3A
100
AcDbEntity
  8
0
  6
Continuous
 62
     7
100
AcDbLine
 10
308.8496008213
 20
21.4969115175
 30
0.0
 11
310.5370113459
 21
18.5498846858
 31
0.0
  0
LINE
  5
6D
330
3A
100
AcDbEntity
  8
0
  6
Continuous
 62
     7
100
AcDbLine
 10
310.5370113459
 20
21.4969115175
 30
0.0
 11
310.5370113459
 21
18.5498846858
 31
0.0
  0
LINE
  5
6E
330
3A
100
AcDbEntity
  8
0
  6
Continuous
 62
     7
100
AcDbLine
 10
308.2554421859
 20
16.7436424342
 30
0.0
 11
308.2554421859
 21
19.7857346475
 31
0.0
  0
LINE
  5
6F
330
3A
100
AcDbEntity
  8
0
  6
Continuous
 62
     7
100
AcDbLine
 10
312.2957209067
 20
16.8387078159
 30
0.0
 11
312.2957209067
 21
17.7893616325
 31
0.0
  0
LINE
  5
70
330
3A
100
AcDbEntity
  8
0
  6
Continuous
 62
     7
100
AcDbLine
 10
315.623009265
 20
20.49872501
 30
0.0
 11
315.623009265
 21
21.4493788266
 31
0.0
  0
ARC
  5
71
330
3A
100
AcDbEntity
  8
0
  6
Continuous
 62
     7
100
AcDbCircle
 10
314.0003620317
 20
18.7008009792
 30
0.0
 40
1.111619360599997
100
AcDbArc
 50
277.7099956934
 51
295.6884927746
  0
ARC
  5
72
330
3A
100
AcDbEntity
  8
0
  6
Continuous
 62
     7
100
AcDbCircle
 10
314.2846720145
 20
17.9759752156
 30
0.0
 40
0.3401689265
100
AcDbArc
 50
305.503221255
 51
72.46528985229999
  0
ARC
  5
73
330
3A
100
AcDbEntity
  8
0
  6
Continuous
 62
     7
100
AcDbCircle
 10
313.7186782063
 20
21.3776821252
 30
0.0
 40
4.756794641099999
100
AcDbArc
 50
252.5939200548001
 51
280.9816604256
  0
ARC
  5
74
330
3A
100
AcDbEntity
  8
0
  6
Continuous
 62
     7
100
AcDbCircle
 10
314.1735135694
 20
18.7596683887
 30
0.0
 40
2.100726595299998
100
AcDbArc
 50
282.405835852
 51
311.8644433928
  0
ARC
  5
75
330
3A
100
AcDbEntity
  8
0
  6
Continuous
 62
     7
100
AcDbCircle
 10
313.8999492223
 20
20.3680101102
 30
0.0
 40
0.3029626476
100
AcDbArc
 50
154.4400348282
 51
221.8201698801
  0
ARC
  5
76
330
3A
100
AcDbEntity
  8
0
  6
Continuous
 62
     7
100
AcDbCircle
 10
313.9791703737
 20
20.2887889588
 30
0.0
 40
0.4103089737
100
AcDbArc
 50
102.8287828681
 51
149.2259639003
  0
ARC
  5
77
330
3A
100
AcDbEntity
  8
0
  6
Continuous
 62
     7
100
AcDbCircle
 10
314.3961972093
 20
18.546453629
 30
0.0
 40
2.201836557
100
AcDbArc
 50
84.0400061857
 51
103.3427657870999
  0
ARC
  5
78
330
3A
100
AcDbEntity
  8
0
  6
Continuous
 62
     7
100
AcDbCircle
 10
314.0552333846
 20
16.1290897051
 30
0.0
 40
4.642373736499997
100
AcDbArc
 50
70.2625858546
 51
82.95241863799999
  0
ARC
  5
79
330
3A
100
AcDbEntity
  8
0
  6
Continuous
 62
     7
100
AcDbCircle
 10
313.5412151824001
 20
20.8007125947
 30
0.0
 40
3.258755990899997
100
AcDbArc
 50
247.5300206145
 51
280.7579522143
  0
ARC
  5
7A
330
3A
100
AcDbEntity
  8
0
  6
Continuous
 62
     7
100
AcDbCircle
 10
307.1562487104
 20
2.5491926343
 30
0.0
 40
17.3316084133
100
AcDbArc
 50
65.34146746500001
 51
67.39977707359999
  0
ARC
  5
7B
330
3A
100
AcDbEntity
  8
0
  6
Continuous
 62
     7
100
AcDbCircle
 10
317.9521111158
 20
28.3416189974
 30
0.0
 40
10.6291642039
100
AcDbArc
 50
242.8620101252001
 51
247.1042029186
  0
ARC
  5
7C
330
3A
100
AcDbEntity
  8
0
  6
Continuous
 62
     7
100
AcDbCircle
 10
314.0972098893
 20
20.8076875004
 30
0.0
 40
2.166291629199998
100
AcDbArc
 50
227.3119280794
 51
242.7040315235
  0
ARC
  5
7D
330
3A
100
AcDbEntity
  8
0
  6
Continuous
 62
     7
100
AcDbCircle
 10
313.4931790796
 20
20.1020098596
 30
0.0
 40
1.238521734
100
AcDbArc
 50
194.7952194236
 51
225.7176549047
  0
ARC
  5
7E
330
3A
100
AcDbEntity
  8
0
  6
Continuous
 62
     7
100
AcDbCircle
 10
313.5553372138
 20
20.1422298287
 30
0.0
 40
1.309092072899999
100
AcDbArc
 50
164.1974860461
 51
195.8025139539
  0
ARC
  5
7F
330
3A
100
AcDbEntity
  8
0
  6
Continuous
 62
     7
100
AcDbCircle
 10
314.1123609345001
 20
19.2539626688
 30
0.0
 40
2.366924815299999
100
AcDbArc
 50
86.22180229280001
 51
120.4272602309
  0
ARC
  5
80
330
3A
100
AcDbEntity
  8
0
  6
Continuous
 62
     7
100
AcDbCircle
 10
313.8435041519
 20
12.5577948477
 30
0.0
 40
9.0679051661
100
AcDbArc
 50
78.68270492259998
 51
87.3147599624
  0
ARC
  5
81
330
3A
100
AcDbEntity
  8
0
  6
Continuous
 62
     7
100
AcDbCircle
 10
313.3874349735
 20
20.2497375912
 30
0.0
 40
1.119747444
100
AcDbArc
 50
142.813917903
 51
167.1522951417
  0
ARC
  5
82
330
3A
100
AcDbEntity
  8
0
  6
Continuous
 62
     7
100
AcDbCircle
 10
313.7327443151
 20
19.9431558946
 30
0.0
 40
1.580546684499998
100
AcDbArc
 50
121.2140948535
 51
141.5254768286
  0
ARC
  5
83
330
3A
100
AcDbEntity
  8
0
  6
Continuous
 62
     7
100
AcDbCircle
 10
314.3099186807
 20
20.7542132232
 30
0.0
 40
0.8661276051999998
100
AcDbArc
 50
222.7760387596
 51
239.0362434679
  0
ARC
  5
84
330
3A
100
AcDbEntity
  8
0
  6
Continuous
 62
     7
100
AcDbCircle
 10
311.8032091024
 20
13.4239410246
 30
0.0
 40
6.858773576299999
100
AcDbArc
 50
59.90202725600001
 51
68.2036481279
  0
ARC
  5
85
330
3A
100
AcDbEntity
  8
0
  6
Continuous
 62
     7
100
AcDbCircle
 10
315.2117035963
 20
22.3498275319
 30
0.0
 40
2.698741017099999
100
AcDbArc
 50
240.0481997804
 51
251.3779673736999
  0
ARC
  5
86
330
3A
100
AcDbEntity
  8
0
  6
Continuous
 62
     7
100
AcDbCircle
 10
314.5462464295
 20
18.1929289165
 30
0.0
 40
1.4334474881
100
AcDbArc
 50
315.8904553224
 51
333.5229264373
  0
ARC
  5
87
330
3A
100
AcDbEntity
  8
0
  6
Continuous
 62
     7
100
AcDbCircle
 10
314.5508846732
 20
18.1395217664
 30
0.0
 40
1.406228711899998
100
AcDbArc
 50
335.3867972702
 51
24.3915119402
  0
ARC
  5
88
330
3A
100
AcDbEntity
  8
0
  6
Continuous
 62
     7
100
AcDbCircle
 10
314.4786797697
 20
18.0616650746
 30
0.0
 40
1.504702514799999
100
AcDbArc
 50
25.95629166050001
 51
59.4834829668
  0
LINE
  5
89
330
3A
100
AcDbEntity
  8
0
  6
Continuous
 62
     7
100
AcDbLine
 10
284.7029938783
 20
16.8387078159
 30
0.0
 11
284.7029938783
 21
17.7893616325
 31
0.0
  0
LINE
  5
8A
330
3A
100
AcDbEntity
  8
0
  6
Continuous
 62
     7
100
AcDbLine
 10
288.0302822366
 20
20.49872501
 30
0.0
 11
288.0302822366
 21
21.4493788266
 31
0.0
  0
ARC
  5
8B
330
3A
100
AcDbEntity
  8
0
  6
Continuous
 62
     7
100
AcDbCircle
 10
286.4076350033
 20
18.7008009792
 30
0.0
 40
1.111619360599997
100
AcDbArc
 50
277.7099956934
 51
295.6884927746
  0
ARC
  5
8C
330
3A
100
AcDbEntity
  8
0
  6
Continuous
 62
     7
100
AcDbCircle
 10
286.691944986
 20
17.9759752156
 30
0.0
 40
0.3401689265
100
AcDbArc
 50
305.5032212556
 51
72.4652898515
  0
ARC
  5
8D
330
3A
100
AcDbEntity
  8
0
  6
Continuous
 62
     7
100
AcDbCircle
 10
286.1259511779
 20
21.3776821252
 30
0.0
 40
4.756794641099999
100
AcDbArc
 50
252.5939200545
 51
280.9816604253
  0
ARC
  5
8E
330
3A
100
AcDbEntity
  8
0
  6
Continuous
 62
     7
100
AcDbCircle
 10
286.580786541
 20
18.7596683887
 30
0.0
 40
2.100726595299998
100
AcDbArc
 50
282.4058358513
 51
311.8644433923
  0
ARC
  5
8F
330
3A
100
AcDbEntity
  8
0
  6
Continuous
 62
     7
100
AcDbCircle
 10
286.3072221939
 20
20.3680101102
 30
0.0
 40
0.3029626476
100
AcDbArc
 50
154.4400348282
 51
221.8201698801
  0
ARC
  5
90
330
3A
100
AcDbEntity
  8
0
  6
Continuous
 62
     7
100
AcDbCircle
 10
286.3864433453
 20
20.2887889588
 30
0.0
 40
0.4103089737
100
AcDbArc
 50
102.8287828727
 51
149.2259639027
  0
ARC
  5
91
330
3A
100
AcDbEntity
  8
0
  6
Continuous
 62
     7
100
AcDbCircle
 10
286.8034701809
 20
18.546453629
 30
0.0
 40
2.201836557
100
AcDbArc
 50
84.0400061859
 51
103.3427657872
  0
ARC
  5
92
330
3A
100
AcDbEntity
  8
0
  6
Continuous
 62
     7
100
AcDbCircle
 10
286.4625063562
 20
16.1290897051
 30
0.0
 40
4.642373736499997
100
AcDbArc
 50
70.2625858546
 51
82.9524186379
  0
ARC
  5
93
330
3A
100
AcDbEntity
  8
0
  6
Continuous
 62
     7
100
AcDbCircle
 10
285.948488154
 20
20.8007125947
 30
0.0
 40
3.258755990899997
100
AcDbArc
 50
247.5300206148
 51
280.7579522145
  0
ARC
  5
94
330
3A
100
AcDbEntity
  8
0
  6
Continuous
 62
     7
100
AcDbCircle
 10
279.563521682
 20
2.5491926343
 30
0.0
 40
17.3316084133
100
AcDbArc
 50
65.34146746500001
 51
67.39977707359999
  0
ARC
  5
95
330
3A
100
AcDbEntity
  8
0
  6
Continuous
 62
     7
100
AcDbCircle
 10
290.3593840874
 20
28.3416189974
 30
0.0
 40
10.6291642039
100
AcDbArc
 50
242.8620101252001
 51
247.1042029185
  0
ARC
  5
96
330
3A
100
AcDbEntity
  8
0
  6
Continuous
 62
     7
100
AcDbCircle
 10
286.5044828608
 20
20.8076875004
 30
0.0
 40
2.166291629199998
100
AcDbArc
 50
227.3119280794
 51
242.7040315235
  0
ARC
  5
97
330
3A
100
AcDbEntity
  8
0
  6
Continuous
 62
     7
100
AcDbCircle
 10
285.9004520512
 20
20.1020098596
 30
0.0
 40
1.238521734
100
AcDbArc
 50
194.7952194234
 51
225.7176549042
  0
ARC
  5
98
330
3A
100
AcDbEntity
  8
0
  6
Continuous
 62
     7
100
AcDbCircle
 10
286.519633906
 20
19.2539626688
 30
0.0
 40
2.366924815299999
100
AcDbArc
 50
86.22180229280001
 51
120.4272602309
  0
ARC
  5
99
330
3A
100
AcDbEntity
  8
0
  6
Continuous
 62
     7
100
AcDbCircle
 10
286.2507771235
 20
12.5577948477
 30
0.0
 40
9.0679051661
100
AcDbArc
 50
78.68270492259998
 51
87.3147599624
  0
ARC
  5
9A
330
3A
100
AcDbEntity
  8
0
  6
Continuous
 62
     7
100
AcDbCircle
 10
286.1400172867
 20
19.9431558946
 30
0.0
 40
1.580546684599998
100
AcDbArc
 50
121.2140948541
 51
141.525476829
  0
ARC
  5
9B
330
3A
100
AcDbEntity
  8
0
  6
Continuous
 62
     7
100
AcDbCircle
 10
286.7171916523
 20
20.7542132232
 30
0.0
 40
0.8661276051999998
100
AcDbArc
 50
222.7760387596
 51
239.0362434679
  0
ARC
  5
9C
330
3A
100
AcDbEntity
  8
0
  6
Continuous
 62
     7
100
AcDbCircle
 10
284.210482074
 20
13.4239410246
 30
0.0
 40
6.858773576299999
100
AcDbArc
 50
59.90202725620001
 51
68.20364812820002
  0
ARC
  5
9D
330
3A
100
AcDbEntity
  8
0
  6
Continuous
 62
     7
100
AcDbCircle
 10
287.6189765678
 20
22.3498275319
 30
0.0
 40
2.698741017099999
100
AcDbArc
 50
240.0481997804
 51
251.3779673734
  0
ARC
  5
9E
330
3A
100
AcDbEntity
  8
0
  6
Continuous
 62
     7
100
AcDbCircle
 10
286.953519401
 20
18.1929289165
 30
0.0
 40
1.4334474881
100
AcDbArc
 50
315.8904553226
 51
333.5229264375
  0
ARC
  5
9F
330
3A
100
AcDbEntity
  8
0
  6
Continuous
 62
     7
100
AcDbCircle
 10
286.9581576447
 20
18.1395217664
 30
0.0
 40
1.406228711899998
100
AcDbArc
 50
335.3867972703
 51
24.3915119403
  0
ARC
  5
A0
330
3A
100
AcDbEntity
  8
0
  6
Continuous
 62
     7
100
AcDbCircle
 10
286.8859527412
 20
18.0616650746
 30
0.0
 40
1.504702514699999
100
AcDbArc
 50
25.9562916611
 51
59.4834829676
  0
LINE
  5
A1
330
3A
100
AcDbEntity
  8
0
  6
Continuous
 62
     7
100
AcDbLine
 10
284.8948224676
 20
20.9161059766
 30
0.0
 11
285.1688882922
 21
21.1901790542
 31
0.0
  0
ARC
  5
A2
330
3A
100
AcDbEntity
  8
0
  6
Continuous
 62
     7
100
AcDbCircle
 10
285.9626101853
 20
20.1422298287
 30
0.0
 40
1.309092072899999
100
AcDbArc
 50
164.1974860461
 51
195.8025139539
  0
ARC
  5
A3
330
3A
100
AcDbEntity
  8
0
  6
Continuous
 62
     7
100
AcDbCircle
 10
285.7947079451
 20
20.2497375912
 30
0.0
 40
1.119747444
100
AcDbArc
 50
142.813917903
 51
167.1522951417
  0
ENDBLK
  5
A4
330
3A
100
AcDbEntity
  8
0
100
AcDbBlockEnd
  0
BLOCK
  5
C990
330
C986
100
AcDbEntity
  8
0
100
AcDbBlockBegin
  2
*D1
 70
     1
 10
0.0
 20
0.0
 30
0.0
  3
*D1
  1

  0
LINE
  5
CB0E
330
C986
100
AcDbEntity
  8
10100_FRONT_DIM
  6
Continuous
 62
     7
370
    -2
100
AcDbLine
 10
-7.348276448938179
 20
402.0416406650053
 30
0.0
 11
-7.34827644893818
 21
391.0886547707714
 31
0.0
  0
LINE
  5
CB0F
330
C986
100
AcDbEntity
  8
10100_FRONT_DIM
  6
Continuous
 62
     7
370
    -2
100
AcDbLine
 10
47.45172355106177
 20
402.0416406650053
 30
0.0
 11
47.45172355106177
 21
391.0886547707714
 31
0.0
  0
LINE
  5
CB10
330
C986
100
AcDbEntity
  8
10100_FRONT_DIM
  6
Continuous
370
    -2
100
AcDbLine
 10
-3.84827644893818
 20
393.0886547707714
 30
0.0
 11
15.63505688439513
 21
393.0886547707714
 31
0.0
  0
LINE
  5
CB11
330
C986
100
AcDbEntity
  8
10100_FRONT_DIM
  6
Continuous
370
    -2
100
AcDbLine
 10
43.95172355106177
 20
393.0886547707714
 30
0.0
 11
24.46839021772846
 21
393.0886547707714
 31
0.0
  0
SOLID
  5
CB12
330
C986
100
AcDbEntity
  8
10100_FRONT_DIM
  6
Continuous
100
AcDbTrace
 10
-3.84827644893818
 20
393.6719881041047
 30
0.0
 11
-3.84827644893818
 21
392.5053214374381
 31
0.0
 12
-7.34827644893818
 22
393.0886547707714
 32
0.0
 13
-7.34827644893818
 23
393.0886547707714
 33
0.0
  0
SOLID
  5
CB13
330
C986
100
AcDbEntity
  8
10100_FRONT_DIM
  6
Continuous
100
AcDbTrace
 10
43.95172355106177
 20
393.6719881041047
 30
0.0
 11
43.95172355106177
 21
392.5053214374381
 31
0.0
 12
47.45172355106177
 22
393.0886547707714
 32
0.0
 13
47.45172355106177
 23
393.0886547707714
 33
0.0
  0
MTEXT
  5
CB14
330
C986
100
AcDbEntity
  8
10100_FRONT_DIM
  6
Continuous
 62
     7
370
    13
100
AcDbMText
 10
20.0517235510618
 20
393.0886547707714
 30
0.0
 40
3.5
 41
0.0
 71
     5
 72
     1
  1
\A1;55
 73
     1
 44
1.0
1001
ACAD
1000
MTEXTBEGIN
1070
    73
1070
     1
1070
    44
1040
1.0
1070
    74
1070
     0
1000
MTEXTEND
  0
POINT
  5
CB15
330
C986
100
AcDbEntity
  8
Defpoints
  6
Continuous
 62
     0
100
AcDbPoint
 10
-7.348276448938179
 20
402.0416406650053
 30
0.0
  0
POINT
  5
CB16
330
C986
100
AcDbEntity
  8
Defpoints
  6
Continuous
 62
     0
100
AcDbPoint
 10
47.45172355106177
 20
402.0416406650053
 30
0.0
  0
POINT
  5
CB17
330
C986
100
AcDbEntity
  8
Defpoints
  6
Continuous
 62
     0
100
AcDbPoint
 10
47.45172355106177
 20
393.0886547707714
 30
0.0
  0
ENDBLK
  5
C991
330
C986
100
AcDbEntity
  8
0
100
AcDbBlockEnd
  0
BLOCK
  5
C99E
330
C994
100
AcDbEntity
  8
0
100
AcDbBlockBegin
  2
*D2
 70
     1
 10
0.0
 20
0.0
 30
0.0
  3
*D2
  1

  0
LINE
  5
CB04
330
C994
100
AcDbEntity
  8
10100_FRONT_DIM
  6
Continuous
 62
     7
370
    -2
100
AcDbLine
 10
47.45172355106177
 20
504.0416406650055
 30
0.0
 11
58.35471999555739
 21
504.0416406650055
 31
0.0
  0
LINE
  5
CB05
330
C994
100
AcDbEntity
  8
10100_FRONT_DIM
  6
Continuous
 62
     7
370
    -2
100
AcDbLine
 10
47.45172355106177
 20
402.0416406650053
 30
0.0
 11
58.35471999555739
 21
402.0416406650053
 31
0.0
  0
LINE
  5
CB06
330
C994
100
AcDbEntity
  8
10100_FRONT_DIM
  6
Continuous
370
    -2
100
AcDbLine
 10
56.3547199955574
 20
500.5416406650055
 30
0.0
 11
56.3547199955574
 21
458.3333073316722
 31
0.0
  0
LINE
  5
CB07
330
C994
100
AcDbEntity
  8
10100_FRONT_DIM
  6
Continuous
370
    -2
100
AcDbLine
 10
56.3547199955574
 20
405.5416406650055
 30
0.0
 11
56.3547199955574
 21
447.7499739983387
 31
0.0
  0
SOLID
  5
CB08
330
C994
100
AcDbEntity
  8
10100_FRONT_DIM
  6
Continuous
100
AcDbTrace
 10
55.77138666222407
 20
500.5416406650055
 30
0.0
 11
56.93805332889074
 21
500.5416406650055
 31
0.0
 12
56.3547199955574
 22
504.0416406650055
 32
0.0
 13
56.3547199955574
 23
504.0416406650055
 33
0.0
  0
SOLID
  5
CB09
330
C994
100
AcDbEntity
  8
10100_FRONT_DIM
  6
Continuous
100
AcDbTrace
 10
55.77138666222403
 20
405.5416406650055
 30
0.0
 11
56.93805332889072
 21
405.5416406650055
 31
0.0
 12
56.3547199955574
 22
402.0416406650053
 32
0.0
 13
56.3547199955574
 23
402.0416406650053
 33
0.0
  0
MTEXT
  5
CB0A
330
C994
100
AcDbEntity
  8
10100_FRONT_DIM
  6
Continuous
 62
     7
370
    13
100
AcDbMText
 10
56.35471999555733
 20
453.0416406650053
 30
0.0
 40
3.5
 41
0.0
 71
     5
 72
     1
  1
\A1;102
 11
0.0000000000000001
 21
1.0
 31
0.0
 73
     1
 44
1.0
1001
ACAD
1000
MTEXTBEGIN
1070
    73
1070
     1
1070
    44
1040
1.0
1070
    74
1070
     0
1000
MTEXTEND
  0
POINT
  5
CB0B
330
C994
100
AcDbEntity
  8
Defpoints
  6
Continuous
 62
     0
100
AcDbPoint
 10
47.45172355106177
 20
504.0416406650055
 30
0.0
  0
POINT
  5
CB0C
330
C994
100
AcDbEntity
  8
Defpoints
  6
Continuous
 62
     0
100
AcDbPoint
 10
47.45172355106177
 20
402.0416406650053
 30
0.0
  0
POINT
  5
CB0D
330
C994
100
AcDbEntity
  8
Defpoints
  6
Continuous
 62
     0
100
AcDbPoint
 10
56.3547199955574
 20
402.0416406650053
 30
0.0
  0
ENDBLK
  5
C99F
330
C994
100
AcDbEntity
  8
0
100
AcDbBlockEnd
  0
BLOCK
  5
C9AB
330
C9A1
100
AcDbEntity
  8
0
100
AcDbBlockBegin
  2
*D3
 70
     1
 10
0.0
 20
0.0
 30
0.0
  3
*D3
  1

  0
LINE
  5
CE1A
330
C9A1
100
AcDbEntity
  8
11100_LEFT_DIM
  6
Continuous
 62
     7
370
    -2
100
AcDbLine
 10
93.37100720776559
 20
437.0416406650055
 30
0.0
 11
93.37100720776559
 21
393.9304250512948
 31
0.0
  0
LINE
  5
CE1B
330
C9A1
100
AcDbEntity
  8
11100_LEFT_DIM
  6
Continuous
 62
     7
370
    -2
100
AcDbLine
 10
132.6960072077656
 20
411.6386406650053
 30
0.0
 11
132.6960072077656
 21
393.9304250512948
 31
0.0
  0
LINE
  5
CE1C
330
C9A1
100
AcDbEntity
  8
11100_LEFT_DIM
  6
Continuous
370
    -2
100
AcDbLine
 10
96.87100720776561
 20
395.9304250512948
 30
0.0
 11
108.6168405410989
 21
395.9304250512948
 31
0.0
  0
LINE
  5
CE1D
330
C9A1
100
AcDbEntity
  8
11100_LEFT_DIM
  6
Continuous
370
    -2
100
AcDbLine
 10
129.1960072077656
 20
395.9304250512948
 30
0.0
 11
117.4501738744323
 21
395.9304250512948
 31
0.0
  0
SOLID
  5
CE1E
330
C9A1
100
AcDbEntity
  8
11100_LEFT_DIM
  6
Continuous
100
AcDbTrace
 10
96.87100720776561
 20
396.5137583846281
 30
0.0
 11
96.87100720776561
 21
395.3470917179615
 31
0.0
 12
93.37100720776559
 22
395.9304250512948
 32
0.0
 13
93.37100720776559
 23
395.9304250512948
 33
0.0
  0
SOLID
  5
CE1F
330
C9A1
100
AcDbEntity
  8
11100_LEFT_DIM
  6
Continuous
100
AcDbTrace
 10
129.1960072077656
 20
396.5137583846281
 30
0.0
 11
129.1960072077656
 21
395.3470917179615
 31
0.0
 12
132.6960072077656
 22
395.9304250512948
 32
0.0
 13
132.6960072077656
 23
395.9304250512948
 33
0.0
  0
MTEXT
  5
CE20
330
C9A1
100
AcDbEntity
  8
11100_LEFT_DIM
  6
Continuous
 62
     7
370
    13
100
AcDbMText
 10
113.0335072077656
 20
395.9304250512948
 30
0.0
 40
3.5
 41
0.0
 71
     5
 72
     1
  1
\A1;39
 73
     1
 44
1.0
1001
ACAD
1000
MTEXTBEGIN
1070
    73
1070
     1
1070
    44
1040
1.0
1070
    74
1070
     0
1000
MTEXTEND
  0
POINT
  5
CE21
330
C9A1
100
AcDbEntity
  8
Defpoints
  6
Continuous
 62
     0
100
AcDbPoint
 10
93.37100720776559
 20
437.0416406650055
 30
0.0
  0
POINT
  5
CE22
330
C9A1
100
AcDbEntity
  8
Defpoints
  6
Continuous
 62
     0
100
AcDbPoint
 10
132.6960072077656
 20
411.6386406650053
 30
0.0
  0
POINT
  5
CE23
330
C9A1
100
AcDbEntity
  8
Defpoints
  6
Continuous
 62
     0
100
AcDbPoint
 10
132.6960072077656
 20
395.9304250512948
 30
0.0
  0
ENDBLK
  5
C9AC
330
C9A1
100
AcDbEntity
  8
0
100
AcDbBlockEnd
  0
BLOCK
  5
C9B8
330
C9AE
100
AcDbEntity
  8
0
100
AcDbBlockBegin
  2
*D4
 70
     1
 10
0.0
 20
0.0
 30
0.0
  3
*D4
  1

  0
LINE
  5
CE10
330
C9AE
100
AcDbEntity
  8
11100_LEFT_DIM
  6
Continuous
 62
     7
370
    -2
100
AcDbLine
 10
93.37100720776559
 20
437.0416406650055
 30
0.0
 11
93.37100720776559
 21
385.4801478854658
 31
0.0
  0
LINE
  5
CE11
330
C9AE
100
AcDbEntity
  8
11100_LEFT_DIM
  6
Continuous
 62
     7
370
    -2
100
AcDbLine
 10
180.1960072077656
 20
427.2386406650053
 30
0.0
 11
180.1960072077656
 21
385.4801478854658
 31
0.0
  0
LINE
  5
CE12
330
C9AE
100
AcDbEntity
  8
11100_LEFT_DIM
  6
Continuous
370
    -2
100
AcDbLine
 10
96.87100720776561
 20
387.4801478854658
 30
0.0
 11
132.3668405410989
 21
387.4801478854658
 31
0.0
  0
LINE
  5
CE13
330
C9AE
100
AcDbEntity
  8
11100_LEFT_DIM
  6
Continuous
370
    -2
100
AcDbLine
 10
176.6960072077655
 20
387.4801478854658
 30
0.0
 11
141.2001738744321
 21
387.4801478854658
 31
0.0
  0
SOLID
  5
CE14
330
C9AE
100
AcDbEntity
  8
11100_LEFT_DIM
  6
Continuous
100
AcDbTrace
 10
96.87100720776561
 20
388.0634812187992
 30
0.0
 11
96.87100720776561
 21
386.8968145521325
 31
0.0
 12
93.37100720776559
 22
387.4801478854658
 32
0.0
 13
93.37100720776559
 23
387.4801478854658
 33
0.0
  0
SOLID
  5
CE15
330
C9AE
100
AcDbEntity
  8
11100_LEFT_DIM
  6
Continuous
100
AcDbTrace
 10
176.6960072077655
 20
388.0634812187992
 30
0.0
 11
176.6960072077655
 21
386.8968145521325
 31
0.0
 12
180.1960072077656
 22
387.4801478854658
 32
0.0
 13
180.1960072077656
 23
387.4801478854658
 33
0.0
  0
MTEXT
  5
CE16
330
C9AE
100
AcDbEntity
  8
11100_LEFT_DIM
  6
Continuous
 62
     7
370
    13
100
AcDbMText
 10
136.7835072077655
 20
387.4801478854658
 30
0.0
 40
3.5
 41
0.0
 71
     5
 72
     1
  1
\A1;87
 73
     1
 44
1.0
1001
ACAD
1000
MTEXTBEGIN
1070
    73
1070
     1
1070
    44
1040
1.0
1070
    74
1070
     0
1000
MTEXTEND
  0
POINT
  5
CE17
330
C9AE
100
AcDbEntity
  8
Defpoints
  6
Continuous
 62
     0
100
AcDbPoint
 10
93.37100720776559
 20
437.0416406650055
 30
0.0
  0
POINT
  5
CE18
330
C9AE
100
AcDbEntity
  8
Defpoints
  6
Continuous
 62
     0
100
AcDbPoint
 10
180.1960072077656
 20
427.2386406650053
 30
0.0
  0
POINT
  5
CE19
330
C9AE
100
AcDbEntity
  8
Defpoints
  6
Continuous
 62
     0
100
AcDbPoint
 10
180.1960072077656
 20
387.4801478854658
 30
0.0
  0
ENDBLK
  5
C9B9
330
C9AE
100
AcDbEntity
  8
0
100
AcDbBlockEnd
  0
BLOCK
  5
C9E9
330
C9DF
100
AcDbEntity
  8
0
100
AcDbBlockBegin
  2
*D5
 70
     1
 10
0.0
 20
0.0
 30
0.0
  3
*D5
  1

  0
LINE
  5
CE06
330
C9DF
100
AcDbEntity
  8
11100_LEFT_DIM
  6
Continuous
 62
     7
370
    -2
100
AcDbLine
 10
93.37100720776559
 20
402.0416406650053
 30
0.0
 11
93.37100720776559
 21
376.9837543863021
 31
0.0
  0
LINE
  5
CE07
330
C9DF
100
AcDbEntity
  8
11100_LEFT_DIM
  6
Continuous
 62
     7
370
    -2
100
AcDbLine
 10
205.1190072077657
 20
450.1386406650054
 30
0.0
 11
205.1190072077657
 21
376.9837543863021
 31
0.0
  0
LINE
  5
CE08
330
C9DF
100
AcDbEntity
  8
11100_LEFT_DIM
  6
Continuous
370
    -2
100
AcDbLine
 10
96.87100720776561
 20
378.9837543863021
 30
0.0
 11
144.2450072077656
 21
378.9837543863021
 31
0.0
  0
LINE
  5
CE09
330
C9DF
100
AcDbEntity
  8
11100_LEFT_DIM
  6
Continuous
370
    -2
100
AcDbLine
 10
201.6190072077657
 20
378.9837543863021
 30
0.0
 11
154.2450072077656
 21
378.9837543863021
 31
0.0
  0
SOLID
  5
CE0A
330
C9DF
100
AcDbEntity
  8
11100_LEFT_DIM
  6
Continuous
100
AcDbTrace
 10
96.87100720776561
 20
379.5670877196354
 30
0.0
 11
96.87100720776561
 21
378.4004210529689
 31
0.0
 12
93.37100720776559
 22
378.9837543863021
 32
0.0
 13
93.37100720776559
 23
378.9837543863021
 33
0.0
  0
SOLID
  5
CE0B
330
C9DF
100
AcDbEntity
  8
11100_LEFT_DIM
  6
Continuous
100
AcDbTrace
 10
201.6190072077657
 20
379.5670877196354
 30
0.0
 11
201.6190072077657
 21
378.4004210529689
 31
0.0
 12
205.1190072077657
 22
378.9837543863021
 32
0.0
 13
205.1190072077657
 23
378.9837543863021
 33
0.0
  0
MTEXT
  5
CE0C
330
C9DF
100
AcDbEntity
  8
11100_LEFT_DIM
  6
Continuous
 62
     7
370
    13
100
AcDbMText
 10
149.2450072077656
 20
378.9837543863021
 30
0.0
 40
3.5
 41
0.0
 71
     5
 72
     1
  1
\A1;112
 73
     1
 44
1.0
1001
ACAD
1000
MTEXTBEGIN
1070
    73
1070
     1
1070
    44
1040
1.0
1070
    74
1070
     0
1000
MTEXTEND
  0
POINT
  5
CE0D
330
C9DF
100
AcDbEntity
  8
Defpoints
  6
Continuous
 62
     0
100
AcDbPoint
 10
93.37100720776559
 20
402.0416406650053
 30
0.0
  0
POINT
  5
CE0E
330
C9DF
100
AcDbEntity
  8
Defpoints
  6
Continuous
 62
     0
100
AcDbPoint
 10
205.1190072077657
 20
450.1386406650054
 30
0.0
  0
POINT
  5
CE0F
330
C9DF
100
AcDbEntity
  8
Defpoints
  6
Continuous
 62
     0
100
AcDbPoint
 10
205.1190072077657
 20
378.9837543863021
 30
0.0
  0
ENDBLK
  5
C9EA
330
C9DF
100
AcDbEntity
  8
0
100
AcDbBlockEnd
  0
BLOCK
  5
C9F8
330
C9EC
100
AcDbEntity
  8
0
100
AcDbBlockBegin
  2
*D6
 70
     1
 10
0.0
 20
0.0
 30
0.0
  3
*D6
  1

  0
LINE
  5
CE24
330
C9EC
100
AcDbEntity
  8
11100_LEFT_DIM
  6
Continuous
 62
     7
370
    -2
100
AcDbLine
 10
88.39500720776561
 20
402.0416406650053
 30
0.0
 11
88.39500720776561
 21
393.9304250512948
 31
0.0
  0
LINE
  5
CE25
330
C9EC
100
AcDbEntity
  8
11100_LEFT_DIM
  6
Continuous
 62
     7
370
    -2
100
AcDbLine
 10
93.37100720776559
 20
402.0416406650053
 30
0.0
 11
93.37100720776559
 21
393.9304250512948
 31
0.0
  0
LINE
  5
CE26
330
C9EC
100
AcDbEntity
  8
11100_LEFT_DIM
  6
Continuous
370
    -2
100
AcDbLine
 10
84.89500720776559
 20
395.9304250512948
 30
0.0
 11
81.3950072077656
 21
395.9304250512948
 31
0.0
  0
LINE
  5
CE27
330
C9EC
100
AcDbEntity
  8
11100_LEFT_DIM
  6
Continuous
370
    -2
100
AcDbLine
 10
96.87100720776561
 20
395.9304250512948
 30
0.0
 11
100.3710072077656
 21
395.9304250512948
 31
0.0
  0
MTEXT
  5
CE28
330
C9EC
100
AcDbEntity
  8
11100_LEFT_DIM
  6
Continuous
 62
     7
370
    13
100
AcDbMText
 10
78.99881378652003
 20
396.0783225653102
 30
0.0
 40
3.5
 41
0.0
 71
     5
 72
     1
  1
\A1;5
 73
     1
 44
1.0
1001
ACAD
1000
MTEXTBEGIN
1070
    73
1070
     1
1070
    44
1040
1.0
1070
    74
1070
     0
1000
MTEXTEND
  0
LINE
  5
CE29
330
C9EC
100
AcDbEntity
  8
11100_LEFT_DIM
  6
Continuous
370
    -2
100
AcDbLine
 10
88.39500720776561
 20
395.9304250512948
 30
0.0
 11
93.37100720776559
 21
395.9304250512948
 31
0.0
  0
SOLID
  5
CE2A
330
C9EC
100
AcDbEntity
  8
11100_LEFT_DIM
  6
Continuous
100
AcDbTrace
 10
84.89500720776559
 20
396.5137583846281
 30
0.0
 11
84.89500720776559
 21
395.3470917179615
 31
0.0
 12
88.39500720776561
 22
395.9304250512948
 32
0.0
 13
88.39500720776561
 23
395.9304250512948
 33
0.0
  0
SOLID
  5
CE2B
330
C9EC
100
AcDbEntity
  8
11100_LEFT_DIM
  6
Continuous
100
AcDbTrace
 10
96.87100720776561
 20
396.5137583846281
 30
0.0
 11
96.87100720776561
 21
395.3470917179615
 31
0.0
 12
93.37100720776559
 22
395.9304250512948
 32
0.0
 13
93.37100720776559
 23
395.9304250512948
 33
0.0
  0
POINT
  5
CE2C
330
C9EC
100
AcDbEntity
  8
Defpoints
  6
Continuous
 62
     0
100
AcDbPoint
 10
88.39500720776561
 20
402.0416406650053
 30
0.0
  0
POINT
  5
CE2D
330
C9EC
100
AcDbEntity
  8
Defpoints
  6
Continuous
 62
     0
100
AcDbPoint
 10
93.37100720776559
 20
402.0416406650053
 30
0.0
  0
POINT
  5
CE2E
330
C9EC
100
AcDbEntity
  8
Defpoints
  6
Continuous
 62
     0
100
AcDbPoint
 10
93.37100720776559
 20
395.9304250512948
 30
0.0
  0
ENDBLK
  5
C9F9
330
C9EC
100
AcDbEntity
  8
0
100
AcDbBlockEnd
  0
BLOCK
  5
CA52
330
CA48
100
AcDbEntity
  8
0
100
AcDbBlockBegin
  2
*D7
 70
     1
 10
0.0
 20
0.0
 30
0.0
  3
*D7
  1

  0
LINE
  5
CB93
330
CA48
100
AcDbEntity
  8
30100_Drilling_Dim
 62
     7
370
    -2
100
AcDbLine
 10
287.7469133063898
 20
501.0416406650055
 30
0.0
 11
287.7469133063898
 21
509.3810508822855
 31
0.0
  0
LINE
  5
CB94
330
CA48
100
AcDbEntity
  8
30100_Drilling_Dim
 62
     7
370
    -2
100
AcDbLine
 10
243.9469133063898
 20
410.0416406650055
 30
0.0
 11
243.9469133063898
 21
509.3810508822855
 31
0.0
  0
LINE
  5
CB95
330
CA48
100
AcDbEntity
  8
30100_Drilling_Dim
370
    -2
100
AcDbLine
 10
284.2469133063898
 20
507.3810508822855
 30
0.0
 11
247.4469133063898
 21
507.3810508822855
 31
0.0
  0
SOLID
  5
CB96
330
CA48
100
AcDbEntity
  8
30100_Drilling_Dim
100
AcDbTrace
 10
284.2469133063898
 20
507.9643842156188
 30
0.0
 11
284.2469133063898
 21
506.7977175489521
 31
0.0
 12
287.7469133063898
 22
507.3810508822855
 32
0.0
 13
287.7469133063898
 23
507.3810508822855
 33
0.0
  0
SOLID
  5
CB97
330
CA48
100
AcDbEntity
  8
30100_Drilling_Dim
100
AcDbTrace
 10
247.4469133063898
 20
507.9643842156188
 30
0.0
 11
247.4469133063898
 21
506.7977175489521
 31
0.0
 12
243.9469133063898
 22
507.3810508822855
 32
0.0
 13
243.9469133063898
 23
507.3810508822855
 33
0.0
  0
MTEXT
  5
CB98
330
CA48
100
AcDbEntity
  8
30100_Drilling_Dim
 62
     7
100
AcDbMText
 10
265.8469133063898
 20
509.6310508822855
 30
0.0
 40
3.5
 41
0.0
 71
     5
 72
     1
  1
\A1;44
 73
     1
 44
1.0
1001
ACAD
1000
MTEXTBEGIN
1070
    73
1070
     1
1070
    44
1040
1.0
1070
    74
1070
     0
1000
MTEXTEND
  0
POINT
  5
CB99
330
CA48
100
AcDbEntity
  8
Defpoints
 62
     0
100
AcDbPoint
 10
287.7469133063898
 20
501.0416406650055
 30
0.0
  0
POINT
  5
CB9A
330
CA48
100
AcDbEntity
  8
Defpoints
 62
     0
100
AcDbPoint
 10
243.9469133063898
 20
410.0416406650055
 30
0.0
  0
POINT
  5
CB9B
330
CA48
100
AcDbEntity
  8
Defpoints
 62
     0
100
AcDbPoint
 10
243.9469133063898
 20
507.3810508822855
 30
0.0
  0
ENDBLK
  5
CA53
330
CA48
100
AcDbEntity
  8
0
100
AcDbBlockEnd
  0
BLOCK
  5
CA5F
330
CA55
100
AcDbEntity
  8
0
100
AcDbBlockBegin
  2
*D8
 70
     1
 10
0.0
 20
0.0
 30
0.0
  3
*D8
  1

  0
LINE
  5
CB8A
330
CA55
100
AcDbEntity
  8
30100_Drilling_Dim
 62
     7
370
    -2
100
AcDbLine
 10
285.2469133063898
 20
498.5416406650053
 30
0.0
 11
232.0388804141421
 21
498.5416406650053
 31
0.0
  0
LINE
  5
CB8B
330
CA55
100
AcDbEntity
  8
30100_Drilling_Dim
 62
     7
370
    -2
100
AcDbLine
 10
241.4469133063898
 20
407.5416406650053
 30
0.0
 11
232.0388804141421
 21
407.5416406650053
 31
0.0
  0
LINE
  5
CB8C
330
CA55
100
AcDbEntity
  8
30100_Drilling_Dim
370
    -2
100
AcDbLine
 10
234.0388804141421
 20
495.0416406650055
 30
0.0
 11
234.0388804141421
 21
411.0416406650053
 31
0.0
  0
SOLID
  5
CB8D
330
CA55
100
AcDbEntity
  8
30100_Drilling_Dim
100
AcDbTrace
 10
233.4555470808088
 20
495.0416406650055
 30
0.0
 11
234.6222137474755
 21
495.0416406650055
 31
0.0
 12
234.0388804141421
 22
498.5416406650053
 32
0.0
 13
234.0388804141421
 23
498.5416406650053
 33
0.0
  0
SOLID
  5
CB8E
330
CA55
100
AcDbEntity
  8
30100_Drilling_Dim
100
AcDbTrace
 10
233.4555470808088
 20
411.0416406650053
 30
0.0
 11
234.6222137474755
 21
411.0416406650053
 31
0.0
 12
234.0388804141421
 22
407.5416406650053
 32
0.0
 13
234.0388804141421
 23
407.5416406650053
 33
0.0
  0
MTEXT
  5
CB8F
330
CA55
100
AcDbEntity
  8
30100_Drilling_Dim
 62
     7
100
AcDbMText
 10
231.788880414142
 20
453.0416406650053
 30
0.0
 40
3.5
 41
0.0
 71
     5
 72
     1
  1
\A1;91
 11
0.0000000000000001
 21
1.0
 31
0.0
 73
     1
 44
1.0
1001
ACAD
1000
MTEXTBEGIN
1070
    73
1070
     1
1070
    44
1040
1.0
1070
    74
1070
     0
1000
MTEXTEND
  0
POINT
  5
CB90
330
CA55
100
AcDbEntity
  8
Defpoints
 62
     0
100
AcDbPoint
 10
285.2469133063898
 20
498.5416406650053
 30
0.0
  0
POINT
  5
CB91
330
CA55
100
AcDbEntity
  8
Defpoints
 62
     0
100
AcDbPoint
 10
241.4469133063898
 20
407.5416406650053
 30
0.0
  0
POINT
  5
CB92
330
CA55
100
AcDbEntity
  8
Defpoints
 62
     0
100
AcDbPoint
 10
234.0388804141421
 20
407.5416406650053
 30
0.0
  0
ENDBLK
  5
CA60
330
CA55
100
AcDbEntity
  8
0
100
AcDbBlockEnd
  0
BLOCK
  5
CA6B
330
CA62
100
AcDbEntity
  8
0
100
AcDbBlockBegin
  2
*D9
 70
     1
 10
0.0
 20
0.0
 30
0.0
  3
*D9
  1

  0
LINE
  5
CB82
330
CA62
100
AcDbEntity
  8
30100_Drilling_Dim
370
    -2
100
AcDbLine
 10
274.0166799372537
 20
489.4419093648933
 30
0.0
 11
282.7455923138738
 21
495.2270082072782
 31
0.0
  0
LINE
  5
CB83
330
CA62
100
AcDbEntity
  8
30100_Drilling_Dim
370
    -2
100
AcDbLine
 10
292.7482342989058
 20
501.8562731227323
 30
0.0
 11
295.6656715445403
 21
503.7898087230731
 31
0.0
  0
MTEXT
  5
CB84
330
CA62
100
AcDbEntity
  8
30100_Drilling_Dim
 62
     7
100
AcDbMText
 10
275.6216672196779
 20
493.2049037755148
 30
0.0
 40
3.5
 41
0.0
 71
     5
 72
     1
  1
\A1;\U+22055
 11
0.8335534987526854
 21
0.5524387429545082
 31
0.0
 73
     1
 44
1.0
1001
ACAD
1000
MTEXTBEGIN
1070
    73
1070
     1
1070
    44
1040
1.0
1070
    74
1070
     0
1000
MTEXTEND
  0
LINE
  5
CB85
330
CA62
100
AcDbEntity
  8
30100_Drilling_Dim
370
    -2
100
AcDbLine
 10
289.8307970532715
 20
499.9227375223917
 30
0.0
 11
285.6630295595082
 21
497.160543807619
 31
0.0
  0
SOLID
  5
CB86
330
CA62
100
AcDbEntity
  8
30100_Drilling_Dim
100
AcDbTrace
 10
292.4259783655159
 20
502.3425126636714
 30
0.0
 11
293.070490232296
 21
501.3700335817932
 31
0.0
 12
289.8307970532715
 22
499.9227375223917
 32
0.0
 13
289.8307970532715
 23
499.9227375223917
 33
0.0
  0
SOLID
  5
CB87
330
CA62
100
AcDbEntity
  8
30100_Drilling_Dim
100
AcDbTrace
 10
282.4233363804836
 20
495.7132477482173
 30
0.0
 11
283.0678482472639
 21
494.7407686663392
 31
0.0
 12
285.6630295595082
 22
497.160543807619
 32
0.0
 13
285.6630295595082
 23
497.160543807619
 33
0.0
  0
POINT
  5
CB88
330
CA62
100
AcDbEntity
  8
Defpoints
 62
     0
100
AcDbPoint
 10
285.6630295595082
 20
497.160543807619
 30
0.0
  0
POINT
  5
CB89
330
CA62
100
AcDbEntity
  8
Defpoints
 62
     0
100
AcDbPoint
 10
289.8307970532715
 20
499.9227375223917
 30
0.0
  0
ENDBLK
  5
CA6C
330
CA62
100
AcDbEntity
  8
0
100
AcDbBlockEnd
  0
ENDSEC
  0
SECTION
  2
ENTITIES
  0
TEXT
  5
8CAC
330
20
100
AcDbEntity
  8
91000_TIP
  6
Continuous
 62
     7
100
AcDbText
 10
-66.55123359502733
 20
297.5317263287093
 30
0.0
 40
2.5
  1
Alle Bemassungswerte sind in Millimeter (mm) angegeben.
 41
0.6056311217924565
 72
     5
 11
7.133886223054927
 21
297.5317263287093
 31
0.0
100
AcDbText
  0
TEXT
  5
8CAD
330
20
100
AcDbEntity
  8
91000_TIP
  6
Continuous
 62
     7
100
AcDbText
 10
-66.55123359502733
 20
292.2817263287094
 30
0.0
 40
2.5
  1
All dimensions are in millimeters (mm).
 41
0.7513350295680265
 72
     5
 11
-6.444431229585262
 21
292.2817263287094
 31
0.0
100
AcDbText
  0
LINE
  5
8CAE
330
20
100
AcDbEntity
  8
90000_FRAME
  6
Continuous
 62
     7
100
AcDbLine
 10
329.3954166223081
 20
298.7994897070328
 30
0.0
 11
329.3954166223081
 21
316.7994897070327
 31
0.0
  0
LINE
  5
8CB1
330
20
100
AcDbEntity
  8
90000_FRAME
  6
Continuous
 62
     7
100
AcDbLine
 10
-70.60458337769119
 20
288.7994897070327
 30
0.0
 11
339.3954166223088
 21
288.7994897070327
 31
0.0
  0
LINE
  5
8CB2
330
20
100
AcDbEntity
  8
90000_FRAME
  6
Continuous
 62
     7
100
AcDbLine
 10
339.3954166223088
 20
288.7994897070327
 30
0.0
 11
339.3954166223088
 21
558.7994897070326
 31
0.0
  0
TEXT
  5
8CB3
330
20
100
AcDbEntity
  8
90000_FRAME
  6
Continuous
 62
     7
100
AcDbText
 10
257.7013411462589
 20
309.0494897070328
 30
0.0
 40
3.5
  1
3RU1936_00000216_000_ALL
 41
0.737303385747468
 72
     5
 11
313.6135145654419
 21
309.0494897070328
 31
0.0
100
AcDbText
  0
CIRCLE
  5
8CB4
330
20
100
AcDbEntity
  8
91000_TIP
  6
Continuous
 62
     7
100
AcDbCircle
 10
185.710086389334
 20
307.6232272805033
 30
0.0
 40
2.499999948899997
  0
CIRCLE
  5
8CB5
330
20
100
AcDbEntity
  8
91000_TIP
  6
Continuous
 62
     7
100
AcDbCircle
 10
185.710086389334
 20
307.6232272805033
 30
0.0
 40
4.9999998979
  0
LINE
  5
8CB6
330
20
100
AcDbEntity
  8
91000_TIP
  6
CENTER
 62
     7
100
AcDbLine
 10
185.710086389334
 20
301.9017460741033
 30
0.0
 11
185.710086389334
 21
313.1851320741033
 31
0.0
  0
LINE
  5
8CB7
330
20
100
AcDbEntity
  8
91000_TIP
  6
Continuous
 62
     7
100
AcDbLine
 10
179.2100865221341
 20
312.6232271784033
 30
0.0
 11
179.2100865221341
 21
302.6232273826032
 31
0.0
  0
LINE
  5
8CB8
330
20
100
AcDbEntity
  8
91000_TIP
  6
Continuous
 62
     7
100
AcDbLine
 10
169.210086726334
 20
310.1232272294034
 30
0.0
 11
169.210086726334
 21
305.1232273316033
 31
0.0
  0
LINE
  5
8CB9
330
20
100
AcDbEntity
  8
91000_TIP
  6
Continuous
 62
     7
100
AcDbLine
 10
169.210086726334
 20
305.1232273316033
 30
0.0
 11
179.2100865221341
 21
302.6232273826032
 31
0.0
  0
LINE
  5
8CBA
330
20
100
AcDbEntity
  8
91000_TIP
  6
CENTER
 62
     7
100
AcDbLine
 10
167.930576254333
 20
307.6232272805033
 30
0.0
 11
191.532565518433
 21
307.6232272805033
 31
0.0
  0
LINE
  5
8CBB
330
20
100
AcDbEntity
  8
91000_TIP
  6
Continuous
 62
     7
100
AcDbLine
 10
169.210086726334
 20
310.1232272294034
 30
0.0
 11
179.2100865221341
 21
312.6232271784033
 31
0.0
  0
TEXT
  5
8CBC
330
20
100
AcDbEntity
  8
90000_FRAME
  6
Continuous
 62
     7
100
AcDbText
 10
287.5554166223082
 20
300.6994897070327
 30
0.0
 40
2.2
  1
Massstab / Scale: 1:1
 41
0.7732634338148454
 72
     5
 11
318.4601785271082
 21
300.6994897070327
 31
0.0
100
AcDbText
  0
TEXT
  5
8CBD
330
20
100
AcDbEntity
  8
90000_FRAME
  6
Continuous
 62
     7
100
AcDbText
 10
245.0554166223081
 20
300.6994897070327
 30
0.0
 40
2.2
  1
Format / Size: DIN A3
 41
0.7994987468660263
 72
     5
 11
278.474464241308
 21
300.6994897070327
 31
0.0
100
AcDbText
  0
LINE
  5
8CBE
330
20
100
AcDbEntity
  8
90000_FRAME
  6
Continuous
 62
     7
100
AcDbLine
 10
329.3954166223081
 20
298.7994897070328
 30
0.0
 11
329.3954166223081
 21
316.7994897070327
 31
0.0
  0
LINE
  5
8CBF
330
20
100
AcDbEntity
  8
90000_FRAME
  6
Continuous
 62
     7
100
AcDbLine
 10
286.8954166223081
 20
298.7994897070328
 30
0.0
 11
286.8954166223081
 21
304.7994897070328
 31
0.0
  0
LINE
  5
8CC0
330
20
100
AcDbEntity
  8
90000_FRAME
  6
Continuous
 62
     7
100
AcDbLine
 10
244.3954166223081
 20
298.7994897070328
 30
0.0
 11
244.3954166223081
 21
316.7994897070327
 31
0.0
  0
LINE
  5
8CC1
330
20
100
AcDbEntity
  8
90000_FRAME
  6
Continuous
 62
     7
100
AcDbLine
 10
194.395416622308
 20
316.7994897070327
 30
0.0
 11
329.3954166223081
 21
316.7994897070327
 31
0.0
  0
LINE
  5
8CC2
330
20
100
AcDbEntity
  8
90000_FRAME
  6
Continuous
 62
     7
100
AcDbLine
 10
244.3954166223081
 20
304.7994897070328
 30
0.0
 11
329.3954166223081
 21
304.7994897070328
 31
0.0
  0
LINE
  5
8CC3
330
20
100
AcDbEntity
  8
90000_FRAME
  6
Continuous
 62
     7
100
AcDbLine
 10
194.395416622308
 20
298.7994897070328
 30
0.0
 11
194.395416622308
 21
316.7994897070327
 31
0.0
  0
LINE
  5
8CC4
330
20
100
AcDbEntity
  8
90000_FRAME
  6
Continuous
 62
     7
100
AcDbLine
 10
194.395416622308
 20
298.7994897070328
 30
0.0
 11
329.3954166223081
 21
298.7994897070328
 31
0.0
  0
INSERT
  5
8CC5
330
20
100
AcDbEntity
  8
90000_FRAME
  6
Continuous
 62
     7
100
AcDbBlockReference
  2
SIEMENS_OUTLINE_BL0
 10
-80.60458337769194
 20
288.7994897070327
 30
0.0
  0
TEXT
  5
C3D3
330
20
100
AcDbEntity
  8
10000_FRONT
  6
DASHED
 62
     7
370
    20
100
AcDbText
 39
0.25
 10
8.668723551061816
 20
454.2136406650053
 30
0.0
 40
2.0
  1
H
 41
0.6600000000000003
100
AcDbText
1001
AUSTER_ANSICHT
1002
{
1000
Det03
1002
}
1001
AUSTER_FOLIE
1002
{
1000
NSB00341_S2
1002
}
  0
TEXT
  5
C3D4
330
20
100
AcDbEntity
  8
10000_FRONT
  6
DASHED
 62
     7
370
    20
100
AcDbText
 39
0.25
 10
15.66872355106182
 20
454.2136406650053
 30
0.0
 40
2.0
  1
A
 41
0.6600000000000003
100
AcDbText
1001
AUSTER_ANSICHT
1002
{
1000
Det03
1002
}
1001
AUSTER_FOLIE
1002
{
1000
NSB00341_S2
1002
}
  0
TEXT
  5
C3D5
330
20
100
AcDbEntity
  8
10000_FRONT
  6
DASHED
 62
     7
370
    20
100
AcDbText
 39
0.25
 10
10.21172355106182
 20
445.1386406650053
 30
0.0
 40
1.5
  1
RESET
 41
0.6600000000000003
100
AcDbText
1001
AUSTER_ANSICHT
1002
{
1000
Det03
1002
}
1001
AUSTER_FOLIE
1002
{
1000
NSB00341_S2
1002
}
  0
TEXT
  5
C3D6
330
20
100
AcDbEntity
  8
10000_FRONT
  6
DASHED
 62
     7
370
    20
100
AcDbText
 39
0.25
 10
8.668723551061816
 20
454.2136406650053
 30
0.0
 40
2.0
  1
H
 41
0.6600000000000003
100
AcDbText
1001
AUSTER_ANSICHT
1002
{
1000
Det03
1002
}
1001
AUSTER_FOLIE
1002
{
1000
NSB00341_S2
1002
}
  0
TEXT
  5
C3D7
330
20
100
AcDbEntity
  8
10000_FRONT
  6
DASHED
 62
     7
370
    20
100
AcDbText
 39
0.25
 10
15.66872355106182
 20
454.2136406650053
 30
0.0
 40
2.0
  1
A
 41
0.6600000000000003
100
AcDbText
1001
AUSTER_ANSICHT
1002
{
1000
Det03
1002
}
1001
AUSTER_FOLIE
1002
{
1000
NSB00341_S2
1002
}
  0
TEXT
  5
C3D8
330
20
100
AcDbEntity
  8
10000_FRONT
  6
DASHED
 62
     7
370
    20
100
AcDbText
 39
0.25
 10
10.21172355106182
 20
445.1386406650053
 30
0.0
 40
1.5
  1
RESET
 41
0.6600000000000003
100
AcDbText
1001
AUSTER_ANSICHT
1002
{
1000
Det03
1002
}
1001
AUSTER_FOLIE
1002
{
1000
NSB00341_S2
1002
}
  0
TEXT
  5
C3D9
330
20
100
AcDbEntity
  8
10000_FRONT
  6
DASHED
 62
     7
370
    20
100
AcDbText
 39
0.25
 10
-0.7882764489381771
 20
445.1386406650053
 30
0.0
 40
1.5
  1
STOP
 41
0.6600000000000003
100
AcDbText
1001
AUSTER_ANSICHT
1002
{
1000
Det03
1002
}
1001
AUSTER_FOLIE
1002
{
1000
NSB00341_S2
1002
}
  0
TEXT
  5
C3DA
330
20
100
AcDbEntity
  8
10000_FRONT
  6
DASHED
 62
     7
370
    20
100
AcDbText
 39
0.25
 10
-0.7882764489381771
 20
445.1386406650053
 30
0.0
 40
1.5
  1
STOP
 41
0.6600000000000003
100
AcDbText
1001
AUSTER_ANSICHT
1002
{
1000
Det03
1002
}
1001
AUSTER_FOLIE
1002
{
1000
NSB00341_S2
1002
}
  0
TEXT
  5
C3DB
330
20
100
AcDbEntity
  8
10000_FRONT
  6
DASHED
 62
     7
370
    20
100
AcDbText
 39
0.25
 10
33.71372355106178
 20
462.2036406650053
 30
0.0
 40
1.5
  1
Test
 41
0.6600000000000003
100
AcDbText
1001
AUSTER_ANSICHT
1002
{
1000
Det03
1002
}
1001
AUSTER_FOLIE
1002
{
1000
NSB00341_S2
1002
}
  0
TEXT
  5
C3DC
330
20
100
AcDbEntity
  8
10000_FRONT
  6
DASHED
 62
     7
370
    20
100
AcDbText
 39
0.25
 10
31.88372355106185
 20
459.2386406650053
 30
0.0
 40
1.5
  1
0
 41
0.6600000000000003
100
AcDbText
1001
AUSTER_ANSICHT
1002
{
1000
Det03
1002
}
1001
AUSTER_FOLIE
1002
{
1000
NSB00341_S2
1002
}
  0
TEXT
  5
C3DD
330
20
100
AcDbEntity
  8
10000_FRONT
  6
DASHED
 62
     7
370
    20
100
AcDbText
 39
0.25
 10
39.38372355106185
 20
459.2386406650053
 30
0.0
 40
1.5
  1
1
 41
0.6600000000000003
100
AcDbText
1001
AUSTER_ANSICHT
1002
{
1000
Det03
1002
}
1001
AUSTER_FOLIE
1002
{
1000
NSB00341_S2
1002
}
  0
TEXT
  5
C3DE
330
20
100
AcDbEntity
  8
10000_FRONT
  6
DASHED
 62
     7
370
    20
100
AcDbText
 39
0.25
 10
33.71372355106178
 20
462.2036406650053
 30
0.0
 40
1.5
  1
Test
 41
0.6600000000000003
100
AcDbText
1001
AUSTER_ANSICHT
1002
{
1000
Det03
1002
}
1001
AUSTER_FOLIE
1002
{
1000
NSB00341_S2
1002
}
  0
TEXT
  5
C3DF
330
20
100
AcDbEntity
  8
10000_FRONT
  6
DASHED
 62
     7
370
    20
100
AcDbText
 39
0.25
 10
31.88372355106185
 20
459.2386406650053
 30
0.0
 40
1.5
  1
0
 41
0.6600000000000003
100
AcDbText
1001
AUSTER_ANSICHT
1002
{
1000
Det03
1002
}
1001
AUSTER_FOLIE
1002
{
1000
NSB00341_S2
1002
}
  0
TEXT
  5
C3E0
330
20
100
AcDbEntity
  8
10000_FRONT
  6
DASHED
 62
     7
370
    20
100
AcDbText
 39
0.25
 10
39.38372355106185
 20
459.2386406650053
 30
0.0
 40
1.5
  1
1
 41
0.6600000000000003
100
AcDbText
1001
AUSTER_ANSICHT
1002
{
1000
Det03
1002
}
1001
AUSTER_FOLIE
1002
{
1000
NSB00341_S2
1002
}
  0
TEXT
  5
C3F3
330
20
100
AcDbEntity
  8
10000_FRONT
  6
DASHED
 62
     7
370
    20
100
AcDbText
 39
0.25
 10
-0.9482764489382587
 20
473.7876406650053
 30
0.0
 40
3.0
  1
SIEMENS
 41
0.6600000000000003
100
AcDbText
1001
AUSTER_ANSICHT
1002
{
1000
Det03
1002
}
1001
AUSTER_FOLIE
1002
{
1000
NSB00341_S2
1002
}
  0
CIRCLE
  5
C4DF
330
20
100
AcDbEntity
  8
10000_FRONT
  6
DASHED
 62
     7
370
    20
100
AcDbCircle
 39
0.25
 10
28.76172355106179
 20
437.5386406650053
 30
0.0
 40
3.1
1001
AUSTER_ANSICHT
1002
{
1000
Det03
1002
}
1001
AUSTER_FOLIE
1002
{
1000
NSB00341_S2
1002
}
  0
ARC
  5
C4E0
330
20
100
AcDbEntity
  8
10000_FRONT
  6
DASHED
 62
     7
370
    20
100
AcDbCircle
 39
0.25
 10
28.76172355106179
 20
437.5386406650053
 30
0.0
 40
2.85
100
AcDbArc
 50
347.7599999999991
 51
12.24000000000091
1001
AUSTER_ANSICHT
1002
{
1000
Det03
1002
}
1001
AUSTER_FOLIE
1002
{
1000
NSB00341_S2
1002
}
  0
ARC
  5
C4E1
330
20
100
AcDbEntity
  8
10000_FRONT
  6
DASHED
 62
     7
370
    20
100
AcDbCircle
 39
0.25
 10
28.76172355106179
 20
437.5386406650053
 30
0.0
 40
1.85
100
AcDbArc
 50
253.8369999999991
 51
286.1630000000009
1001
AUSTER_ANSICHT
1002
{
1000
Det03
1002
}
1001
AUSTER_FOLIE
1002
{
1000
NSB00341_S2
1002
}
  0
ARC
  5
C4E2
330
20
100
AcDbEntity
  8
10000_FRONT
  6
DASHED
 62
     7
370
    20
100
AcDbCircle
 39
0.25
 10
28.76172355106179
 20
437.5386406650053
 30
0.0
 40
1.85
100
AcDbArc
 50
73.83699999999911
 51
106.1630000000009
1001
AUSTER_ANSICHT
1002
{
1000
Det03
1002
}
1001
AUSTER_FOLIE
1002
{
1000
NSB00341_S2
1002
}
  0
ARC
  5
C4E3
330
20
100
AcDbEntity
  8
10000_FRONT
  6
DASHED
 62
     7
370
    20
100
AcDbCircle
 39
0.25
 10
28.76172355106179
 20
437.5386406650053
 30
0.0
 40
2.85
100
AcDbArc
 50
167.7599999999991
 51
192.2400000000009
1001
AUSTER_ANSICHT
1002
{
1000
Det03
1002
}
1001
AUSTER_FOLIE
1002
{
1000
NSB00341_S2
1002
}
  0
CIRCLE
  5
C4E4
330
20
100
AcDbEntity
  8
10000_FRONT
  6
DASHED
 62
     7
370
    20
100
AcDbCircle
 39
0.25
 10
20.16172355106187
 20
437.5386406650053
 30
0.0
 40
3.1
1001
AUSTER_ANSICHT
1002
{
1000
Det03
1002
}
1001
AUSTER_FOLIE
1002
{
1000
NSB00341_S2
1002
}
  0
ARC
  5
C4E5
330
20
100
AcDbEntity
  8
10000_FRONT
  6
DASHED
 62
     7
370
    20
100
AcDbCircle
 39
0.25
 10
20.16172355106187
 20
437.5386406650053
 30
0.0
 40
2.85
100
AcDbArc
 50
347.7599999999991
 51
12.24000000000091
1001
AUSTER_ANSICHT
1002
{
1000
Det03
1002
}
1001
AUSTER_FOLIE
1002
{
1000
NSB00341_S2
1002
}
  0
ARC
  5
C4E6
330
20
100
AcDbEntity
  8
10000_FRONT
  6
DASHED
 62
     7
370
    20
100
AcDbCircle
 39
0.25
 10
20.16172355106187
 20
437.5386406650053
 30
0.0
 40
1.85
100
AcDbArc
 50
253.8369999999991
 51
286.1630000000009
1001
AUSTER_ANSICHT
1002
{
1000
Det03
1002
}
1001
AUSTER_FOLIE
1002
{
1000
NSB00341_S2
1002
}
  0
ARC
  5
C4E7
330
20
100
AcDbEntity
  8
10000_FRONT
  6
DASHED
 62
     7
370
    20
100
AcDbCircle
 39
0.25
 10
20.16172355106187
 20
437.5386406650053
 30
0.0
 40
1.85
100
AcDbArc
 50
73.83699999999911
 51
106.1630000000009
1001
AUSTER_ANSICHT
1002
{
1000
Det03
1002
}
1001
AUSTER_FOLIE
1002
{
1000
NSB00341_S2
1002
}
  0
ARC
  5
C4E8
330
20
100
AcDbEntity
  8
10000_FRONT
  6
DASHED
 62
     7
370
    20
100
AcDbCircle
 39
0.25
 10
20.16172355106187
 20
437.5386406650053
 30
0.0
 40
2.85
100
AcDbArc
 50
167.7599999999991
 51
192.2400000000009
1001
AUSTER_ANSICHT
1002
{
1000
Det03
1002
}
1001
AUSTER_FOLIE
1002
{
1000
NSB00341_S2
1002
}
  0
CIRCLE
  5
C4E9
330
20
100
AcDbEntity
  8
10000_FRONT
  6
DASHED
 62
     7
370
    20
100
AcDbCircle
 39
0.25
 10
11.56172355106173
 20
437.5386406650053
 30
0.0
 40
3.1
1001
AUSTER_ANSICHT
1002
{
1000
Det03
1002
}
1001
AUSTER_FOLIE
1002
{
1000
NSB00341_S2
1002
}
  0
ARC
  5
C4EA
330
20
100
AcDbEntity
  8
10000_FRONT
  6
DASHED
 62
     7
370
    20
100
AcDbCircle
 39
0.25
 10
11.56172355106173
 20
437.5386406650053
 30
0.0
 40
2.85
100
AcDbArc
 50
347.7599999999991
 51
12.24000000000091
1001
AUSTER_ANSICHT
1002
{
1000
Det03
1002
}
1001
AUSTER_FOLIE
1002
{
1000
NSB00341_S2
1002
}
  0
ARC
  5
C4EB
330
20
100
AcDbEntity
  8
10000_FRONT
  6
DASHED
 62
     7
370
    20
100
AcDbCircle
 39
0.25
 10
11.56172355106173
 20
437.5386406650053
 30
0.0
 40
1.85
100
AcDbArc
 50
253.8369999999991
 51
286.1630000000009
1001
AUSTER_ANSICHT
1002
{
1000
Det03
1002
}
1001
AUSTER_FOLIE
1002
{
1000
NSB00341_S2
1002
}
  0
ARC
  5
C4EC
330
20
100
AcDbEntity
  8
10000_FRONT
  6
DASHED
 62
     7
370
    20
100
AcDbCircle
 39
0.25
 10
11.56172355106173
 20
437.5386406650053
 30
0.0
 40
1.85
100
AcDbArc
 50
73.83699999999911
 51
106.1630000000009
1001
AUSTER_ANSICHT
1002
{
1000
Det03
1002
}
1001
AUSTER_FOLIE
1002
{
1000
NSB00341_S2
1002
}
  0
ARC
  5
C4ED
330
20
100
AcDbEntity
  8
10000_FRONT
  6
DASHED
 62
     7
370
    20
100
AcDbCircle
 39
0.25
 10
11.56172355106173
 20
437.5386406650053
 30
0.0
 40
2.85
100
AcDbArc
 50
167.7599999999991
 51
192.2400000000009
1001
AUSTER_ANSICHT
1002
{
1000
Det03
1002
}
1001
AUSTER_FOLIE
1002
{
1000
NSB00341_S2
1002
}
  0
CIRCLE
  5
C4EE
330
20
100
AcDbEntity
  8
10000_FRONT
  6
DASHED
 62
     7
370
    20
100
AcDbCircle
 39
0.25
 10
2.961723551061821
 20
437.5386406650053
 30
0.0
 40
3.1
1001
AUSTER_ANSICHT
1002
{
1000
Det03
1002
}
1001
AUSTER_FOLIE
1002
{
1000
NSB00341_S2
1002
}
  0
ARC
  5
C4EF
330
20
100
AcDbEntity
  8
10000_FRONT
  6
DASHED
 62
     7
370
    20
100
AcDbCircle
 39
0.25
 10
2.961723551061821
 20
437.5386406650053
 30
0.0
 40
2.85
100
AcDbArc
 50
347.7599999999991
 51
12.24000000000091
1001
AUSTER_ANSICHT
1002
{
1000
Det03
1002
}
1001
AUSTER_FOLIE
1002
{
1000
NSB00341_S2
1002
}
  0
ARC
  5
C4F0
330
20
100
AcDbEntity
  8
10000_FRONT
  6
DASHED
 62
     7
370
    20
100
AcDbCircle
 39
0.25
 10
2.961723551061821
 20
437.5386406650053
 30
0.0
 40
1.85
100
AcDbArc
 50
253.8369999999991
 51
286.1630000000009
1001
AUSTER_ANSICHT
1002
{
1000
Det03
1002
}
1001
AUSTER_FOLIE
1002
{
1000
NSB00341_S2
1002
}
  0
ARC
  5
C4F1
330
20
100
AcDbEntity
  8
10000_FRONT
  6
DASHED
 62
     7
370
    20
100
AcDbCircle
 39
0.25
 10
2.961723551061821
 20
437.5386406650053
 30
0.0
 40
1.85
100
AcDbArc
 50
73.83699999999911
 51
106.1630000000009
1001
AUSTER_ANSICHT
1002
{
1000
Det03
1002
}
1001
AUSTER_FOLIE
1002
{
1000
NSB00341_S2
1002
}
  0
ARC
  5
C4F2
330
20
100
AcDbEntity
  8
10000_FRONT
  6
DASHED
 62
     7
370
    20
100
AcDbCircle
 39
0.25
 10
2.961723551061821
 20
437.5386406650053
 30
0.0
 40
2.85
100
AcDbArc
 50
167.7599999999991
 51
192.2400000000009
1001
AUSTER_ANSICHT
1002
{
1000
Det03
1002
}
1001
AUSTER_FOLIE
1002
{
1000
NSB00341_S2
1002
}
  0
CIRCLE
  5
C4F3
330
20
100
AcDbEntity
  8
10000_FRONT
  6
DASHED
 62
     7
370
    20
100
AcDbCircle
 39
0.25
 10
37.3617235510618
 20
437.5386406650053
 30
0.0
 40
3.1
1001
AUSTER_ANSICHT
1002
{
1000
Det03
1002
}
1001
AUSTER_FOLIE
1002
{
1000
NSB00341_S2
1002
}
  0
ARC
  5
C4F4
330
20
100
AcDbEntity
  8
10000_FRONT
  6
DASHED
 62
     7
370
    20
100
AcDbCircle
 39
0.25
 10
37.3617235510618
 20
437.5386406650053
 30
0.0
 40
2.85
100
AcDbArc
 50
347.7599999999991
 51
12.24000000000091
1001
AUSTER_ANSICHT
1002
{
1000
Det03
1002
}
1001
AUSTER_FOLIE
1002
{
1000
NSB00341_S2
1002
}
  0
ARC
  5
C4F5
330
20
100
AcDbEntity
  8
10000_FRONT
  6
DASHED
 62
     7
370
    20
100
AcDbCircle
 39
0.25
 10
37.3617235510618
 20
437.5386406650053
 30
0.0
 40
1.85
100
AcDbArc
 50
253.8369999999991
 51
286.1630000000009
1001
AUSTER_ANSICHT
1002
{
1000
Det03
1002
}
1001
AUSTER_FOLIE
1002
{
1000
NSB00341_S2
1002
}
  0
ARC
  5
C4F6
330
20
100
AcDbEntity
  8
10000_FRONT
  6
DASHED
 62
     7
370
    20
100
AcDbCircle
 39
0.25
 10
37.3617235510618
 20
437.5386406650053
 30
0.0
 40
1.85
100
AcDbArc
 50
73.83699999999911
 51
106.1630000000009
1001
AUSTER_ANSICHT
1002
{
1000
Det03
1002
}
1001
AUSTER_FOLIE
1002
{
1000
NSB00341_S2
1002
}
  0
ARC
  5
C4F7
330
20
100
AcDbEntity
  8
10000_FRONT
  6
DASHED
 62
     7
370
    20
100
AcDbCircle
 39
0.25
 10
37.3617235510618
 20
437.5386406650053
 30
0.0
 40
2.85
100
AcDbArc
 50
167.7599999999991
 51
192.2400000000009
1001
AUSTER_ANSICHT
1002
{
1000
Det03
1002
}
1001
AUSTER_FOLIE
1002
{
1000
NSB00341_S2
1002
}
  0
CIRCLE
  5
C4F8
330
20
100
AcDbEntity
  8
10000_FRONT
  6
DASHED
 62
     7
370
    20
100
AcDbCircle
 39
0.25
 10
28.76172355106179
 20
437.5386406650053
 30
0.0
 40
3.1
1001
AUSTER_ANSICHT
1002
{
1000
Det03
1002
}
1001
AUSTER_FOLIE
1002
{
1000
NSB00341_S2
1002
}
  0
ARC
  5
C4F9
330
20
100
AcDbEntity
  8
10000_FRONT
  6
DASHED
 62
     7
370
    20
100
AcDbCircle
 39
0.25
 10
28.76172355106179
 20
437.5386406650053
 30
0.0
 40
2.85
100
AcDbArc
 50
347.7599999999991
 51
12.24000000000091
1001
AUSTER_ANSICHT
1002
{
1000
Det03
1002
}
1001
AUSTER_FOLIE
1002
{
1000
NSB00341_S2
1002
}
  0
ARC
  5
C4FA
330
20
100
AcDbEntity
  8
10000_FRONT
  6
DASHED
 62
     7
370
    20
100
AcDbCircle
 39
0.25
 10
28.76172355106179
 20
437.5386406650053
 30
0.0
 40
1.85
100
AcDbArc
 50
253.8369999999991
 51
286.1630000000009
1001
AUSTER_ANSICHT
1002
{
1000
Det03
1002
}
1001
AUSTER_FOLIE
1002
{
1000
NSB00341_S2
1002
}
  0
ARC
  5
C4FB
330
20
100
AcDbEntity
  8
10000_FRONT
  6
DASHED
 62
     7
370
    20
100
AcDbCircle
 39
0.25
 10
28.76172355106179
 20
437.5386406650053
 30
0.0
 40
1.85
100
AcDbArc
 50
73.83699999999911
 51
106.1630000000009
1001
AUSTER_ANSICHT
1002
{
1000
Det03
1002
}
1001
AUSTER_FOLIE
1002
{
1000
NSB00341_S2
1002
}
  0
ARC
  5
C4FC
330
20
100
AcDbEntity
  8
10000_FRONT
  6
DASHED
 62
     7
370
    20
100
AcDbCircle
 39
0.25
 10
28.76172355106179
 20
437.5386406650053
 30
0.0
 40
2.85
100
AcDbArc
 50
167.7599999999991
 51
192.2400000000009
1001
AUSTER_ANSICHT
1002
{
1000
Det03
1002
}
1001
AUSTER_FOLIE
1002
{
1000
NSB00341_S2
1002
}
  0
CIRCLE
  5
C4FD
330
20
100
AcDbEntity
  8
10000_FRONT
  6
DASHED
 62
     7
370
    20
100
AcDbCircle
 39
0.25
 10
20.16172355106187
 20
437.5386406650053
 30
0.0
 40
3.1
1001
AUSTER_ANSICHT
1002
{
1000
Det03
1002
}
1001
AUSTER_FOLIE
1002
{
1000
NSB00341_S2
1002
}
  0
ARC
  5
C4FE
330
20
100
AcDbEntity
  8
10000_FRONT
  6
DASHED
 62
     7
370
    20
100
AcDbCircle
 39
0.25
 10
20.16172355106187
 20
437.5386406650053
 30
0.0
 40
2.85
100
AcDbArc
 50
347.7599999999991
 51
12.24000000000091
1001
AUSTER_ANSICHT
1002
{
1000
Det03
1002
}
1001
AUSTER_FOLIE
1002
{
1000
NSB00341_S2
1002
}
  0
ARC
  5
C4FF
330
20
100
AcDbEntity
  8
10000_FRONT
  6
DASHED
 62
     7
370
    20
100
AcDbCircle
 39
0.25
 10
20.16172355106187
 20
437.5386406650053
 30
0.0
 40
1.85
100
AcDbArc
 50
253.8369999999991
 51
286.1630000000009
1001
AUSTER_ANSICHT
1002
{
1000
Det03
1002
}
1001
AUSTER_FOLIE
1002
{
1000
NSB00341_S2
1002
}
  0
ARC
  5
C500
330
20
100
AcDbEntity
  8
10000_FRONT
  6
DASHED
 62
     7
370
    20
100
AcDbCircle
 39
0.25
 10
20.16172355106187
 20
437.5386406650053
 30
0.0
 40
1.85
100
AcDbArc
 50
73.83699999999911
 51
106.1630000000009
1001
AUSTER_ANSICHT
1002
{
1000
Det03
1002
}
1001
AUSTER_FOLIE
1002
{
1000
NSB00341_S2
1002
}
  0
ARC
  5
C501
330
20
100
AcDbEntity
  8
10000_FRONT
  6
DASHED
 62
     7
370
    20
100
AcDbCircle
 39
0.25
 10
20.16172355106187
 20
437.5386406650053
 30
0.0
 40
2.85
100
AcDbArc
 50
167.7599999999991
 51
192.2400000000009
1001
AUSTER_ANSICHT
1002
{
1000
Det03
1002
}
1001
AUSTER_FOLIE
1002
{
1000
NSB00341_S2
1002
}
  0
CIRCLE
  5
C502
330
20
100
AcDbEntity
  8
10000_FRONT
  6
DASHED
 62
     7
370
    20
100
AcDbCircle
 39
0.25
 10
11.56172355106173
 20
437.5386406650053
 30
0.0
 40
3.1
1001
AUSTER_ANSICHT
1002
{
1000
Det03
1002
}
1001
AUSTER_FOLIE
1002
{
1000
NSB00341_S2
1002
}
  0
ARC
  5
C503
330
20
100
AcDbEntity
  8
10000_FRONT
  6
DASHED
 62
     7
370
    20
100
AcDbCircle
 39
0.25
 10
11.56172355106173
 20
437.5386406650053
 30
0.0
 40
2.85
100
AcDbArc
 50
347.7599999999991
 51
12.24000000000091
1001
AUSTER_ANSICHT
1002
{
1000
Det03
1002
}
1001
AUSTER_FOLIE
1002
{
1000
NSB00341_S2
1002
}
  0
ARC
  5
C504
330
20
100
AcDbEntity
  8
10000_FRONT
  6
DASHED
 62
     7
370
    20
100
AcDbCircle
 39
0.25
 10
11.56172355106173
 20
437.5386406650053
 30
0.0
 40
1.85
100
AcDbArc
 50
253.8369999999991
 51
286.1630000000009
1001
AUSTER_ANSICHT
1002
{
1000
Det03
1002
}
1001
AUSTER_FOLIE
1002
{
1000
NSB00341_S2
1002
}
  0
ARC
  5
C505
330
20
100
AcDbEntity
  8
10000_FRONT
  6
DASHED
 62
     7
370
    20
100
AcDbCircle
 39
0.25
 10
11.56172355106173
 20
437.5386406650053
 30
0.0
 40
1.85
100
AcDbArc
 50
73.83699999999911
 51
106.1630000000009
1001
AUSTER_ANSICHT
1002
{
1000
Det03
1002
}
1001
AUSTER_FOLIE
1002
{
1000
NSB00341_S2
1002
}
  0
ARC
  5
C506
330
20
100
AcDbEntity
  8
10000_FRONT
  6
DASHED
 62
     7
370
    20
100
AcDbCircle
 39
0.25
 10
11.56172355106173
 20
437.5386406650053
 30
0.0
 40
2.85
100
AcDbArc
 50
167.7599999999991
 51
192.2400000000009
1001
AUSTER_ANSICHT
1002
{
1000
Det03
1002
}
1001
AUSTER_FOLIE
1002
{
1000
NSB00341_S2
1002
}
  0
CIRCLE
  5
C507
330
20
100
AcDbEntity
  8
10000_FRONT
  6
DASHED
 62
     7
370
    20
100
AcDbCircle
 39
0.25
 10
2.961723551061821
 20
437.5386406650053
 30
0.0
 40
3.1
1001
AUSTER_ANSICHT
1002
{
1000
Det03
1002
}
1001
AUSTER_FOLIE
1002
{
1000
NSB00341_S2
1002
}
  0
ARC
  5
C508
330
20
100
AcDbEntity
  8
10000_FRONT
  6
DASHED
 62
     7
370
    20
100
AcDbCircle
 39
0.25
 10
2.961723551061821
 20
437.5386406650053
 30
0.0
 40
2.85
100
AcDbArc
 50
347.7599999999991
 51
12.24000000000091
1001
AUSTER_ANSICHT
1002
{
1000
Det03
1002
}
1001
AUSTER_FOLIE
1002
{
1000
NSB00341_S2
1002
}
  0
ARC
  5
C509
330
20
100
AcDbEntity
  8
10000_FRONT
  6
DASHED
 62
     7
370
    20
100
AcDbCircle
 39
0.25
 10
2.961723551061821
 20
437.5386406650053
 30
0.0
 40
1.85
100
AcDbArc
 50
253.8369999999991
 51
286.1630000000009
1001
AUSTER_ANSICHT
1002
{
1000
Det03
1002
}
1001
AUSTER_FOLIE
1002
{
1000
NSB00341_S2
1002
}
  0
ARC
  5
C50A
330
20
100
AcDbEntity
  8
10000_FRONT
  6
DASHED
 62
     7
370
    20
100
AcDbCircle
 39
0.25
 10
2.961723551061821
 20
437.5386406650053
 30
0.0
 40
1.85
100
AcDbArc
 50
73.83699999999911
 51
106.1630000000009
1001
AUSTER_ANSICHT
1002
{
1000
Det03
1002
}
1001
AUSTER_FOLIE
1002
{
1000
NSB00341_S2
1002
}
  0
ARC
  5
C50B
330
20
100
AcDbEntity
  8
10000_FRONT
  6
DASHED
 62
     7
370
    20
100
AcDbCircle
 39
0.25
 10
2.961723551061821
 20
437.5386406650053
 30
0.0
 40
2.85
100
AcDbArc
 50
167.7599999999991
 51
192.2400000000009
1001
AUSTER_ANSICHT
1002
{
1000
Det03
1002
}
1001
AUSTER_FOLIE
1002
{
1000
NSB00341_S2
1002
}
  0
ARC
  5
C517
330
20
100
AcDbEntity
  8
11000_Left
  6
DASHED
 62
     7
370
    20
100
AcDbCircle
 39
0.25
 10
144.7960072077657
 20
406.5386406650053
 30
0.0
 40
0.4
100
AcDbArc
 50
270.0
 51
0.0
1001
AUSTER_ANSICHT
1002
{
1000
Det03
1002
}
1001
AUSTER_FOLIE
1002
{
1000
NSB00341_S2
1002
}
  0
ARC
  5
C518
330
20
100
AcDbEntity
  8
11000_Left
  6
Continuous
 62
     7
370
    20
100
AcDbCircle
 39
0.7
 10
92.7130072077656
 20
437.8976406650052
 30
0.0
 40
1.0
100
AcDbArc
 50
189.9999999999985
 51
224.1790000000008
1001
AUSTER_ANSICHT
1002
{
1000
Det03
1002
}
1001
AUSTER_FOLIE
1002
{
1000
NSB00341_S2
1002
}
  0
ARC
  5
C519
330
20
100
AcDbEntity
  8
11000_Left
  6
Continuous
 62
     7
370
    20
100
AcDbCircle
 39
0.7
 10
88.7950072077656
 20
435.9006406650053
 30
0.0
 40
0.4
100
AcDbArc
 50
139.9999999999966
 51
180.0
1001
AUSTER_ANSICHT
1002
{
1000
Det03
1002
}
1001
AUSTER_FOLIE
1002
{
1000
NSB00341_S2
1002
}
  0
ARC
  5
C51A
330
20
100
AcDbEntity
  8
11000_Left
  6
Continuous
 62
     7
370
    20
100
AcDbCircle
 39
0.7
 10
91.09500720776566
 20
438.6416406650053
 30
0.0
 40
0.4
100
AcDbArc
 50
90.0
 51
139.9999999999966
1001
AUSTER_ANSICHT
1002
{
1000
Det03
1002
}
1001
AUSTER_FOLIE
1002
{
1000
NSB00341_S2
1002
}
  0
ARC
  5
C51B
330
20
100
AcDbEntity
  8
11000_Left
  6
Continuous
 62
     7
370
    50
100
AcDbCircle
 39
0.7
 10
-98.8049927922343
 20
451.1416406650053
 30
0.0
 40
300.0
100
AcDbArc
 50
6.078000000000763
 51
9.496999999997523
1001
AUSTER_ANSICHT
1002
{
1000
Det03
1002
}
1001
AUSTER_FOLIE
1002
{
1000
NSB00341_S2
1002
}
  0
ARC
  5
C51C
330
20
100
AcDbEntity
  8
11000_Left
  6
Continuous
 62
     7
370
    50
100
AcDbCircle
 39
0.7
 10
196.4920072077655
 20
500.5416406650055
 30
0.0
 40
0.6
100
AcDbArc
 50
9.363000000000171
 51
90.0
1001
AUSTER_ANSICHT
1002
{
1000
Det03
1002
}
1001
AUSTER_FOLIE
1002
{
1000
NSB00341_S2
1002
}
  0
ARC
  5
C51D
330
20
100
AcDbEntity
  8
11000_Left
  6
Continuous
 62
     7
370
    20
100
AcDbCircle
 39
0.7
 10
133.0960072077656
 20
406.5386406650053
 30
0.0
 40
0.4
100
AcDbArc
 50
180.0
 51
270.0
1001
AUSTER_ANSICHT
1002
{
1000
Det03
1002
}
1001
AUSTER_FOLIE
1002
{
1000
NSB00341_S2
1002
}
  0
ARC
  5
C51E
330
20
100
AcDbEntity
  8
11000_Left
  6
DASHED
 62
     7
370
    20
100
AcDbCircle
 39
0.25
 10
-120.6039927922343
 20
458.1386406650053
 30
0.0
 40
300.0
100
AcDbArc
 50
350.6779999999972
 51
353.9219999999992
1001
AUSTER_ANSICHT
1002
{
1000
Det03
1002
}
1001
AUSTER_FOLIE
1002
{
1000
NSB00341_S2
1002
}
  0
ARC
  5
C51F
330
20
100
AcDbEntity
  8
11000_Left
  6
DASHED
 62
     7
370
    20
100
AcDbCircle
 39
0.7
 10
198.8697840231319
 20
481.3590542059931
 30
0.0
 40
0.8798671540708403
100
AcDbArc
 50
30.77114641920272
 51
88.55270184786094
1001
AUSTER_ANSICHT
1002
{
1000
Det03
1002
}
1001
AUSTER_FOLIE
1002
{
1000
NSB00341_S2
1002
}
  0
ARC
  5
C520
330
20
100
AcDbEntity
  8
11000_Left
  6
DASHED
 62
     7
370
    20
100
AcDbCircle
 39
0.25
 10
197.7070072077655
 20
428.0386406650053
 30
0.0
 40
0.8
100
AcDbArc
 50
270.0
 51
343.1530000000031
1001
AUSTER_ANSICHT
1002
{
1000
Det03
1002
}
1001
AUSTER_FOLIE
1002
{
1000
NSB00341_S2
1002
}
  0
ARC
  5
C521
330
20
100
AcDbEntity
  8
11000_Left
  6
DASHED
 62
     7
370
    50
100
AcDbCircle
 39
0.25
 10
193.9360072077656
 20
481.0386406650053
 30
0.0
 40
1.199999999999999
100
AcDbArc
 50
90.0
 51
160.0000000000034
1001
AUSTER_ANSICHT
1002
{
1000
Det03
1002
}
1001
AUSTER_FOLIE
1002
{
1000
NSB00341_S2
1002
}
  0
ARC
  5
C522
330
20
100
AcDbEntity
  8
11000_Left
  6
Continuous
 62
     7
370
    50
100
AcDbCircle
 39
0.7
 10
186.8540072077657
 20
470.9386406650053
 30
0.0
 40
2.0
100
AcDbArc
 50
270.0
 51
340.0000000000034
1001
AUSTER_ANSICHT
1002
{
1000
Det03
1002
}
1001
AUSTER_FOLIE
1002
{
1000
NSB00341_S2
1002
}
  0
ARC
  5
C523
330
20
100
AcDbEntity
  8
11000_Left
  6
Continuous
 62
     7
370
    50
100
AcDbCircle
 39
0.7
 10
146.6770072077656
 20
464.3386406650053
 30
0.0
 40
1.199999999999999
100
AcDbArc
 50
270.0
 51
314.9999999999999
1001
AUSTER_ANSICHT
1002
{
1000
Det03
1002
}
1001
AUSTER_FOLIE
1002
{
1000
NSB00341_S2
1002
}
  0
ARC
  5
C524
330
20
100
AcDbEntity
  8
11000_Left
  6
Continuous
 62
     7
370
    50
100
AcDbCircle
 39
0.7
 10
153.4710072077656
 20
467.7386406650053
 30
0.0
 40
1.199999999999999
100
AcDbArc
 50
90.0
 51
134.9999999999997
1001
AUSTER_ANSICHT
1002
{
1000
Det03
1002
}
1001
AUSTER_FOLIE
1002
{
1000
NSB00341_S2
1002
}
  0
ARC
  5
C525
330
20
100
AcDbEntity
  8
11000_Left
  6
DASHED
 62
     7
370
    20
100
AcDbCircle
 39
0.25
 10
161.2960072077657
 20
462.7386406650053
 30
0.0
 40
0.4
100
AcDbArc
 50
90.0
 51
180.0
1001
AUSTER_ANSICHT
1002
{
1000
Det03
1002
}
1001
AUSTER_FOLIE
1002
{
1000
NSB00341_S2
1002
}
  0
ARC
  5
C526
330
20
100
AcDbEntity
  8
11000_Left
  6
DASHED
 62
     7
370
    20
100
AcDbCircle
 39
0.25
 10
160.4960072077656
 20
458.2096406650053
 30
0.0
 40
0.4
100
AcDbArc
 50
340.0000000000034
 51
0.0
1001
AUSTER_ANSICHT
1002
{
1000
Det03
1002
}
1001
AUSTER_FOLIE
1002
{
1000
NSB00341_S2
1002
}
  0
ARC
  5
C527
330
20
100
AcDbEntity
  8
11000_Left
  6
DASHED
 62
     7
370
    20
100
AcDbCircle
 39
0.25
 10
159.5240072077656
 20
455.5386406650053
 30
0.0
 40
0.4
100
AcDbArc
 50
270.0
 51
340.0000000000034
1001
AUSTER_ANSICHT
1002
{
1000
Det03
1002
}
1001
AUSTER_FOLIE
1002
{
1000
NSB00341_S2
1002
}
  0
ARC
  5
C528
330
20
100
AcDbEntity
  8
11000_Left
  6
Continuous
 62
     7
370
    50
100
AcDbCircle
 39
0.7
 10
101.9960072077656
 20
462.7386406650053
 30
0.0
 40
0.4
100
AcDbArc
 50
90.0
 51
180.0
1001
AUSTER_ANSICHT
1002
{
1000
Det03
1002
}
1001
AUSTER_FOLIE
1002
{
1000
NSB00341_S2
1002
}
  0
ARC
  5
C529
330
20
100
AcDbEntity
  8
11000_Left
  6
Continuous
 62
     7
370
    20
100
AcDbCircle
 39
0.7
 10
101.9960072077656
 20
408.5386406650053
 30
0.0
 40
0.4
100
AcDbArc
 50
180.0
 51
270.0
1001
AUSTER_ANSICHT
1002
{
1000
Det03
1002
}
1001
AUSTER_FOLIE
1002
{
1000
NSB00341_S2
1002
}
  0
ARC
  5
C52A
330
20
100
AcDbEntity
  8
11000_Left
  6
DASHED
 62
     7
370
    20
100
AcDbCircle
 39
0.25
 10
174.6920072077656
 20
408.7386406650053
 30
0.0
 40
0.6
100
AcDbArc
 50
270.0
 51
350.5030000000025
1001
AUSTER_ANSICHT
1002
{
1000
Det03
1002
}
1001
AUSTER_FOLIE
1002
{
1000
NSB00341_S2
1002
}
  0
ARC
  5
C52B
330
20
100
AcDbEntity
  8
11000_Left
  6
DASHED
 62
     7
370
    20
100
AcDbCircle
 39
0.25
 10
177.1130072077657
 20
426.4386406650053
 30
0.0
 40
0.6
100
AcDbArc
 50
353.9219999999992
 51
89.99699999999959
1001
AUSTER_ANSICHT
1002
{
1000
Det03
1002
}
1001
AUSTER_FOLIE
1002
{
1000
NSB00341_S2
1002
}
  0
ARC
  5
C52C
330
20
100
AcDbEntity
  8
11000_Left
  6
DASHED
 62
     7
370
    20
100
AcDbCircle
 39
0.25
 10
-49.40399279223436
 20
460.2386406650053
 30
0.0
 40
249.989
100
AcDbArc
 50
352.5460000000009
 51
4.71899999999981
1001
AUSTER_ANSICHT
1002
{
1000
Det03
1002
}
1001
AUSTER_FOLIE
1002
{
1000
NSB00341_S2
1002
}
  0
ARC
  5
C52D
330
20
100
AcDbEntity
  8
11000_Left
  6
DASHED
 62
     7
370
    20
100
AcDbCircle
 39
0.25
 10
195.1190072077656
 20
450.1386406650054
 30
0.0
 40
10.0
100
AcDbArc
 50
0.0
 51
15.54799999999896
1001
AUSTER_ANSICHT
1002
{
1000
Det03
1002
}
1001
AUSTER_FOLIE
1002
{
1000
NSB00341_S2
1002
}
  0
ARC
  5
C52E
330
20
100
AcDbEntity
  8
11000_Left
  6
DASHED
 62
     7
370
    20
100
AcDbCircle
 39
0.25
 10
204.4650072077656
 20
452.7386406650053
 30
0.0
 40
0.3
100
AcDbArc
 50
15.54799999999896
 51
90.0
1001
AUSTER_ANSICHT
1002
{
1000
Det03
1002
}
1001
AUSTER_FOLIE
1002
{
1000
NSB00341_S2
1002
}
  0
ARC
  5
C52F
330
20
100
AcDbEntity
  8
11000_Left
  6
DASHED
 62
     7
370
    20
100
AcDbCircle
 39
0.25
 10
195.1190072077656
 20
450.1386406650054
 30
0.0
 40
10.0
100
AcDbArc
 50
344.452000000001
 51
0.0
1001
AUSTER_ANSICHT
1002
{
1000
Det03
1002
}
1001
AUSTER_FOLIE
1002
{
1000
NSB00341_S2
1002
}
  0
ARC
  5
C530
330
20
100
AcDbEntity
  8
11000_Left
  6
DASHED
 62
     7
370
    20
100
AcDbCircle
 39
0.25
 10
204.4650072077656
 20
447.5386406650053
 30
0.0
 40
0.3
100
AcDbArc
 50
270.0
 51
344.452000000001
1001
AUSTER_ANSICHT
1002
{
1000
Det03
1002
}
1001
AUSTER_FOLIE
1002
{
1000
NSB00341_S2
1002
}
  0
ARC
  5
C531
330
20
100
AcDbEntity
  8
11000_Left
  6
DASHED
 62
     7
370
    20
100
AcDbCircle
 39
0.25
 10
-49.40399279223436
 20
465.7886406650053
 30
0.0
 40
252.0
100
AcDbArc
 50
357.4490000000019
 51
359.5450000000021
1001
AUSTER_ANSICHT
1002
{
1000
Det03
1002
}
1001
AUSTER_FOLIE
1002
{
1000
NSB00341_S2
1002
}
  0
ARC
  5
C532
330
20
100
AcDbEntity
  8
11000_Left
  6
DASHED
 62
     7
370
    20
100
AcDbCircle
 39
0.25
 10
202.2880072077656
 20
463.7886406650053
 30
0.0
 40
0.3
100
AcDbArc
 50
359.5450000000021
 51
90.0
1001
AUSTER_ANSICHT
1002
{
1000
Det03
1002
}
1001
AUSTER_FOLIE
1002
{
1000
NSB00341_S2
1002
}
  0
ARC
  5
C533
330
20
100
AcDbEntity
  8
11000_Left
  6
DASHED
 62
     7
370
    20
100
AcDbCircle
 39
0.25
 10
202.0510072077657
 20
454.5846406650055
 30
0.0
 40
0.296
100
AcDbArc
 50
270.0
 51
357.4490000000019
1001
AUSTER_ANSICHT
1002
{
1000
Det03
1002
}
1001
AUSTER_FOLIE
1002
{
1000
NSB00341_S2
1002
}
  0
CIRCLE
  5
C534
330
20
100
AcDbEntity
  8
10000_FRONT
  6
DASHED
 62
     7
370
    20
100
AcDbCircle
 39
0.25
 10
36.16172355106187
 20
450.1386406650054
 30
0.0
 40
4.0
1001
AUSTER_ANSICHT
1002
{
1000
Det03
1002
}
1001
AUSTER_FOLIE
1002
{
1000
NSB00341_S2
1002
}
  0
CIRCLE
  5
C535
330
20
100
AcDbEntity
  8
10000_FRONT
  6
DASHED
 62
     7
370
    20
100
AcDbCircle
 39
0.25
 10
1.6117235510618
 20
450.1386406650054
 30
0.0
 40
2.9
1001
AUSTER_ANSICHT
1002
{
1000
Det03
1002
}
1001
AUSTER_FOLIE
1002
{
1000
NSB00341_S2
1002
}
  0
ARC
  5
C536
330
20
100
AcDbEntity
  8
10000_FRONT
  6
DASHED
 62
     7
370
    20
100
AcDbCircle
 39
0.25
 10
41.56172355106171
 20
428.2886406650053
 30
0.0
 40
1.0
100
AcDbArc
 50
270.0
 51
0.0
1001
AUSTER_ANSICHT
1002
{
1000
Det03
1002
}
1001
AUSTER_FOLIE
1002
{
1000
NSB00341_S2
1002
}
  0
ARC
  5
C537
330
20
100
AcDbEntity
  8
10000_FRONT
  6
DASHED
 62
     7
370
    20
100
AcDbCircle
 39
0.25
 10
-1.438276448938268
 20
428.2906406650053
 30
0.0
 40
1.0
100
AcDbArc
 50
180.0
 51
270.0
1001
AUSTER_ANSICHT
1002
{
1000
Det03
1002
}
1001
AUSTER_FOLIE
1002
{
1000
NSB00341_S2
1002
}
  0
CIRCLE
  5
C538
330
20
100
AcDbEntity
  8
10000_FRONT
  6
DASHED
 62
     7
370
    20
100
AcDbCircle
 39
0.25
 10
13.06172355106173
 20
450.1386406650054
 30
0.0
 40
3.02
1001
AUSTER_ANSICHT
1002
{
1000
Det03
1002
}
1001
AUSTER_FOLIE
1002
{
1000
NSB00341_S2
1002
}
  0
ARC
  5
C539
330
20
100
AcDbEntity
  8
10000_FRONT
  6
DASHED
 62
     7
370
    20
100
AcDbCircle
 39
0.25
 10
13.06172355106173
 20
450.1386406650054
 30
0.0
 40
2.85
100
AcDbArc
 50
122.7599999999964
 51
147.2399999999976
1001
AUSTER_ANSICHT
1002
{
1000
Det03
1002
}
1001
AUSTER_FOLIE
1002
{
1000
NSB00341_S2
1002
}
  0
ARC
  5
C53A
330
20
100
AcDbEntity
  8
10000_FRONT
  6
DASHED
 62
     7
370
    20
100
AcDbCircle
 39
0.25
 10
13.06172355106173
 20
450.1386406650054
 30
0.0
 40
1.85
100
AcDbArc
 50
28.8370000000002
 51
61.16300000000087
1001
AUSTER_ANSICHT
1002
{
1000
Det03
1002
}
1001
AUSTER_FOLIE
1002
{
1000
NSB00341_S2
1002
}
  0
ARC
  5
C53B
330
20
100
AcDbEntity
  8
10000_FRONT
  6
DASHED
 62
     7
370
    20
100
AcDbCircle
 39
0.25
 10
13.06172355106173
 20
450.1386406650054
 30
0.0
 40
1.85
100
AcDbArc
 50
208.8370000000002
 51
241.1630000000009
1001
AUSTER_ANSICHT
1002
{
1000
Det03
1002
}
1001
AUSTER_FOLIE
1002
{
1000
NSB00341_S2
1002
}
  0
ARC
  5
C53C
330
20
100
AcDbEntity
  8
10000_FRONT
  6
DASHED
 62
     7
370
    20
100
AcDbCircle
 39
0.25
 10
13.06172355106173
 20
450.1386406650054
 30
0.0
 40
2.85
100
AcDbArc
 50
302.7599999999964
 51
327.2399999999976
1001
AUSTER_ANSICHT
1002
{
1000
Det03
1002
}
1001
AUSTER_FOLIE
1002
{
1000
NSB00341_S2
1002
}
  0
ARC
  5
C53D
330
20
100
AcDbEntity
  8
10000_FRONT
  6
DASHED
 62
     7
370
    20
100
AcDbCircle
 39
0.25
 10
36.16172355106187
 20
450.1386406650054
 30
0.0
 40
2.85
100
AcDbArc
 50
62.7600000000008
 51
87.24000000000035
1001
AUSTER_ANSICHT
1002
{
1000
Det03
1002
}
1001
AUSTER_FOLIE
1002
{
1000
NSB00341_S2
1002
}
  0
ARC
  5
C53E
330
20
100
AcDbEntity
  8
10000_FRONT
  6
DASHED
 62
     7
370
    20
100
AcDbCircle
 39
0.25
 10
36.16172355106187
 20
450.1386406650054
 30
0.0
 40
1.85
100
AcDbArc
 50
328.8369999999978
 51
1.162999999997688
1001
AUSTER_ANSICHT
1002
{
1000
Det03
1002
}
1001
AUSTER_FOLIE
1002
{
1000
NSB00341_S2
1002
}
  0
ARC
  5
C53F
330
20
100
AcDbEntity
  8
10000_FRONT
  6
DASHED
 62
     7
370
    20
100
AcDbCircle
 39
0.25
 10
36.16172355106187
 20
450.1386406650054
 30
0.0
 40
1.85
100
AcDbArc
 50
148.8369999999977
 51
181.1629999999976
1001
AUSTER_ANSICHT
1002
{
1000
Det03
1002
}
1001
AUSTER_FOLIE
1002
{
1000
NSB00341_S2
1002
}
  0
ARC
  5
C540
330
20
100
AcDbEntity
  8
10000_FRONT
  6
DASHED
 62
     7
370
    20
100
AcDbCircle
 39
0.25
 10
36.16172355106187
 20
450.1386406650054
 30
0.0
 40
2.85
100
AcDbArc
 50
242.7600000000005
 51
267.2400000000004
1001
AUSTER_ANSICHT
1002
{
1000
Det03
1002
}
1001
AUSTER_FOLIE
1002
{
1000
NSB00341_S2
1002
}
  0
ARC
  5
C541
330
20
100
AcDbEntity
  8
10000_FRONT
  6
DASHED
 62
     7
370
    20
100
AcDbCircle
 39
0.25
 10
-5.850276448938187
 20
428.7866406650053
 30
0.0
 40
1.498
100
AcDbArc
 50
179.9500000000012
 51
270.0729999999999
1001
AUSTER_ANSICHT
1002
{
1000
Det03
1002
}
1001
AUSTER_FOLIE
1002
{
1000
NSB00341_S2
1002
}
  0
ARC
  5
C542
330
20
100
AcDbEntity
  8
10000_FRONT
  6
Continuous
 62
     7
370
    50
100
AcDbCircle
 39
0.25
 10
-5.84827644893812
 20
480.7866406650053
 30
0.0
 40
1.500999999999999
100
AcDbArc
 50
90.02300000000131
 51
179.9709999999989
1001
AUSTER_ANSICHT
1002
{
1000
Det03
1002
}
1001
AUSTER_FOLIE
1002
{
1000
NSB00341_S2
1002
}
  0
ARC
  5
C543
330
20
100
AcDbEntity
  8
10000_FRONT
  6
Continuous
 62
     7
370
    50
100
AcDbCircle
 39
0.25
 10
45.95272355106181
 20
480.7886406650053
 30
0.0
 40
1.499
100
AcDbArc
 50
359.9790000000023
 51
90.03100000000108
1001
AUSTER_ANSICHT
1002
{
1000
Det03
1002
}
1001
AUSTER_FOLIE
1002
{
1000
NSB00341_S2
1002
}
  0
ARC
  5
C544
330
20
100
AcDbEntity
  8
10000_FRONT
  6
DASHED
 62
     7
370
    20
100
AcDbCircle
 39
0.25
 10
45.94972355106188
 20
428.7896406650053
 30
0.0
 40
1.501999999999999
100
AcDbArc
 50
270.0540000000009
 51
359.9319999999974
1001
AUSTER_ANSICHT
1002
{
1000
Det03
1002
}
1001
AUSTER_FOLIE
1002
{
1000
NSB00341_S2
1002
}
  0
ARC
  5
C546
330
20
100
AcDbEntity
  8
10000_FRONT
  6
DASHED
 62
     7
370
    20
100
AcDbCircle
 39
0.7
 10
45.95172355106183
 20
409.6876406650053
 30
0.0
 40
1.5
100
AcDbArc
 50
270.0
 51
0.0
1001
AUSTER_ANSICHT
1002
{
1000
Det03
1002
}
1001
AUSTER_FOLIE
1002
{
1000
NSB00341_S2
1002
}
  0
ARC
  5
C547
330
20
100
AcDbEntity
  8
10000_FRONT
  6
Continuous
 62
     7
370
    50
100
AcDbCircle
 39
0.7
 10
45.95172355106183
 20
499.6416406650054
 30
0.0
 40
1.5
100
AcDbArc
 50
0.0
 51
90.0
1001
AUSTER_ANSICHT
1002
{
1000
Det03
1002
}
1001
AUSTER_FOLIE
1002
{
1000
NSB00341_S2
1002
}
  0
ARC
  5
C548
330
20
100
AcDbEntity
  8
10000_FRONT
  6
Continuous
 62
     7
370
    50
100
AcDbCircle
 39
0.7
 10
-5.84827644893812
 20
499.6416406650054
 30
0.0
 40
1.5
100
AcDbArc
 50
90.0
 51
180.0
1001
AUSTER_ANSICHT
1002
{
1000
Det03
1002
}
1001
AUSTER_FOLIE
1002
{
1000
NSB00341_S2
1002
}
  0
ARC
  5
C549
330
20
100
AcDbEntity
  8
10000_FRONT
  6
Continuous
 62
     7
370
    20
100
AcDbCircle
 39
0.25
 10
20.0827235510618
 20
491.4736406650053
 30
0.0
 40
2.5
100
AcDbArc
 50
256.1140000000019
 51
283.8869999999987
1001
AUSTER_ANSICHT
1002
{
1000
Det03
1002
}
1001
AUSTER_FOLIE
1002
{
1000
NSB00341_S2
1002
}
  0
ARC
  5
C54A
330
20
100
AcDbEntity
  8
10000_FRONT
  6
Continuous
 62
     7
370
    20
100
AcDbCircle
 39
0.25
 10
20.0827235510618
 20
491.4736406650053
 30
0.0
 40
2.5
100
AcDbArc
 50
76.11300000000132
 51
103.8869999999987
1001
AUSTER_ANSICHT
1002
{
1000
Det03
1002
}
1001
AUSTER_FOLIE
1002
{
1000
NSB00341_S2
1002
}
  0
ARC
  5
C54B
330
20
100
AcDbEntity
  8
10000_FRONT
  6
Continuous
 62
     7
370
    20
100
AcDbCircle
 39
0.25
 10
20.0827235510618
 20
491.4736406650053
 30
0.0
 40
4.5
100
AcDbArc
 50
350.9960000000015
 51
9.004999999996828
1001
AUSTER_ANSICHT
1002
{
1000
Det03
1002
}
1001
AUSTER_FOLIE
1002
{
1000
NSB00341_S2
1002
}
  0
ARC
  5
C54C
330
20
100
AcDbEntity
  8
10000_FRONT
  6
Continuous
 62
     7
370
    20
100
AcDbCircle
 39
0.25
 10
20.0827235510618
 20
491.4736406650053
 30
0.0
 40
4.5
100
AcDbArc
 50
170.9960000000014
 51
189.0049999999968
1001
AUSTER_ANSICHT
1002
{
1000
Det03
1002
}
1001
AUSTER_FOLIE
1002
{
1000
NSB00341_S2
1002
}
  0
CIRCLE
  5
C54D
330
20
100
AcDbEntity
  8
10000_FRONT
  6
Continuous
 62
     7
370
    20
100
AcDbCircle
 39
0.25
 10
20.0827235510618
 20
491.4736406650053
 30
0.0
 40
4.9
1001
AUSTER_ANSICHT
1002
{
1000
Det03
1002
}
1001
AUSTER_FOLIE
1002
{
1000
NSB00341_S2
1002
}
  0
ARC
  5
C54E
330
20
100
AcDbEntity
  8
10000_FRONT
  6
Continuous
 62
     7
370
    20
100
AcDbCircle
 39
0.25
 10
37.58272355106181
 20
491.4736406650053
 30
0.0
 40
2.5
100
AcDbArc
 50
256.1140000000019
 51
283.8869999999987
1001
AUSTER_ANSICHT
1002
{
1000
Det03
1002
}
1001
AUSTER_FOLIE
1002
{
1000
NSB00341_S2
1002
}
  0
ARC
  5
C54F
330
20
100
AcDbEntity
  8
10000_FRONT
  6
Continuous
 62
     7
370
    20
100
AcDbCircle
 39
0.25
 10
37.58272355106181
 20
491.4736406650053
 30
0.0
 40
2.5
100
AcDbArc
 50
76.11300000000132
 51
103.8869999999987
1001
AUSTER_ANSICHT
1002
{
1000
Det03
1002
}
1001
AUSTER_FOLIE
1002
{
1000
NSB00341_S2
1002
}
  0
ARC
  5
C550
330
20
100
AcDbEntity
  8
10000_FRONT
  6
Continuous
 62
     7
370
    20
100
AcDbCircle
 39
0.25
 10
37.58272355106181
 20
491.4736406650053
 30
0.0
 40
4.5
100
AcDbArc
 50
350.9960000000015
 51
9.004999999996828
1001
AUSTER_ANSICHT
1002
{
1000
Det03
1002
}
1001
AUSTER_FOLIE
1002
{
1000
NSB00341_S2
1002
}
  0
ARC
  5
C551
330
20
100
AcDbEntity
  8
10000_FRONT
  6
Continuous
 62
     7
370
    20
100
AcDbCircle
 39
0.25
 10
37.58272355106181
 20
491.4736406650053
 30
0.0
 40
4.5
100
AcDbArc
 50
170.9960000000014
 51
189.0049999999968
1001
AUSTER_ANSICHT
1002
{
1000
Det03
1002
}
1001
AUSTER_FOLIE
1002
{
1000
NSB00341_S2
1002
}
  0
CIRCLE
  5
C552
330
20
100
AcDbEntity
  8
10000_FRONT
  6
Continuous
 62
     7
370
    20
100
AcDbCircle
 39
0.25
 10
37.58272355106181
 20
491.4736406650053
 30
0.0
 40
4.9
1001
AUSTER_ANSICHT
1002
{
1000
Det03
1002
}
1001
AUSTER_FOLIE
1002
{
1000
NSB00341_S2
1002
}
  0
ARC
  5
C553
330
20
100
AcDbEntity
  8
10000_FRONT
  6
Continuous
 62
     7
370
    20
100
AcDbCircle
 39
0.25
 10
2.582723551061801
 20
491.4736406650053
 30
0.0
 40
2.5
100
AcDbArc
 50
256.1140000000019
 51
283.8869999999987
1001
AUSTER_ANSICHT
1002
{
1000
Det03
1002
}
1001
AUSTER_FOLIE
1002
{
1000
NSB00341_S2
1002
}
  0
ARC
  5
C554
330
20
100
AcDbEntity
  8
10000_FRONT
  6
Continuous
 62
     7
370
    20
100
AcDbCircle
 39
0.25
 10
2.582723551061801
 20
491.4736406650053
 30
0.0
 40
2.5
100
AcDbArc
 50
76.11300000000132
 51
103.8869999999987
1001
AUSTER_ANSICHT
1002
{
1000
Det03
1002
}
1001
AUSTER_FOLIE
1002
{
1000
NSB00341_S2
1002
}
  0
ARC
  5
C555
330
20
100
AcDbEntity
  8
10000_FRONT
  6
Continuous
 62
     7
370
    20
100
AcDbCircle
 39
0.25
 10
2.582723551061801
 20
491.4736406650053
 30
0.0
 40
4.5
100
AcDbArc
 50
350.9960000000015
 51
9.004999999996828
1001
AUSTER_ANSICHT
1002
{
1000
Det03
1002
}
1001
AUSTER_FOLIE
1002
{
1000
NSB00341_S2
1002
}
  0
ARC
  5
C556
330
20
100
AcDbEntity
  8
10000_FRONT
  6
Continuous
 62
     7
370
    20
100
AcDbCircle
 39
0.25
 10
2.582723551061801
 20
491.4736406650053
 30
0.0
 40
4.5
100
AcDbArc
 50
170.9960000000014
 51
189.0049999999968
1001
AUSTER_ANSICHT
1002
{
1000
Det03
1002
}
1001
AUSTER_FOLIE
1002
{
1000
NSB00341_S2
1002
}
  0
CIRCLE
  5
C557
330
20
100
AcDbEntity
  8
10000_FRONT
  6
Continuous
 62
     7
370
    20
100
AcDbCircle
 39
0.25
 10
2.582723551061801
 20
491.4736406650053
 30
0.0
 40
4.9
1001
AUSTER_ANSICHT
1002
{
1000
Det03
1002
}
1001
AUSTER_FOLIE
1002
{
1000
NSB00341_S2
1002
}
  0
ARC
  5
C558
330
20
100
AcDbEntity
  8
10000_FRONT
  6
Continuous
 62
     7
370
    20
100
AcDbCircle
 39
0.25
 10
-5.235276448938178
 20
502.7416406650053
 30
0.0
 40
0.4
100
AcDbArc
 50
90.0
 51
180.0
1001
AUSTER_ANSICHT
1002
{
1000
Det03
1002
}
1001
AUSTER_FOLIE
1002
{
1000
NSB00341_S2
1002
}
  0
ARC
  5
C559
330
20
100
AcDbEntity
  8
10000_FRONT
  6
DASHED
 62
     7
370
    20
100
AcDbCircle
 39
0.25
 10
45.40172355106188
 20
406.5876406650053
 30
0.0
 40
0.4
100
AcDbArc
 50
270.0
 51
0.0
1001
AUSTER_ANSICHT
1002
{
1000
Det03
1002
}
1001
AUSTER_FOLIE
1002
{
1000
NSB00341_S2
1002
}
  0
ARC
  5
C55A
330
20
100
AcDbEntity
  8
10000_FRONT
  6
Continuous
 62
     7
370
    20
100
AcDbCircle
 39
0.25
 10
8.664723551061797
 20
502.7416406650053
 30
0.0
 40
0.4
100
AcDbArc
 50
0.0
 51
90.0
1001
AUSTER_ANSICHT
1002
{
1000
Det03
1002
}
1001
AUSTER_FOLIE
1002
{
1000
NSB00341_S2
1002
}
  0
ARC
  5
C55B
330
20
100
AcDbEntity
  8
10000_FRONT
  6
DASHED
 62
     7
370
    20
100
AcDbCircle
 39
0.25
 10
31.50172355106179
 20
406.5876406650053
 30
0.0
 40
0.4
100
AcDbArc
 50
180.0
 51
270.0
1001
AUSTER_ANSICHT
1002
{
1000
Det03
1002
}
1001
AUSTER_FOLIE
1002
{
1000
NSB00341_S2
1002
}
  0
ARC
  5
C55C
330
20
100
AcDbEntity
  8
10000_FRONT
  6
Continuous
 62
     7
370
    20
100
AcDbCircle
 39
0.25
 10
-5.235276448938178
 20
502.7416406650053
 30
0.0
 40
0.4
100
AcDbArc
 50
90.0
 51
180.0
1001
AUSTER_ANSICHT
1002
{
1000
Det03
1002
}
1001
AUSTER_FOLIE
1002
{
1000
NSB00341_S2
1002
}
  0
ARC
  5
C55D
330
20
100
AcDbEntity
  8
10000_FRONT
  6
Continuous
 62
     7
370
    20
100
AcDbCircle
 39
0.25
 10
8.664723551061797
 20
502.7416406650053
 30
0.0
 40
0.4
100
AcDbArc
 50
0.0
 51
90.0
1001
AUSTER_ANSICHT
1002
{
1000
Det03
1002
}
1001
AUSTER_FOLIE
1002
{
1000
NSB00341_S2
1002
}
  0
ARC
  5
C55E
330
20
100
AcDbEntity
  8
10000_FRONT
  6
Continuous
 62
     7
370
    20
100
AcDbCircle
 39
0.25
 10
26.21472355106175
 20
502.7416406650053
 30
0.0
 40
0.4
100
AcDbArc
 50
0.0
 51
90.0
1001
AUSTER_ANSICHT
1002
{
1000
Det03
1002
}
1001
AUSTER_FOLIE
1002
{
1000
NSB00341_S2
1002
}
  0
ARC
  5
C55F
330
20
100
AcDbEntity
  8
10000_FRONT
  6
DASHED
 62
     7
370
    20
100
AcDbCircle
 39
0.25
 10
13.95172355106183
 20
406.5876406650053
 30
0.0
 40
0.4
100
AcDbArc
 50
180.0
 51
270.0
1001
AUSTER_ANSICHT
1002
{
1000
Det03
1002
}
1001
AUSTER_FOLIE
1002
{
1000
NSB00341_S2
1002
}
  0
ARC
  5
C560
330
20
100
AcDbEntity
  8
10000_FRONT
  6
Continuous
 62
     7
370
    20
100
AcDbCircle
 39
0.25
 10
14.01472355106182
 20
502.7416406650053
 30
0.0
 40
0.4
100
AcDbArc
 50
90.0
 51
180.0
1001
AUSTER_ANSICHT
1002
{
1000
Det03
1002
}
1001
AUSTER_FOLIE
1002
{
1000
NSB00341_S2
1002
}
  0
ARC
  5
C561
330
20
100
AcDbEntity
  8
10000_FRONT
  6
DASHED
 62
     7
370
    20
100
AcDbCircle
 39
0.25
 10
26.15172355106188
 20
406.5876406650053
 30
0.0
 40
0.4
100
AcDbArc
 50
270.0
 51
0.0
1001
AUSTER_ANSICHT
1002
{
1000
Det03
1002
}
1001
AUSTER_FOLIE
1002
{
1000
NSB00341_S2
1002
}
  0
ARC
  5
C562
330
20
100
AcDbEntity
  8
10000_FRONT
  6
Continuous
 62
     7
370
    20
100
AcDbCircle
 39
0.25
 10
26.21472355106175
 20
502.7416406650053
 30
0.0
 40
0.4
100
AcDbArc
 50
0.0
 51
90.0
1001
AUSTER_ANSICHT
1002
{
1000
Det03
1002
}
1001
AUSTER_FOLIE
1002
{
1000
NSB00341_S2
1002
}
  0
ARC
  5
C563
330
20
100
AcDbEntity
  8
10000_FRONT
  6
Continuous
 62
     7
370
    20
100
AcDbCircle
 39
0.25
 10
14.01472355106182
 20
502.7416406650053
 30
0.0
 40
0.4
100
AcDbArc
 50
90.0
 51
180.0
1001
AUSTER_ANSICHT
1002
{
1000
Det03
1002
}
1001
AUSTER_FOLIE
1002
{
1000
NSB00341_S2
1002
}
  0
ARC
  5
C564
330
20
100
AcDbEntity
  8
10000_FRONT
  6
Continuous
 62
     7
370
    20
100
AcDbCircle
 39
0.25
 10
45.46472355106175
 20
502.7416406650053
 30
0.0
 40
0.4
100
AcDbArc
 50
0.0
 51
90.0
1001
AUSTER_ANSICHT
1002
{
1000
Det03
1002
}
1001
AUSTER_FOLIE
1002
{
1000
NSB00341_S2
1002
}
  0
ARC
  5
C565
330
20
100
AcDbEntity
  8
10000_FRONT
  6
DASHED
 62
     7
370
    20
100
AcDbCircle
 39
0.25
 10
-5.298276448938167
 20
406.5876406650053
 30
0.0
 40
0.4
100
AcDbArc
 50
180.0
 51
270.0
1001
AUSTER_ANSICHT
1002
{
1000
Det03
1002
}
1001
AUSTER_FOLIE
1002
{
1000
NSB00341_S2
1002
}
  0
ARC
  5
C566
330
20
100
AcDbEntity
  8
10000_FRONT
  6
Continuous
 62
     7
370
    20
100
AcDbCircle
 39
0.25
 10
45.46472355106175
 20
502.7416406650053
 30
0.0
 40
0.4
100
AcDbArc
 50
0.0
 51
90.0
1001
AUSTER_ANSICHT
1002
{
1000
Det03
1002
}
1001
AUSTER_FOLIE
1002
{
1000
NSB00341_S2
1002
}
  0
ARC
  5
C567
330
20
100
AcDbEntity
  8
10000_FRONT
  6
Continuous
 62
     7
370
    20
100
AcDbCircle
 39
0.25
 10
31.56472355106189
 20
502.7416406650053
 30
0.0
 40
0.4
100
AcDbArc
 50
90.0
 51
180.0
1001
AUSTER_ANSICHT
1002
{
1000
Det03
1002
}
1001
AUSTER_FOLIE
1002
{
1000
NSB00341_S2
1002
}
  0
ARC
  5
C568
330
20
100
AcDbEntity
  8
10000_FRONT
  6
DASHED
 62
     7
370
    20
100
AcDbCircle
 39
0.25
 10
8.601723551061809
 20
406.5876406650053
 30
0.0
 40
0.4
100
AcDbArc
 50
270.0
 51
0.0
1001
AUSTER_ANSICHT
1002
{
1000
Det03
1002
}
1001
AUSTER_FOLIE
1002
{
1000
NSB00341_S2
1002
}
  0
ARC
  5
C569
330
20
100
AcDbEntity
  8
10000_FRONT
  6
Continuous
 62
     7
370
    20
100
AcDbCircle
 39
0.25
 10
31.56472355106189
 20
502.7416406650053
 30
0.0
 40
0.4
100
AcDbArc
 50
90.0
 51
180.0
1001
AUSTER_ANSICHT
1002
{
1000
Det03
1002
}
1001
AUSTER_FOLIE
1002
{
1000
NSB00341_S2
1002
}
  0
CIRCLE
  5
C56A
330
20
100
AcDbEntity
  8
10000_FRONT
  6
DASHED
 62
     7
370
    20
100
AcDbCircle
 39
0.25
 10
36.16172355106187
 20
450.1386406650054
 30
0.0
 40
4.0
1001
AUSTER_ANSICHT
1002
{
1000
Det03
1002
}
1001
AUSTER_FOLIE
1002
{
1000
NSB00341_S2
1002
}
  0
CIRCLE
  5
C56B
330
20
100
AcDbEntity
  8
10000_FRONT
  6
DASHED
 62
     7
370
    20
100
AcDbCircle
 39
0.25
 10
1.6117235510618
 20
450.1386406650054
 30
0.0
 40
2.9
1001
AUSTER_ANSICHT
1002
{
1000
Det03
1002
}
1001
AUSTER_FOLIE
1002
{
1000
NSB00341_S2
1002
}
  0
ARC
  5
C56C
330
20
100
AcDbEntity
  8
10000_FRONT
  6
DASHED
 62
     7
370
    20
100
AcDbCircle
 39
0.25
 10
41.56172355106171
 20
428.2886406650053
 30
0.0
 40
1.0
100
AcDbArc
 50
270.0
 51
0.0
1001
AUSTER_ANSICHT
1002
{
1000
Det03
1002
}
1001
AUSTER_FOLIE
1002
{
1000
NSB00341_S2
1002
}
  0
ARC
  5
C56D
330
20
100
AcDbEntity
  8
10000_FRONT
  6
DASHED
 62
     7
370
    20
100
AcDbCircle
 39
0.25
 10
-1.438276448938268
 20
428.2906406650053
 30
0.0
 40
1.0
100
AcDbArc
 50
180.0
 51
270.0
1001
AUSTER_ANSICHT
1002
{
1000
Det03
1002
}
1001
AUSTER_FOLIE
1002
{
1000
NSB00341_S2
1002
}
  0
CIRCLE
  5
C56E
330
20
100
AcDbEntity
  8
10000_FRONT
  6
DASHED
 62
     7
370
    20
100
AcDbCircle
 39
0.25
 10
13.06172355106173
 20
450.1386406650054
 30
0.0
 40
3.02
1001
AUSTER_ANSICHT
1002
{
1000
Det03
1002
}
1001
AUSTER_FOLIE
1002
{
1000
NSB00341_S2
1002
}
  0
ARC
  5
C56F
330
20
100
AcDbEntity
  8
10000_FRONT
  6
DASHED
 62
     7
370
    20
100
AcDbCircle
 39
0.25
 10
13.06172355106173
 20
450.1386406650054
 30
0.0
 40
2.85
100
AcDbArc
 50
122.7599999999964
 51
147.2399999999976
1001
AUSTER_ANSICHT
1002
{
1000
Det03
1002
}
1001
AUSTER_FOLIE
1002
{
1000
NSB00341_S2
1002
}
  0
ARC
  5
C570
330
20
100
AcDbEntity
  8
10000_FRONT
  6
DASHED
 62
     7
370
    20
100
AcDbCircle
 39
0.25
 10
13.06172355106173
 20
450.1386406650054
 30
0.0
 40
1.85
100
AcDbArc
 50
28.8370000000002
 51
61.16300000000087
1001
AUSTER_ANSICHT
1002
{
1000
Det03
1002
}
1001
AUSTER_FOLIE
1002
{
1000
NSB00341_S2
1002
}
  0
ARC
  5
C571
330
20
100
AcDbEntity
  8
10000_FRONT
  6
DASHED
 62
     7
370
    20
100
AcDbCircle
 39
0.25
 10
13.06172355106173
 20
450.1386406650054
 30
0.0
 40
1.85
100
AcDbArc
 50
208.8370000000002
 51
241.1630000000009
1001
AUSTER_ANSICHT
1002
{
1000
Det03
1002
}
1001
AUSTER_FOLIE
1002
{
1000
NSB00341_S2
1002
}
  0
ARC
  5
C572
330
20
100
AcDbEntity
  8
10000_FRONT
  6
DASHED
 62
     7
370
    20
100
AcDbCircle
 39
0.25
 10
13.06172355106173
 20
450.1386406650054
 30
0.0
 40
2.85
100
AcDbArc
 50
302.7599999999964
 51
327.2399999999976
1001
AUSTER_ANSICHT
1002
{
1000
Det03
1002
}
1001
AUSTER_FOLIE
1002
{
1000
NSB00341_S2
1002
}
  0
ARC
  5
C573
330
20
100
AcDbEntity
  8
10000_FRONT
  6
DASHED
 62
     7
370
    20
100
AcDbCircle
 39
0.25
 10
36.16172355106187
 20
450.1386406650054
 30
0.0
 40
2.85
100
AcDbArc
 50
62.7600000000008
 51
87.24000000000035
1001
AUSTER_ANSICHT
1002
{
1000
Det03
1002
}
1001
AUSTER_FOLIE
1002
{
1000
NSB00341_S2
1002
}
  0
ARC
  5
C574
330
20
100
AcDbEntity
  8
10000_FRONT
  6
DASHED
 62
     7
370
    20
100
AcDbCircle
 39
0.25
 10
36.16172355106187
 20
450.1386406650054
 30
0.0
 40
1.85
100
AcDbArc
 50
328.8369999999978
 51
1.162999999997688
1001
AUSTER_ANSICHT
1002
{
1000
Det03
1002
}
1001
AUSTER_FOLIE
1002
{
1000
NSB00341_S2
1002
}
  0
ARC
  5
C575
330
20
100
AcDbEntity
  8
10000_FRONT
  6
DASHED
 62
     7
370
    20
100
AcDbCircle
 39
0.25
 10
36.16172355106187
 20
450.1386406650054
 30
0.0
 40
1.85
100
AcDbArc
 50
148.8369999999977
 51
181.1629999999976
1001
AUSTER_ANSICHT
1002
{
1000
Det03
1002
}
1001
AUSTER_FOLIE
1002
{
1000
NSB00341_S2
1002
}
  0
ARC
  5
C576
330
20
100
AcDbEntity
  8
10000_FRONT
  6
DASHED
 62
     7
370
    20
100
AcDbCircle
 39
0.25
 10
36.16172355106187
 20
450.1386406650054
 30
0.0
 40
2.85
100
AcDbArc
 50
242.7600000000005
 51
267.2400000000004
1001
AUSTER_ANSICHT
1002
{
1000
Det03
1002
}
1001
AUSTER_FOLIE
1002
{
1000
NSB00341_S2
1002
}
  0
ARC
  5
C577
330
20
100
AcDbEntity
  8
10000_FRONT
  6
DASHED
 62
     7
370
    20
100
AcDbCircle
 39
0.25
 10
-5.850276448938187
 20
428.7866406650053
 30
0.0
 40
1.498
100
AcDbArc
 50
179.9500000000012
 51
270.0729999999999
1001
AUSTER_ANSICHT
1002
{
1000
Det03
1002
}
1001
AUSTER_FOLIE
1002
{
1000
NSB00341_S2
1002
}
  0
ARC
  5
C578
330
20
100
AcDbEntity
  8
10000_FRONT
  6
Continuous
 62
     7
370
    50
100
AcDbCircle
 39
0.25
 10
-5.84827644893812
 20
480.7866406650053
 30
0.0
 40
1.500999999999999
100
AcDbArc
 50
90.02300000000131
 51
179.9709999999989
1001
AUSTER_ANSICHT
1002
{
1000
Det03
1002
}
1001
AUSTER_FOLIE
1002
{
1000
NSB00341_S2
1002
}
  0
ARC
  5
C579
330
20
100
AcDbEntity
  8
10000_FRONT
  6
Continuous
 62
     7
370
    50
100
AcDbCircle
 39
0.25
 10
45.95272355106181
 20
480.7886406650053
 30
0.0
 40
1.499
100
AcDbArc
 50
359.9790000000023
 51
90.03100000000108
1001
AUSTER_ANSICHT
1002
{
1000
Det03
1002
}
1001
AUSTER_FOLIE
1002
{
1000
NSB00341_S2
1002
}
  0
ARC
  5
C57A
330
20
100
AcDbEntity
  8
10000_FRONT
  6
DASHED
 62
     7
370
    20
100
AcDbCircle
 39
0.25
 10
45.94972355106188
 20
428.7896406650053
 30
0.0
 40
1.501999999999999
100
AcDbArc
 50
270.0540000000009
 51
359.9319999999974
1001
AUSTER_ANSICHT
1002
{
1000
Det03
1002
}
1001
AUSTER_FOLIE
1002
{
1000
NSB00341_S2
1002
}
  0
ARC
  5
C57B
330
20
100
AcDbEntity
  8
10000_FRONT
  6
DASHED
 62
     7
370
    20
100
AcDbCircle
 39
0.7
 10
-5.84827644893812
 20
409.6876406650053
 30
0.0
 40
1.5
100
AcDbArc
 50
180.0
 51
270.0
1001
AUSTER_ANSICHT
1002
{
1000
Det03
1002
}
1001
AUSTER_FOLIE
1002
{
1000
NSB00341_S2
1002
}
  0
ARC
  5
C57C
330
20
100
AcDbEntity
  8
10000_FRONT
  6
DASHED
 62
     7
370
    20
100
AcDbCircle
 39
0.7
 10
45.95172355106183
 20
409.6876406650053
 30
0.0
 40
1.5
100
AcDbArc
 50
270.0
 51
0.0
1001
AUSTER_ANSICHT
1002
{
1000
Det03
1002
}
1001
AUSTER_FOLIE
1002
{
1000
NSB00341_S2
1002
}
  0
ARC
  5
C57D
330
20
100
AcDbEntity
  8
10000_FRONT
  6
DASHED
 62
     7
370
    20
100
AcDbCircle
 39
0.25
 10
37.58272355106181
 20
418.1736406650053
 30
0.0
 40
2.5
100
AcDbArc
 50
76.11300000000132
 51
103.8869999999987
1001
AUSTER_ANSICHT
1002
{
1000
Det03
1002
}
1001
AUSTER_FOLIE
1002
{
1000
NSB00341_S2
1002
}
  0
ARC
  5
C57E
330
20
100
AcDbEntity
  8
10000_FRONT
  6
DASHED
 62
     7
370
    20
100
AcDbCircle
 39
0.25
 10
37.58272355106181
 20
418.1736406650053
 30
0.0
 40
2.5
100
AcDbArc
 50
256.1140000000019
 51
283.8869999999987
1001
AUSTER_ANSICHT
1002
{
1000
Det03
1002
}
1001
AUSTER_FOLIE
1002
{
1000
NSB00341_S2
1002
}
  0
ARC
  5
C57F
330
20
100
AcDbEntity
  8
10000_FRONT
  6
DASHED
 62
     7
370
    20
100
AcDbCircle
 39
0.25
 10
37.58272355106181
 20
418.1736406650053
 30
0.0
 40
4.5
100
AcDbArc
 50
350.9960000000015
 51
9.004999999996828
1001
AUSTER_ANSICHT
1002
{
1000
Det03
1002
}
1001
AUSTER_FOLIE
1002
{
1000
NSB00341_S2
1002
}
  0
ARC
  5
C580
330
20
100
AcDbEntity
  8
10000_FRONT
  6
DASHED
 62
     7
370
    20
100
AcDbCircle
 39
0.25
 10
37.58272355106181
 20
418.1736406650053
 30
0.0
 40
4.5
100
AcDbArc
 50
170.9960000000014
 51
189.0049999999968
1001
AUSTER_ANSICHT
1002
{
1000
Det03
1002
}
1001
AUSTER_FOLIE
1002
{
1000
NSB00341_S2
1002
}
  0
CIRCLE
  5
C581
330
20
100
AcDbEntity
  8
10000_FRONT
  6
DASHED
 62
     7
370
    20
100
AcDbCircle
 39
0.25
 10
37.58272355106181
 20
418.1736406650053
 30
0.0
 40
4.9
1001
AUSTER_ANSICHT
1002
{
1000
Det03
1002
}
1001
AUSTER_FOLIE
1002
{
1000
NSB00341_S2
1002
}
  0
ARC
  5
C582
330
20
100
AcDbEntity
  8
10000_FRONT
  6
DASHED
 62
     7
370
    20
100
AcDbCircle
 39
0.25
 10
2.582723551061801
 20
418.1736406650053
 30
0.0
 40
2.5
100
AcDbArc
 50
76.11300000000132
 51
103.8869999999987
1001
AUSTER_ANSICHT
1002
{
1000
Det03
1002
}
1001
AUSTER_FOLIE
1002
{
1000
NSB00341_S2
1002
}
  0
ARC
  5
C583
330
20
100
AcDbEntity
  8
10000_FRONT
  6
DASHED
 62
     7
370
    20
100
AcDbCircle
 39
0.25
 10
20.0827235510618
 20
418.1736406650053
 30
0.0
 40
2.5
100
AcDbArc
 50
76.11300000000132
 51
103.8869999999987
1001
AUSTER_ANSICHT
1002
{
1000
Det03
1002
}
1001
AUSTER_FOLIE
1002
{
1000
NSB00341_S2
1002
}
  0
ARC
  5
C584
330
20
100
AcDbEntity
  8
10000_FRONT
  6
DASHED
 62
     7
370
    20
100
AcDbCircle
 39
0.25
 10
2.582723551061801
 20
418.1736406650053
 30
0.0
 40
2.5
100
AcDbArc
 50
256.1140000000019
 51
283.8869999999987
1001
AUSTER_ANSICHT
1002
{
1000
Det03
1002
}
1001
AUSTER_FOLIE
1002
{
1000
NSB00341_S2
1002
}
  0
ARC
  5
C585
330
20
100
AcDbEntity
  8
10000_FRONT
  6
DASHED
 62
     7
370
    20
100
AcDbCircle
 39
0.25
 10
20.0827235510618
 20
418.1736406650053
 30
0.0
 40
2.5
100
AcDbArc
 50
256.1140000000019
 51
283.8869999999987
1001
AUSTER_ANSICHT
1002
{
1000
Det03
1002
}
1001
AUSTER_FOLIE
1002
{
1000
NSB00341_S2
1002
}
  0
ARC
  5
C586
330
20
100
AcDbEntity
  8
10000_FRONT
  6
DASHED
 62
     7
370
    20
100
AcDbCircle
 39
0.25
 10
2.582723551061801
 20
418.1736406650053
 30
0.0
 40
4.5
100
AcDbArc
 50
350.9960000000015
 51
9.004999999996828
1001
AUSTER_ANSICHT
1002
{
1000
Det03
1002
}
1001
AUSTER_FOLIE
1002
{
1000
NSB00341_S2
1002
}
  0
ARC
  5
C587
330
20
100
AcDbEntity
  8
10000_FRONT
  6
DASHED
 62
     7
370
    20
100
AcDbCircle
 39
0.25
 10
20.0827235510618
 20
418.1736406650053
 30
0.0
 40
4.5
100
AcDbArc
 50
350.9960000000015
 51
9.004999999996828
1001
AUSTER_ANSICHT
1002
{
1000
Det03
1002
}
1001
AUSTER_FOLIE
1002
{
1000
NSB00341_S2
1002
}
  0
ARC
  5
C588
330
20
100
AcDbEntity
  8
10000_FRONT
  6
DASHED
 62
     7
370
    20
100
AcDbCircle
 39
0.25
 10
2.582723551061801
 20
418.1736406650053
 30
0.0
 40
4.5
100
AcDbArc
 50
170.9960000000014
 51
189.0049999999968
1001
AUSTER_ANSICHT
1002
{
1000
Det03
1002
}
1001
AUSTER_FOLIE
1002
{
1000
NSB00341_S2
1002
}
  0
ARC
  5
C589
330
20
100
AcDbEntity
  8
10000_FRONT
  6
DASHED
 62
     7
370
    20
100
AcDbCircle
 39
0.25
 10
20.0827235510618
 20
418.1736406650053
 30
0.0
 40
4.5
100
AcDbArc
 50
170.9960000000014
 51
189.0049999999968
1001
AUSTER_ANSICHT
1002
{
1000
Det03
1002
}
1001
AUSTER_FOLIE
1002
{
1000
NSB00341_S2
1002
}
  0
CIRCLE
  5
C58A
330
20
100
AcDbEntity
  8
10000_FRONT
  6
DASHED
 62
     7
370
    20
100
AcDbCircle
 39
0.25
 10
2.582723551061801
 20
418.1736406650053
 30
0.0
 40
4.9
1001
AUSTER_ANSICHT
1002
{
1000
Det03
1002
}
1001
AUSTER_FOLIE
1002
{
1000
NSB00341_S2
1002
}
  0
CIRCLE
  5
C58B
330
20
100
AcDbEntity
  8
10000_FRONT
  6
DASHED
 62
     7
370
    20
100
AcDbCircle
 39
0.25
 10
20.0827235510618
 20
418.1736406650053
 30
0.0
 40
4.9
1001
AUSTER_ANSICHT
1002
{
1000
Det03
1002
}
1001
AUSTER_FOLIE
1002
{
1000
NSB00341_S2
1002
}
  0
ARC
  5
C58C
330
20
100
AcDbEntity
  8
10000_FRONT
  6
DASHED
 62
     7
370
    20
100
AcDbCircle
 39
0.25
 10
45.40172355106188
 20
406.5876406650053
 30
0.0
 40
0.4
100
AcDbArc
 50
270.0
 51
0.0
1001
AUSTER_ANSICHT
1002
{
1000
Det03
1002
}
1001
AUSTER_FOLIE
1002
{
1000
NSB00341_S2
1002
}
  0
ARC
  5
C58D
330
20
100
AcDbEntity
  8
10000_FRONT
  6
DASHED
 62
     7
370
    20
100
AcDbCircle
 39
0.25
 10
31.50172355106179
 20
406.5876406650053
 30
0.0
 40
0.4
100
AcDbArc
 50
180.0
 51
270.0
1001
AUSTER_ANSICHT
1002
{
1000
Det03
1002
}
1001
AUSTER_FOLIE
1002
{
1000
NSB00341_S2
1002
}
  0
ARC
  5
C58E
330
20
100
AcDbEntity
  8
10000_FRONT
  6
DASHED
 62
     7
370
    20
100
AcDbCircle
 39
0.25
 10
13.95172355106183
 20
406.5876406650053
 30
0.0
 40
0.4
100
AcDbArc
 50
180.0
 51
270.0
1001
AUSTER_ANSICHT
1002
{
1000
Det03
1002
}
1001
AUSTER_FOLIE
1002
{
1000
NSB00341_S2
1002
}
  0
ARC
  5
C58F
330
20
100
AcDbEntity
  8
10000_FRONT
  6
DASHED
 62
     7
370
    20
100
AcDbCircle
 39
0.25
 10
26.15172355106188
 20
406.5876406650053
 30
0.0
 40
0.4
100
AcDbArc
 50
270.0
 51
0.0
1001
AUSTER_ANSICHT
1002
{
1000
Det03
1002
}
1001
AUSTER_FOLIE
1002
{
1000
NSB00341_S2
1002
}
  0
ARC
  5
C590
330
20
100
AcDbEntity
  8
10000_FRONT
  6
DASHED
 62
     7
370
    20
100
AcDbCircle
 39
0.25
 10
-5.298276448938167
 20
406.5876406650053
 30
0.0
 40
0.4
100
AcDbArc
 50
180.0
 51
270.0
1001
AUSTER_ANSICHT
1002
{
1000
Det03
1002
}
1001
AUSTER_FOLIE
1002
{
1000
NSB00341_S2
1002
}
  0
ARC
  5
C591
330
20
100
AcDbEntity
  8
10000_FRONT
  6
DASHED
 62
     7
370
    20
100
AcDbCircle
 39
0.25
 10
8.601723551061809
 20
406.5876406650053
 30
0.0
 40
0.4
100
AcDbArc
 50
270.0
 51
0.0
1001
AUSTER_ANSICHT
1002
{
1000
Det03
1002
}
1001
AUSTER_FOLIE
1002
{
1000
NSB00341_S2
1002
}
  0
CIRCLE
  5
C592
330
20
100
AcDbEntity
  8
10000_FRONT
  6
Continuous
 62
     7
370
    20
100
AcDbCircle
 39
0.25
 10
-1.84827644893812
 20
407.5416406650053
 30
0.0
 40
2.5
1001
AUSTER_ANSICHT
1002
{
1000
Det03
1002
}
1001
AUSTER_FOLIE
1002
{
1000
NSB00341_S2
1002
}
  0
ARC
  5
C593
330
20
100
AcDbEntity
  8
11000_Left
  6
DASHED
 62
     7
370
    20
100
AcDbCircle
 39
0.25
 10
91.6710072077657
 20
439.3416406650053
 30
0.0
 40
0.7
100
AcDbArc
 50
0.0
 51
90.0
1001
AUSTER_ANSICHT
1002
{
1000
Det03
1002
}
1001
AUSTER_FOLIE
1002
{
1000
NSB00341_S2
1002
}
  0
ARC
  5
C594
330
20
100
AcDbEntity
  8
11000_Left
  6
DASHED
 62
     7
370
    20
100
AcDbCircle
 39
0.25
 10
89.37100720776561
 20
464.1916406650055
 30
-1.0
 40
1.0
100
AcDbArc
 50
90.0
 51
180.0
1001
AUSTER_ANSICHT
1002
{
1000
Det03
1002
}
1001
AUSTER_FOLIE
1002
{
1000
NSB00341_S2
1002
}
  0
ARC
  5
C595
330
20
100
AcDbEntity
  8
11000_Left
  6
DASHED
 62
     7
370
    20
100
AcDbCircle
 39
0.25
 10
89.37100720776561
 20
445.1916406650053
 30
-1.0
 40
1.0
100
AcDbArc
 50
180.0
 51
270.0
1001
AUSTER_ANSICHT
1002
{
1000
Det03
1002
}
1001
AUSTER_FOLIE
1002
{
1000
NSB00341_S2
1002
}
  0
ARC
  5
C596
330
20
100
AcDbEntity
  8
11000_Left
  6
DASHED
 62
     7
370
    20
100
AcDbCircle
 39
0.25
 10
89.47100720776564
 20
469.0916406650053
 30
-1.0
 40
1.9
100
AcDbArc
 50
270.0
 51
0.0
1001
AUSTER_ANSICHT
1002
{
1000
Det03
1002
}
1001
AUSTER_FOLIE
1002
{
1000
NSB00341_S2
1002
}
  0
ARC
  5
C597
330
20
100
AcDbEntity
  8
11000_Left
  6
DASHED
 62
     7
370
    20
100
AcDbCircle
 39
0.25
 10
89.47100720776564
 20
440.2916406650055
 30
-1.0
 40
1.9
100
AcDbArc
 50
0.0
 51
90.0
1001
AUSTER_ANSICHT
1002
{
1000
Det03
1002
}
1001
AUSTER_FOLIE
1002
{
1000
NSB00341_S2
1002
}
  0
ARC
  5
C598
330
20
100
AcDbEntity
  8
11000_Left
  6
DASHED
 62
     7
370
    20
100
AcDbCircle
 39
0.25
 10
86.87100720776561
 20
443.1916406650055
 30
0.0
 40
1.0
100
AcDbArc
 50
180.0
 51
270.0
1001
AUSTER_ANSICHT
1002
{
1000
Det03
1002
}
1001
AUSTER_FOLIE
1002
{
1000
NSB00341_S2
1002
}
  0
ARC
  5
C599
330
20
100
AcDbEntity
  8
11000_Left
  6
DASHED
 62
     7
370
    20
100
AcDbCircle
 39
0.25
 10
86.87100720776561
 20
466.1916406650053
 30
0.0
 40
1.0
100
AcDbArc
 50
90.0
 51
180.0
1001
AUSTER_ANSICHT
1002
{
1000
Det03
1002
}
1001
AUSTER_FOLIE
1002
{
1000
NSB00341_S2
1002
}
  0
CIRCLE
  5
C59A
330
20
100
AcDbEntity
  8
10000_FRONT
  6
DASHED
 62
     7
370
    20
100
AcDbCircle
 39
0.25
 10
41.95172355106183
 20
498.5416406650053
 30
0.0
 40
2.5
1001
AUSTER_ANSICHT
1002
{
1000
Det03
1002
}
1001
AUSTER_FOLIE
1002
{
1000
NSB00341_S2
1002
}
  0
LINE
  5
C778
330
20
100
AcDbEntity
  8
11000_Left
  6
DASHED
 62
     7
370
    20
100
AcDbLine
 39
0.25
 10
184.6960072077656
 20
442.2386406650053
 30
0.0
 11
184.6960072077656
 21
427.2386406650053
 31
0.0
1001
AUSTER_ANSICHT
1002
{
1000
Det03
1002
}
1001
AUSTER_FOLIE
1002
{
1000
NSB00341_S2
1002
}
  0
LINE
  5
C779
330
20
100
AcDbEntity
  8
11000_Left
  6
DASHED
 62
     7
370
    20
100
AcDbLine
 39
0.25
 10
180.1960072077656
 20
442.2386406650053
 30
0.0
 11
184.6960072077656
 21
442.2386406650053
 31
0.0
1001
AUSTER_ANSICHT
1002
{
1000
Det03
1002
}
1001
AUSTER_FOLIE
1002
{
1000
NSB00341_S2
1002
}
  0
LINE
  5
C77A
330
20
100
AcDbEntity
  8
11000_Left
  6
DASHED
 62
     7
370
    20
100
AcDbLine
 39
0.25
 10
180.1960072077656
 20
427.2386406650053
 30
0.0
 11
180.1960072077656
 21
442.2386406650053
 31
0.0
1001
AUSTER_ANSICHT
1002
{
1000
Det03
1002
}
1001
AUSTER_FOLIE
1002
{
1000
NSB00341_S2
1002
}
  0
LINE
  5
C77E
330
20
100
AcDbEntity
  8
10000_FRONT
  6
DASHED
 62
     7
370
    20
100
AcDbLine
 39
0.25
 10
28.24672355106179
 20
436.7546406650054
 30
0.0
 11
28.24672355106179
 21
436.9346406650055
 31
0.0
1001
AUSTER_ANSICHT
1002
{
1000
Det03
1002
}
1001
AUSTER_FOLIE
1002
{
1000
NSB00341_S2
1002
}
  0
LINE
  5
C77F
330
20
100
AcDbEntity
  8
10000_FRONT
  6
DASHED
 62
     7
370
    20
100
AcDbLine
 39
0.25
 10
28.24672355106179
 20
438.3236406650053
 30
0.0
 11
28.24672355106179
 21
438.1426406650053
 31
0.0
1001
AUSTER_ANSICHT
1002
{
1000
Det03
1002
}
1001
AUSTER_FOLIE
1002
{
1000
NSB00341_S2
1002
}
  0
LINE
  5
C780
330
20
100
AcDbEntity
  8
10000_FRONT
  6
DASHED
 62
     7
370
    20
100
AcDbLine
 39
0.25
 10
29.27672355106188
 20
436.7546406650054
 30
0.0
 11
29.27672355106188
 21
436.9346406650055
 31
0.0
1001
AUSTER_ANSICHT
1002
{
1000
Det03
1002
}
1001
AUSTER_FOLIE
1002
{
1000
NSB00341_S2
1002
}
  0
LINE
  5
C781
330
20
100
AcDbEntity
  8
10000_FRONT
  6
DASHED
 62
     7
370
    20
100
AcDbLine
 39
0.25
 10
29.27672355106188
 20
438.3236406650053
 30
0.0
 11
29.27672355106188
 21
438.1426406650053
 31
0.0
1001
AUSTER_ANSICHT
1002
{
1000
Det03
1002
}
1001
AUSTER_FOLIE
1002
{
1000
NSB00341_S2
1002
}
  0
LINE
  5
C782
330
20
100
AcDbEntity
  8
10000_FRONT
  6
DASHED
 62
     7
370
    20
100
AcDbLine
 39
0.25
 10
28.24672355106179
 20
436.7546406650054
 30
0.0
 11
28.24672355106179
 21
435.7616406650053
 31
0.0
1001
AUSTER_ANSICHT
1002
{
1000
Det03
1002
}
1001
AUSTER_FOLIE
1002
{
1000
NSB00341_S2
1002
}
  0
LINE
  5
C783
330
20
100
AcDbEntity
  8
10000_FRONT
  6
DASHED
 62
     7
370
    20
100
AcDbLine
 39
0.25
 10
29.27672355106188
 20
435.7616406650053
 30
0.0
 11
29.27672355106188
 21
436.7546406650054
 31
0.0
1001
AUSTER_ANSICHT
1002
{
1000
Det03
1002
}
1001
AUSTER_FOLIE
1002
{
1000
NSB00341_S2
1002
}
  0
LINE
  5
C784
330
20
100
AcDbEntity
  8
10000_FRONT
  6
DASHED
 62
     7
370
    20
100
AcDbLine
 39
0.25
 10
29.27672355106188
 20
438.3236406650053
 30
0.0
 11
29.27672355106188
 21
439.3156406650055
 31
0.0
1001
AUSTER_ANSICHT
1002
{
1000
Det03
1002
}
1001
AUSTER_FOLIE
1002
{
1000
NSB00341_S2
1002
}
  0
LINE
  5
C785
330
20
100
AcDbEntity
  8
10000_FRONT
  6
DASHED
 62
     7
370
    20
100
AcDbLine
 39
0.25
 10
28.24672355106179
 20
439.3156406650055
 30
0.0
 11
28.24672355106179
 21
438.3236406650053
 31
0.0
1001
AUSTER_ANSICHT
1002
{
1000
Det03
1002
}
1001
AUSTER_FOLIE
1002
{
1000
NSB00341_S2
1002
}
  0
LINE
  5
C786
330
20
100
AcDbEntity
  8
10000_FRONT
  6
DASHED
 62
     7
370
    20
100
AcDbLine
 39
0.25
 10
28.24672355106179
 20
438.1426406650053
 30
0.0
 11
25.97572355106184
 21
438.1426406650053
 31
0.0
1001
AUSTER_ANSICHT
1002
{
1000
Det03
1002
}
1001
AUSTER_FOLIE
1002
{
1000
NSB00341_S2
1002
}
  0
LINE
  5
C787
330
20
100
AcDbEntity
  8
10000_FRONT
  6
DASHED
 62
     7
370
    20
100
AcDbLine
 39
0.25
 10
31.54772355106184
 20
438.1426406650053
 30
0.0
 11
29.27672355106188
 21
438.1426406650053
 31
0.0
1001
AUSTER_ANSICHT
1002
{
1000
Det03
1002
}
1001
AUSTER_FOLIE
1002
{
1000
NSB00341_S2
1002
}
  0
LINE
  5
C788
330
20
100
AcDbEntity
  8
10000_FRONT
  6
DASHED
 62
     7
370
    20
100
AcDbLine
 39
0.25
 10
29.27672355106188
 20
436.9346406650055
 30
0.0
 11
31.54772355106184
 21
436.9346406650055
 31
0.0
1001
AUSTER_ANSICHT
1002
{
1000
Det03
1002
}
1001
AUSTER_FOLIE
1002
{
1000
NSB00341_S2
1002
}
  0
LINE
  5
C789
330
20
100
AcDbEntity
  8
10000_FRONT
  6
DASHED
 62
     7
370
    20
100
AcDbLine
 39
0.25
 10
25.97572355106184
 20
436.9346406650055
 30
0.0
 11
28.24672355106179
 21
436.9346406650055
 31
0.0
1001
AUSTER_ANSICHT
1002
{
1000
Det03
1002
}
1001
AUSTER_FOLIE
1002
{
1000
NSB00341_S2
1002
}
  0
LINE
  5
C78A
330
20
100
AcDbEntity
  8
10000_FRONT
  6
DASHED
 62
     7
370
    20
100
AcDbLine
 39
0.25
 10
19.64672355106177
 20
436.7546406650054
 30
0.0
 11
19.64672355106177
 21
436.9346406650055
 31
0.0
1001
AUSTER_ANSICHT
1002
{
1000
Det03
1002
}
1001
AUSTER_FOLIE
1002
{
1000
NSB00341_S2
1002
}
  0
LINE
  5
C78B
330
20
100
AcDbEntity
  8
10000_FRONT
  6
DASHED
 62
     7
370
    20
100
AcDbLine
 39
0.25
 10
19.64672355106177
 20
438.3236406650053
 30
0.0
 11
19.64672355106177
 21
438.1426406650053
 31
0.0
1001
AUSTER_ANSICHT
1002
{
1000
Det03
1002
}
1001
AUSTER_FOLIE
1002
{
1000
NSB00341_S2
1002
}
  0
LINE
  5
C78C
330
20
100
AcDbEntity
  8
10000_FRONT
  6
DASHED
 62
     7
370
    20
100
AcDbLine
 39
0.25
 10
20.67672355106174
 20
436.7546406650054
 30
0.0
 11
20.67672355106174
 21
436.9346406650055
 31
0.0
1001
AUSTER_ANSICHT
1002
{
1000
Det03
1002
}
1001
AUSTER_FOLIE
1002
{
1000
NSB00341_S2
1002
}
  0
LINE
  5
C78D
330
20
100
AcDbEntity
  8
10000_FRONT
  6
DASHED
 62
     7
370
    20
100
AcDbLine
 39
0.25
 10
20.67672355106174
 20
438.3236406650053
 30
0.0
 11
20.67672355106174
 21
438.1426406650053
 31
0.0
1001
AUSTER_ANSICHT
1002
{
1000
Det03
1002
}
1001
AUSTER_FOLIE
1002
{
1000
NSB00341_S2
1002
}
  0
LINE
  5
C78E
330
20
100
AcDbEntity
  8
10000_FRONT
  6
DASHED
 62
     7
370
    20
100
AcDbLine
 39
0.25
 10
19.64672355106177
 20
436.7546406650054
 30
0.0
 11
19.64672355106177
 21
435.7616406650053
 31
0.0
1001
AUSTER_ANSICHT
1002
{
1000
Det03
1002
}
1001
AUSTER_FOLIE
1002
{
1000
NSB00341_S2
1002
}
  0
LINE
  5
C78F
330
20
100
AcDbEntity
  8
10000_FRONT
  6
DASHED
 62
     7
370
    20
100
AcDbLine
 39
0.25
 10
20.67672355106174
 20
435.7616406650053
 30
0.0
 11
20.67672355106174
 21
436.7546406650054
 31
0.0
1001
AUSTER_ANSICHT
1002
{
1000
Det03
1002
}
1001
AUSTER_FOLIE
1002
{
1000
NSB00341_S2
1002
}
  0
LINE
  5
C790
330
20
100
AcDbEntity
  8
10000_FRONT
  6
DASHED
 62
     7
370
    20
100
AcDbLine
 39
0.25
 10
20.67672355106174
 20
438.3236406650053
 30
0.0
 11
20.67672355106174
 21
439.3156406650055
 31
0.0
1001
AUSTER_ANSICHT
1002
{
1000
Det03
1002
}
1001
AUSTER_FOLIE
1002
{
1000
NSB00341_S2
1002
}
  0
LINE
  5
C791
330
20
100
AcDbEntity
  8
10000_FRONT
  6
DASHED
 62
     7
370
    20
100
AcDbLine
 39
0.25
 10
19.64672355106177
 20
439.3156406650055
 30
0.0
 11
19.64672355106177
 21
438.3236406650053
 31
0.0
1001
AUSTER_ANSICHT
1002
{
1000
Det03
1002
}
1001
AUSTER_FOLIE
1002
{
1000
NSB00341_S2
1002
}
  0
LINE
  5
C792
330
20
100
AcDbEntity
  8
10000_FRONT
  6
DASHED
 62
     7
370
    20
100
AcDbLine
 39
0.25
 10
19.64672355106177
 20
438.1426406650053
 30
0.0
 11
17.37572355106181
 21
438.1426406650053
 31
0.0
1001
AUSTER_ANSICHT
1002
{
1000
Det03
1002
}
1001
AUSTER_FOLIE
1002
{
1000
NSB00341_S2
1002
}
  0
LINE
  5
C793
330
20
100
AcDbEntity
  8
10000_FRONT
  6
DASHED
 62
     7
370
    20
100
AcDbLine
 39
0.25
 10
22.9477235510618
 20
438.1426406650053
 30
0.0
 11
20.67672355106174
 21
438.1426406650053
 31
0.0
1001
AUSTER_ANSICHT
1002
{
1000
Det03
1002
}
1001
AUSTER_FOLIE
1002
{
1000
NSB00341_S2
1002
}
  0
LINE
  5
C794
330
20
100
AcDbEntity
  8
10000_FRONT
  6
DASHED
 62
     7
370
    20
100
AcDbLine
 39
0.25
 10
20.67672355106174
 20
436.9346406650055
 30
0.0
 11
22.9477235510618
 21
436.9346406650055
 31
0.0
1001
AUSTER_ANSICHT
1002
{
1000
Det03
1002
}
1001
AUSTER_FOLIE
1002
{
1000
NSB00341_S2
1002
}
  0
LINE
  5
C795
330
20
100
AcDbEntity
  8
10000_FRONT
  6
DASHED
 62
     7
370
    20
100
AcDbLine
 39
0.25
 10
17.37572355106181
 20
436.9346406650055
 30
0.0
 11
19.64672355106177
 21
436.9346406650055
 31
0.0
1001
AUSTER_ANSICHT
1002
{
1000
Det03
1002
}
1001
AUSTER_FOLIE
1002
{
1000
NSB00341_S2
1002
}
  0
LINE
  5
C796
330
20
100
AcDbEntity
  8
10000_FRONT
  6
DASHED
 62
     7
370
    20
100
AcDbLine
 39
0.25
 10
11.04672355106186
 20
436.7546406650054
 30
0.0
 11
11.04672355106186
 21
436.9346406650055
 31
0.0
1001
AUSTER_ANSICHT
1002
{
1000
Det03
1002
}
1001
AUSTER_FOLIE
1002
{
1000
NSB00341_S2
1002
}
  0
LINE
  5
C797
330
20
100
AcDbEntity
  8
10000_FRONT
  6
DASHED
 62
     7
370
    20
100
AcDbLine
 39
0.25
 10
11.04672355106186
 20
438.3236406650053
 30
0.0
 11
11.04672355106186
 21
438.1426406650053
 31
0.0
1001
AUSTER_ANSICHT
1002
{
1000
Det03
1002
}
1001
AUSTER_FOLIE
1002
{
1000
NSB00341_S2
1002
}
  0
LINE
  5
C798
330
20
100
AcDbEntity
  8
10000_FRONT
  6
DASHED
 62
     7
370
    20
100
AcDbLine
 39
0.25
 10
12.07672355106183
 20
436.7546406650054
 30
0.0
 11
12.07672355106183
 21
436.9346406650055
 31
0.0
1001
AUSTER_ANSICHT
1002
{
1000
Det03
1002
}
1001
AUSTER_FOLIE
1002
{
1000
NSB00341_S2
1002
}
  0
LINE
  5
C799
330
20
100
AcDbEntity
  8
10000_FRONT
  6
DASHED
 62
     7
370
    20
100
AcDbLine
 39
0.25
 10
12.07672355106183
 20
438.3236406650053
 30
0.0
 11
12.07672355106183
 21
438.1426406650053
 31
0.0
1001
AUSTER_ANSICHT
1002
{
1000
Det03
1002
}
1001
AUSTER_FOLIE
1002
{
1000
NSB00341_S2
1002
}
  0
LINE
  5
C79A
330
20
100
AcDbEntity
  8
10000_FRONT
  6
DASHED
 62
     7
370
    20
100
AcDbLine
 39
0.25
 10
11.04672355106186
 20
436.7546406650054
 30
0.0
 11
11.04672355106186
 21
435.7616406650053
 31
0.0
1001
AUSTER_ANSICHT
1002
{
1000
Det03
1002
}
1001
AUSTER_FOLIE
1002
{
1000
NSB00341_S2
1002
}
  0
LINE
  5
C79B
330
20
100
AcDbEntity
  8
10000_FRONT
  6
DASHED
 62
     7
370
    20
100
AcDbLine
 39
0.25
 10
12.07672355106183
 20
435.7616406650053
 30
0.0
 11
12.07672355106183
 21
436.7546406650054
 31
0.0
1001
AUSTER_ANSICHT
1002
{
1000
Det03
1002
}
1001
AUSTER_FOLIE
1002
{
1000
NSB00341_S2
1002
}
  0
LINE
  5
C79C
330
20
100
AcDbEntity
  8
10000_FRONT
  6
DASHED
 62
     7
370
    20
100
AcDbLine
 39
0.25
 10
12.07672355106183
 20
438.3236406650053
 30
0.0
 11
12.07672355106183
 21
439.3156406650055
 31
0.0
1001
AUSTER_ANSICHT
1002
{
1000
Det03
1002
}
1001
AUSTER_FOLIE
1002
{
1000
NSB00341_S2
1002
}
  0
LINE
  5
C79D
330
20
100
AcDbEntity
  8
10000_FRONT
  6
DASHED
 62
     7
370
    20
100
AcDbLine
 39
0.25
 10
11.04672355106186
 20
439.3156406650055
 30
0.0
 11
11.04672355106186
 21
438.3236406650053
 31
0.0
1001
AUSTER_ANSICHT
1002
{
1000
Det03
1002
}
1001
AUSTER_FOLIE
1002
{
1000
NSB00341_S2
1002
}
  0
LINE
  5
C79E
330
20
100
AcDbEntity
  8
10000_FRONT
  6
DASHED
 62
     7
370
    20
100
AcDbLine
 39
0.25
 10
11.04672355106186
 20
438.1426406650053
 30
0.0
 11
8.775723551061787
 21
438.1426406650053
 31
0.0
1001
AUSTER_ANSICHT
1002
{
1000
Det03
1002
}
1001
AUSTER_FOLIE
1002
{
1000
NSB00341_S2
1002
}
  0
LINE
  5
C79F
330
20
100
AcDbEntity
  8
10000_FRONT
  6
DASHED
 62
     7
370
    20
100
AcDbLine
 39
0.25
 10
14.34772355106179
 20
438.1426406650053
 30
0.0
 11
12.07672355106183
 21
438.1426406650053
 31
0.0
1001
AUSTER_ANSICHT
1002
{
1000
Det03
1002
}
1001
AUSTER_FOLIE
1002
{
1000
NSB00341_S2
1002
}
  0
LINE
  5
C7A0
330
20
100
AcDbEntity
  8
10000_FRONT
  6
DASHED
 62
     7
370
    20
100
AcDbLine
 39
0.25
 10
12.07672355106183
 20
436.9346406650055
 30
0.0
 11
14.34772355106179
 21
436.9346406650055
 31
0.0
1001
AUSTER_ANSICHT
1002
{
1000
Det03
1002
}
1001
AUSTER_FOLIE
1002
{
1000
NSB00341_S2
1002
}
  0
LINE
  5
C7A1
330
20
100
AcDbEntity
  8
10000_FRONT
  6
DASHED
 62
     7
370
    20
100
AcDbLine
 39
0.25
 10
8.775723551061787
 20
436.9346406650055
 30
0.0
 11
11.04672355106186
 21
436.9346406650055
 31
0.0
1001
AUSTER_ANSICHT
1002
{
1000
Det03
1002
}
1001
AUSTER_FOLIE
1002
{
1000
NSB00341_S2
1002
}
  0
LINE
  5
C7A2
330
20
100
AcDbEntity
  8
10000_FRONT
  6
DASHED
 62
     7
370
    20
100
AcDbLine
 39
0.25
 10
2.44672355106172
 20
436.7546406650054
 30
0.0
 11
2.44672355106172
 21
436.9346406650055
 31
0.0
1001
AUSTER_ANSICHT
1002
{
1000
Det03
1002
}
1001
AUSTER_FOLIE
1002
{
1000
NSB00341_S2
1002
}
  0
LINE
  5
C7A3
330
20
100
AcDbEntity
  8
10000_FRONT
  6
DASHED
 62
     7
370
    20
100
AcDbLine
 39
0.25
 10
2.44672355106172
 20
438.3236406650053
 30
0.0
 11
2.44672355106172
 21
438.1426406650053
 31
0.0
1001
AUSTER_ANSICHT
1002
{
1000
Det03
1002
}
1001
AUSTER_FOLIE
1002
{
1000
NSB00341_S2
1002
}
  0
LINE
  5
C7A4
330
20
100
AcDbEntity
  8
10000_FRONT
  6
DASHED
 62
     7
370
    20
100
AcDbLine
 39
0.25
 10
3.476723551061807
 20
436.7546406650054
 30
0.0
 11
3.476723551061807
 21
436.9346406650055
 31
0.0
1001
AUSTER_ANSICHT
1002
{
1000
Det03
1002
}
1001
AUSTER_FOLIE
1002
{
1000
NSB00341_S2
1002
}
  0
LINE
  5
C7A5
330
20
100
AcDbEntity
  8
10000_FRONT
  6
DASHED
 62
     7
370
    20
100
AcDbLine
 39
0.25
 10
3.476723551061807
 20
438.3236406650053
 30
0.0
 11
3.476723551061807
 21
438.1426406650053
 31
0.0
1001
AUSTER_ANSICHT
1002
{
1000
Det03
1002
}
1001
AUSTER_FOLIE
1002
{
1000
NSB00341_S2
1002
}
  0
LINE
  5
C7A6
330
20
100
AcDbEntity
  8
10000_FRONT
  6
DASHED
 62
     7
370
    20
100
AcDbLine
 39
0.25
 10
2.44672355106172
 20
436.7546406650054
 30
0.0
 11
2.44672355106172
 21
435.7616406650053
 31
0.0
1001
AUSTER_ANSICHT
1002
{
1000
Det03
1002
}
1001
AUSTER_FOLIE
1002
{
1000
NSB00341_S2
1002
}
  0
LINE
  5
C7A7
330
20
100
AcDbEntity
  8
10000_FRONT
  6
DASHED
 62
     7
370
    20
100
AcDbLine
 39
0.25
 10
3.476723551061807
 20
435.7616406650053
 30
0.0
 11
3.476723551061807
 21
436.7546406650054
 31
0.0
1001
AUSTER_ANSICHT
1002
{
1000
Det03
1002
}
1001
AUSTER_FOLIE
1002
{
1000
NSB00341_S2
1002
}
  0
LINE
  5
C7A8
330
20
100
AcDbEntity
  8
10000_FRONT
  6
DASHED
 62
     7
370
    20
100
AcDbLine
 39
0.25
 10
3.476723551061807
 20
438.3236406650053
 30
0.0
 11
3.476723551061807
 21
439.3156406650055
 31
0.0
1001
AUSTER_ANSICHT
1002
{
1000
Det03
1002
}
1001
AUSTER_FOLIE
1002
{
1000
NSB00341_S2
1002
}
  0
LINE
  5
C7A9
330
20
100
AcDbEntity
  8
10000_FRONT
  6
DASHED
 62
     7
370
    20
100
AcDbLine
 39
0.25
 10
2.44672355106172
 20
439.3156406650055
 30
0.0
 11
2.44672355106172
 21
438.3236406650053
 31
0.0
1001
AUSTER_ANSICHT
1002
{
1000
Det03
1002
}
1001
AUSTER_FOLIE
1002
{
1000
NSB00341_S2
1002
}
  0
LINE
  5
C7AA
330
20
100
AcDbEntity
  8
10000_FRONT
  6
DASHED
 62
     7
370
    20
100
AcDbLine
 39
0.25
 10
2.44672355106172
 20
438.1426406650053
 30
0.0
 11
0.1757235510617647
 21
438.1426406650053
 31
0.0
1001
AUSTER_ANSICHT
1002
{
1000
Det03
1002
}
1001
AUSTER_FOLIE
1002
{
1000
NSB00341_S2
1002
}
  0
LINE
  5
C7AB
330
20
100
AcDbEntity
  8
10000_FRONT
  6
DASHED
 62
     7
370
    20
100
AcDbLine
 39
0.25
 10
5.747723551061767
 20
438.1426406650053
 30
0.0
 11
3.476723551061807
 21
438.1426406650053
 31
0.0
1001
AUSTER_ANSICHT
1002
{
1000
Det03
1002
}
1001
AUSTER_FOLIE
1002
{
1000
NSB00341_S2
1002
}
  0
LINE
  5
C7AC
330
20
100
AcDbEntity
  8
10000_FRONT
  6
DASHED
 62
     7
370
    20
100
AcDbLine
 39
0.25
 10
3.476723551061807
 20
436.9346406650055
 30
0.0
 11
5.747723551061767
 21
436.9346406650055
 31
0.0
1001
AUSTER_ANSICHT
1002
{
1000
Det03
1002
}
1001
AUSTER_FOLIE
1002
{
1000
NSB00341_S2
1002
}
  0
LINE
  5
C7AD
330
20
100
AcDbEntity
  8
10000_FRONT
  6
DASHED
 62
     7
370
    20
100
AcDbLine
 39
0.25
 10
0.1757235510617647
 20
436.9346406650055
 30
0.0
 11
2.44672355106172
 21
436.9346406650055
 31
0.0
1001
AUSTER_ANSICHT
1002
{
1000
Det03
1002
}
1001
AUSTER_FOLIE
1002
{
1000
NSB00341_S2
1002
}
  0
LINE
  5
C7AE
330
20
100
AcDbEntity
  8
10000_FRONT
  6
DASHED
 62
     7
370
    20
100
AcDbLine
 39
0.25
 10
36.84672355106182
 20
436.7546406650054
 30
0.0
 11
36.84672355106182
 21
436.9346406650055
 31
0.0
1001
AUSTER_ANSICHT
1002
{
1000
Det03
1002
}
1001
AUSTER_FOLIE
1002
{
1000
NSB00341_S2
1002
}
  0
LINE
  5
C7AF
330
20
100
AcDbEntity
  8
10000_FRONT
  6
DASHED
 62
     7
370
    20
100
AcDbLine
 39
0.25
 10
36.84672355106182
 20
438.3236406650053
 30
0.0
 11
36.84672355106182
 21
438.1426406650053
 31
0.0
1001
AUSTER_ANSICHT
1002
{
1000
Det03
1002
}
1001
AUSTER_FOLIE
1002
{
1000
NSB00341_S2
1002
}
  0
LINE
  5
C7B0
330
20
100
AcDbEntity
  8
10000_FRONT
  6
DASHED
 62
     7
370
    20
100
AcDbLine
 39
0.25
 10
37.87672355106179
 20
436.7546406650054
 30
0.0
 11
37.87672355106179
 21
436.9346406650055
 31
0.0
1001
AUSTER_ANSICHT
1002
{
1000
Det03
1002
}
1001
AUSTER_FOLIE
1002
{
1000
NSB00341_S2
1002
}
  0
LINE
  5
C7B1
330
20
100
AcDbEntity
  8
10000_FRONT
  6
DASHED
 62
     7
370
    20
100
AcDbLine
 39
0.25
 10
37.87672355106179
 20
438.3236406650053
 30
0.0
 11
37.87672355106179
 21
438.1426406650053
 31
0.0
1001
AUSTER_ANSICHT
1002
{
1000
Det03
1002
}
1001
AUSTER_FOLIE
1002
{
1000
NSB00341_S2
1002
}
  0
LINE
  5
C7B2
330
20
100
AcDbEntity
  8
10000_FRONT
  6
DASHED
 62
     7
370
    20
100
AcDbLine
 39
0.25
 10
36.84672355106182
 20
436.7546406650054
 30
0.0
 11
36.84672355106182
 21
435.7616406650053
 31
0.0
1001
AUSTER_ANSICHT
1002
{
1000
Det03
1002
}
1001
AUSTER_FOLIE
1002
{
1000
NSB00341_S2
1002
}
  0
LINE
  5
C7B3
330
20
100
AcDbEntity
  8
10000_FRONT
  6
DASHED
 62
     7
370
    20
100
AcDbLine
 39
0.25
 10
37.87672355106179
 20
435.7616406650053
 30
0.0
 11
37.87672355106179
 21
436.7546406650054
 31
0.0
1001
AUSTER_ANSICHT
1002
{
1000
Det03
1002
}
1001
AUSTER_FOLIE
1002
{
1000
NSB00341_S2
1002
}
  0
LINE
  5
C7B4
330
20
100
AcDbEntity
  8
10000_FRONT
  6
DASHED
 62
     7
370
    20
100
AcDbLine
 39
0.25
 10
37.87672355106179
 20
438.3236406650053
 30
0.0
 11
37.87672355106179
 21
439.3156406650055
 31
0.0
1001
AUSTER_ANSICHT
1002
{
1000
Det03
1002
}
1001
AUSTER_FOLIE
1002
{
1000
NSB00341_S2
1002
}
  0
LINE
  5
C7B5
330
20
100
AcDbEntity
  8
10000_FRONT
  6
DASHED
 62
     7
370
    20
100
AcDbLine
 39
0.25
 10
36.84672355106182
 20
439.3156406650055
 30
0.0
 11
36.84672355106182
 21
438.3236406650053
 31
0.0
1001
AUSTER_ANSICHT
1002
{
1000
Det03
1002
}
1001
AUSTER_FOLIE
1002
{
1000
NSB00341_S2
1002
}
  0
LINE
  5
C7B6
330
20
100
AcDbEntity
  8
10000_FRONT
  6
DASHED
 62
     7
370
    20
100
AcDbLine
 39
0.25
 10
36.84672355106182
 20
438.1426406650053
 30
0.0
 11
34.57572355106186
 21
438.1426406650053
 31
0.0
1001
AUSTER_ANSICHT
1002
{
1000
Det03
1002
}
1001
AUSTER_FOLIE
1002
{
1000
NSB00341_S2
1002
}
  0
LINE
  5
C7B7
330
20
100
AcDbEntity
  8
10000_FRONT
  6
DASHED
 62
     7
370
    20
100
AcDbLine
 39
0.25
 10
40.14772355106172
 20
438.1426406650053
 30
0.0
 11
37.87672355106179
 21
438.1426406650053
 31
0.0
1001
AUSTER_ANSICHT
1002
{
1000
Det03
1002
}
1001
AUSTER_FOLIE
1002
{
1000
NSB00341_S2
1002
}
  0
LINE
  5
C7B8
330
20
100
AcDbEntity
  8
10000_FRONT
  6
DASHED
 62
     7
370
    20
100
AcDbLine
 39
0.25
 10
37.87672355106179
 20
436.9346406650055
 30
0.0
 11
40.14772355106172
 21
436.9346406650055
 31
0.0
1001
AUSTER_ANSICHT
1002
{
1000
Det03
1002
}
1001
AUSTER_FOLIE
1002
{
1000
NSB00341_S2
1002
}
  0
LINE
  5
C7B9
330
20
100
AcDbEntity
  8
10000_FRONT
  6
DASHED
 62
     7
370
    20
100
AcDbLine
 39
0.25
 10
34.57572355106186
 20
436.9346406650055
 30
0.0
 11
36.84672355106182
 21
436.9346406650055
 31
0.0
1001
AUSTER_ANSICHT
1002
{
1000
Det03
1002
}
1001
AUSTER_FOLIE
1002
{
1000
NSB00341_S2
1002
}
  0
LINE
  5
C7BA
330
20
100
AcDbEntity
  8
10000_FRONT
  6
DASHED
 62
     7
370
    20
100
AcDbLine
 39
0.25
 10
28.24672355106179
 20
436.7546406650054
 30
0.0
 11
28.24672355106179
 21
436.9346406650055
 31
0.0
1001
AUSTER_ANSICHT
1002
{
1000
Det03
1002
}
1001
AUSTER_FOLIE
1002
{
1000
NSB00341_S2
1002
}
  0
LINE
  5
C7BB
330
20
100
AcDbEntity
  8
10000_FRONT
  6
DASHED
 62
     7
370
    20
100
AcDbLine
 39
0.25
 10
28.24672355106179
 20
438.3236406650053
 30
0.0
 11
28.24672355106179
 21
438.1426406650053
 31
0.0
1001
AUSTER_ANSICHT
1002
{
1000
Det03
1002
}
1001
AUSTER_FOLIE
1002
{
1000
NSB00341_S2
1002
}
  0
LINE
  5
C7BC
330
20
100
AcDbEntity
  8
10000_FRONT
  6
DASHED
 62
     7
370
    20
100
AcDbLine
 39
0.25
 10
29.27672355106188
 20
436.7546406650054
 30
0.0
 11
29.27672355106188
 21
436.9346406650055
 31
0.0
1001
AUSTER_ANSICHT
1002
{
1000
Det03
1002
}
1001
AUSTER_FOLIE
1002
{
1000
NSB00341_S2
1002
}
  0
LINE
  5
C7BD
330
20
100
AcDbEntity
  8
10000_FRONT
  6
DASHED
 62
     7
370
    20
100
AcDbLine
 39
0.25
 10
29.27672355106188
 20
438.3236406650053
 30
0.0
 11
29.27672355106188
 21
438.1426406650053
 31
0.0
1001
AUSTER_ANSICHT
1002
{
1000
Det03
1002
}
1001
AUSTER_FOLIE
1002
{
1000
NSB00341_S2
1002
}
  0
LINE
  5
C7BE
330
20
100
AcDbEntity
  8
10000_FRONT
  6
DASHED
 62
     7
370
    20
100
AcDbLine
 39
0.25
 10
28.24672355106179
 20
436.7546406650054
 30
0.0
 11
28.24672355106179
 21
435.7616406650053
 31
0.0
1001
AUSTER_ANSICHT
1002
{
1000
Det03
1002
}
1001
AUSTER_FOLIE
1002
{
1000
NSB00341_S2
1002
}
  0
LINE
  5
C7BF
330
20
100
AcDbEntity
  8
10000_FRONT
  6
DASHED
 62
     7
370
    20
100
AcDbLine
 39
0.25
 10
29.27672355106188
 20
435.7616406650053
 30
0.0
 11
29.27672355106188
 21
436.7546406650054
 31
0.0
1001
AUSTER_ANSICHT
1002
{
1000
Det03
1002
}
1001
AUSTER_FOLIE
1002
{
1000
NSB00341_S2
1002
}
  0
LINE
  5
C7C0
330
20
100
AcDbEntity
  8
10000_FRONT
  6
DASHED
 62
     7
370
    20
100
AcDbLine
 39
0.25
 10
29.27672355106188
 20
438.3236406650053
 30
0.0
 11
29.27672355106188
 21
439.3156406650055
 31
0.0
1001
AUSTER_ANSICHT
1002
{
1000
Det03
1002
}
1001
AUSTER_FOLIE
1002
{
1000
NSB00341_S2
1002
}
  0
LINE
  5
C7C1
330
20
100
AcDbEntity
  8
10000_FRONT
  6
DASHED
 62
     7
370
    20
100
AcDbLine
 39
0.25
 10
28.24672355106179
 20
439.3156406650055
 30
0.0
 11
28.24672355106179
 21
438.3236406650053
 31
0.0
1001
AUSTER_ANSICHT
1002
{
1000
Det03
1002
}
1001
AUSTER_FOLIE
1002
{
1000
NSB00341_S2
1002
}
  0
LINE
  5
C7C2
330
20
100
AcDbEntity
  8
10000_FRONT
  6
DASHED
 62
     7
370
    20
100
AcDbLine
 39
0.25
 10
28.24672355106179
 20
438.1426406650053
 30
0.0
 11
25.97572355106184
 21
438.1426406650053
 31
0.0
1001
AUSTER_ANSICHT
1002
{
1000
Det03
1002
}
1001
AUSTER_FOLIE
1002
{
1000
NSB00341_S2
1002
}
  0
LINE
  5
C7C3
330
20
100
AcDbEntity
  8
10000_FRONT
  6
DASHED
 62
     7
370
    20
100
AcDbLine
 39
0.25
 10
31.54772355106184
 20
438.1426406650053
 30
0.0
 11
29.27672355106188
 21
438.1426406650053
 31
0.0
1001
AUSTER_ANSICHT
1002
{
1000
Det03
1002
}
1001
AUSTER_FOLIE
1002
{
1000
NSB00341_S2
1002
}
  0
LINE
  5
C7C4
330
20
100
AcDbEntity
  8
10000_FRONT
  6
DASHED
 62
     7
370
    20
100
AcDbLine
 39
0.25
 10
29.27672355106188
 20
436.9346406650055
 30
0.0
 11
31.54772355106184
 21
436.9346406650055
 31
0.0
1001
AUSTER_ANSICHT
1002
{
1000
Det03
1002
}
1001
AUSTER_FOLIE
1002
{
1000
NSB00341_S2
1002
}
  0
LINE
  5
C7C5
330
20
100
AcDbEntity
  8
10000_FRONT
  6
DASHED
 62
     7
370
    20
100
AcDbLine
 39
0.25
 10
25.97572355106184
 20
436.9346406650055
 30
0.0
 11
28.24672355106179
 21
436.9346406650055
 31
0.0
1001
AUSTER_ANSICHT
1002
{
1000
Det03
1002
}
1001
AUSTER_FOLIE
1002
{
1000
NSB00341_S2
1002
}
  0
LINE
  5
C7C6
330
20
100
AcDbEntity
  8
10000_FRONT
  6
DASHED
 62
     7
370
    20
100
AcDbLine
 39
0.25
 10
19.64672355106177
 20
436.7546406650054
 30
0.0
 11
19.64672355106177
 21
436.9346406650055
 31
0.0
1001
AUSTER_ANSICHT
1002
{
1000
Det03
1002
}
1001
AUSTER_FOLIE
1002
{
1000
NSB00341_S2
1002
}
  0
LINE
  5
C7C7
330
20
100
AcDbEntity
  8
10000_FRONT
  6
DASHED
 62
     7
370
    20
100
AcDbLine
 39
0.25
 10
19.64672355106177
 20
438.3236406650053
 30
0.0
 11
19.64672355106177
 21
438.1426406650053
 31
0.0
1001
AUSTER_ANSICHT
1002
{
1000
Det03
1002
}
1001
AUSTER_FOLIE
1002
{
1000
NSB00341_S2
1002
}
  0
LINE
  5
C7C8
330
20
100
AcDbEntity
  8
10000_FRONT
  6
DASHED
 62
     7
370
    20
100
AcDbLine
 39
0.25
 10
20.67672355106174
 20
436.7546406650054
 30
0.0
 11
20.67672355106174
 21
436.9346406650055
 31
0.0
1001
AUSTER_ANSICHT
1002
{
1000
Det03
1002
}
1001
AUSTER_FOLIE
1002
{
1000
NSB00341_S2
1002
}
  0
LINE
  5
C7C9
330
20
100
AcDbEntity
  8
10000_FRONT
  6
DASHED
 62
     7
370
    20
100
AcDbLine
 39
0.25
 10
20.67672355106174
 20
438.3236406650053
 30
0.0
 11
20.67672355106174
 21
438.1426406650053
 31
0.0
1001
AUSTER_ANSICHT
1002
{
1000
Det03
1002
}
1001
AUSTER_FOLIE
1002
{
1000
NSB00341_S2
1002
}
  0
LINE
  5
C7CA
330
20
100
AcDbEntity
  8
10000_FRONT
  6
DASHED
 62
     7
370
    20
100
AcDbLine
 39
0.25
 10
19.64672355106177
 20
436.7546406650054
 30
0.0
 11
19.64672355106177
 21
435.7616406650053
 31
0.0
1001
AUSTER_ANSICHT
1002
{
1000
Det03
1002
}
1001
AUSTER_FOLIE
1002
{
1000
NSB00341_S2
1002
}
  0
LINE
  5
C7CB
330
20
100
AcDbEntity
  8
10000_FRONT
  6
DASHED
 62
     7
370
    20
100
AcDbLine
 39
0.25
 10
20.67672355106174
 20
435.7616406650053
 30
0.0
 11
20.67672355106174
 21
436.7546406650054
 31
0.0
1001
AUSTER_ANSICHT
1002
{
1000
Det03
1002
}
1001
AUSTER_FOLIE
1002
{
1000
NSB00341_S2
1002
}
  0
LINE
  5
C7CC
330
20
100
AcDbEntity
  8
10000_FRONT
  6
DASHED
 62
     7
370
    20
100
AcDbLine
 39
0.25
 10
20.67672355106174
 20
438.3236406650053
 30
0.0
 11
20.67672355106174
 21
439.3156406650055
 31
0.0
1001
AUSTER_ANSICHT
1002
{
1000
Det03
1002
}
1001
AUSTER_FOLIE
1002
{
1000
NSB00341_S2
1002
}
  0
LINE
  5
C7CD
330
20
100
AcDbEntity
  8
10000_FRONT
  6
DASHED
 62
     7
370
    20
100
AcDbLine
 39
0.25
 10
19.64672355106177
 20
439.3156406650055
 30
0.0
 11
19.64672355106177
 21
438.3236406650053
 31
0.0
1001
AUSTER_ANSICHT
1002
{
1000
Det03
1002
}
1001
AUSTER_FOLIE
1002
{
1000
NSB00341_S2
1002
}
  0
LINE
  5
C7CE
330
20
100
AcDbEntity
  8
10000_FRONT
  6
DASHED
 62
     7
370
    20
100
AcDbLine
 39
0.25
 10
19.64672355106177
 20
438.1426406650053
 30
0.0
 11
17.37572355106181
 21
438.1426406650053
 31
0.0
1001
AUSTER_ANSICHT
1002
{
1000
Det03
1002
}
1001
AUSTER_FOLIE
1002
{
1000
NSB00341_S2
1002
}
  0
LINE
  5
C7CF
330
20
100
AcDbEntity
  8
10000_FRONT
  6
DASHED
 62
     7
370
    20
100
AcDbLine
 39
0.25
 10
22.9477235510618
 20
438.1426406650053
 30
0.0
 11
20.67672355106174
 21
438.1426406650053
 31
0.0
1001
AUSTER_ANSICHT
1002
{
1000
Det03
1002
}
1001
AUSTER_FOLIE
1002
{
1000
NSB00341_S2
1002
}
  0
LINE
  5
C7D0
330
20
100
AcDbEntity
  8
10000_FRONT
  6
DASHED
 62
     7
370
    20
100
AcDbLine
 39
0.25
 10
20.67672355106174
 20
436.9346406650055
 30
0.0
 11
22.9477235510618
 21
436.9346406650055
 31
0.0
1001
AUSTER_ANSICHT
1002
{
1000
Det03
1002
}
1001
AUSTER_FOLIE
1002
{
1000
NSB00341_S2
1002
}
  0
LINE
  5
C7D1
330
20
100
AcDbEntity
  8
10000_FRONT
  6
DASHED
 62
     7
370
    20
100
AcDbLine
 39
0.25
 10
17.37572355106181
 20
436.9346406650055
 30
0.0
 11
19.64672355106177
 21
436.9346406650055
 31
0.0
1001
AUSTER_ANSICHT
1002
{
1000
Det03
1002
}
1001
AUSTER_FOLIE
1002
{
1000
NSB00341_S2
1002
}
  0
LINE
  5
C7D2
330
20
100
AcDbEntity
  8
10000_FRONT
  6
DASHED
 62
     7
370
    20
100
AcDbLine
 39
0.25
 10
11.04672355106186
 20
436.7546406650054
 30
0.0
 11
11.04672355106186
 21
436.9346406650055
 31
0.0
1001
AUSTER_ANSICHT
1002
{
1000
Det03
1002
}
1001
AUSTER_FOLIE
1002
{
1000
NSB00341_S2
1002
}
  0
LINE
  5
C7D3
330
20
100
AcDbEntity
  8
10000_FRONT
  6
DASHED
 62
     7
370
    20
100
AcDbLine
 39
0.25
 10
11.04672355106186
 20
438.3236406650053
 30
0.0
 11
11.04672355106186
 21
438.1426406650053
 31
0.0
1001
AUSTER_ANSICHT
1002
{
1000
Det03
1002
}
1001
AUSTER_FOLIE
1002
{
1000
NSB00341_S2
1002
}
  0
LINE
  5
C7D4
330
20
100
AcDbEntity
  8
10000_FRONT
  6
DASHED
 62
     7
370
    20
100
AcDbLine
 39
0.25
 10
12.07672355106183
 20
436.7546406650054
 30
0.0
 11
12.07672355106183
 21
436.9346406650055
 31
0.0
1001
AUSTER_ANSICHT
1002
{
1000
Det03
1002
}
1001
AUSTER_FOLIE
1002
{
1000
NSB00341_S2
1002
}
  0
LINE
  5
C7D5
330
20
100
AcDbEntity
  8
10000_FRONT
  6
DASHED
 62
     7
370
    20
100
AcDbLine
 39
0.25
 10
12.07672355106183
 20
438.3236406650053
 30
0.0
 11
12.07672355106183
 21
438.1426406650053
 31
0.0
1001
AUSTER_ANSICHT
1002
{
1000
Det03
1002
}
1001
AUSTER_FOLIE
1002
{
1000
NSB00341_S2
1002
}
  0
LINE
  5
C7D6
330
20
100
AcDbEntity
  8
10000_FRONT
  6
DASHED
 62
     7
370
    20
100
AcDbLine
 39
0.25
 10
11.04672355106186
 20
436.7546406650054
 30
0.0
 11
11.04672355106186
 21
435.7616406650053
 31
0.0
1001
AUSTER_ANSICHT
1002
{
1000
Det03
1002
}
1001
AUSTER_FOLIE
1002
{
1000
NSB00341_S2
1002
}
  0
LINE
  5
C7D7
330
20
100
AcDbEntity
  8
10000_FRONT
  6
DASHED
 62
     7
370
    20
100
AcDbLine
 39
0.25
 10
12.07672355106183
 20
435.7616406650053
 30
0.0
 11
12.07672355106183
 21
436.7546406650054
 31
0.0
1001
AUSTER_ANSICHT
1002
{
1000
Det03
1002
}
1001
AUSTER_FOLIE
1002
{
1000
NSB00341_S2
1002
}
  0
LINE
  5
C7D8
330
20
100
AcDbEntity
  8
10000_FRONT
  6
DASHED
 62
     7
370
    20
100
AcDbLine
 39
0.25
 10
12.07672355106183
 20
438.3236406650053
 30
0.0
 11
12.07672355106183
 21
439.3156406650055
 31
0.0
1001
AUSTER_ANSICHT
1002
{
1000
Det03
1002
}
1001
AUSTER_FOLIE
1002
{
1000
NSB00341_S2
1002
}
  0
LINE
  5
C7D9
330
20
100
AcDbEntity
  8
10000_FRONT
  6
DASHED
 62
     7
370
    20
100
AcDbLine
 39
0.25
 10
11.04672355106186
 20
439.3156406650055
 30
0.0
 11
11.04672355106186
 21
438.3236406650053
 31
0.0
1001
AUSTER_ANSICHT
1002
{
1000
Det03
1002
}
1001
AUSTER_FOLIE
1002
{
1000
NSB00341_S2
1002
}
  0
LINE
  5
C7DA
330
20
100
AcDbEntity
  8
10000_FRONT
  6
DASHED
 62
     7
370
    20
100
AcDbLine
 39
0.25
 10
11.04672355106186
 20
438.1426406650053
 30
0.0
 11
8.775723551061787
 21
438.1426406650053
 31
0.0
1001
AUSTER_ANSICHT
1002
{
1000
Det03
1002
}
1001
AUSTER_FOLIE
1002
{
1000
NSB00341_S2
1002
}
  0
LINE
  5
C7DB
330
20
100
AcDbEntity
  8
10000_FRONT
  6
DASHED
 62
     7
370
    20
100
AcDbLine
 39
0.25
 10
14.34772355106179
 20
438.1426406650053
 30
0.0
 11
12.07672355106183
 21
438.1426406650053
 31
0.0
1001
AUSTER_ANSICHT
1002
{
1000
Det03
1002
}
1001
AUSTER_FOLIE
1002
{
1000
NSB00341_S2
1002
}
  0
LINE
  5
C7DC
330
20
100
AcDbEntity
  8
10000_FRONT
  6
DASHED
 62
     7
370
    20
100
AcDbLine
 39
0.25
 10
12.07672355106183
 20
436.9346406650055
 30
0.0
 11
14.34772355106179
 21
436.9346406650055
 31
0.0
1001
AUSTER_ANSICHT
1002
{
1000
Det03
1002
}
1001
AUSTER_FOLIE
1002
{
1000
NSB00341_S2
1002
}
  0
LINE
  5
C7DD
330
20
100
AcDbEntity
  8
10000_FRONT
  6
DASHED
 62
     7
370
    20
100
AcDbLine
 39
0.25
 10
8.775723551061787
 20
436.9346406650055
 30
0.0
 11
11.04672355106186
 21
436.9346406650055
 31
0.0
1001
AUSTER_ANSICHT
1002
{
1000
Det03
1002
}
1001
AUSTER_FOLIE
1002
{
1000
NSB00341_S2
1002
}
  0
LINE
  5
C7DE
330
20
100
AcDbEntity
  8
10000_FRONT
  6
DASHED
 62
     7
370
    20
100
AcDbLine
 39
0.25
 10
2.44672355106172
 20
436.7546406650054
 30
0.0
 11
2.44672355106172
 21
436.9346406650055
 31
0.0
1001
AUSTER_ANSICHT
1002
{
1000
Det03
1002
}
1001
AUSTER_FOLIE
1002
{
1000
NSB00341_S2
1002
}
  0
LINE
  5
C7DF
330
20
100
AcDbEntity
  8
10000_FRONT
  6
DASHED
 62
     7
370
    20
100
AcDbLine
 39
0.25
 10
2.44672355106172
 20
438.3236406650053
 30
0.0
 11
2.44672355106172
 21
438.1426406650053
 31
0.0
1001
AUSTER_ANSICHT
1002
{
1000
Det03
1002
}
1001
AUSTER_FOLIE
1002
{
1000
NSB00341_S2
1002
}
  0
LINE
  5
C7E0
330
20
100
AcDbEntity
  8
10000_FRONT
  6
DASHED
 62
     7
370
    20
100
AcDbLine
 39
0.25
 10
3.476723551061807
 20
436.7546406650054
 30
0.0
 11
3.476723551061807
 21
436.9346406650055
 31
0.0
1001
AUSTER_ANSICHT
1002
{
1000
Det03
1002
}
1001
AUSTER_FOLIE
1002
{
1000
NSB00341_S2
1002
}
  0
LINE
  5
C7E1
330
20
100
AcDbEntity
  8
10000_FRONT
  6
DASHED
 62
     7
370
    20
100
AcDbLine
 39
0.25
 10
3.476723551061807
 20
438.3236406650053
 30
0.0
 11
3.476723551061807
 21
438.1426406650053
 31
0.0
1001
AUSTER_ANSICHT
1002
{
1000
Det03
1002
}
1001
AUSTER_FOLIE
1002
{
1000
NSB00341_S2
1002
}
  0
LINE
  5
C7E2
330
20
100
AcDbEntity
  8
10000_FRONT
  6
DASHED
 62
     7
370
    20
100
AcDbLine
 39
0.25
 10
2.44672355106172
 20
436.7546406650054
 30
0.0
 11
2.44672355106172
 21
435.7616406650053
 31
0.0
1001
AUSTER_ANSICHT
1002
{
1000
Det03
1002
}
1001
AUSTER_FOLIE
1002
{
1000
NSB00341_S2
1002
}
  0
LINE
  5
C7E3
330
20
100
AcDbEntity
  8
10000_FRONT
  6
DASHED
 62
     7
370
    20
100
AcDbLine
 39
0.25
 10
3.476723551061807
 20
435.7616406650053
 30
0.0
 11
3.476723551061807
 21
436.7546406650054
 31
0.0
1001
AUSTER_ANSICHT
1002
{
1000
Det03
1002
}
1001
AUSTER_FOLIE
1002
{
1000
NSB00341_S2
1002
}
  0
LINE
  5
C7E4
330
20
100
AcDbEntity
  8
10000_FRONT
  6
DASHED
 62
     7
370
    20
100
AcDbLine
 39
0.25
 10
3.476723551061807
 20
438.3236406650053
 30
0.0
 11
3.476723551061807
 21
439.3156406650055
 31
0.0
1001
AUSTER_ANSICHT
1002
{
1000
Det03
1002
}
1001
AUSTER_FOLIE
1002
{
1000
NSB00341_S2
1002
}
  0
LINE
  5
C7E5
330
20
100
AcDbEntity
  8
10000_FRONT
  6
DASHED
 62
     7
370
    20
100
AcDbLine
 39
0.25
 10
2.44672355106172
 20
439.3156406650055
 30
0.0
 11
2.44672355106172
 21
438.3236406650053
 31
0.0
1001
AUSTER_ANSICHT
1002
{
1000
Det03
1002
}
1001
AUSTER_FOLIE
1002
{
1000
NSB00341_S2
1002
}
  0
LINE
  5
C7E6
330
20
100
AcDbEntity
  8
10000_FRONT
  6
DASHED
 62
     7
370
    20
100
AcDbLine
 39
0.25
 10
2.44672355106172
 20
438.1426406650053
 30
0.0
 11
0.1757235510617647
 21
438.1426406650053
 31
0.0
1001
AUSTER_ANSICHT
1002
{
1000
Det03
1002
}
1001
AUSTER_FOLIE
1002
{
1000
NSB00341_S2
1002
}
  0
LINE
  5
C7E7
330
20
100
AcDbEntity
  8
10000_FRONT
  6
DASHED
 62
     7
370
    20
100
AcDbLine
 39
0.25
 10
5.747723551061767
 20
438.1426406650053
 30
0.0
 11
3.476723551061807
 21
438.1426406650053
 31
0.0
1001
AUSTER_ANSICHT
1002
{
1000
Det03
1002
}
1001
AUSTER_FOLIE
1002
{
1000
NSB00341_S2
1002
}
  0
LINE
  5
C7E8
330
20
100
AcDbEntity
  8
10000_FRONT
  6
DASHED
 62
     7
370
    20
100
AcDbLine
 39
0.25
 10
3.476723551061807
 20
436.9346406650055
 30
0.0
 11
5.747723551061767
 21
436.9346406650055
 31
0.0
1001
AUSTER_ANSICHT
1002
{
1000
Det03
1002
}
1001
AUSTER_FOLIE
1002
{
1000
NSB00341_S2
1002
}
  0
LINE
  5
C7E9
330
20
100
AcDbEntity
  8
10000_FRONT
  6
DASHED
 62
     7
370
    20
100
AcDbLine
 39
0.25
 10
0.1757235510617647
 20
436.9346406650055
 30
0.0
 11
2.44672355106172
 21
436.9346406650055
 31
0.0
1001
AUSTER_ANSICHT
1002
{
1000
Det03
1002
}
1001
AUSTER_FOLIE
1002
{
1000
NSB00341_S2
1002
}
  0
LINE
  5
C7EE
330
20
100
AcDbEntity
  8
11000_Left
  6
DASHED
 62
     7
370
    20
100
AcDbLine
 39
0.25
 10
177.1130072077657
 20
427.2386406650053
 30
0.0
 11
171.3960072077657
 21
427.2386406650053
 31
0.0
1001
AUSTER_ANSICHT
1002
{
1000
Det03
1002
}
1001
AUSTER_FOLIE
1002
{
1000
NSB00341_S2
1002
}
  0
LINE
  5
C7EF
330
20
100
AcDbEntity
  8
11000_Left
  6
DASHED
 62
     7
370
    20
100
AcDbLine
 39
0.25
 10
194.5960072077656
 20
427.2386406650053
 30
0.0
 11
177.1130072077657
 21
427.2386406650053
 31
0.0
1001
AUSTER_ANSICHT
1002
{
1000
Det03
1002
}
1001
AUSTER_FOLIE
1002
{
1000
NSB00341_S2
1002
}
  0
LINE
  5
C7F0
330
20
100
AcDbEntity
  8
11000_Left
  6
DASHED
 62
     7
370
    20
100
AcDbLine
 39
0.25
 10
194.5960072077656
 20
463.1386406650054
 30
0.0
 11
194.5960072077656
 21
482.2386406650053
 31
0.0
1001
AUSTER_ANSICHT
1002
{
1000
Det03
1002
}
1001
AUSTER_FOLIE
1002
{
1000
NSB00341_S2
1002
}
  0
LINE
  5
C7F1
330
20
100
AcDbEntity
  8
11000_Left
  6
DASHED
 62
     7
370
    20
100
AcDbLine
 39
0.25
 10
194.5960072077656
 20
463.1386406650054
 30
0.0
 11
194.5960072077656
 21
427.2386406650053
 31
0.0
1001
AUSTER_ANSICHT
1002
{
1000
Det03
1002
}
1001
AUSTER_FOLIE
1002
{
1000
NSB00341_S2
1002
}
  0
LINE
  5
C7F3
330
20
100
AcDbEntity
  8
11000_Left
  6
DASHED
 62
     7
370
    20
100
AcDbLine
 39
0.25
 10
144.5160072077657
 20
486.1416406650053
 30
0.0
 11
157.0160072077657
 21
486.1416406650053
 31
0.0
1001
AUSTER_ANSICHT
1002
{
1000
Det03
1002
}
1001
AUSTER_FOLIE
1002
{
1000
NSB00341_S2
1002
}
  0
LINE
  5
C7F4
330
20
100
AcDbEntity
  8
11000_Left
  6
DASHED
 62
     7
370
    20
100
AcDbLine
 39
0.25
 10
144.5160072077657
 20
501.1416406650053
 30
0.0
 11
144.5160072077657
 21
486.1416406650053
 31
0.0
1001
AUSTER_ANSICHT
1002
{
1000
Det03
1002
}
1001
AUSTER_FOLIE
1002
{
1000
NSB00341_S2
1002
}
  0
LINE
  5
C7F5
330
20
100
AcDbEntity
  8
11000_Left
  6
DASHED
 62
     7
370
    20
100
AcDbLine
 39
0.25
 10
157.0160072077657
 20
486.1416406650053
 30
0.0
 11
157.0160072077657
 21
501.1416406650053
 31
0.0
1001
AUSTER_ANSICHT
1002
{
1000
Det03
1002
}
1001
AUSTER_FOLIE
1002
{
1000
NSB00341_S2
1002
}
  0
LINE
  5
C816
330
20
100
AcDbEntity
  8
11000_Left
  6
DASHED
 62
     7
370
    20
100
AcDbLine
 39
0.25
 10
93.37100720776559
 20
467.1916406650053
 30
-1.0
 11
91.37100720776562
 21
465.1916406650054
 31
-1.0
1001
AUSTER_ANSICHT
1002
{
1000
Det03
1002
}
1001
AUSTER_FOLIE
1002
{
1000
NSB00341_S2
1002
}
  0
LINE
  5
C817
330
20
100
AcDbEntity
  8
11000_Left
  6
Continuous
 62
     7
370
    20
100
AcDbLine
 39
0.7
 10
96.3950072077656
 20
407.9416406650055
 30
0.0
 11
96.3950072077656
 21
412.2416406650053
 31
0.0
1001
AUSTER_ANSICHT
1002
{
1000
Det03
1002
}
1001
AUSTER_FOLIE
1002
{
1000
NSB00341_S2
1002
}
  0
LINE
  5
C818
330
20
100
AcDbEntity
  8
11000_Left
  6
Continuous
 62
     7
370
    50
100
AcDbLine
 39
0.7
 10
96.3950072077656
 20
402.0416406650053
 30
0.0
 11
96.3950072077656
 21
407.9416406650055
 31
0.0
1001
AUSTER_ANSICHT
1002
{
1000
Det03
1002
}
1001
AUSTER_FOLIE
1002
{
1000
NSB00341_S2
1002
}
  0
LINE
  5
C819
330
20
100
AcDbEntity
  8
11000_Left
  6
DASHED
 62
     7
370
    20
100
AcDbLine
 39
0.7
 10
199.6257814095073
 20
481.8092032486516
 30
0.0
 11
199.7350072077656
 21
480.7836406650053
 31
0.0
1001
AUSTER_ANSICHT
1002
{
1000
Det03
1002
}
1001
AUSTER_FOLIE
1002
{
1000
NSB00341_S2
1002
}
  0
LINE
  5
C81A
330
20
100
AcDbEntity
  8
11000_Left
  6
DASHED
 62
     7
370
    20
100
AcDbLine
 39
0.25
 10
175.4330072077656
 20
409.5456406650053
 30
0.0
 11
175.2840072077655
 21
408.6396406650053
 31
0.0
1001
AUSTER_ANSICHT
1002
{
1000
Det03
1002
}
1001
AUSTER_FOLIE
1002
{
1000
NSB00341_S2
1002
}
  0
LINE
  5
C81E
330
20
100
AcDbEntity
  8
11000_Left
  6
Continuous
 62
     7
370
    20
100
AcDbLine
 39
0.7
 10
136.3950072077656
 20
493.1416406650053
 30
0.0
 11
136.3950072077656
 21
501.1416406650053
 31
0.0
1001
AUSTER_ANSICHT
1002
{
1000
Det03
1002
}
1001
AUSTER_FOLIE
1002
{
1000
NSB00341_S2
1002
}
  0
LINE
  5
C81F
330
20
100
AcDbEntity
  8
11000_Left
  6
Continuous
 62
     7
370
    20
100
AcDbLine
 39
0.7
 10
96.3950072077656
 20
493.1416406650053
 30
0.0
 11
136.3950072077656
 21
493.1416406650053
 31
0.0
1001
AUSTER_ANSICHT
1002
{
1000
Det03
1002
}
1001
AUSTER_FOLIE
1002
{
1000
NSB00341_S2
1002
}
  0
LINE
  5
C820
330
20
100
AcDbEntity
  8
11000_Left
  6
Continuous
 62
     7
370
    20
100
AcDbLine
 39
0.7
 10
96.3950072077656
 20
501.1416406650053
 30
0.0
 11
96.3950072077656
 21
493.1416406650053
 31
0.0
1001
AUSTER_ANSICHT
1002
{
1000
Det03
1002
}
1001
AUSTER_FOLIE
1002
{
1000
NSB00341_S2
1002
}
  0
LINE
  5
C823
330
20
100
AcDbEntity
  8
11000_Left
  6
Continuous
 62
     7
370
    20
100
AcDbLine
 39
0.7
 10
91.99500720776564
 20
437.2006406650053
 30
0.0
 11
91.99500720776564
 21
437.0416406650055
 31
0.0
1001
AUSTER_ANSICHT
1002
{
1000
Det03
1002
}
1001
AUSTER_FOLIE
1002
{
1000
NSB00341_S2
1002
}
  0
LINE
  5
C824
330
20
100
AcDbEntity
  8
11000_Left
  6
Continuous
 62
     7
370
    20
100
AcDbLine
 39
0.7
 10
88.39500720776561
 20
435.0346406650053
 30
0.0
 11
88.39500720776561
 21
435.9006406650053
 31
0.0
1001
AUSTER_ANSICHT
1002
{
1000
Det03
1002
}
1001
AUSTER_FOLIE
1002
{
1000
NSB00341_S2
1002
}
  0
LINE
  5
C825
330
20
100
AcDbEntity
  8
11000_Left
  6
Continuous
 62
     7
370
    20
100
AcDbLine
 39
0.7
 10
88.48900720776567
 20
436.1576406650055
 30
0.0
 11
90.78900720776562
 21
438.8986406650055
 31
0.0
1001
AUSTER_ANSICHT
1002
{
1000
Det03
1002
}
1001
AUSTER_FOLIE
1002
{
1000
NSB00341_S2
1002
}
  0
LINE
  5
C826
330
20
100
AcDbEntity
  8
11000_Left
  6
Continuous
 62
     7
370
    20
100
AcDbLine
 39
0.7
 10
91.09500720776566
 20
439.0416406650055
 30
0.0
 11
91.49500720776563
 21
439.0416406650055
 31
0.0
1001
AUSTER_ANSICHT
1002
{
1000
Det03
1002
}
1001
AUSTER_FOLIE
1002
{
1000
NSB00341_S2
1002
}
  0
LINE
  5
C827
330
20
100
AcDbEntity
  8
11000_Left
  6
Continuous
 62
     7
370
    20
100
AcDbLine
 39
0.7
 10
91.49500720776563
 20
439.0416406650055
 30
0.0
 11
91.72800720776558
 21
437.7236406650053
 31
0.0
1001
AUSTER_ANSICHT
1002
{
1000
Det03
1002
}
1001
AUSTER_FOLIE
1002
{
1000
NSB00341_S2
1002
}
  0
LINE
  5
C828
330
20
100
AcDbEntity
  8
11000_Left
  6
Continuous
 62
     7
370
    50
100
AcDbLine
 39
0.7
 10
96.3950072077656
 20
504.0416406650055
 30
0.0
 11
88.39500720776561
 21
504.0416406650055
 31
0.0
1001
AUSTER_ANSICHT
1002
{
1000
Det03
1002
}
1001
AUSTER_FOLIE
1002
{
1000
NSB00341_S2
1002
}
  0
LINE
  5
C829
330
20
100
AcDbEntity
  8
11000_Left
  6
Continuous
 62
     7
370
    50
100
AcDbLine
 39
0.7
 10
96.3950072077656
 20
501.1416406650053
 30
0.0
 11
96.3950072077656
 21
504.0416406650055
 31
0.0
1001
AUSTER_ANSICHT
1002
{
1000
Det03
1002
}
1001
AUSTER_FOLIE
1002
{
1000
NSB00341_S2
1002
}
  0
LINE
  5
C82A
330
20
100
AcDbEntity
  8
11000_Left
  6
Continuous
 62
     7
370
    50
100
AcDbLine
 39
0.7
 10
88.39500720776561
 20
402.0416406650053
 30
0.0
 11
96.3950072077656
 21
402.0416406650053
 31
0.0
1001
AUSTER_ANSICHT
1002
{
1000
Det03
1002
}
1001
AUSTER_FOLIE
1002
{
1000
NSB00341_S2
1002
}
  0
LINE
  5
C82B
330
20
100
AcDbEntity
  8
11000_Left
  6
Continuous
 62
     7
370
    50
100
AcDbLine
 39
0.7
 10
91.87100720776561
 20
437.0416406650055
 30
0.0
 11
88.39500720776561
 21
435.0346406650053
 31
0.0
1001
AUSTER_ANSICHT
1002
{
1000
Det03
1002
}
1001
AUSTER_FOLIE
1002
{
1000
NSB00341_S2
1002
}
  0
LINE
  5
C82C
330
20
100
AcDbEntity
  8
11000_Left
  6
Continuous
 62
     7
370
    50
100
AcDbLine
 39
0.7
 10
88.39500720776561
 20
435.0346406650053
 30
0.0
 11
88.39500720776561
 21
402.0416406650053
 31
0.0
1001
AUSTER_ANSICHT
1002
{
1000
Det03
1002
}
1001
AUSTER_FOLIE
1002
{
1000
NSB00341_S2
1002
}
  0
LINE
  5
C82D
330
20
100
AcDbEntity
  8
11000_Left
  6
Continuous
 62
     7
370
    20
100
AcDbLine
 39
0.7
 10
92.34500720776566
 20
472.3416406650053
 30
0.0
 11
92.09100720776564
 21
471.6416406650053
 31
0.0
1001
AUSTER_ANSICHT
1002
{
1000
Det03
1002
}
1001
AUSTER_FOLIE
1002
{
1000
NSB00341_S2
1002
}
  0
LINE
  5
C82E
330
20
100
AcDbEntity
  8
11000_Left
  6
Continuous
 62
     7
370
    20
100
AcDbLine
 39
0.7
 10
88.39500720776561
 20
470.3416406650053
 30
0.0
 11
88.39500720776561
 21
472.3416406650053
 31
0.0
1001
AUSTER_ANSICHT
1002
{
1000
Det03
1002
}
1001
AUSTER_FOLIE
1002
{
1000
NSB00341_S2
1002
}
  0
LINE
  5
C82F
330
20
100
AcDbEntity
  8
11000_Left
  6
Continuous
 62
     7
370
    20
100
AcDbLine
 39
0.7
 10
90.23400720776569
 20
470.3416406650053
 30
0.0
 11
92.09100720776564
 21
471.6416406650053
 31
0.0
1001
AUSTER_ANSICHT
1002
{
1000
Det03
1002
}
1001
AUSTER_FOLIE
1002
{
1000
NSB00341_S2
1002
}
  0
LINE
  5
C830
330
20
100
AcDbEntity
  8
11000_Left
  6
Continuous
 62
     7
370
    20
100
AcDbLine
 39
0.7
 10
88.39500720776561
 20
470.3416406650053
 30
0.0
 11
90.23400720776569
 21
470.3416406650053
 31
0.0
1001
AUSTER_ANSICHT
1002
{
1000
Det03
1002
}
1001
AUSTER_FOLIE
1002
{
1000
NSB00341_S2
1002
}
  0
LINE
  5
C831
330
20
100
AcDbEntity
  8
11000_Left
  6
Continuous
 62
     7
370
    50
100
AcDbLine
 39
0.7
 10
93.37100720776559
 20
437.0416406650055
 30
0.0
 11
91.87100720776561
 21
437.0416406650055
 31
0.0
1001
AUSTER_ANSICHT
1002
{
1000
Det03
1002
}
1001
AUSTER_FOLIE
1002
{
1000
NSB00341_S2
1002
}
  0
LINE
  5
C832
330
20
100
AcDbEntity
  8
11000_Left
  6
Continuous
 62
     7
370
    50
100
AcDbLine
 39
0.7
 10
93.37100720776559
 20
472.3416406650053
 30
0.0
 11
93.37100720776559
 21
437.0416406650055
 31
0.0
1001
AUSTER_ANSICHT
1002
{
1000
Det03
1002
}
1001
AUSTER_FOLIE
1002
{
1000
NSB00341_S2
1002
}
  0
LINE
  5
C834
330
20
100
AcDbEntity
  8
11000_Left
  6
Continuous
 62
     7
370
    20
100
AcDbLine
 39
0.7
 10
96.3950072077656
 20
412.2416406650053
 30
0.0
 11
101.5950072077656
 21
412.2416406650053
 31
0.0
1001
AUSTER_ANSICHT
1002
{
1000
Det03
1002
}
1001
AUSTER_FOLIE
1002
{
1000
NSB00341_S2
1002
}
  0
LINE
  5
C836
330
20
100
AcDbEntity
  8
11000_Left
  6
Continuous
 62
     7
370
    20
100
AcDbLine
 39
0.7
 10
92.6710072077657
 20
466.9416406650054
 30
0.0
 11
92.6710072077657
 21
469.6416406650053
 31
0.0
1001
AUSTER_ANSICHT
1002
{
1000
Det03
1002
}
1001
AUSTER_FOLIE
1002
{
1000
NSB00341_S2
1002
}
  0
LINE
  5
C837
330
20
100
AcDbEntity
  8
11000_Left
  6
Continuous
 62
     7
370
    20
100
AcDbLine
 39
0.7
 10
93.37100720776559
 20
465.7296406650053
 30
0.0
 11
92.6710072077657
 21
466.9416406650054
 31
0.0
1001
AUSTER_ANSICHT
1002
{
1000
Det03
1002
}
1001
AUSTER_FOLIE
1002
{
1000
NSB00341_S2
1002
}
  0
LINE
  5
C838
330
20
100
AcDbEntity
  8
11000_Left
  6
Continuous
 62
     7
370
    20
100
AcDbLine
 39
0.7
 10
92.6710072077657
 20
469.6416406650053
 30
0.0
 11
93.37100720776559
 21
470.8536406650053
 31
0.0
1001
AUSTER_ANSICHT
1002
{
1000
Det03
1002
}
1001
AUSTER_FOLIE
1002
{
1000
NSB00341_S2
1002
}
  0
LINE
  5
C839
330
20
100
AcDbEntity
  8
11000_Left
  6
Continuous
 62
     7
370
    20
100
AcDbLine
 39
0.7
 10
193.1950072077655
 20
482.2416406650053
 30
0.0
 11
193.1950072077655
 21
501.1416406650053
 31
0.0
1001
AUSTER_ANSICHT
1002
{
1000
Det03
1002
}
1001
AUSTER_FOLIE
1002
{
1000
NSB00341_S2
1002
}
  0
LINE
  5
C83A
330
20
100
AcDbEntity
  8
11000_Left
  6
Continuous
 62
     7
370
    50
100
AcDbLine
 39
0.7
 10
88.39500720776561
 20
472.3416406650053
 30
0.0
 11
93.37100720776559
 21
472.3416406650053
 31
0.0
1001
AUSTER_ANSICHT
1002
{
1000
Det03
1002
}
1001
AUSTER_FOLIE
1002
{
1000
NSB00341_S2
1002
}
  0
LINE
  5
C83B
330
20
100
AcDbEntity
  8
11000_Left
  6
Continuous
 62
     7
370
    50
100
AcDbLine
 39
0.7
 10
101.5950072077656
 20
407.9416406650055
 30
0.0
 11
96.3950072077656
 21
407.9416406650055
 31
0.0
1001
AUSTER_ANSICHT
1002
{
1000
Det03
1002
}
1001
AUSTER_FOLIE
1002
{
1000
NSB00341_S2
1002
}
  0
LINE
  5
C83C
330
20
100
AcDbEntity
  8
11000_Left
  6
Continuous
 62
     7
370
    50
100
AcDbLine
 39
0.7
 10
197.3990072077656
 20
498.6416406650053
 30
0.0
 11
197.4110072077657
 21
498.6416406650053
 31
0.0
1001
AUSTER_ANSICHT
1002
{
1000
Det03
1002
}
1001
AUSTER_FOLIE
1002
{
1000
NSB00341_S2
1002
}
  0
LINE
  5
C83D
330
20
100
AcDbEntity
  8
11000_Left
  6
Continuous
 62
     7
370
    50
100
AcDbLine
 39
0.7
 10
193.1950072077655
 20
501.1416406650053
 30
0.0
 11
196.4920072077655
 21
501.1416406650053
 31
0.0
1001
AUSTER_ANSICHT
1002
{
1000
Det03
1002
}
1001
AUSTER_FOLIE
1002
{
1000
NSB00341_S2
1002
}
  0
LINE
  5
C83F
330
20
100
AcDbEntity
  8
11000_Left
  6
Continuous
 62
     7
370
    50
100
AcDbLine
 39
0.7
 10
193.1950072077655
 20
501.1416406650053
 30
0.0
 11
96.3950072077656
 21
501.1416406650053
 31
0.0
1001
AUSTER_ANSICHT
1002
{
1000
Det03
1002
}
1001
AUSTER_FOLIE
1002
{
1000
NSB00341_S2
1002
}
  0
LINE
  5
C840
330
20
100
AcDbEntity
  8
11000_Left
  6
Continuous
 62
     7
370
    50
100
AcDbLine
 39
0.7
 10
88.39500720776561
 20
504.0416406650055
 30
0.0
 11
88.39500720776561
 21
472.3416406650053
 31
0.0
1001
AUSTER_ANSICHT
1002
{
1000
Det03
1002
}
1001
AUSTER_FOLIE
1002
{
1000
NSB00341_S2
1002
}
  0
LINE
  5
C841
330
20
100
AcDbEntity
  8
11000_Left
  6
Continuous
 62
     7
370
    50
100
AcDbLine
 39
0.7
 10
193.9360072077656
 20
482.2386406650053
 30
0.0
 11
198.892007207766
 21
482.2386406650053
 31
0.0
1001
AUSTER_ANSICHT
1002
{
1000
Det03
1002
}
1001
AUSTER_FOLIE
1002
{
1000
NSB00341_S2
1002
}
  0
LINE
  5
C842
330
20
100
AcDbEntity
  8
11000_Left
  6
DASHED
 62
     7
370
    20
100
AcDbLine
 39
0.25
 10
197.7070072077655
 20
427.2386406650053
 30
0.0
 11
194.5960072077656
 21
427.2386406650053
 31
0.0
1001
AUSTER_ANSICHT
1002
{
1000
Det03
1002
}
1001
AUSTER_FOLIE
1002
{
1000
NSB00341_S2
1002
}
  0
LINE
  5
C844
330
20
100
AcDbEntity
  8
11000_Left
  6
Continuous
 62
     7
370
    50
100
AcDbLine
 39
0.7
 10
188.7340072077656
 20
470.2546406650053
 30
0.0
 11
192.8080072077655
 21
481.4496406650055
 31
0.0
1001
AUSTER_ANSICHT
1002
{
1000
Det03
1002
}
1001
AUSTER_FOLIE
1002
{
1000
NSB00341_S2
1002
}
  0
LINE
  5
C845
330
20
100
AcDbEntity
  8
11000_Left
  6
Continuous
 62
     7
370
    50
100
AcDbLine
 39
0.7
 10
147.5260072077657
 20
463.4906406650053
 30
0.0
 11
152.6230072077657
 21
468.5876406650053
 31
0.0
1001
AUSTER_ANSICHT
1002
{
1000
Det03
1002
}
1001
AUSTER_FOLIE
1002
{
1000
NSB00341_S2
1002
}
  0
LINE
  5
C846
330
20
100
AcDbEntity
  8
11000_Left
  6
Continuous
 62
     7
370
    50
100
AcDbLine
 39
0.7
 10
153.4710072077656
 20
468.9386406650053
 30
0.0
 11
186.8540072077657
 21
468.9386406650053
 31
0.0
1001
AUSTER_ANSICHT
1002
{
1000
Det03
1002
}
1001
AUSTER_FOLIE
1002
{
1000
NSB00341_S2
1002
}
  0
LINE
  5
C848
330
20
100
AcDbEntity
  8
11000_Left
  6
DASHED
 62
     7
370
    20
100
AcDbLine
 39
0.25
 10
160.8960072077657
 20
458.2096406650053
 30
0.0
 11
160.8960072077657
 21
462.7386406650053
 31
0.0
1001
AUSTER_ANSICHT
1002
{
1000
Det03
1002
}
1001
AUSTER_FOLIE
1002
{
1000
NSB00341_S2
1002
}
  0
LINE
  5
C849
330
20
100
AcDbEntity
  8
11000_Left
  6
DASHED
 62
     7
370
    20
100
AcDbLine
 39
0.25
 10
159.9000072077656
 20
455.4016406650053
 30
0.0
 11
160.8720072077657
 21
458.0726406650053
 31
0.0
1001
AUSTER_ANSICHT
1002
{
1000
Det03
1002
}
1001
AUSTER_FOLIE
1002
{
1000
NSB00341_S2
1002
}
  0
LINE
  5
C84A
330
20
100
AcDbEntity
  8
11000_Left
  6
Continuous
 62
     7
370
    50
100
AcDbLine
 39
0.7
 10
101.9960072077656
 20
463.1386406650054
 30
0.0
 11
146.6770072077656
 21
463.1386406650054
 31
0.0
1001
AUSTER_ANSICHT
1002
{
1000
Det03
1002
}
1001
AUSTER_FOLIE
1002
{
1000
NSB00341_S2
1002
}
  0
LINE
  5
C84B
330
20
100
AcDbEntity
  8
11000_Left
  6
DASHED
 62
     7
370
    20
100
AcDbLine
 39
0.25
 10
101.9960072077656
 20
455.1386406650054
 30
0.0
 11
159.5240072077656
 21
455.1386406650054
 31
0.0
1001
AUSTER_ANSICHT
1002
{
1000
Det03
1002
}
1001
AUSTER_FOLIE
1002
{
1000
NSB00341_S2
1002
}
  0
LINE
  5
C84C
330
20
100
AcDbEntity
  8
11000_Left
  6
Continuous
 62
     7
370
    50
100
AcDbLine
 39
0.7
 10
101.5960072077656
 20
461.9386406650053
 30
0.0
 11
101.5960072077656
 21
462.7386406650053
 31
0.0
1001
AUSTER_ANSICHT
1002
{
1000
Det03
1002
}
1001
AUSTER_FOLIE
1002
{
1000
NSB00341_S2
1002
}
  0
LINE
  5
C84E
330
20
100
AcDbEntity
  8
11000_Left
  6
Continuous
 62
     7
370
    50
100
AcDbLine
 39
0.7
 10
101.5960072077656
 20
455.1386406650054
 30
0.0
 11
101.5960072077656
 21
461.9386406650053
 31
0.0
1001
AUSTER_ANSICHT
1002
{
1000
Det03
1002
}
1001
AUSTER_FOLIE
1002
{
1000
NSB00341_S2
1002
}
  0
LINE
  5
C84F
330
20
100
AcDbEntity
  8
11000_Left
  6
DASHED
 62
     7
370
    20
100
AcDbLine
 39
0.25
 10
204.4650072077656
 20
453.0386406650053
 30
0.0
 11
200.4910072077656
 21
453.0386406650053
 31
0.0
1001
AUSTER_ANSICHT
1002
{
1000
Det03
1002
}
1001
AUSTER_FOLIE
1002
{
1000
NSB00341_S2
1002
}
  0
LINE
  5
C850
330
20
100
AcDbEntity
  8
11000_Left
  6
DASHED
 62
     7
370
    20
100
AcDbLine
 39
0.25
 10
200.2550072077656
 20
447.2386406650053
 30
0.0
 11
204.4650072077656
 21
447.2386406650053
 31
0.0
1001
AUSTER_ANSICHT
1002
{
1000
Det03
1002
}
1001
AUSTER_FOLIE
1002
{
1000
NSB00341_S2
1002
}
  0
LINE
  5
C851
330
20
100
AcDbEntity
  8
11000_Left
  6
DASHED
 62
     7
370
    20
100
AcDbLine
 39
0.25
 10
171.3960072077657
 20
408.1386406650053
 30
0.0
 11
171.3960072077657
 21
427.2386406650053
 31
0.0
1001
AUSTER_ANSICHT
1002
{
1000
Det03
1002
}
1001
AUSTER_FOLIE
1002
{
1000
NSB00341_S2
1002
}
  0
LINE
  5
C852
330
20
100
AcDbEntity
  8
11000_Left
  6
DASHED
 62
     7
370
    20
100
AcDbLine
 39
0.25
 10
145.1960072077656
 20
406.5386406650053
 30
0.0
 11
145.1960072077656
 21
408.1386406650053
 31
0.0
1001
AUSTER_ANSICHT
1002
{
1000
Det03
1002
}
1001
AUSTER_FOLIE
1002
{
1000
NSB00341_S2
1002
}
  0
LINE
  5
C853
330
20
100
AcDbEntity
  8
11000_Left
  6
Continuous
 62
     7
370
    20
100
AcDbLine
 39
0.7
 10
132.6960072077656
 20
406.5386406650053
 30
0.0
 11
132.6960072077656
 21
408.1386406650053
 31
0.0
1001
AUSTER_ANSICHT
1002
{
1000
Det03
1002
}
1001
AUSTER_FOLIE
1002
{
1000
NSB00341_S2
1002
}
  0
LINE
  5
C855
330
20
100
AcDbEntity
  8
11000_Left
  6
DASHED
 62
     7
370
    20
100
AcDbLine
 39
0.25
 10
174.6920072077656
 20
408.1386406650053
 30
0.0
 11
171.3960072077657
 21
408.1386406650053
 31
0.0
1001
AUSTER_ANSICHT
1002
{
1000
Det03
1002
}
1001
AUSTER_FOLIE
1002
{
1000
NSB00341_S2
1002
}
  0
LINE
  5
C857
330
20
100
AcDbEntity
  8
11000_Left
  6
DASHED
 62
     7
370
    20
100
AcDbLine
 39
0.25
 10
200.5670072077657
 20
464.0886406650053
 30
0.0
 11
202.2880072077656
 21
464.0886406650053
 31
0.0
1001
AUSTER_ANSICHT
1002
{
1000
Det03
1002
}
1001
AUSTER_FOLIE
1002
{
1000
NSB00341_S2
1002
}
  0
LINE
  5
C858
330
20
100
AcDbEntity
  8
11000_Left
  6
DASHED
 62
     7
370
    20
100
AcDbLine
 39
0.25
 10
132.6960072077656
 20
411.6386406650053
 30
0.0
 11
132.6960072077656
 21
423.6386406650053
 31
0.0
1001
AUSTER_ANSICHT
1002
{
1000
Det03
1002
}
1001
AUSTER_FOLIE
1002
{
1000
NSB00341_S2
1002
}
  0
LINE
  5
C859
330
20
100
AcDbEntity
  8
11000_Left
  6
DASHED
 62
     7
370
    20
100
AcDbLine
 39
0.25
 10
130.5950072077656
 20
411.6386406650053
 30
0.0
 11
132.6960072077656
 21
411.6386406650053
 31
0.0
1001
AUSTER_ANSICHT
1002
{
1000
Det03
1002
}
1001
AUSTER_FOLIE
1002
{
1000
NSB00341_S2
1002
}
  0
LINE
  5
C85A
330
20
100
AcDbEntity
  8
11000_Left
  6
DASHED
 62
     7
370
    20
100
AcDbLine
 39
0.25
 10
130.5950072077656
 20
423.6386406650053
 30
0.0
 11
130.5950072077656
 21
411.6386406650053
 31
0.0
1001
AUSTER_ANSICHT
1002
{
1000
Det03
1002
}
1001
AUSTER_FOLIE
1002
{
1000
NSB00341_S2
1002
}
  0
LINE
  5
C85B
330
20
100
AcDbEntity
  8
11000_Left
  6
DASHED
 62
     7
370
    20
100
AcDbLine
 39
0.25
 10
143.1960072077656
 20
423.6386406650053
 30
0.0
 11
143.1960072077656
 21
406.1386406650053
 31
0.0
1001
AUSTER_ANSICHT
1002
{
1000
Det03
1002
}
1001
AUSTER_FOLIE
1002
{
1000
NSB00341_S2
1002
}
  0
LINE
  5
C85C
330
20
100
AcDbEntity
  8
11000_Left
  6
DASHED
 62
     7
370
    20
100
AcDbLine
 39
0.25
 10
120.0950072077656
 20
423.6386406650053
 30
0.0
 11
143.1960072077656
 21
423.6386406650053
 31
0.0
1001
AUSTER_ANSICHT
1002
{
1000
Det03
1002
}
1001
AUSTER_FOLIE
1002
{
1000
NSB00341_S2
1002
}
  0
LINE
  5
C85D
330
20
100
AcDbEntity
  8
11000_Left
  6
DASHED
 62
     7
370
    20
100
AcDbLine
 39
0.25
 10
120.0950072077656
 20
408.1386406650053
 30
0.0
 11
120.0950072077656
 21
423.6386406650053
 31
0.0
1001
AUSTER_ANSICHT
1002
{
1000
Det03
1002
}
1001
AUSTER_FOLIE
1002
{
1000
NSB00341_S2
1002
}
  0
LINE
  5
C85E
330
20
100
AcDbEntity
  8
11000_Left
  6
DASHED
 62
     7
370
    20
100
AcDbLine
 39
0.25
 10
202.0510072077657
 20
454.2886406650053
 30
0.0
 11
200.5240072077656
 21
454.2886406650053
 31
0.0
1001
AUSTER_ANSICHT
1002
{
1000
Det03
1002
}
1001
AUSTER_FOLIE
1002
{
1000
NSB00341_S2
1002
}
  0
LINE
  5
C85F
330
20
100
AcDbEntity
  8
11000_Left
  6
DASHED
 62
     7
370
    20
100
AcDbLine
 39
0.25
 10
144.7960072077657
 20
406.1386406650053
 30
0.0
 11
133.0960072077656
 21
406.1386406650053
 31
0.0
1001
AUSTER_ANSICHT
1002
{
1000
Det03
1002
}
1001
AUSTER_FOLIE
1002
{
1000
NSB00341_S2
1002
}
  0
LINE
  5
C860
330
20
100
AcDbEntity
  8
11000_Left
  6
DASHED
 62
     7
370
    20
100
AcDbLine
 39
0.25
 10
171.3960072077657
 20
408.1386406650053
 30
0.0
 11
101.9960072077656
 21
408.1386406650053
 31
0.0
1001
AUSTER_ANSICHT
1002
{
1000
Det03
1002
}
1001
AUSTER_FOLIE
1002
{
1000
NSB00341_S2
1002
}
  0
LINE
  5
C861
330
20
100
AcDbEntity
  8
10000_FRONT
  6
DASHED
 62
     7
370
    20
100
AcDbLine
 39
0.25
 10
33.66172355106188
 20
458.9386406650053
 30
0.0
 11
33.66172355106188
 21
461.5386406650053
 31
0.0
1001
AUSTER_ANSICHT
1002
{
1000
Det03
1002
}
1001
AUSTER_FOLIE
1002
{
1000
NSB00341_S2
1002
}
  0
LINE
  5
C862
330
20
100
AcDbEntity
  8
10000_FRONT
  6
DASHED
 62
     7
370
    20
100
AcDbLine
 39
0.25
 10
38.66172355106187
 20
458.9386406650053
 30
0.0
 11
33.66172355106188
 21
458.9386406650053
 31
0.0
1001
AUSTER_ANSICHT
1002
{
1000
Det03
1002
}
1001
AUSTER_FOLIE
1002
{
1000
NSB00341_S2
1002
}
  0
LINE
  5
C863
330
20
100
AcDbEntity
  8
10000_FRONT
  6
DASHED
 62
     7
370
    20
100
AcDbLine
 39
0.25
 10
38.66172355106187
 20
461.5386406650053
 30
0.0
 11
38.66172355106187
 21
458.9386406650053
 31
0.0
1001
AUSTER_ANSICHT
1002
{
1000
Det03
1002
}
1001
AUSTER_FOLIE
1002
{
1000
NSB00341_S2
1002
}
  0
LINE
  5
C864
330
20
100
AcDbEntity
  8
10000_FRONT
  6
DASHED
 62
     7
370
    20
100
AcDbLine
 39
0.25
 10
33.66172355106188
 20
461.5386406650053
 30
0.0
 11
38.66172355106187
 21
461.5386406650053
 31
0.0
1001
AUSTER_ANSICHT
1002
{
1000
Det03
1002
}
1001
AUSTER_FOLIE
1002
{
1000
NSB00341_S2
1002
}
  0
LINE
  5
C865
330
20
100
AcDbEntity
  8
10000_FRONT
  6
DASHED
 62
     7
370
    20
100
AcDbLine
 39
0.25
 10
37.46172355106182
 20
458.9386406650053
 30
0.0
 11
37.46172355106182
 21
461.5376406650055
 31
0.0
1001
AUSTER_ANSICHT
1002
{
1000
Det03
1002
}
1001
AUSTER_FOLIE
1002
{
1000
NSB00341_S2
1002
}
  0
LINE
  5
C866
330
20
100
AcDbEntity
  8
10000_FRONT
  6
DASHED
 62
     7
370
    20
100
AcDbLine
 39
0.25
 10
36.8617235510618
 20
461.5376406650055
 30
0.0
 11
36.8617235510618
 21
458.9386406650053
 31
0.0
1001
AUSTER_ANSICHT
1002
{
1000
Det03
1002
}
1001
AUSTER_FOLIE
1002
{
1000
NSB00341_S2
1002
}
  0
LINE
  5
C867
330
20
100
AcDbEntity
  8
10000_FRONT
  6
DASHED
 62
     7
370
    20
100
AcDbLine
 39
0.25
 10
37.54272355106173
 20
458.9386406650053
 30
0.0
 11
37.54272355106173
 21
461.5376406650055
 31
0.0
1001
AUSTER_ANSICHT
1002
{
1000
Det03
1002
}
1001
AUSTER_FOLIE
1002
{
1000
NSB00341_S2
1002
}
  0
LINE
  5
C868
330
20
100
AcDbEntity
  8
10000_FRONT
  6
DASHED
 62
     7
370
    20
100
AcDbLine
 39
0.25
 10
36.78172355106176
 20
458.9386406650053
 30
0.0
 11
36.78172355106176
 21
461.5376406650055
 31
0.0
1001
AUSTER_ANSICHT
1002
{
1000
Det03
1002
}
1001
AUSTER_FOLIE
1002
{
1000
NSB00341_S2
1002
}
  0
LINE
  5
C869
330
20
100
AcDbEntity
  8
10000_FRONT
  6
DASHED
 62
     7
370
    20
100
AcDbLine
 39
0.25
 10
42.56172355106172
 20
442.6886406650053
 30
0.0
 11
42.56172355106172
 21
428.2886406650053
 31
0.0
1001
AUSTER_ANSICHT
1002
{
1000
Det03
1002
}
1001
AUSTER_FOLIE
1002
{
1000
NSB00341_S2
1002
}
  0
LINE
  5
C86A
330
20
100
AcDbEntity
  8
10000_FRONT
  6
DASHED
 62
     7
370
    20
100
AcDbLine
 39
0.25
 10
-2.438276448938268
 20
472.7886406650053
 30
0.0
 11
-2.438276448938268
 21
428.2906406650053
 31
0.0
1001
AUSTER_ANSICHT
1002
{
1000
Det03
1002
}
1001
AUSTER_FOLIE
1002
{
1000
NSB00341_S2
1002
}
  0
LINE
  5
C86B
330
20
100
AcDbEntity
  8
10000_FRONT
  6
DASHED
 62
     7
370
    20
100
AcDbLine
 39
0.25
 10
42.56172355106172
 20
464.0696406650055
 30
0.0
 11
42.56172355106172
 21
442.6886406650053
 31
0.0
1001
AUSTER_ANSICHT
1002
{
1000
Det03
1002
}
1001
AUSTER_FOLIE
1002
{
1000
NSB00341_S2
1002
}
  0
LINE
  5
C86C
330
20
100
AcDbEntity
  8
10000_FRONT
  6
DASHED
 62
     7
370
    20
100
AcDbLine
 39
0.25
 10
0.4117235510618685
 20
464.3366406650053
 30
0.0
 11
20.21172355106182
 21
464.3366406650053
 31
0.0
1001
AUSTER_ANSICHT
1002
{
1000
Det03
1002
}
1001
AUSTER_FOLIE
1002
{
1000
NSB00341_S2
1002
}
  0
LINE
  5
C86D
330
20
100
AcDbEntity
  8
10000_FRONT
  6
DASHED
 62
     7
370
    20
100
AcDbLine
 39
0.25
 10
0.4117235510618685
 20
471.1326406650053
 30
0.0
 11
0.4117235510618685
 21
464.3366406650053
 31
0.0
1001
AUSTER_ANSICHT
1002
{
1000
Det03
1002
}
1001
AUSTER_FOLIE
1002
{
1000
NSB00341_S2
1002
}
  0
LINE
  5
C86E
330
20
100
AcDbEntity
  8
10000_FRONT
  6
DASHED
 62
     7
370
    20
100
AcDbLine
 39
0.25
 10
20.21172355106182
 20
471.1326406650053
 30
0.0
 11
0.4117235510618685
 21
471.1326406650053
 31
0.0
1001
AUSTER_ANSICHT
1002
{
1000
Det03
1002
}
1001
AUSTER_FOLIE
1002
{
1000
NSB00341_S2
1002
}
  0
LINE
  5
C86F
330
20
100
AcDbEntity
  8
10000_FRONT
  6
DASHED
 62
     7
370
    20
100
AcDbLine
 39
0.25
 10
20.21172355106182
 20
464.3366406650053
 30
0.0
 11
20.21172355106182
 21
471.1326406650053
 31
0.0
1001
AUSTER_ANSICHT
1002
{
1000
Det03
1002
}
1001
AUSTER_FOLIE
1002
{
1000
NSB00341_S2
1002
}
  0
LINE
  5
C870
330
20
100
AcDbEntity
  8
10000_FRONT
  6
DASHED
 62
     7
370
    20
100
AcDbLine
 39
0.25
 10
-0.3062764489382062
 20
429.7306406650053
 30
0.0
 11
-0.3062764489382062
 21
428.2666406650053
 31
0.0
1001
AUSTER_ANSICHT
1002
{
1000
Det03
1002
}
1001
AUSTER_FOLIE
1002
{
1000
NSB00341_S2
1002
}
  0
LINE
  5
C871
330
20
100
AcDbEntity
  8
10000_FRONT
  6
DASHED
 62
     7
370
    20
100
AcDbLine
 39
0.25
 10
-1.270276448938147
 20
429.7306406650053
 30
0.0
 11
-0.3062764489382062
 21
429.7306406650053
 31
0.0
1001
AUSTER_ANSICHT
1002
{
1000
Det03
1002
}
1001
AUSTER_FOLIE
1002
{
1000
NSB00341_S2
1002
}
  0
LINE
  5
C872
330
20
100
AcDbEntity
  8
10000_FRONT
  6
DASHED
 62
     7
370
    20
100
AcDbLine
 39
0.25
 10
-1.270276448938147
 20
428.2666406650053
 30
0.0
 11
-1.270276448938147
 21
429.7306406650053
 31
0.0
1001
AUSTER_ANSICHT
1002
{
1000
Det03
1002
}
1001
AUSTER_FOLIE
1002
{
1000
NSB00341_S2
1002
}
  0
LINE
  5
C873
330
20
100
AcDbEntity
  8
10000_FRONT
  6
DASHED
 62
     7
370
    20
100
AcDbLine
 39
0.25
 10
-0.3062764489382062
 20
428.2666406650053
 30
0.0
 11
-1.270276448938147
 21
428.2666406650053
 31
0.0
1001
AUSTER_ANSICHT
1002
{
1000
Det03
1002
}
1001
AUSTER_FOLIE
1002
{
1000
NSB00341_S2
1002
}
  0
LINE
  5
C874
330
20
100
AcDbEntity
  8
10000_FRONT
  6
DASHED
 62
     7
370
    20
100
AcDbLine
 39
0.25
 10
28.51172355106179
 20
464.2886406650053
 30
0.0
 11
28.51172355106179
 21
471.0486406650053
 31
0.0
1001
AUSTER_ANSICHT
1002
{
1000
Det03
1002
}
1001
AUSTER_FOLIE
1002
{
1000
NSB00341_S2
1002
}
  0
LINE
  5
C875
330
20
100
AcDbEntity
  8
10000_FRONT
  6
DASHED
 62
     7
370
    20
100
AcDbLine
 39
0.25
 10
10.06172355106173
 20
452.9446406650055
 30
0.0
 11
10.06172355106173
 21
450.4516406650053
 31
0.0
1001
AUSTER_ANSICHT
1002
{
1000
Det03
1002
}
1001
AUSTER_FOLIE
1002
{
1000
NSB00341_S2
1002
}
  0
LINE
  5
C876
330
20
100
AcDbEntity
  8
10000_FRONT
  6
DASHED
 62
     7
370
    20
100
AcDbLine
 39
0.25
 10
12.79972355106179
 20
453.1386406650053
 30
0.0
 11
10.2557235510618
 21
453.1386406650053
 31
0.0
1001
AUSTER_ANSICHT
1002
{
1000
Det03
1002
}
1001
AUSTER_FOLIE
1002
{
1000
NSB00341_S2
1002
}
  0
LINE
  5
C877
330
20
100
AcDbEntity
  8
10000_FRONT
  6
DASHED
 62
     7
370
    20
100
AcDbLine
 39
0.25
 10
10.2557235510618
 20
453.1386406650053
 30
0.0
 11
10.06172355106173
 21
453.1386406650053
 31
0.0
1001
AUSTER_ANSICHT
1002
{
1000
Det03
1002
}
1001
AUSTER_FOLIE
1002
{
1000
NSB00341_S2
1002
}
  0
LINE
  5
C878
330
20
100
AcDbEntity
  8
10000_FRONT
  6
DASHED
 62
     7
370
    20
100
AcDbLine
 39
0.25
 10
10.06172355106173
 20
453.1386406650053
 30
0.0
 11
10.06172355106173
 21
452.9446406650055
 31
0.0
1001
AUSTER_ANSICHT
1002
{
1000
Det03
1002
}
1001
AUSTER_FOLIE
1002
{
1000
NSB00341_S2
1002
}
  0
LINE
  5
C879
330
20
100
AcDbEntity
  8
10000_FRONT
  6
DASHED
 62
     7
370
    20
100
AcDbLine
 39
0.25
 10
28.51172355106179
 20
471.0486406650053
 30
0.0
 11
30.51172355106178
 21
471.0486406650053
 31
0.0
1001
AUSTER_ANSICHT
1002
{
1000
Det03
1002
}
1001
AUSTER_FOLIE
1002
{
1000
NSB00341_S2
1002
}
  0
LINE
  5
C87A
330
20
100
AcDbEntity
  8
10000_FRONT
  6
DASHED
 62
     7
370
    20
100
AcDbLine
 39
0.25
 10
28.56172355106173
 20
442.6886406650053
 30
0.0
 11
42.56172355106172
 21
442.6886406650053
 31
0.0
1001
AUSTER_ANSICHT
1002
{
1000
Det03
1002
}
1001
AUSTER_FOLIE
1002
{
1000
NSB00341_S2
1002
}
  0
LINE
  5
C87B
330
20
100
AcDbEntity
  8
10000_FRONT
  6
DASHED
 62
     7
370
    20
100
AcDbLine
 39
0.25
 10
28.56172355106173
 20
464.0696406650055
 30
0.0
 11
28.56172355106173
 21
442.6886406650053
 31
0.0
1001
AUSTER_ANSICHT
1002
{
1000
Det03
1002
}
1001
AUSTER_FOLIE
1002
{
1000
NSB00341_S2
1002
}
  0
LINE
  5
C87C
330
20
100
AcDbEntity
  8
10000_FRONT
  6
DASHED
 62
     7
370
    20
100
AcDbLine
 39
0.25
 10
28.56172355106173
 20
464.0696406650055
 30
0.0
 11
42.56172355106172
 21
464.0696406650055
 31
0.0
1001
AUSTER_ANSICHT
1002
{
1000
Det03
1002
}
1001
AUSTER_FOLIE
1002
{
1000
NSB00341_S2
1002
}
  0
LINE
  5
C87D
330
20
100
AcDbEntity
  8
10000_FRONT
  6
DASHED
 62
     7
370
    20
100
AcDbLine
 39
0.25
 10
28.51172355106179
 20
464.2886406650053
 30
0.0
 11
30.51172355106178
 21
464.2886406650053
 31
0.0
1001
AUSTER_ANSICHT
1002
{
1000
Det03
1002
}
1001
AUSTER_FOLIE
1002
{
1000
NSB00341_S2
1002
}
  0
LINE
  5
C87E
330
20
100
AcDbEntity
  8
10000_FRONT
  6
DASHED
 62
     7
370
    20
100
AcDbLine
 39
0.25
 10
13.98072355106183
 20
450.3296406650055
 30
0.0
 11
13.85372355106187
 21
450.2016406650055
 31
0.0
1001
AUSTER_ANSICHT
1002
{
1000
Det03
1002
}
1001
AUSTER_FOLIE
1002
{
1000
NSB00341_S2
1002
}
  0
LINE
  5
C87F
330
20
100
AcDbEntity
  8
10000_FRONT
  6
DASHED
 62
     7
370
    20
100
AcDbLine
 39
0.25
 10
12.87172355106179
 20
449.2196406650053
 30
0.0
 11
12.99872355106186
 21
449.3476406650053
 31
0.0
1001
AUSTER_ANSICHT
1002
{
1000
Det03
1002
}
1001
AUSTER_FOLIE
1002
{
1000
NSB00341_S2
1002
}
  0
LINE
  5
C880
330
20
100
AcDbEntity
  8
10000_FRONT
  6
DASHED
 62
     7
370
    20
100
AcDbLine
 39
0.25
 10
13.25272355106176
 20
451.0576406650053
 30
0.0
 11
13.12472355106183
 21
450.9306406650055
 31
0.0
1001
AUSTER_ANSICHT
1002
{
1000
Det03
1002
}
1001
AUSTER_FOLIE
1002
{
1000
NSB00341_S2
1002
}
  0
LINE
  5
C881
330
20
100
AcDbEntity
  8
10000_FRONT
  6
DASHED
 62
     7
370
    20
100
AcDbLine
 39
0.25
 10
12.14272355106186
 20
449.9486406650053
 30
0.0
 11
12.27072355106179
 21
450.0756406650053
 31
0.0
1001
AUSTER_ANSICHT
1002
{
1000
Det03
1002
}
1001
AUSTER_FOLIE
1002
{
1000
NSB00341_S2
1002
}
  0
LINE
  5
C882
330
20
100
AcDbEntity
  8
10000_FRONT
  6
DASHED
 62
     7
370
    20
100
AcDbLine
 39
0.25
 10
13.98072355106183
 20
450.3296406650055
 30
0.0
 11
14.68272355106182
 21
451.0306406650054
 31
0.0
1001
AUSTER_ANSICHT
1002
{
1000
Det03
1002
}
1001
AUSTER_FOLIE
1002
{
1000
NSB00341_S2
1002
}
  0
LINE
  5
C883
330
20
100
AcDbEntity
  8
10000_FRONT
  6
DASHED
 62
     7
370
    20
100
AcDbLine
 39
0.25
 10
13.95372355106178
 20
451.7596406650055
 30
0.0
 11
13.25272355106176
 21
451.0576406650053
 31
0.0
1001
AUSTER_ANSICHT
1002
{
1000
Det03
1002
}
1001
AUSTER_FOLIE
1002
{
1000
NSB00341_S2
1002
}
  0
LINE
  5
C884
330
20
100
AcDbEntity
  8
10000_FRONT
  6
DASHED
 62
     7
370
    20
100
AcDbLine
 39
0.25
 10
12.14272355106186
 20
449.9486406650053
 30
0.0
 11
11.44172355106184
 21
449.2466406650053
 31
0.0
1001
AUSTER_ANSICHT
1002
{
1000
Det03
1002
}
1001
AUSTER_FOLIE
1002
{
1000
NSB00341_S2
1002
}
  0
LINE
  5
C885
330
20
100
AcDbEntity
  8
10000_FRONT
  6
DASHED
 62
     7
370
    20
100
AcDbLine
 39
0.25
 10
12.16972355106191
 20
448.5186406650053
 30
0.0
 11
12.87172355106179
 21
449.2196406650053
 31
0.0
1001
AUSTER_ANSICHT
1002
{
1000
Det03
1002
}
1001
AUSTER_FOLIE
1002
{
1000
NSB00341_S2
1002
}
  0
LINE
  5
C886
330
20
100
AcDbEntity
  8
10000_FRONT
  6
DASHED
 62
     7
370
    20
100
AcDbLine
 39
0.25
 10
12.99872355106186
 20
449.3476406650053
 30
0.0
 11
14.60472355106185
 21
447.7416406650053
 31
0.0
1001
AUSTER_ANSICHT
1002
{
1000
Det03
1002
}
1001
AUSTER_FOLIE
1002
{
1000
NSB00341_S2
1002
}
  0
LINE
  5
C887
330
20
100
AcDbEntity
  8
10000_FRONT
  6
DASHED
 62
     7
370
    20
100
AcDbLine
 39
0.25
 10
10.6647235510618
 20
451.6816406650055
 30
0.0
 11
12.27072355106179
 21
450.0756406650053
 31
0.0
1001
AUSTER_ANSICHT
1002
{
1000
Det03
1002
}
1001
AUSTER_FOLIE
1002
{
1000
NSB00341_S2
1002
}
  0
LINE
  5
C888
330
20
100
AcDbEntity
  8
10000_FRONT
  6
DASHED
 62
     7
370
    20
100
AcDbLine
 39
0.25
 10
13.12472355106183
 20
450.9306406650055
 30
0.0
 11
11.51972355106181
 21
452.5356406650053
 31
0.0
1001
AUSTER_ANSICHT
1002
{
1000
Det03
1002
}
1001
AUSTER_FOLIE
1002
{
1000
NSB00341_S2
1002
}
  0
LINE
  5
C889
330
20
100
AcDbEntity
  8
10000_FRONT
  6
DASHED
 62
     7
370
    20
100
AcDbLine
 39
0.25
 10
15.45872355106189
 20
448.5966406650053
 30
0.0
 11
13.85372355106187
 21
450.2016406650055
 31
0.0
1001
AUSTER_ANSICHT
1002
{
1000
Det03
1002
}
1001
AUSTER_FOLIE
1002
{
1000
NSB00341_S2
1002
}
  0
LINE
  5
C88A
330
20
100
AcDbEntity
  8
10000_FRONT
  6
DASHED
 62
     7
370
    20
100
AcDbLine
 39
0.25
 10
36.78672355106187
 20
449.4386406650053
 30
0.0
 11
36.61272355106178
 21
449.4846406650053
 31
0.0
1001
AUSTER_ANSICHT
1002
{
1000
Det03
1002
}
1001
AUSTER_FOLIE
1002
{
1000
NSB00341_S2
1002
}
  0
LINE
  5
C88B
330
20
100
AcDbEntity
  8
10000_FRONT
  6
DASHED
 62
     7
370
    20
100
AcDbLine
 39
0.25
 10
35.2707235510618
 20
449.8446406650055
 30
0.0
 11
35.44472355106177
 21
449.7976406650053
 31
0.0
1001
AUSTER_ANSICHT
1002
{
1000
Det03
1002
}
1001
AUSTER_FOLIE
1002
{
1000
NSB00341_S2
1002
}
  0
LINE
  5
C88C
330
20
100
AcDbEntity
  8
10000_FRONT
  6
DASHED
 62
     7
370
    20
100
AcDbLine
 39
0.25
 10
37.05272355106172
 20
450.4336406650053
 30
0.0
 11
36.87872355106185
 21
450.4796406650052
 31
0.0
1001
AUSTER_ANSICHT
1002
{
1000
Det03
1002
}
1001
AUSTER_FOLIE
1002
{
1000
NSB00341_S2
1002
}
  0
LINE
  5
C88D
330
20
100
AcDbEntity
  8
10000_FRONT
  6
DASHED
 62
     7
370
    20
100
AcDbLine
 39
0.25
 10
35.53772355106185
 20
450.8396406650055
 30
0.0
 11
35.71172355106182
 21
450.7926406650055
 31
0.0
1001
AUSTER_ANSICHT
1002
{
1000
Det03
1002
}
1001
AUSTER_FOLIE
1002
{
1000
NSB00341_S2
1002
}
  0
LINE
  5
C88E
330
20
100
AcDbEntity
  8
10000_FRONT
  6
DASHED
 62
     7
370
    20
100
AcDbLine
 39
0.25
 10
36.78672355106187
 20
449.4386406650053
 30
0.0
 11
37.74472355106186
 21
449.1816406650053
 31
0.0
1001
AUSTER_ANSICHT
1002
{
1000
Det03
1002
}
1001
AUSTER_FOLIE
1002
{
1000
NSB00341_S2
1002
}
  0
LINE
  5
C88F
330
20
100
AcDbEntity
  8
10000_FRONT
  6
DASHED
 62
     7
370
    20
100
AcDbLine
 39
0.25
 10
38.01172355106178
 20
450.1766406650053
 30
0.0
 11
37.05272355106172
 21
450.4336406650053
 31
0.0
1001
AUSTER_ANSICHT
1002
{
1000
Det03
1002
}
1001
AUSTER_FOLIE
1002
{
1000
NSB00341_S2
1002
}
  0
LINE
  5
C890
330
20
100
AcDbEntity
  8
10000_FRONT
  6
DASHED
 62
     7
370
    20
100
AcDbLine
 39
0.25
 10
35.53772355106185
 20
450.8396406650055
 30
0.0
 11
34.57872355106179
 21
451.0966406650053
 31
0.0
1001
AUSTER_ANSICHT
1002
{
1000
Det03
1002
}
1001
AUSTER_FOLIE
1002
{
1000
NSB00341_S2
1002
}
  0
LINE
  5
C891
330
20
100
AcDbEntity
  8
10000_FRONT
  6
DASHED
 62
     7
370
    20
100
AcDbLine
 39
0.25
 10
34.31272355106171
 20
450.1016406650053
 30
0.0
 11
35.2707235510618
 21
449.8446406650055
 31
0.0
1001
AUSTER_ANSICHT
1002
{
1000
Det03
1002
}
1001
AUSTER_FOLIE
1002
{
1000
NSB00341_S2
1002
}
  0
LINE
  5
C892
330
20
100
AcDbEntity
  8
10000_FRONT
  6
DASHED
 62
     7
370
    20
100
AcDbLine
 39
0.25
 10
35.44472355106177
 20
449.7976406650053
 30
0.0
 11
34.85672355106181
 21
447.6046406650055
 31
0.0
1001
AUSTER_ANSICHT
1002
{
1000
Det03
1002
}
1001
AUSTER_FOLIE
1002
{
1000
NSB00341_S2
1002
}
  0
LINE
  5
C893
330
20
100
AcDbEntity
  8
10000_FRONT
  6
DASHED
 62
     7
370
    20
100
AcDbLine
 39
0.25
 10
36.29872355106182
 20
452.9856406650053
 30
0.0
 11
35.71172355106182
 21
450.7926406650055
 31
0.0
1001
AUSTER_ANSICHT
1002
{
1000
Det03
1002
}
1001
AUSTER_FOLIE
1002
{
1000
NSB00341_S2
1002
}
  0
LINE
  5
C894
330
20
100
AcDbEntity
  8
10000_FRONT
  6
DASHED
 62
     7
370
    20
100
AcDbLine
 39
0.25
 10
36.87872355106185
 20
450.4796406650052
 30
0.0
 11
37.46672355106182
 21
452.6736406650053
 31
0.0
1001
AUSTER_ANSICHT
1002
{
1000
Det03
1002
}
1001
AUSTER_FOLIE
1002
{
1000
NSB00341_S2
1002
}
  0
LINE
  5
C895
330
20
100
AcDbEntity
  8
10000_FRONT
  6
DASHED
 62
     7
370
    20
100
AcDbLine
 39
0.25
 10
36.02472355106181
 20
447.2916406650055
 30
0.0
 11
36.61272355106178
 21
449.4846406650053
 31
0.0
1001
AUSTER_ANSICHT
1002
{
1000
Det03
1002
}
1001
AUSTER_FOLIE
1002
{
1000
NSB00341_S2
1002
}
  0
LINE
  5
C896
330
20
100
AcDbEntity
  8
10000_FRONT
  6
DASHED
 62
     7
370
    20
100
AcDbLine
 39
0.25
 10
42.56172355106172
 20
472.7886406650053
 30
0.0
 11
42.56172355106172
 21
464.0696406650055
 31
0.0
1001
AUSTER_ANSICHT
1002
{
1000
Det03
1002
}
1001
AUSTER_FOLIE
1002
{
1000
NSB00341_S2
1002
}
  0
LINE
  5
C897
330
20
100
AcDbEntity
  8
10000_FRONT
  6
DASHED
 62
     7
370
    20
100
AcDbLine
 39
0.25
 10
30.51172355106178
 20
471.0486406650053
 30
0.0
 11
30.51172355106178
 21
464.2886406650053
 31
0.0
1001
AUSTER_ANSICHT
1002
{
1000
Det03
1002
}
1001
AUSTER_FOLIE
1002
{
1000
NSB00341_S2
1002
}
  0
LINE
  5
C89B
330
20
100
AcDbEntity
  8
10000_FRONT
  6
Continuous
 62
     7
370
    50
100
AcDbLine
 39
0.7
 10
47.45172355106183
 20
428.7876406650052
 30
0.0
 11
47.45172355106183
 21
409.6876406650053
 31
0.0
1001
AUSTER_ANSICHT
1002
{
1000
Det03
1002
}
1001
AUSTER_FOLIE
1002
{
1000
NSB00341_S2
1002
}
  0
LINE
  5
C89D
330
20
100
AcDbEntity
  8
10000_FRONT
  6
DASHED
 62
     7
370
    20
100
AcDbLine
 39
0.25
 10
45.95172355106183
 20
427.2876406650055
 30
0.0
 11
-5.84827644893812
 21
427.2886406650053
 31
0.0
1001
AUSTER_ANSICHT
1002
{
1000
Det03
1002
}
1001
AUSTER_FOLIE
1002
{
1000
NSB00341_S2
1002
}
  0
LINE
  5
C89E
330
20
100
AcDbEntity
  8
10000_FRONT
  6
DASHED
 62
     7
370
    20
100
AcDbLine
 39
0.25
 10
42.56172355106172
 20
479.7876406650053
 30
0.0
 11
42.56172355106172
 21
472.7886406650053
 31
0.0
1001
AUSTER_ANSICHT
1002
{
1000
Det03
1002
}
1001
AUSTER_FOLIE
1002
{
1000
NSB00341_S2
1002
}
  0
LINE
  5
C89F
330
20
100
AcDbEntity
  8
10000_FRONT
  6
DASHED
 62
     7
370
    20
100
AcDbLine
 39
0.25
 10
-2.448276448938258
 20
479.7876406650053
 30
0.0
 11
42.56172355106172
 21
479.7876406650053
 31
0.0
1001
AUSTER_ANSICHT
1002
{
1000
Det03
1002
}
1001
AUSTER_FOLIE
1002
{
1000
NSB00341_S2
1002
}
  0
LINE
  5
C8A0
330
20
100
AcDbEntity
  8
10000_FRONT
  6
DASHED
 62
     7
370
    20
100
AcDbLine
 39
0.25
 10
-2.438276448938268
 20
472.7886406650053
 30
0.0
 11
-2.448276448938258
 21
479.7876406650053
 31
0.0
1001
AUSTER_ANSICHT
1002
{
1000
Det03
1002
}
1001
AUSTER_FOLIE
1002
{
1000
NSB00341_S2
1002
}
  0
LINE
  5
C8A1
330
20
100
AcDbEntity
  8
10000_FRONT
  6
Continuous
 62
     7
370
    50
100
AcDbLine
 39
0.25
 10
-5.84827644893812
 20
482.2876406650053
 30
0.0
 11
45.95172355106183
 21
482.2876406650053
 31
0.0
1001
AUSTER_ANSICHT
1002
{
1000
Det03
1002
}
1001
AUSTER_FOLIE
1002
{
1000
NSB00341_S2
1002
}
  0
LINE
  5
C8A2
330
20
100
AcDbEntity
  8
10000_FRONT
  6
Continuous
 62
     7
370
    50
100
AcDbLine
 39
0.7
 10
20.05172355106174
 20
402.0416406650053
 30
0.0
 11
12.55172355106174
 21
402.0416406650053
 31
0.0
1001
AUSTER_ANSICHT
1002
{
1000
Det03
1002
}
1001
AUSTER_FOLIE
1002
{
1000
NSB00341_S2
1002
}
  0
LINE
  5
C8A3
330
20
100
AcDbEntity
  8
10000_FRONT
  6
Continuous
 62
     7
370
    50
100
AcDbLine
 39
0.7
 10
20.05172355106174
 20
402.0416406650053
 30
0.0
 11
27.55172355106174
 21
402.0416406650053
 31
0.0
1001
AUSTER_ANSICHT
1002
{
1000
Det03
1002
}
1001
AUSTER_FOLIE
1002
{
1000
NSB00341_S2
1002
}
  0
LINE
  5
C8A4
330
20
100
AcDbEntity
  8
10000_FRONT
  6
Continuous
 62
     7
370
    50
100
AcDbLine
 39
0.7
 10
47.45172355106183
 20
504.0416406650055
 30
0.0
 11
-7.34827644893812
 21
504.0416406650055
 31
0.0
1001
AUSTER_ANSICHT
1002
{
1000
Det03
1002
}
1001
AUSTER_FOLIE
1002
{
1000
NSB00341_S2
1002
}
  0
LINE
  5
C8A5
330
20
100
AcDbEntity
  8
10000_FRONT
  6
Continuous
 62
     7
370
    50
100
AcDbLine
 39
0.7
 10
47.45172355106183
 20
402.0416406650053
 30
0.0
 11
27.55172355106174
 21
402.0416406650053
 31
0.0
1001
AUSTER_ANSICHT
1002
{
1000
Det03
1002
}
1001
AUSTER_FOLIE
1002
{
1000
NSB00341_S2
1002
}
  0
LINE
  5
C8A6
330
20
100
AcDbEntity
  8
10000_FRONT
  6
Continuous
 62
     7
370
    50
100
AcDbLine
 39
0.7
 10
12.55172355106174
 20
402.0416406650053
 30
0.0
 11
-7.34827644893812
 21
402.0416406650053
 31
0.0
1001
AUSTER_ANSICHT
1002
{
1000
Det03
1002
}
1001
AUSTER_FOLIE
1002
{
1000
NSB00341_S2
1002
}
  0
LINE
  5
C8A7
330
20
100
AcDbEntity
  8
10000_FRONT
  6
Continuous
 62
     7
370
    20
100
AcDbLine
 39
0.25
 10
27.55172355106174
 20
407.9416406650055
 30
0.0
 11
27.55172355106174
 21
402.0416406650053
 31
0.0
1001
AUSTER_ANSICHT
1002
{
1000
Det03
1002
}
1001
AUSTER_FOLIE
1002
{
1000
NSB00341_S2
1002
}
  0
LINE
  5
C8A8
330
20
100
AcDbEntity
  8
10000_FRONT
  6
Continuous
 62
     7
370
    20
100
AcDbLine
 39
0.25
 10
12.55172355106174
 20
402.0416406650053
 30
0.0
 11
12.55172355106174
 21
407.9416406650055
 31
0.0
1001
AUSTER_ANSICHT
1002
{
1000
Det03
1002
}
1001
AUSTER_FOLIE
1002
{
1000
NSB00341_S2
1002
}
  0
LINE
  5
C8A9
330
20
100
AcDbEntity
  8
10000_FRONT
  6
Continuous
 62
     7
370
    20
100
AcDbLine
 39
0.25
 10
19.48272355106178
 20
490.7696406650053
 30
0.0
 11
15.63772355106175
 21
490.7696406650053
 31
0.0
1001
AUSTER_ANSICHT
1002
{
1000
Det03
1002
}
1001
AUSTER_FOLIE
1002
{
1000
NSB00341_S2
1002
}
  0
LINE
  5
C8AA
330
20
100
AcDbEntity
  8
10000_FRONT
  6
Continuous
 62
     7
370
    20
100
AcDbLine
 39
0.25
 10
19.48272355106178
 20
489.0466406650053
 30
0.0
 11
19.48272355106178
 21
490.7696406650053
 31
0.0
1001
AUSTER_ANSICHT
1002
{
1000
Det03
1002
}
1001
AUSTER_FOLIE
1002
{
1000
NSB00341_S2
1002
}
  0
LINE
  5
C8AB
330
20
100
AcDbEntity
  8
10000_FRONT
  6
Continuous
 62
     7
370
    20
100
AcDbLine
 39
0.25
 10
20.68272355106183
 20
490.7696406650053
 30
0.0
 11
20.68272355106183
 21
489.0466406650053
 31
0.0
1001
AUSTER_ANSICHT
1002
{
1000
Det03
1002
}
1001
AUSTER_FOLIE
1002
{
1000
NSB00341_S2
1002
}
  0
LINE
  5
C8AC
330
20
100
AcDbEntity
  8
10000_FRONT
  6
Continuous
 62
     7
370
    20
100
AcDbLine
 39
0.25
 10
24.52672355106188
 20
490.7696406650053
 30
0.0
 11
20.68272355106183
 21
490.7696406650053
 31
0.0
1001
AUSTER_ANSICHT
1002
{
1000
Det03
1002
}
1001
AUSTER_FOLIE
1002
{
1000
NSB00341_S2
1002
}
  0
LINE
  5
C8AD
330
20
100
AcDbEntity
  8
10000_FRONT
  6
Continuous
 62
     7
370
    20
100
AcDbLine
 39
0.25
 10
20.68272355106183
 20
492.1776406650053
 30
0.0
 11
24.52672355106188
 21
492.1776406650053
 31
0.0
1001
AUSTER_ANSICHT
1002
{
1000
Det03
1002
}
1001
AUSTER_FOLIE
1002
{
1000
NSB00341_S2
1002
}
  0
LINE
  5
C8AE
330
20
100
AcDbEntity
  8
10000_FRONT
  6
Continuous
 62
     7
370
    20
100
AcDbLine
 39
0.25
 10
20.68272355106183
 20
493.9006406650053
 30
0.0
 11
20.68272355106183
 21
492.1776406650053
 31
0.0
1001
AUSTER_ANSICHT
1002
{
1000
Det03
1002
}
1001
AUSTER_FOLIE
1002
{
1000
NSB00341_S2
1002
}
  0
LINE
  5
C8AF
330
20
100
AcDbEntity
  8
10000_FRONT
  6
Continuous
 62
     7
370
    20
100
AcDbLine
 39
0.25
 10
19.48272355106178
 20
492.1776406650053
 30
0.0
 11
19.48272355106178
 21
493.9006406650053
 31
0.0
1001
AUSTER_ANSICHT
1002
{
1000
Det03
1002
}
1001
AUSTER_FOLIE
1002
{
1000
NSB00341_S2
1002
}
  0
LINE
  5
C8B0
330
20
100
AcDbEntity
  8
10000_FRONT
  6
Continuous
 62
     7
370
    20
100
AcDbLine
 39
0.25
 10
15.63772355106175
 20
492.1776406650053
 30
0.0
 11
19.48272355106178
 21
492.1776406650053
 31
0.0
1001
AUSTER_ANSICHT
1002
{
1000
Det03
1002
}
1001
AUSTER_FOLIE
1002
{
1000
NSB00341_S2
1002
}
  0
LINE
  5
C8B1
330
20
100
AcDbEntity
  8
10000_FRONT
  6
Continuous
 62
     7
370
    20
100
AcDbLine
 39
0.25
 10
36.98272355106178
 20
490.7696406650053
 30
0.0
 11
33.13772355106176
 21
490.7696406650053
 31
0.0
1001
AUSTER_ANSICHT
1002
{
1000
Det03
1002
}
1001
AUSTER_FOLIE
1002
{
1000
NSB00341_S2
1002
}
  0
LINE
  5
C8B2
330
20
100
AcDbEntity
  8
10000_FRONT
  6
Continuous
 62
     7
370
    20
100
AcDbLine
 39
0.25
 10
36.98272355106178
 20
489.0466406650053
 30
0.0
 11
36.98272355106178
 21
490.7696406650053
 31
0.0
1001
AUSTER_ANSICHT
1002
{
1000
Det03
1002
}
1001
AUSTER_FOLIE
1002
{
1000
NSB00341_S2
1002
}
  0
LINE
  5
C8B3
330
20
100
AcDbEntity
  8
10000_FRONT
  6
Continuous
 62
     7
370
    20
100
AcDbLine
 39
0.25
 10
38.18272355106183
 20
490.7696406650053
 30
0.0
 11
38.18272355106183
 21
489.0466406650053
 31
0.0
1001
AUSTER_ANSICHT
1002
{
1000
Det03
1002
}
1001
AUSTER_FOLIE
1002
{
1000
NSB00341_S2
1002
}
  0
LINE
  5
C8B4
330
20
100
AcDbEntity
  8
10000_FRONT
  6
Continuous
 62
     7
370
    20
100
AcDbLine
 39
0.25
 10
42.02672355106185
 20
490.7696406650053
 30
0.0
 11
38.18272355106183
 21
490.7696406650053
 31
0.0
1001
AUSTER_ANSICHT
1002
{
1000
Det03
1002
}
1001
AUSTER_FOLIE
1002
{
1000
NSB00341_S2
1002
}
  0
LINE
  5
C8B5
330
20
100
AcDbEntity
  8
10000_FRONT
  6
Continuous
 62
     7
370
    20
100
AcDbLine
 39
0.25
 10
38.18272355106183
 20
492.1776406650053
 30
0.0
 11
42.02672355106185
 21
492.1776406650053
 31
0.0
1001
AUSTER_ANSICHT
1002
{
1000
Det03
1002
}
1001
AUSTER_FOLIE
1002
{
1000
NSB00341_S2
1002
}
  0
LINE
  5
C8B6
330
20
100
AcDbEntity
  8
10000_FRONT
  6
Continuous
 62
     7
370
    20
100
AcDbLine
 39
0.25
 10
38.18272355106183
 20
493.9006406650053
 30
0.0
 11
38.18272355106183
 21
492.1776406650053
 31
0.0
1001
AUSTER_ANSICHT
1002
{
1000
Det03
1002
}
1001
AUSTER_FOLIE
1002
{
1000
NSB00341_S2
1002
}
  0
LINE
  5
C8B7
330
20
100
AcDbEntity
  8
10000_FRONT
  6
Continuous
 62
     7
370
    20
100
AcDbLine
 39
0.25
 10
36.98272355106178
 20
492.1776406650053
 30
0.0
 11
36.98272355106178
 21
493.9006406650053
 31
0.0
1001
AUSTER_ANSICHT
1002
{
1000
Det03
1002
}
1001
AUSTER_FOLIE
1002
{
1000
NSB00341_S2
1002
}
  0
LINE
  5
C8B8
330
20
100
AcDbEntity
  8
10000_FRONT
  6
Continuous
 62
     7
370
    20
100
AcDbLine
 39
0.25
 10
33.13772355106176
 20
492.1776406650053
 30
0.0
 11
36.98272355106178
 21
492.1776406650053
 31
0.0
1001
AUSTER_ANSICHT
1002
{
1000
Det03
1002
}
1001
AUSTER_FOLIE
1002
{
1000
NSB00341_S2
1002
}
  0
LINE
  5
C8B9
330
20
100
AcDbEntity
  8
10000_FRONT
  6
Continuous
 62
     7
370
    20
100
AcDbLine
 39
0.25
 10
1.982723551061781
 20
490.7696406650053
 30
0.0
 11
-1.862276448938245
 21
490.7696406650053
 31
0.0
1001
AUSTER_ANSICHT
1002
{
1000
Det03
1002
}
1001
AUSTER_FOLIE
1002
{
1000
NSB00341_S2
1002
}
  0
LINE
  5
C8BA
330
20
100
AcDbEntity
  8
10000_FRONT
  6
Continuous
 62
     7
370
    20
100
AcDbLine
 39
0.25
 10
1.982723551061781
 20
489.0466406650053
 30
0.0
 11
1.982723551061781
 21
490.7696406650053
 31
0.0
1001
AUSTER_ANSICHT
1002
{
1000
Det03
1002
}
1001
AUSTER_FOLIE
1002
{
1000
NSB00341_S2
1002
}
  0
LINE
  5
C8BB
330
20
100
AcDbEntity
  8
10000_FRONT
  6
Continuous
 62
     7
370
    20
100
AcDbLine
 39
0.25
 10
3.182723551061826
 20
490.7696406650053
 30
0.0
 11
3.182723551061826
 21
489.0466406650053
 31
0.0
1001
AUSTER_ANSICHT
1002
{
1000
Det03
1002
}
1001
AUSTER_FOLIE
1002
{
1000
NSB00341_S2
1002
}
  0
LINE
  5
C8BC
330
20
100
AcDbEntity
  8
10000_FRONT
  6
Continuous
 62
     7
370
    20
100
AcDbLine
 39
0.25
 10
7.026723551061878
 20
490.7696406650053
 30
0.0
 11
3.182723551061826
 21
490.7696406650053
 31
0.0
1001
AUSTER_ANSICHT
1002
{
1000
Det03
1002
}
1001
AUSTER_FOLIE
1002
{
1000
NSB00341_S2
1002
}
  0
LINE
  5
C8BD
330
20
100
AcDbEntity
  8
10000_FRONT
  6
Continuous
 62
     7
370
    20
100
AcDbLine
 39
0.25
 10
3.182723551061826
 20
492.1776406650053
 30
0.0
 11
7.026723551061878
 21
492.1776406650053
 31
0.0
1001
AUSTER_ANSICHT
1002
{
1000
Det03
1002
}
1001
AUSTER_FOLIE
1002
{
1000
NSB00341_S2
1002
}
  0
LINE
  5
C8BE
330
20
100
AcDbEntity
  8
10000_FRONT
  6
Continuous
 62
     7
370
    20
100
AcDbLine
 39
0.25
 10
3.182723551061826
 20
493.9006406650053
 30
0.0
 11
3.182723551061826
 21
492.1776406650053
 31
0.0
1001
AUSTER_ANSICHT
1002
{
1000
Det03
1002
}
1001
AUSTER_FOLIE
1002
{
1000
NSB00341_S2
1002
}
  0
LINE
  5
C8BF
330
20
100
AcDbEntity
  8
10000_FRONT
  6
Continuous
 62
     7
370
    20
100
AcDbLine
 39
0.25
 10
1.982723551061781
 20
492.1776406650053
 30
0.0
 11
1.982723551061781
 21
493.9006406650053
 31
0.0
1001
AUSTER_ANSICHT
1002
{
1000
Det03
1002
}
1001
AUSTER_FOLIE
1002
{
1000
NSB00341_S2
1002
}
  0
LINE
  5
C8C0
330
20
100
AcDbEntity
  8
10000_FRONT
  6
Continuous
 62
     7
370
    20
100
AcDbLine
 39
0.25
 10
-1.862276448938245
 20
492.1776406650053
 30
0.0
 11
1.982723551061781
 21
492.1776406650053
 31
0.0
1001
AUSTER_ANSICHT
1002
{
1000
Det03
1002
}
1001
AUSTER_FOLIE
1002
{
1000
NSB00341_S2
1002
}
  0
LINE
  5
C8C1
330
20
100
AcDbEntity
  8
10000_FRONT
  6
Continuous
 62
     7
370
    50
100
AcDbLine
 39
0.7
 10
-5.84827644893812
 20
501.1416406650053
 30
0.0
 11
46.01472355106182
 21
501.1416406650053
 31
0.0
1001
AUSTER_ANSICHT
1002
{
1000
Det03
1002
}
1001
AUSTER_FOLIE
1002
{
1000
NSB00341_S2
1002
}
  0
LINE
  5
C8C2
330
20
100
AcDbEntity
  8
10000_FRONT
  6
Continuous
 62
     7
370
    20
100
AcDbLine
 39
0.25
 10
-5.635276448938157
 20
501.1416406650053
 30
0.0
 11
-5.635276448938157
 21
502.7416406650053
 31
0.0
1001
AUSTER_ANSICHT
1002
{
1000
Det03
1002
}
1001
AUSTER_FOLIE
1002
{
1000
NSB00341_S2
1002
}
  0
LINE
  5
C8C3
330
20
100
AcDbEntity
  8
10000_FRONT
  6
DASHED
 62
     7
370
    20
100
AcDbLine
 39
0.25
 10
45.80172355106173
 20
408.1876406650053
 30
0.0
 11
45.80172355106173
 21
406.5876406650053
 31
0.0
1001
AUSTER_ANSICHT
1002
{
1000
Det03
1002
}
1001
AUSTER_FOLIE
1002
{
1000
NSB00341_S2
1002
}
  0
LINE
  5
C8C4
330
20
100
AcDbEntity
  8
10000_FRONT
  6
Continuous
 62
     7
370
    20
100
AcDbLine
 39
0.25
 10
9.064723551061886
 20
502.7416406650053
 30
0.0
 11
9.064723551061886
 21
501.1416406650053
 31
0.0
1001
AUSTER_ANSICHT
1002
{
1000
Det03
1002
}
1001
AUSTER_FOLIE
1002
{
1000
NSB00341_S2
1002
}
  0
LINE
  5
C8C5
330
20
100
AcDbEntity
  8
10000_FRONT
  6
DASHED
 62
     7
370
    20
100
AcDbLine
 39
0.25
 10
31.10172355106181
 20
406.5876406650053
 30
0.0
 11
31.10172355106181
 21
408.1876406650053
 31
0.0
1001
AUSTER_ANSICHT
1002
{
1000
Det03
1002
}
1001
AUSTER_FOLIE
1002
{
1000
NSB00341_S2
1002
}
  0
LINE
  5
C8C6
330
20
100
AcDbEntity
  8
10000_FRONT
  6
Continuous
 62
     7
370
    20
100
AcDbLine
 39
0.25
 10
-5.235276448938178
 20
503.1416406650053
 30
0.0
 11
8.664723551061797
 21
503.1416406650053
 31
0.0
1001
AUSTER_ANSICHT
1002
{
1000
Det03
1002
}
1001
AUSTER_FOLIE
1002
{
1000
NSB00341_S2
1002
}
  0
LINE
  5
C8C7
330
20
100
AcDbEntity
  8
10000_FRONT
  6
DASHED
 62
     7
370
    20
100
AcDbLine
 39
0.25
 10
45.40172355106188
 20
406.1876406650053
 30
0.0
 11
31.50172355106179
 21
406.1876406650053
 31
0.0
1001
AUSTER_ANSICHT
1002
{
1000
Det03
1002
}
1001
AUSTER_FOLIE
1002
{
1000
NSB00341_S2
1002
}
  0
LINE
  5
C8C8
330
20
100
AcDbEntity
  8
10000_FRONT
  6
Continuous
 62
     7
370
    20
100
AcDbLine
 39
0.25
 10
-5.635276448938157
 20
501.1416406650053
 30
0.0
 11
-5.635276448938157
 21
502.7416406650053
 31
0.0
1001
AUSTER_ANSICHT
1002
{
1000
Det03
1002
}
1001
AUSTER_FOLIE
1002
{
1000
NSB00341_S2
1002
}
  0
LINE
  5
C8C9
330
20
100
AcDbEntity
  8
10000_FRONT
  6
Continuous
 62
     7
370
    20
100
AcDbLine
 39
0.25
 10
9.064723551061886
 20
502.7416406650053
 30
0.0
 11
9.064723551061886
 21
501.1416406650053
 31
0.0
1001
AUSTER_ANSICHT
1002
{
1000
Det03
1002
}
1001
AUSTER_FOLIE
1002
{
1000
NSB00341_S2
1002
}
  0
LINE
  5
C8CA
330
20
100
AcDbEntity
  8
10000_FRONT
  6
Continuous
 62
     7
370
    20
100
AcDbLine
 39
0.25
 10
-5.235276448938178
 20
503.1416406650053
 30
0.0
 11
8.664723551061797
 21
503.1416406650053
 31
0.0
1001
AUSTER_ANSICHT
1002
{
1000
Det03
1002
}
1001
AUSTER_FOLIE
1002
{
1000
NSB00341_S2
1002
}
  0
LINE
  5
C8CB
330
20
100
AcDbEntity
  8
10000_FRONT
  6
Continuous
 62
     7
370
    20
100
AcDbLine
 39
0.25
 10
26.61472355106184
 20
502.7416406650053
 30
0.0
 11
26.61472355106184
 21
501.1416406650053
 31
0.0
1001
AUSTER_ANSICHT
1002
{
1000
Det03
1002
}
1001
AUSTER_FOLIE
1002
{
1000
NSB00341_S2
1002
}
  0
LINE
  5
C8CC
330
20
100
AcDbEntity
  8
10000_FRONT
  6
DASHED
 62
     7
370
    20
100
AcDbLine
 39
0.25
 10
13.55172355106174
 20
406.5876406650053
 30
0.0
 11
13.55172355106174
 21
408.1876406650053
 31
0.0
1001
AUSTER_ANSICHT
1002
{
1000
Det03
1002
}
1001
AUSTER_FOLIE
1002
{
1000
NSB00341_S2
1002
}
  0
LINE
  5
C8CD
330
20
100
AcDbEntity
  8
10000_FRONT
  6
Continuous
 62
     7
370
    20
100
AcDbLine
 39
0.25
 10
14.01472355106182
 20
503.1416406650053
 30
0.0
 11
26.21472355106175
 21
503.1416406650053
 31
0.0
1001
AUSTER_ANSICHT
1002
{
1000
Det03
1002
}
1001
AUSTER_FOLIE
1002
{
1000
NSB00341_S2
1002
}
  0
LINE
  5
C8CE
330
20
100
AcDbEntity
  8
10000_FRONT
  6
DASHED
 62
     7
370
    20
100
AcDbLine
 39
0.25
 10
26.15172355106188
 20
406.1876406650053
 30
0.0
 11
13.95172355106183
 21
406.1876406650053
 31
0.0
1001
AUSTER_ANSICHT
1002
{
1000
Det03
1002
}
1001
AUSTER_FOLIE
1002
{
1000
NSB00341_S2
1002
}
  0
LINE
  5
C8CF
330
20
100
AcDbEntity
  8
10000_FRONT
  6
Continuous
 62
     7
370
    20
100
AcDbLine
 39
0.25
 10
13.61472355106184
 20
501.1416406650053
 30
0.0
 11
13.61472355106184
 21
502.7416406650053
 31
0.0
1001
AUSTER_ANSICHT
1002
{
1000
Det03
1002
}
1001
AUSTER_FOLIE
1002
{
1000
NSB00341_S2
1002
}
  0
LINE
  5
C8D0
330
20
100
AcDbEntity
  8
10000_FRONT
  6
DASHED
 62
     7
370
    20
100
AcDbLine
 39
0.25
 10
26.55172355106174
 20
408.1876406650053
 30
0.0
 11
26.55172355106174
 21
406.5876406650053
 31
0.0
1001
AUSTER_ANSICHT
1002
{
1000
Det03
1002
}
1001
AUSTER_FOLIE
1002
{
1000
NSB00341_S2
1002
}
  0
LINE
  5
C8D1
330
20
100
AcDbEntity
  8
10000_FRONT
  6
Continuous
 62
     7
370
    20
100
AcDbLine
 39
0.25
 10
26.61472355106184
 20
502.7416406650053
 30
0.0
 11
26.61472355106184
 21
501.1416406650053
 31
0.0
1001
AUSTER_ANSICHT
1002
{
1000
Det03
1002
}
1001
AUSTER_FOLIE
1002
{
1000
NSB00341_S2
1002
}
  0
LINE
  5
C8D2
330
20
100
AcDbEntity
  8
10000_FRONT
  6
Continuous
 62
     7
370
    20
100
AcDbLine
 39
0.25
 10
14.01472355106182
 20
503.1416406650053
 30
0.0
 11
26.21472355106175
 21
503.1416406650053
 31
0.0
1001
AUSTER_ANSICHT
1002
{
1000
Det03
1002
}
1001
AUSTER_FOLIE
1002
{
1000
NSB00341_S2
1002
}
  0
LINE
  5
C8D3
330
20
100
AcDbEntity
  8
10000_FRONT
  6
Continuous
 62
     7
370
    20
100
AcDbLine
 39
0.25
 10
13.61472355106184
 20
501.1416406650053
 30
0.0
 11
13.61472355106184
 21
502.7416406650053
 31
0.0
1001
AUSTER_ANSICHT
1002
{
1000
Det03
1002
}
1001
AUSTER_FOLIE
1002
{
1000
NSB00341_S2
1002
}
  0
LINE
  5
C8D4
330
20
100
AcDbEntity
  8
10000_FRONT
  6
Continuous
 62
     7
370
    20
100
AcDbLine
 39
0.25
 10
45.86472355106184
 20
502.7416406650053
 30
0.0
 11
45.86472355106184
 21
501.1416406650053
 31
0.0
1001
AUSTER_ANSICHT
1002
{
1000
Det03
1002
}
1001
AUSTER_FOLIE
1002
{
1000
NSB00341_S2
1002
}
  0
LINE
  5
C8D5
330
20
100
AcDbEntity
  8
10000_FRONT
  6
DASHED
 62
     7
370
    20
100
AcDbLine
 39
0.25
 10
-5.698276448938258
 20
406.5876406650053
 30
0.0
 11
-5.698276448938258
 21
408.1876406650053
 31
0.0
1001
AUSTER_ANSICHT
1002
{
1000
Det03
1002
}
1001
AUSTER_FOLIE
1002
{
1000
NSB00341_S2
1002
}
  0
LINE
  5
C8D6
330
20
100
AcDbEntity
  8
10000_FRONT
  6
Continuous
 62
     7
370
    20
100
AcDbLine
 39
0.25
 10
45.86472355106184
 20
502.7416406650053
 30
0.0
 11
45.86472355106184
 21
501.1416406650053
 31
0.0
1001
AUSTER_ANSICHT
1002
{
1000
Det03
1002
}
1001
AUSTER_FOLIE
1002
{
1000
NSB00341_S2
1002
}
  0
LINE
  5
C8D7
330
20
100
AcDbEntity
  8
10000_FRONT
  6
Continuous
 62
     7
370
    20
100
AcDbLine
 39
0.25
 10
31.56472355106189
 20
503.1416406650053
 30
0.0
 11
45.46472355106175
 21
503.1416406650053
 31
0.0
1001
AUSTER_ANSICHT
1002
{
1000
Det03
1002
}
1001
AUSTER_FOLIE
1002
{
1000
NSB00341_S2
1002
}
  0
LINE
  5
C8D8
330
20
100
AcDbEntity
  8
10000_FRONT
  6
DASHED
 62
     7
370
    20
100
AcDbLine
 39
0.25
 10
8.601723551061809
 20
406.1876406650053
 30
0.0
 11
-5.298276448938167
 21
406.1876406650053
 31
0.0
1001
AUSTER_ANSICHT
1002
{
1000
Det03
1002
}
1001
AUSTER_FOLIE
1002
{
1000
NSB00341_S2
1002
}
  0
LINE
  5
C8D9
330
20
100
AcDbEntity
  8
10000_FRONT
  6
Continuous
 62
     7
370
    20
100
AcDbLine
 39
0.25
 10
31.1647235510618
 20
501.1416406650053
 30
0.0
 11
31.1647235510618
 21
502.7416406650053
 31
0.0
1001
AUSTER_ANSICHT
1002
{
1000
Det03
1002
}
1001
AUSTER_FOLIE
1002
{
1000
NSB00341_S2
1002
}
  0
LINE
  5
C8DA
330
20
100
AcDbEntity
  8
10000_FRONT
  6
DASHED
 62
     7
370
    20
100
AcDbLine
 39
0.25
 10
9.001723551061788
 20
408.1876406650053
 30
0.0
 11
9.001723551061788
 21
406.5876406650053
 31
0.0
1001
AUSTER_ANSICHT
1002
{
1000
Det03
1002
}
1001
AUSTER_FOLIE
1002
{
1000
NSB00341_S2
1002
}
  0
LINE
  5
C8DB
330
20
100
AcDbEntity
  8
10000_FRONT
  6
Continuous
 62
     7
370
    20
100
AcDbLine
 39
0.25
 10
31.56472355106189
 20
503.1416406650053
 30
0.0
 11
45.46472355106175
 21
503.1416406650053
 31
0.0
1001
AUSTER_ANSICHT
1002
{
1000
Det03
1002
}
1001
AUSTER_FOLIE
1002
{
1000
NSB00341_S2
1002
}
  0
LINE
  5
C8DC
330
20
100
AcDbEntity
  8
10000_FRONT
  6
Continuous
 62
     7
370
    20
100
AcDbLine
 39
0.25
 10
31.1647235510618
 20
501.1416406650053
 30
0.0
 11
31.1647235510618
 21
502.7416406650053
 31
0.0
1001
AUSTER_ANSICHT
1002
{
1000
Det03
1002
}
1001
AUSTER_FOLIE
1002
{
1000
NSB00341_S2
1002
}
  0
LINE
  5
C8DD
330
20
100
AcDbEntity
  8
10000_FRONT
  6
Continuous
 62
     7
370
    50
100
AcDbLine
 39
0.7
 10
-7.34827644893812
 20
402.0416406650053
 30
0.0
 11
-7.34827644893812
 21
504.0416406650055
 31
0.0
1001
AUSTER_ANSICHT
1002
{
1000
Det03
1002
}
1001
AUSTER_FOLIE
1002
{
1000
NSB00341_S2
1002
}
  0
LINE
  5
C8DE
330
20
100
AcDbEntity
  8
10000_FRONT
  6
Continuous
 62
     7
370
    50
100
AcDbLine
 39
0.7
 10
47.45172355106183
 20
504.0416406650055
 30
0.0
 11
47.45172355106183
 21
402.0416406650053
 31
0.0
1001
AUSTER_ANSICHT
1002
{
1000
Det03
1002
}
1001
AUSTER_FOLIE
1002
{
1000
NSB00341_S2
1002
}
  0
LINE
  5
C8DF
330
20
100
AcDbEntity
  8
10000_FRONT
  6
DASHED
 62
     7
370
    20
100
AcDbLine
 39
0.25
 10
33.66172355106188
 20
458.9386406650053
 30
0.0
 11
33.66172355106188
 21
461.5386406650053
 31
0.0
1001
AUSTER_ANSICHT
1002
{
1000
Det03
1002
}
1001
AUSTER_FOLIE
1002
{
1000
NSB00341_S2
1002
}
  0
LINE
  5
C8E0
330
20
100
AcDbEntity
  8
10000_FRONT
  6
DASHED
 62
     7
370
    20
100
AcDbLine
 39
0.25
 10
38.66172355106187
 20
458.9386406650053
 30
0.0
 11
33.66172355106188
 21
458.9386406650053
 31
0.0
1001
AUSTER_ANSICHT
1002
{
1000
Det03
1002
}
1001
AUSTER_FOLIE
1002
{
1000
NSB00341_S2
1002
}
  0
LINE
  5
C8E1
330
20
100
AcDbEntity
  8
10000_FRONT
  6
DASHED
 62
     7
370
    20
100
AcDbLine
 39
0.25
 10
38.66172355106187
 20
461.5386406650053
 30
0.0
 11
38.66172355106187
 21
458.9386406650053
 31
0.0
1001
AUSTER_ANSICHT
1002
{
1000
Det03
1002
}
1001
AUSTER_FOLIE
1002
{
1000
NSB00341_S2
1002
}
  0
LINE
  5
C8E2
330
20
100
AcDbEntity
  8
10000_FRONT
  6
DASHED
 62
     7
370
    20
100
AcDbLine
 39
0.25
 10
33.66172355106188
 20
461.5386406650053
 30
0.0
 11
38.66172355106187
 21
461.5386406650053
 31
0.0
1001
AUSTER_ANSICHT
1002
{
1000
Det03
1002
}
1001
AUSTER_FOLIE
1002
{
1000
NSB00341_S2
1002
}
  0
LINE
  5
C8E3
330
20
100
AcDbEntity
  8
10000_FRONT
  6
DASHED
 62
     7
370
    20
100
AcDbLine
 39
0.25
 10
37.46172355106182
 20
458.9386406650053
 30
0.0
 11
37.46172355106182
 21
461.5376406650055
 31
0.0
1001
AUSTER_ANSICHT
1002
{
1000
Det03
1002
}
1001
AUSTER_FOLIE
1002
{
1000
NSB00341_S2
1002
}
  0
LINE
  5
C8E4
330
20
100
AcDbEntity
  8
10000_FRONT
  6
DASHED
 62
     7
370
    20
100
AcDbLine
 39
0.25
 10
36.8617235510618
 20
461.5376406650055
 30
0.0
 11
36.8617235510618
 21
458.9386406650053
 31
0.0
1001
AUSTER_ANSICHT
1002
{
1000
Det03
1002
}
1001
AUSTER_FOLIE
1002
{
1000
NSB00341_S2
1002
}
  0
LINE
  5
C8E5
330
20
100
AcDbEntity
  8
10000_FRONT
  6
DASHED
 62
     7
370
    20
100
AcDbLine
 39
0.25
 10
37.54272355106173
 20
458.9386406650053
 30
0.0
 11
37.54272355106173
 21
461.5376406650055
 31
0.0
1001
AUSTER_ANSICHT
1002
{
1000
Det03
1002
}
1001
AUSTER_FOLIE
1002
{
1000
NSB00341_S2
1002
}
  0
LINE
  5
C8E6
330
20
100
AcDbEntity
  8
10000_FRONT
  6
DASHED
 62
     7
370
    20
100
AcDbLine
 39
0.25
 10
36.78172355106176
 20
458.9386406650053
 30
0.0
 11
36.78172355106176
 21
461.5376406650055
 31
0.0
1001
AUSTER_ANSICHT
1002
{
1000
Det03
1002
}
1001
AUSTER_FOLIE
1002
{
1000
NSB00341_S2
1002
}
  0
LINE
  5
C8E7
330
20
100
AcDbEntity
  8
10000_FRONT
  6
DASHED
 62
     7
370
    20
100
AcDbLine
 39
0.25
 10
42.56172355106172
 20
442.6886406650053
 30
0.0
 11
42.56172355106172
 21
428.2886406650053
 31
0.0
1001
AUSTER_ANSICHT
1002
{
1000
Det03
1002
}
1001
AUSTER_FOLIE
1002
{
1000
NSB00341_S2
1002
}
  0
LINE
  5
C8E8
330
20
100
AcDbEntity
  8
10000_FRONT
  6
DASHED
 62
     7
370
    20
100
AcDbLine
 39
0.25
 10
-2.438276448938268
 20
472.7886406650053
 30
0.0
 11
-2.438276448938268
 21
428.2906406650053
 31
0.0
1001
AUSTER_ANSICHT
1002
{
1000
Det03
1002
}
1001
AUSTER_FOLIE
1002
{
1000
NSB00341_S2
1002
}
  0
LINE
  5
C8E9
330
20
100
AcDbEntity
  8
10000_FRONT
  6
DASHED
 62
     7
370
    20
100
AcDbLine
 39
0.25
 10
42.56172355106172
 20
464.0696406650055
 30
0.0
 11
42.56172355106172
 21
442.6886406650053
 31
0.0
1001
AUSTER_ANSICHT
1002
{
1000
Det03
1002
}
1001
AUSTER_FOLIE
1002
{
1000
NSB00341_S2
1002
}
  0
LINE
  5
C8EA
330
20
100
AcDbEntity
  8
10000_FRONT
  6
DASHED
 62
     7
370
    20
100
AcDbLine
 39
0.25
 10
0.4117235510618685
 20
464.3366406650053
 30
0.0
 11
20.21172355106182
 21
464.3366406650053
 31
0.0
1001
AUSTER_ANSICHT
1002
{
1000
Det03
1002
}
1001
AUSTER_FOLIE
1002
{
1000
NSB00341_S2
1002
}
  0
LINE
  5
C8EB
330
20
100
AcDbEntity
  8
10000_FRONT
  6
DASHED
 62
     7
370
    20
100
AcDbLine
 39
0.25
 10
0.4117235510618685
 20
471.1326406650053
 30
0.0
 11
0.4117235510618685
 21
464.3366406650053
 31
0.0
1001
AUSTER_ANSICHT
1002
{
1000
Det03
1002
}
1001
AUSTER_FOLIE
1002
{
1000
NSB00341_S2
1002
}
  0
LINE
  5
C8EC
330
20
100
AcDbEntity
  8
10000_FRONT
  6
DASHED
 62
     7
370
    20
100
AcDbLine
 39
0.25
 10
20.21172355106182
 20
471.1326406650053
 30
0.0
 11
0.4117235510618685
 21
471.1326406650053
 31
0.0
1001
AUSTER_ANSICHT
1002
{
1000
Det03
1002
}
1001
AUSTER_FOLIE
1002
{
1000
NSB00341_S2
1002
}
  0
LINE
  5
C8ED
330
20
100
AcDbEntity
  8
10000_FRONT
  6
DASHED
 62
     7
370
    20
100
AcDbLine
 39
0.25
 10
20.21172355106182
 20
464.3366406650053
 30
0.0
 11
20.21172355106182
 21
471.1326406650053
 31
0.0
1001
AUSTER_ANSICHT
1002
{
1000
Det03
1002
}
1001
AUSTER_FOLIE
1002
{
1000
NSB00341_S2
1002
}
  0
LINE
  5
C8EE
330
20
100
AcDbEntity
  8
10000_FRONT
  6
DASHED
 62
     7
370
    20
100
AcDbLine
 39
0.25
 10
-0.3062764489382062
 20
429.7306406650053
 30
0.0
 11
-0.3062764489382062
 21
428.2666406650053
 31
0.0
1001
AUSTER_ANSICHT
1002
{
1000
Det03
1002
}
1001
AUSTER_FOLIE
1002
{
1000
NSB00341_S2
1002
}
  0
LINE
  5
C8EF
330
20
100
AcDbEntity
  8
10000_FRONT
  6
DASHED
 62
     7
370
    20
100
AcDbLine
 39
0.25
 10
-1.270276448938147
 20
429.7306406650053
 30
0.0
 11
-0.3062764489382062
 21
429.7306406650053
 31
0.0
1001
AUSTER_ANSICHT
1002
{
1000
Det03
1002
}
1001
AUSTER_FOLIE
1002
{
1000
NSB00341_S2
1002
}
  0
LINE
  5
C8F0
330
20
100
AcDbEntity
  8
10000_FRONT
  6
DASHED
 62
     7
370
    20
100
AcDbLine
 39
0.25
 10
-1.270276448938147
 20
428.2666406650053
 30
0.0
 11
-1.270276448938147
 21
429.7306406650053
 31
0.0
1001
AUSTER_ANSICHT
1002
{
1000
Det03
1002
}
1001
AUSTER_FOLIE
1002
{
1000
NSB00341_S2
1002
}
  0
LINE
  5
C8F1
330
20
100
AcDbEntity
  8
10000_FRONT
  6
DASHED
 62
     7
370
    20
100
AcDbLine
 39
0.25
 10
-0.3062764489382062
 20
428.2666406650053
 30
0.0
 11
-1.270276448938147
 21
428.2666406650053
 31
0.0
1001
AUSTER_ANSICHT
1002
{
1000
Det03
1002
}
1001
AUSTER_FOLIE
1002
{
1000
NSB00341_S2
1002
}
  0
LINE
  5
C8F2
330
20
100
AcDbEntity
  8
10000_FRONT
  6
DASHED
 62
     7
370
    20
100
AcDbLine
 39
0.25
 10
28.51172355106179
 20
464.2886406650053
 30
0.0
 11
28.51172355106179
 21
471.0486406650053
 31
0.0
1001
AUSTER_ANSICHT
1002
{
1000
Det03
1002
}
1001
AUSTER_FOLIE
1002
{
1000
NSB00341_S2
1002
}
  0
LINE
  5
C8F3
330
20
100
AcDbEntity
  8
10000_FRONT
  6
DASHED
 62
     7
370
    20
100
AcDbLine
 39
0.25
 10
10.06172355106173
 20
452.9446406650055
 30
0.0
 11
10.06172355106173
 21
450.4516406650053
 31
0.0
1001
AUSTER_ANSICHT
1002
{
1000
Det03
1002
}
1001
AUSTER_FOLIE
1002
{
1000
NSB00341_S2
1002
}
  0
LINE
  5
C8F4
330
20
100
AcDbEntity
  8
10000_FRONT
  6
DASHED
 62
     7
370
    20
100
AcDbLine
 39
0.25
 10
12.79972355106179
 20
453.1386406650053
 30
0.0
 11
10.2557235510618
 21
453.1386406650053
 31
0.0
1001
AUSTER_ANSICHT
1002
{
1000
Det03
1002
}
1001
AUSTER_FOLIE
1002
{
1000
NSB00341_S2
1002
}
  0
LINE
  5
C8F5
330
20
100
AcDbEntity
  8
10000_FRONT
  6
DASHED
 62
     7
370
    20
100
AcDbLine
 39
0.25
 10
10.2557235510618
 20
453.1386406650053
 30
0.0
 11
10.06172355106173
 21
453.1386406650053
 31
0.0
1001
AUSTER_ANSICHT
1002
{
1000
Det03
1002
}
1001
AUSTER_FOLIE
1002
{
1000
NSB00341_S2
1002
}
  0
LINE
  5
C8F6
330
20
100
AcDbEntity
  8
10000_FRONT
  6
DASHED
 62
     7
370
    20
100
AcDbLine
 39
0.25
 10
10.06172355106173
 20
453.1386406650053
 30
0.0
 11
10.06172355106173
 21
452.9446406650055
 31
0.0
1001
AUSTER_ANSICHT
1002
{
1000
Det03
1002
}
1001
AUSTER_FOLIE
1002
{
1000
NSB00341_S2
1002
}
  0
LINE
  5
C8F7
330
20
100
AcDbEntity
  8
10000_FRONT
  6
DASHED
 62
     7
370
    20
100
AcDbLine
 39
0.25
 10
28.51172355106179
 20
471.0486406650053
 30
0.0
 11
30.51172355106178
 21
471.0486406650053
 31
0.0
1001
AUSTER_ANSICHT
1002
{
1000
Det03
1002
}
1001
AUSTER_FOLIE
1002
{
1000
NSB00341_S2
1002
}
  0
LINE
  5
C8F8
330
20
100
AcDbEntity
  8
10000_FRONT
  6
DASHED
 62
     7
370
    20
100
AcDbLine
 39
0.25
 10
28.56172355106173
 20
442.6886406650053
 30
0.0
 11
42.56172355106172
 21
442.6886406650053
 31
0.0
1001
AUSTER_ANSICHT
1002
{
1000
Det03
1002
}
1001
AUSTER_FOLIE
1002
{
1000
NSB00341_S2
1002
}
  0
LINE
  5
C8F9
330
20
100
AcDbEntity
  8
10000_FRONT
  6
DASHED
 62
     7
370
    20
100
AcDbLine
 39
0.25
 10
28.56172355106173
 20
464.0696406650055
 30
0.0
 11
28.56172355106173
 21
442.6886406650053
 31
0.0
1001
AUSTER_ANSICHT
1002
{
1000
Det03
1002
}
1001
AUSTER_FOLIE
1002
{
1000
NSB00341_S2
1002
}
  0
LINE
  5
C8FA
330
20
100
AcDbEntity
  8
10000_FRONT
  6
DASHED
 62
     7
370
    20
100
AcDbLine
 39
0.25
 10
28.56172355106173
 20
464.0696406650055
 30
0.0
 11
42.56172355106172
 21
464.0696406650055
 31
0.0
1001
AUSTER_ANSICHT
1002
{
1000
Det03
1002
}
1001
AUSTER_FOLIE
1002
{
1000
NSB00341_S2
1002
}
  0
LINE
  5
C8FB
330
20
100
AcDbEntity
  8
10000_FRONT
  6
DASHED
 62
     7
370
    20
100
AcDbLine
 39
0.25
 10
28.51172355106179
 20
464.2886406650053
 30
0.0
 11
30.51172355106178
 21
464.2886406650053
 31
0.0
1001
AUSTER_ANSICHT
1002
{
1000
Det03
1002
}
1001
AUSTER_FOLIE
1002
{
1000
NSB00341_S2
1002
}
  0
LINE
  5
C8FC
330
20
100
AcDbEntity
  8
10000_FRONT
  6
DASHED
 62
     7
370
    20
100
AcDbLine
 39
0.25
 10
13.98072355106183
 20
450.3296406650055
 30
0.0
 11
13.85372355106187
 21
450.2016406650055
 31
0.0
1001
AUSTER_ANSICHT
1002
{
1000
Det03
1002
}
1001
AUSTER_FOLIE
1002
{
1000
NSB00341_S2
1002
}
  0
LINE
  5
C8FD
330
20
100
AcDbEntity
  8
10000_FRONT
  6
DASHED
 62
     7
370
    20
100
AcDbLine
 39
0.25
 10
12.87172355106179
 20
449.2196406650053
 30
0.0
 11
12.99872355106186
 21
449.3476406650053
 31
0.0
1001
AUSTER_ANSICHT
1002
{
1000
Det03
1002
}
1001
AUSTER_FOLIE
1002
{
1000
NSB00341_S2
1002
}
  0
LINE
  5
C8FE
330
20
100
AcDbEntity
  8
10000_FRONT
  6
DASHED
 62
     7
370
    20
100
AcDbLine
 39
0.25
 10
13.25272355106176
 20
451.0576406650053
 30
0.0
 11
13.12472355106183
 21
450.9306406650055
 31
0.0
1001
AUSTER_ANSICHT
1002
{
1000
Det03
1002
}
1001
AUSTER_FOLIE
1002
{
1000
NSB00341_S2
1002
}
  0
LINE
  5
C8FF
330
20
100
AcDbEntity
  8
10000_FRONT
  6
DASHED
 62
     7
370
    20
100
AcDbLine
 39
0.25
 10
12.14272355106186
 20
449.9486406650053
 30
0.0
 11
12.27072355106179
 21
450.0756406650053
 31
0.0
1001
AUSTER_ANSICHT
1002
{
1000
Det03
1002
}
1001
AUSTER_FOLIE
1002
{
1000
NSB00341_S2
1002
}
  0
LINE
  5
C900
330
20
100
AcDbEntity
  8
10000_FRONT
  6
DASHED
 62
     7
370
    20
100
AcDbLine
 39
0.25
 10
13.98072355106183
 20
450.3296406650055
 30
0.0
 11
14.68272355106182
 21
451.0306406650054
 31
0.0
1001
AUSTER_ANSICHT
1002
{
1000
Det03
1002
}
1001
AUSTER_FOLIE
1002
{
1000
NSB00341_S2
1002
}
  0
LINE
  5
C901
330
20
100
AcDbEntity
  8
10000_FRONT
  6
DASHED
 62
     7
370
    20
100
AcDbLine
 39
0.25
 10
13.95372355106178
 20
451.7596406650055
 30
0.0
 11
13.25272355106176
 21
451.0576406650053
 31
0.0
1001
AUSTER_ANSICHT
1002
{
1000
Det03
1002
}
1001
AUSTER_FOLIE
1002
{
1000
NSB00341_S2
1002
}
  0
LINE
  5
C902
330
20
100
AcDbEntity
  8
10000_FRONT
  6
DASHED
 62
     7
370
    20
100
AcDbLine
 39
0.25
 10
12.14272355106186
 20
449.9486406650053
 30
0.0
 11
11.44172355106184
 21
449.2466406650053
 31
0.0
1001
AUSTER_ANSICHT
1002
{
1000
Det03
1002
}
1001
AUSTER_FOLIE
1002
{
1000
NSB00341_S2
1002
}
  0
LINE
  5
C903
330
20
100
AcDbEntity
  8
10000_FRONT
  6
DASHED
 62
     7
370
    20
100
AcDbLine
 39
0.25
 10
12.16972355106191
 20
448.5186406650053
 30
0.0
 11
12.87172355106179
 21
449.2196406650053
 31
0.0
1001
AUSTER_ANSICHT
1002
{
1000
Det03
1002
}
1001
AUSTER_FOLIE
1002
{
1000
NSB00341_S2
1002
}
  0
LINE
  5
C904
330
20
100
AcDbEntity
  8
10000_FRONT
  6
DASHED
 62
     7
370
    20
100
AcDbLine
 39
0.25
 10
12.99872355106186
 20
449.3476406650053
 30
0.0
 11
14.60472355106185
 21
447.7416406650053
 31
0.0
1001
AUSTER_ANSICHT
1002
{
1000
Det03
1002
}
1001
AUSTER_FOLIE
1002
{
1000
NSB00341_S2
1002
}
  0
LINE
  5
C905
330
20
100
AcDbEntity
  8
10000_FRONT
  6
DASHED
 62
     7
370
    20
100
AcDbLine
 39
0.25
 10
10.6647235510618
 20
451.6816406650055
 30
0.0
 11
12.27072355106179
 21
450.0756406650053
 31
0.0
1001
AUSTER_ANSICHT
1002
{
1000
Det03
1002
}
1001
AUSTER_FOLIE
1002
{
1000
NSB00341_S2
1002
}
  0
LINE
  5
C906
330
20
100
AcDbEntity
  8
10000_FRONT
  6
DASHED
 62
     7
370
    20
100
AcDbLine
 39
0.25
 10
13.12472355106183
 20
450.9306406650055
 30
0.0
 11
11.51972355106181
 21
452.5356406650053
 31
0.0
1001
AUSTER_ANSICHT
1002
{
1000
Det03
1002
}
1001
AUSTER_FOLIE
1002
{
1000
NSB00341_S2
1002
}
  0
LINE
  5
C907
330
20
100
AcDbEntity
  8
10000_FRONT
  6
DASHED
 62
     7
370
    20
100
AcDbLine
 39
0.25
 10
15.45872355106189
 20
448.5966406650053
 30
0.0
 11
13.85372355106187
 21
450.2016406650055
 31
0.0
1001
AUSTER_ANSICHT
1002
{
1000
Det03
1002
}
1001
AUSTER_FOLIE
1002
{
1000
NSB00341_S2
1002
}
  0
LINE
  5
C908
330
20
100
AcDbEntity
  8
10000_FRONT
  6
DASHED
 62
     7
370
    20
100
AcDbLine
 39
0.25
 10
36.78672355106187
 20
449.4386406650053
 30
0.0
 11
36.61272355106178
 21
449.4846406650053
 31
0.0
1001
AUSTER_ANSICHT
1002
{
1000
Det03
1002
}
1001
AUSTER_FOLIE
1002
{
1000
NSB00341_S2
1002
}
  0
LINE
  5
C909
330
20
100
AcDbEntity
  8
10000_FRONT
  6
DASHED
 62
     7
370
    20
100
AcDbLine
 39
0.25
 10
35.2707235510618
 20
449.8446406650055
 30
0.0
 11
35.44472355106177
 21
449.7976406650053
 31
0.0
1001
AUSTER_ANSICHT
1002
{
1000
Det03
1002
}
1001
AUSTER_FOLIE
1002
{
1000
NSB00341_S2
1002
}
  0
LINE
  5
C90A
330
20
100
AcDbEntity
  8
10000_FRONT
  6
DASHED
 62
     7
370
    20
100
AcDbLine
 39
0.25
 10
37.05272355106172
 20
450.4336406650053
 30
0.0
 11
36.87872355106185
 21
450.4796406650052
 31
0.0
1001
AUSTER_ANSICHT
1002
{
1000
Det03
1002
}
1001
AUSTER_FOLIE
1002
{
1000
NSB00341_S2
1002
}
  0
LINE
  5
C90B
330
20
100
AcDbEntity
  8
10000_FRONT
  6
DASHED
 62
     7
370
    20
100
AcDbLine
 39
0.25
 10
35.53772355106185
 20
450.8396406650055
 30
0.0
 11
35.71172355106182
 21
450.7926406650055
 31
0.0
1001
AUSTER_ANSICHT
1002
{
1000
Det03
1002
}
1001
AUSTER_FOLIE
1002
{
1000
NSB00341_S2
1002
}
  0
LINE
  5
C90C
330
20
100
AcDbEntity
  8
10000_FRONT
  6
DASHED
 62
     7
370
    20
100
AcDbLine
 39
0.25
 10
36.78672355106187
 20
449.4386406650053
 30
0.0
 11
37.74472355106186
 21
449.1816406650053
 31
0.0
1001
AUSTER_ANSICHT
1002
{
1000
Det03
1002
}
1001
AUSTER_FOLIE
1002
{
1000
NSB00341_S2
1002
}
  0
LINE
  5
C90D
330
20
100
AcDbEntity
  8
10000_FRONT
  6
DASHED
 62
     7
370
    20
100
AcDbLine
 39
0.25
 10
38.01172355106178
 20
450.1766406650053
 30
0.0
 11
37.05272355106172
 21
450.4336406650053
 31
0.0
1001
AUSTER_ANSICHT
1002
{
1000
Det03
1002
}
1001
AUSTER_FOLIE
1002
{
1000
NSB00341_S2
1002
}
  0
LINE
  5
C90E
330
20
100
AcDbEntity
  8
10000_FRONT
  6
DASHED
 62
     7
370
    20
100
AcDbLine
 39
0.25
 10
35.53772355106185
 20
450.8396406650055
 30
0.0
 11
34.57872355106179
 21
451.0966406650053
 31
0.0
1001
AUSTER_ANSICHT
1002
{
1000
Det03
1002
}
1001
AUSTER_FOLIE
1002
{
1000
NSB00341_S2
1002
}
  0
LINE
  5
C90F
330
20
100
AcDbEntity
  8
10000_FRONT
  6
DASHED
 62
     7
370
    20
100
AcDbLine
 39
0.25
 10
34.31272355106171
 20
450.1016406650053
 30
0.0
 11
35.2707235510618
 21
449.8446406650055
 31
0.0
1001
AUSTER_ANSICHT
1002
{
1000
Det03
1002
}
1001
AUSTER_FOLIE
1002
{
1000
NSB00341_S2
1002
}
  0
LINE
  5
C910
330
20
100
AcDbEntity
  8
10000_FRONT
  6
DASHED
 62
     7
370
    20
100
AcDbLine
 39
0.25
 10
35.44472355106177
 20
449.7976406650053
 30
0.0
 11
34.85672355106181
 21
447.6046406650055
 31
0.0
1001
AUSTER_ANSICHT
1002
{
1000
Det03
1002
}
1001
AUSTER_FOLIE
1002
{
1000
NSB00341_S2
1002
}
  0
LINE
  5
C911
330
20
100
AcDbEntity
  8
10000_FRONT
  6
DASHED
 62
     7
370
    20
100
AcDbLine
 39
0.25
 10
36.29872355106182
 20
452.9856406650053
 30
0.0
 11
35.71172355106182
 21
450.7926406650055
 31
0.0
1001
AUSTER_ANSICHT
1002
{
1000
Det03
1002
}
1001
AUSTER_FOLIE
1002
{
1000
NSB00341_S2
1002
}
  0
LINE
  5
C912
330
20
100
AcDbEntity
  8
10000_FRONT
  6
DASHED
 62
     7
370
    20
100
AcDbLine
 39
0.25
 10
36.87872355106185
 20
450.4796406650052
 30
0.0
 11
37.46672355106182
 21
452.6736406650053
 31
0.0
1001
AUSTER_ANSICHT
1002
{
1000
Det03
1002
}
1001
AUSTER_FOLIE
1002
{
1000
NSB00341_S2
1002
}
  0
LINE
  5
C913
330
20
100
AcDbEntity
  8
10000_FRONT
  6
DASHED
 62
     7
370
    20
100
AcDbLine
 39
0.25
 10
36.02472355106181
 20
447.2916406650055
 30
0.0
 11
36.61272355106178
 21
449.4846406650053
 31
0.0
1001
AUSTER_ANSICHT
1002
{
1000
Det03
1002
}
1001
AUSTER_FOLIE
1002
{
1000
NSB00341_S2
1002
}
  0
LINE
  5
C914
330
20
100
AcDbEntity
  8
10000_FRONT
  6
DASHED
 62
     7
370
    20
100
AcDbLine
 39
0.25
 10
42.56172355106172
 20
472.7886406650053
 30
0.0
 11
42.56172355106172
 21
464.0696406650055
 31
0.0
1001
AUSTER_ANSICHT
1002
{
1000
Det03
1002
}
1001
AUSTER_FOLIE
1002
{
1000
NSB00341_S2
1002
}
  0
LINE
  5
C915
330
20
100
AcDbEntity
  8
10000_FRONT
  6
DASHED
 62
     7
370
    20
100
AcDbLine
 39
0.25
 10
30.51172355106178
 20
471.0486406650053
 30
0.0
 11
30.51172355106178
 21
464.2886406650053
 31
0.0
1001
AUSTER_ANSICHT
1002
{
1000
Det03
1002
}
1001
AUSTER_FOLIE
1002
{
1000
NSB00341_S2
1002
}
  0
LINE
  5
C917
330
20
100
AcDbEntity
  8
10000_FRONT
  6
Continuous
 62
     7
370
    50
100
AcDbLine
 39
0.7
 10
47.45172355106183
 20
428.7876406650052
 30
0.0
 11
47.45172355106183
 21
409.6876406650053
 31
0.0
1001
AUSTER_ANSICHT
1002
{
1000
Det03
1002
}
1001
AUSTER_FOLIE
1002
{
1000
NSB00341_S2
1002
}
  0
LINE
  5
C919
330
20
100
AcDbEntity
  8
10000_FRONT
  6
DASHED
 62
     7
370
    20
100
AcDbLine
 39
0.25
 10
45.95172355106183
 20
427.2876406650055
 30
0.0
 11
-5.84827644893812
 21
427.2886406650053
 31
0.0
1001
AUSTER_ANSICHT
1002
{
1000
Det03
1002
}
1001
AUSTER_FOLIE
1002
{
1000
NSB00341_S2
1002
}
  0
LINE
  5
C91A
330
20
100
AcDbEntity
  8
10000_FRONT
  6
DASHED
 62
     7
370
    20
100
AcDbLine
 39
0.25
 10
42.56172355106172
 20
479.7876406650053
 30
0.0
 11
42.56172355106172
 21
472.7886406650053
 31
0.0
1001
AUSTER_ANSICHT
1002
{
1000
Det03
1002
}
1001
AUSTER_FOLIE
1002
{
1000
NSB00341_S2
1002
}
  0
LINE
  5
C91B
330
20
100
AcDbEntity
  8
10000_FRONT
  6
DASHED
 62
     7
370
    20
100
AcDbLine
 39
0.25
 10
-2.448276448938258
 20
479.7876406650053
 30
0.0
 11
42.56172355106172
 21
479.7876406650053
 31
0.0
1001
AUSTER_ANSICHT
1002
{
1000
Det03
1002
}
1001
AUSTER_FOLIE
1002
{
1000
NSB00341_S2
1002
}
  0
LINE
  5
C91C
330
20
100
AcDbEntity
  8
10000_FRONT
  6
DASHED
 62
     7
370
    20
100
AcDbLine
 39
0.25
 10
-2.438276448938268
 20
472.7886406650053
 30
0.0
 11
-2.448276448938258
 21
479.7876406650053
 31
0.0
1001
AUSTER_ANSICHT
1002
{
1000
Det03
1002
}
1001
AUSTER_FOLIE
1002
{
1000
NSB00341_S2
1002
}
  0
LINE
  5
C91D
330
20
100
AcDbEntity
  8
10000_FRONT
  6
Continuous
 62
     7
370
    50
100
AcDbLine
 39
0.25
 10
-5.84827644893812
 20
482.2876406650053
 30
0.0
 11
45.95172355106183
 21
482.2876406650053
 31
0.0
1001
AUSTER_ANSICHT
1002
{
1000
Det03
1002
}
1001
AUSTER_FOLIE
1002
{
1000
NSB00341_S2
1002
}
  0
LINE
  5
C91E
330
20
100
AcDbEntity
  8
10000_FRONT
  6
DASHED
 62
     7
370
    20
100
AcDbLine
 39
0.25
 10
36.98272355106178
 20
418.8776406650053
 30
0.0
 11
33.13772355106176
 21
418.8776406650053
 31
0.0
1001
AUSTER_ANSICHT
1002
{
1000
Det03
1002
}
1001
AUSTER_FOLIE
1002
{
1000
NSB00341_S2
1002
}
  0
LINE
  5
C91F
330
20
100
AcDbEntity
  8
10000_FRONT
  6
DASHED
 62
     7
370
    20
100
AcDbLine
 39
0.25
 10
36.98272355106178
 20
420.6006406650053
 30
0.0
 11
36.98272355106178
 21
418.8776406650053
 31
0.0
1001
AUSTER_ANSICHT
1002
{
1000
Det03
1002
}
1001
AUSTER_FOLIE
1002
{
1000
NSB00341_S2
1002
}
  0
LINE
  5
C920
330
20
100
AcDbEntity
  8
10000_FRONT
  6
DASHED
 62
     7
370
    20
100
AcDbLine
 39
0.25
 10
38.18272355106183
 20
418.8776406650053
 30
0.0
 11
38.18272355106183
 21
420.6006406650053
 31
0.0
1001
AUSTER_ANSICHT
1002
{
1000
Det03
1002
}
1001
AUSTER_FOLIE
1002
{
1000
NSB00341_S2
1002
}
  0
LINE
  5
C921
330
20
100
AcDbEntity
  8
10000_FRONT
  6
DASHED
 62
     7
370
    20
100
AcDbLine
 39
0.25
 10
42.02672355106185
 20
418.8776406650053
 30
0.0
 11
38.18272355106183
 21
418.8776406650053
 31
0.0
1001
AUSTER_ANSICHT
1002
{
1000
Det03
1002
}
1001
AUSTER_FOLIE
1002
{
1000
NSB00341_S2
1002
}
  0
LINE
  5
C922
330
20
100
AcDbEntity
  8
10000_FRONT
  6
DASHED
 62
     7
370
    20
100
AcDbLine
 39
0.25
 10
38.18272355106183
 20
417.4696406650053
 30
0.0
 11
42.02672355106185
 21
417.4696406650053
 31
0.0
1001
AUSTER_ANSICHT
1002
{
1000
Det03
1002
}
1001
AUSTER_FOLIE
1002
{
1000
NSB00341_S2
1002
}
  0
LINE
  5
C923
330
20
100
AcDbEntity
  8
10000_FRONT
  6
DASHED
 62
     7
370
    20
100
AcDbLine
 39
0.25
 10
38.18272355106183
 20
415.7466406650053
 30
0.0
 11
38.18272355106183
 21
417.4696406650053
 31
0.0
1001
AUSTER_ANSICHT
1002
{
1000
Det03
1002
}
1001
AUSTER_FOLIE
1002
{
1000
NSB00341_S2
1002
}
  0
LINE
  5
C924
330
20
100
AcDbEntity
  8
10000_FRONT
  6
DASHED
 62
     7
370
    20
100
AcDbLine
 39
0.25
 10
36.98272355106178
 20
417.4696406650053
 30
0.0
 11
36.98272355106178
 21
415.7466406650053
 31
0.0
1001
AUSTER_ANSICHT
1002
{
1000
Det03
1002
}
1001
AUSTER_FOLIE
1002
{
1000
NSB00341_S2
1002
}
  0
LINE
  5
C925
330
20
100
AcDbEntity
  8
10000_FRONT
  6
DASHED
 62
     7
370
    20
100
AcDbLine
 39
0.25
 10
33.13772355106176
 20
417.4696406650053
 30
0.0
 11
36.98272355106178
 21
417.4696406650053
 31
0.0
1001
AUSTER_ANSICHT
1002
{
1000
Det03
1002
}
1001
AUSTER_FOLIE
1002
{
1000
NSB00341_S2
1002
}
  0
LINE
  5
C926
330
20
100
AcDbEntity
  8
10000_FRONT
  6
DASHED
 62
     7
370
    20
100
AcDbLine
 39
0.25
 10
1.982723551061781
 20
418.8776406650053
 30
0.0
 11
-1.862276448938245
 21
418.8776406650053
 31
0.0
1001
AUSTER_ANSICHT
1002
{
1000
Det03
1002
}
1001
AUSTER_FOLIE
1002
{
1000
NSB00341_S2
1002
}
  0
LINE
  5
C927
330
20
100
AcDbEntity
  8
10000_FRONT
  6
DASHED
 62
     7
370
    20
100
AcDbLine
 39
0.25
 10
19.48272355106178
 20
418.8776406650053
 30
0.0
 11
15.63772355106175
 21
418.8776406650053
 31
0.0
1001
AUSTER_ANSICHT
1002
{
1000
Det03
1002
}
1001
AUSTER_FOLIE
1002
{
1000
NSB00341_S2
1002
}
  0
LINE
  5
C928
330
20
100
AcDbEntity
  8
10000_FRONT
  6
DASHED
 62
     7
370
    20
100
AcDbLine
 39
0.25
 10
1.982723551061781
 20
420.6006406650053
 30
0.0
 11
1.982723551061781
 21
418.8776406650053
 31
0.0
1001
AUSTER_ANSICHT
1002
{
1000
Det03
1002
}
1001
AUSTER_FOLIE
1002
{
1000
NSB00341_S2
1002
}
  0
LINE
  5
C929
330
20
100
AcDbEntity
  8
10000_FRONT
  6
DASHED
 62
     7
370
    20
100
AcDbLine
 39
0.25
 10
19.48272355106178
 20
420.6006406650053
 30
0.0
 11
19.48272355106178
 21
418.8776406650053
 31
0.0
1001
AUSTER_ANSICHT
1002
{
1000
Det03
1002
}
1001
AUSTER_FOLIE
1002
{
1000
NSB00341_S2
1002
}
  0
LINE
  5
C92A
330
20
100
AcDbEntity
  8
10000_FRONT
  6
DASHED
 62
     7
370
    20
100
AcDbLine
 39
0.25
 10
3.182723551061826
 20
418.8776406650053
 30
0.0
 11
3.182723551061826
 21
420.6006406650053
 31
0.0
1001
AUSTER_ANSICHT
1002
{
1000
Det03
1002
}
1001
AUSTER_FOLIE
1002
{
1000
NSB00341_S2
1002
}
  0
LINE
  5
C92B
330
20
100
AcDbEntity
  8
10000_FRONT
  6
DASHED
 62
     7
370
    20
100
AcDbLine
 39
0.25
 10
20.68272355106183
 20
418.8776406650053
 30
0.0
 11
20.68272355106183
 21
420.6006406650053
 31
0.0
1001
AUSTER_ANSICHT
1002
{
1000
Det03
1002
}
1001
AUSTER_FOLIE
1002
{
1000
NSB00341_S2
1002
}
  0
LINE
  5
C92C
330
20
100
AcDbEntity
  8
10000_FRONT
  6
DASHED
 62
     7
370
    20
100
AcDbLine
 39
0.25
 10
7.026723551061878
 20
418.8776406650053
 30
0.0
 11
3.182723551061826
 21
418.8776406650053
 31
0.0
1001
AUSTER_ANSICHT
1002
{
1000
Det03
1002
}
1001
AUSTER_FOLIE
1002
{
1000
NSB00341_S2
1002
}
  0
LINE
  5
C92D
330
20
100
AcDbEntity
  8
10000_FRONT
  6
DASHED
 62
     7
370
    20
100
AcDbLine
 39
0.25
 10
24.52672355106188
 20
418.8776406650053
 30
0.0
 11
20.68272355106183
 21
418.8776406650053
 31
0.0
1001
AUSTER_ANSICHT
1002
{
1000
Det03
1002
}
1001
AUSTER_FOLIE
1002
{
1000
NSB00341_S2
1002
}
  0
LINE
  5
C92E
330
20
100
AcDbEntity
  8
10000_FRONT
  6
DASHED
 62
     7
370
    20
100
AcDbLine
 39
0.25
 10
3.182723551061826
 20
417.4696406650053
 30
0.0
 11
7.026723551061878
 21
417.4696406650053
 31
0.0
1001
AUSTER_ANSICHT
1002
{
1000
Det03
1002
}
1001
AUSTER_FOLIE
1002
{
1000
NSB00341_S2
1002
}
  0
LINE
  5
C92F
330
20
100
AcDbEntity
  8
10000_FRONT
  6
DASHED
 62
     7
370
    20
100
AcDbLine
 39
0.25
 10
20.68272355106183
 20
417.4696406650053
 30
0.0
 11
24.52672355106188
 21
417.4696406650053
 31
0.0
1001
AUSTER_ANSICHT
1002
{
1000
Det03
1002
}
1001
AUSTER_FOLIE
1002
{
1000
NSB00341_S2
1002
}
  0
LINE
  5
C930
330
20
100
AcDbEntity
  8
10000_FRONT
  6
DASHED
 62
     7
370
    20
100
AcDbLine
 39
0.25
 10
3.182723551061826
 20
415.7466406650053
 30
0.0
 11
3.182723551061826
 21
417.4696406650053
 31
0.0
1001
AUSTER_ANSICHT
1002
{
1000
Det03
1002
}
1001
AUSTER_FOLIE
1002
{
1000
NSB00341_S2
1002
}
  0
LINE
  5
C931
330
20
100
AcDbEntity
  8
10000_FRONT
  6
DASHED
 62
     7
370
    20
100
AcDbLine
 39
0.25
 10
20.68272355106183
 20
415.7466406650053
 30
0.0
 11
20.68272355106183
 21
417.4696406650053
 31
0.0
1001
AUSTER_ANSICHT
1002
{
1000
Det03
1002
}
1001
AUSTER_FOLIE
1002
{
1000
NSB00341_S2
1002
}
  0
LINE
  5
C932
330
20
100
AcDbEntity
  8
10000_FRONT
  6
DASHED
 62
     7
370
    20
100
AcDbLine
 39
0.25
 10
1.982723551061781
 20
417.4696406650053
 30
0.0
 11
1.982723551061781
 21
415.7466406650053
 31
0.0
1001
AUSTER_ANSICHT
1002
{
1000
Det03
1002
}
1001
AUSTER_FOLIE
1002
{
1000
NSB00341_S2
1002
}
  0
LINE
  5
C933
330
20
100
AcDbEntity
  8
10000_FRONT
  6
DASHED
 62
     7
370
    20
100
AcDbLine
 39
0.25
 10
19.48272355106178
 20
417.4696406650053
 30
0.0
 11
19.48272355106178
 21
415.7466406650053
 31
0.0
1001
AUSTER_ANSICHT
1002
{
1000
Det03
1002
}
1001
AUSTER_FOLIE
1002
{
1000
NSB00341_S2
1002
}
  0
LINE
  5
C934
330
20
100
AcDbEntity
  8
10000_FRONT
  6
DASHED
 62
     7
370
    20
100
AcDbLine
 39
0.25
 10
-1.862276448938245
 20
417.4696406650053
 30
0.0
 11
1.982723551061781
 21
417.4696406650053
 31
0.0
1001
AUSTER_ANSICHT
1002
{
1000
Det03
1002
}
1001
AUSTER_FOLIE
1002
{
1000
NSB00341_S2
1002
}
  0
LINE
  5
C935
330
20
100
AcDbEntity
  8
10000_FRONT
  6
DASHED
 62
     7
370
    20
100
AcDbLine
 39
0.25
 10
15.63772355106175
 20
417.4696406650053
 30
0.0
 11
19.48272355106178
 21
417.4696406650053
 31
0.0
1001
AUSTER_ANSICHT
1002
{
1000
Det03
1002
}
1001
AUSTER_FOLIE
1002
{
1000
NSB00341_S2
1002
}
  0
LINE
  5
C936
330
20
100
AcDbEntity
  8
10000_FRONT
  6
DASHED
 62
     7
370
    20
100
AcDbLine
 39
0.25
 10
45.80172355106173
 20
408.1876406650053
 30
0.0
 11
45.80172355106173
 21
406.5876406650053
 31
0.0
1001
AUSTER_ANSICHT
1002
{
1000
Det03
1002
}
1001
AUSTER_FOLIE
1002
{
1000
NSB00341_S2
1002
}
  0
LINE
  5
C937
330
20
100
AcDbEntity
  8
10000_FRONT
  6
DASHED
 62
     7
370
    20
100
AcDbLine
 39
0.25
 10
31.10172355106181
 20
406.5876406650053
 30
0.0
 11
31.10172355106181
 21
408.1876406650053
 31
0.0
1001
AUSTER_ANSICHT
1002
{
1000
Det03
1002
}
1001
AUSTER_FOLIE
1002
{
1000
NSB00341_S2
1002
}
  0
LINE
  5
C938
330
20
100
AcDbEntity
  8
10000_FRONT
  6
DASHED
 62
     7
370
    20
100
AcDbLine
 39
0.25
 10
45.40172355106188
 20
406.1876406650053
 30
0.0
 11
31.50172355106179
 21
406.1876406650053
 31
0.0
1001
AUSTER_ANSICHT
1002
{
1000
Det03
1002
}
1001
AUSTER_FOLIE
1002
{
1000
NSB00341_S2
1002
}
  0
LINE
  5
C939
330
20
100
AcDbEntity
  8
10000_FRONT
  6
DASHED
 62
     7
370
    20
100
AcDbLine
 39
0.25
 10
13.55172355106174
 20
406.5876406650053
 30
0.0
 11
13.55172355106174
 21
408.1876406650053
 31
0.0
1001
AUSTER_ANSICHT
1002
{
1000
Det03
1002
}
1001
AUSTER_FOLIE
1002
{
1000
NSB00341_S2
1002
}
  0
LINE
  5
C93A
330
20
100
AcDbEntity
  8
10000_FRONT
  6
DASHED
 62
     7
370
    20
100
AcDbLine
 39
0.25
 10
26.15172355106188
 20
406.1876406650053
 30
0.0
 11
13.95172355106183
 21
406.1876406650053
 31
0.0
1001
AUSTER_ANSICHT
1002
{
1000
Det03
1002
}
1001
AUSTER_FOLIE
1002
{
1000
NSB00341_S2
1002
}
  0
LINE
  5
C93B
330
20
100
AcDbEntity
  8
10000_FRONT
  6
DASHED
 62
     7
370
    20
100
AcDbLine
 39
0.25
 10
26.55172355106174
 20
408.1876406650053
 30
0.0
 11
26.55172355106174
 21
406.5876406650053
 31
0.0
1001
AUSTER_ANSICHT
1002
{
1000
Det03
1002
}
1001
AUSTER_FOLIE
1002
{
1000
NSB00341_S2
1002
}
  0
LINE
  5
C93C
330
20
100
AcDbEntity
  8
10000_FRONT
  6
DASHED
 62
     7
370
    20
100
AcDbLine
 39
0.25
 10
-5.698276448938258
 20
406.5876406650053
 30
0.0
 11
-5.698276448938258
 21
408.1876406650053
 31
0.0
1001
AUSTER_ANSICHT
1002
{
1000
Det03
1002
}
1001
AUSTER_FOLIE
1002
{
1000
NSB00341_S2
1002
}
  0
LINE
  5
C93D
330
20
100
AcDbEntity
  8
10000_FRONT
  6
DASHED
 62
     7
370
    20
100
AcDbLine
 39
0.25
 10
8.601723551061809
 20
406.1876406650053
 30
0.0
 11
-5.298276448938167
 21
406.1876406650053
 31
0.0
1001
AUSTER_ANSICHT
1002
{
1000
Det03
1002
}
1001
AUSTER_FOLIE
1002
{
1000
NSB00341_S2
1002
}
  0
LINE
  5
C93E
330
20
100
AcDbEntity
  8
10000_FRONT
  6
DASHED
 62
     7
370
    20
100
AcDbLine
 39
0.25
 10
9.001723551061788
 20
408.1876406650053
 30
0.0
 11
9.001723551061788
 21
406.5876406650053
 31
0.0
1001
AUSTER_ANSICHT
1002
{
1000
Det03
1002
}
1001
AUSTER_FOLIE
1002
{
1000
NSB00341_S2
1002
}
  0
LINE
  5
C93F
330
20
100
AcDbEntity
  8
10000_FRONT
  6
DASHED
 62
     7
370
    20
100
AcDbLine
 39
0.7
 10
45.95172355106183
 20
408.1876406650053
 30
0.0
 11
-5.84827644893812
 21
408.1876406650053
 31
0.0
1001
AUSTER_ANSICHT
1002
{
1000
Det03
1002
}
1001
AUSTER_FOLIE
1002
{
1000
NSB00341_S2
1002
}
  0
LINE
  5
C941
330
20
100
AcDbEntity
  8
11000_Left
  6
Continuous
 62
     7
370
    50
100
AcDbLine
 39
0.7
 10
92.3710072077656
 20
437.0416406650055
 30
-1.0
 11
93.37100720776559
 21
437.0416406650055
 31
-1.0
1001
AUSTER_ANSICHT
1002
{
1000
Det03
1002
}
1001
AUSTER_FOLIE
1002
{
1000
NSB00341_S2
1002
}
  0
LINE
  5
C942
330
20
100
AcDbEntity
  8
11000_Left
  6
DASHED
 62
     7
370
    20
100
AcDbLine
 39
0.25
 10
92.3710072077656
 20
437.0416406650055
 30
-1.0
 11
92.3710072077656
 21
439.3416406650053
 31
-1.0
1001
AUSTER_ANSICHT
1002
{
1000
Det03
1002
}
1001
AUSTER_FOLIE
1002
{
1000
NSB00341_S2
1002
}
  0
LINE
  5
C944
330
20
100
AcDbEntity
  8
11000_Left
  6
DASHED
 62
     7
370
    20
100
AcDbLine
 39
0.25
 10
93.37100720776559
 20
442.1916406650053
 30
-1.0
 11
91.37100720776562
 21
444.1916406650054
 31
-1.0
1001
AUSTER_ANSICHT
1002
{
1000
Det03
1002
}
1001
AUSTER_FOLIE
1002
{
1000
NSB00341_S2
1002
}
  0
LINE
  5
C945
330
20
100
AcDbEntity
  8
11000_Left
  6
Continuous
 62
     7
370
    50
100
AcDbLine
 39
0.7
 10
93.37100720776559
 20
472.3416406650053
 30
-1.0
 11
93.37100720776559
 21
467.1916406650053
 31
-1.0
1001
AUSTER_ANSICHT
1002
{
1000
Det03
1002
}
1001
AUSTER_FOLIE
1002
{
1000
NSB00341_S2
1002
}
  0
LINE
  5
C946
330
20
100
AcDbEntity
  8
11000_Left
  6
DASHED
 62
     7
370
    20
100
AcDbLine
 39
0.25
 10
92.3710072077656
 20
469.8416406650053
 30
-1.0
 11
92.3710072077656
 21
472.3416406650053
 31
-1.0
1001
AUSTER_ANSICHT
1002
{
1000
Det03
1002
}
1001
AUSTER_FOLIE
1002
{
1000
NSB00341_S2
1002
}
  0
LINE
  5
C947
330
20
100
AcDbEntity
  8
11000_Left
  6
DASHED
 62
     7
370
    20
100
AcDbLine
 39
0.25
 10
91.37100720776562
 20
440.0416406650053
 30
-1.0
 11
91.6710072077657
 21
440.0416406650053
 31
-1.0
1001
AUSTER_ANSICHT
1002
{
1000
Det03
1002
}
1001
AUSTER_FOLIE
1002
{
1000
NSB00341_S2
1002
}
  0
LINE
  5
C948
330
20
100
AcDbEntity
  8
11000_Left
  6
DASHED
 62
     7
370
    20
100
AcDbLine
 39
0.25
 10
88.37100720776561
 20
464.1916406650055
 30
-1.0
 11
88.37100720776561
 21
454.6916406650053
 31
-1.0
1001
AUSTER_ANSICHT
1002
{
1000
Det03
1002
}
1001
AUSTER_FOLIE
1002
{
1000
NSB00341_S2
1002
}
  0
LINE
  5
C949
330
20
100
AcDbEntity
  8
11000_Left
  6
DASHED
 62
     7
370
    20
100
AcDbLine
 39
0.25
 10
88.37100720776561
 20
445.1916406650053
 30
-1.0
 11
88.37100720776561
 21
454.6916406650053
 31
-1.0
1001
AUSTER_ANSICHT
1002
{
1000
Det03
1002
}
1001
AUSTER_FOLIE
1002
{
1000
NSB00341_S2
1002
}
  0
LINE
  5
C94A
330
20
100
AcDbEntity
  8
11000_Left
  6
DASHED
 62
     7
370
    20
100
AcDbLine
 39
0.25
 10
91.37100720776562
 20
469.0916406650053
 30
-1.0
 11
91.37100720776562
 21
469.3416406650053
 31
-1.0
1001
AUSTER_ANSICHT
1002
{
1000
Det03
1002
}
1001
AUSTER_FOLIE
1002
{
1000
NSB00341_S2
1002
}
  0
LINE
  5
C94B
330
20
100
AcDbEntity
  8
11000_Left
  6
DASHED
 62
     7
370
    20
100
AcDbLine
 39
0.25
 10
91.87100720776561
 20
469.3416406650053
 30
-1.0
 11
91.37100720776562
 21
469.3416406650053
 31
-1.0
1001
AUSTER_ANSICHT
1002
{
1000
Det03
1002
}
1001
AUSTER_FOLIE
1002
{
1000
NSB00341_S2
1002
}
  0
LINE
  5
C94C
330
20
100
AcDbEntity
  8
11000_Left
  6
DASHED
 62
     7
370
    20
100
AcDbLine
 39
0.25
 10
91.37100720776562
 20
440.2916406650055
 30
-1.0
 11
91.37100720776562
 21
440.0416406650053
 31
-1.0
1001
AUSTER_ANSICHT
1002
{
1000
Det03
1002
}
1001
AUSTER_FOLIE
1002
{
1000
NSB00341_S2
1002
}
  0
LINE
  5
C94D
330
20
100
AcDbEntity
  8
11000_Left
  6
DASHED
 62
     7
370
    20
100
AcDbLine
 39
0.25
 10
89.37100720776561
 20
465.1916406650054
 30
-1.0
 11
91.37100720776562
 21
465.1916406650054
 31
-1.0
1001
AUSTER_ANSICHT
1002
{
1000
Det03
1002
}
1001
AUSTER_FOLIE
1002
{
1000
NSB00341_S2
1002
}
  0
LINE
  5
C94E
330
20
100
AcDbEntity
  8
11000_Left
  6
DASHED
 62
     7
370
    20
100
AcDbLine
 39
0.25
 10
89.37100720776561
 20
444.1916406650054
 30
-1.0
 11
91.37100720776562
 21
444.1916406650054
 31
-1.0
1001
AUSTER_ANSICHT
1002
{
1000
Det03
1002
}
1001
AUSTER_FOLIE
1002
{
1000
NSB00341_S2
1002
}
  0
LINE
  5
C94F
330
20
100
AcDbEntity
  8
11000_Left
  6
DASHED
 62
     7
370
    20
100
AcDbLine
 39
0.25
 10
89.47100720776564
 20
442.1916406650053
 30
0.0
 11
86.87100720776561
 21
442.1916406650053
 31
0.0
1001
AUSTER_ANSICHT
1002
{
1000
Det03
1002
}
1001
AUSTER_FOLIE
1002
{
1000
NSB00341_S2
1002
}
  0
LINE
  5
C950
330
20
100
AcDbEntity
  8
11000_Left
  6
DASHED
 62
     7
370
    20
100
AcDbLine
 39
0.25
 10
85.87100720776559
 20
466.1916406650053
 30
0.0
 11
85.87100720776559
 21
443.1916406650055
 31
0.0
1001
AUSTER_ANSICHT
1002
{
1000
Det03
1002
}
1001
AUSTER_FOLIE
1002
{
1000
NSB00341_S2
1002
}
  0
LINE
  5
C951
330
20
100
AcDbEntity
  8
11000_Left
  6
DASHED
 62
     7
370
    20
100
AcDbLine
 39
0.25
 10
89.47100720776564
 20
467.1916406650053
 30
0.0
 11
86.87100720776561
 21
467.1916406650053
 31
0.0
1001
AUSTER_ANSICHT
1002
{
1000
Det03
1002
}
1001
AUSTER_FOLIE
1002
{
1000
NSB00341_S2
1002
}
  0
LINE
  5
C95C
330
20
100
AcDbEntity
  8
11000_Left
  6
DASHED
 62
     7
370
    20
100
AcDbLine
 39
0.25
 10
161.2960072077657
 20
463.1386406650054
 30
0.0
 11
194.5960072077656
 21
463.1386406650054
 31
0.0
1001
AUSTER_ANSICHT
1002
{
1000
Det03
1002
}
1001
AUSTER_FOLIE
1002
{
1000
NSB00341_S2
1002
}
  0
LINE
  5
C960
330
20
100
AcDbEntity
  8
11000_Left
  6
Continuous
 62
     7
370
    50
100
AcDbLine
 39
0.7
 10
101.5960072077656
 20
407.9416406650055
 30
0.0
 11
101.5960072077656
 21
455.1386406650054
 31
0.0
1001
AUSTER_ANSICHT
1002
{
1000
Det03
1002
}
1001
AUSTER_FOLIE
1002
{
1000
NSB00341_S2
1002
}
  0
DIMENSION
  5
C985
330
20
100
AcDbEntity
  8
10100_FRONT_DIM
  6
Continuous
 62
     7
370
    13
100
AcDbDimension
  2
*D1
 10
47.45172355106177
 20
393.0886547707714
 30
0.0
 11
20.0517235510618
 21
393.0886547707714
 31
0.0
 70
    32
 71
     5
 42
54.79999999999995
  3
H035
100
AcDbAlignedDimension
 13
-7.348276448938179
 23
402.0416406650053
 33
0.0
 14
47.45172355106177
 24
402.0416406650053
 34
0.0
100
AcDbRotatedDimension
1001
ACAD
1000
DSTYLE
1002
{
1070
    40
1040
1.0
1070
    77
1070
     0
1070
   147
1040
1.5
1070
   272
1070
     0
1070
   279
1070
     1
1070
   288
1070
     1
1002
}
  0
DIMENSION
  5
C993
330
20
100
AcDbEntity
  8
10100_FRONT_DIM
  6
Continuous
 62
     7
370
    13
100
AcDbDimension
  2
*D2
 10
56.3547199955574
 20
402.0416406650053
 30
0.0
 11
56.35471999555733
 21
453.0416406650053
 31
0.0
 70
    32
 71
     5
 42
102.0
  3
H035
100
AcDbAlignedDimension
 13
47.45172355106177
 23
504.0416406650055
 33
0.0
 14
47.45172355106177
 24
402.0416406650053
 34
0.0
 50
90.0
100
AcDbRotatedDimension
1001
ACAD
1000
DSTYLE
1002
{
1070
    40
1040
1.0
1070
    77
1070
     0
1070
   147
1040
1.5
1070
   272
1070
     0
1070
   279
1070
     1
1070
   288
1070
     1
1002
}
  0
DIMENSION
  5
C9A0
330
20
100
AcDbEntity
  8
11100_LEFT_DIM
  6
Continuous
 62
     7
370
    13
100
AcDbDimension
  2
*D3
 10
132.6960072077656
 20
395.9304250512948
 30
0.0
 11
113.0335072077656
 21
395.9304250512948
 31
0.0
 70
    32
 71
     5
 42
39.325
  3
H035
100
AcDbAlignedDimension
 13
93.37100720776559
 23
437.0416406650055
 33
0.0
 14
132.6960072077656
 24
411.6386406650053
 34
0.0
100
AcDbRotatedDimension
1001
ACAD
1000
DSTYLE
1002
{
1070
    40
1040
1.0
1070
    77
1070
     0
1070
   147
1040
1.5
1070
   272
1070
     0
1070
   279
1070
     1
1070
   288
1070
     1
1002
}
  0
DIMENSION
  5
C9AD
330
20
100
AcDbEntity
  8
11100_LEFT_DIM
  6
Continuous
 62
     7
370
    13
100
AcDbDimension
  2
*D4
 10
180.1960072077656
 20
387.4801478854658
 30
0.0
 11
136.7835072077655
 21
387.4801478854658
 31
0.0
 70
    32
 71
     5
 42
86.82499999999995
  3
H035
100
AcDbAlignedDimension
 13
93.37100720776559
 23
437.0416406650055
 33
0.0
 14
180.1960072077656
 24
427.2386406650053
 34
0.0
100
AcDbRotatedDimension
1001
ACAD
1000
DSTYLE
1002
{
1070
    40
1040
1.0
1070
    77
1070
     0
1070
   147
1040
1.5
1070
   272
1070
     0
1070
   279
1070
     1
1070
   288
1070
     1
1002
}
  0
DIMENSION
  5
C9DE
330
20
100
AcDbEntity
  8
11100_LEFT_DIM
  6
Continuous
 62
     7
370
    13
100
AcDbDimension
  2
*D5
 10
205.1190072077657
 20
378.9837543863021
 30
0.0
 11
149.2450072077656
 21
378.9837543863021
 31
0.0
 70
    32
 71
     5
 42
111.7480000000001
  3
H035
100
AcDbAlignedDimension
 13
93.37100720776559
 23
402.0416406650053
 33
0.0
 14
205.1190072077657
 24
450.1386406650054
 34
0.0
100
AcDbRotatedDimension
1001
ACAD
1000
DSTYLE
1002
{
1070
    40
1040
1.0
1070
    77
1070
     0
1070
   147
1040
1.5
1070
   272
1070
     0
1070
   279
1070
     1
1070
   288
1070
     1
1002
}
  0
DIMENSION
  5
C9EB
330
20
100
AcDbEntity
  8
11100_LEFT_DIM
  6
Continuous
 62
     7
370
    13
100
AcDbDimension
  2
*D6
 10
93.37100720776559
 20
395.9304250512948
 30
0.0
 11
78.99881378652003
 21
396.0783225653102
 31
0.0
 70
   160
 71
     5
 42
4.975999999999983
  3
H035
100
AcDbAlignedDimension
 13
88.39500720776561
 23
402.0416406650053
 33
0.0
 14
93.37100720776559
 24
402.0416406650053
 34
0.0
100
AcDbRotatedDimension
1001
ACAD
1000
DSTYLE
1002
{
1070
    40
1040
1.0
1070
    77
1070
     0
1070
   147
1040
1.5
1070
   272
1070
     0
1070
   279
1070
     1
1070
   288
1070
     1
1002
}
  0
CIRCLE
  5
CA38
330
20
100
AcDbEntity
  8
30000_Drilling
  6
Continuous
 62
     7
370
    50
100
AcDbCircle
 39
0.25
 10
243.9469133063898
 20
407.5416406650053
 30
0.0
 40
2.5
1001
AUSTER_ANSICHT
1002
{
1000
Det03
1002
}
1001
AUSTER_FOLIE
1002
{
1000
NSB00341_S2
1002
}
  0
CIRCLE
  5
CA39
330
20
100
AcDbEntity
  8
30000_Drilling
  6
Continuous
 62
     7
370
    50
100
AcDbCircle
 39
0.25
 10
287.7469133063898
 20
498.5416406650053
 30
0.0
 40
2.5
1001
AUSTER_ANSICHT
1002
{
1000
Det03
1002
}
1001
AUSTER_FOLIE
1002
{
1000
NSB00341_S2
1002
}
  0
DIMENSION
  5
CA47
330
20
100
AcDbEntity
  8
30100_Drilling_Dim
100
AcDbDimension
  2
*D7
 10
243.9469133063898
 20
507.3810508822855
 30
0.0
 11
265.8469133063898
 21
509.6310508822855
 31
0.0
 70
    32
 71
     5
 42
43.79999999999995
  3
H035
100
AcDbAlignedDimension
 13
287.7469133063898
 23
501.0416406650055
 33
0.0
 14
243.9469133063898
 24
410.0416406650055
 34
0.0
100
AcDbRotatedDimension
1001
ACAD
1000
DSTYLE
1002
{
1070
    40
1040
1.0
1002
}
  0
DIMENSION
  5
CA54
330
20
100
AcDbEntity
  8
30100_Drilling_Dim
100
AcDbDimension
  2
*D8
 10
234.0388804141421
 20
407.5416406650053
 30
0.0
 11
231.788880414142
 21
453.0416406650053
 31
0.0
 70
    32
 71
     5
 42
91.0
  3
H035
100
AcDbAlignedDimension
 13
285.2469133063898
 23
498.5416406650053
 33
0.0
 14
241.4469133063898
 24
407.5416406650053
 34
0.0
 50
90.0
100
AcDbRotatedDimension
1001
ACAD
1000
DSTYLE
1002
{
1070
    40
1040
1.0
1002
}
  0
DIMENSION
  5
CA61
330
20
100
AcDbEntity
  8
30100_Drilling_Dim
100
AcDbDimension
  2
*D9
 10
289.8307970532715
 20
499.9227375223917
 30
0.0
 11
276.8646543913255
 21
491.3294084033211
 31
0.0
 70
   163
 71
     5
 42
4.999999999999886
  3
H035
100
AcDbDiametricDimension
 15
285.6630295595082
 25
497.160543807619
 35
0.0
 40
0.0
1001
ACAD
1000
DSTYLE
1002
{
1070
    40
1040
1.0
1070
   288
1070
     1
1002
}
  0
LINE
  5
CAC8
330
20
100
AcDbEntity
  8
90000_FRAME
  6
Continuous
 62
     7
100
AcDbLine
 10
-70.60458337769119
 20
288.7994897070327
 30
0.0
 11
-70.60458337769119
 21
558.7994897070326
 31
0.0
  0
LINE
  5
CAC9
330
20
100
AcDbEntity
  8
90000_FRAME
  6
Continuous
 62
     7
100
AcDbLine
 10
-70.60458337769119
 20
558.7994897070326
 30
0.0
 11
339.3954166223088
 21
558.7994897070326
 31
0.0
  0
ARC
  5
CE30
330
20
100
AcDbEntity
  8
11000_Left
  6
Continuous
 62
     7
370
    50
100
AcDbCircle
 39
0.7
 10
198.9602774619701
 20
482.7941488031258
 30
0.0
 40
0.5596875191814034
100
AcDbArc
 50
262.9936564742622
 51
11.56139875237214
1001
AUSTER_ANSICHT
1002
{
1000
Det03
1002
}
1001
AUSTER_FOLIE
1002
{
1000
NSB00341_S2
1002
}
  0
ENDSEC
  0
SECTION
  2
OBJECTS
  0
DICTIONARY
  5
C
330
0
100
AcDbDictionary
281
     1
  3
ACAD_COLOR
350
1B
  3
ACAD_GROUP
350
D
  3
ACAD_LAYOUT
350
19
  3
ACAD_MATERIAL
350
1A
  3
ACAD_MLINESTYLE
350
16
  3
ACAD_PLOTSETTINGS
350
18
  3
ACAD_PLOTSTYLENAME
350
E
  3
ACDBHEADERROUNDTRIPXREC
350
CE49
  3
AcDbVariableDictionary
350
687E
  3
DWGPROPS
350
CE48
  0
DICTIONARY
  5
1B
102
{ACAD_REACTORS
330
C
102
}
330
C
100
AcDbDictionary
281
     1
  0
DICTIONARY
  5
D
102
{ACAD_REACTORS
330
C
102
}
330
C
100
AcDbDictionary
281
     1
  0
DICTIONARY
  5
19
102
{ACAD_REACTORS
330
C
102
}
330
C
100
AcDbDictionary
281
     1
  3
Layout1
350
1F
  3
Model
350
23
  0
DICTIONARY
  5
1A
102
{ACAD_REACTORS
330
C
102
}
330
C
100
AcDbDictionary
281
     1
  0
DICTIONARY
  5
16
102
{ACAD_REACTORS
330
C
102
}
330
C
100
AcDbDictionary
281
     1
  3
Standard
350
17
  0
DICTIONARY
  5
18
102
{ACAD_REACTORS
330
C
102
}
330
C
100
AcDbDictionary
281
     1
  0
ACDBDICTIONARYWDFLT
  5
E
102
{ACAD_REACTORS
330
C
102
}
330
C
100
AcDbDictionary
281
     1
  3
Normal
350
F
100
AcDbDictionaryWithDefault
340
F
  0
DICTIONARY
  5
CE49
102
{ACAD_REACTORS
330
C
102
}
330
C
100
AcDbDictionary
281
     1
  3
COLORDICT
350
CE4B
  3
MATERIALDICT
350
CE4A
  0
DICTIONARY
  5
687E
102
{ACAD_REACTORS
330
C
102
}
330
C
100
AcDbDictionary
281
     1
  3
DIMASSOC
350
687F
  3
PROJECTNAME
350
6880
  0
XRECORD
  5
CE48
102
{ACAD_REACTORS
330
C
102
}
330
C
100
AcDbXrecord
280
     1
  1
DWGPROPS COOKIE
  2

  3

  4

  6

  7

  8

  9

300
=
301
=
302
=
303
=
304
=
305
=
306
=
307
=
308
=
309
=
 40
2.080489652777777
 41
2452829.417613079
 42
2453424.696260428
  1

 90
        0
  0
LAYOUT
  5
1F
102
{ACAD_XDICTIONARY
360
CE4C
102
}
102
{ACAD_REACTORS
330
19
102
}
330
19
100
AcDbPlotSettings
  1

  2
HP LaserJet 5000 Series PS
  4

  6

 40
0.0
 41
0.0
 42
0.0
 43
0.0
 44
0.0
 45
0.0
 46
0.0
 47
0.0
 48
0.0
 49
0.0
140
0.0
141
0.0
142
1.0
143
1.0
 70
   688
 72
     0
 73
     0
 74
     5
  7
monochrome.ctb
 75
    16
147
1.0
148
0.0
149
0.0
100
AcDbLayout
  1
Layout1
 70
     1
 71
     1
 10
0.0
 20
0.0
 11
12.0
 21
9.0
 12
0.0
 22
0.0
 32
0.0
 14
1.000000000000000E+20
 24
1.000000000000000E+20
 34
1.000000000000000E+20
 15
-1.000000000000000E+20
 25
-1.000000000000000E+20
 35
-1.000000000000000E+20
146
0.0
 13
0.0
 23
0.0
 33
0.0
 16
1.0
 26
0.0
 36
0.0
 17
0.0
 27
1.0
 37
0.0
 76
     0
330
1C
  0
LAYOUT
  5
23
102
{ACAD_XDICTIONARY
360
CE4E
102
}
102
{ACAD_REACTORS
330
19
102
}
330
19
100
AcDbPlotSettings
  1

  2
\\AMBW779A\A_P00873 (Canon iR2200-3300 PCL6)
  4
A3
  6

 40
4.815416812896728
 41
4.815412044525146
 42
4.815399169921875
 43
4.8154296875
 44
296.9259948730469
 45
419.9466552734373
 46
0.0
 47
0.0
 48
0.0
 49
0.0
140
0.0
141
0.0
142
1.0
143
1.0
 70
 11952
 72
     1
 73
     1
 74
     1
  7
monochrome.ctb
 75
    16
147
1.0
148
70.61413508068778
149
-288.7597800509186
100
AcDbLayout
  1
Model
 70
     1
 71
     0
 10
0.0
 20
0.0
 11
12.0
 21
9.0
 12
0.0
 22
0.0
 32
0.0
 14
0.0
 24
0.0
 34
0.0
 15
0.0
 25
0.0
 35
0.0
146
0.0
 13
0.0
 23
0.0
 33
0.0
 16
1.0
 26
0.0
 36
0.0
 17
0.0
 27
1.0
 37
0.0
 76
     0
330
20
  0
MLINESTYLE
  5
17
102
{ACAD_REACTORS
330
16
102
}
330
16
100
AcDbMlineStyle
  2
STANDARD
 70
     0
  3

 62
   256
 51
90.0
 52
90.0
 71
     2
 49
0.5
 62
   256
  6
BYLAYER
 49
-0.5
 62
   256
  6
BYLAYER
  0
ACDBPLACEHOLDER
  5
F
102
{ACAD_REACTORS
330
E
102
}
330
E
  0
XRECORD
  5
CE4B
102
{ACAD_REACTORS
330
CE49
102
}
330
CE49
100
AcDbXrecord
280
     1
340
1B
  0
XRECORD
  5
CE4A
102
{ACAD_REACTORS
330
CE49
102
}
330
CE49
100
AcDbXrecord
280
     1
340
1A
  0
DICTIONARYVAR
  5
687F
102
{ACAD_REACTORS
330
687E
102
}
330
687E
100
DictionaryVariables
280
     0
  1
1
  0
DICTIONARYVAR
  5
6880
102
{ACAD_REACTORS
330
687E
102
}
330
687E
100
DictionaryVariables
280
     0
  1

  0
DICTIONARY
  5
CE4C
330
1F
100
AcDbDictionary
280
     1
281
     1
  3
ACAD_XREC_ROUNDTRIP
360
CE4D
  0
DICTIONARY
  5
CE4E
330
23
100
AcDbDictionary
280
     1
281
     1
  3
ACAD_XREC_ROUNDTRIP
360
CE4F
  0
XRECORD
  5
CE4D
102
{ACAD_REACTORS
330
CE4C
102
}
330
CE4C
100
AcDbXrecord
280
     1
102
SHADEPLOT
 70
     0
102
SHADEPLOTRESLEVEL
 70
     2
102
SHADEPLOTCUSTOMDPI
 70
   300
  0
XRECORD
  5
CE4F
102
{ACAD_REACTORS
330
CE4E
102
}
330
CE4E
100
AcDbXrecord
280
     1
102
SHADEPLOT
 70
     1
102
SHADEPLOTRESLEVEL
 70
     2
102
SHADEPLOTCUSTOMDPI
 70
   300
  0
ENDSEC
  0
EOF
