  0
SECTION
  2
HEADER
  9
$ACADVER
  1
AC1015
  9
$ACADMAINTVER
 70
    20
  9
$DWGCODEPAGE
  3
ANSI_1252
  9
$INSBASE
 10
0.0
 20
0.0
 30
0.0
  9
$EXTMIN
 10
-191.1179301394168
 20
570.2733863911044
 30
0.0
  9
$EXTMAX
 10
218.8820698605832
 20
840.2733863911043
 30
0.7
  9
$LIMMIN
 10
0.0
 20
0.0
  9
$LIMMAX
 10
420.0
 20
297.0
  9
$ORTHOMODE
 70
     1
  9
$REGENMODE
 70
     1
  9
$FILLMODE
 70
     1
  9
$QTEXTMODE
 70
     0
  9
$MIRRTEXT
 70
     0
  9
$LTSCALE
 40
23.1
  9
$ATTMODE
 70
     1
  9
$TEXTSIZE
 40
0.2
  9
$TRACEWID
 40
0.05
  9
$TEXTSTYLE
  7
Standard
  9
$CLAYER
  8
0
  9
$CELTYPE
  6
ByLayer
  9
$CECOLOR
 62
   256
  9
$CELTSCALE
 40
1.0
  9
$DISPSILH
 70
     0
  9
$DIMSCALE
 40
0.0
  9
$DIMASZ
 40
3.5
  9
$DIMEXO
 40
0.0
  9
$DIMDLI
 40
3.75
  9
$DIMRND
 40
0.0
  9
$DIMDLE
 40
0.0
  9
$DIMEXE
 40
2.0
  9
$DIMTP
 40
0.0
  9
$DIMTM
 40
0.0
  9
$DIMTXT
 40
3.5
  9
$DIMCEN
 40
2.5
  9
$DIMTSZ
 40
0.0
  9
$DIMTOL
 70
     0
  9
$DIMLIM
 70
     0
  9
$DIMTIH
 70
     0
  9
$DIMTOH
 70
     0
  9
$DIMSE1
 70
     0
  9
$DIMSE2
 70
     0
  9
$DIMTAD
 70
     1
  9
$DIMZIN
 70
     8
  9
$DIMBLK
  1

  9
$DIMASO
 70
     1
  9
$DIMSHO
 70
     1
  9
$DIMPOST
  1

  9
$DIMAPOST
  1

  9
$DIMALT
 70
     0
  9
$DIMALTD
 70
     4
  9
$DIMALTF
 40
0.039
  9
$DIMLFAC
 40
1.0
  9
$DIMTOFL
 70
     1
  9
$DIMTVP
 40
0.0
  9
$DIMTIX
 70
     0
  9
$DIMSOXD
 70
     0
  9
$DIMSAH
 70
     0
  9
$DIMBLK1
  1

  9
$DIMBLK2
  1

  9
$DIMSTYLE
  2
H035
  9
$DIMCLRD
 70
   256
  9
$DIMCLRE
 70
     7
  9
$DIMCLRT
 70
     7
  9
$DIMTFAC
 40
1.0
  9
$DIMGAP
 40
0.5
  9
$DIMJUST
 70
     0
  9
$DIMSD1
 70
     0
  9
$DIMSD2
 70
     0
  9
$DIMTOLJ
 70
     1
  9
$DIMTZIN
 70
     0
  9
$DIMALTZ
 70
     0
  9
$DIMALTTZ
 70
     0
  9
$DIMUPT
 70
     0
  9
$DIMDEC
 70
     0
  9
$DIMTDEC
 70
     2
  9
$DIMALTU
 70
     8
  9
$DIMALTTD
 70
     4
  9
$DIMTXSTY
  7
Standard
  9
$DIMAUNIT
 70
     0
  9
$DIMADEC
 70
     0
  9
$DIMALTRND
 40
0.0
  9
$DIMAZIN
 70
     0
  9
$DIMDSEP
 70
    46
  9
$DIMATFIT
 70
     3
  9
$DIMFRAC
 70
     0
  9
$DIMLDRBLK
  1

  9
$DIMLUNIT
 70
     2
  9
$DIMLWD
 70
    -2
  9
$DIMLWE
 70
    -2
  9
$DIMTMOVE
 70
     0
  9
$LUNITS
 70
     2
  9
$LUPREC
 70
     4
  9
$SKETCHINC
 40
0.1
  9
$FILLETRAD
 40
0.5
  9
$AUNITS
 70
     0
  9
$AUPREC
 70
     0
  9
$MENU
  1
.
  9
$ELEVATION
 40
0.0
  9
$PELEVATION
 40
0.0
  9
$THICKNESS
 40
0.0
  9
$LIMCHECK
 70
     0
  9
$CHAMFERA
 40
0.0
  9
$CHAMFERB
 40
0.0
  9
$CHAMFERC
 40
0.0
  9
$CHAMFERD
 40
0.0
  9
$SKPOLY
 70
     0
  9
$TDCREATE
 40
2452829.417613079
  9
$TDUCREATE
 40
2452829.375946412
  9
$TDUPDATE
 40
2453424.697162257
  9
$TDUUPDATE
 40
2453424.655495590
  9
$TDINDWG
 40
2.4648542824
  9
$TDUSRTIMER
 40
2.4648477778
  9
$USRTIMER
 70
     1
  9
$ANGBASE
 50
0.0
  9
$ANGDIR
 70
     0
  9
$PDMODE
 70
     0
  9
$PDSIZE
 40
0.0
  9
$PLINEWID
 40
0.0
  9
$SPLFRAME
 70
     0
  9
$SPLINETYPE
 70
     6
  9
$SPLINESEGS
 70
     8
  9
$HANDSEED
  5
10747
  9
$SURFTAB1
 70
     6
  9
$SURFTAB2
 70
     6
  9
$SURFTYPE
 70
     6
  9
$SURFU
 70
     6
  9
$SURFV
 70
     6
  9
$UCSBASE
  2

  9
$UCSNAME
  2

  9
$UCSORG
 10
0.0
 20
0.0
 30
0.0
  9
$UCSXDIR
 10
1.0
 20
0.0
 30
0.0
  9
$UCSYDIR
 10
0.0
 20
1.0
 30
0.0
  9
$UCSORTHOREF
  2

  9
$UCSORTHOVIEW
 70
     0
  9
$UCSORGTOP
 10
0.0
 20
0.0
 30
0.0
  9
$UCSORGBOTTOM
 10
0.0
 20
0.0
 30
0.0
  9
$UCSORGLEFT
 10
0.0
 20
0.0
 30
0.0
  9
$UCSORGRIGHT
 10
0.0
 20
0.0
 30
0.0
  9
$UCSORGFRONT
 10
0.0
 20
0.0
 30
0.0
  9
$UCSORGBACK
 10
0.0
 20
0.0
 30
0.0
  9
$PUCSBASE
  2

  9
$PUCSNAME
  2

  9
$PUCSORG
 10
0.0
 20
0.0
 30
0.0
  9
$PUCSXDIR
 10
1.0
 20
0.0
 30
0.0
  9
$PUCSYDIR
 10
0.0
 20
1.0
 30
0.0
  9
$PUCSORTHOREF
  2

  9
$PUCSORTHOVIEW
 70
     0
  9
$PUCSORGTOP
 10
0.0
 20
0.0
 30
0.0
  9
$PUCSORGBOTTOM
 10
0.0
 20
0.0
 30
0.0
  9
$PUCSORGLEFT
 10
0.0
 20
0.0
 30
0.0
  9
$PUCSORGRIGHT
 10
0.0
 20
0.0
 30
0.0
  9
$PUCSORGFRONT
 10
0.0
 20
0.0
 30
0.0
  9
$PUCSORGBACK
 10
0.0
 20
0.0
 30
0.0
  9
$USERI1
 70
     0
  9
$USERI2
 70
     0
  9
$USERI3
 70
     0
  9
$USERI4
 70
     0
  9
$USERI5
 70
     0
  9
$USERR1
 40
0.0
  9
$USERR2
 40
0.0
  9
$USERR3
 40
0.0
  9
$USERR4
 40
0.0
  9
$USERR5
 40
0.0
  9
$WORLDVIEW
 70
     1
  9
$SHADEDGE
 70
     3
  9
$SHADEDIF
 70
    70
  9
$TILEMODE
 70
     1
  9
$MAXACTVP
 70
    64
  9
$PINSBASE
 10
0.0
 20
0.0
 30
0.0
  9
$PLIMCHECK
 70
     0
  9
$PEXTMIN
 10
1.000000000000000E+20
 20
1.000000000000000E+20
 30
1.000000000000000E+20
  9
$PEXTMAX
 10
-1.000000000000000E+20
 20
-1.000000000000000E+20
 30
-1.000000000000000E+20
  9
$PLIMMIN
 10
0.0
 20
0.0
  9
$PLIMMAX
 10
12.0
 20
9.0
  9
$UNITMODE
 70
     0
  9
$VISRETAIN
 70
     1
  9
$PLINEGEN
 70
     0
  9
$PSLTSCALE
 70
     1
  9
$TREEDEPTH
 70
  3020
  9
$CMLSTYLE
  2
Standard
  9
$CMLJUST
 70
     0
  9
$CMLSCALE
 40
1.0
  9
$PROXYGRAPHICS
 70
     1
  9
$MEASUREMENT
 70
     0
  9
$CELWEIGHT
370
    -1
  9
$ENDCAPS
280
     0
  9
$JOINSTYLE
280
     0
  9
$LWDISPLAY
290
     0
  9
$INSUNITS
 70
     0
  9
$HYPERLINKBASE
  1

  9
$STYLESHEET
  1
MONOCHROME.CTB
  9
$XEDIT
290
     1
  9
$CEPSNTYPE
380
     0
  9
$PSTYLEMODE
290
     1
  9
$FINGERPRINTGUID
  2
{D88032C4-1185-41D3-97DD-7638FCF99E3F}
  9
$VERSIONGUID
  2
{70AD55E0-8054-4BCD-9746-59263CD79DA0}
  9
$EXTNAMES
290
     1
  9
$PSVPSCALE
 40
0.0
  9
$OLESTARTUP
290
     0
  0
ENDSEC
  0
SECTION
  2
CLASSES
  0
CLASS
  1
ACDBDICTIONARYWDFLT
  2
AcDbDictionaryWithDefault
  3
ObjectDBX Classes
 90
        0
280
     0
281
     0
  0
CLASS
  1
DICTIONARYVAR
  2
AcDbDictionaryVar
  3
ObjectDBX Classes
 90
        0
280
     0
281
     0
  0
CLASS
  1
ACDBPLACEHOLDER
  2
AcDbPlaceHolder
  3
ObjectDBX Classes
 90
        0
280
     0
281
     0
  0
CLASS
  1
LAYOUT
  2
AcDbLayout
  3
ObjectDBX Classes
 90
        0
280
     0
281
     0
  0
ENDSEC
  0
SECTION
  2
TABLES
  0
TABLE
  2
VPORT
  5
8
330
0
100
AcDbSymbolTable
 70
     2
  0
VPORT
  5
1073E
330
8
100
AcDbSymbolTableRecord
100
AcDbViewportTableRecord
  2
*Active
 70
     0
 10
0.0
 20
0.0
 11
1.0
 21
1.0
 12
13.88792855344457
 22
708.6481037313941
 13
0.0
 23
0.0
 14
1.0
 24
1.0
 15
0.0
 25
0.0
 16
0.0
 26
0.0
 36
1.0
 17
0.0
 27
0.0
 37
0.0
 40
278.9028595248883
 41
1.571994715984147
 42
50.0
 43
0.0
 44
0.0
 50
0.0
 51
0.0
 71
     0
 72
   100
 73
     1
 74
     1
 75
     0
 76
     0
 77
     0
 78
     0
281
     0
 65
     1
110
0.0
120
0.0
130
0.0
111
1.0
121
0.0
131
0.0
112
0.0
122
1.0
132
0.0
 79
     0
146
0.0
  0
ENDTAB
  0
TABLE
  2
LTYPE
  5
5
330
0
100
AcDbSymbolTable
 70
     3
  0
LTYPE
  5
13
330
5
100
AcDbSymbolTableRecord
100
AcDbLinetypeTableRecord
  2
ByBlock
 70
     0
  3

 72
    65
 73
     0
 40
0.0
  0
LTYPE
  5
14
330
5
100
AcDbSymbolTableRecord
100
AcDbLinetypeTableRecord
  2
ByLayer
 70
     0
  3

 72
    65
 73
     0
 40
0.0
  0
LTYPE
  5
15
330
5
100
AcDbSymbolTableRecord
100
AcDbLinetypeTableRecord
  2
CONTINUOUS
 70
     0
  3
Solid line
 72
    65
 73
     0
 40
0.0
  0
LTYPE
  5
26
330
5
100
AcDbSymbolTableRecord
100
AcDbLinetypeTableRecord
  2
CENTER
 70
     0
  3
____ _ ____ _ ____ _ ____ _ ____ _ ____ _ ____
 72
    65
 73
     4
 40
0.6
 49
0.375
 74
     0
 49
-0.075
 74
     0
 49
0.075
 74
     0
 49
-0.075
 74
     0
  0
LTYPE
  5
4F7A
330
5
100
AcDbSymbolTableRecord
100
AcDbLinetypeTableRecord
  2
DASHED
 70
     0
  3
_ _ _ _ _ _ _ _ _ _ _ _ _ _ _ _ _ _ _ _ _ _ _ _
 72
    65
 73
     2
 40
0.375
 49
0.25
 74
     0
 49
-0.125
 74
     0
  0
ENDTAB
  0
TABLE
  2
LAYER
  5
2
330
0
100
AcDbSymbolTable
 70
    10
  0
LAYER
  5
10
330
2
100
AcDbSymbolTableRecord
100
AcDbLayerTableRecord
  2
0
 70
     0
 62
     7
  6
CONTINUOUS
370
    -3
390
F
  0
LAYER
  5
1D8
330
2
100
AcDbSymbolTableRecord
100
AcDbLayerTableRecord
  2
Defpoints
 70
     0
 62
     7
  6
CONTINUOUS
290
     0
370
    -3
390
F
  0
LAYER
  5
1D9
330
2
100
AcDbSymbolTableRecord
100
AcDbLayerTableRecord
  2
91000_TIP
 70
     0
 62
     7
  6
CONTINUOUS
370
    -3
390
F
  0
LAYER
  5
1DA
330
2
100
AcDbSymbolTableRecord
100
AcDbLayerTableRecord
  2
11000_Left
 70
     0
 62
     7
  6
CONTINUOUS
370
    -3
390
F
  0
LAYER
  5
1DB
330
2
100
AcDbSymbolTableRecord
100
AcDbLayerTableRecord
  2
10000_FRONT
 70
     0
 62
     7
  6
CONTINUOUS
370
    -3
390
F
  0
LAYER
  5
1DC
330
2
100
AcDbSymbolTableRecord
100
AcDbLayerTableRecord
  2
10100_FRONT_DIM
 70
     0
 62
     7
  6
CONTINUOUS
370
    -3
390
F
  0
LAYER
  5
1DD
330
2
100
AcDbSymbolTableRecord
100
AcDbLayerTableRecord
  2
90000_FRAME
 70
     0
 62
     7
  6
CONTINUOUS
370
    -3
390
F
  0
LAYER
  5
1DE
330
2
100
AcDbSymbolTableRecord
100
AcDbLayerTableRecord
  2
11100_LEFT_DIM
 70
     0
 62
     7
  6
CONTINUOUS
370
    -3
390
F
  0
LAYER
  5
CB80
330
2
100
AcDbSymbolTableRecord
100
AcDbLayerTableRecord
  2
30000_Drilling
 70
     0
 62
     7
  6
CONTINUOUS
370
    -3
390
F
  0
LAYER
  5
CB81
330
2
100
AcDbSymbolTableRecord
100
AcDbLayerTableRecord
  2
30100_Drilling_Dim
 70
     0
 62
     7
  6
CONTINUOUS
370
    -3
390
F
  0
ENDTAB
  0
TABLE
  2
STYLE
  5
3
330
0
100
AcDbSymbolTable
 70
     1
  0
STYLE
  5
11
330
3
100
AcDbSymbolTableRecord
100
AcDbTextStyleTableRecord
  2
Standard
 70
     0
 40
0.0
 41
1.0
 50
0.0
 71
     0
 42
0.2
  3
txt
  4

  0
ENDTAB
  0
TABLE
  2
VIEW
  5
6
330
0
100
AcDbSymbolTable
 70
     0
  0
ENDTAB
  0
TABLE
  2
UCS
  5
7
330
0
100
AcDbSymbolTable
 70
     0
  0
ENDTAB
  0
TABLE
  2
APPID
  5
9
330
0
100
AcDbSymbolTable
 70
     3
  0
APPID
  5
12
330
9
100
AcDbSymbolTableRecord
100
AcDbRegAppTableRecord
  2
ACAD
 70
     0
  0
APPID
  5
1E8
330
9
100
AcDbSymbolTableRecord
100
AcDbRegAppTableRecord
  2
AUSTER_ANSICHT
 70
     0
  0
APPID
  5
1E9
330
9
100
AcDbSymbolTableRecord
100
AcDbRegAppTableRecord
  2
AUSTER_FOLIE
 70
     0
  0
ENDTAB
  0
TABLE
  2
DIMSTYLE
  5
A
330
0
100
AcDbSymbolTable
 70
     2
100
AcDbDimStyleTable
 71
     2
340
3A1A
340
BA
  0
DIMSTYLE
105
BA
330
A
100
AcDbSymbolTableRecord
100
AcDbDimStyleTableRecord
  2
Standard
 70
     0
340
11
  0
DIMSTYLE
105
3A1A
102
{ACAD_REACTORS
330
1018E
330
1018D
330
1018C
330
103EE
330
103E1
330
103C6
330
101E5
330
101F2
102
}
330
A
100
AcDbSymbolTableRecord
100
AcDbDimStyleTableRecord
  2
H035
 70
     0
 40
0.0
 41
3.5
 42
0.0
 43
3.75
 44
2.0
 73
     0
 74
     0
 77
     1
 78
     8
140
3.5
141
2.5
143
0.039
147
0.5
171
     4
172
     1
176
   256
177
     7
178
     7
271
     0
272
     2
273
     8
274
     4
340
11
  0
ENDTAB
  0
TABLE
  2
BLOCK_RECORD
  5
1
330
0
100
AcDbSymbolTable
 70
     9
  0
BLOCK_RECORD
  5
20
330
1
100
AcDbSymbolTableRecord
100
AcDbBlockTableRecord
  2
*Model_Space
340
23
  0
BLOCK_RECORD
  5
1C
330
1
100
AcDbSymbolTableRecord
100
AcDbBlockTableRecord
  2
*Paper_Space
340
1F
  0
BLOCK_RECORD
  5
3A
330
1
100
AcDbSymbolTableRecord
100
AcDbBlockTableRecord
  2
SIEMENS_OUTLINE_BL0
340
0
102
{BLKREFS
331
10171
102
}
  0
BLOCK_RECORD
  5
1018F
330
1
100
AcDbSymbolTableRecord
100
AcDbBlockTableRecord
  2
*D1
340
0
  0
BLOCK_RECORD
  5
1019C
330
1
100
AcDbSymbolTableRecord
100
AcDbBlockTableRecord
  2
*D2
340
0
  0
BLOCK_RECORD
  5
101A9
330
1
100
AcDbSymbolTableRecord
100
AcDbBlockTableRecord
  2
*D3
340
0
  0
BLOCK_RECORD
  5
101E6
330
1
100
AcDbSymbolTableRecord
100
AcDbBlockTableRecord
  2
*D4
340
0
  0
BLOCK_RECORD
  5
101F3
330
1
100
AcDbSymbolTableRecord
100
AcDbBlockTableRecord
  2
*D5
340
0
  0
BLOCK_RECORD
  5
103C7
330
1
100
AcDbSymbolTableRecord
100
AcDbBlockTableRecord
  2
*D6
340
0
  0
BLOCK_RECORD
  5
103E2
330
1
100
AcDbSymbolTableRecord
100
AcDbBlockTableRecord
  2
*D7
340
0
  0
BLOCK_RECORD
  5
103EF
330
1
100
AcDbSymbolTableRecord
100
AcDbBlockTableRecord
  2
*D8
340
0
  0
ENDTAB
  0
ENDSEC
  0
SECTION
  2
BLOCKS
  0
BLOCK
  5
21
330
20
100
AcDbEntity
  8
0
100
AcDbBlockBegin
  2
*Model_Space
 70
     0
 10
0.0
 20
0.0
 30
0.0
  3
*Model_Space
  1

  0
ENDBLK
  5
22
330
20
100
AcDbEntity
  8
0
100
AcDbBlockEnd
  0
BLOCK
  5
1D
330
1C
100
AcDbEntity
 67
     1
  8
0
100
AcDbBlockBegin
  2
*Paper_Space
 70
     0
 10
0.0
 20
0.0
 30
0.0
  3
*Paper_Space
  1

  0
ENDBLK
  5
1E
330
1C
100
AcDbEntity
 67
     1
  8
0
100
AcDbBlockEnd
  0
BLOCK
  5
3B
330
3A
100
AcDbEntity
  8
0
  6
Continuous
 62
     7
100
AcDbBlockBegin
  2
SIEMENS_OUTLINE_BL0
 70
     0
 10
0.0
 20
0.0
 30
0.0
  3
SIEMENS_OUTLINE_BL0
  1

  0
LINE
  5
3C
330
3A
100
AcDbEntity
  8
0
  6
Continuous
 62
     7
100
AcDbLine
 10
289.1235341257
 20
21.4969115175
 30
0.0
 11
289.1235341257
 21
16.7436424342
 31
0.0
  0
LINE
  5
3D
330
3A
100
AcDbEntity
  8
0
  6
Continuous
 62
     7
100
AcDbLine
 10
290.5495148507
 20
21.4969115175
 30
0.0
 11
290.5495148507
 21
16.7436424342
 31
0.0
  0
LINE
  5
3E
330
3A
100
AcDbEntity
  8
0
  6
Continuous
 62
     7
100
AcDbLine
 10
289.1235341257
 20
16.7436424342
 30
0.0
 11
290.5495148507
 21
16.7436424342
 31
0.0
  0
LINE
  5
3F
330
3A
100
AcDbEntity
  8
0
  6
Continuous
 62
     7
100
AcDbLine
 10
289.1235341257
 20
21.4969115175
 30
0.0
 11
290.5495148507
 21
21.4969115175
 31
0.0
  0
LINE
  5
40
330
3A
100
AcDbEntity
  8
0
  6
Continuous
 62
     7
100
AcDbLine
 10
291.6427667399
 20
21.4969115175
 30
0.0
 11
291.6427667399
 21
16.7436424342
 31
0.0
  0
LINE
  5
41
330
3A
100
AcDbEntity
  8
0
  6
Continuous
 62
     7
100
AcDbLine
 10
291.6427667399
 20
16.7436424342
 30
0.0
 11
295.2077185523
 21
16.7436424342
 31
0.0
  0
LINE
  5
42
330
3A
100
AcDbEntity
  8
0
  6
Continuous
 62
     7
100
AcDbLine
 10
295.2077185523
 20
17.64676356
 30
0.0
 11
293.021214774
 21
17.64676356
 31
0.0
  0
LINE
  5
43
330
3A
100
AcDbEntity
  8
0
  6
Continuous
 62
     7
100
AcDbLine
 10
295.2077185523
 20
17.64676356
 30
0.0
 11
295.2077185523
 21
16.7436424342
 31
0.0
  0
LINE
  5
44
330
3A
100
AcDbEntity
  8
0
  6
Continuous
 62
     7
100
AcDbLine
 10
295.1601858615
 20
21.4969115175
 30
0.0
 11
291.6427667399
 21
21.4969115175
 31
0.0
  0
LINE
  5
45
330
3A
100
AcDbEntity
  8
0
  6
Continuous
 62
     7
100
AcDbLine
 10
295.1601858615
 20
20.6175567371
 30
0.0
 11
293.021214774
 21
20.6175567371
 31
0.0
  0
LINE
  5
46
330
3A
100
AcDbEntity
  8
0
  6
Continuous
 62
     7
100
AcDbLine
 10
295.1601858615
 20
21.4969115175
 30
0.0
 11
295.1601858615
 21
20.6175567371
 31
0.0
  0
LINE
  5
47
330
3A
100
AcDbEntity
  8
0
  6
Continuous
 62
     7
100
AcDbLine
 10
294.8749897165
 20
18.7637817946
 30
0.0
 11
293.021214774
 21
18.7637817946
 31
0.0
  0
LINE
  5
48
330
3A
100
AcDbEntity
  8
0
  6
Continuous
 62
     7
100
AcDbLine
 10
294.8749897165
 20
19.5480711933
 30
0.0
 11
294.8749897165
 21
18.7637817946
 31
0.0
  0
LINE
  5
49
330
3A
100
AcDbEntity
  8
0
  6
Continuous
 62
     7
100
AcDbLine
 10
294.8749897165
 20
19.5480711933
 30
0.0
 11
293.021214774
 21
19.5480711933
 31
0.0
  0
LINE
  5
4A
330
3A
100
AcDbEntity
  8
0
  6
Continuous
 62
     7
100
AcDbLine
 10
293.021214774
 20
20.6175567371
 30
0.0
 11
293.021214774
 21
19.5480711933
 31
0.0
  0
LINE
  5
4B
330
3A
100
AcDbEntity
  8
0
  6
Continuous
 62
     7
100
AcDbLine
 10
293.021214774
 20
18.7637817946
 30
0.0
 11
293.021214774
 21
17.64676356
 31
0.0
  0
LINE
  5
4C
330
3A
100
AcDbEntity
  8
0
  6
Continuous
 62
     7
100
AcDbLine
 10
296.0157742965
 20
16.7436424342
 30
0.0
 11
296.0157742965
 21
21.4969115175
 31
0.0
  0
LINE
  5
4D
330
3A
100
AcDbEntity
  8
0
  6
Continuous
 62
     7
100
AcDbLine
 10
296.0157742965
 20
16.7436424342
 30
0.0
 11
296.9664281131
 21
16.7436424342
 31
0.0
  0
LINE
  5
4E
330
3A
100
AcDbEntity
  8
0
  6
Continuous
 62
     7
100
AcDbLine
 10
301.8622952689
 20
21.4969115175
 30
0.0
 11
301.8622952689
 21
16.7436424342
 31
0.0
  0
LINE
  5
4F
330
3A
100
AcDbEntity
  8
0
  6
Continuous
 62
     7
100
AcDbLine
 10
301.8622952689
 20
16.7436424342
 30
0.0
 11
300.4838472348
 21
16.7436424342
 31
0.0
  0
LINE
  5
50
330
3A
100
AcDbEntity
  8
0
  6
Continuous
 62
     7
100
AcDbLine
 10
298.2973434565
 20
16.6961097434
 30
0.0
 11
299.1529318914
 21
16.6961097434
 31
0.0
  0
LINE
  5
51
330
3A
100
AcDbEntity
  8
0
  6
Continuous
 62
     7
100
AcDbLine
 10
298.2973434565
 20
16.6961097434
 30
0.0
 11
296.9664281131
 21
19.7857346475
 31
0.0
  0
LINE
  5
52
330
3A
100
AcDbEntity
  8
0
  6
Continuous
 62
     7
100
AcDbLine
 10
296.9664281131
 20
16.7436424342
 30
0.0
 11
296.9664281131
 21
19.7857346475
 31
0.0
  0
LINE
  5
53
330
3A
100
AcDbEntity
  8
0
  6
Continuous
 62
     7
100
AcDbLine
 10
300.4838472348
 20
19.8332673383
 30
0.0
 11
299.1529318914
 21
16.6961097434
 31
0.0
  0
LINE
  5
54
330
3A
100
AcDbEntity
  8
0
  6
Continuous
 62
     7
100
AcDbLine
 10
297.7269511665
 20
21.4969115175
 30
0.0
 11
296.0157742965
 21
21.4969115175
 31
0.0
  0
LINE
  5
55
330
3A
100
AcDbEntity
  8
0
  6
Continuous
 62
     7
100
AcDbLine
 10
301.8622952689
 20
21.4969115175
 30
0.0
 11
300.1511183989
 21
21.4969115175
 31
0.0
  0
LINE
  5
56
330
3A
100
AcDbEntity
  8
0
  6
Continuous
 62
     7
100
AcDbLine
 10
297.7269511665
 20
21.4969115175
 30
0.0
 11
298.9628011281
 21
18.5974173767
 31
0.0
  0
LINE
  5
57
330
3A
100
AcDbEntity
  8
0
  6
Continuous
 62
     7
100
AcDbLine
 10
300.1511183989
 20
21.4969115175
 30
0.0
 11
298.9628011281
 21
18.5974173767
 31
0.0
  0
LINE
  5
58
330
3A
100
AcDbEntity
  8
0
  6
Continuous
 62
     7
100
AcDbLine
 10
300.4838472348
 20
19.8332673383
 30
0.0
 11
300.4838472348
 21
16.7436424342
 31
0.0
  0
LINE
  5
59
330
3A
100
AcDbEntity
  8
0
  6
Continuous
 62
     7
100
AcDbLine
 10
302.9555471581
 20
21.4969115175
 30
0.0
 11
302.9555471581
 21
16.7436424342
 31
0.0
  0
LINE
  5
5A
330
3A
100
AcDbEntity
  8
0
  6
Continuous
 62
     7
100
AcDbLine
 10
302.9555471581
 20
16.7436424342
 30
0.0
 11
306.5204989705
 21
16.7436424342
 31
0.0
  0
LINE
  5
5B
330
3A
100
AcDbEntity
  8
0
  6
Continuous
 62
     7
100
AcDbLine
 10
306.5204989705
 20
17.64676356
 30
0.0
 11
304.3339951922
 21
17.64676356
 31
0.0
  0
LINE
  5
5C
330
3A
100
AcDbEntity
  8
0
  6
Continuous
 62
     7
100
AcDbLine
 10
306.5204989705
 20
17.64676356
 30
0.0
 11
306.5204989705
 21
16.7436424342
 31
0.0
  0
LINE
  5
5D
330
3A
100
AcDbEntity
  8
0
  6
Continuous
 62
     7
100
AcDbLine
 10
306.4729662797
 20
21.4969115175
 30
0.0
 11
302.9555471581
 21
21.4969115175
 31
0.0
  0
LINE
  5
5E
330
3A
100
AcDbEntity
  8
0
  6
Continuous
 62
     7
100
AcDbLine
 10
306.4729662797
 20
20.6175567371
 30
0.0
 11
304.3339951922
 21
20.6175567371
 31
0.0
  0
LINE
  5
5F
330
3A
100
AcDbEntity
  8
0
  6
Continuous
 62
     7
100
AcDbLine
 10
306.4729662797
 20
21.4969115175
 30
0.0
 11
306.4729662797
 21
20.6175567371
 31
0.0
  0
LINE
  5
60
330
3A
100
AcDbEntity
  8
0
  6
Continuous
 62
     7
100
AcDbLine
 10
306.1877701347
 20
18.7637817946
 30
0.0
 11
304.3339951922
 21
18.7637817946
 31
0.0
  0
LINE
  5
61
330
3A
100
AcDbEntity
  8
0
  6
Continuous
 62
     7
100
AcDbLine
 10
306.1877701347
 20
19.5480711933
 30
0.0
 11
306.1877701347
 21
18.7637817946
 31
0.0
  0
LINE
  5
62
330
3A
100
AcDbEntity
  8
0
  6
Continuous
 62
     7
100
AcDbLine
 10
306.1877701347
 20
19.5480711933
 30
0.0
 11
304.3339951922
 21
19.5480711933
 31
0.0
  0
LINE
  5
63
330
3A
100
AcDbEntity
  8
0
  6
Continuous
 62
     7
100
AcDbLine
 10
304.3339951922
 20
20.6175567371
 30
0.0
 11
304.3339951922
 21
19.5480711933
 31
0.0
  0
LINE
  5
64
330
3A
100
AcDbEntity
  8
0
  6
Continuous
 62
     7
100
AcDbLine
 10
304.3339951922
 20
18.7637817946
 30
0.0
 11
304.3339951922
 21
17.64676356
 31
0.0
  0
LINE
  5
65
330
3A
100
AcDbEntity
  8
0
  6
Continuous
 62
     7
100
AcDbLine
 10
307.3047883693
 20
16.7436424342
 30
0.0
 11
307.3047883693
 21
21.4969115175
 31
0.0
  0
LINE
  5
66
330
3A
100
AcDbEntity
  8
0
  6
Continuous
 62
     7
100
AcDbLine
 10
311.4876651625
 20
21.4969115175
 30
0.0
 11
311.4876651625
 21
16.7436424342
 31
0.0
  0
LINE
  5
67
330
3A
100
AcDbEntity
  8
0
  6
Continuous
 62
     7
100
AcDbLine
 10
307.3047883693
 20
16.7436424342
 30
0.0
 11
308.2554421859
 21
16.7436424342
 31
0.0
  0
LINE
  5
68
330
3A
100
AcDbEntity
  8
0
  6
Continuous
 62
     7
100
AcDbLine
 10
311.4876651625
 20
21.4969115175
 30
0.0
 11
310.5370113459
 21
21.4969115175
 31
0.0
  0
LINE
  5
69
330
3A
100
AcDbEntity
  8
0
  6
Continuous
 62
     7
100
AcDbLine
 10
308.8496008213
 20
21.4969115175
 30
0.0
 11
307.3047883693
 21
21.4969115175
 31
0.0
  0
LINE
  5
6A
330
3A
100
AcDbEntity
  8
0
  6
Continuous
 62
     7
100
AcDbLine
 10
311.4876651625
 20
16.7436424342
 30
0.0
 11
309.9666190559
 21
16.7436424342
 31
0.0
  0
LINE
  5
6B
330
3A
100
AcDbEntity
  8
0
  6
Continuous
 62
     7
100
AcDbLine
 10
309.9666190559
 20
16.7436424342
 30
0.0
 11
308.2554421859
 21
19.7857346475
 31
0.0
  0
LINE
  5
6C
330
3A
100
AcDbEntity
  8
0
  6
Continuous
 62
     7
100
AcDbLine
 10
308.8496008213
 20
21.4969115175
 30
0.0
 11
310.5370113459
 21
18.5498846858
 31
0.0
  0
LINE
  5
6D
330
3A
100
AcDbEntity
  8
0
  6
Continuous
 62
     7
100
AcDbLine
 10
310.5370113459
 20
21.4969115175
 30
0.0
 11
310.5370113459
 21
18.5498846858
 31
0.0
  0
LINE
  5
6E
330
3A
100
AcDbEntity
  8
0
  6
Continuous
 62
     7
100
AcDbLine
 10
308.2554421859
 20
16.7436424342
 30
0.0
 11
308.2554421859
 21
19.7857346475
 31
0.0
  0
LINE
  5
6F
330
3A
100
AcDbEntity
  8
0
  6
Continuous
 62
     7
100
AcDbLine
 10
312.2957209067
 20
16.8387078159
 30
0.0
 11
312.2957209067
 21
17.7893616325
 31
0.0
  0
LINE
  5
70
330
3A
100
AcDbEntity
  8
0
  6
Continuous
 62
     7
100
AcDbLine
 10
315.623009265
 20
20.49872501
 30
0.0
 11
315.623009265
 21
21.4493788266
 31
0.0
  0
ARC
  5
71
330
3A
100
AcDbEntity
  8
0
  6
Continuous
 62
     7
100
AcDbCircle
 10
314.0003620317
 20
18.7008009792
 30
0.0
 40
1.111619360599997
100
AcDbArc
 50
277.7099956934
 51
295.6884927746
  0
ARC
  5
72
330
3A
100
AcDbEntity
  8
0
  6
Continuous
 62
     7
100
AcDbCircle
 10
314.2846720145
 20
17.9759752156
 30
0.0
 40
0.3401689265
100
AcDbArc
 50
305.503221255
 51
72.46528985229999
  0
ARC
  5
73
330
3A
100
AcDbEntity
  8
0
  6
Continuous
 62
     7
100
AcDbCircle
 10
313.7186782063
 20
21.3776821252
 30
0.0
 40
4.756794641099999
100
AcDbArc
 50
252.5939200548001
 51
280.9816604256
  0
ARC
  5
74
330
3A
100
AcDbEntity
  8
0
  6
Continuous
 62
     7
100
AcDbCircle
 10
314.1735135694
 20
18.7596683887
 30
0.0
 40
2.100726595299998
100
AcDbArc
 50
282.405835852
 51
311.8644433928
  0
ARC
  5
75
330
3A
100
AcDbEntity
  8
0
  6
Continuous
 62
     7
100
AcDbCircle
 10
313.8999492223
 20
20.3680101102
 30
0.0
 40
0.3029626476
100
AcDbArc
 50
154.4400348282
 51
221.8201698801
  0
ARC
  5
76
330
3A
100
AcDbEntity
  8
0
  6
Continuous
 62
     7
100
AcDbCircle
 10
313.9791703737
 20
20.2887889588
 30
0.0
 40
0.4103089737
100
AcDbArc
 50
102.8287828681
 51
149.2259639003
  0
ARC
  5
77
330
3A
100
AcDbEntity
  8
0
  6
Continuous
 62
     7
100
AcDbCircle
 10
314.3961972093
 20
18.546453629
 30
0.0
 40
2.201836557
100
AcDbArc
 50
84.0400061857
 51
103.3427657870999
  0
ARC
  5
78
330
3A
100
AcDbEntity
  8
0
  6
Continuous
 62
     7
100
AcDbCircle
 10
314.0552333846
 20
16.1290897051
 30
0.0
 40
4.642373736499997
100
AcDbArc
 50
70.2625858546
 51
82.95241863799999
  0
ARC
  5
79
330
3A
100
AcDbEntity
  8
0
  6
Continuous
 62
     7
100
AcDbCircle
 10
313.5412151824001
 20
20.8007125947
 30
0.0
 40
3.258755990899997
100
AcDbArc
 50
247.5300206145
 51
280.7579522143
  0
ARC
  5
7A
330
3A
100
AcDbEntity
  8
0
  6
Continuous
 62
     7
100
AcDbCircle
 10
307.1562487104
 20
2.5491926343
 30
0.0
 40
17.3316084133
100
AcDbArc
 50
65.34146746500001
 51
67.39977707359999
  0
ARC
  5
7B
330
3A
100
AcDbEntity
  8
0
  6
Continuous
 62
     7
100
AcDbCircle
 10
317.9521111158
 20
28.3416189974
 30
0.0
 40
10.6291642039
100
AcDbArc
 50
242.8620101252001
 51
247.1042029186
  0
ARC
  5
7C
330
3A
100
AcDbEntity
  8
0
  6
Continuous
 62
     7
100
AcDbCircle
 10
314.0972098893
 20
20.8076875004
 30
0.0
 40
2.166291629199998
100
AcDbArc
 50
227.3119280794
 51
242.7040315235
  0
ARC
  5
7D
330
3A
100
AcDbEntity
  8
0
  6
Continuous
 62
     7
100
AcDbCircle
 10
313.4931790796
 20
20.1020098596
 30
0.0
 40
1.238521734
100
AcDbArc
 50
194.7952194236
 51
225.7176549047
  0
ARC
  5
7E
330
3A
100
AcDbEntity
  8
0
  6
Continuous
 62
     7
100
AcDbCircle
 10
313.5553372138
 20
20.1422298287
 30
0.0
 40
1.309092072899999
100
AcDbArc
 50
164.1974860461
 51
195.8025139539
  0
ARC
  5
7F
330
3A
100
AcDbEntity
  8
0
  6
Continuous
 62
     7
100
AcDbCircle
 10
314.1123609345001
 20
19.2539626688
 30
0.0
 40
2.366924815299999
100
AcDbArc
 50
86.22180229280001
 51
120.4272602309
  0
ARC
  5
80
330
3A
100
AcDbEntity
  8
0
  6
Continuous
 62
     7
100
AcDbCircle
 10
313.8435041519
 20
12.5577948477
 30
0.0
 40
9.0679051661
100
AcDbArc
 50
78.68270492259998
 51
87.3147599624
  0
ARC
  5
81
330
3A
100
AcDbEntity
  8
0
  6
Continuous
 62
     7
100
AcDbCircle
 10
313.3874349735
 20
20.2497375912
 30
0.0
 40
1.119747444
100
AcDbArc
 50
142.813917903
 51
167.1522951417
  0
ARC
  5
82
330
3A
100
AcDbEntity
  8
0
  6
Continuous
 62
     7
100
AcDbCircle
 10
313.7327443151
 20
19.9431558946
 30
0.0
 40
1.580546684499998
100
AcDbArc
 50
121.2140948535
 51
141.5254768286
  0
ARC
  5
83
330
3A
100
AcDbEntity
  8
0
  6
Continuous
 62
     7
100
AcDbCircle
 10
314.3099186807
 20
20.7542132232
 30
0.0
 40
0.8661276051999998
100
AcDbArc
 50
222.7760387596
 51
239.0362434679
  0
ARC
  5
84
330
3A
100
AcDbEntity
  8
0
  6
Continuous
 62
     7
100
AcDbCircle
 10
311.8032091024
 20
13.4239410246
 30
0.0
 40
6.858773576299999
100
AcDbArc
 50
59.90202725600001
 51
68.2036481279
  0
ARC
  5
85
330
3A
100
AcDbEntity
  8
0
  6
Continuous
 62
     7
100
AcDbCircle
 10
315.2117035963
 20
22.3498275319
 30
0.0
 40
2.698741017099999
100
AcDbArc
 50
240.0481997804
 51
251.3779673736999
  0
ARC
  5
86
330
3A
100
AcDbEntity
  8
0
  6
Continuous
 62
     7
100
AcDbCircle
 10
314.5462464295
 20
18.1929289165
 30
0.0
 40
1.4334474881
100
AcDbArc
 50
315.8904553224
 51
333.5229264373
  0
ARC
  5
87
330
3A
100
AcDbEntity
  8
0
  6
Continuous
 62
     7
100
AcDbCircle
 10
314.5508846732
 20
18.1395217664
 30
0.0
 40
1.406228711899998
100
AcDbArc
 50
335.3867972702
 51
24.3915119402
  0
ARC
  5
88
330
3A
100
AcDbEntity
  8
0
  6
Continuous
 62
     7
100
AcDbCircle
 10
314.4786797697
 20
18.0616650746
 30
0.0
 40
1.504702514799999
100
AcDbArc
 50
25.95629166050001
 51
59.4834829668
  0
LINE
  5
89
330
3A
100
AcDbEntity
  8
0
  6
Continuous
 62
     7
100
AcDbLine
 10
284.7029938783
 20
16.8387078159
 30
0.0
 11
284.7029938783
 21
17.7893616325
 31
0.0
  0
LINE
  5
8A
330
3A
100
AcDbEntity
  8
0
  6
Continuous
 62
     7
100
AcDbLine
 10
288.0302822366
 20
20.49872501
 30
0.0
 11
288.0302822366
 21
21.4493788266
 31
0.0
  0
ARC
  5
8B
330
3A
100
AcDbEntity
  8
0
  6
Continuous
 62
     7
100
AcDbCircle
 10
286.4076350033
 20
18.7008009792
 30
0.0
 40
1.111619360599997
100
AcDbArc
 50
277.7099956934
 51
295.6884927746
  0
ARC
  5
8C
330
3A
100
AcDbEntity
  8
0
  6
Continuous
 62
     7
100
AcDbCircle
 10
286.691944986
 20
17.9759752156
 30
0.0
 40
0.3401689265
100
AcDbArc
 50
305.5032212556
 51
72.4652898515
  0
ARC
  5
8D
330
3A
100
AcDbEntity
  8
0
  6
Continuous
 62
     7
100
AcDbCircle
 10
286.1259511779
 20
21.3776821252
 30
0.0
 40
4.756794641099999
100
AcDbArc
 50
252.5939200545
 51
280.9816604253
  0
ARC
  5
8E
330
3A
100
AcDbEntity
  8
0
  6
Continuous
 62
     7
100
AcDbCircle
 10
286.580786541
 20
18.7596683887
 30
0.0
 40
2.100726595299998
100
AcDbArc
 50
282.4058358513
 51
311.8644433923
  0
ARC
  5
8F
330
3A
100
AcDbEntity
  8
0
  6
Continuous
 62
     7
100
AcDbCircle
 10
286.3072221939
 20
20.3680101102
 30
0.0
 40
0.3029626476
100
AcDbArc
 50
154.4400348282
 51
221.8201698801
  0
ARC
  5
90
330
3A
100
AcDbEntity
  8
0
  6
Continuous
 62
     7
100
AcDbCircle
 10
286.3864433453
 20
20.2887889588
 30
0.0
 40
0.4103089737
100
AcDbArc
 50
102.8287828727
 51
149.2259639027
  0
ARC
  5
91
330
3A
100
AcDbEntity
  8
0
  6
Continuous
 62
     7
100
AcDbCircle
 10
286.8034701809
 20
18.546453629
 30
0.0
 40
2.201836557
100
AcDbArc
 50
84.0400061859
 51
103.3427657872
  0
ARC
  5
92
330
3A
100
AcDbEntity
  8
0
  6
Continuous
 62
     7
100
AcDbCircle
 10
286.4625063562
 20
16.1290897051
 30
0.0
 40
4.642373736499997
100
AcDbArc
 50
70.2625858546
 51
82.9524186379
  0
ARC
  5
93
330
3A
100
AcDbEntity
  8
0
  6
Continuous
 62
     7
100
AcDbCircle
 10
285.948488154
 20
20.8007125947
 30
0.0
 40
3.258755990899997
100
AcDbArc
 50
247.5300206148
 51
280.7579522145
  0
ARC
  5
94
330
3A
100
AcDbEntity
  8
0
  6
Continuous
 62
     7
100
AcDbCircle
 10
279.563521682
 20
2.5491926343
 30
0.0
 40
17.3316084133
100
AcDbArc
 50
65.34146746500001
 51
67.39977707359999
  0
ARC
  5
95
330
3A
100
AcDbEntity
  8
0
  6
Continuous
 62
     7
100
AcDbCircle
 10
290.3593840874
 20
28.3416189974
 30
0.0
 40
10.6291642039
100
AcDbArc
 50
242.8620101252001
 51
247.1042029185
  0
ARC
  5
96
330
3A
100
AcDbEntity
  8
0
  6
Continuous
 62
     7
100
AcDbCircle
 10
286.5044828608
 20
20.8076875004
 30
0.0
 40
2.166291629199998
100
AcDbArc
 50
227.3119280794
 51
242.7040315235
  0
ARC
  5
97
330
3A
100
AcDbEntity
  8
0
  6
Continuous
 62
     7
100
AcDbCircle
 10
285.9004520512
 20
20.1020098596
 30
0.0
 40
1.238521734
100
AcDbArc
 50
194.7952194234
 51
225.7176549042
  0
ARC
  5
98
330
3A
100
AcDbEntity
  8
0
  6
Continuous
 62
     7
100
AcDbCircle
 10
286.519633906
 20
19.2539626688
 30
0.0
 40
2.366924815299999
100
AcDbArc
 50
86.22180229280001
 51
120.4272602309
  0
ARC
  5
99
330
3A
100
AcDbEntity
  8
0
  6
Continuous
 62
     7
100
AcDbCircle
 10
286.2507771235
 20
12.5577948477
 30
0.0
 40
9.0679051661
100
AcDbArc
 50
78.68270492259998
 51
87.3147599624
  0
ARC
  5
9A
330
3A
100
AcDbEntity
  8
0
  6
Continuous
 62
     7
100
AcDbCircle
 10
286.1400172867
 20
19.9431558946
 30
0.0
 40
1.580546684599998
100
AcDbArc
 50
121.2140948541
 51
141.525476829
  0
ARC
  5
9B
330
3A
100
AcDbEntity
  8
0
  6
Continuous
 62
     7
100
AcDbCircle
 10
286.7171916523
 20
20.7542132232
 30
0.0
 40
0.8661276051999998
100
AcDbArc
 50
222.7760387596
 51
239.0362434679
  0
ARC
  5
9C
330
3A
100
AcDbEntity
  8
0
  6
Continuous
 62
     7
100
AcDbCircle
 10
284.210482074
 20
13.4239410246
 30
0.0
 40
6.858773576299999
100
AcDbArc
 50
59.90202725620001
 51
68.20364812820002
  0
ARC
  5
9D
330
3A
100
AcDbEntity
  8
0
  6
Continuous
 62
     7
100
AcDbCircle
 10
287.6189765678
 20
22.3498275319
 30
0.0
 40
2.698741017099999
100
AcDbArc
 50
240.0481997804
 51
251.3779673734
  0
ARC
  5
9E
330
3A
100
AcDbEntity
  8
0
  6
Continuous
 62
     7
100
AcDbCircle
 10
286.953519401
 20
18.1929289165
 30
0.0
 40
1.4334474881
100
AcDbArc
 50
315.8904553226
 51
333.5229264375
  0
ARC
  5
9F
330
3A
100
AcDbEntity
  8
0
  6
Continuous
 62
     7
100
AcDbCircle
 10
286.9581576447
 20
18.1395217664
 30
0.0
 40
1.406228711899998
100
AcDbArc
 50
335.3867972703
 51
24.3915119403
  0
ARC
  5
A0
330
3A
100
AcDbEntity
  8
0
  6
Continuous
 62
     7
100
AcDbCircle
 10
286.8859527412
 20
18.0616650746
 30
0.0
 40
1.504702514699999
100
AcDbArc
 50
25.9562916611
 51
59.4834829676
  0
LINE
  5
A1
330
3A
100
AcDbEntity
  8
0
  6
Continuous
 62
     7
100
AcDbLine
 10
284.8948224676
 20
20.9161059766
 30
0.0
 11
285.1688882922
 21
21.1901790542
 31
0.0
  0
ARC
  5
A2
330
3A
100
AcDbEntity
  8
0
  6
Continuous
 62
     7
100
AcDbCircle
 10
285.9626101853
 20
20.1422298287
 30
0.0
 40
1.309092072899999
100
AcDbArc
 50
164.1974860461
 51
195.8025139539
  0
ARC
  5
A3
330
3A
100
AcDbEntity
  8
0
  6
Continuous
 62
     7
100
AcDbCircle
 10
285.7947079451
 20
20.2497375912
 30
0.0
 40
1.119747444
100
AcDbArc
 50
142.813917903
 51
167.1522951417
  0
ENDBLK
  5
A4
330
3A
100
AcDbEntity
  8
0
100
AcDbBlockEnd
  0
BLOCK
  5
1019A
330
1018F
100
AcDbEntity
  8
0
100
AcDbBlockBegin
  2
*D1
 70
     1
 10
0.0
 20
0.0
 30
0.0
  3
*D1
  1

  0
LINE
  5
101DA
330
1018F
100
AcDbEntity
  8
30100_Drilling_Dim
  6
Continuous
 62
     7
370
    -2
100
AcDbLine
 10
188.2950624591085
 20
792.0191165423918
 30
0.0
 11
116.5338668003013
 21
792.0191165423918
 31
0.0
  0
LINE
  5
101DB
330
1018F
100
AcDbEntity
  8
30100_Drilling_Dim
  6
Continuous
 62
     7
370
    -2
100
AcDbLine
 10
128.7950624591085
 20
682.0164165423919
 30
0.0
 11
116.5338668003013
 21
682.0164165423919
 31
0.0
  0
LINE
  5
101DC
330
1018F
100
AcDbEntity
  8
30100_Drilling_Dim
  6
Continuous
370
    -2
100
AcDbLine
 10
118.5338668003013
 20
788.5191165423917
 30
0.0
 11
118.5338668003013
 21
741.7260998757252
 31
0.0
  0
LINE
  5
101DD
330
1018F
100
AcDbEntity
  8
30100_Drilling_Dim
  6
Continuous
370
    -2
100
AcDbLine
 10
118.5338668003013
 20
685.5164165423919
 30
0.0
 11
118.5338668003013
 21
732.3094332090585
 31
0.0
  0
SOLID
  5
101DE
330
1018F
100
AcDbEntity
  8
30100_Drilling_Dim
  6
Continuous
100
AcDbTrace
 10
117.950533466968
 20
788.5191165423917
 30
0.0
 11
119.1172001336347
 21
788.5191165423917
 31
0.0
 12
118.5338668003013
 22
792.0191165423918
 32
0.0
 13
118.5338668003013
 23
792.0191165423918
 33
0.0
  0
SOLID
  5
101DF
330
1018F
100
AcDbEntity
  8
30100_Drilling_Dim
  6
Continuous
100
AcDbTrace
 10
117.950533466968
 20
685.5164165423919
 30
0.0
 11
119.1172001336346
 21
685.5164165423919
 31
0.0
 12
118.5338668003013
 22
682.0164165423919
 32
0.0
 13
118.5338668003013
 23
682.0164165423919
 33
0.0
  0
MTEXT
  5
101E0
330
1018F
100
AcDbEntity
  8
30100_Drilling_Dim
  6
Continuous
 62
     7
370
    13
100
AcDbMText
 10
118.5338668003012
 20
737.0177665423917
 30
0.0
 40
3.5
 41
0.0
 71
     5
 72
     1
  1
\A1;110
 11
0.0000000000000001
 21
1.0
 31
0.0
 73
     1
 44
1.0
1001
ACAD
1000
MTEXTBEGIN
1070
    73
1070
     1
1070
    44
1040
1.0
1070
    74
1070
     0
1000
MTEXTEND
  0
POINT
  5
101E1
330
1018F
100
AcDbEntity
  8
Defpoints
  6
Continuous
 62
     0
100
AcDbPoint
 10
188.2950624591085
 20
792.0191165423918
 30
0.0
  0
POINT
  5
101E2
330
1018F
100
AcDbEntity
  8
Defpoints
  6
Continuous
 62
     0
100
AcDbPoint
 10
128.7950624591085
 20
682.0164165423919
 30
0.0
  0
POINT
  5
101E3
330
1018F
100
AcDbEntity
  8
Defpoints
  6
Continuous
 62
     0
100
AcDbPoint
 10
118.5338668003013
 20
682.0164165423919
 30
0.0
  0
ENDBLK
  5
1019B
330
1018F
100
AcDbEntity
  8
0
100
AcDbBlockEnd
  0
BLOCK
  5
101A7
330
1019C
100
AcDbEntity
  8
0
100
AcDbBlockBegin
  2
*D2
 70
     1
 10
0.0
 20
0.0
 30
0.0
  3
*D2
  1

  0
LINE
  5
101D0
330
1019C
100
AcDbEntity
  8
30100_Drilling_Dim
  6
Continuous
 62
     7
370
    -2
100
AcDbLine
 10
131.2950624591085
 20
684.5164165423917
 30
0.0
 11
131.2950624591085
 21
803.3160564185617
 31
0.0
  0
LINE
  5
101D1
330
1019C
100
AcDbEntity
  8
30100_Drilling_Dim
  6
Continuous
 62
     7
370
    -2
100
AcDbLine
 10
190.7950624591085
 20
794.5191165423917
 30
0.0
 11
190.7950624591085
 21
803.3160564185617
 31
0.0
  0
LINE
  5
101D2
330
1019C
100
AcDbEntity
  8
30100_Drilling_Dim
  6
Continuous
370
    -2
100
AcDbLine
 10
134.7950624591085
 20
801.3160564185618
 30
0.0
 11
156.9200624591085
 21
801.3160564185618
 31
0.0
  0
LINE
  5
101D3
330
1019C
100
AcDbEntity
  8
30100_Drilling_Dim
  6
Continuous
370
    -2
100
AcDbLine
 10
187.2950624591085
 20
801.3160564185618
 30
0.0
 11
165.1700624591085
 21
801.3160564185618
 31
0.0
  0
SOLID
  5
101D4
330
1019C
100
AcDbEntity
  8
30100_Drilling_Dim
  6
Continuous
100
AcDbTrace
 10
134.7950624591085
 20
801.8993897518951
 30
0.0
 11
134.7950624591085
 21
800.7327230852283
 31
0.0
 12
131.2950624591085
 22
801.3160564185618
 32
0.0
 13
131.2950624591085
 23
801.3160564185618
 33
0.0
  0
SOLID
  5
101D5
330
1019C
100
AcDbEntity
  8
30100_Drilling_Dim
  6
Continuous
100
AcDbTrace
 10
187.2950624591085
 20
801.8993897518951
 30
0.0
 11
187.2950624591085
 21
800.7327230852283
 31
0.0
 12
190.7950624591085
 22
801.3160564185618
 32
0.0
 13
190.7950624591085
 23
801.3160564185618
 33
0.0
  0
MTEXT
  5
101D6
330
1019C
100
AcDbEntity
  8
30100_Drilling_Dim
  6
Continuous
 62
     7
370
    13
100
AcDbMText
 10
161.0450624591085
 20
801.3160564185618
 30
0.0
 40
3.5
 41
0.0
 71
     5
 72
     1
  1
\A1;60
 73
     1
 44
1.0
1001
ACAD
1000
MTEXTBEGIN
1070
    73
1070
     1
1070
    44
1040
1.0
1070
    74
1070
     0
1000
MTEXTEND
  0
POINT
  5
101D7
330
1019C
100
AcDbEntity
  8
Defpoints
  6
Continuous
 62
     0
100
AcDbPoint
 10
131.2950624591085
 20
684.5164165423917
 30
0.0
  0
POINT
  5
101D8
330
1019C
100
AcDbEntity
  8
Defpoints
  6
Continuous
 62
     0
100
AcDbPoint
 10
190.7950624591085
 20
794.5191165423917
 30
0.0
  0
POINT
  5
101D9
330
1019C
100
AcDbEntity
  8
Defpoints
  6
Continuous
 62
     0
100
AcDbPoint
 10
190.7950624591085
 20
801.3160564185618
 30
0.0
  0
ENDBLK
  5
101A8
330
1019C
100
AcDbEntity
  8
0
100
AcDbBlockEnd
  0
BLOCK
  5
101B2
330
101A9
100
AcDbEntity
  8
0
100
AcDbBlockBegin
  2
*D3
 70
     1
 10
0.0
 20
0.0
 30
0.0
  3
*D3
  1

  0
LINE
  5
101C8
330
101A9
100
AcDbEntity
  8
30100_Drilling_Dim
  6
Continuous
370
    -2
100
AcDbLine
 10
176.5642349394145
 20
787.1418336839562
 30
0.0
 11
185.1191594707671
 21
790.0738337179832
 31
0.0
  0
LINE
  5
101C9
330
101A9
100
AcDbEntity
  8
30100_Drilling_Dim
  6
Continuous
370
    -2
100
AcDbLine
 10
196.4709654474497
 20
793.9643993668002
 30
0.0
 11
199.7819088573154
 21
795.0991476810385
 31
0.0
  0
MTEXT
  5
101CA
330
101A9
100
AcDbEntity
  8
30100_Drilling_Dim
  6
Continuous
 62
     7
370
    13
100
AcDbMText
 10
172.3861396841077
 20
785.7098893826558
 30
0.0
 40
3.5
 41
0.0
 71
     5
 72
     1
  1
\A1;\U+22055
 11
0.9459838313902166
 21
0.3242138040680664
 31
0.0
 73
     1
 44
1.0
1001
ACAD
1000
MTEXTBEGIN
1070
    73
1070
     1
1070
    44
1040
1.0
1070
    74
1070
     0
1000
MTEXTEND
  0
LINE
  5
101CB
330
101A9
100
AcDbEntity
  8
30100_Drilling_Dim
  6
Continuous
370
    -2
100
AcDbLine
 10
193.1600220375839
 20
792.829651052562
 30
0.0
 11
188.430102880633
 21
791.2085820322215
 31
0.0
  0
SOLID
  5
101CC
330
101A9
100
AcDbEntity
  8
30100_Drilling_Dim
  6
Continuous
100
AcDbTrace
 10
196.28184072841
 20
794.5162232684448
 30
0.0
 11
196.6600901664894
 21
793.4125754651558
 31
0.0
 12
193.1600220375839
 22
792.829651052562
 32
0.0
 13
193.1600220375839
 23
792.829651052562
 33
0.0
  0
SOLID
  5
101CD
330
101A9
100
AcDbEntity
  8
30100_Drilling_Dim
  6
Continuous
100
AcDbTrace
 10
184.9300347517275
 20
790.6256576196276
 30
0.0
 11
185.3082841898069
 21
789.5220098163388
 31
0.0
 12
188.430102880633
 22
791.2085820322215
 32
0.0
 13
188.430102880633
 23
791.2085820322215
 33
0.0
  0
POINT
  5
101CE
330
101A9
100
AcDbEntity
  8
Defpoints
  6
Continuous
 62
     0
100
AcDbPoint
 10
188.430102880633
 20
791.2085820322215
 30
0.0
  0
POINT
  5
101CF
330
101A9
100
AcDbEntity
  8
Defpoints
  6
Continuous
 62
     0
100
AcDbPoint
 10
193.1600220375839
 20
792.829651052562
 30
0.0
  0
ENDBLK
  5
101B3
330
101A9
100
AcDbEntity
  8
0
100
AcDbBlockEnd
  0
BLOCK
  5
101F0
330
101E6
100
AcDbEntity
  8
0
100
AcDbBlockBegin
  2
*D4
 70
     1
 10
0.0
 20
0.0
 30
0.0
  3
*D4
  1

  0
LINE
  5
1044F
330
101E6
100
AcDbEntity
  8
10100_FRONT_DIM
  6
Continuous
 62
     7
370
    -2
100
AcDbLine
 10
-163.1722185283628
 20
678.5164165423918
 30
0.0
 11
-163.1722185283628
 21
663.8529679167247
 31
0.0
  0
LINE
  5
10450
330
101E6
100
AcDbEntity
  8
10100_FRONT_DIM
  6
Continuous
 62
     7
370
    -2
100
AcDbLine
 10
-93.17221852836286
 20
678.5164165423918
 30
0.0
 11
-93.17221852836286
 21
663.8529679167247
 31
0.0
  0
LINE
  5
10451
330
101E6
100
AcDbEntity
  8
10100_FRONT_DIM
  6
Continuous
370
    -2
100
AcDbLine
 10
-159.6722185283628
 20
665.852967916725
 30
0.0
 11
-132.2972185283628
 21
665.852967916725
 31
0.0
  0
LINE
  5
10452
330
101E6
100
AcDbEntity
  8
10100_FRONT_DIM
  6
Continuous
370
    -2
100
AcDbLine
 10
-96.67221852836286
 20
665.852967916725
 30
0.0
 11
-124.0472185283628
 21
665.852967916725
 31
0.0
  0
SOLID
  5
10453
330
101E6
100
AcDbEntity
  8
10100_FRONT_DIM
  6
Continuous
100
AcDbTrace
 10
-159.6722185283628
 20
666.4363012500582
 30
0.0
 11
-159.6722185283628
 21
665.2696345833916
 31
0.0
 12
-163.1722185283628
 22
665.852967916725
 32
0.0
 13
-163.1722185283628
 23
665.852967916725
 33
0.0
  0
SOLID
  5
10454
330
101E6
100
AcDbEntity
  8
10100_FRONT_DIM
  6
Continuous
100
AcDbTrace
 10
-96.67221852836286
 20
666.4363012500582
 30
0.0
 11
-96.67221852836286
 21
665.2696345833916
 31
0.0
 12
-93.17221852836286
 22
665.852967916725
 32
0.0
 13
-93.17221852836286
 23
665.852967916725
 33
0.0
  0
MTEXT
  5
10455
330
101E6
100
AcDbEntity
  8
10100_FRONT_DIM
  6
Continuous
 62
     7
370
    13
100
AcDbMText
 10
-128.1722185283628
 20
665.852967916725
 30
0.0
 40
3.5
 41
0.0
 71
     5
 72
     1
  1
\A1;70
 73
     1
 44
1.0
1001
ACAD
1000
MTEXTBEGIN
1070
    73
1070
     1
1070
    44
1040
1.0
1070
    74
1070
     0
1000
MTEXTEND
  0
POINT
  5
10456
330
101E6
100
AcDbEntity
  8
Defpoints
  6
Continuous
 62
     0
100
AcDbPoint
 10
-163.1722185283628
 20
678.5164165423918
 30
0.0
  0
POINT
  5
10457
330
101E6
100
AcDbEntity
  8
Defpoints
  6
Continuous
 62
     0
100
AcDbPoint
 10
-93.17221852836286
 20
678.5164165423918
 30
0.0
  0
POINT
  5
10458
330
101E6
100
AcDbEntity
  8
Defpoints
  6
Continuous
 62
     0
100
AcDbPoint
 10
-93.17221852836286
 20
665.852967916725
 30
0.0
  0
ENDBLK
  5
101F1
330
101E6
100
AcDbEntity
  8
0
100
AcDbBlockEnd
  0
BLOCK
  5
101FD
330
101F3
100
AcDbEntity
  8
0
100
AcDbBlockBegin
  2
*D5
 70
     1
 10
0.0
 20
0.0
 30
0.0
  3
*D5
  1

  0
LINE
  5
10459
330
101F3
100
AcDbEntity
  8
10100_FRONT_DIM
  6
Continuous
 62
     7
370
    -2
100
AcDbLine
 10
-94.67221852836289
 20
797.0164165423917
 30
0.0
 11
-79.113388010187
 21
797.0164165423917
 31
0.0
  0
LINE
  5
1045A
330
101F3
100
AcDbEntity
  8
10100_FRONT_DIM
  6
Continuous
 62
     7
370
    -2
100
AcDbLine
 10
-94.67221852836289
 20
677.0164165423917
 30
0.0
 11
-79.113388010187
 21
677.0164165423917
 31
0.0
  0
LINE
  5
1045B
330
101F3
100
AcDbEntity
  8
10100_FRONT_DIM
  6
Continuous
370
    -2
100
AcDbLine
 10
-81.113388010187
 20
793.5164165423917
 30
0.0
 11
-81.113388010187
 21
742.3080832090585
 31
0.0
  0
LINE
  5
1045C
330
101F3
100
AcDbEntity
  8
10100_FRONT_DIM
  6
Continuous
370
    -2
100
AcDbLine
 10
-81.11338801018701
 20
680.5164165423917
 30
0.0
 11
-81.11338801018701
 21
731.7247498757252
 31
0.0
  0
SOLID
  5
1045D
330
101F3
100
AcDbEntity
  8
10100_FRONT_DIM
  6
Continuous
100
AcDbTrace
 10
-81.69672134352031
 20
793.5164165423917
 30
0.0
 11
-80.53005467685364
 21
793.5164165423917
 31
0.0
 12
-81.113388010187
 22
797.0164165423917
 32
0.0
 13
-81.113388010187
 23
797.0164165423917
 33
0.0
  0
SOLID
  5
1045E
330
101F3
100
AcDbEntity
  8
10100_FRONT_DIM
  6
Continuous
100
AcDbTrace
 10
-81.69672134352031
 20
680.5164165423917
 30
0.0
 11
-80.53005467685368
 21
680.5164165423917
 31
0.0
 12
-81.11338801018701
 22
677.0164165423917
 32
0.0
 13
-81.11338801018701
 23
677.0164165423917
 33
0.0
  0
MTEXT
  5
1045F
330
101F3
100
AcDbEntity
  8
10100_FRONT_DIM
  6
Continuous
 62
     7
370
    13
100
AcDbMText
 10
-81.11338801018712
 20
737.0164165423918
 30
0.0
 40
3.5
 41
0.0
 71
     5
 72
     1
  1
\A1;120
 11
0.0000000000000001
 21
1.0
 31
0.0
 73
     1
 44
1.0
1001
ACAD
1000
MTEXTBEGIN
1070
    73
1070
     1
1070
    44
1040
1.0
1070
    74
1070
     0
1000
MTEXTEND
  0
POINT
  5
10460
330
101F3
100
AcDbEntity
  8
Defpoints
  6
Continuous
 62
     0
100
AcDbPoint
 10
-94.67221852836289
 20
797.0164165423917
 30
0.0
  0
POINT
  5
10461
330
101F3
100
AcDbEntity
  8
Defpoints
  6
Continuous
 62
     0
100
AcDbPoint
 10
-94.67221852836289
 20
677.0164165423917
 30
0.0
  0
POINT
  5
10462
330
101F3
100
AcDbEntity
  8
Defpoints
  6
Continuous
 62
     0
100
AcDbPoint
 10
-81.11338801018701
 20
677.0164165423917
 30
0.0
  0
ENDBLK
  5
101FE
330
101F3
100
AcDbEntity
  8
0
100
AcDbBlockEnd
  0
BLOCK
  5
103D1
330
103C7
100
AcDbEntity
  8
0
100
AcDbBlockBegin
  2
*D6
 70
     1
 10
0.0
 20
0.0
 30
0.0
  3
*D6
  1

  0
LINE
  5
10445
330
103C7
100
AcDbEntity
  8
11100_LEFT_DIM
  6
Continuous
 62
     7
370
    -2
100
AcDbLine
 10
-35.82252496096939
 20
721.4191165423918
 30
0.0
 11
-35.82252496096939
 21
664.8150818482881
 31
0.0
  0
LINE
  5
10446
330
103C7
100
AcDbEntity
  8
11100_LEFT_DIM
  6
Continuous
 62
     7
370
    -2
100
AcDbLine
 10
22.55517503903062
 20
688.1691165423919
 30
0.0
 11
22.55517503903062
 21
664.8150818482881
 31
0.0
  0
LINE
  5
10447
330
103C7
100
AcDbEntity
  8
11100_LEFT_DIM
  6
Continuous
370
    -2
100
AcDbLine
 10
-32.32252496096939
 20
666.8150818482883
 30
0.0
 11
-11.05034162763605
 21
666.8150818482883
 31
0.0
  0
LINE
  5
10448
330
103C7
100
AcDbEntity
  8
11100_LEFT_DIM
  6
Continuous
370
    -2
100
AcDbLine
 10
19.05517503903061
 20
666.8150818482883
 30
0.0
 11
-2.21700829430272
 21
666.8150818482883
 31
0.0
  0
SOLID
  5
10449
330
103C7
100
AcDbEntity
  8
11100_LEFT_DIM
  6
Continuous
100
AcDbTrace
 10
-32.32252496096939
 20
667.3984151816214
 30
0.0
 11
-32.32252496096939
 21
666.2317485149547
 31
0.0
 12
-35.82252496096939
 22
666.8150818482883
 32
0.0
 13
-35.82252496096939
 23
666.8150818482883
 33
0.0
  0
SOLID
  5
1044A
330
103C7
100
AcDbEntity
  8
11100_LEFT_DIM
  6
Continuous
100
AcDbTrace
 10
19.05517503903061
 20
667.3984151816214
 30
0.0
 11
19.05517503903061
 21
666.2317485149547
 31
0.0
 12
22.55517503903062
 22
666.8150818482883
 32
0.0
 13
22.55517503903062
 23
666.8150818482883
 33
0.0
  0
MTEXT
  5
1044B
330
103C7
100
AcDbEntity
  8
11100_LEFT_DIM
  6
Continuous
 62
     7
370
    13
100
AcDbMText
 10
-6.633674960969387
 20
666.8150818482883
 30
0.0
 40
3.5
 41
0.0
 71
     5
 72
     1
  1
\A1;58
 73
     1
 44
1.0
1001
ACAD
1000
MTEXTBEGIN
1070
    73
1070
     1
1070
    44
1040
1.0
1070
    74
1070
     0
1000
MTEXTEND
  0
POINT
  5
1044C
330
103C7
100
AcDbEntity
  8
Defpoints
  6
Continuous
 62
     0
100
AcDbPoint
 10
-35.82252496096939
 20
721.4191165423918
 30
0.0
  0
POINT
  5
1044D
330
103C7
100
AcDbEntity
  8
Defpoints
  6
Continuous
 62
     0
100
AcDbPoint
 10
22.55517503903062
 20
688.1691165423919
 30
0.0
  0
POINT
  5
1044E
330
103C7
100
AcDbEntity
  8
Defpoints
  6
Continuous
 62
     0
100
AcDbPoint
 10
22.55517503903062
 20
666.8150818482883
 30
0.0
  0
ENDBLK
  5
103D2
330
103C7
100
AcDbEntity
  8
0
100
AcDbBlockEnd
  0
BLOCK
  5
103EC
330
103E2
100
AcDbEntity
  8
0
100
AcDbBlockBegin
  2
*D7
 70
     1
 10
0.0
 20
0.0
 30
0.0
  3
*D7
  1

  0
LINE
  5
1043B
330
103E2
100
AcDbEntity
  8
11100_LEFT_DIM
  6
Continuous
 62
     7
370
    -2
100
AcDbLine
 10
-35.82252496096939
 20
677.0191165423917
 30
0.0
 11
-35.82252496096939
 21
656.4329288051217
 31
0.0
  0
LINE
  5
1043C
330
103E2
100
AcDbEntity
  8
11100_LEFT_DIM
  6
Continuous
 62
     7
370
    -2
100
AcDbLine
 10
73.83457503903061
 20
712.8900165423917
 30
0.0
 11
73.83457503903061
 21
656.4329288051217
 31
0.0
  0
LINE
  5
1043D
330
103E2
100
AcDbEntity
  8
11100_LEFT_DIM
  6
Continuous
370
    -2
100
AcDbLine
 10
-32.32252496096939
 20
658.4329288051216
 30
0.0
 11
14.29769170569728
 21
658.4329288051216
 31
0.0
  0
LINE
  5
1043E
330
103E2
100
AcDbEntity
  8
11100_LEFT_DIM
  6
Continuous
370
    -2
100
AcDbLine
 10
70.33457503903061
 20
658.4329288051216
 30
0.0
 11
23.71435837236394
 21
658.4329288051216
 31
0.0
  0
SOLID
  5
1043F
330
103E2
100
AcDbEntity
  8
11100_LEFT_DIM
  6
Continuous
100
AcDbTrace
 10
-32.32252496096939
 20
659.0162621384551
 30
0.0
 11
-32.32252496096939
 21
657.8495954717882
 31
0.0
 12
-35.82252496096939
 22
658.4329288051216
 32
0.0
 13
-35.82252496096939
 23
658.4329288051216
 33
0.0
  0
SOLID
  5
10440
330
103E2
100
AcDbEntity
  8
11100_LEFT_DIM
  6
Continuous
100
AcDbTrace
 10
70.33457503903061
 20
659.0162621384551
 30
0.0
 11
70.33457503903061
 21
657.8495954717882
 31
0.0
 12
73.83457503903061
 22
658.4329288051216
 32
0.0
 13
73.83457503903061
 23
658.4329288051216
 33
0.0
  0
MTEXT
  5
10441
330
103E2
100
AcDbEntity
  8
11100_LEFT_DIM
  6
Continuous
 62
     7
370
    13
100
AcDbMText
 10
19.0060250390306
 20
658.4329288051216
 30
0.0
 40
3.5
 41
0.0
 71
     5
 72
     1
  1
\A1;110
 73
     1
 44
1.0
1001
ACAD
1000
MTEXTBEGIN
1070
    73
1070
     1
1070
    44
1040
1.0
1070
    74
1070
     0
1000
MTEXTEND
  0
POINT
  5
10442
330
103E2
100
AcDbEntity
  8
Defpoints
  6
Continuous
 62
     0
100
AcDbPoint
 10
-35.82252496096939
 20
677.0191165423917
 30
0.0
  0
POINT
  5
10443
330
103E2
100
AcDbEntity
  8
Defpoints
  6
Continuous
 62
     0
100
AcDbPoint
 10
73.83457503903061
 20
712.8900165423917
 30
0.0
  0
POINT
  5
10444
330
103E2
100
AcDbEntity
  8
Defpoints
  6
Continuous
 62
     0
100
AcDbPoint
 10
73.83457503903061
 20
658.4329288051216
 30
0.0
  0
ENDBLK
  5
103ED
330
103E2
100
AcDbEntity
  8
0
100
AcDbBlockEnd
  0
BLOCK
  5
103F9
330
103EF
100
AcDbEntity
  8
0
100
AcDbBlockBegin
  2
*D8
 70
     1
 10
0.0
 20
0.0
 30
0.0
  3
*D8
  1

  0
LINE
  5
10431
330
103EF
100
AcDbEntity
  8
11100_LEFT_DIM
  6
Continuous
 62
     7
370
    -2
100
AcDbLine
 10
-35.82252496096939
 20
677.0191165423917
 30
0.0
 11
-35.82252496096939
 21
648.4666708195414
 31
0.0
  0
LINE
  5
10432
330
103EF
100
AcDbEntity
  8
11100_LEFT_DIM
  6
Continuous
 62
     7
370
    -2
100
AcDbLine
 10
99.17897503903059
 20
735.7691165423918
 30
0.0
 11
99.17897503903059
 21
648.4666708195414
 31
0.0
  0
LINE
  5
10433
330
103EF
100
AcDbEntity
  8
11100_LEFT_DIM
  6
Continuous
370
    -2
100
AcDbLine
 10
-32.32252496096939
 20
650.4666708195412
 30
0.0
 11
26.09489170569728
 21
650.4666708195412
 31
0.0
  0
LINE
  5
10434
330
103EF
100
AcDbEntity
  8
11100_LEFT_DIM
  6
Continuous
370
    -2
100
AcDbLine
 10
95.6789750390306
 20
650.4666708195412
 30
0.0
 11
37.26155837236394
 21
650.4666708195412
 31
0.0
  0
SOLID
  5
10435
330
103EF
100
AcDbEntity
  8
11100_LEFT_DIM
  6
Continuous
100
AcDbTrace
 10
-32.32252496096939
 20
651.0500041528747
 30
0.0
 11
-32.32252496096939
 21
649.883337486208
 31
0.0
 12
-35.82252496096939
 22
650.4666708195412
 32
0.0
 13
-35.82252496096939
 23
650.4666708195412
 33
0.0
  0
SOLID
  5
10436
330
103EF
100
AcDbEntity
  8
11100_LEFT_DIM
  6
Continuous
100
AcDbTrace
 10
95.6789750390306
 20
651.0500041528747
 30
0.0
 11
95.6789750390306
 21
649.883337486208
 31
0.0
 12
99.17897503903059
 22
650.4666708195412
 32
0.0
 13
99.17897503903059
 23
650.4666708195412
 33
0.0
  0
MTEXT
  5
10437
330
103EF
100
AcDbEntity
  8
11100_LEFT_DIM
  6
Continuous
 62
     7
370
    13
100
AcDbMText
 10
31.67822503903061
 20
650.4666708195412
 30
0.0
 40
3.5
 41
0.0
 71
     5
 72
     1
  1
\A1;135
 73
     1
 44
1.0
1001
ACAD
1000
MTEXTBEGIN
1070
    73
1070
     1
1070
    44
1040
1.0
1070
    74
1070
     0
1000
MTEXTEND
  0
POINT
  5
10438
330
103EF
100
AcDbEntity
  8
Defpoints
  6
Continuous
 62
     0
100
AcDbPoint
 10
-35.82252496096939
 20
677.0191165423917
 30
0.0
  0
POINT
  5
10439
330
103EF
100
AcDbEntity
  8
Defpoints
  6
Continuous
 62
     0
100
AcDbPoint
 10
99.17897503903059
 20
735.7691165423918
 30
0.0
  0
POINT
  5
1043A
330
103EF
100
AcDbEntity
  8
Defpoints
  6
Continuous
 62
     0
100
AcDbPoint
 10
99.17897503903059
 20
650.4666708195412
 30
0.0
  0
ENDBLK
  5
103FA
330
103EF
100
AcDbEntity
  8
0
100
AcDbBlockEnd
  0
ENDSEC
  0
SECTION
  2
ENTITIES
  0
LINE
  5
FD4C
330
20
100
AcDbEntity
  8
11000_Left
  6
DASHED
 62
     7
370
    20
100
AcDbLine
 39
0.25
 10
67.85737503903061
 20
689.5550165423919
 30
0.0
 11
67.75567503903062
 21
688.8536165423918
 31
0.0
1001
AUSTER_ANSICHT
1002
{
1000
Det03
1002
}
1001
AUSTER_FOLIE
1002
{
1000
NSB00347_S3_WAGO
1002
}
  0
LINE
  5
FD4D
330
20
100
AcDbEntity
  8
10000_FRONT
  6
DASHED
 62
     7
370
    20
100
AcDbLine
 39
0.25
 10
-153.1722185283628
 20
678.5164165423918
 30
0.0
 11
-153.1722185283628
 21
684.5661165423919
 31
0.0
1001
AUSTER_ANSICHT
1002
{
1000
Det03
1002
}
1001
AUSTER_FOLIE
1002
{
1000
NSB00347_S3_WAGO
1002
}
  0
LINE
  5
FD4E
330
20
100
AcDbEntity
  8
10000_FRONT
  6
DASHED
 62
     7
370
    20
100
AcDbLine
 39
0.25
 10
-119.6706185283628
 20
749.7003165423917
 30
0.0
 11
-105.6706185283628
 21
749.7003165423917
 31
0.0
1001
AUSTER_ANSICHT
1002
{
1000
Det03
1002
}
1001
AUSTER_FOLIE
1002
{
1000
NSB00347_S3_WAGO
1002
}
  0
LINE
  5
FD4F
330
20
100
AcDbEntity
  8
10000_FRONT
  6
DASHED
 62
     7
370
    20
100
AcDbLine
 39
0.25
 10
-119.6706185283628
 20
728.3191165423918
 30
0.0
 11
-105.6706185283628
 21
728.3191165423918
 31
0.0
1001
AUSTER_ANSICHT
1002
{
1000
Det03
1002
}
1001
AUSTER_FOLIE
1002
{
1000
NSB00347_S3_WAGO
1002
}
  0
LINE
  5
FD50
330
20
100
AcDbEntity
  8
10000_FRONT
  6
DASHED
 62
     7
370
    20
100
AcDbLine
 39
0.25
 10
-112.2079185283628
 20
732.921916542392
 30
0.0
 11
-111.6202185283628
 21
735.1153165423918
 31
0.0
1001
AUSTER_ANSICHT
1002
{
1000
Det03
1002
}
1001
AUSTER_FOLIE
1002
{
1000
NSB00347_S3_WAGO
1002
}
  0
LINE
  5
FD51
330
20
100
AcDbEntity
  8
10000_FRONT
  6
DASHED
 62
     7
370
    20
100
AcDbLine
 39
0.25
 10
-111.3536185283628
 20
736.1102165423918
 30
0.0
 11
-110.7659185283628
 21
738.3035165423917
 31
0.0
1001
AUSTER_ANSICHT
1002
{
1000
Det03
1002
}
1001
AUSTER_FOLIE
1002
{
1000
NSB00347_S3_WAGO
1002
}
  0
LINE
  5
FD52
330
20
100
AcDbEntity
  8
10000_FRONT
  6
DASHED
 62
     7
370
    20
100
AcDbLine
 39
0.25
 10
-111.9333185283628
 20
738.6163165423917
 30
0.0
 11
-112.5210185283628
 21
736.4230165423918
 31
0.0
1001
AUSTER_ANSICHT
1002
{
1000
Det03
1002
}
1001
AUSTER_FOLIE
1002
{
1000
NSB00347_S3_WAGO
1002
}
  0
LINE
  5
FD53
330
20
100
AcDbEntity
  8
10000_FRONT
  6
DASHED
 62
     7
370
    20
100
AcDbLine
 39
0.25
 10
-112.7876185283628
 20
735.4281165423917
 30
0.0
 11
-113.3753185283628
 21
733.2347165423917
 31
0.0
1001
AUSTER_ANSICHT
1002
{
1000
Det03
1002
}
1001
AUSTER_FOLIE
1002
{
1000
NSB00347_S3_WAGO
1002
}
  0
LINE
  5
FD54
330
20
100
AcDbEntity
  8
10000_FRONT
  6
DASHED
 62
     7
370
    20
100
AcDbLine
 39
0.25
 10
-113.9202185283628
 20
735.7316165423918
 30
0.0
 11
-112.9617185283628
 21
735.4747165423917
 31
0.0
1001
AUSTER_ANSICHT
1002
{
1000
Det03
1002
}
1001
AUSTER_FOLIE
1002
{
1000
NSB00347_S3_WAGO
1002
}
  0
LINE
  5
FD55
330
20
100
AcDbEntity
  8
10000_FRONT
  6
DASHED
 62
     7
370
    20
100
AcDbLine
 39
0.25
 10
-112.6951185283628
 20
736.4696165423918
 30
0.0
 11
-113.6536185283627
 21
736.7265165423917
 31
0.0
1001
AUSTER_ANSICHT
1002
{
1000
Det03
1002
}
1001
AUSTER_FOLIE
1002
{
1000
NSB00347_S3_WAGO
1002
}
  0
LINE
  5
FD56
330
20
100
AcDbEntity
  8
10000_FRONT
  6
DASHED
 62
     7
370
    20
100
AcDbLine
 39
0.25
 10
-110.2210185283628
 20
735.8067165423918
 30
0.0
 11
-111.1795185283628
 21
736.0635165423917
 31
0.0
1001
AUSTER_ANSICHT
1002
{
1000
Det03
1002
}
1001
AUSTER_FOLIE
1002
{
1000
NSB00347_S3_WAGO
1002
}
  0
LINE
  5
FD57
330
20
100
AcDbEntity
  8
10000_FRONT
  6
DASHED
 62
     7
370
    20
100
AcDbLine
 39
0.25
 10
-111.4460185283628
 20
735.0686165423918
 30
0.0
 11
-110.4876185283629
 21
734.8118165423918
 31
0.0
1001
AUSTER_ANSICHT
1002
{
1000
Det03
1002
}
1001
AUSTER_FOLIE
1002
{
1000
NSB00347_S3_WAGO
1002
}
  0
LINE
  5
FD58
330
20
100
AcDbEntity
  8
10000_FRONT
  6
DASHED
 62
     7
370
    20
100
AcDbLine
 39
0.25
 10
-112.6951185283628
 20
736.4696165423918
 30
0.0
 11
-112.5210185283628
 21
736.4230165423918
 31
0.0
1001
AUSTER_ANSICHT
1002
{
1000
Det03
1002
}
1001
AUSTER_FOLIE
1002
{
1000
NSB00347_S3_WAGO
1002
}
  0
LINE
  5
FD59
330
20
100
AcDbEntity
  8
10000_FRONT
  6
DASHED
 62
     7
370
    20
100
AcDbLine
 39
0.25
 10
-111.1795185283628
 20
736.0635165423917
 30
0.0
 11
-111.3536185283628
 21
736.1102165423918
 31
0.0
1001
AUSTER_ANSICHT
1002
{
1000
Det03
1002
}
1001
AUSTER_FOLIE
1002
{
1000
NSB00347_S3_WAGO
1002
}
  0
LINE
  5
FD5A
330
20
100
AcDbEntity
  8
10000_FRONT
  6
DASHED
 62
     7
370
    20
100
AcDbLine
 39
0.25
 10
-112.9617185283628
 20
735.4747165423917
 30
0.0
 11
-112.7876185283628
 21
735.4281165423917
 31
0.0
1001
AUSTER_ANSICHT
1002
{
1000
Det03
1002
}
1001
AUSTER_FOLIE
1002
{
1000
NSB00347_S3_WAGO
1002
}
  0
LINE
  5
FD5B
330
20
100
AcDbEntity
  8
10000_FRONT
  6
DASHED
 62
     7
370
    20
100
AcDbLine
 39
0.25
 10
-111.4460185283628
 20
735.0686165423918
 30
0.0
 11
-111.6202185283628
 21
735.1153165423918
 31
0.0
1001
AUSTER_ANSICHT
1002
{
1000
Det03
1002
}
1001
AUSTER_FOLIE
1002
{
1000
NSB00347_S3_WAGO
1002
}
  0
LINE
  5
FD5C
330
20
100
AcDbEntity
  8
10000_FRONT
  6
DASHED
 62
     7
370
    20
100
AcDbLine
 39
0.25
 10
-111.4510185283628
 20
744.5690165423918
 30
0.0
 11
-111.4510185283628
 21
747.1682165423918
 31
0.0
1001
AUSTER_ANSICHT
1002
{
1000
Det03
1002
}
1001
AUSTER_FOLIE
1002
{
1000
NSB00347_S3_WAGO
1002
}
  0
LINE
  5
FD5D
330
20
100
AcDbEntity
  8
10000_FRONT
  6
DASHED
 62
     7
370
    20
100
AcDbLine
 39
0.25
 10
-110.6902185283628
 20
744.5690165423918
 30
0.0
 11
-110.6902185283628
 21
747.1682165423918
 31
0.0
1001
AUSTER_ANSICHT
1002
{
1000
Det03
1002
}
1001
AUSTER_FOLIE
1002
{
1000
NSB00347_S3_WAGO
1002
}
  0
LINE
  5
FD5E
330
20
100
AcDbEntity
  8
10000_FRONT
  6
DASHED
 62
     7
370
    20
100
AcDbLine
 39
0.25
 10
-111.3706185283628
 20
747.1682165423918
 30
0.0
 11
-111.3706185283628
 21
744.5690165423918
 31
0.0
1001
AUSTER_ANSICHT
1002
{
1000
Det03
1002
}
1001
AUSTER_FOLIE
1002
{
1000
NSB00347_S3_WAGO
1002
}
  0
LINE
  5
FD5F
330
20
100
AcDbEntity
  8
10000_FRONT
  6
DASHED
 62
     7
370
    20
100
AcDbLine
 39
0.25
 10
-110.7706185283628
 20
744.5690165423918
 30
0.0
 11
-110.7706185283628
 21
747.1682165423918
 31
0.0
1001
AUSTER_ANSICHT
1002
{
1000
Det03
1002
}
1001
AUSTER_FOLIE
1002
{
1000
NSB00347_S3_WAGO
1002
}
  0
LINE
  5
FD60
330
20
100
AcDbEntity
  8
10000_FRONT
  6
DASHED
 62
     7
370
    20
100
AcDbLine
 39
0.25
 10
-114.5706185283628
 20
747.1691165423918
 30
0.0
 11
-109.5706185283628
 21
747.1691165423918
 31
0.0
1001
AUSTER_ANSICHT
1002
{
1000
Det03
1002
}
1001
AUSTER_FOLIE
1002
{
1000
NSB00347_S3_WAGO
1002
}
  0
LINE
  5
FD61
330
20
100
AcDbEntity
  8
10000_FRONT
  6
DASHED
 62
     7
370
    20
100
AcDbLine
 39
0.25
 10
-109.5706185283628
 20
747.1691165423918
 30
0.0
 11
-109.5706185283628
 21
744.5691165423918
 31
0.0
1001
AUSTER_ANSICHT
1002
{
1000
Det03
1002
}
1001
AUSTER_FOLIE
1002
{
1000
NSB00347_S3_WAGO
1002
}
  0
LINE
  5
FD62
330
20
100
AcDbEntity
  8
10000_FRONT
  6
DASHED
 62
     7
370
    20
100
AcDbLine
 39
0.25
 10
-109.5706185283628
 20
744.5691165423918
 30
0.0
 11
-114.5706185283628
 21
744.5691165423918
 31
0.0
1001
AUSTER_ANSICHT
1002
{
1000
Det03
1002
}
1001
AUSTER_FOLIE
1002
{
1000
NSB00347_S3_WAGO
1002
}
  0
LINE
  5
FD63
330
20
100
AcDbEntity
  8
10000_FRONT
  6
DASHED
 62
     7
370
    20
100
AcDbLine
 39
0.25
 10
-114.5706185283628
 20
744.5691165423918
 30
0.0
 11
-114.5706185283628
 21
747.1691165423918
 31
0.0
1001
AUSTER_ANSICHT
1002
{
1000
Det03
1002
}
1001
AUSTER_FOLIE
1002
{
1000
NSB00347_S3_WAGO
1002
}
  0
LINE
  5
FD64
330
20
100
AcDbEntity
  8
10000_FRONT
  6
DASHED
 62
     7
370
    20
100
AcDbLine
 39
0.25
 10
-105.6706185283628
 20
758.4191165423918
 30
0.0
 11
-105.6706185283628
 21
749.7003165423917
 31
0.0
1001
AUSTER_ANSICHT
1002
{
1000
Det03
1002
}
1001
AUSTER_FOLIE
1002
{
1000
NSB00347_S3_WAGO
1002
}
  0
LINE
  5
FD65
330
20
100
AcDbEntity
  8
10000_FRONT
  6
DASHED
 62
     7
370
    20
100
AcDbLine
 39
0.25
 10
-105.6706185283628
 20
749.7003165423917
 30
0.0
 11
-105.6706185283628
 21
728.3191165423918
 31
0.0
1001
AUSTER_ANSICHT
1002
{
1000
Det03
1002
}
1001
AUSTER_FOLIE
1002
{
1000
NSB00347_S3_WAGO
1002
}
  0
LINE
  5
FD66
330
20
100
AcDbEntity
  8
10000_FRONT
  6
DASHED
 62
     7
370
    20
100
AcDbLine
 39
0.25
 10
-150.6706185283628
 20
765.266116542392
 30
0.0
 11
-150.6706185283628
 21
713.9213165423917
 31
0.0
1001
AUSTER_ANSICHT
1002
{
1000
Det03
1002
}
1001
AUSTER_FOLIE
1002
{
1000
NSB00347_S3_WAGO
1002
}
  0
LINE
  5
FD67
330
20
100
AcDbEntity
  8
10000_FRONT
  6
DASHED
 62
     7
370
    20
100
AcDbLine
 39
0.25
 10
-105.6706185283628
 20
728.3191165423918
 30
0.0
 11
-105.6705185283628
 21
713.9191165423918
 31
0.0
1001
AUSTER_ANSICHT
1002
{
1000
Det03
1002
}
1001
AUSTER_FOLIE
1002
{
1000
NSB00347_S3_WAGO
1002
}
  0
LINE
  5
FD68
330
20
100
AcDbEntity
  8
10000_FRONT
  6
DASHED
 62
     7
370
    20
100
AcDbLine
 39
0.25
 10
-149.6706185283628
 20
712.9213165423918
 30
0.0
 11
-106.6706185283628
 21
712.9192165423918
 31
0.0
1001
AUSTER_ANSICHT
1002
{
1000
Det03
1002
}
1001
AUSTER_FOLIE
1002
{
1000
NSB00347_S3_WAGO
1002
}
  0
LINE
  5
FD6A
330
20
100
AcDbEntity
  8
10000_FRONT
  6
DASHED
 62
     7
370
    20
100
AcDbLine
 39
0.25
 10
-144.2665185283628
 20
684.5661165423919
 30
0.0
 11
-160.0165185283628
 21
684.5661165423919
 31
0.0
1001
AUSTER_ANSICHT
1002
{
1000
Det03
1002
}
1001
AUSTER_FOLIE
1002
{
1000
NSB00347_S3_WAGO
1002
}
  0
LINE
  5
FD6B
330
20
100
AcDbEntity
  8
10000_FRONT
  6
Continuous
 62
     7
370
    50
100
AcDbLine
 39
0.7
 10
-161.6665185283628
 20
773.766116542392
 30
0.0
 11
-94.66651852836289
 21
773.7663165423918
 31
0.0
1001
AUSTER_ANSICHT
1002
{
1000
Det03
1002
}
1001
AUSTER_FOLIE
1002
{
1000
NSB00347_S3_WAGO
1002
}
  0
LINE
  5
FD6C
330
20
100
AcDbEntity
  8
10000_FRONT
  6
Continuous
 62
     7
370
    20
100
AcDbLine
 39
0.25
 10
-131.4222185283627
 20
677.4164165423917
 30
0.0
 11
-131.4222185283627
 21
683.7164165423919
 31
0.0
1001
AUSTER_ANSICHT
1002
{
1000
Det03
1002
}
1001
AUSTER_FOLIE
1002
{
1000
NSB00347_S3_WAGO
1002
}
  0
LINE
  5
FD6D
330
20
100
AcDbEntity
  8
10000_FRONT
  6
Continuous
 62
     7
370
    20
100
AcDbLine
 39
0.25
 10
-124.9222185283628
 20
683.7164165423919
 30
0.0
 11
-124.9222185283628
 21
677.4164165423917
 31
0.0
1001
AUSTER_ANSICHT
1002
{
1000
Det03
1002
}
1001
AUSTER_FOLIE
1002
{
1000
NSB00347_S3_WAGO
1002
}
  0
LINE
  5
FD6E
330
20
100
AcDbEntity
  8
10000_FRONT
  6
DASHED
 62
     7
370
    20
100
AcDbLine
 39
0.25
 10
-160.8167185283628
 20
688.1661165423918
 30
0.0
 11
-95.51651852836284
 21
688.1661165423918
 31
0.0
1001
AUSTER_ANSICHT
1002
{
1000
Det03
1002
}
1001
AUSTER_FOLIE
1002
{
1000
NSB00347_S3_WAGO
1002
}
  0
LINE
  5
FD6F
330
20
100
AcDbEntity
  8
10000_FRONT
  6
DASHED
 62
     7
370
    20
100
AcDbLine
 39
0.25
 10
-150.6706185283628
 20
765.266116542392
 30
0.0
 11
-105.6706185283628
 21
765.266116542392
 31
0.0
1001
AUSTER_ANSICHT
1002
{
1000
Det03
1002
}
1001
AUSTER_FOLIE
1002
{
1000
NSB00347_S3_WAGO
1002
}
  0
LINE
  5
FD70
330
20
100
AcDbEntity
  8
10000_FRONT
  6
DASHED
 62
     7
370
    20
100
AcDbLine
 39
0.25
 10
-105.6706185283628
 20
765.266116542392
 30
0.0
 11
-105.6706185283628
 21
749.7003165423917
 31
0.0
1001
AUSTER_ANSICHT
1002
{
1000
Det03
1002
}
1001
AUSTER_FOLIE
1002
{
1000
NSB00347_S3_WAGO
1002
}
  0
LINE
  5
FD73
330
20
100
AcDbEntity
  8
10000_FRONT
  6
DASHED
 62
     7
370
    20
100
AcDbLine
 39
0.25
 10
-104.5087185283628
 20
700.0847165423918
 30
0.0
 11
-103.3540185283629
 21
698.0847165423917
 31
0.0
1001
AUSTER_ANSICHT
1002
{
1000
Det03
1002
}
1001
AUSTER_FOLIE
1002
{
1000
NSB00347_S3_WAGO
1002
}
  0
LINE
  5
FD74
330
20
100
AcDbEntity
  8
10000_FRONT
  6
DASHED
 62
     7
370
    20
100
AcDbLine
 39
0.25
 10
-104.5087185283628
 20
696.0847165423918
 30
0.0
 11
-103.3540185283629
 21
698.0847165423917
 31
0.0
1001
AUSTER_ANSICHT
1002
{
1000
Det03
1002
}
1001
AUSTER_FOLIE
1002
{
1000
NSB00347_S3_WAGO
1002
}
  0
LINE
  5
FD75
330
20
100
AcDbEntity
  8
10000_FRONT
  6
DASHED
 62
     7
370
    20
100
AcDbLine
 39
0.25
 10
-106.8181185283628
 20
700.0847165423918
 30
0.0
 11
-104.5087185283628
 21
700.0847165423918
 31
0.0
1001
AUSTER_ANSICHT
1002
{
1000
Det03
1002
}
1001
AUSTER_FOLIE
1002
{
1000
NSB00347_S3_WAGO
1002
}
  0
LINE
  5
FD76
330
20
100
AcDbEntity
  8
10000_FRONT
  6
DASHED
 62
     7
370
    20
100
AcDbLine
 39
0.25
 10
-106.8181185283628
 20
696.0847165423918
 30
0.0
 11
-104.5087185283628
 21
696.0847165423918
 31
0.0
1001
AUSTER_ANSICHT
1002
{
1000
Det03
1002
}
1001
AUSTER_FOLIE
1002
{
1000
NSB00347_S3_WAGO
1002
}
  0
LINE
  5
FD77
330
20
100
AcDbEntity
  8
10000_FRONT
  6
DASHED
 62
     7
370
    20
100
AcDbLine
 39
0.25
 10
-107.9728185283628
 20
698.0847165423917
 30
0.0
 11
-106.8181185283628
 21
700.0847165423918
 31
0.0
1001
AUSTER_ANSICHT
1002
{
1000
Det03
1002
}
1001
AUSTER_FOLIE
1002
{
1000
NSB00347_S3_WAGO
1002
}
  0
LINE
  5
FD78
330
20
100
AcDbEntity
  8
10000_FRONT
  6
DASHED
 62
     7
370
    20
100
AcDbLine
 39
0.25
 10
-107.9728185283628
 20
698.0847165423917
 30
0.0
 11
-106.8181185283628
 21
696.0847165423918
 31
0.0
1001
AUSTER_ANSICHT
1002
{
1000
Det03
1002
}
1001
AUSTER_FOLIE
1002
{
1000
NSB00347_S3_WAGO
1002
}
  0
LINE
  5
FD79
330
20
100
AcDbEntity
  8
10000_FRONT
  6
DASHED
 62
     7
370
    20
100
AcDbLine
 39
0.25
 10
-127.0118185283628
 20
696.0911165423917
 30
0.0
 11
-125.8571185283628
 21
698.0911165423917
 31
0.0
1001
AUSTER_ANSICHT
1002
{
1000
Det03
1002
}
1001
AUSTER_FOLIE
1002
{
1000
NSB00347_S3_WAGO
1002
}
  0
LINE
  5
FD7A
330
20
100
AcDbEntity
  8
10000_FRONT
  6
DASHED
 62
     7
370
    20
100
AcDbLine
 39
0.25
 10
-129.3212185283628
 20
696.0911165423917
 30
0.0
 11
-127.0118185283628
 21
696.0911165423917
 31
0.0
1001
AUSTER_ANSICHT
1002
{
1000
Det03
1002
}
1001
AUSTER_FOLIE
1002
{
1000
NSB00347_S3_WAGO
1002
}
  0
LINE
  5
FD7B
330
20
100
AcDbEntity
  8
10000_FRONT
  6
DASHED
 62
     7
370
    20
100
AcDbLine
 39
0.25
 10
-130.4759185283628
 20
698.0911165423917
 30
0.0
 11
-129.3212185283628
 21
696.0911165423917
 31
0.0
1001
AUSTER_ANSICHT
1002
{
1000
Det03
1002
}
1001
AUSTER_FOLIE
1002
{
1000
NSB00347_S3_WAGO
1002
}
  0
LINE
  5
FD7C
330
20
100
AcDbEntity
  8
10000_FRONT
  6
DASHED
 62
     7
370
    20
100
AcDbLine
 39
0.25
 10
-127.0118185283628
 20
700.0911165423917
 30
0.0
 11
-125.8571185283628
 21
698.0911165423917
 31
0.0
1001
AUSTER_ANSICHT
1002
{
1000
Det03
1002
}
1001
AUSTER_FOLIE
1002
{
1000
NSB00347_S3_WAGO
1002
}
  0
LINE
  5
FD7D
330
20
100
AcDbEntity
  8
10000_FRONT
  6
DASHED
 62
     7
370
    20
100
AcDbLine
 39
0.25
 10
-129.3212185283628
 20
700.0911165423917
 30
0.0
 11
-127.0118185283628
 21
700.0911165423917
 31
0.0
1001
AUSTER_ANSICHT
1002
{
1000
Det03
1002
}
1001
AUSTER_FOLIE
1002
{
1000
NSB00347_S3_WAGO
1002
}
  0
LINE
  5
FD7E
330
20
100
AcDbEntity
  8
10000_FRONT
  6
DASHED
 62
     7
370
    20
100
AcDbLine
 39
0.25
 10
-130.4759185283628
 20
698.0911165423917
 30
0.0
 11
-129.3212185283628
 21
700.0911165423917
 31
0.0
1001
AUSTER_ANSICHT
1002
{
1000
Det03
1002
}
1001
AUSTER_FOLIE
1002
{
1000
NSB00347_S3_WAGO
1002
}
  0
LINE
  5
FD7F
330
20
100
AcDbEntity
  8
10000_FRONT
  6
DASHED
 62
     7
370
    20
100
AcDbLine
 39
0.25
 10
-95.51651852836284
 20
688.1661165423918
 30
0.0
 11
-94.66651852836289
 21
688.1661165423918
 31
0.0
1001
AUSTER_ANSICHT
1002
{
1000
Det03
1002
}
1001
AUSTER_FOLIE
1002
{
1000
NSB00347_S3_WAGO
1002
}
  0
LINE
  5
FD86
330
20
100
AcDbEntity
  8
10000_FRONT
  6
DASHED
 62
     7
370
    20
100
AcDbLine
 39
0.25
 10
-160.8167185283628
 20
688.1661165423918
 30
0.0
 11
-161.6667185283628
 21
688.1661165423918
 31
0.0
1001
AUSTER_ANSICHT
1002
{
1000
Det03
1002
}
1001
AUSTER_FOLIE
1002
{
1000
NSB00347_S3_WAGO
1002
}
  0
LINE
  5
FD87
330
20
100
AcDbEntity
  8
10000_FRONT
  6
DASHED
 62
     7
370
    20
100
AcDbLine
 39
0.25
 10
-95.91651852836289
 20
687.7661165423918
 30
0.0
 11
-95.91651852836289
 21
684.9661165423919
 31
0.0
1001
AUSTER_ANSICHT
1002
{
1000
Det03
1002
}
1001
AUSTER_FOLIE
1002
{
1000
NSB00347_S3_WAGO
1002
}
  0
LINE
  5
FD88
330
20
100
AcDbEntity
  8
10000_FRONT
  6
DASHED
 62
     7
370
    20
100
AcDbLine
 39
0.25
 10
-160.4167185283628
 20
687.7661165423918
 30
0.0
 11
-160.4167185283628
 21
684.9661165423919
 31
0.0
1001
AUSTER_ANSICHT
1002
{
1000
Det03
1002
}
1001
AUSTER_FOLIE
1002
{
1000
NSB00347_S3_WAGO
1002
}
  0
LINE
  5
FD89
330
20
100
AcDbEntity
  8
10000_FRONT
  6
DASHED
 62
     7
370
    20
100
AcDbLine
 39
0.25
 10
-94.66651852836289
 20
705.2661165423918
 30
0.0
 11
-161.6665185283628
 21
705.2661165423918
 31
0.0
1001
AUSTER_ANSICHT
1002
{
1000
Det03
1002
}
1001
AUSTER_FOLIE
1002
{
1000
NSB00347_S3_WAGO
1002
}
  0
LINE
  5
FD8A
330
20
100
AcDbEntity
  8
10000_FRONT
  6
DASHED
 62
     7
370
    20
100
AcDbLine
 39
0.25
 10
-151.4665185283628
 20
712.8661165423919
 30
0.0
 11
-161.6665185283628
 21
712.8666165423918
 31
0.0
1001
AUSTER_ANSICHT
1002
{
1000
Det03
1002
}
1001
AUSTER_FOLIE
1002
{
1000
NSB00347_S3_WAGO
1002
}
  0
LINE
  5
FD8B
330
20
100
AcDbEntity
  8
10000_FRONT
  6
DASHED
 62
     7
370
    20
100
AcDbLine
 39
0.25
 10
-94.66651852836289
 20
712.8661165423919
 30
0.0
 11
-104.8665185283628
 21
712.8661165423919
 31
0.0
1001
AUSTER_ANSICHT
1002
{
1000
Det03
1002
}
1001
AUSTER_FOLIE
1002
{
1000
NSB00347_S3_WAGO
1002
}
  0
LINE
  5
FD8D
330
20
100
AcDbEntity
  8
10000_FRONT
  6
DASHED
 62
     7
370
    20
100
AcDbLine
 39
0.25
 10
-105.6665185283628
 20
728.3161165423917
 30
0.0
 11
-105.6665185283628
 21
713.9161165423918
 31
0.0
1001
AUSTER_ANSICHT
1002
{
1000
Det03
1002
}
1001
AUSTER_FOLIE
1002
{
1000
NSB00347_S3_WAGO
1002
}
  0
LINE
  5
FD8E
330
20
100
AcDbEntity
  8
10000_FRONT
  6
DASHED
 62
     7
370
    20
100
AcDbLine
 39
0.25
 10
-106.6665185283628
 20
712.9161165423917
 30
0.0
 11
-149.4665185283628
 21
712.9159165423918
 31
0.0
1001
AUSTER_ANSICHT
1002
{
1000
Det03
1002
}
1001
AUSTER_FOLIE
1002
{
1000
NSB00347_S3_WAGO
1002
}
  0
LINE
  5
FD8F
330
20
100
AcDbEntity
  8
10000_FRONT
  6
DASHED
 62
     7
370
    20
100
AcDbLine
 39
0.25
 10
-143.8665185283628
 20
688.1661165423918
 30
0.0
 11
-143.8665185283628
 21
684.9661165423919
 31
0.0
1001
AUSTER_ANSICHT
1002
{
1000
Det03
1002
}
1001
AUSTER_FOLIE
1002
{
1000
NSB00347_S3_WAGO
1002
}
  0
LINE
  5
FD90
330
20
100
AcDbEntity
  8
10000_FRONT
  6
DASHED
 62
     7
370
    20
100
AcDbLine
 39
0.25
 10
-112.4665185283628
 20
684.9661165423919
 30
0.0
 11
-112.4665185283628
 21
688.1661165423918
 31
0.0
1001
AUSTER_ANSICHT
1002
{
1000
Det03
1002
}
1001
AUSTER_FOLIE
1002
{
1000
NSB00347_S3_WAGO
1002
}
  0
LINE
  5
FD91
330
20
100
AcDbEntity
  8
10000_FRONT
  6
DASHED
 62
     7
370
    20
100
AcDbLine
 39
0.25
 10
-96.31651852836284
 20
684.5661165423919
 30
0.0
 11
-112.0665185283628
 21
684.5661165423919
 31
0.0
1001
AUSTER_ANSICHT
1002
{
1000
Det03
1002
}
1001
AUSTER_FOLIE
1002
{
1000
NSB00347_S3_WAGO
1002
}
  0
LINE
  5
FD92
330
20
100
AcDbEntity
  8
10000_FRONT
  6
DASHED
 62
     7
370
    20
100
AcDbLine
 39
0.25
 10
-134.9665185283628
 20
684.9661165423919
 30
0.0
 11
-134.9665185283628
 21
688.1661165423918
 31
0.0
1001
AUSTER_ANSICHT
1002
{
1000
Det03
1002
}
1001
AUSTER_FOLIE
1002
{
1000
NSB00347_S3_WAGO
1002
}
  0
LINE
  5
FD93
330
20
100
AcDbEntity
  8
10000_FRONT
  6
DASHED
 62
     7
370
    20
100
AcDbLine
 39
0.25
 10
-121.3665185283628
 20
688.1661165423918
 30
0.0
 11
-121.3665185283628
 21
684.9661165423919
 31
0.0
1001
AUSTER_ANSICHT
1002
{
1000
Det03
1002
}
1001
AUSTER_FOLIE
1002
{
1000
NSB00347_S3_WAGO
1002
}
  0
LINE
  5
FD94
330
20
100
AcDbEntity
  8
10000_FRONT
  6
DASHED
 62
     7
370
    20
100
AcDbLine
 39
0.25
 10
-121.7665185283628
 20
684.5661165423919
 30
0.0
 11
-134.5665185283628
 21
684.5661165423919
 31
0.0
1001
AUSTER_ANSICHT
1002
{
1000
Det03
1002
}
1001
AUSTER_FOLIE
1002
{
1000
NSB00347_S3_WAGO
1002
}
  0
LINE
  5
FD95
330
20
100
AcDbEntity
  8
10000_FRONT
  6
DASHED
 62
     7
370
    20
100
AcDbLine
 39
0.25
 10
-149.5087185283628
 20
696.0847165423918
 30
0.0
 11
-148.3540185283628
 21
698.0847165423917
 31
0.0
1001
AUSTER_ANSICHT
1002
{
1000
Det03
1002
}
1001
AUSTER_FOLIE
1002
{
1000
NSB00347_S3_WAGO
1002
}
  0
LINE
  5
FD96
330
20
100
AcDbEntity
  8
10000_FRONT
  6
DASHED
 62
     7
370
    20
100
AcDbLine
 39
0.25
 10
-151.8181185283628
 20
696.0847165423918
 30
0.0
 11
-149.5087185283628
 21
696.0847165423918
 31
0.0
1001
AUSTER_ANSICHT
1002
{
1000
Det03
1002
}
1001
AUSTER_FOLIE
1002
{
1000
NSB00347_S3_WAGO
1002
}
  0
LINE
  5
FD97
330
20
100
AcDbEntity
  8
10000_FRONT
  6
DASHED
 62
     7
370
    20
100
AcDbLine
 39
0.25
 10
-152.9728185283628
 20
698.0847165423917
 30
0.0
 11
-151.8181185283628
 21
696.0847165423918
 31
0.0
1001
AUSTER_ANSICHT
1002
{
1000
Det03
1002
}
1001
AUSTER_FOLIE
1002
{
1000
NSB00347_S3_WAGO
1002
}
  0
LINE
  5
FD98
330
20
100
AcDbEntity
  8
10000_FRONT
  6
DASHED
 62
     7
370
    20
100
AcDbLine
 39
0.25
 10
-149.5087185283628
 20
700.0847165423918
 30
0.0
 11
-148.3540185283628
 21
698.0847165423917
 31
0.0
1001
AUSTER_ANSICHT
1002
{
1000
Det03
1002
}
1001
AUSTER_FOLIE
1002
{
1000
NSB00347_S3_WAGO
1002
}
  0
LINE
  5
FD99
330
20
100
AcDbEntity
  8
10000_FRONT
  6
DASHED
 62
     7
370
    20
100
AcDbLine
 39
0.25
 10
-151.8181185283628
 20
700.0847165423918
 30
0.0
 11
-149.5087185283628
 21
700.0847165423918
 31
0.0
1001
AUSTER_ANSICHT
1002
{
1000
Det03
1002
}
1001
AUSTER_FOLIE
1002
{
1000
NSB00347_S3_WAGO
1002
}
  0
LINE
  5
FD9A
330
20
100
AcDbEntity
  8
10000_FRONT
  6
DASHED
 62
     7
370
    20
100
AcDbLine
 39
0.25
 10
-152.9728185283628
 20
698.0847165423917
 30
0.0
 11
-151.8181185283628
 21
700.0847165423918
 31
0.0
1001
AUSTER_ANSICHT
1002
{
1000
Det03
1002
}
1001
AUSTER_FOLIE
1002
{
1000
NSB00347_S3_WAGO
1002
}
  0
LINE
  5
FD9B
330
20
100
AcDbEntity
  8
10000_FRONT
  6
Continuous
 62
     7
370
    50
100
AcDbLine
 39
0.7
 10
-93.17221852836286
 20
775.2163165423918
 30
0.0
 11
-93.17221852836286
 21
772.1871165423918
 31
0.0
1001
AUSTER_ANSICHT
1002
{
1000
Det03
1002
}
1001
AUSTER_FOLIE
1002
{
1000
NSB00347_S3_WAGO
1002
}
  0
LINE
  5
FD9E
330
20
100
AcDbEntity
  8
10000_FRONT
  6
Continuous
 62
     7
370
    20
100
AcDbLine
 39
0.25
 10
-160.4222185283628
 20
791.2664165423917
 30
0.0
 11
-160.4222185283628
 21
794.0664165423918
 31
0.0
1001
AUSTER_ANSICHT
1002
{
1000
Det03
1002
}
1001
AUSTER_FOLIE
1002
{
1000
NSB00347_S3_WAGO
1002
}
  0
LINE
  5
FD9F
330
20
100
AcDbEntity
  8
10000_FRONT
  6
Continuous
 62
     7
370
    20
100
AcDbLine
 39
0.25
 10
-95.92221852836289
 20
791.2664165423917
 30
0.0
 11
-95.92221852836289
 21
794.0664165423918
 31
0.0
1001
AUSTER_ANSICHT
1002
{
1000
Det03
1002
}
1001
AUSTER_FOLIE
1002
{
1000
NSB00347_S3_WAGO
1002
}
  0
LINE
  5
FDA0
330
20
100
AcDbEntity
  8
10000_FRONT
  6
Continuous
 62
     7
370
    20
100
AcDbLine
 39
0.25
 10
-130.6222185283628
 20
684.5164165423917
 30
0.0
 11
-125.7222185283628
 21
684.5164165423917
 31
0.0
1001
AUSTER_ANSICHT
1002
{
1000
Det03
1002
}
1001
AUSTER_FOLIE
1002
{
1000
NSB00347_S3_WAGO
1002
}
  0
LINE
  5
FDA4
330
20
100
AcDbEntity
  8
10000_FRONT
  6
Continuous
 62
     7
370
    20
100
AcDbLine
 39
0.25
 10
-103.1722185283628
 20
794.4674165423918
 30
0.0
 11
-103.1722185283628
 21
796.2164165423918
 31
0.0
1001
AUSTER_ANSICHT
1002
{
1000
Det03
1002
}
1001
AUSTER_FOLIE
1002
{
1000
NSB00347_S3_WAGO
1002
}
  0
LINE
  5
FDB2
330
20
100
AcDbEntity
  8
10000_FRONT
  6
Continuous
 62
     7
370
    20
100
AcDbLine
 39
0.25
 10
-160.0222185283628
 20
794.4664165423918
 30
0.0
 11
-144.2722185283628
 21
794.4664165423918
 31
0.0
1001
AUSTER_ANSICHT
1002
{
1000
Det03
1002
}
1001
AUSTER_FOLIE
1002
{
1000
NSB00347_S3_WAGO
1002
}
  0
LINE
  5
FDB3
330
20
100
AcDbEntity
  8
10000_FRONT
  6
Continuous
 62
     7
370
    20
100
AcDbLine
 39
0.25
 10
-143.8722185283628
 20
794.0664165423918
 30
0.0
 11
-143.8722185283628
 21
790.8664165423918
 31
0.0
1001
AUSTER_ANSICHT
1002
{
1000
Det03
1002
}
1001
AUSTER_FOLIE
1002
{
1000
NSB00347_S3_WAGO
1002
}
  0
LINE
  5
FDB5
330
20
100
AcDbEntity
  8
10000_FRONT
  6
Continuous
 62
     7
370
    20
100
AcDbLine
 39
0.25
 10
-121.3722185283628
 20
794.0664165423918
 30
0.0
 11
-121.3722185283628
 21
790.8664165423918
 31
0.0
1001
AUSTER_ANSICHT
1002
{
1000
Det03
1002
}
1001
AUSTER_FOLIE
1002
{
1000
NSB00347_S3_WAGO
1002
}
  0
LINE
  5
FDB6
330
20
100
AcDbEntity
  8
10000_FRONT
  6
Continuous
 62
     7
370
    20
100
AcDbLine
 39
0.25
 10
-134.9722185283628
 20
790.8664165423918
 30
0.0
 11
-134.9722185283628
 21
794.0664165423918
 31
0.0
1001
AUSTER_ANSICHT
1002
{
1000
Det03
1002
}
1001
AUSTER_FOLIE
1002
{
1000
NSB00347_S3_WAGO
1002
}
  0
LINE
  5
FDB7
330
20
100
AcDbEntity
  8
10000_FRONT
  6
Continuous
 62
     7
370
    20
100
AcDbLine
 39
0.25
 10
-134.5722185283628
 20
794.4664165423918
 30
0.0
 11
-121.7722185283628
 21
794.4664165423918
 31
0.0
1001
AUSTER_ANSICHT
1002
{
1000
Det03
1002
}
1001
AUSTER_FOLIE
1002
{
1000
NSB00347_S3_WAGO
1002
}
  0
LINE
  5
FDB8
330
20
100
AcDbEntity
  8
10000_FRONT
  6
Continuous
 62
     7
370
    20
100
AcDbLine
 39
0.25
 10
-112.0722185283627
 20
794.4664165423918
 30
0.0
 11
-96.32221852836288
 21
794.4664165423918
 31
0.0
1001
AUSTER_ANSICHT
1002
{
1000
Det03
1002
}
1001
AUSTER_FOLIE
1002
{
1000
NSB00347_S3_WAGO
1002
}
  0
LINE
  5
FDB9
330
20
100
AcDbEntity
  8
10000_FRONT
  6
Continuous
 62
     7
370
    20
100
AcDbLine
 39
0.25
 10
-112.4722185283628
 20
790.8664165423918
 30
0.0
 11
-112.4722185283628
 21
794.0664165423918
 31
0.0
1001
AUSTER_ANSICHT
1002
{
1000
Det03
1002
}
1001
AUSTER_FOLIE
1002
{
1000
NSB00347_S3_WAGO
1002
}
  0
LINE
  5
FDCC
330
20
100
AcDbEntity
  8
10000_FRONT
  6
DASHED
 62
     7
370
    20
100
AcDbLine
 39
0.25
 10
-149.5026185283628
 20
713.8973165423918
 30
0.0
 11
-149.5026185283628
 21
715.3614165423918
 31
0.0
1001
AUSTER_ANSICHT
1002
{
1000
Det03
1002
}
1001
AUSTER_FOLIE
1002
{
1000
NSB00347_S3_WAGO
1002
}
  0
LINE
  5
FDCD
330
20
100
AcDbEntity
  8
10000_FRONT
  6
DASHED
 62
     7
370
    20
100
AcDbLine
 39
0.25
 10
-117.7206185283628
 20
756.6793165423917
 30
0.0
 11
-117.7206185283628
 21
749.9191165423918
 31
0.0
1001
AUSTER_ANSICHT
1002
{
1000
Det03
1002
}
1001
AUSTER_FOLIE
1002
{
1000
NSB00347_S3_WAGO
1002
}
  0
LINE
  5
FDCE
330
20
100
AcDbEntity
  8
10000_FRONT
  6
DASHED
 62
     7
370
    20
100
AcDbLine
 39
0.25
 10
-132.7735185283628
 20
734.2267165423918
 30
0.0
 11
-134.3791185283628
 21
735.8323165423918
 31
0.0
1001
AUSTER_ANSICHT
1002
{
1000
Det03
1002
}
1001
AUSTER_FOLIE
1002
{
1000
NSB00347_S3_WAGO
1002
}
  0
LINE
  5
FDCF
330
20
100
AcDbEntity
  8
10000_FRONT
  6
DASHED
 62
     7
370
    20
100
AcDbLine
 39
0.25
 10
-135.1074185283628
 20
736.5606165423918
 30
0.0
 11
-136.7130185283628
 21
738.1662165423918
 31
0.0
1001
AUSTER_ANSICHT
1002
{
1000
Det03
1002
}
1001
AUSTER_FOLIE
1002
{
1000
NSB00347_S3_WAGO
1002
}
  0
LINE
  5
FDD0
330
20
100
AcDbEntity
  8
10000_FRONT
  6
DASHED
 62
     7
370
    20
100
AcDbLine
 39
0.25
 10
-137.5677185283628
 20
737.3116165423917
 30
0.0
 11
-135.9620185283628
 21
735.7060165423917
 31
0.0
1001
AUSTER_ANSICHT
1002
{
1000
Det03
1002
}
1001
AUSTER_FOLIE
1002
{
1000
NSB00347_S3_WAGO
1002
}
  0
LINE
  5
FDD1
330
20
100
AcDbEntity
  8
10000_FRONT
  6
DASHED
 62
     7
370
    20
100
AcDbLine
 39
0.25
 10
-135.2337185283628
 20
734.9777165423918
 30
0.0
 11
-133.6281185283628
 21
733.3721165423918
 31
0.0
1001
AUSTER_ANSICHT
1002
{
1000
Det03
1002
}
1001
AUSTER_FOLIE
1002
{
1000
NSB00347_S3_WAGO
1002
}
  0
LINE
  5
FDD2
330
20
100
AcDbEntity
  8
10000_FRONT
  6
DASHED
 62
     7
370
    20
100
AcDbLine
 39
0.25
 10
-136.0628185283628
 20
734.1485165423918
 30
0.0
 11
-135.3612185283628
 21
734.8502165423917
 31
0.0
1001
AUSTER_ANSICHT
1002
{
1000
Det03
1002
}
1001
AUSTER_FOLIE
1002
{
1000
NSB00347_S3_WAGO
1002
}
  0
LINE
  5
FDD3
330
20
100
AcDbEntity
  8
10000_FRONT
  6
DASHED
 62
     7
370
    20
100
AcDbLine
 39
0.25
 10
-136.0895185283628
 20
735.5785165423919
 30
0.0
 11
-136.7912185283628
 21
734.8769165423918
 31
0.0
1001
AUSTER_ANSICHT
1002
{
1000
Det03
1002
}
1001
AUSTER_FOLIE
1002
{
1000
NSB00347_S3_WAGO
1002
}
  0
LINE
  5
FDD4
330
20
100
AcDbEntity
  8
10000_FRONT
  6
DASHED
 62
     7
370
    20
100
AcDbLine
 39
0.25
 10
-134.2783185283628
 20
737.3897165423918
 30
0.0
 11
-134.9800185283628
 21
736.6881165423919
 31
0.0
1001
AUSTER_ANSICHT
1002
{
1000
Det03
1002
}
1001
AUSTER_FOLIE
1002
{
1000
NSB00347_S3_WAGO
1002
}
  0
LINE
  5
FDD5
330
20
100
AcDbEntity
  8
10000_FRONT
  6
DASHED
 62
     7
370
    20
100
AcDbLine
 39
0.25
 10
-134.2516185283628
 20
735.9598165423918
 30
0.0
 11
-133.5500185283628
 21
736.6614165423918
 31
0.0
1001
AUSTER_ANSICHT
1002
{
1000
Det03
1002
}
1001
AUSTER_FOLIE
1002
{
1000
NSB00347_S3_WAGO
1002
}
  0
LINE
  5
FDD6
330
20
100
AcDbEntity
  8
10000_FRONT
  6
DASHED
 62
     7
370
    20
100
AcDbLine
 39
0.25
 10
-136.0895185283628
 20
735.5785165423919
 30
0.0
 11
-135.9620185283628
 21
735.7060165423917
 31
0.0
1001
AUSTER_ANSICHT
1002
{
1000
Det03
1002
}
1001
AUSTER_FOLIE
1002
{
1000
NSB00347_S3_WAGO
1002
}
  0
LINE
  5
FDD7
330
20
100
AcDbEntity
  8
10000_FRONT
  6
DASHED
 62
     7
370
    20
100
AcDbLine
 39
0.25
 10
-134.9799185283628
 20
736.6881165423919
 30
0.0
 11
-135.1074185283628
 21
736.5606165423918
 31
0.0
1001
AUSTER_ANSICHT
1002
{
1000
Det03
1002
}
1001
AUSTER_FOLIE
1002
{
1000
NSB00347_S3_WAGO
1002
}
  0
LINE
  5
FDD8
330
20
100
AcDbEntity
  8
10000_FRONT
  6
DASHED
 62
     7
370
    20
100
AcDbLine
 39
0.25
 10
-135.3612185283628
 20
734.8502165423917
 30
0.0
 11
-135.2337185283628
 21
734.9777165423918
 31
0.0
1001
AUSTER_ANSICHT
1002
{
1000
Det03
1002
}
1001
AUSTER_FOLIE
1002
{
1000
NSB00347_S3_WAGO
1002
}
  0
LINE
  5
FDD9
330
20
100
AcDbEntity
  8
10000_FRONT
  6
DASHED
 62
     7
370
    20
100
AcDbLine
 39
0.25
 10
-134.2516185283628
 20
735.9598165423918
 30
0.0
 11
-134.3791185283628
 21
735.8323165423918
 31
0.0
1001
AUSTER_ANSICHT
1002
{
1000
Det03
1002
}
1001
AUSTER_FOLIE
1002
{
1000
NSB00347_S3_WAGO
1002
}
  0
LINE
  5
FDDA
330
20
100
AcDbEntity
  8
10000_FRONT
  6
DASHED
 62
     7
370
    20
100
AcDbLine
 39
0.25
 10
-119.7206185283628
 20
749.9191165423918
 30
0.0
 11
-117.7206185283628
 21
749.9191165423918
 31
0.0
1001
AUSTER_ANSICHT
1002
{
1000
Det03
1002
}
1001
AUSTER_FOLIE
1002
{
1000
NSB00347_S3_WAGO
1002
}
  0
LINE
  5
FDDB
330
20
100
AcDbEntity
  8
10000_FRONT
  6
DASHED
 62
     7
370
    20
100
AcDbLine
 39
0.25
 10
-119.6706185283628
 20
749.7003165423917
 30
0.0
 11
-119.6706185283628
 21
728.3191165423918
 31
0.0
1001
AUSTER_ANSICHT
1002
{
1000
Det03
1002
}
1001
AUSTER_FOLIE
1002
{
1000
NSB00347_S3_WAGO
1002
}
  0
LINE
  5
FDDC
330
20
100
AcDbEntity
  8
10000_FRONT
  6
DASHED
 62
     7
370
    20
100
AcDbLine
 39
0.25
 10
-119.7206185283628
 20
756.6793165423917
 30
0.0
 11
-117.7206185283628
 21
756.6793165423917
 31
0.0
1001
AUSTER_ANSICHT
1002
{
1000
Det03
1002
}
1001
AUSTER_FOLIE
1002
{
1000
NSB00347_S3_WAGO
1002
}
  0
LINE
  5
FDDD
330
20
100
AcDbEntity
  8
10000_FRONT
  6
DASHED
 62
     7
370
    20
100
AcDbLine
 39
0.25
 10
-138.1706185283628
 20
738.7687165423918
 30
0.0
 11
-138.1706185283628
 21
738.5751165423918
 31
0.0
1001
AUSTER_ANSICHT
1002
{
1000
Det03
1002
}
1001
AUSTER_FOLIE
1002
{
1000
NSB00347_S3_WAGO
1002
}
  0
LINE
  5
FDDE
330
20
100
AcDbEntity
  8
10000_FRONT
  6
DASHED
 62
     7
370
    20
100
AcDbLine
 39
0.25
 10
-137.9765185283628
 20
738.7691165423917
 30
0.0
 11
-138.1706185283628
 21
738.7687165423918
 31
0.0
1001
AUSTER_ANSICHT
1002
{
1000
Det03
1002
}
1001
AUSTER_FOLIE
1002
{
1000
NSB00347_S3_WAGO
1002
}
  0
LINE
  5
FDDF
330
20
100
AcDbEntity
  8
10000_FRONT
  6
DASHED
 62
     7
370
    20
100
AcDbLine
 39
0.25
 10
-135.4332185283628
 20
738.7691165423917
 30
0.0
 11
-137.9765185283628
 21
738.7691165423917
 31
0.0
1001
AUSTER_ANSICHT
1002
{
1000
Det03
1002
}
1001
AUSTER_FOLIE
1002
{
1000
NSB00347_S3_WAGO
1002
}
  0
LINE
  5
FDE0
330
20
100
AcDbEntity
  8
10000_FRONT
  6
DASHED
 62
     7
370
    20
100
AcDbLine
 39
0.25
 10
-138.1706185283628
 20
738.5751165423918
 30
0.0
 11
-138.1706185283628
 21
736.0815165423917
 31
0.0
1001
AUSTER_ANSICHT
1002
{
1000
Det03
1002
}
1001
AUSTER_FOLIE
1002
{
1000
NSB00347_S3_WAGO
1002
}
  0
LINE
  5
FDE1
330
20
100
AcDbEntity
  8
10000_FRONT
  6
DASHED
 62
     7
370
    20
100
AcDbLine
 39
0.25
 10
-119.7206185283628
 20
749.9191165423918
 30
0.0
 11
-119.7206185283628
 21
756.6793165423917
 31
0.0
1001
AUSTER_ANSICHT
1002
{
1000
Det03
1002
}
1001
AUSTER_FOLIE
1002
{
1000
NSB00347_S3_WAGO
1002
}
  0
LINE
  5
FDE2
330
20
100
AcDbEntity
  8
10000_FRONT
  6
DASHED
 62
     7
370
    20
100
AcDbLine
 39
0.25
 10
-148.5385185283628
 20
713.8973165423918
 30
0.0
 11
-149.5026185283628
 21
713.8973165423918
 31
0.0
1001
AUSTER_ANSICHT
1002
{
1000
Det03
1002
}
1001
AUSTER_FOLIE
1002
{
1000
NSB00347_S3_WAGO
1002
}
  0
LINE
  5
FDE3
330
20
100
AcDbEntity
  8
10000_FRONT
  6
DASHED
 62
     7
370
    20
100
AcDbLine
 39
0.25
 10
-149.5026185283628
 20
715.3614165423918
 30
0.0
 11
-148.5385185283628
 21
715.3614165423918
 31
0.0
1001
AUSTER_ANSICHT
1002
{
1000
Det03
1002
}
1001
AUSTER_FOLIE
1002
{
1000
NSB00347_S3_WAGO
1002
}
  0
LINE
  5
FDE4
330
20
100
AcDbEntity
  8
10000_FRONT
  6
DASHED
 62
     7
370
    20
100
AcDbLine
 39
0.25
 10
-148.5385185283628
 20
715.3614165423918
 30
0.0
 11
-148.5385185283628
 21
713.8973165423918
 31
0.0
1001
AUSTER_ANSICHT
1002
{
1000
Det03
1002
}
1001
AUSTER_FOLIE
1002
{
1000
NSB00347_S3_WAGO
1002
}
  0
LINE
  5
FDE5
330
20
100
AcDbEntity
  8
10000_FRONT
  6
DASHED
 62
     7
370
    20
100
AcDbLine
 39
0.25
 10
-128.0206185283628
 20
749.9673165423918
 30
0.0
 11
-128.0206185283628
 21
756.7632165423917
 31
0.0
1001
AUSTER_ANSICHT
1002
{
1000
Det03
1002
}
1001
AUSTER_FOLIE
1002
{
1000
NSB00347_S3_WAGO
1002
}
  0
LINE
  5
FDE6
330
20
100
AcDbEntity
  8
10000_FRONT
  6
DASHED
 62
     7
370
    20
100
AcDbLine
 39
0.25
 10
-128.0206185283628
 20
756.7632165423917
 30
0.0
 11
-147.8206185283628
 21
756.7632165423917
 31
0.0
1001
AUSTER_ANSICHT
1002
{
1000
Det03
1002
}
1001
AUSTER_FOLIE
1002
{
1000
NSB00347_S3_WAGO
1002
}
  0
LINE
  5
FDE7
330
20
100
AcDbEntity
  8
10000_FRONT
  6
DASHED
 62
     7
370
    20
100
AcDbLine
 39
0.25
 10
-147.8206185283628
 20
756.7632165423917
 30
0.0
 11
-147.8206185283628
 21
749.9673165423918
 31
0.0
1001
AUSTER_ANSICHT
1002
{
1000
Det03
1002
}
1001
AUSTER_FOLIE
1002
{
1000
NSB00347_S3_WAGO
1002
}
  0
LINE
  5
FDE8
330
20
100
AcDbEntity
  8
10000_FRONT
  6
DASHED
 62
     7
370
    20
100
AcDbLine
 39
0.25
 10
-147.8206185283628
 20
749.9673165423918
 30
0.0
 11
-128.0206185283628
 21
749.9673165423918
 31
0.0
1001
AUSTER_ANSICHT
1002
{
1000
Det03
1002
}
1001
AUSTER_FOLIE
1002
{
1000
NSB00347_S3_WAGO
1002
}
  0
LINE
  5
FDF8
330
20
100
AcDbEntity
  8
11000_Left
  6
DASHED
 62
     7
370
    20
100
AcDbLine
 39
0.25
 10
36.65517503903061
 20
684.5691165423917
 30
0.0
 11
17.05517503903061
 21
684.5691165423917
 31
0.0
1001
AUSTER_ANSICHT
1002
{
1000
Det03
1002
}
1001
AUSTER_FOLIE
1002
{
1000
NSB00347_S3_WAGO
1002
}
  0
LINE
  5
FDFC
330
20
100
AcDbEntity
  8
11000_Left
  6
DASHED
 62
     7
370
    20
100
AcDbLine
 39
0.25
 10
66.9640750390306
 20
688.1691165423919
 30
0.0
 11
-4.744824960969394
 21
688.1691165423919
 31
0.0
1001
AUSTER_ANSICHT
1002
{
1000
Det03
1002
}
1001
AUSTER_FOLIE
1002
{
1000
NSB00347_S3_WAGO
1002
}
  0
LINE
  5
FDFD
330
20
100
AcDbEntity
  8
11000_Left
  6
Continuous
 62
     7
370
    50
100
AcDbLine
 39
0.7
 10
78.45227503903061
 20
754.1737165423918
 30
0.0
 11
82.87747503903062
 21
772.189916542392
 31
0.0
1001
AUSTER_ANSICHT
1002
{
1000
Det03
1002
}
1001
AUSTER_FOLIE
1002
{
1000
NSB00347_S3_WAGO
1002
}
  0
LINE
  5
FDFE
330
20
100
AcDbEntity
  8
11000_Left
  6
DASHED
 62
     7
370
    20
100
AcDbLine
 39
0.25
 10
-5.544824960969378
 20
688.1691165423919
 30
0.0
 11
-24.34482496096939
 21
688.1691165423919
 31
0.0
1001
AUSTER_ANSICHT
1002
{
1000
Det03
1002
}
1001
AUSTER_FOLIE
1002
{
1000
NSB00347_S3_WAGO
1002
}
  0
LINE
  5
FDFF
330
20
100
AcDbEntity
  8
11000_Left
  6
DASHED
 62
     7
370
    20
100
AcDbLine
 39
0.25
 10
88.15517503903061
 20
712.8691165423918
 30
0.0
 11
70.76017503903063
 21
712.8691165423918
 31
0.0
1001
AUSTER_ANSICHT
1002
{
1000
Det03
1002
}
1001
AUSTER_FOLIE
1002
{
1000
NSB00347_S3_WAGO
1002
}
  0
LINE
  5
FE01
330
20
100
AcDbEntity
  8
11000_Left
  6
DASHED
 62
     7
370
    20
100
AcDbLine
 39
0.25
 10
-24.34482496096939
 20
750.7691165423917
 30
0.0
 11
88.15517503903061
 21
750.7691165423917
 31
0.0
1001
AUSTER_ANSICHT
1002
{
1000
Det03
1002
}
1001
AUSTER_FOLIE
1002
{
1000
NSB00347_S3_WAGO
1002
}
  0
LINE
  5
FE02
330
20
100
AcDbEntity
  8
11000_Left
  6
Continuous
 62
     7
370
    50
100
AcDbLine
 39
0.7
 10
93.18346503903065
 20
772.9937165423917
 30
0.0
 11
93.13459503903059
 21
773.2385165423918
 31
0.0
1001
AUSTER_ANSICHT
1002
{
1000
Det03
1002
}
1001
AUSTER_FOLIE
1002
{
1000
NSB00347_S3_WAGO
1002
}
  0
LINE
  5
FE04
330
20
100
AcDbEntity
  8
11000_Left
  6
DASHED
 62
     7
370
    20
100
AcDbLine
 39
0.25
 10
91.76127503903066
 20
712.8691165423918
 30
0.0
 11
88.15517503903061
 21
712.8691165423918
 31
0.0
1001
AUSTER_ANSICHT
1002
{
1000
Det03
1002
}
1001
AUSTER_FOLIE
1002
{
1000
NSB00347_S3_WAGO
1002
}
  0
LINE
  5
FE05
330
20
100
AcDbEntity
  8
11000_Left
  6
DASHED
 62
     7
370
    20
100
AcDbLine
 39
0.25
 10
94.31433503903059
 20
732.8691165423918
 30
0.0
 11
98.52400503903062
 21
732.8691165423918
 31
0.0
1001
AUSTER_ANSICHT
1002
{
1000
Det03
1002
}
1001
AUSTER_FOLIE
1002
{
1000
NSB00347_S3_WAGO
1002
}
  0
LINE
  5
FE06
330
20
100
AcDbEntity
  8
11000_Left
  6
DASHED
 62
     7
370
    20
100
AcDbLine
 39
0.25
 10
98.52400503903062
 20
738.6691165423918
 30
0.0
 11
94.55041503903059
 21
738.6691165423918
 31
0.0
1001
AUSTER_ANSICHT
1002
{
1000
Det03
1002
}
1001
AUSTER_FOLIE
1002
{
1000
NSB00347_S3_WAGO
1002
}
  0
LINE
  5
FE08
330
20
100
AcDbEntity
  8
11000_Left
  6
DASHED
 62
     7
370
    20
100
AcDbLine
 39
0.25
 10
94.74939503903064
 20
749.6191165423917
 30
0.0
 11
96.44723503903058
 21
749.6191165423917
 31
0.0
1001
AUSTER_ANSICHT
1002
{
1000
Det03
1002
}
1001
AUSTER_FOLIE
1002
{
1000
NSB00347_S3_WAGO
1002
}
  0
LINE
  5
FE09
330
20
100
AcDbEntity
  8
11000_Left
  6
DASHED
 62
     7
370
    20
100
AcDbLine
 39
0.25
 10
94.62845503903064
 20
749.5620165423917
 30
0.0
 11
94.74939503903064
 21
749.6191165423917
 31
0.0
1001
AUSTER_ANSICHT
1002
{
1000
Det03
1002
}
1001
AUSTER_FOLIE
1002
{
1000
NSB00347_S3_WAGO
1002
}
  0
LINE
  5
FE0B
330
20
100
AcDbEntity
  8
11000_Left
  6
DASHED
 62
     7
370
    20
100
AcDbLine
 39
0.25
 10
-5.144824960969396
 20
688.5691165423918
 30
0.0
 11
-5.144824960969373
 21
704.866216542392
 31
0.0
1001
AUSTER_ANSICHT
1002
{
1000
Det03
1002
}
1001
AUSTER_FOLIE
1002
{
1000
NSB00347_S3_WAGO
1002
}
  0
LINE
  5
FE0C
330
20
100
AcDbEntity
  8
11000_Left
  6
DASHED
 62
     7
370
    20
100
AcDbLine
 39
0.25
 10
5.453575039030623
 20
705.2691165423917
 30
0.0
 11
7.955275039030622
 21
705.2691165423917
 31
0.0
1001
AUSTER_ANSICHT
1002
{
1000
Det03
1002
}
1001
AUSTER_FOLIE
1002
{
1000
NSB00347_S3_WAGO
1002
}
  0
LINE
  5
FE0D
330
20
100
AcDbEntity
  8
11000_Left
  6
DASHED
 62
     7
370
    20
100
AcDbLine
 39
0.25
 10
5.455175039030621
 20
705.2691165423917
 30
0.0
 11
-4.744824960969394
 21
705.2672165423918
 31
0.0
1001
AUSTER_ANSICHT
1002
{
1000
Det03
1002
}
1001
AUSTER_FOLIE
1002
{
1000
NSB00347_S3_WAGO
1002
}
  0
LINE
  5
FE0E
330
20
100
AcDbEntity
  8
11000_Left
  6
DASHED
 62
     7
370
    20
100
AcDbLine
 39
0.25
 10
69.56967503903058
 20
705.2691165423917
 30
0.0
 11
7.955275039030622
 21
705.2691165423917
 31
0.0
1001
AUSTER_ANSICHT
1002
{
1000
Det03
1002
}
1001
AUSTER_FOLIE
1002
{
1000
NSB00347_S3_WAGO
1002
}
  0
LINE
  5
FE0F
330
20
100
AcDbEntity
  8
11000_Left
  6
DASHED
 62
     7
370
    20
100
AcDbLine
 39
0.25
 10
37.05517503903062
 20
687.7691165423917
 30
0.0
 11
37.05517503903062
 21
684.9691165423919
 31
0.0
1001
AUSTER_ANSICHT
1002
{
1000
Det03
1002
}
1001
AUSTER_FOLIE
1002
{
1000
NSB00347_S3_WAGO
1002
}
  0
LINE
  5
FE10
330
20
100
AcDbEntity
  8
11000_Left
  6
DASHED
 62
     7
370
    20
100
AcDbLine
 39
0.25
 10
88.15517503903061
 20
773.7691165423917
 30
0.0
 11
88.15517503903061
 21
712.8691165423918
 31
0.0
1001
AUSTER_ANSICHT
1002
{
1000
Det03
1002
}
1001
AUSTER_FOLIE
1002
{
1000
NSB00347_S3_WAGO
1002
}
  0
LINE
  5
FE48
330
20
100
AcDbEntity
  8
11000_Left
  6
Continuous
 62
     7
370
    50
100
AcDbLine
 39
0.7
 10
82.87747503903062
 20
772.2691165423918
 30
0.0
 11
82.87747503903062
 21
773.7691165423917
 31
0.0
1001
AUSTER_ANSICHT
1002
{
1000
Det03
1002
}
1001
AUSTER_FOLIE
1002
{
1000
NSB00347_S3_WAGO
1002
}
  0
LINE
  5
FE49
330
20
100
AcDbEntity
  8
11000_Left
  6
DASHED
 62
     7
370
    20
100
AcDbLine
 39
0.25
 10
7.055175039030615
 20
704.0907165423917
 30
0.0
 11
7.055175039030615
 21
688.1691165423919
 31
0.0
1001
AUSTER_ANSICHT
1002
{
1000
Det03
1002
}
1001
AUSTER_FOLIE
1002
{
1000
NSB00347_S3_WAGO
1002
}
  0
LINE
  5
FE4A
330
20
100
AcDbEntity
  8
11000_Left
  6
DASHED
 62
     7
370
    20
100
AcDbLine
 39
0.25
 10
35.05517503903063
 20
704.0907165423917
 30
0.0
 11
7.055175039030615
 21
704.0907165423917
 31
0.0
1001
AUSTER_ANSICHT
1002
{
1000
Det03
1002
}
1001
AUSTER_FOLIE
1002
{
1000
NSB00347_S3_WAGO
1002
}
  0
LINE
  5
FE4B
330
20
100
AcDbEntity
  8
11000_Left
  6
DASHED
 62
     7
370
    20
100
AcDbLine
 39
0.25
 10
19.55517503903061
 20
704.0907165423917
 30
0.0
 11
19.55517503903061
 21
688.1691165423919
 31
0.0
1001
AUSTER_ANSICHT
1002
{
1000
Det03
1002
}
1001
AUSTER_FOLIE
1002
{
1000
NSB00347_S3_WAGO
1002
}
  0
LINE
  5
FE4D
330
20
100
AcDbEntity
  8
11000_Left
  6
DASHED
 62
     7
370
    20
100
AcDbLine
 39
0.25
 10
22.55517503903062
 20
704.0907165423917
 30
0.0
 11
22.55517503903062
 21
688.1691165423919
 31
0.0
1001
AUSTER_ANSICHT
1002
{
1000
Det03
1002
}
1001
AUSTER_FOLIE
1002
{
1000
NSB00347_S3_WAGO
1002
}
  0
LINE
  5
FE4E
330
20
100
AcDbEntity
  8
11000_Left
  6
DASHED
 62
     7
370
    20
100
AcDbLine
 39
0.25
 10
35.05517503903063
 20
684.5691165423917
 30
0.0
 11
35.05517503903063
 21
704.0907165423917
 31
0.0
1001
AUSTER_ANSICHT
1002
{
1000
Det03
1002
}
1001
AUSTER_FOLIE
1002
{
1000
NSB00347_S3_WAGO
1002
}
  0
LINE
  5
FE62
330
20
100
AcDbEntity
  8
11000_Left
  6
DASHED
 62
     7
370
    20
100
AcDbLine
 39
0.25
 10
-24.7448249609694
 20
752.2630165423918
 30
0.0
 11
-24.7448249609694
 21
753.3630165423918
 31
0.0
1001
AUSTER_ANSICHT
1002
{
1000
Det03
1002
}
1001
AUSTER_FOLIE
1002
{
1000
NSB00347_S3_WAGO
1002
}
  0
LINE
  5
FE63
330
20
100
AcDbEntity
  8
11000_Left
  6
Continuous
 62
     7
370
    50
100
AcDbLine
 39
0.7
 10
-24.34482496096939
 20
753.7630165423918
 30
0.0
 11
77.94137503903063
 21
753.7630165423918
 31
0.0
1001
AUSTER_ANSICHT
1002
{
1000
Det03
1002
}
1001
AUSTER_FOLIE
1002
{
1000
NSB00347_S3_WAGO
1002
}
  0
LINE
  5
FE77
330
20
100
AcDbEntity
  8
11000_Left
  6
DASHED
 62
     7
370
    20
100
AcDbLine
 39
0.25
 10
-50.82252496096939
 20
739.5191165423917
 30
0.0
 11
-50.82252496096939
 21
749.0191165423917
 31
0.0
1001
AUSTER_ANSICHT
1002
{
1000
Det03
1002
}
1001
AUSTER_FOLIE
1002
{
1000
NSB00347_S3_WAGO
1002
}
  0
LINE
  5
FE78
330
20
100
AcDbEntity
  8
11000_Left
  6
DASHED
 62
     7
370
    20
100
AcDbLine
 39
0.25
 10
-48.32252496096939
 20
739.5191165423917
 30
0.0
 11
-48.32252496096939
 21
747.8191165423918
 31
0.0
1001
AUSTER_ANSICHT
1002
{
1000
Det03
1002
}
1001
AUSTER_FOLIE
1002
{
1000
NSB00347_S3_WAGO
1002
}
  0
LINE
  5
FE79
330
20
100
AcDbEntity
  8
11000_Left
  6
DASHED
 62
     7
370
    20
100
AcDbLine
 39
0.25
 10
-50.82252496096939
 20
739.5191165423917
 30
0.0
 11
-50.82252496096939
 21
730.0191165423917
 31
0.0
1001
AUSTER_ANSICHT
1002
{
1000
Det03
1002
}
1001
AUSTER_FOLIE
1002
{
1000
NSB00347_S3_WAGO
1002
}
  0
LINE
  5
FE7A
330
20
100
AcDbEntity
  8
11000_Left
  6
DASHED
 62
     7
370
    20
100
AcDbLine
 39
0.25
 10
-48.32252496096939
 20
739.5191165423917
 30
0.0
 11
-48.32252496096939
 21
731.2191165423918
 31
0.0
1001
AUSTER_ANSICHT
1002
{
1000
Det03
1002
}
1001
AUSTER_FOLIE
1002
{
1000
NSB00347_S3_WAGO
1002
}
  0
LINE
  5
FE7B
330
20
100
AcDbEntity
  8
11000_Left
  6
DASHED
 62
     7
370
    20
100
AcDbLine
 39
0.25
 10
-60.82252496096939
 20
717.5191165423917
 30
0.0
 11
-60.82252496096939
 21
761.5191165423917
 31
0.0
1001
AUSTER_ANSICHT
1002
{
1000
Det03
1002
}
1001
AUSTER_FOLIE
1002
{
1000
NSB00347_S3_WAGO
1002
}
  0
LINE
  5
FE7C
330
20
100
AcDbEntity
  8
11000_Left
  6
DASHED
 62
     7
370
    20
100
AcDbLine
 39
0.25
 10
-57.82252496096939
 20
720.5191165423918
 30
0.0
 11
-57.82252496096939
 21
758.5191165423918
 31
0.0
1001
AUSTER_ANSICHT
1002
{
1000
Det03
1002
}
1001
AUSTER_FOLIE
1002
{
1000
NSB00347_S3_WAGO
1002
}
  0
LINE
  5
FE7D
330
20
100
AcDbEntity
  8
11000_Left
  6
DASHED
 62
     7
370
    20
100
AcDbLine
 39
0.25
 10
-39.13592496096939
 20
751.5191165423917
 30
0.0
 11
-48.32252496096939
 21
751.5191165423917
 31
0.0
1001
AUSTER_ANSICHT
1002
{
1000
Det03
1002
}
1001
AUSTER_FOLIE
1002
{
1000
NSB00347_S3_WAGO
1002
}
  0
LINE
  5
FE7E
330
20
100
AcDbEntity
  8
11000_Left
  6
DASHED
 62
     7
370
    20
100
AcDbLine
 39
0.25
 10
-47.12252496096937
 20
749.0191165423917
 30
0.0
 11
-37.82252496096939
 21
749.0191165423917
 31
0.0
1001
AUSTER_ANSICHT
1002
{
1000
Det03
1002
}
1001
AUSTER_FOLIE
1002
{
1000
NSB00347_S3_WAGO
1002
}
  0
LINE
  5
FE7F
330
20
100
AcDbEntity
  8
11000_Left
  6
DASHED
 62
     7
370
    20
100
AcDbLine
 39
0.25
 10
-39.13592496096939
 20
727.5191165423917
 30
0.0
 11
-48.32252496096939
 21
727.5191165423917
 31
0.0
1001
AUSTER_ANSICHT
1002
{
1000
Det03
1002
}
1001
AUSTER_FOLIE
1002
{
1000
NSB00347_S3_WAGO
1002
}
  0
LINE
  5
FE80
330
20
100
AcDbEntity
  8
11000_Left
  6
DASHED
 62
     7
370
    20
100
AcDbLine
 39
0.25
 10
-47.12252496096937
 20
730.0191165423917
 30
0.0
 11
-37.82252496096939
 21
730.0191165423917
 31
0.0
1001
AUSTER_ANSICHT
1002
{
1000
Det03
1002
}
1001
AUSTER_FOLIE
1002
{
1000
NSB00347_S3_WAGO
1002
}
  0
LINE
  5
FE81
330
20
100
AcDbEntity
  8
11000_Left
  6
DASHED
 62
     7
370
    20
100
AcDbLine
 39
0.25
 10
-57.82252496096939
 20
764.5191165423917
 30
0.0
 11
-39.82252496096939
 21
764.5191165423917
 31
0.0
1001
AUSTER_ANSICHT
1002
{
1000
Det03
1002
}
1001
AUSTER_FOLIE
1002
{
1000
NSB00347_S3_WAGO
1002
}
  0
LINE
  5
FE82
330
20
100
AcDbEntity
  8
11000_Left
  6
DASHED
 62
     7
370
    20
100
AcDbLine
 39
0.25
 10
-39.82252496096939
 20
761.5191165423917
 30
0.0
 11
-54.82252496096939
 21
761.5191165423917
 31
0.0
1001
AUSTER_ANSICHT
1002
{
1000
Det03
1002
}
1001
AUSTER_FOLIE
1002
{
1000
NSB00347_S3_WAGO
1002
}
  0
LINE
  5
FE83
330
20
100
AcDbEntity
  8
11000_Left
  6
DASHED
 62
     7
370
    20
100
AcDbLine
 39
0.25
 10
-39.82252496096939
 20
714.5191165423917
 30
0.0
 11
-57.82252496096939
 21
714.5191165423917
 31
0.0
1001
AUSTER_ANSICHT
1002
{
1000
Det03
1002
}
1001
AUSTER_FOLIE
1002
{
1000
NSB00347_S3_WAGO
1002
}
  0
LINE
  5
FE84
330
20
100
AcDbEntity
  8
11000_Left
  6
DASHED
 62
     7
370
    20
100
AcDbLine
 39
0.25
 10
-39.82252496096939
 20
717.5191165423917
 30
0.0
 11
-54.82252496096939
 21
717.5191165423917
 31
0.0
1001
AUSTER_ANSICHT
1002
{
1000
Det03
1002
}
1001
AUSTER_FOLIE
1002
{
1000
NSB00347_S3_WAGO
1002
}
  0
LINE
  5
FE87
330
20
100
AcDbEntity
  8
11000_Left
  6
DASHED
 62
     7
370
    20
100
AcDbLine
 39
0.25
 10
-36.82252496096939
 20
757.0191165423917
 30
0.0
 11
-37.93592496096938
 21
752.7306165423917
 31
0.0
1001
AUSTER_ANSICHT
1002
{
1000
Det03
1002
}
1001
AUSTER_FOLIE
1002
{
1000
NSB00347_S3_WAGO
1002
}
  0
LINE
  5
FE89
330
20
100
AcDbEntity
  8
11000_Left
  6
DASHED
 62
     7
370
    20
100
AcDbLine
 39
0.25
 10
-39.13592496096939
 20
751.5191165423917
 30
0.0
 11
-48.32252496096939
 21
751.5191165423917
 31
0.0
1001
AUSTER_ANSICHT
1002
{
1000
Det03
1002
}
1001
AUSTER_FOLIE
1002
{
1000
NSB00347_S3_WAGO
1002
}
  0
LINE
  5
FE8A
330
20
100
AcDbEntity
  8
11000_Left
  6
DASHED
 62
     7
370
    20
100
AcDbLine
 39
0.25
 10
-47.12252496096937
 20
749.0191165423917
 30
0.0
 11
-37.82252496096939
 21
749.0191165423917
 31
0.0
1001
AUSTER_ANSICHT
1002
{
1000
Det03
1002
}
1001
AUSTER_FOLIE
1002
{
1000
NSB00347_S3_WAGO
1002
}
  0
LINE
  5
FE8B
330
20
100
AcDbEntity
  8
11000_Left
  6
DASHED
 62
     7
370
    20
100
AcDbLine
 39
0.25
 10
-39.13592496096939
 20
727.5191165423917
 30
0.0
 11
-48.32252496096939
 21
727.5191165423917
 31
0.0
1001
AUSTER_ANSICHT
1002
{
1000
Det03
1002
}
1001
AUSTER_FOLIE
1002
{
1000
NSB00347_S3_WAGO
1002
}
  0
LINE
  5
FE8C
330
20
100
AcDbEntity
  8
11000_Left
  6
DASHED
 62
     7
370
    20
100
AcDbLine
 39
0.25
 10
-47.12252496096937
 20
730.0191165423917
 30
0.0
 11
-37.82252496096939
 21
730.0191165423917
 31
0.0
1001
AUSTER_ANSICHT
1002
{
1000
Det03
1002
}
1001
AUSTER_FOLIE
1002
{
1000
NSB00347_S3_WAGO
1002
}
  0
ARC
  5
FE96
330
20
100
AcDbEntity
  8
10000_FRONT
  6
DASHED
 62
     7
370
    20
100
AcDbCircle
 39
0.25
 10
-161.6667185283628
 20
706.7660165423919
 30
0.0
 40
1.5
100
AcDbArc
 50
180.0
 51
270.0
1001
AUSTER_ANSICHT
1002
{
1000
Det03
1002
}
1001
AUSTER_FOLIE
1002
{
1000
NSB00347_S3_WAGO
1002
}
  0
ARC
  5
FE97
330
20
100
AcDbEntity
  8
10000_FRONT
  6
DASHED
 62
     7
370
    20
100
AcDbCircle
 39
0.25
 10
-161.7167185283628
 20
703.8161165423917
 30
0.0
 40
1.449975999999999
100
AcDbArc
 50
90.0
 51
180.0
1001
AUSTER_ANSICHT
1002
{
1000
Det03
1002
}
1001
AUSTER_FOLIE
1002
{
1000
NSB00347_S3_WAGO
1002
}
  0
ARC
  5
FEA8
330
20
100
AcDbEntity
  8
11000_Left
  6
Continuous
 62
     7
370
    50
100
AcDbCircle
 39
0.7
 10
-40.42252496096938
 20
775.0191165423918
 30
0.0
 40
0.4
100
AcDbArc
 50
180.0
 51
270.0
1001
AUSTER_ANSICHT
1002
{
1000
Det03
1002
}
1001
AUSTER_FOLIE
1002
{
1000
NSB00347_S3_WAGO
1002
}
  0
ARC
  5
FEA9
330
20
100
AcDbEntity
  8
11000_Left
  6
Continuous
 62
     7
370
    50
100
AcDbCircle
 39
0.7
 10
-40.42252496096938
 20
755.7191165423918
 30
0.0
 40
0.4
100
AcDbArc
 50
180.0
 51
270.0
1001
AUSTER_ANSICHT
1002
{
1000
Det03
1002
}
1001
AUSTER_FOLIE
1002
{
1000
NSB00347_S3_WAGO
1002
}
  0
ARC
  5
FEAA
330
20
100
AcDbEntity
  8
10000_FRONT
  6
DASHED
 62
     7
370
    20
100
AcDbCircle
 39
0.25
 10
-104.8665185283628
 20
713.6661165423918
 30
0.0
 40
0.8
100
AcDbArc
 50
183.7893000000017
 51
270.0
1001
AUSTER_ANSICHT
1002
{
1000
Det03
1002
}
1001
AUSTER_FOLIE
1002
{
1000
NSB00347_S3_WAGO
1002
}
  0
ARC
  5
FEAB
330
20
100
AcDbEntity
  8
10000_FRONT
  6
DASHED
 62
     7
370
    20
100
AcDbCircle
 39
0.25
 10
-112.0706185283628
 20
735.7691165423918
 30
0.0
 40
2.850490999999998
100
AcDbArc
 50
242.7603999999987
 51
267.2395999999985
1001
AUSTER_ANSICHT
1002
{
1000
Det03
1002
}
1001
AUSTER_FOLIE
1002
{
1000
NSB00347_S3_WAGO
1002
}
  0
ARC
  5
FEAC
330
20
100
AcDbEntity
  8
10000_FRONT
  6
DASHED
 62
     7
370
    20
100
AcDbCircle
 39
0.25
 10
-112.0706185283628
 20
735.7691165423918
 30
0.0
 40
1.85
100
AcDbArc
 50
148.8366000000033
 51
181.1634000000023
1001
AUSTER_ANSICHT
1002
{
1000
Det03
1002
}
1001
AUSTER_FOLIE
1002
{
1000
NSB00347_S3_WAGO
1002
}
  0
ARC
  5
FEAD
330
20
100
AcDbEntity
  8
10000_FRONT
  6
DASHED
 62
     7
370
    20
100
AcDbCircle
 39
0.25
 10
-112.0706185283628
 20
735.7691165423918
 30
0.0
 40
1.85
100
AcDbArc
 50
328.8366000000033
 51
1.163400000002273
1001
AUSTER_ANSICHT
1002
{
1000
Det03
1002
}
1001
AUSTER_FOLIE
1002
{
1000
NSB00347_S3_WAGO
1002
}
  0
ARC
  5
FEAE
330
20
100
AcDbEntity
  8
10000_FRONT
  6
DASHED
 62
     7
370
    20
100
AcDbCircle
 39
0.25
 10
-112.0706185283628
 20
735.7691165423918
 30
0.0
 40
2.850490999999998
100
AcDbArc
 50
62.76037000000185
 51
87.23962999999846
1001
AUSTER_ANSICHT
1002
{
1000
Det03
1002
}
1001
AUSTER_FOLIE
1002
{
1000
NSB00347_S3_WAGO
1002
}
  0
CIRCLE
  5
FEAF
330
20
100
AcDbEntity
  8
10000_FRONT
  6
DASHED
 62
     7
370
    20
100
AcDbCircle
 39
0.25
 10
-112.0706185283628
 20
735.7691165423918
 30
0.0
 40
4.0
1001
AUSTER_ANSICHT
1002
{
1000
Det03
1002
}
1001
AUSTER_FOLIE
1002
{
1000
NSB00347_S3_WAGO
1002
}
  0
ARC
  5
FEB0
330
20
100
AcDbEntity
  8
10000_FRONT
  6
DASHED
 62
     7
370
    20
100
AcDbCircle
 39
0.25
 10
-149.6706185283628
 20
713.9213165423917
 30
0.0
 40
1.0
100
AcDbArc
 50
180.0
 51
270.0
1001
AUSTER_ANSICHT
1002
{
1000
Det03
1002
}
1001
AUSTER_FOLIE
1002
{
1000
NSB00347_S3_WAGO
1002
}
  0
ARC
  5
FEB1
330
20
100
AcDbEntity
  8
10000_FRONT
  6
DASHED
 62
     7
370
    20
100
AcDbCircle
 39
0.25
 10
-106.6706185283628
 20
713.9192165423918
 30
0.0
 40
0.9999985
100
AcDbArc
 50
270.0
 51
0.0
1001
AUSTER_ANSICHT
1002
{
1000
Det03
1002
}
1001
AUSTER_FOLIE
1002
{
1000
NSB00347_S3_WAGO
1002
}
  0
ARC
  5
FEB4
330
20
100
AcDbEntity
  8
10000_FRONT
  6
DASHED
 62
     7
370
    20
100
AcDbCircle
 39
0.25
 10
-95.51651852836284
 20
687.7661165423918
 30
0.0
 40
0.4
100
AcDbArc
 50
90.0
 51
180.0
1001
AUSTER_ANSICHT
1002
{
1000
Det03
1002
}
1001
AUSTER_FOLIE
1002
{
1000
NSB00347_S3_WAGO
1002
}
  0
ARC
  5
FEB7
330
20
100
AcDbEntity
  8
10000_FRONT
  6
Continuous
 62
     7
370
    20
100
AcDbCircle
 39
0.25
 10
-160.8222185283628
 20
791.2664165423917
 30
0.0
 40
0.3999995999999999
100
AcDbArc
 50
269.9580999999985
 51
0.0
1001
AUSTER_ANSICHT
1002
{
1000
Det03
1002
}
1001
AUSTER_FOLIE
1002
{
1000
NSB00347_S3_WAGO
1002
}
  0
CIRCLE
  5
FEB8
330
20
100
AcDbEntity
  8
10000_FRONT
  6
DASHED
 62
     7
370
    20
100
AcDbCircle
 39
0.25
 10
-105.6634185283628
 20
698.0847165423917
 30
0.0
 40
3.0
1001
AUSTER_ANSICHT
1002
{
1000
Det03
1002
}
1001
AUSTER_FOLIE
1002
{
1000
NSB00347_S3_WAGO
1002
}
  0
CIRCLE
  5
FEB9
330
20
100
AcDbEntity
  8
10000_FRONT
  6
DASHED
 62
     7
370
    20
100
AcDbCircle
 39
0.25
 10
-128.1665185283628
 20
698.0911165423917
 30
0.0
 40
3.0
1001
AUSTER_ANSICHT
1002
{
1000
Det03
1002
}
1001
AUSTER_FOLIE
1002
{
1000
NSB00347_S3_WAGO
1002
}
  0
ARC
  5
FEBB
330
20
100
AcDbEntity
  8
10000_FRONT
  6
Continuous
 62
     7
370
    50
100
AcDbCircle
 39
0.7
 10
-161.6681185283628
 20
772.2670165423918
 30
0.0
 40
1.498672
100
AcDbArc
 50
89.94925999999905
 51
180.035599999998
1001
AUSTER_ANSICHT
1002
{
1000
Det03
1002
}
1001
AUSTER_FOLIE
1002
{
1000
NSB00347_S3_WAGO
1002
}
  0
ARC
  5
FEBC
330
20
100
AcDbEntity
  8
10000_FRONT
  6
DASHED
 62
     7
370
    20
100
AcDbCircle
 39
0.25
 10
-161.6653185283628
 20
714.3680165423918
 30
0.0
 40
1.501951999999999
100
AcDbArc
 50
180.0744999999995
 51
269.9464999999991
1001
AUSTER_ANSICHT
1002
{
1000
Det03
1002
}
1001
AUSTER_FOLIE
1002
{
1000
NSB00347_S3_WAGO
1002
}
  0
ARC
  5
FEBE
330
20
100
AcDbEntity
  8
10000_FRONT
  6
DASHED
 62
     7
370
    20
100
AcDbCircle
 39
0.25
 10
-96.31651852836284
 20
684.9661165423919
 30
0.0
 40
0.4
100
AcDbArc
 50
270.0
 51
0.0
1001
AUSTER_ANSICHT
1002
{
1000
Det03
1002
}
1001
AUSTER_FOLIE
1002
{
1000
NSB00347_S3_WAGO
1002
}
  0
ARC
  5
FEBF
330
20
100
AcDbEntity
  8
10000_FRONT
  6
DASHED
 62
     7
370
    20
100
AcDbCircle
 39
0.25
 10
-160.0167185283628
 20
684.9661165423919
 30
0.0
 40
0.4
100
AcDbArc
 50
180.0
 51
270.0
1001
AUSTER_ANSICHT
1002
{
1000
Det03
1002
}
1001
AUSTER_FOLIE
1002
{
1000
NSB00347_S3_WAGO
1002
}
  0
ARC
  5
FEC0
330
20
100
AcDbEntity
  8
10000_FRONT
  6
DASHED
 62
     7
370
    20
100
AcDbCircle
 39
0.25
 10
-160.8167185283628
 20
687.7661165423918
 30
0.0
 40
0.4
100
AcDbArc
 50
0.0
 51
90.0
1001
AUSTER_ANSICHT
1002
{
1000
Det03
1002
}
1001
AUSTER_FOLIE
1002
{
1000
NSB00347_S3_WAGO
1002
}
  0
ARC
  5
FEC1
330
20
100
AcDbEntity
  8
10000_FRONT
  6
DASHED
 62
     7
370
    20
100
AcDbCircle
 39
0.25
 10
-151.4665185283628
 20
713.6661165423918
 30
0.0
 40
0.8
100
AcDbArc
 50
270.0
 51
0.0
1001
AUSTER_ANSICHT
1002
{
1000
Det03
1002
}
1001
AUSTER_FOLIE
1002
{
1000
NSB00347_S3_WAGO
1002
}
  0
ARC
  5
FEC2
330
20
100
AcDbEntity
  8
10000_FRONT
  6
DASHED
 62
     7
370
    20
100
AcDbCircle
 39
0.25
 10
-144.2665185283628
 20
684.9661165423919
 30
0.0
 40
0.4
100
AcDbArc
 50
270.0
 51
0.0
1001
AUSTER_ANSICHT
1002
{
1000
Det03
1002
}
1001
AUSTER_FOLIE
1002
{
1000
NSB00347_S3_WAGO
1002
}
  0
ARC
  5
FEC3
330
20
100
AcDbEntity
  8
10000_FRONT
  6
DASHED
 62
     7
370
    20
100
AcDbCircle
 39
0.25
 10
-112.0665185283628
 20
684.9661165423919
 30
0.0
 40
0.4
100
AcDbArc
 50
180.0
 51
270.0
1001
AUSTER_ANSICHT
1002
{
1000
Det03
1002
}
1001
AUSTER_FOLIE
1002
{
1000
NSB00347_S3_WAGO
1002
}
  0
ARC
  5
FEC4
330
20
100
AcDbEntity
  8
10000_FRONT
  6
DASHED
 62
     7
370
    20
100
AcDbCircle
 39
0.25
 10
-121.7665185283628
 20
684.9661165423919
 30
0.0
 40
0.4
100
AcDbArc
 50
270.0
 51
0.0
1001
AUSTER_ANSICHT
1002
{
1000
Det03
1002
}
1001
AUSTER_FOLIE
1002
{
1000
NSB00347_S3_WAGO
1002
}
  0
ARC
  5
FEC5
330
20
100
AcDbEntity
  8
10000_FRONT
  6
DASHED
 62
     7
370
    20
100
AcDbCircle
 39
0.25
 10
-134.5665185283628
 20
684.9661165423919
 30
0.0
 40
0.4
100
AcDbArc
 50
180.0
 51
270.0
1001
AUSTER_ANSICHT
1002
{
1000
Det03
1002
}
1001
AUSTER_FOLIE
1002
{
1000
NSB00347_S3_WAGO
1002
}
  0
CIRCLE
  5
FEC6
330
20
100
AcDbEntity
  8
10000_FRONT
  6
DASHED
 62
     7
370
    20
100
AcDbCircle
 39
0.25
 10
-150.6634185283628
 20
698.0847165423917
 30
0.0
 40
3.0
1001
AUSTER_ANSICHT
1002
{
1000
Det03
1002
}
1001
AUSTER_FOLIE
1002
{
1000
NSB00347_S3_WAGO
1002
}
  0
ARC
  5
FEC8
330
20
100
AcDbEntity
  8
10000_FRONT
  6
Continuous
 62
     7
370
    20
100
AcDbCircle
 39
0.25
 10
-160.0222185283628
 20
794.0664165423918
 30
0.0
 40
0.4
100
AcDbArc
 50
90.0
 51
180.0
1001
AUSTER_ANSICHT
1002
{
1000
Det03
1002
}
1001
AUSTER_FOLIE
1002
{
1000
NSB00347_S3_WAGO
1002
}
  0
ARC
  5
FEC9
330
20
100
AcDbEntity
  8
10000_FRONT
  6
Continuous
 62
     7
370
    20
100
AcDbCircle
 39
0.25
 10
-96.32221852836288
 20
794.0664165423918
 30
0.0
 40
0.4
100
AcDbArc
 50
0.0
 51
90.0
1001
AUSTER_ANSICHT
1002
{
1000
Det03
1002
}
1001
AUSTER_FOLIE
1002
{
1000
NSB00347_S3_WAGO
1002
}
  0
ARC
  5
FECA
330
20
100
AcDbEntity
  8
10000_FRONT
  6
Continuous
 62
     7
370
    20
100
AcDbCircle
 39
0.25
 10
-95.52221852836279
 20
791.2664165423917
 30
0.0
 40
0.3999995999999999
100
AcDbArc
 50
180.0
 51
270.0419000000015
1001
AUSTER_ANSICHT
1002
{
1000
Det03
1002
}
1001
AUSTER_FOLIE
1002
{
1000
NSB00347_S3_WAGO
1002
}
  0
ARC
  5
FECB
330
20
100
AcDbEntity
  8
10000_FRONT
  6
Continuous
 62
     7
370
    20
100
AcDbCircle
 39
0.25
 10
-130.6222185283628
 20
683.7164165423919
 30
0.0
 40
0.8
100
AcDbArc
 50
90.0
 51
180.0
1001
AUSTER_ANSICHT
1002
{
1000
Det03
1002
}
1001
AUSTER_FOLIE
1002
{
1000
NSB00347_S3_WAGO
1002
}
  0
ARC
  5
FECC
330
20
100
AcDbEntity
  8
10000_FRONT
  6
Continuous
 62
     7
370
    20
100
AcDbCircle
 39
0.25
 10
-125.7222185283628
 20
683.7164165423919
 30
0.0
 40
0.8
100
AcDbArc
 50
0.0
 51
90.0
1001
AUSTER_ANSICHT
1002
{
1000
Det03
1002
}
1001
AUSTER_FOLIE
1002
{
1000
NSB00347_S3_WAGO
1002
}
  0
ARC
  5
FECD
330
20
100
AcDbEntity
  8
10000_FRONT
  6
DASHED
 62
     7
370
    20
100
AcDbCircle
 39
0.25
 10
-151.6722185283628
 20
678.5164165423918
 30
0.0
 40
1.5
100
AcDbArc
 50
180.0
 51
270.0
1001
AUSTER_ANSICHT
1002
{
1000
Det03
1002
}
1001
AUSTER_FOLIE
1002
{
1000
NSB00347_S3_WAGO
1002
}
  0
ARC
  5
FED1
330
20
100
AcDbEntity
  8
10000_FRONT
  6
Continuous
 62
     7
370
    20
100
AcDbCircle
 39
0.25
 10
-103.9722185283628
 20
796.2164165423918
 30
0.0
 40
0.8
100
AcDbArc
 50
0.0000000251171202
 51
90.0
1001
AUSTER_ANSICHT
1002
{
1000
Det03
1002
}
1001
AUSTER_FOLIE
1002
{
1000
NSB00347_S3_WAGO
1002
}
  0
ARC
  5
FED5
330
20
100
AcDbEntity
  8
10000_FRONT
  6
Continuous
 62
     7
370
    20
100
AcDbCircle
 39
0.25
 10
-144.2722185283628
 20
794.0664165423918
 30
0.0
 40
0.4
100
AcDbArc
 50
0.000000587718466
 51
90.0
1001
AUSTER_ANSICHT
1002
{
1000
Det03
1002
}
1001
AUSTER_FOLIE
1002
{
1000
NSB00347_S3_WAGO
1002
}
  0
ARC
  5
FED6
330
20
100
AcDbEntity
  8
10000_FRONT
  6
Continuous
 62
     7
370
    20
100
AcDbCircle
 39
0.25
 10
-134.5722185283628
 20
794.0664165423918
 30
0.0
 40
0.4
100
AcDbArc
 50
90.0
 51
180.0
1001
AUSTER_ANSICHT
1002
{
1000
Det03
1002
}
1001
AUSTER_FOLIE
1002
{
1000
NSB00347_S3_WAGO
1002
}
  0
ARC
  5
FED7
330
20
100
AcDbEntity
  8
10000_FRONT
  6
Continuous
 62
     7
370
    20
100
AcDbCircle
 39
0.25
 10
-121.7722185283628
 20
794.0664165423918
 30
0.0
 40
0.4
100
AcDbArc
 50
0.000000587718466
 51
90.0
1001
AUSTER_ANSICHT
1002
{
1000
Det03
1002
}
1001
AUSTER_FOLIE
1002
{
1000
NSB00347_S3_WAGO
1002
}
  0
ARC
  5
FED8
330
20
100
AcDbEntity
  8
10000_FRONT
  6
Continuous
 62
     7
370
    20
100
AcDbCircle
 39
0.25
 10
-112.0722185283627
 20
794.0664165423918
 30
0.0
 40
0.4
100
AcDbArc
 50
90.0
 51
180.0
1001
AUSTER_ANSICHT
1002
{
1000
Det03
1002
}
1001
AUSTER_FOLIE
1002
{
1000
NSB00347_S3_WAGO
1002
}
  0
ARC
  5
FEDC
330
20
100
AcDbEntity
  8
10000_FRONT
  6
DASHED
 62
     7
370
    20
100
AcDbCircle
 39
0.25
 10
-135.1706185283628
 20
735.7691165423918
 30
0.0
 40
2.850490999999998
100
AcDbArc
 50
302.7603999999973
 51
327.2396000000032
1001
AUSTER_ANSICHT
1002
{
1000
Det03
1002
}
1001
AUSTER_FOLIE
1002
{
1000
NSB00347_S3_WAGO
1002
}
  0
ARC
  5
FEDD
330
20
100
AcDbEntity
  8
10000_FRONT
  6
DASHED
 62
     7
370
    20
100
AcDbCircle
 39
0.25
 10
-135.1706185283628
 20
735.7691165423918
 30
0.0
 40
1.85
100
AcDbArc
 50
208.8365999999963
 51
241.1634000000001
1001
AUSTER_ANSICHT
1002
{
1000
Det03
1002
}
1001
AUSTER_FOLIE
1002
{
1000
NSB00347_S3_WAGO
1002
}
  0
ARC
  5
FEDE
330
20
100
AcDbEntity
  8
10000_FRONT
  6
DASHED
 62
     7
370
    20
100
AcDbCircle
 39
0.25
 10
-135.1706185283628
 20
735.7691165423918
 30
0.0
 40
1.85
100
AcDbArc
 50
28.83654999999987
 51
61.16344999999935
1001
AUSTER_ANSICHT
1002
{
1000
Det03
1002
}
1001
AUSTER_FOLIE
1002
{
1000
NSB00347_S3_WAGO
1002
}
  0
ARC
  5
FEDF
330
20
100
AcDbEntity
  8
10000_FRONT
  6
DASHED
 62
     7
370
    20
100
AcDbCircle
 39
0.25
 10
-135.1706185283628
 20
735.7691165423918
 30
0.0
 40
2.850490999999998
100
AcDbArc
 50
122.7603999999973
 51
147.2396000000031
1001
AUSTER_ANSICHT
1002
{
1000
Det03
1002
}
1001
AUSTER_FOLIE
1002
{
1000
NSB00347_S3_WAGO
1002
}
  0
CIRCLE
  5
FEE0
330
20
100
AcDbEntity
  8
10000_FRONT
  6
DASHED
 62
     7
370
    20
100
AcDbCircle
 39
0.25
 10
-135.1706185283628
 20
735.7691165423918
 30
0.0
 40
3.02
1001
AUSTER_ANSICHT
1002
{
1000
Det03
1002
}
1001
AUSTER_FOLIE
1002
{
1000
NSB00347_S3_WAGO
1002
}
  0
CIRCLE
  5
FEE1
330
20
100
AcDbEntity
  8
10000_FRONT
  6
DASHED
 62
     7
370
    20
100
AcDbCircle
 39
0.25
 10
-146.6206185283628
 20
735.7691165423918
 30
0.0
 40
2.9
1001
AUSTER_ANSICHT
1002
{
1000
Det03
1002
}
1001
AUSTER_FOLIE
1002
{
1000
NSB00347_S3_WAGO
1002
}
  0
ARC
  5
FEE9
330
20
100
AcDbEntity
  8
11000_Left
  6
DASHED
 62
     7
370
    20
100
AcDbCircle
 39
0.25
 10
91.76127503903066
 20
713.6691165423918
 30
0.0
 40
0.8
100
AcDbArc
 50
270.0
 51
352.5672999999971
1001
AUSTER_ANSICHT
1002
{
1000
Det03
1002
}
1001
AUSTER_FOLIE
1002
{
1000
NSB00347_S3_WAGO
1002
}
  0
ARC
  5
FEEE
330
20
100
AcDbEntity
  8
11000_Left
  6
DASHED
 62
     7
370
    20
100
AcDbCircle
 39
0.25
 10
98.52400503903062
 20
738.3691165423917
 30
0.0
 40
0.3
100
AcDbArc
 50
15.547740000001
 51
90.0
1001
AUSTER_ANSICHT
1002
{
1000
Det03
1002
}
1001
AUSTER_FOLIE
1002
{
1000
NSB00347_S3_WAGO
1002
}
  0
ARC
  5
FEF7
330
20
100
AcDbEntity
  8
11000_Left
  6
DASHED
 62
     7
370
    20
100
AcDbCircle
 39
0.25
 10
-327.2448249609694
 20
752.7691165423918
 30
0.0
 40
400.0
100
AcDbArc
 50
353.2309000000032
 51
354.2752000000024
1001
AUSTER_ANSICHT
1002
{
1000
Det03
1002
}
1001
AUSTER_FOLIE
1002
{
1000
NSB00347_S3_WAGO
1002
}
  0
ARC
  5
FF05
330
20
100
AcDbEntity
  8
11000_Left
  6
Continuous
 62
     7
370
    50
100
AcDbCircle
 39
0.7
 10
78.06387503903064
 20
754.2691165423917
 30
0.0
 40
0.4
100
AcDbArc
 50
270.0
 51
346.2000000000009
1001
AUSTER_ANSICHT
1002
{
1000
Det03
1002
}
1001
AUSTER_FOLIE
1002
{
1000
NSB00347_S3_WAGO
1002
}
  0
ARC
  5
FF13
330
20
100
AcDbEntity
  8
11000_Left
  6
Continuous
 62
     7
370
    50
100
AcDbCircle
 39
0.7
 10
77.94137503903063
 20
754.1630165423917
 30
0.0
 40
0.4000004000000001
100
AcDbArc
 50
270.0001000000003
 51
346.2337000000019
1001
AUSTER_ANSICHT
1002
{
1000
Det03
1002
}
1001
AUSTER_FOLIE
1002
{
1000
NSB00347_S3_WAGO
1002
}
  0
ARC
  5
FF17
330
20
100
AcDbEntity
  8
11000_Left
  6
DASHED
 62
     7
370
    20
100
AcDbCircle
 39
0.25
 10
-48.32252496096939
 20
749.0191165423917
 30
0.0
 40
2.5
100
AcDbArc
 50
90.0
 51
180.0
1001
AUSTER_ANSICHT
1002
{
1000
Det03
1002
}
1001
AUSTER_FOLIE
1002
{
1000
NSB00347_S3_WAGO
1002
}
  0
ARC
  5
FF18
330
20
100
AcDbEntity
  8
11000_Left
  6
DASHED
 62
     7
370
    20
100
AcDbCircle
 39
0.25
 10
-47.12252496096937
 20
747.8191165423918
 30
0.0
 40
1.199999999999999
100
AcDbArc
 50
90.0
 51
180.0
1001
AUSTER_ANSICHT
1002
{
1000
Det03
1002
}
1001
AUSTER_FOLIE
1002
{
1000
NSB00347_S3_WAGO
1002
}
  0
ARC
  5
FF19
330
20
100
AcDbEntity
  8
11000_Left
  6
DASHED
 62
     7
370
    20
100
AcDbCircle
 39
0.25
 10
-48.32252496096939
 20
730.0191165423917
 30
0.0
 40
2.5
100
AcDbArc
 50
180.0
 51
270.0
1001
AUSTER_ANSICHT
1002
{
1000
Det03
1002
}
1001
AUSTER_FOLIE
1002
{
1000
NSB00347_S3_WAGO
1002
}
  0
ARC
  5
FF1A
330
20
100
AcDbEntity
  8
11000_Left
  6
DASHED
 62
     7
370
    20
100
AcDbCircle
 39
0.25
 10
-47.12252496096937
 20
731.2191165423918
 30
0.0
 40
1.199999999999999
100
AcDbArc
 50
180.0
 51
270.0
1001
AUSTER_ANSICHT
1002
{
1000
Det03
1002
}
1001
AUSTER_FOLIE
1002
{
1000
NSB00347_S3_WAGO
1002
}
  0
ARC
  5
FF1B
330
20
100
AcDbEntity
  8
11000_Left
  6
DASHED
 62
     7
370
    20
100
AcDbCircle
 39
0.25
 10
-57.82252496096939
 20
717.5191165423917
 30
0.0
 40
3.0
100
AcDbArc
 50
180.0
 51
270.0
1001
AUSTER_ANSICHT
1002
{
1000
Det03
1002
}
1001
AUSTER_FOLIE
1002
{
1000
NSB00347_S3_WAGO
1002
}
  0
ARC
  5
FF1C
330
20
100
AcDbEntity
  8
11000_Left
  6
DASHED
 62
     7
370
    20
100
AcDbCircle
 39
0.25
 10
-57.82252496096939
 20
761.5191165423917
 30
0.0
 40
3.0
100
AcDbArc
 50
90.0
 51
180.0
1001
AUSTER_ANSICHT
1002
{
1000
Det03
1002
}
1001
AUSTER_FOLIE
1002
{
1000
NSB00347_S3_WAGO
1002
}
  0
ARC
  5
FF1D
330
20
100
AcDbEntity
  8
11000_Left
  6
DASHED
 62
     7
370
    20
100
AcDbCircle
 39
0.25
 10
-54.82252496096939
 20
720.5191165423918
 30
0.0
 40
3.0
100
AcDbArc
 50
180.0
 51
270.0
1001
AUSTER_ANSICHT
1002
{
1000
Det03
1002
}
1001
AUSTER_FOLIE
1002
{
1000
NSB00347_S3_WAGO
1002
}
  0
ARC
  5
FF1E
330
20
100
AcDbEntity
  8
11000_Left
  6
DASHED
 62
     7
370
    20
100
AcDbCircle
 39
0.25
 10
-54.82252496096939
 20
758.5191165423918
 30
0.0
 40
3.0
100
AcDbArc
 50
90.0
 51
180.0
1001
AUSTER_ANSICHT
1002
{
1000
Det03
1002
}
1001
AUSTER_FOLIE
1002
{
1000
NSB00347_S3_WAGO
1002
}
  0
ARC
  5
FF1F
330
20
100
AcDbEntity
  8
11000_Left
  6
DASHED
 62
     7
370
    20
100
AcDbCircle
 39
0.25
 10
-39.13592496096939
 20
752.7306165423917
 30
0.0
 40
1.211467999999997
100
AcDbArc
 50
270.0
 51
0.0
1001
AUSTER_ANSICHT
1002
{
1000
Det03
1002
}
1001
AUSTER_FOLIE
1002
{
1000
NSB00347_S3_WAGO
1002
}
  0
ARC
  5
FF20
330
20
100
AcDbEntity
  8
11000_Left
  6
DASHED
 62
     7
370
    20
100
AcDbCircle
 39
0.25
 10
-37.82252496096939
 20
751.0191165423917
 30
0.0
 40
2.0
100
AcDbArc
 50
270.0
 51
0.0
1001
AUSTER_ANSICHT
1002
{
1000
Det03
1002
}
1001
AUSTER_FOLIE
1002
{
1000
NSB00347_S3_WAGO
1002
}
  0
ARC
  5
FF29
330
20
100
AcDbEntity
  8
11000_Left
  6
DASHED
 62
     7
370
    20
100
AcDbCircle
 39
0.25
 10
-37.82252496096939
 20
751.0191165423917
 30
0.0
 40
2.0
100
AcDbArc
 50
270.0
 51
0.0
1001
AUSTER_ANSICHT
1002
{
1000
Det03
1002
}
1001
AUSTER_FOLIE
1002
{
1000
NSB00347_S3_WAGO
1002
}
  0
ARC
  5
FF2A
330
20
100
AcDbEntity
  8
11000_Left
  6
DASHED
 62
     7
370
    20
100
AcDbCircle
 39
0.25
 10
-39.13592496096939
 20
752.7306165423917
 30
0.0
 40
1.211467999999997
100
AcDbArc
 50
270.0
 51
0.0
1001
AUSTER_ANSICHT
1002
{
1000
Det03
1002
}
1001
AUSTER_FOLIE
1002
{
1000
NSB00347_S3_WAGO
1002
}
  0
TEXT
  5
FF3D
330
20
100
AcDbEntity
  8
10000_FRONT
  6
DASHED
 62
     7
370
    20
100
AcDbText
 39
0.25
 10
-149.1706185283628
 20
759.2661165423918
 30
0.0
 40
3.0
  1
SIEMENS
 41
0.6600000000000003
100
AcDbText
1001
AUSTER_ANSICHT
1002
{
1000
Det03
1002
}
1001
AUSTER_FOLIE
1002
{
1000
NSB00347_S3_WAGO
1002
}
  0
TEXT
  5
FF3F
330
20
100
AcDbEntity
  8
10000_FRONT
  6
DASHED
 62
     7
370
    20
100
AcDbText
 39
0.25
 10
-108.8491185283628
 20
744.8691165423918
 30
0.0
 40
1.5
  1
1
 41
0.6600000000000003
100
AcDbText
1001
AUSTER_ANSICHT
1002
{
1000
Det03
1002
}
1001
AUSTER_FOLIE
1002
{
1000
NSB00347_S3_WAGO
1002
}
  0
TEXT
  5
FF40
330
20
100
AcDbEntity
  8
10000_FRONT
  6
DASHED
 62
     7
370
    20
100
AcDbText
 39
0.25
 10
-116.3491185283628
 20
744.8691165423918
 30
0.0
 40
1.5
  1
0
 41
0.6600000000000003
100
AcDbText
1001
AUSTER_ANSICHT
1002
{
1000
Det03
1002
}
1001
AUSTER_FOLIE
1002
{
1000
NSB00347_S3_WAGO
1002
}
  0
TEXT
  5
FF41
330
20
100
AcDbEntity
  8
10000_FRONT
  6
DASHED
 62
     7
370
    20
100
AcDbText
 39
0.25
 10
-138.0206185283628
 20
730.7691165423918
 30
0.0
 40
1.5
  1
RESET
 41
0.6600000000000003
100
AcDbText
1001
AUSTER_ANSICHT
1002
{
1000
Det03
1002
}
1001
AUSTER_FOLIE
1002
{
1000
NSB00347_S3_WAGO
1002
}
  0
TEXT
  5
FF42
330
20
100
AcDbEntity
  8
10000_FRONT
  6
DASHED
 62
     7
370
    20
100
AcDbText
 39
0.25
 10
-132.5641185283628
 20
739.8440165423918
 30
0.0
 40
2.0
  1
A
 41
0.6600000000000003
100
AcDbText
1001
AUSTER_ANSICHT
1002
{
1000
Det03
1002
}
1001
AUSTER_FOLIE
1002
{
1000
NSB00347_S3_WAGO
1002
}
  0
TEXT
  5
FF43
330
20
100
AcDbEntity
  8
10000_FRONT
  6
DASHED
 62
     7
370
    20
100
AcDbText
 39
0.25
 10
-139.5641185283628
 20
739.8440165423918
 30
0.0
 40
2.0
  1
H
 41
0.6600000000000003
100
AcDbText
1001
AUSTER_ANSICHT
1002
{
1000
Det03
1002
}
1001
AUSTER_FOLIE
1002
{
1000
NSB00347_S3_WAGO
1002
}
  0
LINE
  5
FF44
330
20
100
AcDbEntity
  8
11000_Left
  6
Continuous
 62
     7
370
    50
100
AcDbLine
 39
0.7
 10
-35.82252496096939
 20
721.4191165423918
 30
0.0
 11
-37.32252496096939
 21
721.4191165423918
 31
0.0
1001
AUSTER_ANSICHT
1002
{
1000
Det03
1002
}
1001
AUSTER_FOLIE
1002
{
1000
NSB00342_S3
1002
}
  0
LINE
  5
FF45
330
20
100
AcDbEntity
  8
11000_Left
  6
Continuous
 62
     7
370
    20
100
AcDbLine
 39
0.7
 10
-36.82252496096939
 20
722.0191165423917
 30
0.0
 11
-35.82252496096939
 21
722.0191165423917
 31
0.0
1001
AUSTER_ANSICHT
1002
{
1000
Det03
1002
}
1001
AUSTER_FOLIE
1002
{
1000
NSB00342_S3
1002
}
  0
LINE
  5
FF46
330
20
100
AcDbEntity
  8
10000_FRONT
  6
DASHED
 62
     7
370
    20
100
AcDbLine
 39
0.25
 10
-153.1722185283628
 20
678.5164165423918
 30
0.0
 11
-153.1722185283628
 21
684.5661165423919
 31
0.0
1001
AUSTER_ANSICHT
1002
{
1000
Det03
1002
}
1001
AUSTER_FOLIE
1002
{
1000
NSB00342_S3
1002
}
  0
LINE
  5
FF47
330
20
100
AcDbEntity
  8
10000_FRONT
  6
DASHED
 62
     7
370
    20
100
AcDbLine
 39
0.25
 10
-119.6706185283628
 20
749.7003165423917
 30
0.0
 11
-105.6706185283628
 21
749.7003165423917
 31
0.0
1001
AUSTER_ANSICHT
1002
{
1000
Det03
1002
}
1001
AUSTER_FOLIE
1002
{
1000
NSB00342_S3
1002
}
  0
LINE
  5
FF48
330
20
100
AcDbEntity
  8
10000_FRONT
  6
DASHED
 62
     7
370
    20
100
AcDbLine
 39
0.25
 10
-119.6706185283628
 20
728.3191165423918
 30
0.0
 11
-105.6706185283628
 21
728.3191165423918
 31
0.0
1001
AUSTER_ANSICHT
1002
{
1000
Det03
1002
}
1001
AUSTER_FOLIE
1002
{
1000
NSB00342_S3
1002
}
  0
LINE
  5
FF49
330
20
100
AcDbEntity
  8
10000_FRONT
  6
DASHED
 62
     7
370
    20
100
AcDbLine
 39
0.25
 10
-112.2079185283628
 20
732.921916542392
 30
0.0
 11
-111.6202185283628
 21
735.1153165423918
 31
0.0
1001
AUSTER_ANSICHT
1002
{
1000
Det03
1002
}
1001
AUSTER_FOLIE
1002
{
1000
NSB00342_S3
1002
}
  0
LINE
  5
FF4A
330
20
100
AcDbEntity
  8
10000_FRONT
  6
DASHED
 62
     7
370
    20
100
AcDbLine
 39
0.25
 10
-111.3536185283628
 20
736.1102165423918
 30
0.0
 11
-110.7659185283628
 21
738.3035165423917
 31
0.0
1001
AUSTER_ANSICHT
1002
{
1000
Det03
1002
}
1001
AUSTER_FOLIE
1002
{
1000
NSB00342_S3
1002
}
  0
LINE
  5
FF4B
330
20
100
AcDbEntity
  8
10000_FRONT
  6
DASHED
 62
     7
370
    20
100
AcDbLine
 39
0.25
 10
-111.9333185283628
 20
738.6163165423917
 30
0.0
 11
-112.5210185283628
 21
736.4230165423918
 31
0.0
1001
AUSTER_ANSICHT
1002
{
1000
Det03
1002
}
1001
AUSTER_FOLIE
1002
{
1000
NSB00342_S3
1002
}
  0
LINE
  5
FF4C
330
20
100
AcDbEntity
  8
10000_FRONT
  6
DASHED
 62
     7
370
    20
100
AcDbLine
 39
0.25
 10
-112.7876185283628
 20
735.4281165423917
 30
0.0
 11
-113.3753185283628
 21
733.2347165423917
 31
0.0
1001
AUSTER_ANSICHT
1002
{
1000
Det03
1002
}
1001
AUSTER_FOLIE
1002
{
1000
NSB00342_S3
1002
}
  0
LINE
  5
FF4D
330
20
100
AcDbEntity
  8
10000_FRONT
  6
DASHED
 62
     7
370
    20
100
AcDbLine
 39
0.25
 10
-113.9202185283628
 20
735.7316165423918
 30
0.0
 11
-112.9617185283628
 21
735.4747165423917
 31
0.0
1001
AUSTER_ANSICHT
1002
{
1000
Det03
1002
}
1001
AUSTER_FOLIE
1002
{
1000
NSB00342_S3
1002
}
  0
LINE
  5
FF4E
330
20
100
AcDbEntity
  8
10000_FRONT
  6
DASHED
 62
     7
370
    20
100
AcDbLine
 39
0.25
 10
-112.6951185283628
 20
736.4696165423918
 30
0.0
 11
-113.6536185283627
 21
736.7265165423917
 31
0.0
1001
AUSTER_ANSICHT
1002
{
1000
Det03
1002
}
1001
AUSTER_FOLIE
1002
{
1000
NSB00342_S3
1002
}
  0
LINE
  5
FF4F
330
20
100
AcDbEntity
  8
10000_FRONT
  6
DASHED
 62
     7
370
    20
100
AcDbLine
 39
0.25
 10
-110.2210185283628
 20
735.8067165423918
 30
0.0
 11
-111.1795185283628
 21
736.0635165423917
 31
0.0
1001
AUSTER_ANSICHT
1002
{
1000
Det03
1002
}
1001
AUSTER_FOLIE
1002
{
1000
NSB00342_S3
1002
}
  0
LINE
  5
FF50
330
20
100
AcDbEntity
  8
10000_FRONT
  6
DASHED
 62
     7
370
    20
100
AcDbLine
 39
0.25
 10
-111.4460185283628
 20
735.0686165423918
 30
0.0
 11
-110.4876185283629
 21
734.8118165423918
 31
0.0
1001
AUSTER_ANSICHT
1002
{
1000
Det03
1002
}
1001
AUSTER_FOLIE
1002
{
1000
NSB00342_S3
1002
}
  0
LINE
  5
FF51
330
20
100
AcDbEntity
  8
10000_FRONT
  6
DASHED
 62
     7
370
    20
100
AcDbLine
 39
0.25
 10
-112.6951185283628
 20
736.4696165423918
 30
0.0
 11
-112.5210185283628
 21
736.4230165423918
 31
0.0
1001
AUSTER_ANSICHT
1002
{
1000
Det03
1002
}
1001
AUSTER_FOLIE
1002
{
1000
NSB00342_S3
1002
}
  0
LINE
  5
FF52
330
20
100
AcDbEntity
  8
10000_FRONT
  6
DASHED
 62
     7
370
    20
100
AcDbLine
 39
0.25
 10
-111.1795185283628
 20
736.0635165423917
 30
0.0
 11
-111.3536185283628
 21
736.1102165423918
 31
0.0
1001
AUSTER_ANSICHT
1002
{
1000
Det03
1002
}
1001
AUSTER_FOLIE
1002
{
1000
NSB00342_S3
1002
}
  0
LINE
  5
FF53
330
20
100
AcDbEntity
  8
10000_FRONT
  6
DASHED
 62
     7
370
    20
100
AcDbLine
 39
0.25
 10
-112.9617185283628
 20
735.4747165423917
 30
0.0
 11
-112.7876185283628
 21
735.4281165423917
 31
0.0
1001
AUSTER_ANSICHT
1002
{
1000
Det03
1002
}
1001
AUSTER_FOLIE
1002
{
1000
NSB00342_S3
1002
}
  0
LINE
  5
FF54
330
20
100
AcDbEntity
  8
10000_FRONT
  6
DASHED
 62
     7
370
    20
100
AcDbLine
 39
0.25
 10
-111.4460185283628
 20
735.0686165423918
 30
0.0
 11
-111.6202185283628
 21
735.1153165423918
 31
0.0
1001
AUSTER_ANSICHT
1002
{
1000
Det03
1002
}
1001
AUSTER_FOLIE
1002
{
1000
NSB00342_S3
1002
}
  0
LINE
  5
FF55
330
20
100
AcDbEntity
  8
10000_FRONT
  6
DASHED
 62
     7
370
    20
100
AcDbLine
 39
0.25
 10
-111.4510185283628
 20
744.5690165423918
 30
0.0
 11
-111.4510185283628
 21
747.1682165423918
 31
0.0
1001
AUSTER_ANSICHT
1002
{
1000
Det03
1002
}
1001
AUSTER_FOLIE
1002
{
1000
NSB00342_S3
1002
}
  0
LINE
  5
FF56
330
20
100
AcDbEntity
  8
10000_FRONT
  6
DASHED
 62
     7
370
    20
100
AcDbLine
 39
0.25
 10
-110.6902185283628
 20
744.5690165423918
 30
0.0
 11
-110.6902185283628
 21
747.1682165423918
 31
0.0
1001
AUSTER_ANSICHT
1002
{
1000
Det03
1002
}
1001
AUSTER_FOLIE
1002
{
1000
NSB00342_S3
1002
}
  0
LINE
  5
FF57
330
20
100
AcDbEntity
  8
10000_FRONT
  6
DASHED
 62
     7
370
    20
100
AcDbLine
 39
0.25
 10
-111.3706185283628
 20
747.1682165423918
 30
0.0
 11
-111.3706185283628
 21
744.5690165423918
 31
0.0
1001
AUSTER_ANSICHT
1002
{
1000
Det03
1002
}
1001
AUSTER_FOLIE
1002
{
1000
NSB00342_S3
1002
}
  0
LINE
  5
FF58
330
20
100
AcDbEntity
  8
10000_FRONT
  6
DASHED
 62
     7
370
    20
100
AcDbLine
 39
0.25
 10
-110.7706185283628
 20
744.5690165423918
 30
0.0
 11
-110.7706185283628
 21
747.1682165423918
 31
0.0
1001
AUSTER_ANSICHT
1002
{
1000
Det03
1002
}
1001
AUSTER_FOLIE
1002
{
1000
NSB00342_S3
1002
}
  0
LINE
  5
FF59
330
20
100
AcDbEntity
  8
10000_FRONT
  6
DASHED
 62
     7
370
    20
100
AcDbLine
 39
0.25
 10
-114.5706185283628
 20
747.1691165423918
 30
0.0
 11
-109.5706185283628
 21
747.1691165423918
 31
0.0
1001
AUSTER_ANSICHT
1002
{
1000
Det03
1002
}
1001
AUSTER_FOLIE
1002
{
1000
NSB00342_S3
1002
}
  0
LINE
  5
FF5A
330
20
100
AcDbEntity
  8
10000_FRONT
  6
DASHED
 62
     7
370
    20
100
AcDbLine
 39
0.25
 10
-109.5706185283628
 20
747.1691165423918
 30
0.0
 11
-109.5706185283628
 21
744.5691165423918
 31
0.0
1001
AUSTER_ANSICHT
1002
{
1000
Det03
1002
}
1001
AUSTER_FOLIE
1002
{
1000
NSB00342_S3
1002
}
  0
LINE
  5
FF5B
330
20
100
AcDbEntity
  8
10000_FRONT
  6
DASHED
 62
     7
370
    20
100
AcDbLine
 39
0.25
 10
-109.5706185283628
 20
744.5691165423918
 30
0.0
 11
-114.5706185283628
 21
744.5691165423918
 31
0.0
1001
AUSTER_ANSICHT
1002
{
1000
Det03
1002
}
1001
AUSTER_FOLIE
1002
{
1000
NSB00342_S3
1002
}
  0
LINE
  5
FF5C
330
20
100
AcDbEntity
  8
10000_FRONT
  6
DASHED
 62
     7
370
    20
100
AcDbLine
 39
0.25
 10
-114.5706185283628
 20
744.5691165423918
 30
0.0
 11
-114.5706185283628
 21
747.1691165423918
 31
0.0
1001
AUSTER_ANSICHT
1002
{
1000
Det03
1002
}
1001
AUSTER_FOLIE
1002
{
1000
NSB00342_S3
1002
}
  0
LINE
  5
FF5D
330
20
100
AcDbEntity
  8
10000_FRONT
  6
DASHED
 62
     7
370
    20
100
AcDbLine
 39
0.25
 10
-105.6706185283628
 20
758.4191165423918
 30
0.0
 11
-105.6706185283628
 21
749.7003165423917
 31
0.0
1001
AUSTER_ANSICHT
1002
{
1000
Det03
1002
}
1001
AUSTER_FOLIE
1002
{
1000
NSB00342_S3
1002
}
  0
LINE
  5
FF5E
330
20
100
AcDbEntity
  8
10000_FRONT
  6
DASHED
 62
     7
370
    20
100
AcDbLine
 39
0.25
 10
-105.6706185283628
 20
749.7003165423917
 30
0.0
 11
-105.6706185283628
 21
728.3191165423918
 31
0.0
1001
AUSTER_ANSICHT
1002
{
1000
Det03
1002
}
1001
AUSTER_FOLIE
1002
{
1000
NSB00342_S3
1002
}
  0
LINE
  5
FF60
330
20
100
AcDbEntity
  8
10000_FRONT
  6
DASHED
 62
     7
370
    20
100
AcDbLine
 39
0.25
 10
-105.6706185283628
 20
728.3191165423918
 30
0.0
 11
-105.6705185283628
 21
713.9191165423918
 31
0.0
1001
AUSTER_ANSICHT
1002
{
1000
Det03
1002
}
1001
AUSTER_FOLIE
1002
{
1000
NSB00342_S3
1002
}
  0
LINE
  5
FF61
330
20
100
AcDbEntity
  8
10000_FRONT
  6
DASHED
 62
     7
370
    20
100
AcDbLine
 39
0.25
 10
-149.6706185283628
 20
712.9213165423918
 30
0.0
 11
-106.6706185283628
 21
712.9192165423918
 31
0.0
1001
AUSTER_ANSICHT
1002
{
1000
Det03
1002
}
1001
AUSTER_FOLIE
1002
{
1000
NSB00342_S3
1002
}
  0
LINE
  5
FF62
330
20
100
AcDbEntity
  8
10000_FRONT
  6
Continuous
 62
     7
370
    50
100
AcDbLine
 39
0.7
 10
-93.17221852836286
 20
795.5164165423918
 30
0.0
 11
-93.17221852836286
 21
775.2163165423918
 31
0.0
1001
AUSTER_ANSICHT
1002
{
1000
Det03
1002
}
1001
AUSTER_FOLIE
1002
{
1000
NSB00342_S3
1002
}
  0
LINE
  5
FF63
330
20
100
AcDbEntity
  8
10000_FRONT
  6
DASHED
 62
     7
370
    20
100
AcDbLine
 39
0.25
 10
-144.2665185283628
 20
684.5661165423919
 30
0.0
 11
-160.0165185283628
 21
684.5661165423919
 31
0.0
1001
AUSTER_ANSICHT
1002
{
1000
Det03
1002
}
1001
AUSTER_FOLIE
1002
{
1000
NSB00342_S3
1002
}
  0
LINE
  5
FF64
330
20
100
AcDbEntity
  8
10000_FRONT
  6
Continuous
 62
     7
370
    50
100
AcDbLine
 39
0.7
 10
-161.6665185283628
 20
773.766116542392
 30
0.0
 11
-94.66651852836289
 21
773.7663165423918
 31
0.0
1001
AUSTER_ANSICHT
1002
{
1000
Det03
1002
}
1001
AUSTER_FOLIE
1002
{
1000
NSB00342_S3
1002
}
  0
LINE
  5
FF65
330
20
100
AcDbEntity
  8
10000_FRONT
  6
Continuous
 62
     7
370
    50
100
AcDbLine
 39
0.7
 10
-131.4222185283627
 20
677.4164165423917
 30
0.0
 11
-131.4222185283627
 21
677.7164165423917
 31
0.0
1001
AUSTER_ANSICHT
1002
{
1000
Det03
1002
}
1001
AUSTER_FOLIE
1002
{
1000
NSB00342_S3
1002
}
  0
LINE
  5
FF66
330
20
100
AcDbEntity
  8
10000_FRONT
  6
Continuous
 62
     7
370
    20
100
AcDbLine
 39
0.25
 10
-124.9222185283628
 20
683.7164165423919
 30
0.0
 11
-124.9222185283628
 21
677.4164165423917
 31
0.0
1001
AUSTER_ANSICHT
1002
{
1000
Det03
1002
}
1001
AUSTER_FOLIE
1002
{
1000
NSB00342_S3
1002
}
  0
LINE
  5
FF67
330
20
100
AcDbEntity
  8
10000_FRONT
  6
DASHED
 62
     7
370
    20
100
AcDbLine
 39
0.25
 10
-160.8167185283628
 20
688.1661165423918
 30
0.0
 11
-95.51651852836284
 21
688.1661165423918
 31
0.0
1001
AUSTER_ANSICHT
1002
{
1000
Det03
1002
}
1001
AUSTER_FOLIE
1002
{
1000
NSB00342_S3
1002
}
  0
LINE
  5
FF68
330
20
100
AcDbEntity
  8
10000_FRONT
  6
DASHED
 62
     7
370
    20
100
AcDbLine
 39
0.25
 10
-150.6706185283628
 20
765.266116542392
 30
0.0
 11
-105.6706185283628
 21
765.266116542392
 31
0.0
1001
AUSTER_ANSICHT
1002
{
1000
Det03
1002
}
1001
AUSTER_FOLIE
1002
{
1000
NSB00342_S3
1002
}
  0
LINE
  5
FF69
330
20
100
AcDbEntity
  8
10000_FRONT
  6
DASHED
 62
     7
370
    20
100
AcDbLine
 39
0.25
 10
-105.6706185283628
 20
765.266116542392
 30
0.0
 11
-105.6706185283628
 21
749.7003165423917
 31
0.0
1001
AUSTER_ANSICHT
1002
{
1000
Det03
1002
}
1001
AUSTER_FOLIE
1002
{
1000
NSB00342_S3
1002
}
  0
LINE
  5
FF6A
330
20
100
AcDbEntity
  8
10000_FRONT
  6
Continuous
 62
     7
370
    50
100
AcDbLine
 39
0.7
 10
-163.1667185283628
 20
706.7660165423919
 30
0.0
 11
-163.1667185283628
 21
703.8161165423917
 31
0.0
1001
AUSTER_ANSICHT
1002
{
1000
Det03
1002
}
1001
AUSTER_FOLIE
1002
{
1000
NSB00342_S3
1002
}
  0
LINE
  5
FF6C
330
20
100
AcDbEntity
  8
10000_FRONT
  6
DASHED
 62
     7
370
    20
100
AcDbLine
 39
0.25
 10
-104.5087185283628
 20
700.0847165423918
 30
0.0
 11
-103.3540185283629
 21
698.0847165423917
 31
0.0
1001
AUSTER_ANSICHT
1002
{
1000
Det03
1002
}
1001
AUSTER_FOLIE
1002
{
1000
NSB00342_S3
1002
}
  0
LINE
  5
FF6D
330
20
100
AcDbEntity
  8
10000_FRONT
  6
DASHED
 62
     7
370
    20
100
AcDbLine
 39
0.25
 10
-104.5087185283628
 20
696.0847165423918
 30
0.0
 11
-103.3540185283629
 21
698.0847165423917
 31
0.0
1001
AUSTER_ANSICHT
1002
{
1000
Det03
1002
}
1001
AUSTER_FOLIE
1002
{
1000
NSB00342_S3
1002
}
  0
LINE
  5
FF6E
330
20
100
AcDbEntity
  8
10000_FRONT
  6
DASHED
 62
     7
370
    20
100
AcDbLine
 39
0.25
 10
-106.8181185283628
 20
700.0847165423918
 30
0.0
 11
-104.5087185283628
 21
700.0847165423918
 31
0.0
1001
AUSTER_ANSICHT
1002
{
1000
Det03
1002
}
1001
AUSTER_FOLIE
1002
{
1000
NSB00342_S3
1002
}
  0
LINE
  5
FF6F
330
20
100
AcDbEntity
  8
10000_FRONT
  6
DASHED
 62
     7
370
    20
100
AcDbLine
 39
0.25
 10
-106.8181185283628
 20
696.0847165423918
 30
0.0
 11
-104.5087185283628
 21
696.0847165423918
 31
0.0
1001
AUSTER_ANSICHT
1002
{
1000
Det03
1002
}
1001
AUSTER_FOLIE
1002
{
1000
NSB00342_S3
1002
}
  0
LINE
  5
FF70
330
20
100
AcDbEntity
  8
10000_FRONT
  6
DASHED
 62
     7
370
    20
100
AcDbLine
 39
0.25
 10
-107.9728185283628
 20
698.0847165423917
 30
0.0
 11
-106.8181185283628
 21
700.0847165423918
 31
0.0
1001
AUSTER_ANSICHT
1002
{
1000
Det03
1002
}
1001
AUSTER_FOLIE
1002
{
1000
NSB00342_S3
1002
}
  0
LINE
  5
FF71
330
20
100
AcDbEntity
  8
10000_FRONT
  6
DASHED
 62
     7
370
    20
100
AcDbLine
 39
0.25
 10
-107.9728185283628
 20
698.0847165423917
 30
0.0
 11
-106.8181185283628
 21
696.0847165423918
 31
0.0
1001
AUSTER_ANSICHT
1002
{
1000
Det03
1002
}
1001
AUSTER_FOLIE
1002
{
1000
NSB00342_S3
1002
}
  0
LINE
  5
FF72
330
20
100
AcDbEntity
  8
10000_FRONT
  6
DASHED
 62
     7
370
    20
100
AcDbLine
 39
0.25
 10
-127.0118185283628
 20
696.0911165423917
 30
0.0
 11
-125.8571185283628
 21
698.0911165423917
 31
0.0
1001
AUSTER_ANSICHT
1002
{
1000
Det03
1002
}
1001
AUSTER_FOLIE
1002
{
1000
NSB00342_S3
1002
}
  0
LINE
  5
FF73
330
20
100
AcDbEntity
  8
10000_FRONT
  6
DASHED
 62
     7
370
    20
100
AcDbLine
 39
0.25
 10
-129.3212185283628
 20
696.0911165423917
 30
0.0
 11
-127.0118185283628
 21
696.0911165423917
 31
0.0
1001
AUSTER_ANSICHT
1002
{
1000
Det03
1002
}
1001
AUSTER_FOLIE
1002
{
1000
NSB00342_S3
1002
}
  0
LINE
  5
FF74
330
20
100
AcDbEntity
  8
10000_FRONT
  6
DASHED
 62
     7
370
    20
100
AcDbLine
 39
0.25
 10
-130.4759185283628
 20
698.0911165423917
 30
0.0
 11
-129.3212185283628
 21
696.0911165423917
 31
0.0
1001
AUSTER_ANSICHT
1002
{
1000
Det03
1002
}
1001
AUSTER_FOLIE
1002
{
1000
NSB00342_S3
1002
}
  0
LINE
  5
FF75
330
20
100
AcDbEntity
  8
10000_FRONT
  6
DASHED
 62
     7
370
    20
100
AcDbLine
 39
0.25
 10
-127.0118185283628
 20
700.0911165423917
 30
0.0
 11
-125.8571185283628
 21
698.0911165423917
 31
0.0
1001
AUSTER_ANSICHT
1002
{
1000
Det03
1002
}
1001
AUSTER_FOLIE
1002
{
1000
NSB00342_S3
1002
}
  0
LINE
  5
FF76
330
20
100
AcDbEntity
  8
10000_FRONT
  6
DASHED
 62
     7
370
    20
100
AcDbLine
 39
0.25
 10
-129.3212185283628
 20
700.0911165423917
 30
0.0
 11
-127.0118185283628
 21
700.0911165423917
 31
0.0
1001
AUSTER_ANSICHT
1002
{
1000
Det03
1002
}
1001
AUSTER_FOLIE
1002
{
1000
NSB00342_S3
1002
}
  0
LINE
  5
FF77
330
20
100
AcDbEntity
  8
10000_FRONT
  6
DASHED
 62
     7
370
    20
100
AcDbLine
 39
0.25
 10
-130.4759185283628
 20
698.0911165423917
 30
0.0
 11
-129.3212185283628
 21
700.0911165423917
 31
0.0
1001
AUSTER_ANSICHT
1002
{
1000
Det03
1002
}
1001
AUSTER_FOLIE
1002
{
1000
NSB00342_S3
1002
}
  0
LINE
  5
FF78
330
20
100
AcDbEntity
  8
10000_FRONT
  6
DASHED
 62
     7
370
    20
100
AcDbLine
 39
0.25
 10
-95.51651852836284
 20
688.1661165423918
 30
0.0
 11
-94.66651852836289
 21
688.1661165423918
 31
0.0
1001
AUSTER_ANSICHT
1002
{
1000
Det03
1002
}
1001
AUSTER_FOLIE
1002
{
1000
NSB00342_S3
1002
}
  0
LINE
  5
FF7A
330
20
100
AcDbEntity
  8
10000_FRONT
  6
Continuous
 62
     7
370
    50
100
AcDbLine
 39
0.7
 10
-163.1667185283628
 20
713.9866165423918
 30
0.0
 11
-163.1667185283628
 21
706.7660165423919
 31
0.0
1001
AUSTER_ANSICHT
1002
{
1000
Det03
1002
}
1001
AUSTER_FOLIE
1002
{
1000
NSB00342_S3
1002
}
  0
LINE
  5
FF7B
330
20
100
AcDbEntity
  8
10000_FRONT
  6
Continuous
 62
     7
370
    50
100
AcDbLine
 39
0.7
 10
-93.16651852836288
 20
772.2661165423918
 30
0.0
 11
-93.16651852836288
 21
714.3661165423918
 31
0.0
1001
AUSTER_ANSICHT
1002
{
1000
Det03
1002
}
1001
AUSTER_FOLIE
1002
{
1000
NSB00342_S3
1002
}
  0
LINE
  5
FF7C
330
20
100
AcDbEntity
  8
10000_FRONT
  6
Continuous
 62
     7
370
    50
100
AcDbLine
 39
0.7
 10
-163.1667185283628
 20
772.2661165423918
 30
0.0
 11
-163.1667185283628
 21
714.3661165423918
 31
0.0
1001
AUSTER_ANSICHT
1002
{
1000
Det03
1002
}
1001
AUSTER_FOLIE
1002
{
1000
NSB00342_S3
1002
}
  0
LINE
  5
FF7D
330
20
100
AcDbEntity
  8
10000_FRONT
  6
Continuous
 62
     7
370
    50
100
AcDbLine
 39
0.7
 10
-93.16596779803992
 20
714.3660635993756
 30
0.0
 11
-93.17221852836286
 21
678.5164165423918
 31
0.0
1001
AUSTER_ANSICHT
1002
{
1000
Det03
1002
}
1001
AUSTER_FOLIE
1002
{
1000
NSB00342_S3
1002
}
  0
LINE
  5
FF7E
330
20
100
AcDbEntity
  8
10000_FRONT
  6
Continuous
 62
     7
370
    50
100
AcDbLine
 39
0.7
 10
-163.1667185283628
 20
703.8161165423917
 30
0.0
 11
-163.1667185283628
 21
689.6661165423918
 31
0.0
1001
AUSTER_ANSICHT
1002
{
1000
Det03
1002
}
1001
AUSTER_FOLIE
1002
{
1000
NSB00342_S3
1002
}
  0
LINE
  5
FF7F
330
20
100
AcDbEntity
  8
10000_FRONT
  6
DASHED
 62
     7
370
    20
100
AcDbLine
 39
0.25
 10
-160.8167185283628
 20
688.1661165423918
 30
0.0
 11
-161.6667185283628
 21
688.1661165423918
 31
0.0
1001
AUSTER_ANSICHT
1002
{
1000
Det03
1002
}
1001
AUSTER_FOLIE
1002
{
1000
NSB00342_S3
1002
}
  0
LINE
  5
FF80
330
20
100
AcDbEntity
  8
10000_FRONT
  6
DASHED
 62
     7
370
    20
100
AcDbLine
 39
0.25
 10
-95.91651852836289
 20
687.7661165423918
 30
0.0
 11
-95.91651852836289
 21
684.9661165423919
 31
0.0
1001
AUSTER_ANSICHT
1002
{
1000
Det03
1002
}
1001
AUSTER_FOLIE
1002
{
1000
NSB00342_S3
1002
}
  0
LINE
  5
FF81
330
20
100
AcDbEntity
  8
10000_FRONT
  6
DASHED
 62
     7
370
    20
100
AcDbLine
 39
0.25
 10
-160.4167185283628
 20
687.7661165423918
 30
0.0
 11
-160.4167185283628
 21
684.9661165423919
 31
0.0
1001
AUSTER_ANSICHT
1002
{
1000
Det03
1002
}
1001
AUSTER_FOLIE
1002
{
1000
NSB00342_S3
1002
}
  0
LINE
  5
FF82
330
20
100
AcDbEntity
  8
10000_FRONT
  6
DASHED
 62
     7
370
    20
100
AcDbLine
 39
0.25
 10
-94.66651852836289
 20
705.2661165423918
 30
0.0
 11
-161.6665185283628
 21
705.2661165423918
 31
0.0
1001
AUSTER_ANSICHT
1002
{
1000
Det03
1002
}
1001
AUSTER_FOLIE
1002
{
1000
NSB00342_S3
1002
}
  0
LINE
  5
FF83
330
20
100
AcDbEntity
  8
10000_FRONT
  6
DASHED
 62
     7
370
    20
100
AcDbLine
 39
0.25
 10
-151.4665185283628
 20
712.8661165423919
 30
0.0
 11
-161.6665185283628
 21
712.8666165423918
 31
0.0
1001
AUSTER_ANSICHT
1002
{
1000
Det03
1002
}
1001
AUSTER_FOLIE
1002
{
1000
NSB00342_S3
1002
}
  0
LINE
  5
FF84
330
20
100
AcDbEntity
  8
10000_FRONT
  6
DASHED
 62
     7
370
    20
100
AcDbLine
 39
0.25
 10
-94.66651852836289
 20
712.8661165423919
 30
0.0
 11
-104.8665185283628
 21
712.8661165423919
 31
0.0
1001
AUSTER_ANSICHT
1002
{
1000
Det03
1002
}
1001
AUSTER_FOLIE
1002
{
1000
NSB00342_S3
1002
}
  0
LINE
  5
FF86
330
20
100
AcDbEntity
  8
10000_FRONT
  6
DASHED
 62
     7
370
    20
100
AcDbLine
 39
0.25
 10
-105.6665185283628
 20
728.3161165423917
 30
0.0
 11
-105.6665185283628
 21
713.9161165423918
 31
0.0
1001
AUSTER_ANSICHT
1002
{
1000
Det03
1002
}
1001
AUSTER_FOLIE
1002
{
1000
NSB00342_S3
1002
}
  0
LINE
  5
FF87
330
20
100
AcDbEntity
  8
10000_FRONT
  6
DASHED
 62
     7
370
    20
100
AcDbLine
 39
0.25
 10
-106.6665185283628
 20
712.9161165423917
 30
0.0
 11
-149.4665185283628
 21
712.9159165423918
 31
0.0
1001
AUSTER_ANSICHT
1002
{
1000
Det03
1002
}
1001
AUSTER_FOLIE
1002
{
1000
NSB00342_S3
1002
}
  0
LINE
  5
FF88
330
20
100
AcDbEntity
  8
10000_FRONT
  6
DASHED
 62
     7
370
    20
100
AcDbLine
 39
0.25
 10
-143.8665185283628
 20
688.1661165423918
 30
0.0
 11
-143.8665185283628
 21
684.9661165423919
 31
0.0
1001
AUSTER_ANSICHT
1002
{
1000
Det03
1002
}
1001
AUSTER_FOLIE
1002
{
1000
NSB00342_S3
1002
}
  0
LINE
  5
FF89
330
20
100
AcDbEntity
  8
10000_FRONT
  6
DASHED
 62
     7
370
    20
100
AcDbLine
 39
0.25
 10
-112.4665185283628
 20
684.9661165423919
 30
0.0
 11
-112.4665185283628
 21
688.1661165423918
 31
0.0
1001
AUSTER_ANSICHT
1002
{
1000
Det03
1002
}
1001
AUSTER_FOLIE
1002
{
1000
NSB00342_S3
1002
}
  0
LINE
  5
FF8A
330
20
100
AcDbEntity
  8
10000_FRONT
  6
DASHED
 62
     7
370
    20
100
AcDbLine
 39
0.25
 10
-96.31651852836284
 20
684.5661165423919
 30
0.0
 11
-112.0665185283628
 21
684.5661165423919
 31
0.0
1001
AUSTER_ANSICHT
1002
{
1000
Det03
1002
}
1001
AUSTER_FOLIE
1002
{
1000
NSB00342_S3
1002
}
  0
LINE
  5
FF8B
330
20
100
AcDbEntity
  8
10000_FRONT
  6
DASHED
 62
     7
370
    20
100
AcDbLine
 39
0.25
 10
-134.9665185283628
 20
684.9661165423919
 30
0.0
 11
-134.9665185283628
 21
688.1661165423918
 31
0.0
1001
AUSTER_ANSICHT
1002
{
1000
Det03
1002
}
1001
AUSTER_FOLIE
1002
{
1000
NSB00342_S3
1002
}
  0
LINE
  5
FF8C
330
20
100
AcDbEntity
  8
10000_FRONT
  6
DASHED
 62
     7
370
    20
100
AcDbLine
 39
0.25
 10
-121.3665185283628
 20
688.1661165423918
 30
0.0
 11
-121.3665185283628
 21
684.9661165423919
 31
0.0
1001
AUSTER_ANSICHT
1002
{
1000
Det03
1002
}
1001
AUSTER_FOLIE
1002
{
1000
NSB00342_S3
1002
}
  0
LINE
  5
FF8D
330
20
100
AcDbEntity
  8
10000_FRONT
  6
DASHED
 62
     7
370
    20
100
AcDbLine
 39
0.25
 10
-121.7665185283628
 20
684.5661165423919
 30
0.0
 11
-134.5665185283628
 21
684.5661165423919
 31
0.0
1001
AUSTER_ANSICHT
1002
{
1000
Det03
1002
}
1001
AUSTER_FOLIE
1002
{
1000
NSB00342_S3
1002
}
  0
LINE
  5
FF8E
330
20
100
AcDbEntity
  8
10000_FRONT
  6
DASHED
 62
     7
370
    20
100
AcDbLine
 39
0.25
 10
-149.5087185283628
 20
696.0847165423918
 30
0.0
 11
-148.3540185283628
 21
698.0847165423917
 31
0.0
1001
AUSTER_ANSICHT
1002
{
1000
Det03
1002
}
1001
AUSTER_FOLIE
1002
{
1000
NSB00342_S3
1002
}
  0
LINE
  5
FF8F
330
20
100
AcDbEntity
  8
10000_FRONT
  6
DASHED
 62
     7
370
    20
100
AcDbLine
 39
0.25
 10
-151.8181185283628
 20
696.0847165423918
 30
0.0
 11
-149.5087185283628
 21
696.0847165423918
 31
0.0
1001
AUSTER_ANSICHT
1002
{
1000
Det03
1002
}
1001
AUSTER_FOLIE
1002
{
1000
NSB00342_S3
1002
}
  0
LINE
  5
FF90
330
20
100
AcDbEntity
  8
10000_FRONT
  6
DASHED
 62
     7
370
    20
100
AcDbLine
 39
0.25
 10
-152.9728185283628
 20
698.0847165423917
 30
0.0
 11
-151.8181185283628
 21
696.0847165423918
 31
0.0
1001
AUSTER_ANSICHT
1002
{
1000
Det03
1002
}
1001
AUSTER_FOLIE
1002
{
1000
NSB00342_S3
1002
}
  0
LINE
  5
FF91
330
20
100
AcDbEntity
  8
10000_FRONT
  6
DASHED
 62
     7
370
    20
100
AcDbLine
 39
0.25
 10
-149.5087185283628
 20
700.0847165423918
 30
0.0
 11
-148.3540185283628
 21
698.0847165423917
 31
0.0
1001
AUSTER_ANSICHT
1002
{
1000
Det03
1002
}
1001
AUSTER_FOLIE
1002
{
1000
NSB00342_S3
1002
}
  0
LINE
  5
FF92
330
20
100
AcDbEntity
  8
10000_FRONT
  6
DASHED
 62
     7
370
    20
100
AcDbLine
 39
0.25
 10
-151.8181185283628
 20
700.0847165423918
 30
0.0
 11
-149.5087185283628
 21
700.0847165423918
 31
0.0
1001
AUSTER_ANSICHT
1002
{
1000
Det03
1002
}
1001
AUSTER_FOLIE
1002
{
1000
NSB00342_S3
1002
}
  0
LINE
  5
FF93
330
20
100
AcDbEntity
  8
10000_FRONT
  6
DASHED
 62
     7
370
    20
100
AcDbLine
 39
0.25
 10
-152.9728185283628
 20
698.0847165423917
 30
0.0
 11
-151.8181185283628
 21
700.0847165423918
 31
0.0
1001
AUSTER_ANSICHT
1002
{
1000
Det03
1002
}
1001
AUSTER_FOLIE
1002
{
1000
NSB00342_S3
1002
}
  0
LINE
  5
FF94
330
20
100
AcDbEntity
  8
10000_FRONT
  6
Continuous
 62
     7
370
    50
100
AcDbLine
 39
0.7
 10
-93.17221852836286
 20
775.2163165423918
 30
0.0
 11
-93.17221852836286
 21
772.1871165423918
 31
0.0
1001
AUSTER_ANSICHT
1002
{
1000
Det03
1002
}
1001
AUSTER_FOLIE
1002
{
1000
NSB00342_S3
1002
}
  0
LINE
  5
FF95
330
20
100
AcDbEntity
  8
10000_FRONT
  6
Continuous
 62
     7
370
    50
100
AcDbLine
 39
0.7
 10
-163.1722185283628
 20
775.2163165423918
 30
0.0
 11
-163.1722185283628
 21
772.1871165423918
 31
0.0
1001
AUSTER_ANSICHT
1002
{
1000
Det03
1002
}
1001
AUSTER_FOLIE
1002
{
1000
NSB00342_S3
1002
}
  0
LINE
  5
FF96
330
20
100
AcDbEntity
  8
10000_FRONT
  6
Continuous
 62
     7
370
    20
100
AcDbLine
 39
0.25
 10
-131.4222185283627
 20
679.6164165423919
 30
0.0
 11
-124.9222185283628
 21
679.6164165423919
 31
0.0
1001
AUSTER_ANSICHT
1002
{
1000
Det03
1002
}
1001
AUSTER_FOLIE
1002
{
1000
NSB00342_S3
1002
}
  0
LINE
  5
FF97
330
20
100
AcDbEntity
  8
10000_FRONT
  6
Continuous
 62
     7
370
    20
100
AcDbLine
 39
0.25
 10
-160.4222185283628
 20
791.2664165423917
 30
0.0
 11
-160.4222185283628
 21
794.0664165423918
 31
0.0
1001
AUSTER_ANSICHT
1002
{
1000
Det03
1002
}
1001
AUSTER_FOLIE
1002
{
1000
NSB00342_S3
1002
}
  0
LINE
  5
FF98
330
20
100
AcDbEntity
  8
10000_FRONT
  6
Continuous
 62
     7
370
    20
100
AcDbLine
 39
0.25
 10
-95.92221852836289
 20
791.2664165423917
 30
0.0
 11
-95.92221852836289
 21
794.0664165423918
 31
0.0
1001
AUSTER_ANSICHT
1002
{
1000
Det03
1002
}
1001
AUSTER_FOLIE
1002
{
1000
NSB00342_S3
1002
}
  0
LINE
  5
FF99
330
20
100
AcDbEntity
  8
10000_FRONT
  6
Continuous
 62
     7
370
    20
100
AcDbLine
 39
0.25
 10
-130.6222185283628
 20
684.5164165423917
 30
0.0
 11
-125.7222185283628
 21
684.5164165423917
 31
0.0
1001
AUSTER_ANSICHT
1002
{
1000
Det03
1002
}
1001
AUSTER_FOLIE
1002
{
1000
NSB00342_S3
1002
}
  0
LINE
  5
FF9A
330
20
100
AcDbEntity
  8
10000_FRONT
  6
Continuous
 62
     7
370
    50
100
AcDbLine
 39
0.7
 10
-131.8222185283628
 20
677.0164165423919
 30
0.0
 11
-151.6722185283628
 21
677.0164165423919
 31
0.0
1001
AUSTER_ANSICHT
1002
{
1000
Det03
1002
}
1001
AUSTER_FOLIE
1002
{
1000
NSB00342_S3
1002
}
  0
LINE
  5
FF9B
330
20
100
AcDbEntity
  8
10000_FRONT
  6
Continuous
 62
     7
370
    50
100
AcDbLine
 39
0.7
 10
-94.67221852836289
 20
677.0164165423919
 30
0.0
 11
-124.5222185283628
 21
677.0164165423919
 31
0.0
1001
AUSTER_ANSICHT
1002
{
1000
Det03
1002
}
1001
AUSTER_FOLIE
1002
{
1000
NSB00342_S3
1002
}
  0
LINE
  5
FF9D
330
20
100
AcDbEntity
  8
10000_FRONT
  6
Continuous
 62
     7
370
    20
100
AcDbLine
 39
0.25
 10
-103.1722185283628
 20
794.4674165423918
 30
0.0
 11
-103.1722185283628
 21
796.2164165423918
 31
0.0
1001
AUSTER_ANSICHT
1002
{
1000
Det03
1002
}
1001
AUSTER_FOLIE
1002
{
1000
NSB00342_S3
1002
}
  0
LINE
  5
FF9E
330
20
100
AcDbEntity
  8
10000_FRONT
  6
Continuous
 62
     7
370
    50
100
AcDbLine
 39
0.7
 10
-94.67221852836289
 20
797.0164165423917
 30
0.0
 11
-103.9722185283628
 21
797.0164165423917
 31
0.0
1001
AUSTER_ANSICHT
1002
{
1000
Det03
1002
}
1001
AUSTER_FOLIE
1002
{
1000
NSB00342_S3
1002
}
  0
LINE
  5
FF9F
330
20
100
AcDbEntity
  8
10000_FRONT
  6
Continuous
 62
     7
370
    50
100
AcDbLine
 39
0.7
 10
-151.6722185283628
 20
677.0164165423919
 30
0.0
 11
-161.6722185283628
 21
677.0164165423919
 31
0.0
1001
AUSTER_ANSICHT
1002
{
1000
Det03
1002
}
1001
AUSTER_FOLIE
1002
{
1000
NSB00342_S3
1002
}
  0
LINE
  5
FFA0
330
20
100
AcDbEntity
  8
10000_FRONT
  6
Continuous
 62
     7
370
    50
100
AcDbLine
 39
0.7
 10
-163.1722185283628
 20
678.5164165423918
 30
0.0
 11
-163.1722185283628
 21
689.6664165423918
 31
0.0
1001
AUSTER_ANSICHT
1002
{
1000
Det03
1002
}
1001
AUSTER_FOLIE
1002
{
1000
NSB00342_S3
1002
}
  0
LINE
  5
FFA1
330
20
100
AcDbEntity
  8
10000_FRONT
  6
Continuous
 62
     7
370
    50
100
AcDbLine
 39
0.7
 10
-103.9722185283628
 20
797.0164165423917
 30
0.0
 11
-161.6722185283628
 21
797.0164165423917
 31
0.0
1001
AUSTER_ANSICHT
1002
{
1000
Det03
1002
}
1001
AUSTER_FOLIE
1002
{
1000
NSB00342_S3
1002
}
  0
LINE
  5
FFA2
330
20
100
AcDbEntity
  8
10000_FRONT
  6
Continuous
 62
     7
370
    50
100
AcDbLine
 39
0.7
 10
-163.1722185283628
 20
795.5164165423918
 30
0.0
 11
-163.1722185283628
 21
789.3664165423918
 31
0.0
1001
AUSTER_ANSICHT
1002
{
1000
Det03
1002
}
1001
AUSTER_FOLIE
1002
{
1000
NSB00342_S3
1002
}
  0
LINE
  5
FFA3
330
20
100
AcDbEntity
  8
10000_FRONT
  6
Continuous
 62
     7
370
    50
100
AcDbLine
 39
0.7
 10
-131.4230185283628
 20
677.7164165423917
 30
0.0
 11
-124.9214185283628
 21
677.7164165423917
 31
0.0
1001
AUSTER_ANSICHT
1002
{
1000
Det03
1002
}
1001
AUSTER_FOLIE
1002
{
1000
NSB00342_S3
1002
}
  0
LINE
  5
FFA4
330
20
100
AcDbEntity
  8
10000_FRONT
  6
Continuous
 62
     7
370
    50
100
AcDbLine
 39
0.7
 10
-112.4722185283628
 20
790.8664165423918
 30
0.0
 11
-121.3722185283628
 21
790.8664165423918
 31
0.0
1001
AUSTER_ANSICHT
1002
{
1000
Det03
1002
}
1001
AUSTER_FOLIE
1002
{
1000
NSB00342_S3
1002
}
  0
LINE
  5
FFA5
330
20
100
AcDbEntity
  8
10000_FRONT
  6
Continuous
 62
     7
370
    50
100
AcDbLine
 39
0.7
 10
-134.9722185283628
 20
790.8664165423918
 30
0.0
 11
-143.8722185283628
 21
790.8664165423918
 31
0.0
1001
AUSTER_ANSICHT
1002
{
1000
Det03
1002
}
1001
AUSTER_FOLIE
1002
{
1000
NSB00342_S3
1002
}
  0
LINE
  5
FFA8
330
20
100
AcDbEntity
  8
10000_FRONT
  6
Continuous
 62
     7
370
    50
100
AcDbLine
 39
0.7
 10
-94.67221852836289
 20
790.8664165423918
 30
0.0
 11
-112.4722185283628
 21
790.8664165423918
 31
0.0
1001
AUSTER_ANSICHT
1002
{
1000
Det03
1002
}
1001
AUSTER_FOLIE
1002
{
1000
NSB00342_S3
1002
}
  0
LINE
  5
FFA9
330
20
100
AcDbEntity
  8
10000_FRONT
  6
Continuous
 62
     7
370
    50
100
AcDbLine
 39
0.7
 10
-121.3722185283628
 20
790.8664165423918
 30
0.0
 11
-134.9722185283628
 21
790.8664165423918
 31
0.0
1001
AUSTER_ANSICHT
1002
{
1000
Det03
1002
}
1001
AUSTER_FOLIE
1002
{
1000
NSB00342_S3
1002
}
  0
LINE
  5
FFAA
330
20
100
AcDbEntity
  8
10000_FRONT
  6
Continuous
 62
     7
370
    50
100
AcDbLine
 39
0.7
 10
-143.8722185283628
 20
790.8664165423918
 30
0.0
 11
-161.6722185283628
 21
790.8664165423918
 31
0.0
1001
AUSTER_ANSICHT
1002
{
1000
Det03
1002
}
1001
AUSTER_FOLIE
1002
{
1000
NSB00342_S3
1002
}
  0
LINE
  5
FFAB
330
20
100
AcDbEntity
  8
10000_FRONT
  6
Continuous
 62
     7
370
    20
100
AcDbLine
 39
0.25
 10
-160.0222185283628
 20
794.4664165423918
 30
0.0
 11
-144.2722185283628
 21
794.4664165423918
 31
0.0
1001
AUSTER_ANSICHT
1002
{
1000
Det03
1002
}
1001
AUSTER_FOLIE
1002
{
1000
NSB00342_S3
1002
}
  0
LINE
  5
FFAC
330
20
100
AcDbEntity
  8
10000_FRONT
  6
Continuous
 62
     7
370
    20
100
AcDbLine
 39
0.25
 10
-143.8722185283628
 20
794.0664165423918
 30
0.0
 11
-143.8722185283628
 21
790.8664165423918
 31
0.0
1001
AUSTER_ANSICHT
1002
{
1000
Det03
1002
}
1001
AUSTER_FOLIE
1002
{
1000
NSB00342_S3
1002
}
  0
LINE
  5
FFAD
330
20
100
AcDbEntity
  8
10000_FRONT
  6
Continuous
 62
     7
370
    50
100
AcDbLine
 39
0.7
 10
-163.1722185283628
 20
775.2163165423918
 30
0.0
 11
-163.1722185283628
 21
789.3664165423918
 31
0.0
1001
AUSTER_ANSICHT
1002
{
1000
Det03
1002
}
1001
AUSTER_FOLIE
1002
{
1000
NSB00342_S3
1002
}
  0
LINE
  5
FFAE
330
20
100
AcDbEntity
  8
10000_FRONT
  6
Continuous
 62
     7
370
    20
100
AcDbLine
 39
0.25
 10
-121.3722185283628
 20
794.0664165423918
 30
0.0
 11
-121.3722185283628
 21
790.8664165423918
 31
0.0
1001
AUSTER_ANSICHT
1002
{
1000
Det03
1002
}
1001
AUSTER_FOLIE
1002
{
1000
NSB00342_S3
1002
}
  0
LINE
  5
FFAF
330
20
100
AcDbEntity
  8
10000_FRONT
  6
Continuous
 62
     7
370
    20
100
AcDbLine
 39
0.25
 10
-134.9722185283628
 20
790.8664165423918
 30
0.0
 11
-134.9722185283628
 21
794.0664165423918
 31
0.0
1001
AUSTER_ANSICHT
1002
{
1000
Det03
1002
}
1001
AUSTER_FOLIE
1002
{
1000
NSB00342_S3
1002
}
  0
LINE
  5
FFB0
330
20
100
AcDbEntity
  8
10000_FRONT
  6
Continuous
 62
     7
370
    20
100
AcDbLine
 39
0.25
 10
-134.5722185283628
 20
794.4664165423918
 30
0.0
 11
-121.7722185283628
 21
794.4664165423918
 31
0.0
1001
AUSTER_ANSICHT
1002
{
1000
Det03
1002
}
1001
AUSTER_FOLIE
1002
{
1000
NSB00342_S3
1002
}
  0
LINE
  5
FFB1
330
20
100
AcDbEntity
  8
10000_FRONT
  6
Continuous
 62
     7
370
    20
100
AcDbLine
 39
0.25
 10
-112.0722185283627
 20
794.4664165423918
 30
0.0
 11
-96.32221852836288
 21
794.4664165423918
 31
0.0
1001
AUSTER_ANSICHT
1002
{
1000
Det03
1002
}
1001
AUSTER_FOLIE
1002
{
1000
NSB00342_S3
1002
}
  0
LINE
  5
FFB2
330
20
100
AcDbEntity
  8
10000_FRONT
  6
Continuous
 62
     7
370
    20
100
AcDbLine
 39
0.25
 10
-112.4722185283628
 20
790.8664165423918
 30
0.0
 11
-112.4722185283628
 21
794.0664165423918
 31
0.0
1001
AUSTER_ANSICHT
1002
{
1000
Det03
1002
}
1001
AUSTER_FOLIE
1002
{
1000
NSB00342_S3
1002
}
  0
LINE
  5
FFC5
330
20
100
AcDbEntity
  8
10000_FRONT
  6
DASHED
 62
     7
370
    20
100
AcDbLine
 39
0.25
 10
-149.5026185283628
 20
713.8973165423918
 30
0.0
 11
-149.5026185283628
 21
715.3614165423918
 31
0.0
1001
AUSTER_ANSICHT
1002
{
1000
Det03
1002
}
1001
AUSTER_FOLIE
1002
{
1000
NSB00342_S3
1002
}
  0
LINE
  5
FFC6
330
20
100
AcDbEntity
  8
10000_FRONT
  6
DASHED
 62
     7
370
    20
100
AcDbLine
 39
0.25
 10
-117.7206185283628
 20
756.6793165423917
 30
0.0
 11
-117.7206185283628
 21
749.9191165423918
 31
0.0
1001
AUSTER_ANSICHT
1002
{
1000
Det03
1002
}
1001
AUSTER_FOLIE
1002
{
1000
NSB00342_S3
1002
}
  0
LINE
  5
FFC7
330
20
100
AcDbEntity
  8
10000_FRONT
  6
DASHED
 62
     7
370
    20
100
AcDbLine
 39
0.25
 10
-132.7735185283628
 20
734.2267165423918
 30
0.0
 11
-134.3791185283628
 21
735.8323165423918
 31
0.0
1001
AUSTER_ANSICHT
1002
{
1000
Det03
1002
}
1001
AUSTER_FOLIE
1002
{
1000
NSB00342_S3
1002
}
  0
LINE
  5
FFC8
330
20
100
AcDbEntity
  8
10000_FRONT
  6
DASHED
 62
     7
370
    20
100
AcDbLine
 39
0.25
 10
-135.1074185283628
 20
736.5606165423918
 30
0.0
 11
-136.7130185283628
 21
738.1662165423918
 31
0.0
1001
AUSTER_ANSICHT
1002
{
1000
Det03
1002
}
1001
AUSTER_FOLIE
1002
{
1000
NSB00342_S3
1002
}
  0
LINE
  5
FFC9
330
20
100
AcDbEntity
  8
10000_FRONT
  6
DASHED
 62
     7
370
    20
100
AcDbLine
 39
0.25
 10
-137.5677185283628
 20
737.3116165423917
 30
0.0
 11
-135.9620185283628
 21
735.7060165423917
 31
0.0
1001
AUSTER_ANSICHT
1002
{
1000
Det03
1002
}
1001
AUSTER_FOLIE
1002
{
1000
NSB00342_S3
1002
}
  0
LINE
  5
FFCA
330
20
100
AcDbEntity
  8
10000_FRONT
  6
DASHED
 62
     7
370
    20
100
AcDbLine
 39
0.25
 10
-135.2337185283628
 20
734.9777165423918
 30
0.0
 11
-133.6281185283628
 21
733.3721165423918
 31
0.0
1001
AUSTER_ANSICHT
1002
{
1000
Det03
1002
}
1001
AUSTER_FOLIE
1002
{
1000
NSB00342_S3
1002
}
  0
LINE
  5
FFCB
330
20
100
AcDbEntity
  8
10000_FRONT
  6
DASHED
 62
     7
370
    20
100
AcDbLine
 39
0.25
 10
-136.0628185283628
 20
734.1485165423918
 30
0.0
 11
-135.3612185283628
 21
734.8502165423917
 31
0.0
1001
AUSTER_ANSICHT
1002
{
1000
Det03
1002
}
1001
AUSTER_FOLIE
1002
{
1000
NSB00342_S3
1002
}
  0
LINE
  5
FFCC
330
20
100
AcDbEntity
  8
10000_FRONT
  6
DASHED
 62
     7
370
    20
100
AcDbLine
 39
0.25
 10
-136.0895185283628
 20
735.5785165423919
 30
0.0
 11
-136.7912185283628
 21
734.8769165423918
 31
0.0
1001
AUSTER_ANSICHT
1002
{
1000
Det03
1002
}
1001
AUSTER_FOLIE
1002
{
1000
NSB00342_S3
1002
}
  0
LINE
  5
FFCD
330
20
100
AcDbEntity
  8
10000_FRONT
  6
DASHED
 62
     7
370
    20
100
AcDbLine
 39
0.25
 10
-134.2783185283628
 20
737.3897165423918
 30
0.0
 11
-134.9800185283628
 21
736.6881165423919
 31
0.0
1001
AUSTER_ANSICHT
1002
{
1000
Det03
1002
}
1001
AUSTER_FOLIE
1002
{
1000
NSB00342_S3
1002
}
  0
LINE
  5
FFCE
330
20
100
AcDbEntity
  8
10000_FRONT
  6
DASHED
 62
     7
370
    20
100
AcDbLine
 39
0.25
 10
-134.2516185283628
 20
735.9598165423918
 30
0.0
 11
-133.5500185283628
 21
736.6614165423918
 31
0.0
1001
AUSTER_ANSICHT
1002
{
1000
Det03
1002
}
1001
AUSTER_FOLIE
1002
{
1000
NSB00342_S3
1002
}
  0
LINE
  5
FFCF
330
20
100
AcDbEntity
  8
10000_FRONT
  6
DASHED
 62
     7
370
    20
100
AcDbLine
 39
0.25
 10
-136.0895185283628
 20
735.5785165423919
 30
0.0
 11
-135.9620185283628
 21
735.7060165423917
 31
0.0
1001
AUSTER_ANSICHT
1002
{
1000
Det03
1002
}
1001
AUSTER_FOLIE
1002
{
1000
NSB00342_S3
1002
}
  0
LINE
  5
FFD0
330
20
100
AcDbEntity
  8
10000_FRONT
  6
DASHED
 62
     7
370
    20
100
AcDbLine
 39
0.25
 10
-134.9799185283628
 20
736.6881165423919
 30
0.0
 11
-135.1074185283628
 21
736.5606165423918
 31
0.0
1001
AUSTER_ANSICHT
1002
{
1000
Det03
1002
}
1001
AUSTER_FOLIE
1002
{
1000
NSB00342_S3
1002
}
  0
LINE
  5
FFD1
330
20
100
AcDbEntity
  8
10000_FRONT
  6
DASHED
 62
     7
370
    20
100
AcDbLine
 39
0.25
 10
-135.3612185283628
 20
734.8502165423917
 30
0.0
 11
-135.2337185283628
 21
734.9777165423918
 31
0.0
1001
AUSTER_ANSICHT
1002
{
1000
Det03
1002
}
1001
AUSTER_FOLIE
1002
{
1000
NSB00342_S3
1002
}
  0
LINE
  5
FFD2
330
20
100
AcDbEntity
  8
10000_FRONT
  6
DASHED
 62
     7
370
    20
100
AcDbLine
 39
0.25
 10
-134.2516185283628
 20
735.9598165423918
 30
0.0
 11
-134.3791185283628
 21
735.8323165423918
 31
0.0
1001
AUSTER_ANSICHT
1002
{
1000
Det03
1002
}
1001
AUSTER_FOLIE
1002
{
1000
NSB00342_S3
1002
}
  0
LINE
  5
FFD3
330
20
100
AcDbEntity
  8
10000_FRONT
  6
DASHED
 62
     7
370
    20
100
AcDbLine
 39
0.25
 10
-119.7206185283628
 20
749.9191165423918
 30
0.0
 11
-117.7206185283628
 21
749.9191165423918
 31
0.0
1001
AUSTER_ANSICHT
1002
{
1000
Det03
1002
}
1001
AUSTER_FOLIE
1002
{
1000
NSB00342_S3
1002
}
  0
LINE
  5
FFD4
330
20
100
AcDbEntity
  8
10000_FRONT
  6
DASHED
 62
     7
370
    20
100
AcDbLine
 39
0.25
 10
-119.6706185283628
 20
749.7003165423917
 30
0.0
 11
-119.6706185283628
 21
728.3191165423918
 31
0.0
1001
AUSTER_ANSICHT
1002
{
1000
Det03
1002
}
1001
AUSTER_FOLIE
1002
{
1000
NSB00342_S3
1002
}
  0
LINE
  5
FFD5
330
20
100
AcDbEntity
  8
10000_FRONT
  6
DASHED
 62
     7
370
    20
100
AcDbLine
 39
0.25
 10
-119.7206185283628
 20
756.6793165423917
 30
0.0
 11
-117.7206185283628
 21
756.6793165423917
 31
0.0
1001
AUSTER_ANSICHT
1002
{
1000
Det03
1002
}
1001
AUSTER_FOLIE
1002
{
1000
NSB00342_S3
1002
}
  0
LINE
  5
FFD6
330
20
100
AcDbEntity
  8
10000_FRONT
  6
DASHED
 62
     7
370
    20
100
AcDbLine
 39
0.25
 10
-138.1706185283628
 20
738.7687165423918
 30
0.0
 11
-138.1706185283628
 21
738.5751165423918
 31
0.0
1001
AUSTER_ANSICHT
1002
{
1000
Det03
1002
}
1001
AUSTER_FOLIE
1002
{
1000
NSB00342_S3
1002
}
  0
LINE
  5
FFD7
330
20
100
AcDbEntity
  8
10000_FRONT
  6
DASHED
 62
     7
370
    20
100
AcDbLine
 39
0.25
 10
-137.9765185283628
 20
738.7691165423917
 30
0.0
 11
-138.1706185283628
 21
738.7687165423918
 31
0.0
1001
AUSTER_ANSICHT
1002
{
1000
Det03
1002
}
1001
AUSTER_FOLIE
1002
{
1000
NSB00342_S3
1002
}
  0
LINE
  5
FFD8
330
20
100
AcDbEntity
  8
10000_FRONT
  6
DASHED
 62
     7
370
    20
100
AcDbLine
 39
0.25
 10
-135.4332185283628
 20
738.7691165423917
 30
0.0
 11
-137.9765185283628
 21
738.7691165423917
 31
0.0
1001
AUSTER_ANSICHT
1002
{
1000
Det03
1002
}
1001
AUSTER_FOLIE
1002
{
1000
NSB00342_S3
1002
}
  0
LINE
  5
FFD9
330
20
100
AcDbEntity
  8
10000_FRONT
  6
DASHED
 62
     7
370
    20
100
AcDbLine
 39
0.25
 10
-138.1706185283628
 20
738.5751165423918
 30
0.0
 11
-138.1706185283628
 21
736.0815165423917
 31
0.0
1001
AUSTER_ANSICHT
1002
{
1000
Det03
1002
}
1001
AUSTER_FOLIE
1002
{
1000
NSB00342_S3
1002
}
  0
LINE
  5
FFDA
330
20
100
AcDbEntity
  8
10000_FRONT
  6
DASHED
 62
     7
370
    20
100
AcDbLine
 39
0.25
 10
-119.7206185283628
 20
749.9191165423918
 30
0.0
 11
-119.7206185283628
 21
756.6793165423917
 31
0.0
1001
AUSTER_ANSICHT
1002
{
1000
Det03
1002
}
1001
AUSTER_FOLIE
1002
{
1000
NSB00342_S3
1002
}
  0
LINE
  5
FFDB
330
20
100
AcDbEntity
  8
10000_FRONT
  6
DASHED
 62
     7
370
    20
100
AcDbLine
 39
0.25
 10
-148.5385185283628
 20
713.8973165423918
 30
0.0
 11
-149.5026185283628
 21
713.8973165423918
 31
0.0
1001
AUSTER_ANSICHT
1002
{
1000
Det03
1002
}
1001
AUSTER_FOLIE
1002
{
1000
NSB00342_S3
1002
}
  0
LINE
  5
FFDC
330
20
100
AcDbEntity
  8
10000_FRONT
  6
DASHED
 62
     7
370
    20
100
AcDbLine
 39
0.25
 10
-149.5026185283628
 20
715.3614165423918
 30
0.0
 11
-148.5385185283628
 21
715.3614165423918
 31
0.0
1001
AUSTER_ANSICHT
1002
{
1000
Det03
1002
}
1001
AUSTER_FOLIE
1002
{
1000
NSB00342_S3
1002
}
  0
LINE
  5
FFDD
330
20
100
AcDbEntity
  8
10000_FRONT
  6
DASHED
 62
     7
370
    20
100
AcDbLine
 39
0.25
 10
-148.5385185283628
 20
715.3614165423918
 30
0.0
 11
-148.5385185283628
 21
713.8973165423918
 31
0.0
1001
AUSTER_ANSICHT
1002
{
1000
Det03
1002
}
1001
AUSTER_FOLIE
1002
{
1000
NSB00342_S3
1002
}
  0
LINE
  5
FFDE
330
20
100
AcDbEntity
  8
10000_FRONT
  6
DASHED
 62
     7
370
    20
100
AcDbLine
 39
0.25
 10
-128.0206185283628
 20
749.9673165423918
 30
0.0
 11
-128.0206185283628
 21
756.7632165423917
 31
0.0
1001
AUSTER_ANSICHT
1002
{
1000
Det03
1002
}
1001
AUSTER_FOLIE
1002
{
1000
NSB00342_S3
1002
}
  0
LINE
  5
FFDF
330
20
100
AcDbEntity
  8
10000_FRONT
  6
DASHED
 62
     7
370
    20
100
AcDbLine
 39
0.25
 10
-128.0206185283628
 20
756.7632165423917
 30
0.0
 11
-147.8206185283628
 21
756.7632165423917
 31
0.0
1001
AUSTER_ANSICHT
1002
{
1000
Det03
1002
}
1001
AUSTER_FOLIE
1002
{
1000
NSB00342_S3
1002
}
  0
LINE
  5
FFE0
330
20
100
AcDbEntity
  8
10000_FRONT
  6
DASHED
 62
     7
370
    20
100
AcDbLine
 39
0.25
 10
-147.8206185283628
 20
756.7632165423917
 30
0.0
 11
-147.8206185283628
 21
749.9673165423918
 31
0.0
1001
AUSTER_ANSICHT
1002
{
1000
Det03
1002
}
1001
AUSTER_FOLIE
1002
{
1000
NSB00342_S3
1002
}
  0
LINE
  5
FFE1
330
20
100
AcDbEntity
  8
10000_FRONT
  6
DASHED
 62
     7
370
    20
100
AcDbLine
 39
0.25
 10
-147.8206185283628
 20
749.9673165423918
 30
0.0
 11
-128.0206185283628
 21
749.9673165423918
 31
0.0
1001
AUSTER_ANSICHT
1002
{
1000
Det03
1002
}
1001
AUSTER_FOLIE
1002
{
1000
NSB00342_S3
1002
}
  0
LINE
  5
FFF1
330
20
100
AcDbEntity
  8
11000_Left
  6
DASHED
 62
     7
370
    20
100
AcDbLine
 39
0.25
 10
36.65517503903061
 20
684.5691165423917
 30
0.0
 11
17.05517503903061
 21
684.5691165423917
 31
0.0
1001
AUSTER_ANSICHT
1002
{
1000
Det03
1002
}
1001
AUSTER_FOLIE
1002
{
1000
NSB00342_S3
1002
}
  0
LINE
  5
FFF2
330
20
100
AcDbEntity
  8
11000_Left
  6
Continuous
 62
     7
370
    20
100
AcDbLine
 39
0.7
 10
17.05517503903061
 20
684.5691165423917
 30
0.0
 11
17.05517503903061
 21
688.1691165423919
 31
0.0
1001
AUSTER_ANSICHT
1002
{
1000
Det03
1002
}
1001
AUSTER_FOLIE
1002
{
1000
NSB00342_S3
1002
}
  0
LINE
  5
FFF3
330
20
100
AcDbEntity
  8
11000_Left
  6
Continuous
 62
     7
370
    50
100
AcDbLine
 39
0.7
 10
60.07747503903061
 20
794.4691165423918
 30
0.0
 11
40.47747503903065
 21
794.4691165423918
 31
0.0
1001
AUSTER_ANSICHT
1002
{
1000
Det03
1002
}
1001
AUSTER_FOLIE
1002
{
1000
NSB00342_S3
1002
}
  0
LINE
  5
FFF4
330
20
100
AcDbEntity
  8
11000_Left
  6
Continuous
 62
     7
370
    50
100
AcDbLine
 39
0.7
 10
40.47747503903065
 20
794.4691165423918
 30
0.0
 11
40.47747503903065
 21
790.8691165423918
 31
0.0
1001
AUSTER_ANSICHT
1002
{
1000
Det03
1002
}
1001
AUSTER_FOLIE
1002
{
1000
NSB00342_S3
1002
}
  0
LINE
  5
FFF5
330
20
100
AcDbEntity
  8
11000_Left
  6
DASHED
 62
     7
370
    20
100
AcDbLine
 39
0.25
 10
66.9640750390306
 20
688.1691165423919
 30
0.0
 11
-4.744824960969394
 21
688.1691165423919
 31
0.0
1001
AUSTER_ANSICHT
1002
{
1000
Det03
1002
}
1001
AUSTER_FOLIE
1002
{
1000
NSB00342_S3
1002
}
  0
LINE
  5
FFF7
330
20
100
AcDbEntity
  8
11000_Left
  6
DASHED
 62
     7
370
    20
100
AcDbLine
 39
0.25
 10
-5.544824960969378
 20
688.1691165423919
 30
0.0
 11
-24.34482496096939
 21
688.1691165423919
 31
0.0
1001
AUSTER_ANSICHT
1002
{
1000
Det03
1002
}
1001
AUSTER_FOLIE
1002
{
1000
NSB00342_S3
1002
}
  0
LINE
  5
FFF8
330
20
100
AcDbEntity
  8
11000_Left
  6
DASHED
 62
     7
370
    20
100
AcDbLine
 39
0.25
 10
88.15517503903061
 20
712.8691165423918
 30
0.0
 11
70.76017503903063
 21
712.8691165423918
 31
0.0
1001
AUSTER_ANSICHT
1002
{
1000
Det03
1002
}
1001
AUSTER_FOLIE
1002
{
1000
NSB00342_S3
1002
}
  0
LINE
  5
FFFA
330
20
100
AcDbEntity
  8
11000_Left
  6
DASHED
 62
     7
370
    20
100
AcDbLine
 39
0.25
 10
-24.34482496096939
 20
750.7691165423917
 30
0.0
 11
88.15517503903061
 21
750.7691165423917
 31
0.0
1001
AUSTER_ANSICHT
1002
{
1000
Det03
1002
}
1001
AUSTER_FOLIE
1002
{
1000
NSB00342_S3
1002
}
  0
LINE
  5
FFFD
330
20
100
AcDbEntity
  8
11000_Left
  6
DASHED
 62
     7
370
    20
100
AcDbLine
 39
0.25
 10
91.76127503903066
 20
712.8691165423918
 30
0.0
 11
88.15517503903061
 21
712.8691165423918
 31
0.0
1001
AUSTER_ANSICHT
1002
{
1000
Det03
1002
}
1001
AUSTER_FOLIE
1002
{
1000
NSB00342_S3
1002
}
  0
LINE
  5
FFFE
330
20
100
AcDbEntity
  8
11000_Left
  6
DASHED
 62
     7
370
    20
100
AcDbLine
 39
0.25
 10
94.31433503903059
 20
732.8691165423918
 30
0.0
 11
98.52400503903062
 21
732.8691165423918
 31
0.0
1001
AUSTER_ANSICHT
1002
{
1000
Det03
1002
}
1001
AUSTER_FOLIE
1002
{
1000
NSB00342_S3
1002
}
  0
LINE
  5
FFFF
330
20
100
AcDbEntity
  8
11000_Left
  6
DASHED
 62
     7
370
    20
100
AcDbLine
 39
0.25
 10
98.52400503903062
 20
738.6691165423918
 30
0.0
 11
94.55041503903059
 21
738.6691165423918
 31
0.0
1001
AUSTER_ANSICHT
1002
{
1000
Det03
1002
}
1001
AUSTER_FOLIE
1002
{
1000
NSB00342_S3
1002
}
  0
LINE
  5
10000
330
20
100
AcDbEntity
  8
11000_Left
  6
Continuous
 62
     7
370
    50
100
AcDbLine
 39
0.7
 10
96.21005503903065
 20
739.8191165423918
 30
0.0
 11
94.58074503903059
 21
739.8191165423918
 31
0.0
1001
AUSTER_ANSICHT
1002
{
1000
Det03
1002
}
1001
AUSTER_FOLIE
1002
{
1000
NSB00342_S3
1002
}
  0
LINE
  5
10001
330
20
100
AcDbEntity
  8
11000_Left
  6
DASHED
 62
     7
370
    20
100
AcDbLine
 39
0.25
 10
94.74939503903064
 20
749.6191165423917
 30
0.0
 11
96.44723503903058
 21
749.6191165423917
 31
0.0
1001
AUSTER_ANSICHT
1002
{
1000
Det03
1002
}
1001
AUSTER_FOLIE
1002
{
1000
NSB00342_S3
1002
}
  0
LINE
  5
10002
330
20
100
AcDbEntity
  8
11000_Left
  6
DASHED
 62
     7
370
    20
100
AcDbLine
 39
0.25
 10
94.62845503903064
 20
749.5620165423917
 30
0.0
 11
94.74939503903064
 21
749.6191165423917
 31
0.0
1001
AUSTER_ANSICHT
1002
{
1000
Det03
1002
}
1001
AUSTER_FOLIE
1002
{
1000
NSB00342_S3
1002
}
  0
LINE
  5
10004
330
20
100
AcDbEntity
  8
11000_Left
  6
DASHED
 62
     7
370
    20
100
AcDbLine
 39
0.25
 10
-5.144824960969396
 20
688.5691165423918
 30
0.0
 11
-5.144824960969373
 21
704.866216542392
 31
0.0
1001
AUSTER_ANSICHT
1002
{
1000
Det03
1002
}
1001
AUSTER_FOLIE
1002
{
1000
NSB00342_S3
1002
}
  0
LINE
  5
10005
330
20
100
AcDbEntity
  8
11000_Left
  6
DASHED
 62
     7
370
    20
100
AcDbLine
 39
0.25
 10
5.453575039030623
 20
705.2691165423917
 30
0.0
 11
7.955275039030622
 21
705.2691165423917
 31
0.0
1001
AUSTER_ANSICHT
1002
{
1000
Det03
1002
}
1001
AUSTER_FOLIE
1002
{
1000
NSB00342_S3
1002
}
  0
LINE
  5
10006
330
20
100
AcDbEntity
  8
11000_Left
  6
DASHED
 62
     7
370
    20
100
AcDbLine
 39
0.25
 10
5.455175039030621
 20
705.2691165423917
 30
0.0
 11
-4.744824960969394
 21
705.2672165423918
 31
0.0
1001
AUSTER_ANSICHT
1002
{
1000
Det03
1002
}
1001
AUSTER_FOLIE
1002
{
1000
NSB00342_S3
1002
}
  0
LINE
  5
10007
330
20
100
AcDbEntity
  8
11000_Left
  6
DASHED
 62
     7
370
    20
100
AcDbLine
 39
0.25
 10
69.56967503903058
 20
705.2691165423917
 30
0.0
 11
7.955275039030622
 21
705.2691165423917
 31
0.0
1001
AUSTER_ANSICHT
1002
{
1000
Det03
1002
}
1001
AUSTER_FOLIE
1002
{
1000
NSB00342_S3
1002
}
  0
LINE
  5
10008
330
20
100
AcDbEntity
  8
11000_Left
  6
DASHED
 62
     7
370
    20
100
AcDbLine
 39
0.25
 10
37.05517503903062
 20
687.7691165423917
 30
0.0
 11
37.05517503903062
 21
684.9691165423919
 31
0.0
1001
AUSTER_ANSICHT
1002
{
1000
Det03
1002
}
1001
AUSTER_FOLIE
1002
{
1000
NSB00342_S3
1002
}
  0
LINE
  5
10009
330
20
100
AcDbEntity
  8
11000_Left
  6
DASHED
 62
     7
370
    20
100
AcDbLine
 39
0.25
 10
88.15517503903061
 20
773.7691165423917
 30
0.0
 11
88.15517503903061
 21
712.8691165423918
 31
0.0
1001
AUSTER_ANSICHT
1002
{
1000
Det03
1002
}
1001
AUSTER_FOLIE
1002
{
1000
NSB00342_S3
1002
}
  0
LINE
  5
1000A
330
20
100
AcDbEntity
  8
11000_Left
  6
Continuous
 62
     7
370
    50
100
AcDbLine
 39
0.7
 10
-41.02252496096935
 20
677.4191165423919
 30
0.0
 11
-41.02252496096935
 21
689.3191165423918
 31
0.0
1001
AUSTER_ANSICHT
1002
{
1000
Det03
1002
}
1001
AUSTER_FOLIE
1002
{
1000
NSB00342_S3
1002
}
  0
LINE
  5
1000B
330
20
100
AcDbEntity
  8
11000_Left
  6
Continuous
 62
     7
370
    50
100
AcDbLine
 39
0.7
 10
-40.42252496096938
 20
797.0191165423917
 30
0.0
 11
-24.82252496096939
 21
797.0191165423917
 31
0.0
1001
AUSTER_ANSICHT
1002
{
1000
Det03
1002
}
1001
AUSTER_FOLIE
1002
{
1000
NSB00342_S3
1002
}
  0
LINE
  5
1000C
330
20
100
AcDbEntity
  8
11000_Left
  6
Continuous
 62
     7
370
    50
100
AcDbLine
 39
0.7
 10
92.33906503903062
 20
773.7691165423917
 30
0.0
 11
82.87747503903062
 21
773.7691165423917
 31
0.0
1001
AUSTER_ANSICHT
1002
{
1000
Det03
1002
}
1001
AUSTER_FOLIE
1002
{
1000
NSB00342_S3
1002
}
  0
LINE
  5
1000D
330
20
100
AcDbEntity
  8
11000_Left
  6
Continuous
 62
     7
370
    20
100
AcDbLine
 39
0.7
 10
18.17747503903061
 20
789.3691165423917
 30
0.0
 11
18.17747503903061
 21
774.2491165423918
 31
0.0
1001
AUSTER_ANSICHT
1002
{
1000
Det03
1002
}
1001
AUSTER_FOLIE
1002
{
1000
NSB00342_S3
1002
}
  0
LINE
  5
1000E
330
20
100
AcDbEntity
  8
11000_Left
  6
Continuous
 62
     7
370
    20
100
AcDbLine
 39
0.7
 10
-33.02252496096938
 20
688.1691165423919
 30
0.0
 11
-33.02252496096938
 21
677.0191165423917
 31
0.0
1001
AUSTER_ANSICHT
1002
{
1000
Det03
1002
}
1001
AUSTER_FOLIE
1002
{
1000
NSB00342_S3
1002
}
  0
LINE
  5
1000F
330
20
100
AcDbEntity
  8
11000_Left
  6
Continuous
 62
     7
370
    50
100
AcDbLine
 39
0.7
 10
-24.82252496096939
 20
797.0191165423917
 30
0.0
 11
-24.82252496096939
 21
790.8691165423918
 31
0.0
1001
AUSTER_ANSICHT
1002
{
1000
Det03
1002
}
1001
AUSTER_FOLIE
1002
{
1000
NSB00342_S3
1002
}
  0
LINE
  5
10010
330
20
100
AcDbEntity
  8
11000_Left
  6
Continuous
 62
     7
370
    50
100
AcDbLine
 39
0.7
 10
-38.37872496096938
 20
774.6191165423917
 30
0.0
 11
-37.18702496096938
 21
775.6191165423918
 31
0.0
1001
AUSTER_ANSICHT
1002
{
1000
Det03
1002
}
1001
AUSTER_FOLIE
1002
{
1000
NSB00342_S3
1002
}
  0
LINE
  5
10011
330
20
100
AcDbEntity
  8
11000_Left
  6
Continuous
 62
     7
370
    50
100
AcDbLine
 39
0.7
 10
-37.18702496096938
 20
775.6191165423918
 30
0.0
 11
-36.92252496096938
 21
777.1191165423918
 31
0.0
1001
AUSTER_ANSICHT
1002
{
1000
Det03
1002
}
1001
AUSTER_FOLIE
1002
{
1000
NSB00342_S3
1002
}
  0
LINE
  5
10012
330
20
100
AcDbEntity
  8
11000_Left
  6
Continuous
 62
     7
370
    20
100
AcDbLine
 39
0.7
 10
-33.82252496096939
 20
776.1191165423918
 30
0.0
 11
-33.92252496096939
 21
776.1191165423918
 31
0.0
1001
AUSTER_ANSICHT
1002
{
1000
Det03
1002
}
1001
AUSTER_FOLIE
1002
{
1000
NSB00342_S3
1002
}
  0
LINE
  5
10013
330
20
100
AcDbEntity
  8
11000_Left
  6
Continuous
 62
     7
370
    20
100
AcDbLine
 39
0.7
 10
-33.92252496096939
 20
776.1191165423918
 30
0.0
 11
-34.62252496096937
 21
773.1191165423918
 31
0.0
1001
AUSTER_ANSICHT
1002
{
1000
Det03
1002
}
1001
AUSTER_FOLIE
1002
{
1000
NSB00342_S3
1002
}
  0
LINE
  5
10014
330
20
100
AcDbEntity
  8
11000_Left
  6
Continuous
 62
     7
370
    20
100
AcDbLine
 39
0.7
 10
-34.62252496096937
 20
773.1191165423918
 30
0.0
 11
-34.62252496096937
 21
771.1191165423918
 31
0.0
1001
AUSTER_ANSICHT
1002
{
1000
Det03
1002
}
1001
AUSTER_FOLIE
1002
{
1000
NSB00342_S3
1002
}
  0
LINE
  5
10015
330
20
100
AcDbEntity
  8
11000_Left
  6
Continuous
 62
     7
370
    20
100
AcDbLine
 39
0.7
 10
-34.62252496096937
 20
771.1191165423918
 30
0.0
 11
-33.82252496096939
 21
771.1191165423918
 31
0.0
1001
AUSTER_ANSICHT
1002
{
1000
Det03
1002
}
1001
AUSTER_FOLIE
1002
{
1000
NSB00342_S3
1002
}
  0
LINE
  5
10016
330
20
100
AcDbEntity
  8
11000_Left
  6
Continuous
 62
     7
370
    50
100
AcDbLine
 39
0.7
 10
-36.92252496096938
 20
777.1191165423918
 30
0.0
 11
-33.82252496096939
 21
777.1191165423918
 31
0.0
1001
AUSTER_ANSICHT
1002
{
1000
Det03
1002
}
1001
AUSTER_FOLIE
1002
{
1000
NSB00342_S3
1002
}
  0
LINE
  5
10017
330
20
100
AcDbEntity
  8
11000_Left
  6
Continuous
 62
     7
370
    50
100
AcDbLine
 39
0.7
 10
-33.82252496096939
 20
777.1191165423918
 30
0.0
 11
-33.82252496096939
 21
764.7191165423918
 31
0.0
1001
AUSTER_ANSICHT
1002
{
1000
Det03
1002
}
1001
AUSTER_FOLIE
1002
{
1000
NSB00342_S3
1002
}
  0
LINE
  5
10018
330
20
100
AcDbEntity
  8
11000_Left
  6
Continuous
 62
     7
370
    50
100
AcDbLine
 39
0.7
 10
-38.31902496096939
 20
755.3191165423918
 30
0.0
 11
-37.12732496096939
 21
756.3191165423918
 31
0.0
1001
AUSTER_ANSICHT
1002
{
1000
Det03
1002
}
1001
AUSTER_FOLIE
1002
{
1000
NSB00342_S3
1002
}
  0
LINE
  5
10019
330
20
100
AcDbEntity
  8
11000_Left
  6
Continuous
 62
     7
370
    50
100
AcDbLine
 39
0.7
 10
-37.12732496096939
 20
756.3191165423918
 30
0.0
 11
-36.87252496096937
 21
757.0191165423917
 31
0.0
1001
AUSTER_ANSICHT
1002
{
1000
Det03
1002
}
1001
AUSTER_FOLIE
1002
{
1000
NSB00342_S3
1002
}
  0
LINE
  5
1001A
330
20
100
AcDbEntity
  8
11000_Left
  6
Continuous
 62
     7
370
    50
100
AcDbLine
 39
0.7
 10
-33.82252496096939
 20
701.3191165423918
 30
0.0
 11
-37.72252496096939
 21
701.3191165423918
 31
0.0
1001
AUSTER_ANSICHT
1002
{
1000
Det03
1002
}
1001
AUSTER_FOLIE
1002
{
1000
NSB00342_S3
1002
}
  0
LINE
  5
1001B
330
20
100
AcDbEntity
  8
11000_Left
  6
Continuous
 62
     7
370
    50
100
AcDbLine
 39
0.7
 10
-33.82252496096939
 20
715.1191165423917
 30
0.0
 11
-33.82252496096939
 21
701.3191165423918
 31
0.0
1001
AUSTER_ANSICHT
1002
{
1000
Det03
1002
}
1001
AUSTER_FOLIE
1002
{
1000
NSB00342_S3
1002
}
  0
LINE
  5
1001C
330
20
100
AcDbEntity
  8
11000_Left
  6
Continuous
 62
     7
370
    20
100
AcDbLine
 39
0.7
 10
-36.62252496096936
 20
753.0191165423917
 30
0.0
 11
-36.62252496096936
 21
751.0191165423917
 31
0.0
1001
AUSTER_ANSICHT
1002
{
1000
Det03
1002
}
1001
AUSTER_FOLIE
1002
{
1000
NSB00342_S3
1002
}
  0
LINE
  5
1001D
330
20
100
AcDbEntity
  8
11000_Left
  6
Continuous
 62
     7
370
    20
100
AcDbLine
 39
0.7
 10
-35.92252496096938
 20
756.0191165423917
 30
0.0
 11
-36.62252496096936
 21
753.0191165423917
 31
0.0
1001
AUSTER_ANSICHT
1002
{
1000
Det03
1002
}
1001
AUSTER_FOLIE
1002
{
1000
NSB00342_S3
1002
}
  0
LINE
  5
1001E
330
20
100
AcDbEntity
  8
11000_Left
  6
Continuous
 62
     7
370
    20
100
AcDbLine
 39
0.7
 10
-35.82252496096939
 20
756.0191165423917
 30
0.0
 11
-35.92252496096938
 21
756.0191165423917
 31
0.0
1001
AUSTER_ANSICHT
1002
{
1000
Det03
1002
}
1001
AUSTER_FOLIE
1002
{
1000
NSB00342_S3
1002
}
  0
LINE
  5
1001F
330
20
100
AcDbEntity
  8
11000_Left
  6
Continuous
 62
     7
370
    20
100
AcDbLine
 39
0.7
 10
-36.62252496096936
 20
751.0191165423917
 30
0.0
 11
-35.82252496096939
 21
751.0191165423917
 31
0.0
1001
AUSTER_ANSICHT
1002
{
1000
Det03
1002
}
1001
AUSTER_FOLIE
1002
{
1000
NSB00342_S3
1002
}
  0
LINE
  5
10020
330
20
100
AcDbEntity
  8
11000_Left
  6
Continuous
 62
     7
370
    50
100
AcDbLine
 39
0.7
 10
-36.87252496096937
 20
757.0191165423917
 30
0.0
 11
-35.82252496096939
 21
757.0191165423917
 31
0.0
1001
AUSTER_ANSICHT
1002
{
1000
Det03
1002
}
1001
AUSTER_FOLIE
1002
{
1000
NSB00342_S3
1002
}
  0
LINE
  5
10021
330
20
100
AcDbEntity
  8
11000_Left
  6
Continuous
 62
     7
370
    50
100
AcDbLine
 39
0.7
 10
-35.82252496096939
 20
757.0191165423917
 30
0.0
 11
-35.82252496096939
 21
721.4191165423918
 31
0.0
1001
AUSTER_ANSICHT
1002
{
1000
Det03
1002
}
1001
AUSTER_FOLIE
1002
{
1000
NSB00342_S3
1002
}
  0
LINE
  5
10022
330
20
100
AcDbEntity
  8
11000_Left
  6
Continuous
 62
     7
370
    50
100
AcDbLine
 39
0.7
 10
-25.22252496096939
 20
677.0191165423917
 30
0.0
 11
-33.02252496096938
 21
677.0191165423917
 31
0.0
1001
AUSTER_ANSICHT
1002
{
1000
Det03
1002
}
1001
AUSTER_FOLIE
1002
{
1000
NSB00342_S3
1002
}
  0
LINE
  5
10023
330
20
100
AcDbEntity
  8
11000_Left
  6
Continuous
 62
     7
370
    20
100
AcDbLine
 39
0.7
 10
-33.02252496096938
 20
688.1691165423919
 30
0.0
 11
-25.22252496096939
 21
688.1691165423919
 31
0.0
1001
AUSTER_ANSICHT
1002
{
1000
Det03
1002
}
1001
AUSTER_FOLIE
1002
{
1000
NSB00342_S3
1002
}
  0
LINE
  5
10024
330
20
100
AcDbEntity
  8
11000_Left
  6
Continuous
 62
     7
370
    50
100
AcDbLine
 39
0.7
 10
-33.02252496096938
 20
677.0191165423917
 30
0.0
 11
-40.62252496096935
 21
677.0191165423917
 31
0.0
1001
AUSTER_ANSICHT
1002
{
1000
Det03
1002
}
1001
AUSTER_FOLIE
1002
{
1000
NSB00342_S3
1002
}
  0
LINE
  5
10025
330
20
100
AcDbEntity
  8
11000_Left
  6
Continuous
 62
     7
370
    50
100
AcDbLine
 39
0.7
 10
-40.42252496096938
 20
774.6191165423917
 30
0.0
 11
-38.37872496096938
 21
774.6191165423917
 31
0.0
1001
AUSTER_ANSICHT
1002
{
1000
Det03
1002
}
1001
AUSTER_FOLIE
1002
{
1000
NSB00342_S3
1002
}
  0
LINE
  5
10026
330
20
100
AcDbEntity
  8
11000_Left
  6
Continuous
 62
     7
370
    50
100
AcDbLine
 39
0.7
 10
-37.82252496096939
 20
760.7191165423918
 30
0.0
 11
-40.42252496096938
 21
760.7191165423918
 31
0.0
1001
AUSTER_ANSICHT
1002
{
1000
Det03
1002
}
1001
AUSTER_FOLIE
1002
{
1000
NSB00342_S3
1002
}
  0
LINE
  5
10027
330
20
100
AcDbEntity
  8
11000_Left
  6
Continuous
 62
     7
370
    50
100
AcDbLine
 39
0.7
 10
-40.42252496096938
 20
755.3191165423918
 30
0.0
 11
-38.31902496096939
 21
755.3191165423918
 31
0.0
1001
AUSTER_ANSICHT
1002
{
1000
Det03
1002
}
1001
AUSTER_FOLIE
1002
{
1000
NSB00342_S3
1002
}
  0
LINE
  5
10028
330
20
100
AcDbEntity
  8
11000_Left
  6
Continuous
 62
     7
370
    50
100
AcDbLine
 39
0.7
 10
-37.32252496096939
 20
721.4191165423918
 30
0.0
 11
-40.42252496096938
 21
720.5334165423918
 31
0.0
1001
AUSTER_ANSICHT
1002
{
1000
Det03
1002
}
1001
AUSTER_FOLIE
1002
{
1000
NSB00342_S3
1002
}
  0
LINE
  5
10029
330
20
100
AcDbEntity
  8
11000_Left
  6
Continuous
 62
     7
370
    50
100
AcDbLine
 39
0.7
 10
-40.42252496096938
 20
719.1191165423918
 30
0.0
 11
-37.82252496096939
 21
719.1191165423918
 31
0.0
1001
AUSTER_ANSICHT
1002
{
1000
Det03
1002
}
1001
AUSTER_FOLIE
1002
{
1000
NSB00342_S3
1002
}
  0
LINE
  5
1002A
330
20
100
AcDbEntity
  8
11000_Left
  6
Continuous
 62
     7
370
    50
100
AcDbLine
 39
0.7
 10
-37.72252496096939
 20
701.3191165423918
 30
0.0
 11
-40.42252496096938
 21
700.4482165423918
 31
0.0
1001
AUSTER_ANSICHT
1002
{
1000
Det03
1002
}
1001
AUSTER_FOLIE
1002
{
1000
NSB00342_S3
1002
}
  0
LINE
  5
1002B
330
20
100
AcDbEntity
  8
11000_Left
  6
Continuous
 62
     7
370
    50
100
AcDbLine
 39
0.7
 10
-41.02252496096935
 20
689.3191165423918
 30
0.0
 11
-40.82252496096939
 21
689.3191165423918
 31
0.0
1001
AUSTER_ANSICHT
1002
{
1000
Det03
1002
}
1001
AUSTER_FOLIE
1002
{
1000
NSB00342_S3
1002
}
  0
LINE
  5
1002C
330
20
100
AcDbEntity
  8
11000_Left
  6
Continuous
 62
     7
370
    50
100
AcDbLine
 39
0.7
 10
-40.82252496096939
 20
719.1191165423918
 30
0.0
 11
-40.82252496096939
 21
720.4191165423918
 31
0.0
1001
AUSTER_ANSICHT
1002
{
1000
Det03
1002
}
1001
AUSTER_FOLIE
1002
{
1000
NSB00342_S3
1002
}
  0
LINE
  5
1002D
330
20
100
AcDbEntity
  8
11000_Left
  6
Continuous
 62
     7
370
    50
100
AcDbLine
 39
0.7
 10
-40.82252496096939
 20
689.3191165423918
 30
0.0
 11
-40.82252496096939
 21
700.319116542392
 31
0.0
1001
AUSTER_ANSICHT
1002
{
1000
Det03
1002
}
1001
AUSTER_FOLIE
1002
{
1000
NSB00342_S3
1002
}
  0
LINE
  5
1002E
330
20
100
AcDbEntity
  8
11000_Left
  6
Continuous
 62
     7
370
    50
100
AcDbLine
 39
0.7
 10
-40.82252496096939
 20
719.1191165423918
 30
0.0
 11
-40.42252496096938
 21
719.1191165423918
 31
0.0
1001
AUSTER_ANSICHT
1002
{
1000
Det03
1002
}
1001
AUSTER_FOLIE
1002
{
1000
NSB00342_S3
1002
}
  0
LINE
  5
1002F
330
20
100
AcDbEntity
  8
11000_Left
  6
Continuous
 62
     7
370
    50
100
AcDbLine
 39
0.7
 10
-40.42252496096938
 20
720.5334165423918
 30
0.0
 11
-40.82252496096939
 21
720.4191165423918
 31
0.0
1001
AUSTER_ANSICHT
1002
{
1000
Det03
1002
}
1001
AUSTER_FOLIE
1002
{
1000
NSB00342_S3
1002
}
  0
LINE
  5
10030
330
20
100
AcDbEntity
  8
11000_Left
  6
Continuous
 62
     7
370
    50
100
AcDbLine
 39
0.7
 10
-40.42252496096938
 20
700.4482165423918
 30
0.0
 11
-40.82252496096939
 21
700.319116542392
 31
0.0
1001
AUSTER_ANSICHT
1002
{
1000
Det03
1002
}
1001
AUSTER_FOLIE
1002
{
1000
NSB00342_S3
1002
}
  0
LINE
  5
10031
330
20
100
AcDbEntity
  8
11000_Left
  6
Continuous
 62
     7
370
    50
100
AcDbLine
 39
0.7
 10
-40.82252496096939
 20
775.0191165423918
 30
0.0
 11
-40.82252496096939
 21
796.6191165423918
 31
0.0
1001
AUSTER_ANSICHT
1002
{
1000
Det03
1002
}
1001
AUSTER_FOLIE
1002
{
1000
NSB00342_S3
1002
}
  0
LINE
  5
10032
330
20
100
AcDbEntity
  8
11000_Left
  6
Continuous
 62
     7
370
    50
100
AcDbLine
 39
0.7
 10
-40.82252496096939
 20
755.7191165423918
 30
0.0
 11
-40.82252496096939
 21
760.7191165423918
 31
0.0
1001
AUSTER_ANSICHT
1002
{
1000
Det03
1002
}
1001
AUSTER_FOLIE
1002
{
1000
NSB00342_S3
1002
}
  0
LINE
  5
10033
330
20
100
AcDbEntity
  8
11000_Left
  6
Continuous
 62
     7
370
    50
100
AcDbLine
 39
0.7
 10
-40.42252496096938
 20
760.7191165423918
 30
0.0
 11
-40.82252496096939
 21
760.7191165423918
 31
0.0
1001
AUSTER_ANSICHT
1002
{
1000
Det03
1002
}
1001
AUSTER_FOLIE
1002
{
1000
NSB00342_S3
1002
}
  0
LINE
  5
10035
330
20
100
AcDbEntity
  8
11000_Left
  6
Continuous
 62
     7
370
    50
100
AcDbLine
 39
0.7
 10
-41.02252496096935
 20
784.3691165423917
 30
0.0
 11
-41.02252496096935
 21
796.6191165423918
 31
0.0
1001
AUSTER_ANSICHT
1002
{
1000
Det03
1002
}
1001
AUSTER_FOLIE
1002
{
1000
NSB00342_S3
1002
}
  0
LINE
  5
10036
330
20
100
AcDbEntity
  8
11000_Left
  6
Continuous
 62
     7
370
    20
100
AcDbLine
 39
0.7
 10
-40.57252496096938
 20
700.4003165423918
 30
0.0
 11
-40.57252496096938
 21
701.1732165423918
 31
0.0
1001
AUSTER_ANSICHT
1002
{
1000
Det03
1002
}
1001
AUSTER_FOLIE
1002
{
1000
NSB00342_S3
1002
}
  0
LINE
  5
10037
330
20
100
AcDbEntity
  8
11000_Left
  6
Continuous
 62
     7
370
    20
100
AcDbLine
 39
0.7
 10
-35.17252496096939
 20
703.2191165423918
 30
0.0
 11
-36.44292496096938
 21
703.2191165423918
 31
0.0
1001
AUSTER_ANSICHT
1002
{
1000
Det03
1002
}
1001
AUSTER_FOLIE
1002
{
1000
NSB00342_S3
1002
}
  0
LINE
  5
10038
330
20
100
AcDbEntity
  8
11000_Left
  6
Continuous
 62
     7
370
    20
100
AcDbLine
 39
0.7
 10
-36.83682496096938
 20
703.5497165423918
 30
0.0
 11
-36.9725249609694
 21
704.319116542392
 31
0.0
1001
AUSTER_ANSICHT
1002
{
1000
Det03
1002
}
1001
AUSTER_FOLIE
1002
{
1000
NSB00342_S3
1002
}
  0
LINE
  5
10039
330
20
100
AcDbEntity
  8
11000_Left
  6
Continuous
 62
     7
370
    20
100
AcDbLine
 39
0.7
 10
-36.9725249609694
 20
704.319116542392
 30
0.0
 11
-36.9725249609694
 21
705.1191165423918
 31
0.0
1001
AUSTER_ANSICHT
1002
{
1000
Det03
1002
}
1001
AUSTER_FOLIE
1002
{
1000
NSB00342_S3
1002
}
  0
LINE
  5
1003A
330
20
100
AcDbEntity
  8
11000_Left
  6
Continuous
 62
     7
370
    20
100
AcDbLine
 39
0.7
 10
-36.9725249609694
 20
705.1191165423918
 30
0.0
 11
-37.18642496096939
 21
705.1191165423918
 31
0.0
1001
AUSTER_ANSICHT
1002
{
1000
Det03
1002
}
1001
AUSTER_FOLIE
1002
{
1000
NSB00342_S3
1002
}
  0
LINE
  5
1003B
330
20
100
AcDbEntity
  8
11000_Left
  6
Continuous
 62
     7
370
    20
100
AcDbLine
 39
0.7
 10
-37.49242496096937
 20
704.9768165423918
 30
0.0
 11
-40.47852496096939
 21
701.4308165423917
 31
0.0
1001
AUSTER_ANSICHT
1002
{
1000
Det03
1002
}
1001
AUSTER_FOLIE
1002
{
1000
NSB00342_S3
1002
}
  0
LINE
  5
1003C
330
20
100
AcDbEntity
  8
11000_Left
  6
Continuous
 62
     7
370
    20
100
AcDbLine
 39
0.7
 10
-33.82252496096939
 20
703.2191165423918
 30
0.0
 11
-35.17252496096939
 21
703.2191165423918
 31
0.0
1001
AUSTER_ANSICHT
1002
{
1000
Det03
1002
}
1001
AUSTER_FOLIE
1002
{
1000
NSB00342_S3
1002
}
  0
LINE
  5
1003D
330
20
100
AcDbEntity
  8
11000_Left
  6
Continuous
 62
     7
370
    50
100
AcDbLine
 39
0.7
 10
17.7774750390306
 20
790.8691165423918
 30
0.0
 11
-24.82252496096939
 21
790.8691165423918
 31
0.0
1001
AUSTER_ANSICHT
1002
{
1000
Det03
1002
}
1001
AUSTER_FOLIE
1002
{
1000
NSB00342_S3
1002
}
  0
LINE
  5
1003E
330
20
100
AcDbEntity
  8
11000_Left
  6
Continuous
 62
     7
370
    20
100
AcDbLine
 39
0.7
 10
18.17747503903061
 20
790.4691165423918
 30
0.0
 11
18.17747503903061
 21
789.3691165423917
 31
0.0
1001
AUSTER_ANSICHT
1002
{
1000
Det03
1002
}
1001
AUSTER_FOLIE
1002
{
1000
NSB00342_S3
1002
}
  0
LINE
  5
10040
330
20
100
AcDbEntity
  8
11000_Left
  6
Continuous
 62
     7
370
    50
100
AcDbLine
 39
0.7
 10
60.47747503903065
 20
794.069116542392
 30
0.0
 11
60.47747503903065
 21
791.2691165423917
 31
0.0
1001
AUSTER_ANSICHT
1002
{
1000
Det03
1002
}
1001
AUSTER_FOLIE
1002
{
1000
NSB00342_S3
1002
}
  0
LINE
  5
10041
330
20
100
AcDbEntity
  8
11000_Left
  6
Continuous
 62
     7
370
    50
100
AcDbLine
 39
0.7
 10
82.87747503903062
 20
772.2691165423918
 30
0.0
 11
82.87747503903062
 21
773.7691165423917
 31
0.0
1001
AUSTER_ANSICHT
1002
{
1000
Det03
1002
}
1001
AUSTER_FOLIE
1002
{
1000
NSB00342_S3
1002
}
  0
LINE
  5
10042
330
20
100
AcDbEntity
  8
11000_Left
  6
DASHED
 62
     7
370
    20
100
AcDbLine
 39
0.25
 10
7.055175039030615
 20
704.0907165423917
 30
0.0
 11
7.055175039030615
 21
688.1691165423919
 31
0.0
1001
AUSTER_ANSICHT
1002
{
1000
Det03
1002
}
1001
AUSTER_FOLIE
1002
{
1000
NSB00342_S3
1002
}
  0
LINE
  5
10043
330
20
100
AcDbEntity
  8
11000_Left
  6
DASHED
 62
     7
370
    20
100
AcDbLine
 39
0.25
 10
35.05517503903063
 20
704.0907165423917
 30
0.0
 11
7.055175039030615
 21
704.0907165423917
 31
0.0
1001
AUSTER_ANSICHT
1002
{
1000
Det03
1002
}
1001
AUSTER_FOLIE
1002
{
1000
NSB00342_S3
1002
}
  0
LINE
  5
10044
330
20
100
AcDbEntity
  8
11000_Left
  6
DASHED
 62
     7
370
    20
100
AcDbLine
 39
0.25
 10
19.55517503903061
 20
704.0907165423917
 30
0.0
 11
19.55517503903061
 21
688.1691165423919
 31
0.0
1001
AUSTER_ANSICHT
1002
{
1000
Det03
1002
}
1001
AUSTER_FOLIE
1002
{
1000
NSB00342_S3
1002
}
  0
LINE
  5
10046
330
20
100
AcDbEntity
  8
11000_Left
  6
DASHED
 62
     7
370
    20
100
AcDbLine
 39
0.25
 10
22.55517503903062
 20
704.0907165423917
 30
0.0
 11
22.55517503903062
 21
688.1691165423919
 31
0.0
1001
AUSTER_ANSICHT
1002
{
1000
Det03
1002
}
1001
AUSTER_FOLIE
1002
{
1000
NSB00342_S3
1002
}
  0
LINE
  5
10047
330
20
100
AcDbEntity
  8
11000_Left
  6
DASHED
 62
     7
370
    20
100
AcDbLine
 39
0.25
 10
35.05517503903063
 20
684.5691165423917
 30
0.0
 11
35.05517503903063
 21
704.0907165423917
 31
0.0
1001
AUSTER_ANSICHT
1002
{
1000
Det03
1002
}
1001
AUSTER_FOLIE
1002
{
1000
NSB00342_S3
1002
}
  0
LINE
  5
1004A
330
20
100
AcDbEntity
  8
11000_Left
  6
Continuous
 62
     7
370
    20
100
AcDbLine
 39
0.7
 10
-24.34482496096939
 20
750.7630165423918
 30
0.0
 11
-24.7448249609694
 21
750.7630165423918
 31
0.0
1001
AUSTER_ANSICHT
1002
{
1000
Det03
1002
}
1001
AUSTER_FOLIE
1002
{
1000
NSB00342_S3
1002
}
  0
LINE
  5
1005B
330
20
100
AcDbEntity
  8
11000_Left
  6
Continuous
 62
     7
370
    50
100
AcDbLine
 39
0.7
 10
-24.7448249609694
 20
750.7630165423918
 30
0.0
 11
-24.7448249609694
 21
753.3630165423918
 31
0.0
1001
AUSTER_ANSICHT
1002
{
1000
Det03
1002
}
1001
AUSTER_FOLIE
1002
{
1000
NSB00342_S3
1002
}
  0
LINE
  5
1005C
330
20
100
AcDbEntity
  8
11000_Left
  6
Continuous
 62
     7
370
    50
100
AcDbLine
 39
0.7
 10
-24.34482496096939
 20
753.7630165423918
 30
0.0
 11
77.94137503903063
 21
753.7630165423918
 31
0.0
1001
AUSTER_ANSICHT
1002
{
1000
Det03
1002
}
1001
AUSTER_FOLIE
1002
{
1000
NSB00342_S3
1002
}
  0
LINE
  5
10068
330
20
100
AcDbEntity
  8
11000_Left
  6
Continuous
 62
     7
370
    50
100
AcDbLine
 39
0.7
 10
-41.02252496096935
 20
784.3691165423917
 30
0.0
 11
-40.82252496096939
 21
784.3691165423917
 31
0.0
1001
AUSTER_ANSICHT
1002
{
1000
Det03
1002
}
1001
AUSTER_FOLIE
1002
{
1000
NSB00342_S3
1002
}
  0
LINE
  5
10069
330
20
100
AcDbEntity
  8
11000_Left
  6
Continuous
 62
     7
370
    20
100
AcDbLine
 39
0.7
 10
-33.02252496096938
 20
785.8691165423918
 30
0.0
 11
-33.02252496096938
 21
797.0191165423917
 31
0.0
1001
AUSTER_ANSICHT
1002
{
1000
Det03
1002
}
1001
AUSTER_FOLIE
1002
{
1000
NSB00342_S3
1002
}
  0
LINE
  5
1006A
330
20
100
AcDbEntity
  8
11000_Left
  6
Continuous
 62
     7
370
    20
100
AcDbLine
 39
0.7
 10
-33.02252496096938
 20
785.8691165423918
 30
0.0
 11
16.17747503903061
 21
785.8691165423918
 31
0.0
1001
AUSTER_ANSICHT
1002
{
1000
Det03
1002
}
1001
AUSTER_FOLIE
1002
{
1000
NSB00342_S3
1002
}
  0
LINE
  5
1006B
330
20
100
AcDbEntity
  8
11000_Left
  6
Continuous
 62
     7
370
    20
100
AcDbLine
 39
0.7
 10
16.17747503903061
 20
785.8691165423918
 30
0.0
 11
16.17747503903061
 21
790.8691165423918
 31
0.0
1001
AUSTER_ANSICHT
1002
{
1000
Det03
1002
}
1001
AUSTER_FOLIE
1002
{
1000
NSB00342_S3
1002
}
  0
LINE
  5
1006E
330
20
100
AcDbEntity
  8
11000_Left
  6
Continuous
 62
     7
370
    50
100
AcDbLine
 39
0.7
 10
-24.7448249609694
 20
750.7630165423918
 30
0.0
 11
-24.7448249609694
 21
688.5691165423918
 31
0.0
1001
AUSTER_ANSICHT
1002
{
1000
Det03
1002
}
1001
AUSTER_FOLIE
1002
{
1000
NSB00342_S3
1002
}
  0
LINE
  5
1006F
330
20
100
AcDbEntity
  8
11000_Left
  6
Continuous
 62
     7
370
    50
100
AcDbLine
 39
0.7
 10
-24.82252496096939
 20
688.5691165423918
 30
0.0
 11
-24.82252496096939
 21
677.4191165423919
 31
0.0
1001
AUSTER_ANSICHT
1002
{
1000
Det03
1002
}
1001
AUSTER_FOLIE
1002
{
1000
NSB00342_S3
1002
}
  0
LINE
  5
10070
330
20
100
AcDbEntity
  8
11000_Left
  6
DASHED
 62
     7
370
    20
100
AcDbLine
 39
0.25
 10
-50.82252496096939
 20
739.5191165423917
 30
0.0
 11
-50.82252496096939
 21
749.0191165423917
 31
0.0
1001
AUSTER_ANSICHT
1002
{
1000
Det03
1002
}
1001
AUSTER_FOLIE
1002
{
1000
NSB00342_S3
1002
}
  0
LINE
  5
10071
330
20
100
AcDbEntity
  8
11000_Left
  6
DASHED
 62
     7
370
    20
100
AcDbLine
 39
0.25
 10
-48.32252496096939
 20
739.5191165423917
 30
0.0
 11
-48.32252496096939
 21
747.8191165423918
 31
0.0
1001
AUSTER_ANSICHT
1002
{
1000
Det03
1002
}
1001
AUSTER_FOLIE
1002
{
1000
NSB00342_S3
1002
}
  0
LINE
  5
10072
330
20
100
AcDbEntity
  8
11000_Left
  6
DASHED
 62
     7
370
    20
100
AcDbLine
 39
0.25
 10
-50.82252496096939
 20
739.5191165423917
 30
0.0
 11
-50.82252496096939
 21
730.0191165423917
 31
0.0
1001
AUSTER_ANSICHT
1002
{
1000
Det03
1002
}
1001
AUSTER_FOLIE
1002
{
1000
NSB00342_S3
1002
}
  0
LINE
  5
10073
330
20
100
AcDbEntity
  8
11000_Left
  6
DASHED
 62
     7
370
    20
100
AcDbLine
 39
0.25
 10
-48.32252496096939
 20
739.5191165423917
 30
0.0
 11
-48.32252496096939
 21
731.2191165423918
 31
0.0
1001
AUSTER_ANSICHT
1002
{
1000
Det03
1002
}
1001
AUSTER_FOLIE
1002
{
1000
NSB00342_S3
1002
}
  0
LINE
  5
10074
330
20
100
AcDbEntity
  8
11000_Left
  6
DASHED
 62
     7
370
    20
100
AcDbLine
 39
0.25
 10
-60.82252496096939
 20
717.5191165423917
 30
0.0
 11
-60.82252496096939
 21
761.5191165423917
 31
0.0
1001
AUSTER_ANSICHT
1002
{
1000
Det03
1002
}
1001
AUSTER_FOLIE
1002
{
1000
NSB00342_S3
1002
}
  0
LINE
  5
10075
330
20
100
AcDbEntity
  8
11000_Left
  6
DASHED
 62
     7
370
    20
100
AcDbLine
 39
0.25
 10
-57.82252496096939
 20
720.5191165423918
 30
0.0
 11
-57.82252496096939
 21
758.5191165423918
 31
0.0
1001
AUSTER_ANSICHT
1002
{
1000
Det03
1002
}
1001
AUSTER_FOLIE
1002
{
1000
NSB00342_S3
1002
}
  0
LINE
  5
10076
330
20
100
AcDbEntity
  8
11000_Left
  6
DASHED
 62
     7
370
    20
100
AcDbLine
 39
0.25
 10
-39.13592496096939
 20
751.5191165423917
 30
0.0
 11
-48.32252496096939
 21
751.5191165423917
 31
0.0
1001
AUSTER_ANSICHT
1002
{
1000
Det03
1002
}
1001
AUSTER_FOLIE
1002
{
1000
NSB00342_S3
1002
}
  0
LINE
  5
10077
330
20
100
AcDbEntity
  8
11000_Left
  6
DASHED
 62
     7
370
    20
100
AcDbLine
 39
0.25
 10
-47.12252496096937
 20
749.0191165423917
 30
0.0
 11
-37.82252496096939
 21
749.0191165423917
 31
0.0
1001
AUSTER_ANSICHT
1002
{
1000
Det03
1002
}
1001
AUSTER_FOLIE
1002
{
1000
NSB00342_S3
1002
}
  0
LINE
  5
10078
330
20
100
AcDbEntity
  8
11000_Left
  6
DASHED
 62
     7
370
    20
100
AcDbLine
 39
0.25
 10
-39.13592496096939
 20
727.5191165423917
 30
0.0
 11
-48.32252496096939
 21
727.5191165423917
 31
0.0
1001
AUSTER_ANSICHT
1002
{
1000
Det03
1002
}
1001
AUSTER_FOLIE
1002
{
1000
NSB00342_S3
1002
}
  0
LINE
  5
10079
330
20
100
AcDbEntity
  8
11000_Left
  6
DASHED
 62
     7
370
    20
100
AcDbLine
 39
0.25
 10
-47.12252496096937
 20
730.0191165423917
 30
0.0
 11
-37.82252496096939
 21
730.0191165423917
 31
0.0
1001
AUSTER_ANSICHT
1002
{
1000
Det03
1002
}
1001
AUSTER_FOLIE
1002
{
1000
NSB00342_S3
1002
}
  0
LINE
  5
1007A
330
20
100
AcDbEntity
  8
11000_Left
  6
DASHED
 62
     7
370
    20
100
AcDbLine
 39
0.25
 10
-57.82252496096939
 20
764.5191165423917
 30
0.0
 11
-39.82252496096939
 21
764.5191165423917
 31
0.0
1001
AUSTER_ANSICHT
1002
{
1000
Det03
1002
}
1001
AUSTER_FOLIE
1002
{
1000
NSB00342_S3
1002
}
  0
LINE
  5
1007B
330
20
100
AcDbEntity
  8
11000_Left
  6
DASHED
 62
     7
370
    20
100
AcDbLine
 39
0.25
 10
-39.82252496096939
 20
761.5191165423917
 30
0.0
 11
-54.82252496096939
 21
761.5191165423917
 31
0.0
1001
AUSTER_ANSICHT
1002
{
1000
Det03
1002
}
1001
AUSTER_FOLIE
1002
{
1000
NSB00342_S3
1002
}
  0
LINE
  5
1007C
330
20
100
AcDbEntity
  8
11000_Left
  6
DASHED
 62
     7
370
    20
100
AcDbLine
 39
0.25
 10
-39.82252496096939
 20
714.5191165423917
 30
0.0
 11
-57.82252496096939
 21
714.5191165423917
 31
0.0
1001
AUSTER_ANSICHT
1002
{
1000
Det03
1002
}
1001
AUSTER_FOLIE
1002
{
1000
NSB00342_S3
1002
}
  0
LINE
  5
1007D
330
20
100
AcDbEntity
  8
11000_Left
  6
DASHED
 62
     7
370
    20
100
AcDbLine
 39
0.25
 10
-39.82252496096939
 20
717.5191165423917
 30
0.0
 11
-54.82252496096939
 21
717.5191165423917
 31
0.0
1001
AUSTER_ANSICHT
1002
{
1000
Det03
1002
}
1001
AUSTER_FOLIE
1002
{
1000
NSB00342_S3
1002
}
  0
LINE
  5
1007E
330
20
100
AcDbEntity
  8
11000_Left
  6
DASHED
 62
     7
370
    20
100
AcDbLine
 39
0.25
 10
-36.82252496096939
 20
777.1191165423918
 30
0.0
 11
-36.82252496096939
 21
767.5191165423917
 31
0.0
1001
AUSTER_ANSICHT
1002
{
1000
Det03
1002
}
1001
AUSTER_FOLIE
1002
{
1000
NSB00342_S3
1002
}
  0
LINE
  5
1007F
330
20
100
AcDbEntity
  8
11000_Left
  6
DASHED
 62
     7
370
    20
100
AcDbLine
 39
0.25
 10
-36.82252496096939
 20
711.5191165423917
 30
0.0
 11
-36.78682496096937
 21
703.5497165423918
 31
0.0
1001
AUSTER_ANSICHT
1002
{
1000
Det03
1002
}
1001
AUSTER_FOLIE
1002
{
1000
NSB00342_S3
1002
}
  0
LINE
  5
10080
330
20
100
AcDbEntity
  8
11000_Left
  6
DASHED
 62
     7
370
    20
100
AcDbLine
 39
0.25
 10
-36.82252496096939
 20
757.0191165423917
 30
0.0
 11
-37.93592496096938
 21
752.7306165423917
 31
0.0
1001
AUSTER_ANSICHT
1002
{
1000
Det03
1002
}
1001
AUSTER_FOLIE
1002
{
1000
NSB00342_S3
1002
}
  0
LINE
  5
10081
330
20
100
AcDbEntity
  8
11000_Left
  6
DASHED
 62
     7
370
    20
100
AcDbLine
 39
0.25
 10
-36.82252496096939
 20
722.0191165423917
 30
0.0
 11
-37.93592496096938
 21
726.3077165423919
 31
0.0
1001
AUSTER_ANSICHT
1002
{
1000
Det03
1002
}
1001
AUSTER_FOLIE
1002
{
1000
NSB00342_S3
1002
}
  0
LINE
  5
10082
330
20
100
AcDbEntity
  8
11000_Left
  6
DASHED
 62
     7
370
    20
100
AcDbLine
 39
0.25
 10
-39.13592496096939
 20
751.5191165423917
 30
0.0
 11
-48.32252496096939
 21
751.5191165423917
 31
0.0
1001
AUSTER_ANSICHT
1002
{
1000
Det03
1002
}
1001
AUSTER_FOLIE
1002
{
1000
NSB00342_S3
1002
}
  0
LINE
  5
10083
330
20
100
AcDbEntity
  8
11000_Left
  6
DASHED
 62
     7
370
    20
100
AcDbLine
 39
0.25
 10
-47.12252496096937
 20
749.0191165423917
 30
0.0
 11
-37.82252496096939
 21
749.0191165423917
 31
0.0
1001
AUSTER_ANSICHT
1002
{
1000
Det03
1002
}
1001
AUSTER_FOLIE
1002
{
1000
NSB00342_S3
1002
}
  0
LINE
  5
10084
330
20
100
AcDbEntity
  8
11000_Left
  6
DASHED
 62
     7
370
    20
100
AcDbLine
 39
0.25
 10
-39.13592496096939
 20
727.5191165423917
 30
0.0
 11
-48.32252496096939
 21
727.5191165423917
 31
0.0
1001
AUSTER_ANSICHT
1002
{
1000
Det03
1002
}
1001
AUSTER_FOLIE
1002
{
1000
NSB00342_S3
1002
}
  0
LINE
  5
10085
330
20
100
AcDbEntity
  8
11000_Left
  6
DASHED
 62
     7
370
    20
100
AcDbLine
 39
0.25
 10
-47.12252496096937
 20
730.0191165423917
 30
0.0
 11
-37.82252496096939
 21
730.0191165423917
 31
0.0
1001
AUSTER_ANSICHT
1002
{
1000
Det03
1002
}
1001
AUSTER_FOLIE
1002
{
1000
NSB00342_S3
1002
}
  0
LINE
  5
10086
330
20
100
AcDbEntity
  8
11000_Left
  6
Continuous
 62
     7
370
    50
100
AcDbLine
 39
0.7
 10
-35.82252496096939
 20
757.0191165423917
 30
0.0
 11
-35.82252496096939
 21
751.0191165423917
 31
0.0
1001
AUSTER_ANSICHT
1002
{
1000
Det03
1002
}
1001
AUSTER_FOLIE
1002
{
1000
NSB00342_S3
1002
}
  0
LINE
  5
10087
330
20
100
AcDbEntity
  8
11000_Left
  6
Continuous
 62
     7
370
    20
100
AcDbLine
 39
0.7
 10
-36.81922496096937
 20
722.3497165423918
 30
0.0
 11
-36.9725249609694
 21
723.2191165423918
 31
0.0
1001
AUSTER_ANSICHT
1002
{
1000
Det03
1002
}
1001
AUSTER_FOLIE
1002
{
1000
NSB00342_S3
1002
}
  0
LINE
  5
10088
330
20
100
AcDbEntity
  8
11000_Left
  6
Continuous
 62
     7
370
    20
100
AcDbLine
 39
0.7
 10
-36.9725249609694
 20
723.2191165423918
 30
0.0
 11
-36.9725249609694
 21
724.0191165423917
 31
0.0
1001
AUSTER_ANSICHT
1002
{
1000
Det03
1002
}
1001
AUSTER_FOLIE
1002
{
1000
NSB00342_S3
1002
}
  0
LINE
  5
10089
330
20
100
AcDbEntity
  8
11000_Left
  6
Continuous
 62
     7
370
    20
100
AcDbLine
 39
0.7
 10
-36.9725249609694
 20
724.0191165423917
 30
0.0
 11
-37.38852496096939
 21
724.0191165423917
 31
0.0
1001
AUSTER_ANSICHT
1002
{
1000
Det03
1002
}
1001
AUSTER_FOLIE
1002
{
1000
NSB00342_S3
1002
}
  0
LINE
  5
1008A
330
20
100
AcDbEntity
  8
11000_Left
  6
Continuous
 62
     7
370
    20
100
AcDbLine
 39
0.7
 10
-35.8210249609694
 20
722.0191165423917
 30
0.0
 11
-36.42532496096939
 21
722.0191165423917
 31
0.0
1001
AUSTER_ANSICHT
1002
{
1000
Det03
1002
}
1001
AUSTER_FOLIE
1002
{
1000
NSB00342_S3
1002
}
  0
LINE
  5
1008B
330
20
100
AcDbEntity
  8
11000_Left
  6
Continuous
 62
     7
370
    20
100
AcDbLine
 39
0.7
 10
-37.69222496096939
 20
723.8795165423917
 30
0.0
 11
-40.47622496096937
 21
720.6315165423919
 31
0.0
1001
AUSTER_ANSICHT
1002
{
1000
Det03
1002
}
1001
AUSTER_FOLIE
1002
{
1000
NSB00342_S3
1002
}
  0
LINE
  5
1008C
330
20
100
AcDbEntity
  8
11000_Left
  6
Continuous
 62
     7
370
    20
100
AcDbLine
 39
0.7
 10
-40.47622496096937
 20
720.6315165423919
 30
0.0
 11
-40.57252496096938
 21
720.4906165423917
 31
0.0
1001
AUSTER_ANSICHT
1002
{
1000
Det03
1002
}
1001
AUSTER_FOLIE
1002
{
1000
NSB00342_S3
1002
}
  0
LINE
  5
1008E
330
20
100
AcDbEntity
  8
10000_FRONT
  6
DASHED
 62
     7
370
    20
100
AcDbLine
 39
0.25
 10
-122.2563185283628
 20
722.5648165423917
 30
0.0
 11
-119.9856185283628
 21
722.5648165423917
 31
0.0
1001
AUSTER_ANSICHT
1002
{
1000
Det03
1002
}
1001
AUSTER_FOLIE
1002
{
1000
NSB00342_S3
1002
}
  0
LINE
  5
1008F
330
20
100
AcDbEntity
  8
10000_FRONT
  6
DASHED
 62
     7
370
    20
100
AcDbLine
 39
0.25
 10
-119.9856185283628
 20
723.7734165423918
 30
0.0
 11
-122.2563185283628
 21
723.7734165423918
 31
0.0
1001
AUSTER_ANSICHT
1002
{
1000
Det03
1002
}
1001
AUSTER_FOLIE
1002
{
1000
NSB00342_S3
1002
}
  0
LINE
  5
10090
330
20
100
AcDbEntity
  8
10000_FRONT
  6
DASHED
 62
     7
370
    20
100
AcDbLine
 39
0.25
 10
-145.7856185283628
 20
723.7734165423918
 30
0.0
 11
-148.0563185283628
 21
723.7734165423918
 31
0.0
1001
AUSTER_ANSICHT
1002
{
1000
Det03
1002
}
1001
AUSTER_FOLIE
1002
{
1000
NSB00342_S3
1002
}
  0
LINE
  5
10091
330
20
100
AcDbEntity
  8
10000_FRONT
  6
DASHED
 62
     7
370
    20
100
AcDbLine
 39
0.25
 10
-148.0563185283628
 20
722.5648165423917
 30
0.0
 11
-145.7856185283628
 21
722.5648165423917
 31
0.0
1001
AUSTER_ANSICHT
1002
{
1000
Det03
1002
}
1001
AUSTER_FOLIE
1002
{
1000
NSB00342_S3
1002
}
  0
LINE
  5
10092
330
20
100
AcDbEntity
  8
10000_FRONT
  6
DASHED
 62
     7
370
    20
100
AcDbLine
 39
0.25
 10
-145.7856185283628
 20
724.9460165423918
 30
0.0
 11
-145.7856185283628
 21
723.9537165423918
 31
0.0
1001
AUSTER_ANSICHT
1002
{
1000
Det03
1002
}
1001
AUSTER_FOLIE
1002
{
1000
NSB00342_S3
1002
}
  0
LINE
  5
10093
330
20
100
AcDbEntity
  8
10000_FRONT
  6
DASHED
 62
     7
370
    20
100
AcDbLine
 39
0.25
 10
-145.7856185283628
 20
722.3846165423918
 30
0.0
 11
-145.7856185283628
 21
721.3923165423917
 31
0.0
1001
AUSTER_ANSICHT
1002
{
1000
Det03
1002
}
1001
AUSTER_FOLIE
1002
{
1000
NSB00342_S3
1002
}
  0
LINE
  5
10094
330
20
100
AcDbEntity
  8
10000_FRONT
  6
DASHED
 62
     7
370
    20
100
AcDbLine
 39
0.25
 10
-119.9856185283628
 20
723.9537165423918
 30
0.0
 11
-119.9856185283628
 21
723.7734165423918
 31
0.0
1001
AUSTER_ANSICHT
1002
{
1000
Det03
1002
}
1001
AUSTER_FOLIE
1002
{
1000
NSB00342_S3
1002
}
  0
LINE
  5
10095
330
20
100
AcDbEntity
  8
10000_FRONT
  6
DASHED
 62
     7
370
    20
100
AcDbLine
 39
0.25
 10
-119.9856185283628
 20
722.3846165423918
 30
0.0
 11
-119.9856185283628
 21
722.5648165423917
 31
0.0
1001
AUSTER_ANSICHT
1002
{
1000
Det03
1002
}
1001
AUSTER_FOLIE
1002
{
1000
NSB00342_S3
1002
}
  0
LINE
  5
10096
330
20
100
AcDbEntity
  8
10000_FRONT
  6
DASHED
 62
     7
370
    20
100
AcDbLine
 39
0.25
 10
-144.7556185283628
 20
722.5648165423917
 30
0.0
 11
-142.4849185283628
 21
722.5648165423917
 31
0.0
1001
AUSTER_ANSICHT
1002
{
1000
Det03
1002
}
1001
AUSTER_FOLIE
1002
{
1000
NSB00342_S3
1002
}
  0
LINE
  5
10097
330
20
100
AcDbEntity
  8
10000_FRONT
  6
DASHED
 62
     7
370
    20
100
AcDbLine
 39
0.25
 10
-142.4849185283628
 20
723.7734165423918
 30
0.0
 11
-144.7556185283628
 21
723.7734165423918
 31
0.0
1001
AUSTER_ANSICHT
1002
{
1000
Det03
1002
}
1001
AUSTER_FOLIE
1002
{
1000
NSB00342_S3
1002
}
  0
LINE
  5
10098
330
20
100
AcDbEntity
  8
10000_FRONT
  6
DASHED
 62
     7
370
    20
100
AcDbLine
 39
0.25
 10
-144.7556185283628
 20
723.9537165423918
 30
0.0
 11
-144.7556185283628
 21
724.9460165423918
 31
0.0
1001
AUSTER_ANSICHT
1002
{
1000
Det03
1002
}
1001
AUSTER_FOLIE
1002
{
1000
NSB00342_S3
1002
}
  0
LINE
  5
10099
330
20
100
AcDbEntity
  8
10000_FRONT
  6
DASHED
 62
     7
370
    20
100
AcDbLine
 39
0.25
 10
-144.7556185283628
 20
721.3923165423917
 30
0.0
 11
-144.7556185283628
 21
722.3846165423918
 31
0.0
1001
AUSTER_ANSICHT
1002
{
1000
Det03
1002
}
1001
AUSTER_FOLIE
1002
{
1000
NSB00342_S3
1002
}
  0
LINE
  5
1009A
330
20
100
AcDbEntity
  8
10000_FRONT
  6
DASHED
 62
     7
370
    20
100
AcDbLine
 39
0.25
 10
-144.7556185283628
 20
723.9537165423918
 30
0.0
 11
-144.7556185283628
 21
723.7734165423918
 31
0.0
1001
AUSTER_ANSICHT
1002
{
1000
Det03
1002
}
1001
AUSTER_FOLIE
1002
{
1000
NSB00342_S3
1002
}
  0
LINE
  5
1009B
330
20
100
AcDbEntity
  8
10000_FRONT
  6
DASHED
 62
     7
370
    20
100
AcDbLine
 39
0.25
 10
-144.7556185283628
 20
722.3846165423918
 30
0.0
 11
-144.7556185283628
 21
722.5648165423917
 31
0.0
1001
AUSTER_ANSICHT
1002
{
1000
Det03
1002
}
1001
AUSTER_FOLIE
1002
{
1000
NSB00342_S3
1002
}
  0
LINE
  5
1009C
330
20
100
AcDbEntity
  8
10000_FRONT
  6
DASHED
 62
     7
370
    20
100
AcDbLine
 39
0.25
 10
-145.7856185283628
 20
723.9537165423918
 30
0.0
 11
-145.7856185283628
 21
723.7734165423918
 31
0.0
1001
AUSTER_ANSICHT
1002
{
1000
Det03
1002
}
1001
AUSTER_FOLIE
1002
{
1000
NSB00342_S3
1002
}
  0
LINE
  5
1009D
330
20
100
AcDbEntity
  8
10000_FRONT
  6
DASHED
 62
     7
370
    20
100
AcDbLine
 39
0.25
 10
-145.7856185283628
 20
722.3846165423918
 30
0.0
 11
-145.7856185283628
 21
722.5648165423917
 31
0.0
1001
AUSTER_ANSICHT
1002
{
1000
Det03
1002
}
1001
AUSTER_FOLIE
1002
{
1000
NSB00342_S3
1002
}
  0
LINE
  5
1009E
330
20
100
AcDbEntity
  8
10000_FRONT
  6
DASHED
 62
     7
370
    20
100
AcDbLine
 39
0.25
 10
-139.4563185283628
 20
722.5648165423917
 30
0.0
 11
-137.1856185283628
 21
722.5648165423917
 31
0.0
1001
AUSTER_ANSICHT
1002
{
1000
Det03
1002
}
1001
AUSTER_FOLIE
1002
{
1000
NSB00342_S3
1002
}
  0
LINE
  5
1009F
330
20
100
AcDbEntity
  8
10000_FRONT
  6
DASHED
 62
     7
370
    20
100
AcDbLine
 39
0.25
 10
-136.1556185283628
 20
722.5648165423917
 30
0.0
 11
-133.8849185283628
 21
722.5648165423917
 31
0.0
1001
AUSTER_ANSICHT
1002
{
1000
Det03
1002
}
1001
AUSTER_FOLIE
1002
{
1000
NSB00342_S3
1002
}
  0
LINE
  5
100A0
330
20
100
AcDbEntity
  8
10000_FRONT
  6
DASHED
 62
     7
370
    20
100
AcDbLine
 39
0.25
 10
-133.8849185283628
 20
723.7734165423918
 30
0.0
 11
-136.1556185283628
 21
723.7734165423918
 31
0.0
1001
AUSTER_ANSICHT
1002
{
1000
Det03
1002
}
1001
AUSTER_FOLIE
1002
{
1000
NSB00342_S3
1002
}
  0
LINE
  5
100A1
330
20
100
AcDbEntity
  8
10000_FRONT
  6
DASHED
 62
     7
370
    20
100
AcDbLine
 39
0.25
 10
-137.1856185283628
 20
723.7734165423918
 30
0.0
 11
-139.4563185283628
 21
723.7734165423918
 31
0.0
1001
AUSTER_ANSICHT
1002
{
1000
Det03
1002
}
1001
AUSTER_FOLIE
1002
{
1000
NSB00342_S3
1002
}
  0
LINE
  5
100A2
330
20
100
AcDbEntity
  8
10000_FRONT
  6
DASHED
 62
     7
370
    20
100
AcDbLine
 39
0.25
 10
-137.1856185283628
 20
724.9460165423918
 30
0.0
 11
-137.1856185283628
 21
723.9537165423918
 31
0.0
1001
AUSTER_ANSICHT
1002
{
1000
Det03
1002
}
1001
AUSTER_FOLIE
1002
{
1000
NSB00342_S3
1002
}
  0
LINE
  5
100A3
330
20
100
AcDbEntity
  8
10000_FRONT
  6
DASHED
 62
     7
370
    20
100
AcDbLine
 39
0.25
 10
-136.1556185283628
 20
723.9537165423918
 30
0.0
 11
-136.1556185283628
 21
724.9460165423918
 31
0.0
1001
AUSTER_ANSICHT
1002
{
1000
Det03
1002
}
1001
AUSTER_FOLIE
1002
{
1000
NSB00342_S3
1002
}
  0
LINE
  5
100A4
330
20
100
AcDbEntity
  8
10000_FRONT
  6
DASHED
 62
     7
370
    20
100
AcDbLine
 39
0.25
 10
-136.1556185283628
 20
721.3923165423917
 30
0.0
 11
-136.1556185283628
 21
722.3846165423918
 31
0.0
1001
AUSTER_ANSICHT
1002
{
1000
Det03
1002
}
1001
AUSTER_FOLIE
1002
{
1000
NSB00342_S3
1002
}
  0
LINE
  5
100A5
330
20
100
AcDbEntity
  8
10000_FRONT
  6
DASHED
 62
     7
370
    20
100
AcDbLine
 39
0.25
 10
-137.1856185283628
 20
722.3846165423918
 30
0.0
 11
-137.1856185283628
 21
721.3923165423917
 31
0.0
1001
AUSTER_ANSICHT
1002
{
1000
Det03
1002
}
1001
AUSTER_FOLIE
1002
{
1000
NSB00342_S3
1002
}
  0
LINE
  5
100A6
330
20
100
AcDbEntity
  8
10000_FRONT
  6
DASHED
 62
     7
370
    20
100
AcDbLine
 39
0.25
 10
-136.1556185283628
 20
723.9537165423918
 30
0.0
 11
-136.1556185283628
 21
723.7734165423918
 31
0.0
1001
AUSTER_ANSICHT
1002
{
1000
Det03
1002
}
1001
AUSTER_FOLIE
1002
{
1000
NSB00342_S3
1002
}
  0
LINE
  5
100A7
330
20
100
AcDbEntity
  8
10000_FRONT
  6
DASHED
 62
     7
370
    20
100
AcDbLine
 39
0.25
 10
-136.1556185283628
 20
722.3846165423918
 30
0.0
 11
-136.1556185283628
 21
722.5648165423917
 31
0.0
1001
AUSTER_ANSICHT
1002
{
1000
Det03
1002
}
1001
AUSTER_FOLIE
1002
{
1000
NSB00342_S3
1002
}
  0
LINE
  5
100A8
330
20
100
AcDbEntity
  8
10000_FRONT
  6
DASHED
 62
     7
370
    20
100
AcDbLine
 39
0.25
 10
-137.1856185283628
 20
723.9537165423918
 30
0.0
 11
-137.1856185283628
 21
723.7734165423918
 31
0.0
1001
AUSTER_ANSICHT
1002
{
1000
Det03
1002
}
1001
AUSTER_FOLIE
1002
{
1000
NSB00342_S3
1002
}
  0
LINE
  5
100A9
330
20
100
AcDbEntity
  8
10000_FRONT
  6
DASHED
 62
     7
370
    20
100
AcDbLine
 39
0.25
 10
-137.1856185283628
 20
722.3846165423918
 30
0.0
 11
-137.1856185283628
 21
722.5648165423917
 31
0.0
1001
AUSTER_ANSICHT
1002
{
1000
Det03
1002
}
1001
AUSTER_FOLIE
1002
{
1000
NSB00342_S3
1002
}
  0
LINE
  5
100AA
330
20
100
AcDbEntity
  8
10000_FRONT
  6
DASHED
 62
     7
370
    20
100
AcDbLine
 39
0.25
 10
-130.8563185283627
 20
722.5648165423917
 30
0.0
 11
-128.5856185283628
 21
722.5648165423917
 31
0.0
1001
AUSTER_ANSICHT
1002
{
1000
Det03
1002
}
1001
AUSTER_FOLIE
1002
{
1000
NSB00342_S3
1002
}
  0
LINE
  5
100AB
330
20
100
AcDbEntity
  8
10000_FRONT
  6
DASHED
 62
     7
370
    20
100
AcDbLine
 39
0.25
 10
-127.5556185283628
 20
722.5648165423917
 30
0.0
 11
-125.2849185283628
 21
722.5648165423917
 31
0.0
1001
AUSTER_ANSICHT
1002
{
1000
Det03
1002
}
1001
AUSTER_FOLIE
1002
{
1000
NSB00342_S3
1002
}
  0
LINE
  5
100AC
330
20
100
AcDbEntity
  8
10000_FRONT
  6
DASHED
 62
     7
370
    20
100
AcDbLine
 39
0.25
 10
-125.2849185283628
 20
723.7734165423918
 30
0.0
 11
-127.5556185283628
 21
723.7734165423918
 31
0.0
1001
AUSTER_ANSICHT
1002
{
1000
Det03
1002
}
1001
AUSTER_FOLIE
1002
{
1000
NSB00342_S3
1002
}
  0
LINE
  5
100AD
330
20
100
AcDbEntity
  8
10000_FRONT
  6
DASHED
 62
     7
370
    20
100
AcDbLine
 39
0.25
 10
-128.5856185283628
 20
723.7734165423918
 30
0.0
 11
-130.8563185283627
 21
723.7734165423918
 31
0.0
1001
AUSTER_ANSICHT
1002
{
1000
Det03
1002
}
1001
AUSTER_FOLIE
1002
{
1000
NSB00342_S3
1002
}
  0
LINE
  5
100AE
330
20
100
AcDbEntity
  8
10000_FRONT
  6
DASHED
 62
     7
370
    20
100
AcDbLine
 39
0.25
 10
-128.5856185283628
 20
724.9460165423918
 30
0.0
 11
-128.5856185283628
 21
723.9537165423918
 31
0.0
1001
AUSTER_ANSICHT
1002
{
1000
Det03
1002
}
1001
AUSTER_FOLIE
1002
{
1000
NSB00342_S3
1002
}
  0
LINE
  5
100AF
330
20
100
AcDbEntity
  8
10000_FRONT
  6
DASHED
 62
     7
370
    20
100
AcDbLine
 39
0.25
 10
-127.5556185283628
 20
723.9537165423918
 30
0.0
 11
-127.5556185283628
 21
724.9460165423918
 31
0.0
1001
AUSTER_ANSICHT
1002
{
1000
Det03
1002
}
1001
AUSTER_FOLIE
1002
{
1000
NSB00342_S3
1002
}
  0
LINE
  5
100B0
330
20
100
AcDbEntity
  8
10000_FRONT
  6
DASHED
 62
     7
370
    20
100
AcDbLine
 39
0.25
 10
-127.5556185283628
 20
721.3923165423917
 30
0.0
 11
-127.5556185283628
 21
722.3846165423918
 31
0.0
1001
AUSTER_ANSICHT
1002
{
1000
Det03
1002
}
1001
AUSTER_FOLIE
1002
{
1000
NSB00342_S3
1002
}
  0
LINE
  5
100B1
330
20
100
AcDbEntity
  8
10000_FRONT
  6
DASHED
 62
     7
370
    20
100
AcDbLine
 39
0.25
 10
-128.5856185283628
 20
722.3846165423918
 30
0.0
 11
-128.5856185283628
 21
721.3923165423917
 31
0.0
1001
AUSTER_ANSICHT
1002
{
1000
Det03
1002
}
1001
AUSTER_FOLIE
1002
{
1000
NSB00342_S3
1002
}
  0
LINE
  5
100B2
330
20
100
AcDbEntity
  8
10000_FRONT
  6
DASHED
 62
     7
370
    20
100
AcDbLine
 39
0.25
 10
-127.5556185283628
 20
723.9537165423918
 30
0.0
 11
-127.5556185283628
 21
723.7734165423918
 31
0.0
1001
AUSTER_ANSICHT
1002
{
1000
Det03
1002
}
1001
AUSTER_FOLIE
1002
{
1000
NSB00342_S3
1002
}
  0
LINE
  5
100B3
330
20
100
AcDbEntity
  8
10000_FRONT
  6
DASHED
 62
     7
370
    20
100
AcDbLine
 39
0.25
 10
-127.5556185283628
 20
722.3846165423918
 30
0.0
 11
-127.5556185283628
 21
722.5648165423917
 31
0.0
1001
AUSTER_ANSICHT
1002
{
1000
Det03
1002
}
1001
AUSTER_FOLIE
1002
{
1000
NSB00342_S3
1002
}
  0
LINE
  5
100B4
330
20
100
AcDbEntity
  8
10000_FRONT
  6
DASHED
 62
     7
370
    20
100
AcDbLine
 39
0.25
 10
-128.5856185283628
 20
723.9537165423918
 30
0.0
 11
-128.5856185283628
 21
723.7734165423918
 31
0.0
1001
AUSTER_ANSICHT
1002
{
1000
Det03
1002
}
1001
AUSTER_FOLIE
1002
{
1000
NSB00342_S3
1002
}
  0
LINE
  5
100B5
330
20
100
AcDbEntity
  8
10000_FRONT
  6
DASHED
 62
     7
370
    20
100
AcDbLine
 39
0.25
 10
-128.5856185283628
 20
722.3846165423918
 30
0.0
 11
-128.5856185283628
 21
722.5648165423917
 31
0.0
1001
AUSTER_ANSICHT
1002
{
1000
Det03
1002
}
1001
AUSTER_FOLIE
1002
{
1000
NSB00342_S3
1002
}
  0
LINE
  5
100B6
330
20
100
AcDbEntity
  8
10000_FRONT
  6
DASHED
 62
     7
370
    20
100
AcDbLine
 39
0.25
 10
-118.9556185283628
 20
722.5648165423917
 30
0.0
 11
-116.6849185283628
 21
722.5648165423917
 31
0.0
1001
AUSTER_ANSICHT
1002
{
1000
Det03
1002
}
1001
AUSTER_FOLIE
1002
{
1000
NSB00342_S3
1002
}
  0
LINE
  5
100B7
330
20
100
AcDbEntity
  8
10000_FRONT
  6
DASHED
 62
     7
370
    20
100
AcDbLine
 39
0.25
 10
-116.6849185283628
 20
723.7734165423918
 30
0.0
 11
-118.9556185283628
 21
723.7734165423918
 31
0.0
1001
AUSTER_ANSICHT
1002
{
1000
Det03
1002
}
1001
AUSTER_FOLIE
1002
{
1000
NSB00342_S3
1002
}
  0
LINE
  5
100B8
330
20
100
AcDbEntity
  8
10000_FRONT
  6
DASHED
 62
     7
370
    20
100
AcDbLine
 39
0.25
 10
-119.9856185283628
 20
724.9460165423918
 30
0.0
 11
-119.9856185283628
 21
723.9537165423918
 31
0.0
1001
AUSTER_ANSICHT
1002
{
1000
Det03
1002
}
1001
AUSTER_FOLIE
1002
{
1000
NSB00342_S3
1002
}
  0
LINE
  5
100B9
330
20
100
AcDbEntity
  8
10000_FRONT
  6
DASHED
 62
     7
370
    20
100
AcDbLine
 39
0.25
 10
-118.9556185283628
 20
723.9537165423918
 30
0.0
 11
-118.9556185283628
 21
724.9460165423918
 31
0.0
1001
AUSTER_ANSICHT
1002
{
1000
Det03
1002
}
1001
AUSTER_FOLIE
1002
{
1000
NSB00342_S3
1002
}
  0
LINE
  5
100BA
330
20
100
AcDbEntity
  8
10000_FRONT
  6
DASHED
 62
     7
370
    20
100
AcDbLine
 39
0.25
 10
-118.9556185283628
 20
721.3923165423917
 30
0.0
 11
-118.9556185283628
 21
722.3846165423918
 31
0.0
1001
AUSTER_ANSICHT
1002
{
1000
Det03
1002
}
1001
AUSTER_FOLIE
1002
{
1000
NSB00342_S3
1002
}
  0
LINE
  5
100BB
330
20
100
AcDbEntity
  8
10000_FRONT
  6
DASHED
 62
     7
370
    20
100
AcDbLine
 39
0.25
 10
-119.9856185283628
 20
722.3846165423918
 30
0.0
 11
-119.9856185283628
 21
721.3923165423917
 31
0.0
1001
AUSTER_ANSICHT
1002
{
1000
Det03
1002
}
1001
AUSTER_FOLIE
1002
{
1000
NSB00342_S3
1002
}
  0
LINE
  5
100BC
330
20
100
AcDbEntity
  8
10000_FRONT
  6
DASHED
 62
     7
370
    20
100
AcDbLine
 39
0.25
 10
-118.9556185283628
 20
723.9537165423918
 30
0.0
 11
-118.9556185283628
 21
723.7734165423918
 31
0.0
1001
AUSTER_ANSICHT
1002
{
1000
Det03
1002
}
1001
AUSTER_FOLIE
1002
{
1000
NSB00342_S3
1002
}
  0
LINE
  5
100BD
330
20
100
AcDbEntity
  8
10000_FRONT
  6
DASHED
 62
     7
370
    20
100
AcDbLine
 39
0.25
 10
-118.9556185283628
 20
722.3846165423918
 30
0.0
 11
-118.9556185283628
 21
722.5648165423917
 31
0.0
1001
AUSTER_ANSICHT
1002
{
1000
Det03
1002
}
1001
AUSTER_FOLIE
1002
{
1000
NSB00342_S3
1002
}
  0
ARC
  5
100BF
330
20
100
AcDbEntity
  8
10000_FRONT
  6
DASHED
 62
     7
370
    20
100
AcDbCircle
 39
0.25
 10
-161.6667185283628
 20
706.7660165423919
 30
0.0
 40
1.5
100
AcDbArc
 50
180.0
 51
270.0
1001
AUSTER_ANSICHT
1002
{
1000
Det03
1002
}
1001
AUSTER_FOLIE
1002
{
1000
NSB00342_S3
1002
}
  0
ARC
  5
100C0
330
20
100
AcDbEntity
  8
10000_FRONT
  6
DASHED
 62
     7
370
    20
100
AcDbCircle
 39
0.25
 10
-161.7167185283628
 20
703.8161165423917
 30
0.0
 40
1.449975999999999
100
AcDbArc
 50
90.0
 51
180.0
1001
AUSTER_ANSICHT
1002
{
1000
Det03
1002
}
1001
AUSTER_FOLIE
1002
{
1000
NSB00342_S3
1002
}
  0
ARC
  5
100C1
330
20
100
AcDbEntity
  8
10000_FRONT
  6
DASHED
 62
     7
370
    20
100
AcDbCircle
 39
0.25
 10
-104.8665185283628
 20
713.6661165423918
 30
0.0
 40
0.8
100
AcDbArc
 50
183.7893000000017
 51
270.0
1001
AUSTER_ANSICHT
1002
{
1000
Det03
1002
}
1001
AUSTER_FOLIE
1002
{
1000
NSB00342_S3
1002
}
  0
ARC
  5
100C2
330
20
100
AcDbEntity
  8
10000_FRONT
  6
DASHED
 62
     7
370
    20
100
AcDbCircle
 39
0.25
 10
-112.0706185283628
 20
735.7691165423918
 30
0.0
 40
2.850490999999998
100
AcDbArc
 50
242.7603999999987
 51
267.2395999999985
1001
AUSTER_ANSICHT
1002
{
1000
Det03
1002
}
1001
AUSTER_FOLIE
1002
{
1000
NSB00342_S3
1002
}
  0
ARC
  5
100C3
330
20
100
AcDbEntity
  8
10000_FRONT
  6
DASHED
 62
     7
370
    20
100
AcDbCircle
 39
0.25
 10
-112.0706185283628
 20
735.7691165423918
 30
0.0
 40
1.85
100
AcDbArc
 50
148.8366000000033
 51
181.1634000000023
1001
AUSTER_ANSICHT
1002
{
1000
Det03
1002
}
1001
AUSTER_FOLIE
1002
{
1000
NSB00342_S3
1002
}
  0
ARC
  5
100C4
330
20
100
AcDbEntity
  8
10000_FRONT
  6
DASHED
 62
     7
370
    20
100
AcDbCircle
 39
0.25
 10
-112.0706185283628
 20
735.7691165423918
 30
0.0
 40
1.85
100
AcDbArc
 50
328.8366000000033
 51
1.163400000002273
1001
AUSTER_ANSICHT
1002
{
1000
Det03
1002
}
1001
AUSTER_FOLIE
1002
{
1000
NSB00342_S3
1002
}
  0
ARC
  5
100C5
330
20
100
AcDbEntity
  8
10000_FRONT
  6
DASHED
 62
     7
370
    20
100
AcDbCircle
 39
0.25
 10
-112.0706185283628
 20
735.7691165423918
 30
0.0
 40
2.850490999999998
100
AcDbArc
 50
62.76037000000185
 51
87.23962999999846
1001
AUSTER_ANSICHT
1002
{
1000
Det03
1002
}
1001
AUSTER_FOLIE
1002
{
1000
NSB00342_S3
1002
}
  0
CIRCLE
  5
100C6
330
20
100
AcDbEntity
  8
10000_FRONT
  6
DASHED
 62
     7
370
    20
100
AcDbCircle
 39
0.25
 10
-112.0706185283628
 20
735.7691165423918
 30
0.0
 40
4.0
1001
AUSTER_ANSICHT
1002
{
1000
Det03
1002
}
1001
AUSTER_FOLIE
1002
{
1000
NSB00342_S3
1002
}
  0
ARC
  5
100C7
330
20
100
AcDbEntity
  8
10000_FRONT
  6
DASHED
 62
     7
370
    20
100
AcDbCircle
 39
0.25
 10
-149.6706185283628
 20
713.9213165423917
 30
0.0
 40
1.0
100
AcDbArc
 50
180.0
 51
270.0
1001
AUSTER_ANSICHT
1002
{
1000
Det03
1002
}
1001
AUSTER_FOLIE
1002
{
1000
NSB00342_S3
1002
}
  0
ARC
  5
100C8
330
20
100
AcDbEntity
  8
10000_FRONT
  6
DASHED
 62
     7
370
    20
100
AcDbCircle
 39
0.25
 10
-106.6706185283628
 20
713.9192165423918
 30
0.0
 40
0.9999985
100
AcDbArc
 50
270.0
 51
0.0
1001
AUSTER_ANSICHT
1002
{
1000
Det03
1002
}
1001
AUSTER_FOLIE
1002
{
1000
NSB00342_S3
1002
}
  0
ARC
  5
100CA
330
20
100
AcDbEntity
  8
10000_FRONT
  6
Continuous
 62
     7
370
    50
100
AcDbCircle
 39
0.7
 10
-161.6722185283628
 20
789.3664165423918
 30
0.0
 40
1.500000999999999
100
AcDbArc
 50
90.0
 51
180.0
1001
AUSTER_ANSICHT
1002
{
1000
Det03
1002
}
1001
AUSTER_FOLIE
1002
{
1000
NSB00342_S3
1002
}
  0
ARC
  5
100CB
330
20
100
AcDbEntity
  8
10000_FRONT
  6
DASHED
 62
     7
370
    20
100
AcDbCircle
 39
0.25
 10
-95.51651852836284
 20
687.7661165423918
 30
0.0
 40
0.4
100
AcDbArc
 50
90.0
 51
180.0
1001
AUSTER_ANSICHT
1002
{
1000
Det03
1002
}
1001
AUSTER_FOLIE
1002
{
1000
NSB00342_S3
1002
}
  0
ARC
  5
100CC
330
20
100
AcDbEntity
  8
10000_FRONT
  6
Continuous
 62
     7
370
    50
100
AcDbCircle
 39
0.7
 10
-94.66521852836285
 20
772.2670165423918
 30
0.0
 40
1.498672
100
AcDbArc
 50
359.964400000002
 51
90.05070000000079
1001
AUSTER_ANSICHT
1002
{
1000
Det03
1002
}
1001
AUSTER_FOLIE
1002
{
1000
NSB00342_S3
1002
}
  0
ARC
  5
100CD
330
20
100
AcDbEntity
  8
10000_FRONT
  6
Continuous
 62
     7
370
    20
100
AcDbCircle
 39
0.25
 10
-94.66791852836285
 20
714.3680165423918
 30
0.0
 40
1.501951999999999
100
AcDbArc
 50
270.0535000000009
 51
359.9255000000005
1001
AUSTER_ANSICHT
1002
{
1000
Det03
1002
}
1001
AUSTER_FOLIE
1002
{
1000
NSB00342_S3
1002
}
  0
ARC
  5
100CE
330
20
100
AcDbEntity
  8
10000_FRONT
  6
Continuous
 62
     7
370
    20
100
AcDbCircle
 39
0.25
 10
-160.8222185283628
 20
791.2664165423917
 30
0.0
 40
0.3999995999999999
100
AcDbArc
 50
269.9580999999985
 51
0.0
1001
AUSTER_ANSICHT
1002
{
1000
Det03
1002
}
1001
AUSTER_FOLIE
1002
{
1000
NSB00342_S3
1002
}
  0
CIRCLE
  5
100CF
330
20
100
AcDbEntity
  8
10000_FRONT
  6
DASHED
 62
     7
370
    20
100
AcDbCircle
 39
0.25
 10
-105.6634185283628
 20
698.0847165423917
 30
0.0
 40
3.0
1001
AUSTER_ANSICHT
1002
{
1000
Det03
1002
}
1001
AUSTER_FOLIE
1002
{
1000
NSB00342_S3
1002
}
  0
CIRCLE
  5
100D0
330
20
100
AcDbEntity
  8
10000_FRONT
  6
DASHED
 62
     7
370
    20
100
AcDbCircle
 39
0.25
 10
-128.1665185283628
 20
698.0911165423917
 30
0.0
 40
3.0
1001
AUSTER_ANSICHT
1002
{
1000
Det03
1002
}
1001
AUSTER_FOLIE
1002
{
1000
NSB00342_S3
1002
}
  0
ARC
  5
100D1
330
20
100
AcDbEntity
  8
10000_FRONT
  6
DASHED
 62
     7
370
    20
100
AcDbCircle
 39
0.25
 10
-94.66651852836289
 20
689.6661165423918
 30
0.0
 40
1.5
100
AcDbArc
 50
270.0
 51
0.0
1001
AUSTER_ANSICHT
1002
{
1000
Det03
1002
}
1001
AUSTER_FOLIE
1002
{
1000
NSB00342_S3
1002
}
  0
ARC
  5
100D2
330
20
100
AcDbEntity
  8
10000_FRONT
  6
Continuous
 62
     7
370
    50
100
AcDbCircle
 39
0.7
 10
-161.6681185283628
 20
772.2670165423918
 30
0.0
 40
1.498672
100
AcDbArc
 50
89.94925999999905
 51
180.035599999998
1001
AUSTER_ANSICHT
1002
{
1000
Det03
1002
}
1001
AUSTER_FOLIE
1002
{
1000
NSB00342_S3
1002
}
  0
ARC
  5
100D4
330
20
100
AcDbEntity
  8
10000_FRONT
  6
DASHED
 62
     7
370
    20
100
AcDbCircle
 39
0.25
 10
-161.6667185283628
 20
689.6661165423918
 30
0.0
 40
1.5
100
AcDbArc
 50
180.0
 51
270.0
1001
AUSTER_ANSICHT
1002
{
1000
Det03
1002
}
1001
AUSTER_FOLIE
1002
{
1000
NSB00342_S3
1002
}
  0
ARC
  5
100D5
330
20
100
AcDbEntity
  8
10000_FRONT
  6
DASHED
 62
     7
370
    20
100
AcDbCircle
 39
0.25
 10
-96.31651852836284
 20
684.9661165423919
 30
0.0
 40
0.4
100
AcDbArc
 50
270.0
 51
0.0
1001
AUSTER_ANSICHT
1002
{
1000
Det03
1002
}
1001
AUSTER_FOLIE
1002
{
1000
NSB00342_S3
1002
}
  0
ARC
  5
100D6
330
20
100
AcDbEntity
  8
10000_FRONT
  6
DASHED
 62
     7
370
    20
100
AcDbCircle
 39
0.25
 10
-160.0167185283628
 20
684.9661165423919
 30
0.0
 40
0.4
100
AcDbArc
 50
180.0
 51
270.0
1001
AUSTER_ANSICHT
1002
{
1000
Det03
1002
}
1001
AUSTER_FOLIE
1002
{
1000
NSB00342_S3
1002
}
  0
ARC
  5
100D7
330
20
100
AcDbEntity
  8
10000_FRONT
  6
DASHED
 62
     7
370
    20
100
AcDbCircle
 39
0.25
 10
-160.8167185283628
 20
687.7661165423918
 30
0.0
 40
0.4
100
AcDbArc
 50
0.0
 51
90.0
1001
AUSTER_ANSICHT
1002
{
1000
Det03
1002
}
1001
AUSTER_FOLIE
1002
{
1000
NSB00342_S3
1002
}
  0
ARC
  5
100D8
330
20
100
AcDbEntity
  8
10000_FRONT
  6
DASHED
 62
     7
370
    20
100
AcDbCircle
 39
0.25
 10
-151.4665185283628
 20
713.6661165423918
 30
0.0
 40
0.8
100
AcDbArc
 50
270.0
 51
0.0
1001
AUSTER_ANSICHT
1002
{
1000
Det03
1002
}
1001
AUSTER_FOLIE
1002
{
1000
NSB00342_S3
1002
}
  0
ARC
  5
100D9
330
20
100
AcDbEntity
  8
10000_FRONT
  6
DASHED
 62
     7
370
    20
100
AcDbCircle
 39
0.25
 10
-144.2665185283628
 20
684.9661165423919
 30
0.0
 40
0.4
100
AcDbArc
 50
270.0
 51
0.0
1001
AUSTER_ANSICHT
1002
{
1000
Det03
1002
}
1001
AUSTER_FOLIE
1002
{
1000
NSB00342_S3
1002
}
  0
ARC
  5
100DA
330
20
100
AcDbEntity
  8
10000_FRONT
  6
DASHED
 62
     7
370
    20
100
AcDbCircle
 39
0.25
 10
-112.0665185283628
 20
684.9661165423919
 30
0.0
 40
0.4
100
AcDbArc
 50
180.0
 51
270.0
1001
AUSTER_ANSICHT
1002
{
1000
Det03
1002
}
1001
AUSTER_FOLIE
1002
{
1000
NSB00342_S3
1002
}
  0
ARC
  5
100DB
330
20
100
AcDbEntity
  8
10000_FRONT
  6
DASHED
 62
     7
370
    20
100
AcDbCircle
 39
0.25
 10
-121.7665185283628
 20
684.9661165423919
 30
0.0
 40
0.4
100
AcDbArc
 50
270.0
 51
0.0
1001
AUSTER_ANSICHT
1002
{
1000
Det03
1002
}
1001
AUSTER_FOLIE
1002
{
1000
NSB00342_S3
1002
}
  0
ARC
  5
100DC
330
20
100
AcDbEntity
  8
10000_FRONT
  6
DASHED
 62
     7
370
    20
100
AcDbCircle
 39
0.25
 10
-134.5665185283628
 20
684.9661165423919
 30
0.0
 40
0.4
100
AcDbArc
 50
180.0
 51
270.0
1001
AUSTER_ANSICHT
1002
{
1000
Det03
1002
}
1001
AUSTER_FOLIE
1002
{
1000
NSB00342_S3
1002
}
  0
CIRCLE
  5
100DD
330
20
100
AcDbEntity
  8
10000_FRONT
  6
DASHED
 62
     7
370
    20
100
AcDbCircle
 39
0.25
 10
-150.6634185283628
 20
698.0847165423917
 30
0.0
 40
3.0
1001
AUSTER_ANSICHT
1002
{
1000
Det03
1002
}
1001
AUSTER_FOLIE
1002
{
1000
NSB00342_S3
1002
}
  0
ARC
  5
100DE
330
20
100
AcDbEntity
  8
10000_FRONT
  6
Continuous
 62
     7
370
    50
100
AcDbCircle
 39
0.7
 10
-94.67221852836289
 20
789.3664165423918
 30
0.0
 40
1.500000999999999
100
AcDbArc
 50
0.0
 51
90.0
1001
AUSTER_ANSICHT
1002
{
1000
Det03
1002
}
1001
AUSTER_FOLIE
1002
{
1000
NSB00342_S3
1002
}
  0
ARC
  5
100DF
330
20
100
AcDbEntity
  8
10000_FRONT
  6
Continuous
 62
     7
370
    20
100
AcDbCircle
 39
0.25
 10
-160.0222185283628
 20
794.0664165423918
 30
0.0
 40
0.4
100
AcDbArc
 50
90.0
 51
180.0
1001
AUSTER_ANSICHT
1002
{
1000
Det03
1002
}
1001
AUSTER_FOLIE
1002
{
1000
NSB00342_S3
1002
}
  0
ARC
  5
100E0
330
20
100
AcDbEntity
  8
10000_FRONT
  6
Continuous
 62
     7
370
    20
100
AcDbCircle
 39
0.25
 10
-96.32221852836288
 20
794.0664165423918
 30
0.0
 40
0.4
100
AcDbArc
 50
0.0
 51
90.0
1001
AUSTER_ANSICHT
1002
{
1000
Det03
1002
}
1001
AUSTER_FOLIE
1002
{
1000
NSB00342_S3
1002
}
  0
ARC
  5
100E1
330
20
100
AcDbEntity
  8
10000_FRONT
  6
Continuous
 62
     7
370
    20
100
AcDbCircle
 39
0.25
 10
-95.52221852836279
 20
791.2664165423917
 30
0.0
 40
0.3999995999999999
100
AcDbArc
 50
180.0
 51
270.0419000000015
1001
AUSTER_ANSICHT
1002
{
1000
Det03
1002
}
1001
AUSTER_FOLIE
1002
{
1000
NSB00342_S3
1002
}
  0
ARC
  5
100E2
330
20
100
AcDbEntity
  8
10000_FRONT
  6
Continuous
 62
     7
370
    20
100
AcDbCircle
 39
0.25
 10
-130.6222185283628
 20
683.7164165423919
 30
0.0
 40
0.8
100
AcDbArc
 50
90.0
 51
180.0
1001
AUSTER_ANSICHT
1002
{
1000
Det03
1002
}
1001
AUSTER_FOLIE
1002
{
1000
NSB00342_S3
1002
}
  0
ARC
  5
100E3
330
20
100
AcDbEntity
  8
10000_FRONT
  6
Continuous
 62
     7
370
    20
100
AcDbCircle
 39
0.25
 10
-125.7222185283628
 20
683.7164165423919
 30
0.0
 40
0.8
100
AcDbArc
 50
0.0
 51
90.0
1001
AUSTER_ANSICHT
1002
{
1000
Det03
1002
}
1001
AUSTER_FOLIE
1002
{
1000
NSB00342_S3
1002
}
  0
ARC
  5
100E4
330
20
100
AcDbEntity
  8
10000_FRONT
  6
DASHED
 62
     7
370
    20
100
AcDbCircle
 39
0.25
 10
-151.6722185283628
 20
678.5164165423918
 30
0.0
 40
1.5
100
AcDbArc
 50
180.0
 51
270.0
1001
AUSTER_ANSICHT
1002
{
1000
Det03
1002
}
1001
AUSTER_FOLIE
1002
{
1000
NSB00342_S3
1002
}
  0
ARC
  5
100E5
330
20
100
AcDbEntity
  8
10000_FRONT
  6
Continuous
 62
     7
370
    50
100
AcDbCircle
 39
0.7
 10
-131.8222185283628
 20
677.4164165423917
 30
0.0
 40
0.4
100
AcDbArc
 50
270.0
 51
0.0
1001
AUSTER_ANSICHT
1002
{
1000
Det03
1002
}
1001
AUSTER_FOLIE
1002
{
1000
NSB00342_S3
1002
}
  0
ARC
  5
100E6
330
20
100
AcDbEntity
  8
10000_FRONT
  6
Continuous
 62
     7
370
    50
100
AcDbCircle
 39
0.7
 10
-124.5222185283628
 20
677.4164165423917
 30
0.0
 40
0.4
100
AcDbArc
 50
180.0
 51
270.0
1001
AUSTER_ANSICHT
1002
{
1000
Det03
1002
}
1001
AUSTER_FOLIE
1002
{
1000
NSB00342_S3
1002
}
  0
ARC
  5
100E7
330
20
100
AcDbEntity
  8
10000_FRONT
  6
Continuous
 62
     7
370
    50
100
AcDbCircle
 39
0.7
 10
-94.67221852836289
 20
678.5164165423918
 30
0.0
 40
1.5
100
AcDbArc
 50
270.0
 51
0.0
1001
AUSTER_ANSICHT
1002
{
1000
Det03
1002
}
1001
AUSTER_FOLIE
1002
{
1000
NSB00342_S3
1002
}
  0
ARC
  5
100E8
330
20
100
AcDbEntity
  8
10000_FRONT
  6
Continuous
 62
     7
370
    20
100
AcDbCircle
 39
0.25
 10
-103.9722185283628
 20
796.2164165423918
 30
0.0
 40
0.8
100
AcDbArc
 50
0.0000000251171202
 51
90.0
1001
AUSTER_ANSICHT
1002
{
1000
Det03
1002
}
1001
AUSTER_FOLIE
1002
{
1000
NSB00342_S3
1002
}
  0
ARC
  5
100E9
330
20
100
AcDbEntity
  8
10000_FRONT
  6
Continuous
 62
     7
370
    50
100
AcDbCircle
 39
0.7
 10
-94.67221852836289
 20
795.5164165423918
 30
0.0
 40
1.5
100
AcDbArc
 50
0.0
 51
90.0
1001
AUSTER_ANSICHT
1002
{
1000
Det03
1002
}
1001
AUSTER_FOLIE
1002
{
1000
NSB00342_S3
1002
}
  0
ARC
  5
100EA
330
20
100
AcDbEntity
  8
10000_FRONT
  6
Continuous
 62
     7
370
    50
100
AcDbCircle
 39
0.7
 10
-161.6722185283628
 20
678.5164165423918
 30
0.0
 40
1.5
100
AcDbArc
 50
180.0
 51
270.0
1001
AUSTER_ANSICHT
1002
{
1000
Det03
1002
}
1001
AUSTER_FOLIE
1002
{
1000
NSB00342_S3
1002
}
  0
ARC
  5
100EB
330
20
100
AcDbEntity
  8
10000_FRONT
  6
Continuous
 62
     7
370
    50
100
AcDbCircle
 39
0.7
 10
-161.6722185283628
 20
795.5164165423918
 30
0.0
 40
1.5
100
AcDbArc
 50
90.0
 51
180.0
1001
AUSTER_ANSICHT
1002
{
1000
Det03
1002
}
1001
AUSTER_FOLIE
1002
{
1000
NSB00342_S3
1002
}
  0
ARC
  5
100EC
330
20
100
AcDbEntity
  8
10000_FRONT
  6
Continuous
 62
     7
370
    20
100
AcDbCircle
 39
0.25
 10
-144.2722185283628
 20
794.0664165423918
 30
0.0
 40
0.4
100
AcDbArc
 50
0.000000587718466
 51
90.0
1001
AUSTER_ANSICHT
1002
{
1000
Det03
1002
}
1001
AUSTER_FOLIE
1002
{
1000
NSB00342_S3
1002
}
  0
ARC
  5
100ED
330
20
100
AcDbEntity
  8
10000_FRONT
  6
Continuous
 62
     7
370
    20
100
AcDbCircle
 39
0.25
 10
-134.5722185283628
 20
794.0664165423918
 30
0.0
 40
0.4
100
AcDbArc
 50
90.0
 51
180.0
1001
AUSTER_ANSICHT
1002
{
1000
Det03
1002
}
1001
AUSTER_FOLIE
1002
{
1000
NSB00342_S3
1002
}
  0
ARC
  5
100EE
330
20
100
AcDbEntity
  8
10000_FRONT
  6
Continuous
 62
     7
370
    20
100
AcDbCircle
 39
0.25
 10
-121.7722185283628
 20
794.0664165423918
 30
0.0
 40
0.4
100
AcDbArc
 50
0.000000587718466
 51
90.0
1001
AUSTER_ANSICHT
1002
{
1000
Det03
1002
}
1001
AUSTER_FOLIE
1002
{
1000
NSB00342_S3
1002
}
  0
ARC
  5
100EF
330
20
100
AcDbEntity
  8
10000_FRONT
  6
Continuous
 62
     7
370
    20
100
AcDbCircle
 39
0.25
 10
-112.0722185283627
 20
794.0664165423918
 30
0.0
 40
0.4
100
AcDbArc
 50
90.0
 51
180.0
1001
AUSTER_ANSICHT
1002
{
1000
Det03
1002
}
1001
AUSTER_FOLIE
1002
{
1000
NSB00342_S3
1002
}
  0
ARC
  5
100F3
330
20
100
AcDbEntity
  8
10000_FRONT
  6
DASHED
 62
     7
370
    20
100
AcDbCircle
 39
0.25
 10
-135.1706185283628
 20
735.7691165423918
 30
0.0
 40
2.850490999999998
100
AcDbArc
 50
302.7603999999973
 51
327.2396000000032
1001
AUSTER_ANSICHT
1002
{
1000
Det03
1002
}
1001
AUSTER_FOLIE
1002
{
1000
NSB00342_S3
1002
}
  0
ARC
  5
100F4
330
20
100
AcDbEntity
  8
10000_FRONT
  6
DASHED
 62
     7
370
    20
100
AcDbCircle
 39
0.25
 10
-135.1706185283628
 20
735.7691165423918
 30
0.0
 40
1.85
100
AcDbArc
 50
208.8365999999963
 51
241.1634000000001
1001
AUSTER_ANSICHT
1002
{
1000
Det03
1002
}
1001
AUSTER_FOLIE
1002
{
1000
NSB00342_S3
1002
}
  0
ARC
  5
100F5
330
20
100
AcDbEntity
  8
10000_FRONT
  6
DASHED
 62
     7
370
    20
100
AcDbCircle
 39
0.25
 10
-135.1706185283628
 20
735.7691165423918
 30
0.0
 40
1.85
100
AcDbArc
 50
28.83654999999987
 51
61.16344999999935
1001
AUSTER_ANSICHT
1002
{
1000
Det03
1002
}
1001
AUSTER_FOLIE
1002
{
1000
NSB00342_S3
1002
}
  0
ARC
  5
100F6
330
20
100
AcDbEntity
  8
10000_FRONT
  6
DASHED
 62
     7
370
    20
100
AcDbCircle
 39
0.25
 10
-135.1706185283628
 20
735.7691165423918
 30
0.0
 40
2.850490999999998
100
AcDbArc
 50
122.7603999999973
 51
147.2396000000031
1001
AUSTER_ANSICHT
1002
{
1000
Det03
1002
}
1001
AUSTER_FOLIE
1002
{
1000
NSB00342_S3
1002
}
  0
CIRCLE
  5
100F7
330
20
100
AcDbEntity
  8
10000_FRONT
  6
DASHED
 62
     7
370
    20
100
AcDbCircle
 39
0.25
 10
-135.1706185283628
 20
735.7691165423918
 30
0.0
 40
3.02
1001
AUSTER_ANSICHT
1002
{
1000
Det03
1002
}
1001
AUSTER_FOLIE
1002
{
1000
NSB00342_S3
1002
}
  0
CIRCLE
  5
100F8
330
20
100
AcDbEntity
  8
10000_FRONT
  6
DASHED
 62
     7
370
    20
100
AcDbCircle
 39
0.25
 10
-146.6206185283628
 20
735.7691165423918
 30
0.0
 40
2.9
1001
AUSTER_ANSICHT
1002
{
1000
Det03
1002
}
1001
AUSTER_FOLIE
1002
{
1000
NSB00342_S3
1002
}
  0
ARC
  5
100FC
330
20
100
AcDbEntity
  8
11000_Left
  6
DASHED
 62
     7
370
    20
100
AcDbCircle
 39
0.25
 10
-155.3448249609694
 20
745.9061165423918
 30
0.0
 40
250.0
100
AcDbArc
 50
352.5672999999971
 51
6.220199999999466
1001
AUSTER_ANSICHT
1002
{
1000
Det03
1002
}
1001
AUSTER_FOLIE
1002
{
1000
NSB00342_S3
1002
}
  0
ARC
  5
100FD
330
20
100
AcDbEntity
  8
11000_Left
  6
DASHED
 62
     7
370
    20
100
AcDbCircle
 39
0.25
 10
-24.34482496096939
 20
688.5691165423918
 30
0.0
 40
0.4
100
AcDbArc
 50
180.0
 51
270.0
1001
AUSTER_ANSICHT
1002
{
1000
Det03
1002
}
1001
AUSTER_FOLIE
1002
{
1000
NSB00342_S3
1002
}
  0
ARC
  5
100FE
330
20
100
AcDbEntity
  8
11000_Left
  6
DASHED
 62
     7
370
    20
100
AcDbCircle
 39
0.25
 10
-5.544824960969378
 20
688.5691165423918
 30
0.0
 40
0.4
100
AcDbArc
 50
270.0
 51
359.9999000000031
1001
AUSTER_ANSICHT
1002
{
1000
Det03
1002
}
1001
AUSTER_FOLIE
1002
{
1000
NSB00342_S3
1002
}
  0
ARC
  5
100FF
330
20
100
AcDbEntity
  8
11000_Left
  6
DASHED
 62
     7
370
    20
100
AcDbCircle
 39
0.25
 10
69.56967503903058
 20
705.6691165423918
 30
0.0
 40
0.3999997
100
AcDbArc
 50
270.0
 51
353.2310000000025
1001
AUSTER_ANSICHT
1002
{
1000
Det03
1002
}
1001
AUSTER_FOLIE
1002
{
1000
NSB00342_S3
1002
}
  0
ARC
  5
10100
330
20
100
AcDbEntity
  8
11000_Left
  6
DASHED
 62
     7
370
    20
100
AcDbCircle
 39
0.25
 10
91.76127503903066
 20
713.6691165423918
 30
0.0
 40
0.8
100
AcDbArc
 50
270.0
 51
352.5672999999971
1001
AUSTER_ANSICHT
1002
{
1000
Det03
1002
}
1001
AUSTER_FOLIE
1002
{
1000
NSB00342_S3
1002
}
  0
ARC
  5
10101
330
20
100
AcDbEntity
  8
11000_Left
  6
Continuous
 62
     7
370
    50
100
AcDbCircle
 39
0.7
 10
92.38130503903065
 20
772.9691165423917
 30
0.0
 40
0.8
100
AcDbArc
 50
19.67603000000033
 51
90.0
1001
AUSTER_ANSICHT
1002
{
1000
Det03
1002
}
1001
AUSTER_FOLIE
1002
{
1000
NSB00342_S3
1002
}
  0
ARC
  5
10102
330
20
100
AcDbEntity
  8
11000_Left
  6
DASHED
 62
     7
370
    20
100
AcDbCircle
 39
0.25
 10
89.17897503903061
 20
735.7691165423918
 30
0.0
 40
10.0
100
AcDbArc
 50
344.4522999999974
 51
0.0
1001
AUSTER_ANSICHT
1002
{
1000
Det03
1002
}
1001
AUSTER_FOLIE
1002
{
1000
NSB00342_S3
1002
}
  0
ARC
  5
10103
330
20
100
AcDbEntity
  8
11000_Left
  6
DASHED
 62
     7
370
    20
100
AcDbCircle
 39
0.25
 10
98.52400503903062
 20
733.1691165423919
 30
0.0
 40
0.3
100
AcDbArc
 50
270.0
 51
344.4522999999974
1001
AUSTER_ANSICHT
1002
{
1000
Det03
1002
}
1001
AUSTER_FOLIE
1002
{
1000
NSB00342_S3
1002
}
  0
ARC
  5
10104
330
20
100
AcDbEntity
  8
11000_Left
  6
DASHED
 62
     7
370
    20
100
AcDbCircle
 39
0.25
 10
89.17897503903061
 20
735.7691165423918
 30
0.0
 40
10.0
100
AcDbArc
 50
0.0
 51
15.547740000001
1001
AUSTER_ANSICHT
1002
{
1000
Det03
1002
}
1001
AUSTER_FOLIE
1002
{
1000
NSB00342_S3
1002
}
  0
ARC
  5
10105
330
20
100
AcDbEntity
  8
11000_Left
  6
DASHED
 62
     7
370
    20
100
AcDbCircle
 39
0.25
 10
98.52400503903062
 20
738.3691165423917
 30
0.0
 40
0.3
100
AcDbArc
 50
15.547740000001
 51
90.0
1001
AUSTER_ANSICHT
1002
{
1000
Det03
1002
}
1001
AUSTER_FOLIE
1002
{
1000
NSB00342_S3
1002
}
  0
ARC
  5
10106
330
20
100
AcDbEntity
  8
11000_Left
  6
Continuous
 62
     7
370
    50
100
AcDbCircle
 39
0.7
 10
96.21005503903065
 20
740.1148165423919
 30
0.0
 40
0.295619
100
AcDbArc
 50
270.0
 51
357.4486999999967
1001
AUSTER_ANSICHT
1002
{
1000
Det03
1002
}
1001
AUSTER_FOLIE
1002
{
1000
NSB00342_S3
1002
}
  0
ARC
  5
10107
330
20
100
AcDbEntity
  8
11000_Left
  6
DASHED
 62
     7
370
    20
100
AcDbCircle
 39
0.25
 10
-155.2448249609693
 20
751.3191165423918
 30
0.0
 40
252.0
100
AcDbArc
 50
357.4486999999967
 51
359.5446999999968
1001
AUSTER_ANSICHT
1002
{
1000
Det03
1002
}
1001
AUSTER_FOLIE
1002
{
1000
NSB00342_S3
1002
}
  0
ARC
  5
10108
330
20
100
AcDbEntity
  8
11000_Left
  6
DASHED
 62
     7
370
    20
100
AcDbCircle
 39
0.25
 10
96.44723503903058
 20
749.3191165423918
 30
0.0
 40
0.3
100
AcDbArc
 50
359.5447999999977
 51
90.0
1001
AUSTER_ANSICHT
1002
{
1000
Det03
1002
}
1001
AUSTER_FOLIE
1002
{
1000
NSB00342_S3
1002
}
  0
ARC
  5
10109
330
20
100
AcDbEntity
  8
11000_Left
  6
DASHED
 62
     7
370
    20
100
AcDbCircle
 39
0.25
 10
-4.744824960969394
 20
688.5691165423918
 30
0.0
 40
0.4
100
AcDbArc
 50
180.0
 51
270.0
1001
AUSTER_ANSICHT
1002
{
1000
Det03
1002
}
1001
AUSTER_FOLIE
1002
{
1000
NSB00342_S3
1002
}
  0
ARC
  5
1010A
330
20
100
AcDbEntity
  8
11000_Left
  6
DASHED
 62
     7
370
    20
100
AcDbCircle
 39
0.25
 10
66.9640750390306
 20
688.9691165423918
 30
0.0
 40
0.7999921
100
AcDbArc
 50
269.9994999999985
 51
351.6993000000011
1001
AUSTER_ANSICHT
1002
{
1000
Det03
1002
}
1001
AUSTER_FOLIE
1002
{
1000
NSB00342_S3
1002
}
  0
ARC
  5
1010B
330
20
100
AcDbEntity
  8
11000_Left
  6
DASHED
 62
     7
370
    20
100
AcDbCircle
 39
0.25
 10
68.9167750390306
 20
704.4691165423918
 30
0.0
 40
0.8
100
AcDbArc
 50
353.9407999999968
 51
90.0
1001
AUSTER_ANSICHT
1002
{
1000
Det03
1002
}
1001
AUSTER_FOLIE
1002
{
1000
NSB00342_S3
1002
}
  0
ARC
  5
1010C
330
20
100
AcDbEntity
  8
11000_Left
  6
DASHED
 62
     7
370
    20
100
AcDbCircle
 39
0.25
 10
36.65517503903061
 20
684.9691165423919
 30
0.0
 40
0.4
100
AcDbArc
 50
270.0
 51
0.0
1001
AUSTER_ANSICHT
1002
{
1000
Det03
1002
}
1001
AUSTER_FOLIE
1002
{
1000
NSB00342_S3
1002
}
  0
ARC
  5
1010D
330
20
100
AcDbEntity
  8
11000_Left
  6
DASHED
 62
     7
370
    20
100
AcDbCircle
 39
0.25
 10
37.45517503903062
 20
687.7691165423917
 30
0.0
 40
0.4
100
AcDbArc
 50
90.0
 51
180.0
1001
AUSTER_ANSICHT
1002
{
1000
Det03
1002
}
1001
AUSTER_FOLIE
1002
{
1000
NSB00342_S3
1002
}
  0
ARC
  5
1010E
330
20
100
AcDbEntity
  8
11000_Left
  6
DASHED
 62
     7
370
    20
100
AcDbCircle
 39
0.25
 10
-327.2448249609694
 20
752.7691165423918
 30
0.0
 40
400.0
100
AcDbArc
 50
353.2309000000032
 51
354.2752000000024
1001
AUSTER_ANSICHT
1002
{
1000
Det03
1002
}
1001
AUSTER_FOLIE
1002
{
1000
NSB00342_S3
1002
}
  0
ARC
  5
1010F
330
20
100
AcDbEntity
  8
11000_Left
  6
DASHED
 62
     7
370
    20
100
AcDbCircle
 39
0.25
 10
-328.0530249609693
 20
746.6071165423918
 30
0.0
 40
400.0
100
AcDbArc
 50
351.7999000000029
 51
353.9407999999968
1001
AUSTER_ANSICHT
1002
{
1000
Det03
1002
}
1001
AUSTER_FOLIE
1002
{
1000
NSB00342_S3
1002
}
  0
ARC
  5
10110
330
20
100
AcDbEntity
  8
11000_Left
  6
Continuous
 62
     7
370
    20
100
AcDbCircle
 39
0.7
 10
18.66107503903061
 20
774.2491165423918
 30
0.0
 40
0.4836353
100
AcDbArc
 50
180.0
 51
270.0
1001
AUSTER_ANSICHT
1002
{
1000
Det03
1002
}
1001
AUSTER_FOLIE
1002
{
1000
NSB00342_S3
1002
}
  0
ARC
  5
10111
330
20
100
AcDbEntity
  8
11000_Left
  6
Continuous
 62
     7
370
    50
100
AcDbCircle
 39
0.7
 10
18.57747503903062
 20
790.4691165423918
 30
0.0
 40
0.3999998
100
AcDbArc
 50
90.0
 51
180.0
1001
AUSTER_ANSICHT
1002
{
1000
Det03
1002
}
1001
AUSTER_FOLIE
1002
{
1000
NSB00342_S3
1002
}
  0
ARC
  5
10112
330
20
100
AcDbEntity
  8
11000_Left
  6
Continuous
 62
     7
370
    20
100
AcDbCircle
 39
0.7
 10
-25.22252496096939
 20
688.5691165423918
 30
0.0
 40
0.4
100
AcDbArc
 50
270.0
 51
0.0
1001
AUSTER_ANSICHT
1002
{
1000
Det03
1002
}
1001
AUSTER_FOLIE
1002
{
1000
NSB00342_S3
1002
}
  0
ARC
  5
10113
330
20
100
AcDbEntity
  8
11000_Left
  6
Continuous
 62
     7
370
    50
100
AcDbCircle
 39
0.7
 10
-25.22252496096939
 20
677.4191165423919
 30
0.0
 40
0.4
100
AcDbArc
 50
270.0
 51
0.0
1001
AUSTER_ANSICHT
1002
{
1000
Det03
1002
}
1001
AUSTER_FOLIE
1002
{
1000
NSB00342_S3
1002
}
  0
ARC
  5
10114
330
20
100
AcDbEntity
  8
11000_Left
  6
Continuous
 62
     7
370
    50
100
AcDbCircle
 39
0.7
 10
-37.82252496096939
 20
764.7191165423918
 30
0.0
 40
4.0
100
AcDbArc
 50
270.0
 51
0.0
1001
AUSTER_ANSICHT
1002
{
1000
Det03
1002
}
1001
AUSTER_FOLIE
1002
{
1000
NSB00342_S3
1002
}
  0
ARC
  5
10115
330
20
100
AcDbEntity
  8
11000_Left
  6
Continuous
 62
     7
370
    50
100
AcDbCircle
 39
0.7
 10
-37.82252496096939
 20
715.1191165423917
 30
0.0
 40
4.0
100
AcDbArc
 50
0.0
 51
90.0
1001
AUSTER_ANSICHT
1002
{
1000
Det03
1002
}
1001
AUSTER_FOLIE
1002
{
1000
NSB00342_S3
1002
}
  0
ARC
  5
10116
330
20
100
AcDbEntity
  8
11000_Left
  6
Continuous
 62
     7
370
    50
100
AcDbCircle
 39
0.7
 10
-40.62252496096935
 20
796.6191165423918
 30
0.0
 40
0.4
100
AcDbArc
 50
90.0
 51
180.0
1001
AUSTER_ANSICHT
1002
{
1000
Det03
1002
}
1001
AUSTER_FOLIE
1002
{
1000
NSB00342_S3
1002
}
  0
ARC
  5
10117
330
20
100
AcDbEntity
  8
11000_Left
  6
Continuous
 62
     7
370
    50
100
AcDbCircle
 39
0.7
 10
-40.62252496096935
 20
677.4191165423919
 30
0.0
 40
0.4
100
AcDbArc
 50
180.0
 51
270.0
1001
AUSTER_ANSICHT
1002
{
1000
Det03
1002
}
1001
AUSTER_FOLIE
1002
{
1000
NSB00342_S3
1002
}
  0
ARC
  5
10119
330
20
100
AcDbEntity
  8
11000_Left
  6
Continuous
 62
     7
370
    20
100
AcDbCircle
 39
0.7
 10
-36.44292496096938
 20
703.6191165423917
 30
0.0
 40
0.4
100
AcDbArc
 50
189.9999999999986
 51
270.0
1001
AUSTER_ANSICHT
1002
{
1000
Det03
1002
}
1001
AUSTER_FOLIE
1002
{
1000
NSB00342_S3
1002
}
  0
ARC
  5
1011A
330
20
100
AcDbEntity
  8
11000_Left
  6
Continuous
 62
     7
370
    20
100
AcDbCircle
 39
0.7
 10
-40.17252496096938
 20
701.1732165423918
 30
0.0
 40
0.4
100
AcDbArc
 50
139.8990999999977
 51
180.0
1001
AUSTER_ANSICHT
1002
{
1000
Det03
1002
}
1001
AUSTER_FOLIE
1002
{
1000
NSB00342_S3
1002
}
  0
ARC
  5
1011B
330
20
100
AcDbEntity
  8
11000_Left
  6
Continuous
 62
     7
370
    20
100
AcDbCircle
 39
0.7
 10
-37.18642496096939
 20
704.7191165423917
 30
0.0
 40
0.4
100
AcDbArc
 50
90.0
 51
139.8990999999977
1001
AUSTER_ANSICHT
1002
{
1000
Det03
1002
}
1001
AUSTER_FOLIE
1002
{
1000
NSB00342_S3
1002
}
  0
ARC
  5
1011C
330
20
100
AcDbEntity
  8
11000_Left
  6
Continuous
 62
     7
370
    50
100
AcDbCircle
 39
0.7
 10
78.06387503903064
 20
754.2691165423917
 30
0.0
 40
0.4
100
AcDbArc
 50
270.0
 51
346.2000000000009
1001
AUSTER_ANSICHT
1002
{
1000
Det03
1002
}
1001
AUSTER_FOLIE
1002
{
1000
NSB00342_S3
1002
}
  0
ARC
  5
1011D
330
20
100
AcDbEntity
  8
11000_Left
  6
Continuous
 62
     7
370
    50
100
AcDbCircle
 39
0.7
 10
17.7774750390306
 20
790.4691165423918
 30
0.0
 40
0.4
100
AcDbArc
 50
0.0
 51
90.0
1001
AUSTER_ANSICHT
1002
{
1000
Det03
1002
}
1001
AUSTER_FOLIE
1002
{
1000
NSB00342_S3
1002
}
  0
ARC
  5
1011E
330
20
100
AcDbEntity
  8
11000_Left
  6
Continuous
 62
     7
370
    50
100
AcDbCircle
 39
0.7
 10
60.07747503903061
 20
794.069116542392
 30
0.0
 40
0.4
100
AcDbArc
 50
0.0
 51
90.0
1001
AUSTER_ANSICHT
1002
{
1000
Det03
1002
}
1001
AUSTER_FOLIE
1002
{
1000
NSB00342_S3
1002
}
  0
ARC
  5
1011F
330
20
100
AcDbEntity
  8
11000_Left
  6
Continuous
 62
     7
370
    50
100
AcDbCircle
 39
0.7
 10
90.38637503903059
 20
790.069116542392
 30
0.0
 40
0.7999998000000002
100
AcDbArc
 50
8.301577999998636
 51
90.00001000000102
1001
AUSTER_ANSICHT
1002
{
1000
Det03
1002
}
1001
AUSTER_FOLIE
1002
{
1000
NSB00342_S3
1002
}
  0
ARC
  5
10120
330
20
100
AcDbEntity
  8
11000_Left
  6
Continuous
 62
     7
370
    50
100
AcDbCircle
 39
0.7
 10
92.33906503903062
 20
774.5691165423918
 30
0.0
 40
0.8
100
AcDbArc
 50
270.0
 51
6.059200000003182
1001
AUSTER_ANSICHT
1002
{
1000
Det03
1002
}
1001
AUSTER_FOLIE
1002
{
1000
NSB00342_S3
1002
}
  0
ARC
  5
10121
330
20
100
AcDbEntity
  8
11000_Left
  6
Continuous
 62
     7
370
    50
100
AcDbCircle
 39
0.7
 10
60.87747503903063
 20
791.2691165423917
 30
0.0
 40
0.4
100
AcDbArc
 50
180.0
 51
270.0
1001
AUSTER_ANSICHT
1002
{
1000
Det03
1002
}
1001
AUSTER_FOLIE
1002
{
1000
NSB00342_S3
1002
}
  0
ARC
  5
10122
330
20
100
AcDbEntity
  8
11000_Left
  6
Continuous
 62
     7
370
    50
100
AcDbCircle
 39
0.7
 10
-304.6307249609693
 20
732.4312165423918
 30
0.0
 40
400.0
100
AcDbArc
 50
6.059200000003182
 51
8.301589000000085
1001
AUSTER_ANSICHT
1002
{
1000
Det03
1002
}
1001
AUSTER_FOLIE
1002
{
1000
NSB00342_S3
1002
}
  0
ARC
  5
1012A
330
20
100
AcDbEntity
  8
11000_Left
  6
Continuous
 62
     7
370
    50
100
AcDbCircle
 39
0.7
 10
77.94137503903063
 20
754.1630165423917
 30
0.0
 40
0.4000004000000001
100
AcDbArc
 50
270.0001000000003
 51
346.2337000000019
1001
AUSTER_ANSICHT
1002
{
1000
Det03
1002
}
1001
AUSTER_FOLIE
1002
{
1000
NSB00342_S3
1002
}
  0
ARC
  5
1012D
330
20
100
AcDbEntity
  8
11000_Left
  6
Continuous
 62
     7
370
    50
100
AcDbCircle
 39
0.25
 10
-24.34482496096939
 20
753.3630165423918
 30
0.0
 40
0.4
100
AcDbArc
 50
90.0
 51
180.0
1001
AUSTER_ANSICHT
1002
{
1000
Det03
1002
}
1001
AUSTER_FOLIE
1002
{
1000
NSB00342_S3
1002
}
  0
ARC
  5
1012E
330
20
100
AcDbEntity
  8
11000_Left
  6
DASHED
 62
     7
370
    20
100
AcDbCircle
 39
0.25
 10
-48.32252496096939
 20
749.0191165423917
 30
0.0
 40
2.5
100
AcDbArc
 50
90.0
 51
180.0
1001
AUSTER_ANSICHT
1002
{
1000
Det03
1002
}
1001
AUSTER_FOLIE
1002
{
1000
NSB00342_S3
1002
}
  0
ARC
  5
1012F
330
20
100
AcDbEntity
  8
11000_Left
  6
DASHED
 62
     7
370
    20
100
AcDbCircle
 39
0.25
 10
-47.12252496096937
 20
747.8191165423918
 30
0.0
 40
1.199999999999999
100
AcDbArc
 50
90.0
 51
180.0
1001
AUSTER_ANSICHT
1002
{
1000
Det03
1002
}
1001
AUSTER_FOLIE
1002
{
1000
NSB00342_S3
1002
}
  0
ARC
  5
10130
330
20
100
AcDbEntity
  8
11000_Left
  6
DASHED
 62
     7
370
    20
100
AcDbCircle
 39
0.25
 10
-48.32252496096939
 20
730.0191165423917
 30
0.0
 40
2.5
100
AcDbArc
 50
180.0
 51
270.0
1001
AUSTER_ANSICHT
1002
{
1000
Det03
1002
}
1001
AUSTER_FOLIE
1002
{
1000
NSB00342_S3
1002
}
  0
ARC
  5
10131
330
20
100
AcDbEntity
  8
11000_Left
  6
DASHED
 62
     7
370
    20
100
AcDbCircle
 39
0.25
 10
-47.12252496096937
 20
731.2191165423918
 30
0.0
 40
1.199999999999999
100
AcDbArc
 50
180.0
 51
270.0
1001
AUSTER_ANSICHT
1002
{
1000
Det03
1002
}
1001
AUSTER_FOLIE
1002
{
1000
NSB00342_S3
1002
}
  0
ARC
  5
10132
330
20
100
AcDbEntity
  8
11000_Left
  6
DASHED
 62
     7
370
    20
100
AcDbCircle
 39
0.25
 10
-57.82252496096939
 20
717.5191165423917
 30
0.0
 40
3.0
100
AcDbArc
 50
180.0
 51
270.0
1001
AUSTER_ANSICHT
1002
{
1000
Det03
1002
}
1001
AUSTER_FOLIE
1002
{
1000
NSB00342_S3
1002
}
  0
ARC
  5
10133
330
20
100
AcDbEntity
  8
11000_Left
  6
DASHED
 62
     7
370
    20
100
AcDbCircle
 39
0.25
 10
-57.82252496096939
 20
761.5191165423917
 30
0.0
 40
3.0
100
AcDbArc
 50
90.0
 51
180.0
1001
AUSTER_ANSICHT
1002
{
1000
Det03
1002
}
1001
AUSTER_FOLIE
1002
{
1000
NSB00342_S3
1002
}
  0
ARC
  5
10134
330
20
100
AcDbEntity
  8
11000_Left
  6
DASHED
 62
     7
370
    20
100
AcDbCircle
 39
0.25
 10
-54.82252496096939
 20
720.5191165423918
 30
0.0
 40
3.0
100
AcDbArc
 50
180.0
 51
270.0
1001
AUSTER_ANSICHT
1002
{
1000
Det03
1002
}
1001
AUSTER_FOLIE
1002
{
1000
NSB00342_S3
1002
}
  0
ARC
  5
10135
330
20
100
AcDbEntity
  8
11000_Left
  6
DASHED
 62
     7
370
    20
100
AcDbCircle
 39
0.25
 10
-54.82252496096939
 20
758.5191165423918
 30
0.0
 40
3.0
100
AcDbArc
 50
90.0
 51
180.0
1001
AUSTER_ANSICHT
1002
{
1000
Det03
1002
}
1001
AUSTER_FOLIE
1002
{
1000
NSB00342_S3
1002
}
  0
ARC
  5
10136
330
20
100
AcDbEntity
  8
11000_Left
  6
DASHED
 62
     7
370
    20
100
AcDbCircle
 39
0.25
 10
-39.13592496096939
 20
752.7306165423917
 30
0.0
 40
1.211467999999997
100
AcDbArc
 50
270.0
 51
0.0
1001
AUSTER_ANSICHT
1002
{
1000
Det03
1002
}
1001
AUSTER_FOLIE
1002
{
1000
NSB00342_S3
1002
}
  0
ARC
  5
10137
330
20
100
AcDbEntity
  8
11000_Left
  6
DASHED
 62
     7
370
    20
100
AcDbCircle
 39
0.25
 10
-37.82252496096939
 20
751.0191165423917
 30
0.0
 40
2.0
100
AcDbArc
 50
270.0
 51
0.0
1001
AUSTER_ANSICHT
1002
{
1000
Det03
1002
}
1001
AUSTER_FOLIE
1002
{
1000
NSB00342_S3
1002
}
  0
ARC
  5
1013A
330
20
100
AcDbEntity
  8
11000_Left
  6
DASHED
 62
     7
370
    20
100
AcDbCircle
 39
0.25
 10
-39.82252496096939
 20
711.5191165423917
 30
0.0
 40
3.0
100
AcDbArc
 50
0.0
 51
90.0
1001
AUSTER_ANSICHT
1002
{
1000
Det03
1002
}
1001
AUSTER_FOLIE
1002
{
1000
NSB00342_S3
1002
}
  0
ARC
  5
1013B
330
20
100
AcDbEntity
  8
11000_Left
  6
DASHED
 62
     7
370
    20
100
AcDbCircle
 39
0.25
 10
-39.82252496096939
 20
711.5191165423917
 30
0.0
 40
6.0
100
AcDbArc
 50
0.0
 51
90.0
1001
AUSTER_ANSICHT
1002
{
1000
Det03
1002
}
1001
AUSTER_FOLIE
1002
{
1000
NSB00342_S3
1002
}
  0
ARC
  5
1013C
330
20
100
AcDbEntity
  8
11000_Left
  6
DASHED
 62
     7
370
    20
100
AcDbCircle
 39
0.25
 10
-39.82252496096939
 20
767.5191165423917
 30
0.0
 40
6.0
100
AcDbArc
 50
270.0
 51
0.0
1001
AUSTER_ANSICHT
1002
{
1000
Det03
1002
}
1001
AUSTER_FOLIE
1002
{
1000
NSB00342_S3
1002
}
  0
ARC
  5
1013D
330
20
100
AcDbEntity
  8
11000_Left
  6
DASHED
 62
     7
370
    20
100
AcDbCircle
 39
0.25
 10
-39.82252496096939
 20
767.5191165423917
 30
0.0
 40
3.0
100
AcDbArc
 50
270.0
 51
0.0
1001
AUSTER_ANSICHT
1002
{
1000
Det03
1002
}
1001
AUSTER_FOLIE
1002
{
1000
NSB00342_S3
1002
}
  0
ARC
  5
1013E
330
20
100
AcDbEntity
  8
11000_Left
  6
DASHED
 62
     7
370
    20
100
AcDbCircle
 39
0.25
 10
-39.13592496096939
 20
726.3077165423919
 30
0.0
 40
1.211467999999997
100
AcDbArc
 50
0.0
 51
90.0
1001
AUSTER_ANSICHT
1002
{
1000
Det03
1002
}
1001
AUSTER_FOLIE
1002
{
1000
NSB00342_S3
1002
}
  0
ARC
  5
1013F
330
20
100
AcDbEntity
  8
11000_Left
  6
DASHED
 62
     7
370
    20
100
AcDbCircle
 39
0.25
 10
-37.82252496096939
 20
728.0191165423917
 30
0.0
 40
2.0
100
AcDbArc
 50
0.0
 51
90.0
1001
AUSTER_ANSICHT
1002
{
1000
Det03
1002
}
1001
AUSTER_FOLIE
1002
{
1000
NSB00342_S3
1002
}
  0
ARC
  5
10140
330
20
100
AcDbEntity
  8
11000_Left
  6
DASHED
 62
     7
370
    20
100
AcDbCircle
 39
0.25
 10
-37.82252496096939
 20
751.0191165423917
 30
0.0
 40
2.0
100
AcDbArc
 50
270.0
 51
0.0
1001
AUSTER_ANSICHT
1002
{
1000
Det03
1002
}
1001
AUSTER_FOLIE
1002
{
1000
NSB00342_S3
1002
}
  0
ARC
  5
10141
330
20
100
AcDbEntity
  8
11000_Left
  6
DASHED
 62
     7
370
    20
100
AcDbCircle
 39
0.25
 10
-39.13592496096939
 20
752.7306165423917
 30
0.0
 40
1.211467999999997
100
AcDbArc
 50
270.0
 51
0.0
1001
AUSTER_ANSICHT
1002
{
1000
Det03
1002
}
1001
AUSTER_FOLIE
1002
{
1000
NSB00342_S3
1002
}
  0
ARC
  5
10142
330
20
100
AcDbEntity
  8
11000_Left
  6
Continuous
 62
     7
370
    20
100
AcDbCircle
 39
0.7
 10
-37.38852496096939
 20
723.6191165423917
 30
0.0
 40
0.4
100
AcDbArc
 50
90.0
 51
139.3987000000026
1001
AUSTER_ANSICHT
1002
{
1000
Det03
1002
}
1001
AUSTER_FOLIE
1002
{
1000
NSB00342_S3
1002
}
  0
ARC
  5
10143
330
20
100
AcDbEntity
  8
11000_Left
  6
Continuous
 62
     7
370
    20
100
AcDbCircle
 39
0.7
 10
-36.42532496096939
 20
722.4191165423918
 30
0.0
 40
0.4
100
AcDbArc
 50
189.9999999999986
 51
270.0
1001
AUSTER_ANSICHT
1002
{
1000
Det03
1002
}
1001
AUSTER_FOLIE
1002
{
1000
NSB00342_S3
1002
}
  0
CIRCLE
  5
10144
330
20
100
AcDbEntity
  8
10000_FRONT
  6
DASHED
 62
     7
370
    20
100
AcDbCircle
 39
0.25
 10
-119.4706185283628
 20
723.1691165423918
 30
0.0
 40
3.1
1001
AUSTER_ANSICHT
1002
{
1000
Det03
1002
}
1001
AUSTER_FOLIE
1002
{
1000
NSB00342_S3
1002
}
  0
CIRCLE
  5
10145
330
20
100
AcDbEntity
  8
10000_FRONT
  6
DASHED
 62
     7
370
    20
100
AcDbCircle
 39
0.25
 10
-145.2706185283628
 20
723.1691165423918
 30
0.0
 40
3.1
1001
AUSTER_ANSICHT
1002
{
1000
Det03
1002
}
1001
AUSTER_FOLIE
1002
{
1000
NSB00342_S3
1002
}
  0
ARC
  5
10146
330
20
100
AcDbEntity
  8
10000_FRONT
  6
DASHED
 62
     7
370
    20
100
AcDbCircle
 39
0.25
 10
-145.2706185283628
 20
723.1691165423918
 30
0.0
 40
1.85
100
AcDbArc
 50
73.8365499999981
 51
106.1634000000003
1001
AUSTER_ANSICHT
1002
{
1000
Det03
1002
}
1001
AUSTER_FOLIE
1002
{
1000
NSB00342_S3
1002
}
  0
ARC
  5
10147
330
20
100
AcDbEntity
  8
10000_FRONT
  6
DASHED
 62
     7
370
    20
100
AcDbCircle
 39
0.25
 10
-145.2706185283628
 20
723.1691165423918
 30
0.0
 40
1.85
100
AcDbArc
 50
253.8365999999997
 51
286.1634000000003
1001
AUSTER_ANSICHT
1002
{
1000
Det03
1002
}
1001
AUSTER_FOLIE
1002
{
1000
NSB00342_S3
1002
}
  0
ARC
  5
10148
330
20
100
AcDbEntity
  8
10000_FRONT
  6
DASHED
 62
     7
370
    20
100
AcDbCircle
 39
0.25
 10
-145.2706185283628
 20
723.1691165423918
 30
0.0
 40
2.850490999999998
100
AcDbArc
 50
347.7603999999987
 51
12.23960000000143
1001
AUSTER_ANSICHT
1002
{
1000
Det03
1002
}
1001
AUSTER_FOLIE
1002
{
1000
NSB00342_S3
1002
}
  0
ARC
  5
10149
330
20
100
AcDbEntity
  8
10000_FRONT
  6
DASHED
 62
     7
370
    20
100
AcDbCircle
 39
0.25
 10
-136.6706185283627
 20
723.1691165423918
 30
0.0
 40
2.850490999999998
100
AcDbArc
 50
167.7603999999986
 51
192.2396000000014
1001
AUSTER_ANSICHT
1002
{
1000
Det03
1002
}
1001
AUSTER_FOLIE
1002
{
1000
NSB00342_S3
1002
}
  0
ARC
  5
1014A
330
20
100
AcDbEntity
  8
10000_FRONT
  6
DASHED
 62
     7
370
    20
100
AcDbCircle
 39
0.25
 10
-136.6706185283627
 20
723.1691165423918
 30
0.0
 40
1.85
100
AcDbArc
 50
73.8365499999981
 51
106.1634000000003
1001
AUSTER_ANSICHT
1002
{
1000
Det03
1002
}
1001
AUSTER_FOLIE
1002
{
1000
NSB00342_S3
1002
}
  0
ARC
  5
1014B
330
20
100
AcDbEntity
  8
10000_FRONT
  6
DASHED
 62
     7
370
    20
100
AcDbCircle
 39
0.25
 10
-136.6706185283627
 20
723.1691165423918
 30
0.0
 40
1.85
100
AcDbArc
 50
253.8365999999997
 51
286.1634000000003
1001
AUSTER_ANSICHT
1002
{
1000
Det03
1002
}
1001
AUSTER_FOLIE
1002
{
1000
NSB00342_S3
1002
}
  0
ARC
  5
1014C
330
20
100
AcDbEntity
  8
10000_FRONT
  6
DASHED
 62
     7
370
    20
100
AcDbCircle
 39
0.25
 10
-136.6706185283627
 20
723.1691165423918
 30
0.0
 40
2.850490999999998
100
AcDbArc
 50
347.7603999999987
 51
12.23960000000143
1001
AUSTER_ANSICHT
1002
{
1000
Det03
1002
}
1001
AUSTER_FOLIE
1002
{
1000
NSB00342_S3
1002
}
  0
CIRCLE
  5
1014D
330
20
100
AcDbEntity
  8
10000_FRONT
  6
DASHED
 62
     7
370
    20
100
AcDbCircle
 39
0.25
 10
-136.6706185283627
 20
723.1691165423918
 30
0.0
 40
3.1
1001
AUSTER_ANSICHT
1002
{
1000
Det03
1002
}
1001
AUSTER_FOLIE
1002
{
1000
NSB00342_S3
1002
}
  0
ARC
  5
1014E
330
20
100
AcDbEntity
  8
10000_FRONT
  6
DASHED
 62
     7
370
    20
100
AcDbCircle
 39
0.25
 10
-128.0706185283628
 20
723.1691165423918
 30
0.0
 40
2.850490999999998
100
AcDbArc
 50
167.7603999999986
 51
192.2396000000014
1001
AUSTER_ANSICHT
1002
{
1000
Det03
1002
}
1001
AUSTER_FOLIE
1002
{
1000
NSB00342_S3
1002
}
  0
ARC
  5
1014F
330
20
100
AcDbEntity
  8
10000_FRONT
  6
DASHED
 62
     7
370
    20
100
AcDbCircle
 39
0.25
 10
-128.0706185283628
 20
723.1691165423918
 30
0.0
 40
1.85
100
AcDbArc
 50
73.8365499999981
 51
106.1634000000003
1001
AUSTER_ANSICHT
1002
{
1000
Det03
1002
}
1001
AUSTER_FOLIE
1002
{
1000
NSB00342_S3
1002
}
  0
ARC
  5
10150
330
20
100
AcDbEntity
  8
10000_FRONT
  6
DASHED
 62
     7
370
    20
100
AcDbCircle
 39
0.25
 10
-128.0706185283628
 20
723.1691165423918
 30
0.0
 40
1.85
100
AcDbArc
 50
253.8365999999997
 51
286.1634000000003
1001
AUSTER_ANSICHT
1002
{
1000
Det03
1002
}
1001
AUSTER_FOLIE
1002
{
1000
NSB00342_S3
1002
}
  0
ARC
  5
10151
330
20
100
AcDbEntity
  8
10000_FRONT
  6
DASHED
 62
     7
370
    20
100
AcDbCircle
 39
0.25
 10
-128.0706185283628
 20
723.1691165423918
 30
0.0
 40
2.850490999999998
100
AcDbArc
 50
347.7603999999987
 51
12.23960000000143
1001
AUSTER_ANSICHT
1002
{
1000
Det03
1002
}
1001
AUSTER_FOLIE
1002
{
1000
NSB00342_S3
1002
}
  0
CIRCLE
  5
10152
330
20
100
AcDbEntity
  8
10000_FRONT
  6
DASHED
 62
     7
370
    20
100
AcDbCircle
 39
0.25
 10
-128.0706185283628
 20
723.1691165423918
 30
0.0
 40
3.1
1001
AUSTER_ANSICHT
1002
{
1000
Det03
1002
}
1001
AUSTER_FOLIE
1002
{
1000
NSB00342_S3
1002
}
  0
ARC
  5
10153
330
20
100
AcDbEntity
  8
10000_FRONT
  6
DASHED
 62
     7
370
    20
100
AcDbCircle
 39
0.25
 10
-119.4706185283628
 20
723.1691165423918
 30
0.0
 40
1.85
100
AcDbArc
 50
73.8365499999981
 51
106.1634000000003
1001
AUSTER_ANSICHT
1002
{
1000
Det03
1002
}
1001
AUSTER_FOLIE
1002
{
1000
NSB00342_S3
1002
}
  0
ARC
  5
10154
330
20
100
AcDbEntity
  8
10000_FRONT
  6
DASHED
 62
     7
370
    20
100
AcDbCircle
 39
0.25
 10
-119.4706185283628
 20
723.1691165423918
 30
0.0
 40
1.85
100
AcDbArc
 50
253.8365999999997
 51
286.1634000000003
1001
AUSTER_ANSICHT
1002
{
1000
Det03
1002
}
1001
AUSTER_FOLIE
1002
{
1000
NSB00342_S3
1002
}
  0
ARC
  5
10155
330
20
100
AcDbEntity
  8
10000_FRONT
  6
DASHED
 62
     7
370
    20
100
AcDbCircle
 39
0.25
 10
-119.4706185283628
 20
723.1691165423918
 30
0.0
 40
2.850490999999998
100
AcDbArc
 50
347.7603999999987
 51
12.23960000000143
1001
AUSTER_ANSICHT
1002
{
1000
Det03
1002
}
1001
AUSTER_FOLIE
1002
{
1000
NSB00342_S3
1002
}
  0
ARC
  5
10156
330
20
100
AcDbEntity
  8
10000_FRONT
  6
DASHED
 62
     7
370
    20
100
AcDbCircle
 39
0.25
 10
-119.4706185283628
 20
723.1691165423918
 30
0.0
 40
2.850490999999998
100
AcDbArc
 50
167.7603999999986
 51
192.2396000000014
1001
AUSTER_ANSICHT
1002
{
1000
Det03
1002
}
1001
AUSTER_FOLIE
1002
{
1000
NSB00342_S3
1002
}
  0
ARC
  5
10157
330
20
100
AcDbEntity
  8
10000_FRONT
  6
DASHED
 62
     7
370
    20
100
AcDbCircle
 39
0.25
 10
-145.2706185283628
 20
723.1691165423918
 30
0.0
 40
2.850490999999998
100
AcDbArc
 50
167.7603999999986
 51
192.2396000000014
1001
AUSTER_ANSICHT
1002
{
1000
Det03
1002
}
1001
AUSTER_FOLIE
1002
{
1000
NSB00342_S3
1002
}
  0
TEXT
  5
10167
330
20
100
AcDbEntity
  8
10000_FRONT
  6
DASHED
 62
     7
370
    20
100
AcDbText
 39
0.25
 10
-149.1706185283628
 20
759.2661165423918
 30
0.0
 40
3.0
  1
SIEMENS
 41
0.6600000000000003
100
AcDbText
1001
AUSTER_ANSICHT
1002
{
1000
Det03
1002
}
1001
AUSTER_FOLIE
1002
{
1000
NSB00342_S3
1002
}
  0
TEXT
  5
10169
330
20
100
AcDbEntity
  8
10000_FRONT
  6
DASHED
 62
     7
370
    20
100
AcDbText
 39
0.25
 10
-108.8491185283628
 20
744.8691165423918
 30
0.0
 40
1.5
  1
1
 41
0.6600000000000003
100
AcDbText
1001
AUSTER_ANSICHT
1002
{
1000
Det03
1002
}
1001
AUSTER_FOLIE
1002
{
1000
NSB00342_S3
1002
}
  0
TEXT
  5
1016A
330
20
100
AcDbEntity
  8
10000_FRONT
  6
DASHED
 62
     7
370
    20
100
AcDbText
 39
0.25
 10
-116.3491185283628
 20
744.8691165423918
 30
0.0
 40
1.5
  1
0
 41
0.6600000000000003
100
AcDbText
1001
AUSTER_ANSICHT
1002
{
1000
Det03
1002
}
1001
AUSTER_FOLIE
1002
{
1000
NSB00342_S3
1002
}
  0
TEXT
  5
1016B
330
20
100
AcDbEntity
  8
10000_FRONT
  6
DASHED
 62
     7
370
    20
100
AcDbText
 39
0.25
 10
-138.0206185283628
 20
730.7691165423918
 30
0.0
 40
1.5
  1
RESET
 41
0.6600000000000003
100
AcDbText
1001
AUSTER_ANSICHT
1002
{
1000
Det03
1002
}
1001
AUSTER_FOLIE
1002
{
1000
NSB00342_S3
1002
}
  0
TEXT
  5
1016C
330
20
100
AcDbEntity
  8
10000_FRONT
  6
DASHED
 62
     7
370
    20
100
AcDbText
 39
0.25
 10
-132.5641185283628
 20
739.8440165423918
 30
0.0
 40
2.0
  1
A
 41
0.6600000000000003
100
AcDbText
1001
AUSTER_ANSICHT
1002
{
1000
Det03
1002
}
1001
AUSTER_FOLIE
1002
{
1000
NSB00342_S3
1002
}
  0
TEXT
  5
1016D
330
20
100
AcDbEntity
  8
10000_FRONT
  6
DASHED
 62
     7
370
    20
100
AcDbText
 39
0.25
 10
-139.5641185283628
 20
739.8440165423918
 30
0.0
 40
2.0
  1
H
 41
0.6600000000000003
100
AcDbText
1001
AUSTER_ANSICHT
1002
{
1000
Det03
1002
}
1001
AUSTER_FOLIE
1002
{
1000
NSB00342_S3
1002
}
  0
LINE
  5
10170
330
20
100
AcDbEntity
  8
90000_FRAME
  6
Continuous
 62
     7
100
AcDbLine
 10
218.8820698605832
 20
570.2733863911044
 30
0.0
 11
218.8820698605832
 21
840.2733863911043
 31
0.0
  0
INSERT
  5
10171
330
20
100
AcDbEntity
  8
90000_FRAME
  6
Continuous
 62
     7
100
AcDbBlockReference
  2
SIEMENS_OUTLINE_BL0
 10
-201.1179301394176
 20
570.2733863911044
 30
0.0
  0
LINE
  5
10172
330
20
100
AcDbEntity
  8
90000_FRAME
  6
Continuous
 62
     7
100
AcDbLine
 10
73.88206986058229
 20
580.2733863911043
 30
0.0
 11
208.8820698605825
 21
580.2733863911043
 31
0.0
  0
LINE
  5
10173
330
20
100
AcDbEntity
  8
90000_FRAME
  6
Continuous
 62
     7
100
AcDbLine
 10
73.88206986058229
 20
580.2733863911043
 30
0.0
 11
73.88206986058229
 21
598.2733863911042
 31
0.0
  0
LINE
  5
10174
330
20
100
AcDbEntity
  8
90000_FRAME
  6
Continuous
 62
     7
100
AcDbLine
 10
123.8820698605824
 20
586.2733863911045
 30
0.0
 11
208.8820698605825
 21
586.2733863911045
 31
0.0
  0
LINE
  5
10175
330
20
100
AcDbEntity
  8
90000_FRAME
  6
Continuous
 62
     7
100
AcDbLine
 10
73.88206986058229
 20
598.2733863911042
 30
0.0
 11
208.8820698605825
 21
598.2733863911042
 31
0.0
  0
LINE
  5
10176
330
20
100
AcDbEntity
  8
90000_FRAME
  6
Continuous
 62
     7
100
AcDbLine
 10
123.8820698605824
 20
580.2733863911043
 30
0.0
 11
123.8820698605824
 21
598.2733863911042
 31
0.0
  0
LINE
  5
10177
330
20
100
AcDbEntity
  8
90000_FRAME
  6
Continuous
 62
     7
100
AcDbLine
 10
166.3820698605825
 20
580.2733863911043
 30
0.0
 11
166.3820698605825
 21
586.2733863911045
 31
0.0
  0
LINE
  5
10178
330
20
100
AcDbEntity
  8
90000_FRAME
  6
Continuous
 62
     7
100
AcDbLine
 10
208.8820698605825
 20
580.2733863911043
 30
0.0
 11
208.8820698605825
 21
598.2733863911042
 31
0.0
  0
TEXT
  5
10179
330
20
100
AcDbEntity
  8
90000_FRAME
  6
Continuous
 62
     7
100
AcDbText
 10
124.5420698605824
 20
582.1733863911044
 30
0.0
 40
2.2
  1
Format / Size: DIN A3
 41
0.7994987468660259
 72
     5
 11
157.9611174795823
 21
582.1733863911044
 31
0.0
100
AcDbText
  0
TEXT
  5
1017A
330
20
100
AcDbEntity
  8
90000_FRAME
  6
Continuous
 62
     7
100
AcDbText
 10
167.0420698605826
 20
582.1733863911044
 30
0.0
 40
2.2
  1
Massstab / Scale: 1:1
 41
0.7732634338148437
 72
     5
 11
197.9468317653825
 21
582.1733863911044
 31
0.0
100
AcDbText
  0
LINE
  5
1017B
330
20
100
AcDbEntity
  8
91000_TIP
  6
Continuous
 62
     7
100
AcDbLine
 10
48.69673996460836
 20
591.597123913475
 30
0.0
 11
58.6967397604085
 21
594.0971238624747
 31
0.0
  0
LINE
  5
1017C
330
20
100
AcDbEntity
  8
91000_TIP
  6
CENTER
 62
     7
100
AcDbLine
 10
47.41722949260736
 20
589.0971239645748
 30
0.0
 11
71.01921875670734
 21
589.0971239645748
 31
0.0
  0
LINE
  5
1017D
330
20
100
AcDbEntity
  8
91000_TIP
  6
Continuous
 62
     7
100
AcDbLine
 10
48.69673996460836
 20
586.5971240156749
 30
0.0
 11
58.6967397604085
 21
584.0971240666747
 31
0.0
  0
LINE
  5
1017E
330
20
100
AcDbEntity
  8
91000_TIP
  6
Continuous
 62
     7
100
AcDbLine
 10
48.69673996460836
 20
591.597123913475
 30
0.0
 11
48.69673996460836
 21
586.5971240156749
 31
0.0
  0
LINE
  5
1017F
330
20
100
AcDbEntity
  8
91000_TIP
  6
Continuous
 62
     7
100
AcDbLine
 10
58.6967397604085
 20
594.0971238624747
 30
0.0
 11
58.6967397604085
 21
584.0971240666747
 31
0.0
  0
LINE
  5
10180
330
20
100
AcDbEntity
  8
91000_TIP
  6
CENTER
 62
     7
100
AcDbLine
 10
65.19673962760839
 20
583.3756427581747
 30
0.0
 11
65.19673962760839
 21
594.6590287581749
 31
0.0
  0
CIRCLE
  5
10181
330
20
100
AcDbEntity
  8
91000_TIP
  6
Continuous
 62
     7
100
AcDbCircle
 10
65.19673962760839
 20
589.0971239645748
 30
0.0
 40
4.9999998979
  0
CIRCLE
  5
10182
330
20
100
AcDbEntity
  8
91000_TIP
  6
Continuous
 62
     7
100
AcDbCircle
 10
65.19673962760839
 20
589.0971239645748
 30
0.0
 40
2.499999948899997
  0
TEXT
  5
10183
330
20
100
AcDbEntity
  8
90000_FRAME
  6
Continuous
 62
     7
370
    20
100
AcDbText
 39
0.7
 10
137.1879943845332
 20
590.5233863911043
 30
0.0
 40
3.5
  1
3RU1946_00000217_000_ALL
 41
0.7373033857474681
 72
     5
 11
193.1001678037162
 21
590.5233863911043
 31
0.0
100
AcDbText
  0
LINE
  5
10184
330
20
100
AcDbEntity
  8
90000_FRAME
  6
Continuous
 62
     7
100
AcDbLine
 10
-191.1179301394168
 20
570.2733863911044
 30
0.0
 11
218.8820698605832
 21
570.2733863911044
 31
0.0
  0
LINE
  5
10185
330
20
100
AcDbEntity
  8
90000_FRAME
  6
Continuous
 62
     7
100
AcDbLine
 10
208.8820698605825
 20
580.2733863911043
 30
0.0
 11
208.8820698605825
 21
598.2733863911042
 31
0.0
  0
TEXT
  5
10186
330
20
100
AcDbEntity
  8
91000_TIP
  6
Continuous
 62
     7
100
AcDbText
 10
-184.1263053069353
 20
573.7556230127811
 30
0.0
 40
2.5
  1
All dimensions are in millimeters (mm).
 41
0.7513350295680251
 72
     5
 11
-124.0195029414933
 21
573.7556230127811
 31
0.0
100
AcDbText
  0
TEXT
  5
10187
330
20
100
AcDbEntity
  8
91000_TIP
  6
Continuous
 62
     7
100
AcDbText
 10
-184.1263053069353
 20
579.0056230127808
 30
0.0
 40
2.5
  1
Alle Bemassungswerte sind in Millimeter (mm) angegeben.
 41
0.605631121792455
 72
     5
 11
-110.4411854888532
 21
579.0056230127808
 31
0.0
100
AcDbText
  0
LINE
  5
10188
330
20
100
AcDbEntity
  8
90000_FRAME
  6
Continuous
 62
     7
100
AcDbLine
 10
-191.1179301394168
 20
570.2733863911044
 30
0.0
 11
-191.1179301394168
 21
840.2733863911043
 31
0.0
  0
LINE
  5
10189
330
20
100
AcDbEntity
  8
90000_FRAME
  6
Continuous
 62
     7
100
AcDbLine
 10
-191.1179301394168
 20
840.2733863911043
 30
0.0
 11
218.8820698605832
 21
840.2733863911043
 31
0.0
  0
CIRCLE
  5
1018A
330
20
100
AcDbEntity
  8
30000_Drilling
  6
Continuous
 62
     7
100
AcDbCircle
 39
0.7
 10
190.7950624591085
 20
792.0191165423918
 30
0.0
 40
2.5
1001
AUSTER_ANSICHT
1002
{
1000
Det03
1002
}
1001
AUSTER_FOLIE
1002
{
1000
NSB00342_S3
1002
}
  0
CIRCLE
  5
1018B
330
20
100
AcDbEntity
  8
30000_Drilling
  6
Continuous
 62
     7
100
AcDbCircle
 39
0.7
 10
131.2950624591085
 20
682.0164165423919
 30
0.0
 40
2.5
1001
AUSTER_ANSICHT
1002
{
1000
Det03
1002
}
1001
AUSTER_FOLIE
1002
{
1000
NSB00342_S3
1002
}
  0
DIMENSION
  5
1018C
330
20
100
AcDbEntity
  8
30100_Drilling_Dim
  6
Continuous
 62
     7
370
    13
100
AcDbDimension
  2
*D3
 10
193.1600220375839
 20
792.829651052562
 30
0.0
 11
172.3861396841077
 21
785.7098893826558
 31
0.0
 70
   163
 71
     5
 42
4.999999999999943
  3
H035
100
AcDbDiametricDimension
 15
188.430102880633
 25
791.2085820322215
 35
0.0
 40
0.0
1001
AUSTER_FOLIE
1002
{
1000
NSB00755_S3
1002
}
1001
AUSTER_ANSICHT
1002
{
1000
Det03
1002
}
1001
ACAD
1000
DSTYLE
1002
{
1070
    40
1040
1.0
1070
    77
1070
     0
1070
   147
1040
1.5
1070
   272
1070
     0
1070
   279
1070
     1
1070
   288
1070
     1
1002
}
  0
DIMENSION
  5
1018D
330
20
100
AcDbEntity
  8
30100_Drilling_Dim
  6
Continuous
 62
     7
370
    13
100
AcDbDimension
  2
*D2
 10
190.7950624591085
 20
801.3160564185618
 30
0.0
 11
161.0450624591085
 21
801.3160564185618
 31
0.0
 70
    32
 71
     5
 42
59.5
  3
H035
100
AcDbAlignedDimension
 13
131.2950624591085
 23
684.5164165423917
 33
0.0
 14
190.7950624591085
 24
794.5191165423917
 34
0.0
100
AcDbRotatedDimension
1001
AUSTER_FOLIE
1002
{
1000
NSB00755_S3
1002
}
1001
AUSTER_ANSICHT
1002
{
1000
Det03
1002
}
1001
ACAD
1000
DSTYLE
1002
{
1070
    40
1040
1.0
1070
    77
1070
     0
1070
   147
1040
1.5
1070
   272
1070
     0
1070
   279
1070
     1
1070
   288
1070
     1
1002
}
  0
DIMENSION
  5
1018E
330
20
100
AcDbEntity
  8
30100_Drilling_Dim
  6
Continuous
 62
     7
370
    13
100
AcDbDimension
  2
*D1
 10
118.5338668003013
 20
682.0164165423919
 30
0.0
 11
118.5338668003012
 21
737.0177665423917
 31
0.0
 70
    32
 71
     5
 42
110.0027
  3
H035
100
AcDbAlignedDimension
 13
188.2950624591085
 23
792.0191165423918
 33
0.0
 14
128.7950624591085
 24
682.0164165423919
 34
0.0
 50
90.0
100
AcDbRotatedDimension
1001
AUSTER_FOLIE
1002
{
1000
NSB00755_S3
1002
}
1001
AUSTER_ANSICHT
1002
{
1000
Det03
1002
}
1001
ACAD
1000
DSTYLE
1002
{
1070
    40
1040
1.0
1070
    77
1070
     0
1070
   147
1040
1.5
1070
   272
1070
     0
1070
   279
1070
     1
1070
   288
1070
     1
1002
}
  0
DIMENSION
  5
101E5
330
20
100
AcDbEntity
  8
10100_FRONT_DIM
  6
Continuous
 62
     7
370
    13
100
AcDbDimension
  2
*D4
 10
-93.17221852836286
 20
665.852967916725
 30
0.0
 11
-128.1722185283628
 21
665.852967916725
 31
0.0
 70
    32
 71
     5
 42
70.0
  3
H035
100
AcDbAlignedDimension
 13
-163.1722185283628
 23
678.5164165423918
 33
0.0
 14
-93.17221852836286
 24
678.5164165423918
 34
0.0
100
AcDbRotatedDimension
1001
ACAD
1000
DSTYLE
1002
{
1070
    40
1040
1.0
1070
    77
1070
     0
1070
   147
1040
1.5
1070
   272
1070
     0
1070
   279
1070
     1
1070
   288
1070
     1
1002
}
  0
DIMENSION
  5
101F2
330
20
100
AcDbEntity
  8
10100_FRONT_DIM
  6
Continuous
 62
     7
370
    13
100
AcDbDimension
  2
*D5
 10
-81.11338801018701
 20
677.0164165423917
 30
0.0
 11
-81.11338801018712
 21
737.0164165423918
 31
0.0
 70
    32
 71
     5
 42
120.0000000000001
  3
H035
100
AcDbAlignedDimension
 13
-94.67221852836289
 23
797.0164165423917
 33
0.0
 14
-94.67221852836289
 24
677.0164165423917
 34
0.0
 50
90.0
100
AcDbRotatedDimension
1001
ACAD
1000
DSTYLE
1002
{
1070
    40
1040
1.0
1070
    77
1070
     0
1070
   147
1040
1.5
1070
   272
1070
     0
1070
   279
1070
     1
1070
   288
1070
     1
1002
}
  0
DIMENSION
  5
103C6
330
20
100
AcDbEntity
  8
11100_LEFT_DIM
  6
Continuous
 62
     7
370
    13
100
AcDbDimension
  2
*D6
 10
22.55517503903062
 20
666.8150818482883
 30
0.0
 11
-6.633674960969387
 21
666.8150818482883
 31
0.0
 70
    32
 71
     5
 42
58.37769999999999
  3
H035
100
AcDbAlignedDimension
 13
-35.82252496096939
 23
721.4191165423918
 33
0.0
 14
22.55517503903062
 24
688.1691165423919
 34
0.0
100
AcDbRotatedDimension
1001
ACAD
1000
DSTYLE
1002
{
1070
    40
1040
1.0
1070
    77
1070
     0
1070
   147
1040
1.5
1070
   272
1070
     0
1070
   279
1070
     1
1070
   288
1070
     1
1002
}
  0
LINE
  5
103DC
330
20
100
AcDbEntity
  8
11000_Left
  6
DASHED
 62
     7
370
    20
100
AcDbLine
 39
0.25
 10
73.83457503903061
 20
727.8900165423918
 30
0.0
 11
77.83457503903061
 21
727.8900165423918
 31
0.0
1001
AUSTER_ANSICHT
1002
{
1000
Det03
1002
}
1001
AUSTER_FOLIE
1002
{
1000
NSB00342_S3
1002
}
  0
LINE
  5
103DD
330
20
100
AcDbEntity
  8
11000_Left
  6
DASHED
 62
     7
370
    20
100
AcDbLine
 39
0.25
 10
77.83457503903061
 20
727.8900165423918
 30
0.0
 11
77.83457503903061
 21
712.8900165423917
 31
0.0
1001
AUSTER_ANSICHT
1002
{
1000
Det03
1002
}
1001
AUSTER_FOLIE
1002
{
1000
NSB00342_S3
1002
}
  0
LINE
  5
103DE
330
20
100
AcDbEntity
  8
11000_Left
  6
DASHED
 62
     7
370
    20
100
AcDbLine
 39
0.25
 10
73.83457503903061
 20
712.8900165423917
 30
0.0
 11
73.83457503903061
 21
727.8900165423918
 31
0.0
1001
AUSTER_ANSICHT
1002
{
1000
Det03
1002
}
1001
AUSTER_FOLIE
1002
{
1000
NSB00342_S3
1002
}
  0
DIMENSION
  5
103E1
330
20
100
AcDbEntity
  8
11100_LEFT_DIM
  6
Continuous
 62
     7
370
    13
100
AcDbDimension
  2
*D7
 10
73.83457503903061
 20
658.4329288051216
 30
0.0
 11
19.0060250390306
 21
658.4329288051216
 31
0.0
 70
    32
 71
     5
 42
109.6571
  3
H035
100
AcDbAlignedDimension
 13
-35.82252496096939
 23
677.0191165423917
 33
0.0
 14
73.83457503903061
 24
712.8900165423917
 34
0.0
100
AcDbRotatedDimension
1001
ACAD
1000
DSTYLE
1002
{
1070
    40
1040
1.0
1070
    77
1070
     0
1070
   147
1040
1.5
1070
   272
1070
     0
1070
   279
1070
     1
1070
   288
1070
     1
1002
}
  0
DIMENSION
  5
103EE
330
20
100
AcDbEntity
  8
11100_LEFT_DIM
  6
Continuous
 62
     7
370
    13
100
AcDbDimension
  2
*D8
 10
99.17897503903059
 20
650.4666708195412
 30
0.0
 11
31.67822503903061
 21
650.4666708195412
 31
0.0
 70
    32
 71
     5
 42
135.0015
  3
H035
100
AcDbAlignedDimension
 13
-35.82252496096939
 23
677.0191165423917
 33
0.0
 14
99.17897503903059
 24
735.7691165423918
 34
0.0
100
AcDbRotatedDimension
1001
ACAD
1000
DSTYLE
1002
{
1070
    40
1040
1.0
1070
    77
1070
     0
1070
   147
1040
1.5
1070
   272
1070
     0
1070
   279
1070
     1
1070
   288
1070
     1
1002
}
  0
LINE
  5
1070B
330
20
100
AcDbEntity
  8
11000_Left
  6
Continuous
 62
     7
370
    20
100
AcDbLine
 39
0.7
 10
82.87747503903062
 20
773.7691165423917
 30
0.0
 11
18.66107503903061
 21
773.7691165423917
 31
0.0
1001
AUSTER_ANSICHT
1002
{
1000
Det03
1002
}
1001
AUSTER_FOLIE
1002
{
1000
NSB00342_S3
1002
}
  0
LINE
  5
1070C
330
20
100
AcDbEntity
  8
11000_Left
  6
Continuous
 62
     7
370
    50
100
AcDbLine
 39
0.7
 10
90.38637489940427
 20
790.8691163423918
 30
0.0
 11
18.57747503903062
 21
790.8691163423918
 31
0.0
1001
AUSTER_ANSICHT
1002
{
1000
Det03
1002
}
1001
AUSTER_FOLIE
1002
{
1000
NSB00342_S3
1002
}
  0
CIRCLE
  5
1070D
330
20
100
AcDbEntity
  8
10000_FRONT
  6
Continuous
 62
     7
370
    20
100
AcDbCircle
 39
0.7
 10
-158.1722185283628
 20
682.0164165423918
 30
0.0
 40
2.5
1001
AUSTER_ANSICHT
1002
{
1000
Det03
1002
}
1001
AUSTER_FOLIE
1002
{
1000
NSB_TRAGER_S3
1002
}
  0
LINE
  5
10710
330
20
100
AcDbEntity
  8
10000_FRONT
  6
Continuous
 62
     7
370
    20
100
AcDbLine
 39
0.25
 10
-131.4222185283627
 20
677.7164165423917
 30
0.0
 11
-131.4222185283627
 21
683.7164165423919
 31
0.0
1001
AUSTER_ANSICHT
1002
{
1000
Det03
1002
}
1001
AUSTER_FOLIE
1002
{
1000
NSB00342_S3
1002
}
  0
CIRCLE
  5
10713
330
20
100
AcDbEntity
  8
10000_FRONT
  6
Continuous
 62
     7
370
    20
100
AcDbCircle
 39
0.25
 10
-128.1662185283628
 20
780.9524165423917
 30
0.0
 40
3.0
1001
AUSTER_ANSICHT
1002
{
1000
Det03
1002
}
1001
AUSTER_FOLIE
1002
{
1000
NSB_TRAGER_S3
1002
}
  0
CIRCLE
  5
10714
330
20
100
AcDbEntity
  8
10000_FRONT
  6
Continuous
 62
     7
370
    20
100
AcDbCircle
 39
0.25
 10
-105.6632185283628
 20
780.9454165423918
 30
0.0
 40
3.0
1001
AUSTER_ANSICHT
1002
{
1000
Det03
1002
}
1001
AUSTER_FOLIE
1002
{
1000
NSB_TRAGER_S3
1002
}
  0
LINE
  5
10715
330
20
100
AcDbEntity
  8
10000_FRONT
  6
Continuous
 62
     7
370
    20
100
AcDbLine
 39
0.25
 10
-130.4762185283627
 20
780.9524165423917
 30
0.0
 11
-129.3212185283627
 21
782.9524165423918
 31
0.0
1001
AUSTER_ANSICHT
1002
{
1000
Det03
1002
}
1001
AUSTER_FOLIE
1002
{
1000
NSB_TRAGER_S3
1002
}
  0
LINE
  5
10716
330
20
100
AcDbEntity
  8
10000_FRONT
  6
Continuous
 62
     7
370
    20
100
AcDbLine
 39
0.25
 10
-129.3212185283627
 20
782.9524165423918
 30
0.0
 11
-127.0122185283627
 21
782.9524165423918
 31
0.0
1001
AUSTER_ANSICHT
1002
{
1000
Det03
1002
}
1001
AUSTER_FOLIE
1002
{
1000
NSB_TRAGER_S3
1002
}
  0
LINE
  5
10717
330
20
100
AcDbEntity
  8
10000_FRONT
  6
Continuous
 62
     7
370
    20
100
AcDbLine
 39
0.25
 10
-127.0122185283627
 20
782.9524165423918
 30
0.0
 11
-125.8572185283628
 21
780.9524165423917
 31
0.0
1001
AUSTER_ANSICHT
1002
{
1000
Det03
1002
}
1001
AUSTER_FOLIE
1002
{
1000
NSB_TRAGER_S3
1002
}
  0
LINE
  5
10718
330
20
100
AcDbEntity
  8
10000_FRONT
  6
Continuous
 62
     7
370
    20
100
AcDbLine
 39
0.25
 10
-130.4762185283627
 20
780.9524165423917
 30
0.0
 11
-129.3212185283627
 21
778.9524165423918
 31
0.0
1001
AUSTER_ANSICHT
1002
{
1000
Det03
1002
}
1001
AUSTER_FOLIE
1002
{
1000
NSB_TRAGER_S3
1002
}
  0
LINE
  5
10719
330
20
100
AcDbEntity
  8
10000_FRONT
  6
Continuous
 62
     7
370
    20
100
AcDbLine
 39
0.25
 10
-129.3212185283627
 20
778.9524165423918
 30
0.0
 11
-127.0122185283627
 21
778.9524165423918
 31
0.0
1001
AUSTER_ANSICHT
1002
{
1000
Det03
1002
}
1001
AUSTER_FOLIE
1002
{
1000
NSB_TRAGER_S3
1002
}
  0
LINE
  5
1071A
330
20
100
AcDbEntity
  8
10000_FRONT
  6
Continuous
 62
     7
370
    20
100
AcDbLine
 39
0.25
 10
-127.0122185283627
 20
778.9524165423918
 30
0.0
 11
-125.8572185283628
 21
780.9524165423917
 31
0.0
1001
AUSTER_ANSICHT
1002
{
1000
Det03
1002
}
1001
AUSTER_FOLIE
1002
{
1000
NSB_TRAGER_S3
1002
}
  0
LINE
  5
1071B
330
20
100
AcDbEntity
  8
10000_FRONT
  6
Continuous
 62
     7
370
    20
100
AcDbLine
 39
0.25
 10
-107.9732185283628
 20
780.9454165423918
 30
0.0
 11
-106.8182185283627
 21
778.9454165423919
 31
0.0
1001
AUSTER_ANSICHT
1002
{
1000
Det03
1002
}
1001
AUSTER_FOLIE
1002
{
1000
NSB_TRAGER_S3
1002
}
  0
LINE
  5
1071C
330
20
100
AcDbEntity
  8
10000_FRONT
  6
Continuous
 62
     7
370
    20
100
AcDbLine
 39
0.25
 10
-107.9732185283628
 20
780.9454165423918
 30
0.0
 11
-106.8182185283627
 21
782.9454165423919
 31
0.0
1001
AUSTER_ANSICHT
1002
{
1000
Det03
1002
}
1001
AUSTER_FOLIE
1002
{
1000
NSB_TRAGER_S3
1002
}
  0
LINE
  5
1071D
330
20
100
AcDbEntity
  8
10000_FRONT
  6
Continuous
 62
     7
370
    20
100
AcDbLine
 39
0.25
 10
-106.8182185283627
 20
778.9454165423919
 30
0.0
 11
-104.5092185283628
 21
778.9454165423919
 31
0.0
1001
AUSTER_ANSICHT
1002
{
1000
Det03
1002
}
1001
AUSTER_FOLIE
1002
{
1000
NSB_TRAGER_S3
1002
}
  0
LINE
  5
1071E
330
20
100
AcDbEntity
  8
10000_FRONT
  6
Continuous
 62
     7
370
    20
100
AcDbLine
 39
0.25
 10
-106.8182185283627
 20
782.9454165423919
 30
0.0
 11
-104.5092185283628
 21
782.9454165423919
 31
0.0
1001
AUSTER_ANSICHT
1002
{
1000
Det03
1002
}
1001
AUSTER_FOLIE
1002
{
1000
NSB_TRAGER_S3
1002
}
  0
LINE
  5
1071F
330
20
100
AcDbEntity
  8
10000_FRONT
  6
Continuous
 62
     7
370
    20
100
AcDbLine
 39
0.25
 10
-104.5092185283628
 20
778.9454165423919
 30
0.0
 11
-103.3542185283627
 21
780.9454165423918
 31
0.0
1001
AUSTER_ANSICHT
1002
{
1000
Det03
1002
}
1001
AUSTER_FOLIE
1002
{
1000
NSB_TRAGER_S3
1002
}
  0
LINE
  5
10720
330
20
100
AcDbEntity
  8
10000_FRONT
  6
Continuous
 62
     7
370
    20
100
AcDbLine
 39
0.25
 10
-104.5092185283628
 20
782.9454165423919
 30
0.0
 11
-103.3542185283627
 21
780.9454165423918
 31
0.0
1001
AUSTER_ANSICHT
1002
{
1000
Det03
1002
}
1001
AUSTER_FOLIE
1002
{
1000
NSB_TRAGER_S3
1002
}
  0
CIRCLE
  5
10721
330
20
100
AcDbEntity
  8
10000_FRONT
  6
Continuous
 62
     7
370
    20
100
AcDbCircle
 39
0.25
 10
-150.6632185283628
 20
780.9454165423918
 30
0.0
 40
3.0
1001
AUSTER_ANSICHT
1002
{
1000
Det03
1002
}
1001
AUSTER_FOLIE
1002
{
1000
NSB_TRAGER_S3
1002
}
  0
LINE
  5
10722
330
20
100
AcDbEntity
  8
10000_FRONT
  6
Continuous
 62
     7
370
    20
100
AcDbLine
 39
0.25
 10
-152.9732185283628
 20
780.9454165423918
 30
0.0
 11
-151.8182185283627
 21
782.9454165423919
 31
0.0
1001
AUSTER_ANSICHT
1002
{
1000
Det03
1002
}
1001
AUSTER_FOLIE
1002
{
1000
NSB_TRAGER_S3
1002
}
  0
LINE
  5
10723
330
20
100
AcDbEntity
  8
10000_FRONT
  6
Continuous
 62
     7
370
    20
100
AcDbLine
 39
0.25
 10
-151.8182185283627
 20
782.9454165423919
 30
0.0
 11
-149.5092185283628
 21
782.9454165423919
 31
0.0
1001
AUSTER_ANSICHT
1002
{
1000
Det03
1002
}
1001
AUSTER_FOLIE
1002
{
1000
NSB_TRAGER_S3
1002
}
  0
LINE
  5
10724
330
20
100
AcDbEntity
  8
10000_FRONT
  6
Continuous
 62
     7
370
    20
100
AcDbLine
 39
0.25
 10
-149.5092185283628
 20
782.9454165423919
 30
0.0
 11
-148.3542185283627
 21
780.9454165423918
 31
0.0
1001
AUSTER_ANSICHT
1002
{
1000
Det03
1002
}
1001
AUSTER_FOLIE
1002
{
1000
NSB_TRAGER_S3
1002
}
  0
LINE
  5
10725
330
20
100
AcDbEntity
  8
10000_FRONT
  6
Continuous
 62
     7
370
    20
100
AcDbLine
 39
0.25
 10
-152.9732185283628
 20
780.9454165423918
 30
0.0
 11
-151.8182185283627
 21
778.9454165423919
 31
0.0
1001
AUSTER_ANSICHT
1002
{
1000
Det03
1002
}
1001
AUSTER_FOLIE
1002
{
1000
NSB_TRAGER_S3
1002
}
  0
LINE
  5
10726
330
20
100
AcDbEntity
  8
10000_FRONT
  6
Continuous
 62
     7
370
    20
100
AcDbLine
 39
0.25
 10
-151.8182185283627
 20
778.9454165423919
 30
0.0
 11
-149.5092185283628
 21
778.9454165423919
 31
0.0
1001
AUSTER_ANSICHT
1002
{
1000
Det03
1002
}
1001
AUSTER_FOLIE
1002
{
1000
NSB_TRAGER_S3
1002
}
  0
LINE
  5
10727
330
20
100
AcDbEntity
  8
10000_FRONT
  6
Continuous
 62
     7
370
    20
100
AcDbLine
 39
0.25
 10
-149.5092185283628
 20
778.9454165423919
 30
0.0
 11
-148.3542185283627
 21
780.9454165423918
 31
0.0
1001
AUSTER_ANSICHT
1002
{
1000
Det03
1002
}
1001
AUSTER_FOLIE
1002
{
1000
NSB_TRAGER_S3
1002
}
  0
ENDSEC
  0
SECTION
  2
OBJECTS
  0
DICTIONARY
  5
C
330
0
100
AcDbDictionary
281
     1
  3
ACAD_COLOR
350
1B
  3
ACAD_GROUP
350
D
  3
ACAD_LAYOUT
350
19
  3
ACAD_MATERIAL
350
1A
  3
ACAD_MLINESTYLE
350
16
  3
ACAD_PLOTSETTINGS
350
18
  3
ACAD_PLOTSTYLENAME
350
E
  3
ACDBHEADERROUNDTRIPXREC
350
10740
  3
AcDbVariableDictionary
350
687E
  3
DWGPROPS
350
1073F
  0
DICTIONARY
  5
1B
102
{ACAD_REACTORS
330
C
102
}
330
C
100
AcDbDictionary
281
     1
  0
DICTIONARY
  5
D
102
{ACAD_REACTORS
330
C
102
}
330
C
100
AcDbDictionary
281
     1
  0
DICTIONARY
  5
19
102
{ACAD_REACTORS
330
C
102
}
330
C
100
AcDbDictionary
281
     1
  3
Layout1
350
1F
  3
Model
350
23
  0
DICTIONARY
  5
1A
102
{ACAD_REACTORS
330
C
102
}
330
C
100
AcDbDictionary
281
     1
  0
DICTIONARY
  5
16
102
{ACAD_REACTORS
330
C
102
}
330
C
100
AcDbDictionary
281
     1
  3
Standard
350
17
  0
DICTIONARY
  5
18
102
{ACAD_REACTORS
330
C
102
}
330
C
100
AcDbDictionary
281
     1
  0
ACDBDICTIONARYWDFLT
  5
E
102
{ACAD_REACTORS
330
C
102
}
330
C
100
AcDbDictionary
281
     1
  3
Normal
350
F
100
AcDbDictionaryWithDefault
340
F
  0
DICTIONARY
  5
10740
102
{ACAD_REACTORS
330
C
102
}
330
C
100
AcDbDictionary
281
     1
  3
COLORDICT
350
10742
  3
MATERIALDICT
350
10741
  0
DICTIONARY
  5
687E
102
{ACAD_REACTORS
330
C
102
}
330
C
100
AcDbDictionary
281
     1
  3
DIMASSOC
350
687F
  3
PROJECTNAME
350
6880
  0
XRECORD
  5
1073F
102
{ACAD_REACTORS
330
C
102
}
330
C
100
AcDbXrecord
280
     1
  1
DWGPROPS COOKIE
  2

  3

  4

  6

  7

  8

  9

300
=
301
=
302
=
303
=
304
=
305
=
306
=
307
=
308
=
309
=
 40
2.464854097222222
 41
2452829.417613079
 42
2453424.697162257
  1

 90
        0
  0
LAYOUT
  5
1F
102
{ACAD_XDICTIONARY
360
10743
102
}
102
{ACAD_REACTORS
330
19
102
}
330
19
100
AcDbPlotSettings
  1

  2
HP LaserJet 5000 Series PS
  4

  6

 40
0.0
 41
0.0
 42
0.0
 43
0.0
 44
0.0
 45
0.0
 46
0.0
 47
0.0
 48
0.0
 49
0.0
140
0.0
141
0.0
142
1.0
143
1.0
 70
   688
 72
     0
 73
     0
 74
     5
  7
monochrome.ctb
 75
    16
147
1.0
148
0.0
149
0.0
100
AcDbLayout
  1
Layout1
 70
     1
 71
     1
 10
0.0
 20
0.0
 11
12.0
 21
9.0
 12
0.0
 22
0.0
 32
0.0
 14
1.000000000000000E+20
 24
1.000000000000000E+20
 34
1.000000000000000E+20
 15
-1.000000000000000E+20
 25
-1.000000000000000E+20
 35
-1.000000000000000E+20
146
0.0
 13
0.0
 23
0.0
 33
0.0
 16
1.0
 26
0.0
 36
0.0
 17
0.0
 27
1.0
 37
0.0
 76
     0
330
1C
  0
LAYOUT
  5
23
102
{ACAD_XDICTIONARY
360
10745
102
}
102
{ACAD_REACTORS
330
19
102
}
330
19
100
AcDbPlotSettings
  1

  2
\\AMBW779A\A_P00873 (Canon iR2200-3300 PCL6)
  4
A3
  6

 40
4.815416812896728
 41
4.815412044525146
 42
4.815399169921875
 43
4.8154296875
 44
296.9259948730469
 45
419.9466552734373
 46
0.0
 47
0.0
 48
0.0
 49
0.0
140
0.0
141
0.0
142
1.0
143
1.0
 70
 11952
 72
     1
 73
     1
 74
     1
  7
monochrome.ctb
 75
    16
147
1.0
148
191.1473567945209
149
-570.2640499117037
100
AcDbLayout
  1
Model
 70
     1
 71
     0
 10
0.0
 20
0.0
 11
12.0
 21
9.0
 12
0.0
 22
0.0
 32
0.0
 14
0.0
 24
0.0
 34
0.0
 15
0.0
 25
0.0
 35
0.0
146
0.0
 13
0.0
 23
0.0
 33
0.0
 16
1.0
 26
0.0
 36
0.0
 17
0.0
 27
1.0
 37
0.0
 76
     0
330
20
  0
MLINESTYLE
  5
17
102
{ACAD_REACTORS
330
16
102
}
330
16
100
AcDbMlineStyle
  2
STANDARD
 70
     0
  3

 62
   256
 51
90.0
 52
90.0
 71
     2
 49
0.5
 62
   256
  6
BYLAYER
 49
-0.5
 62
   256
  6
BYLAYER
  0
ACDBPLACEHOLDER
  5
F
102
{ACAD_REACTORS
330
E
102
}
330
E
  0
XRECORD
  5
10742
102
{ACAD_REACTORS
330
10740
102
}
330
10740
100
AcDbXrecord
280
     1
340
1B
  0
XRECORD
  5
10741
102
{ACAD_REACTORS
330
10740
102
}
330
10740
100
AcDbXrecord
280
     1
340
1A
  0
DICTIONARYVAR
  5
687F
102
{ACAD_REACTORS
330
687E
102
}
330
687E
100
DictionaryVariables
280
     0
  1
1
  0
DICTIONARYVAR
  5
6880
102
{ACAD_REACTORS
330
687E
102
}
330
687E
100
DictionaryVariables
280
     0
  1

  0
DICTIONARY
  5
10743
330
1F
100
AcDbDictionary
280
     1
281
     1
  3
ACAD_XREC_ROUNDTRIP
360
10744
  0
DICTIONARY
  5
10745
330
23
100
AcDbDictionary
280
     1
281
     1
  3
ACAD_XREC_ROUNDTRIP
360
10746
  0
XRECORD
  5
10744
102
{ACAD_REACTORS
330
10743
102
}
330
10743
100
AcDbXrecord
280
     1
102
SHADEPLOT
 70
     0
102
SHADEPLOTRESLEVEL
 70
     2
102
SHADEPLOTCUSTOMDPI
 70
   300
  0
XRECORD
  5
10746
102
{ACAD_REACTORS
330
10745
102
}
330
10745
100
AcDbXrecord
280
     1
102
SHADEPLOT
 70
     1
102
SHADEPLOTRESLEVEL
 70
     2
102
SHADEPLOTCUSTOMDPI
 70
   300
  0
ENDSEC
  0
EOF
