  0
SECTION
  2
HEADER
  9
$ACADVER
  1
AC1015
  9
$ACADMAINTVER
 70
    20
  9
$DWGCODEPAGE
  3
ANSI_1252
  9
$INSBASE
 10
0.0
 20
0.0
 30
0.0
  9
$EXTMIN
 10
69.39541662230897
 20
288.7994897070327
 30
-1.0
  9
$EXTMAX
 10
339.3954166223088
 20
488.7994897070324
 30
0.7
  9
$LIMMIN
 10
0.0
 20
0.0
  9
$LIMMAX
 10
420.0
 20
297.0
  9
$ORTHOMODE
 70
     0
  9
$REGENMODE
 70
     1
  9
$FILLMODE
 70
     1
  9
$QTEXTMODE
 70
     0
  9
$MIRRTEXT
 70
     0
  9
$LTSCALE
 40
23.1
  9
$ATTMODE
 70
     1
  9
$TEXTSIZE
 40
0.2
  9
$TRACEWID
 40
0.05
  9
$TEXTSTYLE
  7
Standard
  9
$CLAYER
  8
0
  9
$CELTYPE
  6
ByLayer
  9
$CECOLOR
 62
   256
  9
$CELTSCALE
 40
1.0
  9
$DISPSILH
 70
     0
  9
$DIMSCALE
 40
0.0
  9
$DIMASZ
 40
3.5
  9
$DIMEXO
 40
0.0
  9
$DIMDLI
 40
3.75
  9
$DIMRND
 40
0.0
  9
$DIMDLE
 40
0.0
  9
$DIMEXE
 40
2.0
  9
$DIMTP
 40
0.0
  9
$DIMTM
 40
0.0
  9
$DIMTXT
 40
3.5
  9
$DIMCEN
 40
2.5
  9
$DIMTSZ
 40
0.0
  9
$DIMTOL
 70
     0
  9
$DIMLIM
 70
     0
  9
$DIMTIH
 70
     0
  9
$DIMTOH
 70
     0
  9
$DIMSE1
 70
     0
  9
$DIMSE2
 70
     0
  9
$DIMTAD
 70
     1
  9
$DIMZIN
 70
     8
  9
$DIMBLK
  1

  9
$DIMASO
 70
     1
  9
$DIMSHO
 70
     1
  9
$DIMPOST
  1

  9
$DIMAPOST
  1

  9
$DIMALT
 70
     0
  9
$DIMALTD
 70
     4
  9
$DIMALTF
 40
0.039
  9
$DIMLFAC
 40
1.0
  9
$DIMTOFL
 70
     1
  9
$DIMTVP
 40
0.0
  9
$DIMTIX
 70
     0
  9
$DIMSOXD
 70
     0
  9
$DIMSAH
 70
     0
  9
$DIMBLK1
  1

  9
$DIMBLK2
  1

  9
$DIMSTYLE
  2
H035
  9
$DIMCLRD
 70
   256
  9
$DIMCLRE
 70
     7
  9
$DIMCLRT
 70
     7
  9
$DIMTFAC
 40
1.0
  9
$DIMGAP
 40
0.5
  9
$DIMJUST
 70
     0
  9
$DIMSD1
 70
     0
  9
$DIMSD2
 70
     0
  9
$DIMTOLJ
 70
     1
  9
$DIMTZIN
 70
     0
  9
$DIMALTZ
 70
     0
  9
$DIMALTTZ
 70
     0
  9
$DIMUPT
 70
     0
  9
$DIMDEC
 70
     0
  9
$DIMTDEC
 70
     2
  9
$DIMALTU
 70
     8
  9
$DIMALTTD
 70
     4
  9
$DIMTXSTY
  7
Standard
  9
$DIMAUNIT
 70
     0
  9
$DIMADEC
 70
     0
  9
$DIMALTRND
 40
0.0
  9
$DIMAZIN
 70
     0
  9
$DIMDSEP
 70
    46
  9
$DIMATFIT
 70
     3
  9
$DIMFRAC
 70
     0
  9
$DIMLDRBLK
  1

  9
$DIMLUNIT
 70
     2
  9
$DIMLWD
 70
    -2
  9
$DIMLWE
 70
    -2
  9
$DIMTMOVE
 70
     0
  9
$LUNITS
 70
     2
  9
$LUPREC
 70
     4
  9
$SKETCHINC
 40
0.1
  9
$FILLETRAD
 40
0.5
  9
$AUNITS
 70
     0
  9
$AUPREC
 70
     0
  9
$MENU
  1
.
  9
$ELEVATION
 40
0.0
  9
$PELEVATION
 40
0.0
  9
$THICKNESS
 40
0.0
  9
$LIMCHECK
 70
     0
  9
$CHAMFERA
 40
0.0
  9
$CHAMFERB
 40
0.0
  9
$CHAMFERC
 40
0.0
  9
$CHAMFERD
 40
0.0
  9
$SKPOLY
 70
     0
  9
$TDCREATE
 40
2452829.417613079
  9
$TDUCREATE
 40
2452829.375946412
  9
$TDUPDATE
 40
2453425.325984433
  9
$TDUUPDATE
 40
2453425.284317766
  9
$TDINDWG
 40
1.6706467824
  9
$TDUSRTIMER
 40
1.6706411806
  9
$USRTIMER
 70
     1
  9
$ANGBASE
 50
0.0
  9
$ANGDIR
 70
     0
  9
$PDMODE
 70
     0
  9
$PDSIZE
 40
0.0
  9
$PLINEWID
 40
0.0
  9
$SPLFRAME
 70
     0
  9
$SPLINETYPE
 70
     6
  9
$SPLINESEGS
 70
     8
  9
$HANDSEED
  5
8F8C
  9
$SURFTAB1
 70
     6
  9
$SURFTAB2
 70
     6
  9
$SURFTYPE
 70
     6
  9
$SURFU
 70
     6
  9
$SURFV
 70
     6
  9
$UCSBASE
  2

  9
$UCSNAME
  2

  9
$UCSORG
 10
0.0
 20
0.0
 30
0.0
  9
$UCSXDIR
 10
1.0
 20
0.0
 30
0.0
  9
$UCSYDIR
 10
0.0
 20
1.0
 30
0.0
  9
$UCSORTHOREF
  2

  9
$UCSORTHOVIEW
 70
     0
  9
$UCSORGTOP
 10
0.0
 20
0.0
 30
0.0
  9
$UCSORGBOTTOM
 10
0.0
 20
0.0
 30
0.0
  9
$UCSORGLEFT
 10
0.0
 20
0.0
 30
0.0
  9
$UCSORGRIGHT
 10
0.0
 20
0.0
 30
0.0
  9
$UCSORGFRONT
 10
0.0
 20
0.0
 30
0.0
  9
$UCSORGBACK
 10
0.0
 20
0.0
 30
0.0
  9
$PUCSBASE
  2

  9
$PUCSNAME
  2

  9
$PUCSORG
 10
0.0
 20
0.0
 30
0.0
  9
$PUCSXDIR
 10
1.0
 20
0.0
 30
0.0
  9
$PUCSYDIR
 10
0.0
 20
1.0
 30
0.0
  9
$PUCSORTHOREF
  2

  9
$PUCSORTHOVIEW
 70
     0
  9
$PUCSORGTOP
 10
0.0
 20
0.0
 30
0.0
  9
$PUCSORGBOTTOM
 10
0.0
 20
0.0
 30
0.0
  9
$PUCSORGLEFT
 10
0.0
 20
0.0
 30
0.0
  9
$PUCSORGRIGHT
 10
0.0
 20
0.0
 30
0.0
  9
$PUCSORGFRONT
 10
0.0
 20
0.0
 30
0.0
  9
$PUCSORGBACK
 10
0.0
 20
0.0
 30
0.0
  9
$USERI1
 70
     0
  9
$USERI2
 70
     0
  9
$USERI3
 70
     0
  9
$USERI4
 70
     0
  9
$USERI5
 70
     0
  9
$USERR1
 40
0.0
  9
$USERR2
 40
0.0
  9
$USERR3
 40
0.0
  9
$USERR4
 40
0.0
  9
$USERR5
 40
0.0
  9
$WORLDVIEW
 70
     1
  9
$SHADEDGE
 70
     3
  9
$SHADEDIF
 70
    70
  9
$TILEMODE
 70
     1
  9
$MAXACTVP
 70
    64
  9
$PINSBASE
 10
0.0
 20
0.0
 30
0.0
  9
$PLIMCHECK
 70
     0
  9
$PEXTMIN
 10
1.000000000000000E+20
 20
1.000000000000000E+20
 30
1.000000000000000E+20
  9
$PEXTMAX
 10
-1.000000000000000E+20
 20
-1.000000000000000E+20
 30
-1.000000000000000E+20
  9
$PLIMMIN
 10
0.0
 20
0.0
  9
$PLIMMAX
 10
12.0
 20
9.0
  9
$UNITMODE
 70
     0
  9
$VISRETAIN
 70
     1
  9
$PLINEGEN
 70
     0
  9
$PSLTSCALE
 70
     1
  9
$TREEDEPTH
 70
  3020
  9
$CMLSTYLE
  2
Standard
  9
$CMLJUST
 70
     0
  9
$CMLSCALE
 40
1.0
  9
$PROXYGRAPHICS
 70
     1
  9
$MEASUREMENT
 70
     0
  9
$CELWEIGHT
370
    -1
  9
$ENDCAPS
280
     0
  9
$JOINSTYLE
280
     0
  9
$LWDISPLAY
290
     0
  9
$INSUNITS
 70
     0
  9
$HYPERLINKBASE
  1

  9
$STYLESHEET
  1
MONOCHROME.CTB
  9
$XEDIT
290
     1
  9
$CEPSNTYPE
380
     0
  9
$PSTYLEMODE
290
     1
  9
$FINGERPRINTGUID
  2
{D88032C4-1185-41D3-97DD-7638FCF99E3F}
  9
$VERSIONGUID
  2
{23A2E2A1-1C8C-499F-855B-A67A37639306}
  9
$EXTNAMES
290
     1
  9
$PSVPSCALE
 40
0.0
  9
$OLESTARTUP
290
     0
  0
ENDSEC
  0
SECTION
  2
CLASSES
  0
CLASS
  1
ACDBDICTIONARYWDFLT
  2
AcDbDictionaryWithDefault
  3
ObjectDBX Classes
 90
        0
280
     0
281
     0
  0
CLASS
  1
DICTIONARYVAR
  2
AcDbDictionaryVar
  3
ObjectDBX Classes
 90
        0
280
     0
281
     0
  0
CLASS
  1
ACDBPLACEHOLDER
  2
AcDbPlaceHolder
  3
ObjectDBX Classes
 90
        0
280
     0
281
     0
  0
CLASS
  1
LAYOUT
  2
AcDbLayout
  3
ObjectDBX Classes
 90
        0
280
     0
281
     0
  0
ENDSEC
  0
SECTION
  2
TABLES
  0
TABLE
  2
VPORT
  5
8
330
0
100
AcDbSymbolTable
 70
     2
  0
VPORT
  5
8F83
330
8
100
AcDbSymbolTableRecord
100
AcDbViewportTableRecord
  2
*Active
 70
     0
 10
0.0
 20
0.0
 11
1.0
 21
1.0
 12
204.3958448962547
 22
391.2883431504351
 13
0.0
 23
0.0
 14
1.0
 24
1.0
 15
0.0
 25
0.0
 16
0.0
 26
0.0
 36
1.0
 17
0.0
 27
0.0
 37
0.0
 40
206.5919512969533
 41
1.571994715984147
 42
50.0
 43
0.0
 44
0.0
 50
0.0
 51
0.0
 71
     0
 72
   100
 73
     1
 74
     1
 75
     0
 76
     0
 77
     0
 78
     0
281
     0
 65
     1
110
0.0
120
0.0
130
0.0
111
1.0
121
0.0
131
0.0
112
0.0
122
1.0
132
0.0
 79
     0
146
0.0
  0
ENDTAB
  0
TABLE
  2
LTYPE
  5
5
330
0
100
AcDbSymbolTable
 70
     3
  0
LTYPE
  5
13
330
5
100
AcDbSymbolTableRecord
100
AcDbLinetypeTableRecord
  2
ByBlock
 70
     0
  3

 72
    65
 73
     0
 40
0.0
  0
LTYPE
  5
14
330
5
100
AcDbSymbolTableRecord
100
AcDbLinetypeTableRecord
  2
ByLayer
 70
     0
  3

 72
    65
 73
     0
 40
0.0
  0
LTYPE
  5
15
330
5
100
AcDbSymbolTableRecord
100
AcDbLinetypeTableRecord
  2
CONTINUOUS
 70
     0
  3
Solid line
 72
    65
 73
     0
 40
0.0
  0
LTYPE
  5
26
330
5
100
AcDbSymbolTableRecord
100
AcDbLinetypeTableRecord
  2
CENTER
 70
     0
  3
____ _ ____ _ ____ _ ____ _ ____ _ ____ _ ____
 72
    65
 73
     4
 40
0.6
 49
0.375
 74
     0
 49
-0.075
 74
     0
 49
0.075
 74
     0
 49
-0.075
 74
     0
  0
LTYPE
  5
4F7A
330
5
100
AcDbSymbolTableRecord
100
AcDbLinetypeTableRecord
  2
DASHED
 70
     0
  3
_ _ _ _ _ _ _ _ _ _ _ _ _ _ _ _ _ _ _ _ _ _ _ _
 72
    65
 73
     2
 40
0.375
 49
0.25
 74
     0
 49
-0.125
 74
     0
  0
ENDTAB
  0
TABLE
  2
LAYER
  5
2
330
0
100
AcDbSymbolTable
 70
    10
  0
LAYER
  5
10
330
2
100
AcDbSymbolTableRecord
100
AcDbLayerTableRecord
  2
0
 70
     0
 62
     7
  6
CONTINUOUS
370
    -3
390
F
  0
LAYER
  5
1D8
330
2
100
AcDbSymbolTableRecord
100
AcDbLayerTableRecord
  2
Defpoints
 70
     0
 62
     7
  6
CONTINUOUS
290
     0
370
    -3
390
F
  0
LAYER
  5
1D9
330
2
100
AcDbSymbolTableRecord
100
AcDbLayerTableRecord
  2
91000_TIP
 70
     0
 62
     7
  6
CONTINUOUS
370
    -3
390
F
  0
LAYER
  5
1DA
330
2
100
AcDbSymbolTableRecord
100
AcDbLayerTableRecord
  2
11000_Left
 70
     0
 62
     7
  6
CONTINUOUS
370
    -3
390
F
  0
LAYER
  5
1DB
330
2
100
AcDbSymbolTableRecord
100
AcDbLayerTableRecord
  2
10000_FRONT
 70
     0
 62
     7
  6
CONTINUOUS
370
    -3
390
F
  0
LAYER
  5
1DC
330
2
100
AcDbSymbolTableRecord
100
AcDbLayerTableRecord
  2
10100_FRONT_DIM
 70
     0
 62
     7
  6
CONTINUOUS
370
    -3
390
F
  0
LAYER
  5
1DD
330
2
100
AcDbSymbolTableRecord
100
AcDbLayerTableRecord
  2
90000_FRAME
 70
     0
 62
     7
  6
CONTINUOUS
370
    -3
390
F
  0
LAYER
  5
1DE
330
2
100
AcDbSymbolTableRecord
100
AcDbLayerTableRecord
  2
11100_LEFT_DIM
 70
     0
 62
     7
  6
CONTINUOUS
370
    -3
390
F
  0
LAYER
  5
8E71
330
2
100
AcDbSymbolTableRecord
100
AcDbLayerTableRecord
  2
30000_Drilling
 70
     0
 62
     7
  6
CONTINUOUS
370
    -3
390
F
  0
LAYER
  5
8E72
330
2
100
AcDbSymbolTableRecord
100
AcDbLayerTableRecord
  2
30100_Drilling_DIM
 70
     0
 62
     7
  6
CONTINUOUS
370
    -3
390
F
  0
ENDTAB
  0
TABLE
  2
STYLE
  5
3
330
0
100
AcDbSymbolTable
 70
     1
  0
STYLE
  5
11
330
3
100
AcDbSymbolTableRecord
100
AcDbTextStyleTableRecord
  2
Standard
 70
     0
 40
0.0
 41
1.0
 50
0.0
 71
     0
 42
0.2
  3
txt
  4

  0
ENDTAB
  0
TABLE
  2
VIEW
  5
6
330
0
100
AcDbSymbolTable
 70
     0
  0
ENDTAB
  0
TABLE
  2
UCS
  5
7
330
0
100
AcDbSymbolTable
 70
     0
  0
ENDTAB
  0
TABLE
  2
APPID
  5
9
330
0
100
AcDbSymbolTable
 70
     3
  0
APPID
  5
12
330
9
100
AcDbSymbolTableRecord
100
AcDbRegAppTableRecord
  2
ACAD
 70
     0
  0
APPID
  5
1E8
330
9
100
AcDbSymbolTableRecord
100
AcDbRegAppTableRecord
  2
AUSTER_ANSICHT
 70
     0
  0
APPID
  5
1E9
330
9
100
AcDbSymbolTableRecord
100
AcDbRegAppTableRecord
  2
AUSTER_FOLIE
 70
     0
  0
ENDTAB
  0
TABLE
  2
DIMSTYLE
  5
A
330
0
100
AcDbSymbolTable
 70
     3
100
AcDbDimStyleTable
 71
     3
340
1E7
340
3A1A
340
BA
  0
DIMSTYLE
105
BA
330
A
100
AcDbSymbolTableRecord
100
AcDbDimStyleTableRecord
  2
Standard
 70
     0
340
11
  0
DIMSTYLE
105
1E7
102
{ACAD_REACTORS
330
88BD
330
88B0
330
88A1
330
8E21
330
8E2F
330
8E3C
102
}
330
A
100
AcDbSymbolTableRecord
100
AcDbDimStyleTableRecord
  2
DSTYLE1
 70
     0
 41
3.0
 42
0.0
 44
1.0
 73
     0
 74
     0
 77
     1
 78
     3
140
2.5
143
0.039370079
147
1.0
271
     3
272
     3
274
     0
279
     2
340
11
  0
DIMSTYLE
105
3A1A
102
{ACAD_REACTORS
330
8862
330
8889
330
887C
102
}
330
A
100
AcDbSymbolTableRecord
100
AcDbDimStyleTableRecord
  2
H035
 70
     0
 40
0.0
 41
3.5
 42
0.0
 43
3.75
 44
2.0
 73
     0
 74
     0
 77
     1
 78
     8
140
3.5
141
2.5
143
0.039
147
0.5
171
     4
172
     1
176
   256
177
     7
178
     7
271
     0
272
     2
273
     8
274
     4
340
11
  0
ENDTAB
  0
TABLE
  2
BLOCK_RECORD
  5
1
330
0
100
AcDbSymbolTable
 70
    10
  0
BLOCK_RECORD
  5
20
330
1
100
AcDbSymbolTableRecord
100
AcDbBlockTableRecord
  2
*Model_Space
340
23
  0
BLOCK_RECORD
  5
1C
330
1
100
AcDbSymbolTableRecord
100
AcDbBlockTableRecord
  2
*Paper_Space
340
1F
  0
BLOCK_RECORD
  5
3A
330
1
100
AcDbSymbolTableRecord
100
AcDbBlockTableRecord
  2
SIEMENS_OUTLINE_BL0
340
0
102
{BLKREFS
331
8CC5
102
}
  0
BLOCK_RECORD
  5
8863
330
1
100
AcDbSymbolTableRecord
100
AcDbBlockTableRecord
  2
*D1
340
0
  0
BLOCK_RECORD
  5
887D
330
1
100
AcDbSymbolTableRecord
100
AcDbBlockTableRecord
  2
*D2
340
0
  0
BLOCK_RECORD
  5
888A
330
1
100
AcDbSymbolTableRecord
100
AcDbBlockTableRecord
  2
*D3
340
0
  0
BLOCK_RECORD
  5
88A2
330
1
100
AcDbSymbolTableRecord
100
AcDbBlockTableRecord
  2
*D4
340
0
  0
BLOCK_RECORD
  5
88B1
330
1
100
AcDbSymbolTableRecord
100
AcDbBlockTableRecord
  2
*D5
340
0
  0
BLOCK_RECORD
  5
88BE
330
1
100
AcDbSymbolTableRecord
100
AcDbBlockTableRecord
  2
*D6
340
0
  0
BLOCK_RECORD
  5
8E22
330
1
100
AcDbSymbolTableRecord
100
AcDbBlockTableRecord
  2
*D7
340
0
  0
BLOCK_RECORD
  5
8E30
330
1
100
AcDbSymbolTableRecord
100
AcDbBlockTableRecord
  2
*D8
340
0
  0
BLOCK_RECORD
  5
8E3D
330
1
100
AcDbSymbolTableRecord
100
AcDbBlockTableRecord
  2
*D9
340
0
  0
ENDTAB
  0
ENDSEC
  0
SECTION
  2
BLOCKS
  0
BLOCK
  5
21
330
20
100
AcDbEntity
  8
0
100
AcDbBlockBegin
  2
*Model_Space
 70
     0
 10
0.0
 20
0.0
 30
0.0
  3
*Model_Space
  1

  0
ENDBLK
  5
22
330
20
100
AcDbEntity
  8
0
100
AcDbBlockEnd
  0
BLOCK
  5
1D
330
1C
100
AcDbEntity
 67
     1
  8
0
100
AcDbBlockBegin
  2
*Paper_Space
 70
     0
 10
0.0
 20
0.0
 30
0.0
  3
*Paper_Space
  1

  0
ENDBLK
  5
1E
330
1C
100
AcDbEntity
 67
     1
  8
0
100
AcDbBlockEnd
  0
BLOCK
  5
3B
330
3A
100
AcDbEntity
  8
0
  6
Continuous
 62
     7
100
AcDbBlockBegin
  2
SIEMENS_OUTLINE_BL0
 70
     0
 10
0.0
 20
0.0
 30
0.0
  3
SIEMENS_OUTLINE_BL0
  1

  0
LINE
  5
3C
330
3A
100
AcDbEntity
  8
0
  6
Continuous
 62
     7
100
AcDbLine
 10
289.1235341257
 20
21.4969115175
 30
0.0
 11
289.1235341257
 21
16.7436424342
 31
0.0
  0
LINE
  5
3D
330
3A
100
AcDbEntity
  8
0
  6
Continuous
 62
     7
100
AcDbLine
 10
290.5495148507
 20
21.4969115175
 30
0.0
 11
290.5495148507
 21
16.7436424342
 31
0.0
  0
LINE
  5
3E
330
3A
100
AcDbEntity
  8
0
  6
Continuous
 62
     7
100
AcDbLine
 10
289.1235341257
 20
16.7436424342
 30
0.0
 11
290.5495148507
 21
16.7436424342
 31
0.0
  0
LINE
  5
3F
330
3A
100
AcDbEntity
  8
0
  6
Continuous
 62
     7
100
AcDbLine
 10
289.1235341257
 20
21.4969115175
 30
0.0
 11
290.5495148507
 21
21.4969115175
 31
0.0
  0
LINE
  5
40
330
3A
100
AcDbEntity
  8
0
  6
Continuous
 62
     7
100
AcDbLine
 10
291.6427667399
 20
21.4969115175
 30
0.0
 11
291.6427667399
 21
16.7436424342
 31
0.0
  0
LINE
  5
41
330
3A
100
AcDbEntity
  8
0
  6
Continuous
 62
     7
100
AcDbLine
 10
291.6427667399
 20
16.7436424342
 30
0.0
 11
295.2077185523
 21
16.7436424342
 31
0.0
  0
LINE
  5
42
330
3A
100
AcDbEntity
  8
0
  6
Continuous
 62
     7
100
AcDbLine
 10
295.2077185523
 20
17.64676356
 30
0.0
 11
293.021214774
 21
17.64676356
 31
0.0
  0
LINE
  5
43
330
3A
100
AcDbEntity
  8
0
  6
Continuous
 62
     7
100
AcDbLine
 10
295.2077185523
 20
17.64676356
 30
0.0
 11
295.2077185523
 21
16.7436424342
 31
0.0
  0
LINE
  5
44
330
3A
100
AcDbEntity
  8
0
  6
Continuous
 62
     7
100
AcDbLine
 10
295.1601858615
 20
21.4969115175
 30
0.0
 11
291.6427667399
 21
21.4969115175
 31
0.0
  0
LINE
  5
45
330
3A
100
AcDbEntity
  8
0
  6
Continuous
 62
     7
100
AcDbLine
 10
295.1601858615
 20
20.6175567371
 30
0.0
 11
293.021214774
 21
20.6175567371
 31
0.0
  0
LINE
  5
46
330
3A
100
AcDbEntity
  8
0
  6
Continuous
 62
     7
100
AcDbLine
 10
295.1601858615
 20
21.4969115175
 30
0.0
 11
295.1601858615
 21
20.6175567371
 31
0.0
  0
LINE
  5
47
330
3A
100
AcDbEntity
  8
0
  6
Continuous
 62
     7
100
AcDbLine
 10
294.8749897165
 20
18.7637817946
 30
0.0
 11
293.021214774
 21
18.7637817946
 31
0.0
  0
LINE
  5
48
330
3A
100
AcDbEntity
  8
0
  6
Continuous
 62
     7
100
AcDbLine
 10
294.8749897165
 20
19.5480711933
 30
0.0
 11
294.8749897165
 21
18.7637817946
 31
0.0
  0
LINE
  5
49
330
3A
100
AcDbEntity
  8
0
  6
Continuous
 62
     7
100
AcDbLine
 10
294.8749897165
 20
19.5480711933
 30
0.0
 11
293.021214774
 21
19.5480711933
 31
0.0
  0
LINE
  5
4A
330
3A
100
AcDbEntity
  8
0
  6
Continuous
 62
     7
100
AcDbLine
 10
293.021214774
 20
20.6175567371
 30
0.0
 11
293.021214774
 21
19.5480711933
 31
0.0
  0
LINE
  5
4B
330
3A
100
AcDbEntity
  8
0
  6
Continuous
 62
     7
100
AcDbLine
 10
293.021214774
 20
18.7637817946
 30
0.0
 11
293.021214774
 21
17.64676356
 31
0.0
  0
LINE
  5
4C
330
3A
100
AcDbEntity
  8
0
  6
Continuous
 62
     7
100
AcDbLine
 10
296.0157742965
 20
16.7436424342
 30
0.0
 11
296.0157742965
 21
21.4969115175
 31
0.0
  0
LINE
  5
4D
330
3A
100
AcDbEntity
  8
0
  6
Continuous
 62
     7
100
AcDbLine
 10
296.0157742965
 20
16.7436424342
 30
0.0
 11
296.9664281131
 21
16.7436424342
 31
0.0
  0
LINE
  5
4E
330
3A
100
AcDbEntity
  8
0
  6
Continuous
 62
     7
100
AcDbLine
 10
301.8622952689
 20
21.4969115175
 30
0.0
 11
301.8622952689
 21
16.7436424342
 31
0.0
  0
LINE
  5
4F
330
3A
100
AcDbEntity
  8
0
  6
Continuous
 62
     7
100
AcDbLine
 10
301.8622952689
 20
16.7436424342
 30
0.0
 11
300.4838472348
 21
16.7436424342
 31
0.0
  0
LINE
  5
50
330
3A
100
AcDbEntity
  8
0
  6
Continuous
 62
     7
100
AcDbLine
 10
298.2973434565
 20
16.6961097434
 30
0.0
 11
299.1529318914
 21
16.6961097434
 31
0.0
  0
LINE
  5
51
330
3A
100
AcDbEntity
  8
0
  6
Continuous
 62
     7
100
AcDbLine
 10
298.2973434565
 20
16.6961097434
 30
0.0
 11
296.9664281131
 21
19.7857346475
 31
0.0
  0
LINE
  5
52
330
3A
100
AcDbEntity
  8
0
  6
Continuous
 62
     7
100
AcDbLine
 10
296.9664281131
 20
16.7436424342
 30
0.0
 11
296.9664281131
 21
19.7857346475
 31
0.0
  0
LINE
  5
53
330
3A
100
AcDbEntity
  8
0
  6
Continuous
 62
     7
100
AcDbLine
 10
300.4838472348
 20
19.8332673383
 30
0.0
 11
299.1529318914
 21
16.6961097434
 31
0.0
  0
LINE
  5
54
330
3A
100
AcDbEntity
  8
0
  6
Continuous
 62
     7
100
AcDbLine
 10
297.7269511665
 20
21.4969115175
 30
0.0
 11
296.0157742965
 21
21.4969115175
 31
0.0
  0
LINE
  5
55
330
3A
100
AcDbEntity
  8
0
  6
Continuous
 62
     7
100
AcDbLine
 10
301.8622952689
 20
21.4969115175
 30
0.0
 11
300.1511183989
 21
21.4969115175
 31
0.0
  0
LINE
  5
56
330
3A
100
AcDbEntity
  8
0
  6
Continuous
 62
     7
100
AcDbLine
 10
297.7269511665
 20
21.4969115175
 30
0.0
 11
298.9628011281
 21
18.5974173767
 31
0.0
  0
LINE
  5
57
330
3A
100
AcDbEntity
  8
0
  6
Continuous
 62
     7
100
AcDbLine
 10
300.1511183989
 20
21.4969115175
 30
0.0
 11
298.9628011281
 21
18.5974173767
 31
0.0
  0
LINE
  5
58
330
3A
100
AcDbEntity
  8
0
  6
Continuous
 62
     7
100
AcDbLine
 10
300.4838472348
 20
19.8332673383
 30
0.0
 11
300.4838472348
 21
16.7436424342
 31
0.0
  0
LINE
  5
59
330
3A
100
AcDbEntity
  8
0
  6
Continuous
 62
     7
100
AcDbLine
 10
302.9555471581
 20
21.4969115175
 30
0.0
 11
302.9555471581
 21
16.7436424342
 31
0.0
  0
LINE
  5
5A
330
3A
100
AcDbEntity
  8
0
  6
Continuous
 62
     7
100
AcDbLine
 10
302.9555471581
 20
16.7436424342
 30
0.0
 11
306.5204989705
 21
16.7436424342
 31
0.0
  0
LINE
  5
5B
330
3A
100
AcDbEntity
  8
0
  6
Continuous
 62
     7
100
AcDbLine
 10
306.5204989705
 20
17.64676356
 30
0.0
 11
304.3339951922
 21
17.64676356
 31
0.0
  0
LINE
  5
5C
330
3A
100
AcDbEntity
  8
0
  6
Continuous
 62
     7
100
AcDbLine
 10
306.5204989705
 20
17.64676356
 30
0.0
 11
306.5204989705
 21
16.7436424342
 31
0.0
  0
LINE
  5
5D
330
3A
100
AcDbEntity
  8
0
  6
Continuous
 62
     7
100
AcDbLine
 10
306.4729662797
 20
21.4969115175
 30
0.0
 11
302.9555471581
 21
21.4969115175
 31
0.0
  0
LINE
  5
5E
330
3A
100
AcDbEntity
  8
0
  6
Continuous
 62
     7
100
AcDbLine
 10
306.4729662797
 20
20.6175567371
 30
0.0
 11
304.3339951922
 21
20.6175567371
 31
0.0
  0
LINE
  5
5F
330
3A
100
AcDbEntity
  8
0
  6
Continuous
 62
     7
100
AcDbLine
 10
306.4729662797
 20
21.4969115175
 30
0.0
 11
306.4729662797
 21
20.6175567371
 31
0.0
  0
LINE
  5
60
330
3A
100
AcDbEntity
  8
0
  6
Continuous
 62
     7
100
AcDbLine
 10
306.1877701347
 20
18.7637817946
 30
0.0
 11
304.3339951922
 21
18.7637817946
 31
0.0
  0
LINE
  5
61
330
3A
100
AcDbEntity
  8
0
  6
Continuous
 62
     7
100
AcDbLine
 10
306.1877701347
 20
19.5480711933
 30
0.0
 11
306.1877701347
 21
18.7637817946
 31
0.0
  0
LINE
  5
62
330
3A
100
AcDbEntity
  8
0
  6
Continuous
 62
     7
100
AcDbLine
 10
306.1877701347
 20
19.5480711933
 30
0.0
 11
304.3339951922
 21
19.5480711933
 31
0.0
  0
LINE
  5
63
330
3A
100
AcDbEntity
  8
0
  6
Continuous
 62
     7
100
AcDbLine
 10
304.3339951922
 20
20.6175567371
 30
0.0
 11
304.3339951922
 21
19.5480711933
 31
0.0
  0
LINE
  5
64
330
3A
100
AcDbEntity
  8
0
  6
Continuous
 62
     7
100
AcDbLine
 10
304.3339951922
 20
18.7637817946
 30
0.0
 11
304.3339951922
 21
17.64676356
 31
0.0
  0
LINE
  5
65
330
3A
100
AcDbEntity
  8
0
  6
Continuous
 62
     7
100
AcDbLine
 10
307.3047883693
 20
16.7436424342
 30
0.0
 11
307.3047883693
 21
21.4969115175
 31
0.0
  0
LINE
  5
66
330
3A
100
AcDbEntity
  8
0
  6
Continuous
 62
     7
100
AcDbLine
 10
311.4876651625
 20
21.4969115175
 30
0.0
 11
311.4876651625
 21
16.7436424342
 31
0.0
  0
LINE
  5
67
330
3A
100
AcDbEntity
  8
0
  6
Continuous
 62
     7
100
AcDbLine
 10
307.3047883693
 20
16.7436424342
 30
0.0
 11
308.2554421859
 21
16.7436424342
 31
0.0
  0
LINE
  5
68
330
3A
100
AcDbEntity
  8
0
  6
Continuous
 62
     7
100
AcDbLine
 10
311.4876651625
 20
21.4969115175
 30
0.0
 11
310.5370113459
 21
21.4969115175
 31
0.0
  0
LINE
  5
69
330
3A
100
AcDbEntity
  8
0
  6
Continuous
 62
     7
100
AcDbLine
 10
308.8496008213
 20
21.4969115175
 30
0.0
 11
307.3047883693
 21
21.4969115175
 31
0.0
  0
LINE
  5
6A
330
3A
100
AcDbEntity
  8
0
  6
Continuous
 62
     7
100
AcDbLine
 10
311.4876651625
 20
16.7436424342
 30
0.0
 11
309.9666190559
 21
16.7436424342
 31
0.0
  0
LINE
  5
6B
330
3A
100
AcDbEntity
  8
0
  6
Continuous
 62
     7
100
AcDbLine
 10
309.9666190559
 20
16.7436424342
 30
0.0
 11
308.2554421859
 21
19.7857346475
 31
0.0
  0
LINE
  5
6C
330
3A
100
AcDbEntity
  8
0
  6
Continuous
 62
     7
100
AcDbLine
 10
308.8496008213
 20
21.4969115175
 30
0.0
 11
310.5370113459
 21
18.5498846858
 31
0.0
  0
LINE
  5
6D
330
3A
100
AcDbEntity
  8
0
  6
Continuous
 62
     7
100
AcDbLine
 10
310.5370113459
 20
21.4969115175
 30
0.0
 11
310.5370113459
 21
18.5498846858
 31
0.0
  0
LINE
  5
6E
330
3A
100
AcDbEntity
  8
0
  6
Continuous
 62
     7
100
AcDbLine
 10
308.2554421859
 20
16.7436424342
 30
0.0
 11
308.2554421859
 21
19.7857346475
 31
0.0
  0
LINE
  5
6F
330
3A
100
AcDbEntity
  8
0
  6
Continuous
 62
     7
100
AcDbLine
 10
312.2957209067
 20
16.8387078159
 30
0.0
 11
312.2957209067
 21
17.7893616325
 31
0.0
  0
LINE
  5
70
330
3A
100
AcDbEntity
  8
0
  6
Continuous
 62
     7
100
AcDbLine
 10
315.623009265
 20
20.49872501
 30
0.0
 11
315.623009265
 21
21.4493788266
 31
0.0
  0
ARC
  5
71
330
3A
100
AcDbEntity
  8
0
  6
Continuous
 62
     7
100
AcDbCircle
 10
314.0003620317
 20
18.7008009792
 30
0.0
 40
1.111619360599997
100
AcDbArc
 50
277.7099956934
 51
295.6884927746
  0
ARC
  5
72
330
3A
100
AcDbEntity
  8
0
  6
Continuous
 62
     7
100
AcDbCircle
 10
314.2846720145
 20
17.9759752156
 30
0.0
 40
0.3401689265
100
AcDbArc
 50
305.503221255
 51
72.46528985229999
  0
ARC
  5
73
330
3A
100
AcDbEntity
  8
0
  6
Continuous
 62
     7
100
AcDbCircle
 10
313.7186782063
 20
21.3776821252
 30
0.0
 40
4.756794641099999
100
AcDbArc
 50
252.5939200548001
 51
280.9816604256
  0
ARC
  5
74
330
3A
100
AcDbEntity
  8
0
  6
Continuous
 62
     7
100
AcDbCircle
 10
314.1735135694
 20
18.7596683887
 30
0.0
 40
2.100726595299998
100
AcDbArc
 50
282.405835852
 51
311.8644433928
  0
ARC
  5
75
330
3A
100
AcDbEntity
  8
0
  6
Continuous
 62
     7
100
AcDbCircle
 10
313.8999492223
 20
20.3680101102
 30
0.0
 40
0.3029626476
100
AcDbArc
 50
154.4400348282
 51
221.8201698801
  0
ARC
  5
76
330
3A
100
AcDbEntity
  8
0
  6
Continuous
 62
     7
100
AcDbCircle
 10
313.9791703737
 20
20.2887889588
 30
0.0
 40
0.4103089737
100
AcDbArc
 50
102.8287828681
 51
149.2259639003
  0
ARC
  5
77
330
3A
100
AcDbEntity
  8
0
  6
Continuous
 62
     7
100
AcDbCircle
 10
314.3961972093
 20
18.546453629
 30
0.0
 40
2.201836557
100
AcDbArc
 50
84.0400061857
 51
103.3427657870999
  0
ARC
  5
78
330
3A
100
AcDbEntity
  8
0
  6
Continuous
 62
     7
100
AcDbCircle
 10
314.0552333846
 20
16.1290897051
 30
0.0
 40
4.642373736499997
100
AcDbArc
 50
70.2625858546
 51
82.95241863799999
  0
ARC
  5
79
330
3A
100
AcDbEntity
  8
0
  6
Continuous
 62
     7
100
AcDbCircle
 10
313.5412151824001
 20
20.8007125947
 30
0.0
 40
3.258755990899997
100
AcDbArc
 50
247.5300206145
 51
280.7579522143
  0
ARC
  5
7A
330
3A
100
AcDbEntity
  8
0
  6
Continuous
 62
     7
100
AcDbCircle
 10
307.1562487104
 20
2.5491926343
 30
0.0
 40
17.3316084133
100
AcDbArc
 50
65.34146746500001
 51
67.39977707359999
  0
ARC
  5
7B
330
3A
100
AcDbEntity
  8
0
  6
Continuous
 62
     7
100
AcDbCircle
 10
317.9521111158
 20
28.3416189974
 30
0.0
 40
10.6291642039
100
AcDbArc
 50
242.8620101252001
 51
247.1042029186
  0
ARC
  5
7C
330
3A
100
AcDbEntity
  8
0
  6
Continuous
 62
     7
100
AcDbCircle
 10
314.0972098893
 20
20.8076875004
 30
0.0
 40
2.166291629199998
100
AcDbArc
 50
227.3119280794
 51
242.7040315235
  0
ARC
  5
7D
330
3A
100
AcDbEntity
  8
0
  6
Continuous
 62
     7
100
AcDbCircle
 10
313.4931790796
 20
20.1020098596
 30
0.0
 40
1.238521734
100
AcDbArc
 50
194.7952194236
 51
225.7176549047
  0
ARC
  5
7E
330
3A
100
AcDbEntity
  8
0
  6
Continuous
 62
     7
100
AcDbCircle
 10
313.5553372138
 20
20.1422298287
 30
0.0
 40
1.309092072899999
100
AcDbArc
 50
164.1974860461
 51
195.8025139539
  0
ARC
  5
7F
330
3A
100
AcDbEntity
  8
0
  6
Continuous
 62
     7
100
AcDbCircle
 10
314.1123609345001
 20
19.2539626688
 30
0.0
 40
2.366924815299999
100
AcDbArc
 50
86.22180229280001
 51
120.4272602309
  0
ARC
  5
80
330
3A
100
AcDbEntity
  8
0
  6
Continuous
 62
     7
100
AcDbCircle
 10
313.8435041519
 20
12.5577948477
 30
0.0
 40
9.0679051661
100
AcDbArc
 50
78.68270492259998
 51
87.3147599624
  0
ARC
  5
81
330
3A
100
AcDbEntity
  8
0
  6
Continuous
 62
     7
100
AcDbCircle
 10
313.3874349735
 20
20.2497375912
 30
0.0
 40
1.119747444
100
AcDbArc
 50
142.813917903
 51
167.1522951417
  0
ARC
  5
82
330
3A
100
AcDbEntity
  8
0
  6
Continuous
 62
     7
100
AcDbCircle
 10
313.7327443151
 20
19.9431558946
 30
0.0
 40
1.580546684499998
100
AcDbArc
 50
121.2140948535
 51
141.5254768286
  0
ARC
  5
83
330
3A
100
AcDbEntity
  8
0
  6
Continuous
 62
     7
100
AcDbCircle
 10
314.3099186807
 20
20.7542132232
 30
0.0
 40
0.8661276051999998
100
AcDbArc
 50
222.7760387596
 51
239.0362434679
  0
ARC
  5
84
330
3A
100
AcDbEntity
  8
0
  6
Continuous
 62
     7
100
AcDbCircle
 10
311.8032091024
 20
13.4239410246
 30
0.0
 40
6.858773576299999
100
AcDbArc
 50
59.90202725600001
 51
68.2036481279
  0
ARC
  5
85
330
3A
100
AcDbEntity
  8
0
  6
Continuous
 62
     7
100
AcDbCircle
 10
315.2117035963
 20
22.3498275319
 30
0.0
 40
2.698741017099999
100
AcDbArc
 50
240.0481997804
 51
251.3779673736999
  0
ARC
  5
86
330
3A
100
AcDbEntity
  8
0
  6
Continuous
 62
     7
100
AcDbCircle
 10
314.5462464295
 20
18.1929289165
 30
0.0
 40
1.4334474881
100
AcDbArc
 50
315.8904553224
 51
333.5229264373
  0
ARC
  5
87
330
3A
100
AcDbEntity
  8
0
  6
Continuous
 62
     7
100
AcDbCircle
 10
314.5508846732
 20
18.1395217664
 30
0.0
 40
1.406228711899998
100
AcDbArc
 50
335.3867972702
 51
24.3915119402
  0
ARC
  5
88
330
3A
100
AcDbEntity
  8
0
  6
Continuous
 62
     7
100
AcDbCircle
 10
314.4786797697
 20
18.0616650746
 30
0.0
 40
1.504702514799999
100
AcDbArc
 50
25.95629166050001
 51
59.4834829668
  0
LINE
  5
89
330
3A
100
AcDbEntity
  8
0
  6
Continuous
 62
     7
100
AcDbLine
 10
284.7029938783
 20
16.8387078159
 30
0.0
 11
284.7029938783
 21
17.7893616325
 31
0.0
  0
LINE
  5
8A
330
3A
100
AcDbEntity
  8
0
  6
Continuous
 62
     7
100
AcDbLine
 10
288.0302822366
 20
20.49872501
 30
0.0
 11
288.0302822366
 21
21.4493788266
 31
0.0
  0
ARC
  5
8B
330
3A
100
AcDbEntity
  8
0
  6
Continuous
 62
     7
100
AcDbCircle
 10
286.4076350033
 20
18.7008009792
 30
0.0
 40
1.111619360599997
100
AcDbArc
 50
277.7099956934
 51
295.6884927746
  0
ARC
  5
8C
330
3A
100
AcDbEntity
  8
0
  6
Continuous
 62
     7
100
AcDbCircle
 10
286.691944986
 20
17.9759752156
 30
0.0
 40
0.3401689265
100
AcDbArc
 50
305.5032212556
 51
72.4652898515
  0
ARC
  5
8D
330
3A
100
AcDbEntity
  8
0
  6
Continuous
 62
     7
100
AcDbCircle
 10
286.1259511779
 20
21.3776821252
 30
0.0
 40
4.756794641099999
100
AcDbArc
 50
252.5939200545
 51
280.9816604253
  0
ARC
  5
8E
330
3A
100
AcDbEntity
  8
0
  6
Continuous
 62
     7
100
AcDbCircle
 10
286.580786541
 20
18.7596683887
 30
0.0
 40
2.100726595299998
100
AcDbArc
 50
282.4058358513
 51
311.8644433923
  0
ARC
  5
8F
330
3A
100
AcDbEntity
  8
0
  6
Continuous
 62
     7
100
AcDbCircle
 10
286.3072221939
 20
20.3680101102
 30
0.0
 40
0.3029626476
100
AcDbArc
 50
154.4400348282
 51
221.8201698801
  0
ARC
  5
90
330
3A
100
AcDbEntity
  8
0
  6
Continuous
 62
     7
100
AcDbCircle
 10
286.3864433453
 20
20.2887889588
 30
0.0
 40
0.4103089737
100
AcDbArc
 50
102.8287828727
 51
149.2259639027
  0
ARC
  5
91
330
3A
100
AcDbEntity
  8
0
  6
Continuous
 62
     7
100
AcDbCircle
 10
286.8034701809
 20
18.546453629
 30
0.0
 40
2.201836557
100
AcDbArc
 50
84.0400061859
 51
103.3427657872
  0
ARC
  5
92
330
3A
100
AcDbEntity
  8
0
  6
Continuous
 62
     7
100
AcDbCircle
 10
286.4625063562
 20
16.1290897051
 30
0.0
 40
4.642373736499997
100
AcDbArc
 50
70.2625858546
 51
82.9524186379
  0
ARC
  5
93
330
3A
100
AcDbEntity
  8
0
  6
Continuous
 62
     7
100
AcDbCircle
 10
285.948488154
 20
20.8007125947
 30
0.0
 40
3.258755990899997
100
AcDbArc
 50
247.5300206148
 51
280.7579522145
  0
ARC
  5
94
330
3A
100
AcDbEntity
  8
0
  6
Continuous
 62
     7
100
AcDbCircle
 10
279.563521682
 20
2.5491926343
 30
0.0
 40
17.3316084133
100
AcDbArc
 50
65.34146746500001
 51
67.39977707359999
  0
ARC
  5
95
330
3A
100
AcDbEntity
  8
0
  6
Continuous
 62
     7
100
AcDbCircle
 10
290.3593840874
 20
28.3416189974
 30
0.0
 40
10.6291642039
100
AcDbArc
 50
242.8620101252001
 51
247.1042029185
  0
ARC
  5
96
330
3A
100
AcDbEntity
  8
0
  6
Continuous
 62
     7
100
AcDbCircle
 10
286.5044828608
 20
20.8076875004
 30
0.0
 40
2.166291629199998
100
AcDbArc
 50
227.3119280794
 51
242.7040315235
  0
ARC
  5
97
330
3A
100
AcDbEntity
  8
0
  6
Continuous
 62
     7
100
AcDbCircle
 10
285.9004520512
 20
20.1020098596
 30
0.0
 40
1.238521734
100
AcDbArc
 50
194.7952194234
 51
225.7176549042
  0
ARC
  5
98
330
3A
100
AcDbEntity
  8
0
  6
Continuous
 62
     7
100
AcDbCircle
 10
286.519633906
 20
19.2539626688
 30
0.0
 40
2.366924815299999
100
AcDbArc
 50
86.22180229280001
 51
120.4272602309
  0
ARC
  5
99
330
3A
100
AcDbEntity
  8
0
  6
Continuous
 62
     7
100
AcDbCircle
 10
286.2507771235
 20
12.5577948477
 30
0.0
 40
9.0679051661
100
AcDbArc
 50
78.68270492259998
 51
87.3147599624
  0
ARC
  5
9A
330
3A
100
AcDbEntity
  8
0
  6
Continuous
 62
     7
100
AcDbCircle
 10
286.1400172867
 20
19.9431558946
 30
0.0
 40
1.580546684599998
100
AcDbArc
 50
121.2140948541
 51
141.525476829
  0
ARC
  5
9B
330
3A
100
AcDbEntity
  8
0
  6
Continuous
 62
     7
100
AcDbCircle
 10
286.7171916523
 20
20.7542132232
 30
0.0
 40
0.8661276051999998
100
AcDbArc
 50
222.7760387596
 51
239.0362434679
  0
ARC
  5
9C
330
3A
100
AcDbEntity
  8
0
  6
Continuous
 62
     7
100
AcDbCircle
 10
284.210482074
 20
13.4239410246
 30
0.0
 40
6.858773576299999
100
AcDbArc
 50
59.90202725620001
 51
68.20364812820002
  0
ARC
  5
9D
330
3A
100
AcDbEntity
  8
0
  6
Continuous
 62
     7
100
AcDbCircle
 10
287.6189765678
 20
22.3498275319
 30
0.0
 40
2.698741017099999
100
AcDbArc
 50
240.0481997804
 51
251.3779673734
  0
ARC
  5
9E
330
3A
100
AcDbEntity
  8
0
  6
Continuous
 62
     7
100
AcDbCircle
 10
286.953519401
 20
18.1929289165
 30
0.0
 40
1.4334474881
100
AcDbArc
 50
315.8904553226
 51
333.5229264375
  0
ARC
  5
9F
330
3A
100
AcDbEntity
  8
0
  6
Continuous
 62
     7
100
AcDbCircle
 10
286.9581576447
 20
18.1395217664
 30
0.0
 40
1.406228711899998
100
AcDbArc
 50
335.3867972703
 51
24.3915119403
  0
ARC
  5
A0
330
3A
100
AcDbEntity
  8
0
  6
Continuous
 62
     7
100
AcDbCircle
 10
286.8859527412
 20
18.0616650746
 30
0.0
 40
1.504702514699999
100
AcDbArc
 50
25.9562916611
 51
59.4834829676
  0
LINE
  5
A1
330
3A
100
AcDbEntity
  8
0
  6
Continuous
 62
     7
100
AcDbLine
 10
284.8948224676
 20
20.9161059766
 30
0.0
 11
285.1688882922
 21
21.1901790542
 31
0.0
  0
ARC
  5
A2
330
3A
100
AcDbEntity
  8
0
  6
Continuous
 62
     7
100
AcDbCircle
 10
285.9626101853
 20
20.1422298287
 30
0.0
 40
1.309092072899999
100
AcDbArc
 50
164.1974860461
 51
195.8025139539
  0
ARC
  5
A3
330
3A
100
AcDbEntity
  8
0
  6
Continuous
 62
     7
100
AcDbCircle
 10
285.7947079451
 20
20.2497375912
 30
0.0
 40
1.119747444
100
AcDbArc
 50
142.813917903
 51
167.1522951417
  0
ENDBLK
  5
A4
330
3A
100
AcDbEntity
  8
0
100
AcDbBlockEnd
  0
BLOCK
  5
886D
330
8863
100
AcDbEntity
  8
0
100
AcDbBlockBegin
  2
*D1
 70
     1
 10
0.0
 20
0.0
 30
0.0
  3
*D1
  1

  0
LINE
  5
8F63
330
8863
100
AcDbEntity
  8
10100_FRONT_DIM
  6
Continuous
 62
     7
370
    -2
100
AcDbLine
 10
86.75019679803058
 20
364.9384800354375
 30
0.0
 11
86.75019679803058
 21
344.4355265534302
 31
0.0
  0
LINE
  5
8F64
330
8863
100
AcDbEntity
  8
10100_FRONT_DIM
  6
Continuous
 62
     7
370
    -2
100
AcDbLine
 10
131.5501967980306
 20
364.9384800354375
 30
0.0
 11
131.5501967980306
 21
344.4355265534302
 31
0.0
  0
LINE
  5
8F65
330
8863
100
AcDbEntity
  8
10100_FRONT_DIM
  6
Continuous
370
    -2
100
AcDbLine
 10
90.25019679803058
 20
346.4355265534302
 30
0.0
 11
104.7335301313639
 21
346.4355265534302
 31
0.0
  0
LINE
  5
8F66
330
8863
100
AcDbEntity
  8
10100_FRONT_DIM
  6
Continuous
370
    -2
100
AcDbLine
 10
128.0501967980306
 20
346.4355265534302
 30
0.0
 11
113.5668634646972
 21
346.4355265534302
 31
0.0
  0
SOLID
  5
8F67
330
8863
100
AcDbEntity
  8
10100_FRONT_DIM
  6
Continuous
100
AcDbTrace
 10
90.25019679803058
 20
347.0188598867636
 30
0.0
 11
90.25019679803058
 21
345.8521932200969
 31
0.0
 12
86.75019679803058
 22
346.4355265534302
 32
0.0
 13
86.75019679803058
 23
346.4355265534302
 33
0.0
  0
SOLID
  5
8F68
330
8863
100
AcDbEntity
  8
10100_FRONT_DIM
  6
Continuous
100
AcDbTrace
 10
128.0501967980306
 20
347.0188598867636
 30
0.0
 11
128.0501967980306
 21
345.8521932200969
 31
0.0
 12
131.5501967980306
 22
346.4355265534302
 32
0.0
 13
131.5501967980306
 23
346.4355265534302
 33
0.0
  0
MTEXT
  5
8F69
330
8863
100
AcDbEntity
  8
10100_FRONT_DIM
  6
Continuous
 62
     7
370
    13
100
AcDbMText
 10
109.1501967980305
 20
346.4355265534302
 30
0.0
 40
3.5
 41
0.0
 71
     5
 72
     1
  1
\A1;45
 73
     1
 44
1.0
1001
ACAD
1000
MTEXTBEGIN
1070
    73
1070
     1
1070
    44
1040
1.0
1070
    74
1070
     0
1000
MTEXTEND
  0
POINT
  5
8F6A
330
8863
100
AcDbEntity
  8
Defpoints
  6
Continuous
 62
     0
100
AcDbPoint
 10
86.75019679803058
 20
364.9384800354375
 30
0.0
  0
POINT
  5
8F6B
330
8863
100
AcDbEntity
  8
Defpoints
  6
Continuous
 62
     0
100
AcDbPoint
 10
131.5501967980306
 20
364.9384800354375
 30
0.0
  0
POINT
  5
8F6C
330
8863
100
AcDbEntity
  8
Defpoints
  6
Continuous
 62
     0
100
AcDbPoint
 10
131.5501967980306
 20
346.4355265534302
 30
0.0
  0
ENDBLK
  5
886E
330
8863
100
AcDbEntity
  8
0
100
AcDbBlockEnd
  0
BLOCK
  5
8887
330
887D
100
AcDbEntity
  8
0
100
AcDbBlockBegin
  2
*D2
 70
     1
 10
0.0
 20
0.0
 30
0.0
  3
*D2
  1

  0
LINE
  5
8F59
330
887D
100
AcDbEntity
  8
10100_FRONT_DIM
  6
Continuous
 62
     7
370
    -2
100
AcDbLine
 10
131.770047853893
 20
461.9384800354374
 30
0.0
 11
148.0466363921388
 21
461.9384800354374
 31
0.0
  0
LINE
  5
8F5A
330
887D
100
AcDbEntity
  8
10100_FRONT_DIM
  6
Continuous
 62
     7
370
    -2
100
AcDbLine
 10
131.770047853893
 20
364.9384800354375
 30
0.0
 11
148.0466363921388
 21
364.9384800354375
 31
0.0
  0
LINE
  5
8F5B
330
887D
100
AcDbEntity
  8
10100_FRONT_DIM
  6
Continuous
370
    -2
100
AcDbLine
 10
146.0466363921388
 20
458.4384800354373
 30
0.0
 11
146.0466363921388
 21
417.8551467021041
 31
0.0
  0
LINE
  5
8F5C
330
887D
100
AcDbEntity
  8
10100_FRONT_DIM
  6
Continuous
370
    -2
100
AcDbLine
 10
146.0466363921388
 20
368.4384800354375
 30
0.0
 11
146.0466363921388
 21
409.0218133687708
 31
0.0
  0
SOLID
  5
8F5D
330
887D
100
AcDbEntity
  8
10100_FRONT_DIM
  6
Continuous
100
AcDbTrace
 10
145.4633030588055
 20
458.4384800354373
 30
0.0
 11
146.6299697254721
 21
458.4384800354373
 31
0.0
 12
146.0466363921388
 22
461.9384800354374
 32
0.0
 13
146.0466363921388
 23
461.9384800354374
 33
0.0
  0
SOLID
  5
8F5E
330
887D
100
AcDbEntity
  8
10100_FRONT_DIM
  6
Continuous
100
AcDbTrace
 10
145.4633030588054
 20
368.4384800354375
 30
0.0
 11
146.6299697254721
 21
368.4384800354375
 31
0.0
 12
146.0466363921388
 22
364.9384800354375
 32
0.0
 13
146.0466363921388
 23
364.9384800354375
 33
0.0
  0
MTEXT
  5
8F5F
330
887D
100
AcDbEntity
  8
10100_FRONT_DIM
  6
Continuous
 62
     7
370
    13
100
AcDbMText
 10
146.0466363921387
 20
413.4384800354374
 30
0.0
 40
3.5
 41
0.0
 71
     5
 72
     1
  1
\A1;97
 11
0.0000000000000001
 21
1.0
 31
0.0
 73
     1
 44
1.0
1001
ACAD
1000
MTEXTBEGIN
1070
    73
1070
     1
1070
    44
1040
1.0
1070
    74
1070
     0
1000
MTEXTEND
  0
POINT
  5
8F60
330
887D
100
AcDbEntity
  8
Defpoints
  6
Continuous
 62
     0
100
AcDbPoint
 10
131.770047853893
 20
461.9384800354374
 30
0.0
  0
POINT
  5
8F61
330
887D
100
AcDbEntity
  8
Defpoints
  6
Continuous
 62
     0
100
AcDbPoint
 10
131.770047853893
 20
364.9384800354375
 30
0.0
  0
POINT
  5
8F62
330
887D
100
AcDbEntity
  8
Defpoints
  6
Continuous
 62
     0
100
AcDbPoint
 10
146.0466363921388
 20
364.9384800354375
 30
0.0
  0
ENDBLK
  5
8888
330
887D
100
AcDbEntity
  8
0
100
AcDbBlockEnd
  0
BLOCK
  5
8894
330
888A
100
AcDbEntity
  8
0
100
AcDbBlockBegin
  2
*D3
 70
     1
 10
0.0
 20
0.0
 30
0.0
  3
*D3
  1

  0
LINE
  5
8F4F
330
888A
100
AcDbEntity
  8
10100_FRONT_DIM
  6
Continuous
 62
     7
370
    -2
100
AcDbLine
 10
131.5501967980306
 20
435.8844127628723
 30
0.0
 11
142.0458511444311
 21
435.8844127628723
 31
0.0
  0
LINE
  5
8F50
330
888A
100
AcDbEntity
  8
10100_FRONT_DIM
  6
Continuous
 62
     7
370
    -2
100
AcDbLine
 10
130.7501967980305
 20
390.8384800354376
 30
0.0
 11
142.0458511444311
 21
390.8384800354376
 31
0.0
  0
LINE
  5
8F51
330
888A
100
AcDbEntity
  8
10100_FRONT_DIM
  6
Continuous
370
    -2
100
AcDbLine
 10
140.0458511444311
 20
432.3844127628723
 30
0.0
 11
140.0458511444311
 21
417.7781130658216
 31
0.0
  0
LINE
  5
8F52
330
888A
100
AcDbEntity
  8
10100_FRONT_DIM
  6
Continuous
370
    -2
100
AcDbLine
 10
140.0458511444311
 20
394.3384800354376
 30
0.0
 11
140.0458511444311
 21
408.9447797324882
 31
0.0
  0
SOLID
  5
8F53
330
888A
100
AcDbEntity
  8
10100_FRONT_DIM
  6
Continuous
100
AcDbTrace
 10
139.4625178110978
 20
432.3844127628723
 30
0.0
 11
140.6291844777645
 21
432.3844127628723
 31
0.0
 12
140.0458511444311
 22
435.8844127628723
 32
0.0
 13
140.0458511444311
 23
435.8844127628723
 33
0.0
  0
SOLID
  5
8F54
330
888A
100
AcDbEntity
  8
10100_FRONT_DIM
  6
Continuous
100
AcDbTrace
 10
139.4625178110978
 20
394.3384800354376
 30
0.0
 11
140.6291844777645
 21
394.3384800354376
 31
0.0
 12
140.0458511444311
 22
390.8384800354376
 32
0.0
 13
140.0458511444311
 23
390.8384800354376
 33
0.0
  0
MTEXT
  5
8F55
330
888A
100
AcDbEntity
  8
10100_FRONT_DIM
  6
Continuous
 62
     7
370
    13
100
AcDbMText
 10
140.0458511444311
 20
413.3614463991548
 30
0.0
 40
3.5
 41
0.0
 71
     5
 72
     1
  1
\A1;45
 11
0.0000000000000001
 21
1.0
 31
0.0
 73
     1
 44
1.0
1001
ACAD
1000
MTEXTBEGIN
1070
    73
1070
     1
1070
    44
1040
1.0
1070
    74
1070
     0
1000
MTEXTEND
  0
POINT
  5
8F56
330
888A
100
AcDbEntity
  8
Defpoints
  6
Continuous
 62
     0
100
AcDbPoint
 10
131.5501967980306
 20
435.8844127628723
 30
0.0
  0
POINT
  5
8F57
330
888A
100
AcDbEntity
  8
Defpoints
  6
Continuous
 62
     0
100
AcDbPoint
 10
130.7501967980305
 20
390.8384800354376
 30
0.0
  0
POINT
  5
8F58
330
888A
100
AcDbEntity
  8
Defpoints
  6
Continuous
 62
     0
100
AcDbPoint
 10
140.0458511444311
 20
390.8384800354376
 30
0.0
  0
ENDBLK
  5
8895
330
888A
100
AcDbEntity
  8
0
100
AcDbBlockEnd
  0
BLOCK
  5
88AE
330
88A2
100
AcDbEntity
  8
0
100
AcDbBlockBegin
  2
*D4
 70
     1
 10
0.0
 20
0.0
 30
0.0
  3
*D4
  1

  0
LINE
  5
8F43
330
88A2
100
AcDbEntity
  8
11100_LEFT_DIM
  6
Continuous
 62
     0
370
    -2
100
AcDbLine
 10
170.4845009646992
 20
367.6384800354374
 30
0.0
 11
170.4845009646992
 21
345.0458543726889
 31
0.0
  0
LINE
  5
8F44
330
88A2
100
AcDbEntity
  8
11100_LEFT_DIM
  6
Continuous
 62
     0
370
    -2
100
AcDbLine
 10
175.4845009646992
 20
392.9384800354375
 30
0.0
 11
175.4845009646992
 21
345.0458543726889
 31
0.0
  0
LINE
  5
8F45
330
88A2
100
AcDbEntity
  8
11100_LEFT_DIM
  6
Continuous
 62
     0
370
    -2
100
AcDbLine
 10
168.4845009646991
 20
346.045854372689
 30
0.0
 11
166.4845009646992
 21
346.045854372689
 31
0.0
  0
LINE
  5
8F46
330
88A2
100
AcDbEntity
  8
11100_LEFT_DIM
  6
Continuous
 62
     0
370
    -2
100
AcDbLine
 10
177.4845009646992
 20
346.045854372689
 30
0.0
 11
179.4845009646993
 21
346.045854372689
 31
0.0
  0
LINE
  5
8F47
330
88A2
100
AcDbEntity
  8
11100_LEFT_DIM
  6
Continuous
 62
     0
370
    -2
100
AcDbLine
 10
170.4845009646992
 20
346.045854372689
 30
0.0
 11
170.8178342980326
 21
346.045854372689
 31
0.0
  0
LINE
  5
8F48
330
88A2
100
AcDbEntity
  8
11100_LEFT_DIM
  6
Continuous
 62
     0
370
    -2
100
AcDbLine
 10
175.4845009646992
 20
346.045854372689
 30
0.0
 11
175.1511676313659
 21
346.045854372689
 31
0.0
  0
SOLID
  5
8F49
330
88A2
100
AcDbEntity
  8
11100_LEFT_DIM
  6
Continuous
 62
     0
100
AcDbTrace
 10
168.4845009646991
 20
346.3791877060223
 30
0.0
 11
168.4845009646991
 21
345.7125210393556
 31
0.0
 12
170.4845009646992
 22
346.045854372689
 32
0.0
 13
170.4845009646992
 23
346.045854372689
 33
0.0
  0
SOLID
  5
8F4A
330
88A2
100
AcDbEntity
  8
11100_LEFT_DIM
  6
Continuous
 62
     0
100
AcDbTrace
 10
177.4845009646992
 20
346.3791877060223
 30
0.0
 11
177.4845009646992
 21
345.7125210393556
 31
0.0
 12
175.4845009646992
 22
346.045854372689
 32
0.0
 13
175.4845009646992
 23
346.045854372689
 33
0.0
  0
MTEXT
  5
8F4B
330
88A2
100
AcDbEntity
  8
11100_LEFT_DIM
  6
Continuous
 62
     0
370
    13
100
AcDbMText
 10
172.9845009646991
 20
346.045854372689
 30
0.0
 40
3.5
 41
0.0
 71
     5
 72
     1
  1
\A1;5
 73
     1
 44
1.0
1001
ACAD
1000
MTEXTBEGIN
1070
    73
1070
     1
1070
    44
1040
1.0
1070
    74
1070
     0
1000
MTEXTEND
  0
POINT
  5
8F4C
330
88A2
100
AcDbEntity
  8
Defpoints
  6
Continuous
 62
     0
100
AcDbPoint
 10
170.4845009646992
 20
368.6384800354375
 30
0.0
  0
POINT
  5
8F4D
330
88A2
100
AcDbEntity
  8
Defpoints
  6
Continuous
 62
     0
100
AcDbPoint
 10
175.4845009646992
 20
393.9384800354375
 30
0.0
  0
POINT
  5
8F4E
330
88A2
100
AcDbEntity
  8
Defpoints
  6
Continuous
 62
     0
100
AcDbPoint
 10
175.4845009646992
 20
346.045854372689
 30
0.0
  0
ENDBLK
  5
88AF
330
88A2
100
AcDbEntity
  8
0
100
AcDbBlockEnd
  0
BLOCK
  5
88BB
330
88B1
100
AcDbEntity
  8
0
100
AcDbBlockBegin
  2
*D5
 70
     1
 10
0.0
 20
0.0
 30
0.0
  3
*D5
  1

  0
LINE
  5
8F39
330
88B1
100
AcDbEntity
  8
11100_LEFT_DIM
  6
Continuous
 62
     0
370
    -2
100
AcDbLine
 10
175.4845009646992
 20
367.6384800354374
 30
0.0
 11
175.4845009646992
 21
345.0458543726889
 31
0.0
  0
LINE
  5
8F3A
330
88B1
100
AcDbEntity
  8
11100_LEFT_DIM
  6
Continuous
 62
     0
370
    -2
100
AcDbLine
 10
208.4845009646993
 20
363.9384800354374
 30
0.0
 11
208.4845009646993
 21
345.0458543726889
 31
0.0
  0
LINE
  5
8F3B
330
88B1
100
AcDbEntity
  8
11100_LEFT_DIM
  6
Continuous
 62
     0
370
    -2
100
AcDbLine
 10
177.4845009646992
 20
346.045854372689
 30
0.0
 11
188.0678342980326
 21
346.045854372689
 31
0.0
  0
LINE
  5
8F3C
330
88B1
100
AcDbEntity
  8
11100_LEFT_DIM
  6
Continuous
 62
     0
370
    -2
100
AcDbLine
 10
206.4845009646993
 20
346.045854372689
 30
0.0
 11
195.9011676313659
 21
346.045854372689
 31
0.0
  0
SOLID
  5
8F3D
330
88B1
100
AcDbEntity
  8
11100_LEFT_DIM
  6
Continuous
 62
     0
100
AcDbTrace
 10
177.4845009646992
 20
346.3791877060223
 30
0.0
 11
177.4845009646992
 21
345.7125210393556
 31
0.0
 12
175.4845009646992
 22
346.045854372689
 32
0.0
 13
175.4845009646992
 23
346.045854372689
 33
0.0
  0
SOLID
  5
8F3E
330
88B1
100
AcDbEntity
  8
11100_LEFT_DIM
  6
Continuous
 62
     0
100
AcDbTrace
 10
206.4845009646993
 20
346.3791877060223
 30
0.0
 11
206.4845009646993
 21
345.7125210393556
 31
0.0
 12
208.4845009646993
 22
346.045854372689
 32
0.0
 13
208.4845009646993
 23
346.045854372689
 33
0.0
  0
MTEXT
  5
8F3F
330
88B1
100
AcDbEntity
  8
11100_LEFT_DIM
  6
Continuous
 62
     0
370
    13
100
AcDbMText
 10
191.9845009646993
 20
346.045854372689
 30
0.0
 40
3.5
 41
0.0
 71
     5
 72
     1
  1
\A1;33
 73
     1
 44
1.0
1001
ACAD
1000
MTEXTBEGIN
1070
    73
1070
     1
1070
    44
1040
1.0
1070
    74
1070
     0
1000
MTEXTEND
  0
POINT
  5
8F40
330
88B1
100
AcDbEntity
  8
Defpoints
  6
Continuous
 62
     0
100
AcDbPoint
 10
175.4845009646992
 20
368.6384800354375
 30
0.0
  0
POINT
  5
8F41
330
88B1
100
AcDbEntity
  8
Defpoints
  6
Continuous
 62
     0
100
AcDbPoint
 10
208.4845009646993
 20
364.9384800354375
 30
0.0
  0
POINT
  5
8F42
330
88B1
100
AcDbEntity
  8
Defpoints
  6
Continuous
 62
     0
100
AcDbPoint
 10
208.4845009646993
 20
346.045854372689
 30
0.0
  0
ENDBLK
  5
88BC
330
88B1
100
AcDbEntity
  8
0
100
AcDbBlockEnd
  0
BLOCK
  5
88C8
330
88BE
100
AcDbEntity
  8
0
100
AcDbBlockBegin
  2
*D6
 70
     1
 10
0.0
 20
0.0
 30
0.0
  3
*D6
  1

  0
LINE
  5
8F2F
330
88BE
100
AcDbEntity
  8
11100_LEFT_DIM
  6
Continuous
 62
     0
370
    -2
100
AcDbLine
 10
175.4845009646992
 20
367.6384800354374
 30
0.0
 11
175.4845009646992
 21
337.0726867537205
 31
0.0
  0
LINE
  5
8F30
330
88BE
100
AcDbEntity
  8
11100_LEFT_DIM
  6
Continuous
 62
     0
370
    -2
100
AcDbLine
 10
266.3155009646993
 20
398.8844800354375
 30
0.0
 11
266.3155009646993
 21
337.0726867537205
 31
0.0
  0
LINE
  5
8F31
330
88BE
100
AcDbEntity
  8
11100_LEFT_DIM
  6
Continuous
 62
     0
370
    -2
100
AcDbLine
 10
177.4845009646992
 20
338.0726867537205
 30
0.0
 11
217.5666676313659
 21
338.0726867537205
 31
0.0
  0
LINE
  5
8F32
330
88BE
100
AcDbEntity
  8
11100_LEFT_DIM
  6
Continuous
 62
     0
370
    -2
100
AcDbLine
 10
264.3155009646993
 20
338.0726867537205
 30
0.0
 11
224.2333342980326
 21
338.0726867537205
 31
0.0
  0
SOLID
  5
8F33
330
88BE
100
AcDbEntity
  8
11100_LEFT_DIM
  6
Continuous
 62
     0
100
AcDbTrace
 10
177.4845009646992
 20
338.4060200870538
 30
0.0
 11
177.4845009646992
 21
337.7393534203872
 31
0.0
 12
175.4845009646992
 22
338.0726867537205
 32
0.0
 13
175.4845009646992
 23
338.0726867537205
 33
0.0
  0
SOLID
  5
8F34
330
88BE
100
AcDbEntity
  8
11100_LEFT_DIM
  6
Continuous
 62
     0
100
AcDbTrace
 10
264.3155009646993
 20
338.4060200870538
 30
0.0
 11
264.3155009646993
 21
337.7393534203872
 31
0.0
 12
266.3155009646993
 22
338.0726867537205
 32
0.0
 13
266.3155009646993
 23
338.0726867537205
 33
0.0
  0
MTEXT
  5
8F35
330
88BE
100
AcDbEntity
  8
11100_LEFT_DIM
  6
Continuous
 62
     0
370
    13
100
AcDbMText
 10
220.9000009646993
 20
338.0726867537205
 30
0.0
 40
3.5
 41
0.0
 71
     5
 72
     1
  1
\A1;91
 73
     1
 44
1.0
1001
ACAD
1000
MTEXTBEGIN
1070
    73
1070
     1
1070
    44
1040
1.0
1070
    74
1070
     0
1000
MTEXTEND
  0
POINT
  5
8F36
330
88BE
100
AcDbEntity
  8
Defpoints
  6
Continuous
 62
     0
100
AcDbPoint
 10
175.4845009646992
 20
368.6384800354375
 30
0.0
  0
POINT
  5
8F37
330
88BE
100
AcDbEntity
  8
Defpoints
  6
Continuous
 62
     0
100
AcDbPoint
 10
266.3155009646993
 20
399.8844800354375
 30
0.0
  0
POINT
  5
8F38
330
88BE
100
AcDbEntity
  8
Defpoints
  6
Continuous
 62
     0
100
AcDbPoint
 10
266.3155009646993
 20
338.0726867537205
 30
0.0
  0
ENDBLK
  5
88C9
330
88BE
100
AcDbEntity
  8
0
100
AcDbBlockEnd
  0
BLOCK
  5
8E2C
330
8E22
100
AcDbEntity
  8
0
100
AcDbBlockBegin
  2
*D7
 70
     1
 10
0.0
 20
0.0
 30
0.0
  3
*D7
  1

  0
LINE
  5
8ECA
330
8E22
100
AcDbEntity
  8
30100_Drilling_DIM
  6
Continuous
 62
     0
370
    -2
100
AcDbLine
 10
291.7074938456225
 20
465.6072211617996
 30
0.0
 11
283.8879278250413
 21
465.6072211617996
 31
0.0
  0
LINE
  5
8ECB
330
8E22
100
AcDbEntity
  8
30100_Drilling_DIM
  6
Continuous
 62
     0
370
    -2
100
AcDbLine
 10
291.7074938456225
 20
360.0992211617997
 30
0.0
 11
283.8879278250413
 21
360.0992211617997
 31
0.0
  0
LINE
  5
8ECC
330
8E22
100
AcDbEntity
  8
30100_Drilling_DIM
  6
Continuous
 62
     0
370
    -2
100
AcDbLine
 10
284.8879278250413
 20
463.6072211617998
 30
0.0
 11
284.8879278250413
 21
416.5615544951331
 31
0.0
  0
LINE
  5
8ECD
330
8E22
100
AcDbEntity
  8
30100_Drilling_DIM
  6
Continuous
 62
     0
370
    -2
100
AcDbLine
 10
284.8879278250413
 20
362.0992211617998
 30
0.0
 11
284.8879278250413
 21
409.1448878284663
 31
0.0
  0
SOLID
  5
8ECE
330
8E22
100
AcDbEntity
  8
30100_Drilling_DIM
  6
Continuous
 62
     0
100
AcDbTrace
 10
284.5545944917081
 20
463.6072211617998
 30
0.0
 11
285.2212611583746
 21
463.6072211617998
 31
0.0
 12
284.8879278250413
 22
465.6072211617996
 32
0.0
 13
284.8879278250413
 23
465.6072211617996
 33
0.0
  0
SOLID
  5
8ECF
330
8E22
100
AcDbEntity
  8
30100_Drilling_DIM
  6
Continuous
 62
     0
100
AcDbTrace
 10
284.554594491708
 20
362.0992211617998
 30
0.0
 11
285.2212611583746
 21
362.0992211617998
 31
0.0
 12
284.8879278250413
 22
360.0992211617997
 32
0.0
 13
284.8879278250413
 23
360.0992211617997
 33
0.0
  0
MTEXT
  5
8ED0
330
8E22
100
AcDbEntity
  8
30100_Drilling_DIM
  6
Continuous
 62
     0
370
    13
100
AcDbMText
 10
284.8879278250412
 20
412.8532211617998
 30
0.0
 40
2.5
 41
0.0
 71
     5
 72
     1
  1
\A1;106
 11
0.0000000000000001
 21
1.0
 31
0.0
 73
     1
 44
1.0
1001
ACAD
1000
MTEXTBEGIN
1070
    73
1070
     1
1070
    44
1040
1.0
1070
    74
1070
     0
1000
MTEXTEND
  0
POINT
  5
8ED1
330
8E22
100
AcDbEntity
  8
Defpoints
  6
Continuous
 62
     0
100
AcDbPoint
 10
292.7074938456225
 20
465.6072211617996
 30
0.0
  0
POINT
  5
8ED2
330
8E22
100
AcDbEntity
  8
Defpoints
  6
Continuous
 62
     0
100
AcDbPoint
 10
292.7074938456225
 20
360.0992211617997
 30
0.0
  0
POINT
  5
8ED3
330
8E22
100
AcDbEntity
  8
Defpoints
  6
Continuous
 62
     0
100
AcDbPoint
 10
284.8879278250413
 20
360.0992211617997
 30
0.0
  0
ENDBLK
  5
8E2D
330
8E22
100
AcDbEntity
  8
0
100
AcDbBlockEnd
  0
BLOCK
  5
8E3A
330
8E30
100
AcDbEntity
  8
0
100
AcDbBlockBegin
  2
*D8
 70
     1
 10
0.0
 20
0.0
 30
0.0
  3
*D8
  1

  0
LINE
  5
8ED4
330
8E30
100
AcDbEntity
  8
30100_Drilling_DIM
  6
Continuous
 62
     0
370
    -2
100
AcDbLine
 10
295.1074938456224
 20
469.0072211617996
 30
0.0
 11
295.1074938456224
 21
475.3455038483554
 31
0.0
  0
LINE
  5
8ED5
330
8E30
100
AcDbEntity
  8
30100_Drilling_DIM
  6
Continuous
 62
     0
370
    -2
100
AcDbLine
 10
320.1074938456224
 20
469.0092211617996
 30
0.0
 11
320.1074938456224
 21
475.3455038483554
 31
0.0
  0
LINE
  5
8ED6
330
8E30
100
AcDbEntity
  8
30100_Drilling_DIM
  6
Continuous
 62
     0
370
    -2
100
AcDbLine
 10
297.1074938456224
 20
474.3455038483554
 30
0.0
 11
304.5241605122892
 21
474.3455038483554
 31
0.0
  0
LINE
  5
8ED7
330
8E30
100
AcDbEntity
  8
30100_Drilling_DIM
  6
Continuous
 62
     0
370
    -2
100
AcDbLine
 10
318.1074938456224
 20
474.3455038483554
 30
0.0
 11
310.6908271789558
 21
474.3455038483554
 31
0.0
  0
SOLID
  5
8ED8
330
8E30
100
AcDbEntity
  8
30100_Drilling_DIM
  6
Continuous
 62
     0
100
AcDbTrace
 10
297.1074938456224
 20
474.6788371816888
 30
0.0
 11
297.1074938456224
 21
474.0121705150222
 31
0.0
 12
295.1074938456224
 22
474.3455038483554
 32
0.0
 13
295.1074938456224
 23
474.3455038483554
 33
0.0
  0
SOLID
  5
8ED9
330
8E30
100
AcDbEntity
  8
30100_Drilling_DIM
  6
Continuous
 62
     0
100
AcDbTrace
 10
318.1074938456224
 20
474.6788371816888
 30
0.0
 11
318.1074938456224
 21
474.0121705150222
 31
0.0
 12
320.1074938456224
 22
474.3455038483554
 32
0.0
 13
320.1074938456224
 23
474.3455038483554
 33
0.0
  0
MTEXT
  5
8EDA
330
8E30
100
AcDbEntity
  8
30100_Drilling_DIM
  6
Continuous
 62
     0
370
    13
100
AcDbMText
 10
307.6074938456224
 20
474.3455038483554
 30
0.0
 40
2.5
 41
0.0
 71
     5
 72
     1
  1
\A1;25
 73
     1
 44
1.0
1001
ACAD
1000
MTEXTBEGIN
1070
    73
1070
     1
1070
    44
1040
1.0
1070
    74
1070
     0
1000
MTEXTEND
  0
POINT
  5
8EDB
330
8E30
100
AcDbEntity
  8
Defpoints
  6
Continuous
 62
     0
100
AcDbPoint
 10
295.1074938456224
 20
468.0072211617996
 30
0.0
  0
POINT
  5
8EDC
330
8E30
100
AcDbEntity
  8
Defpoints
  6
Continuous
 62
     0
100
AcDbPoint
 10
320.1074938456224
 20
468.0092211617997
 30
0.0
  0
POINT
  5
8EDD
330
8E30
100
AcDbEntity
  8
Defpoints
  6
Continuous
 62
     0
100
AcDbPoint
 10
320.1074938456224
 20
474.3455038483554
 30
0.0
  0
ENDBLK
  5
8E3B
330
8E30
100
AcDbEntity
  8
0
100
AcDbBlockEnd
  0
BLOCK
  5
8E46
330
8E3D
100
AcDbEntity
  8
0
100
AcDbBlockBegin
  2
*D9
 70
     1
 10
0.0
 20
0.0
 30
0.0
  3
*D9
  1

  0
LINE
  5
8EDE
330
8E3D
100
AcDbEntity
  8
30100_Drilling_DIM
  6
Continuous
 62
     0
370
    -2
100
AcDbLine
 10
314.9999753929011
 20
461.7526352033242
 30
0.0
 11
316.5960749093765
 21
462.9578183153476
 31
0.0
  0
LINE
  5
8EDF
330
8E3D
100
AcDbEntity
  8
30100_Drilling_DIM
  6
Continuous
 62
     0
370
    -2
100
AcDbLine
 10
323.6189127818684
 20
468.2606240082515
 30
0.0
 11
325.2150122983438
 21
469.4658071202751
 31
0.0
  0
MTEXT
  5
8EE0
330
8E3D
100
AcDbEntity
  8
30100_Drilling_DIM
  6
Continuous
 62
     0
370
    13
100
AcDbMText
 10
312.5393219716681
 20
459.8946445722877
 30
0.0
 40
2.5
 41
0.0
 71
     5
 72
     1
  1
\A1;\U+22055
 11
0.7980497582377174
 21
0.6025915560117988
 31
0.0
 73
     1
 44
1.0
1001
ACAD
1000
MTEXTBEGIN
1070
    73
1070
     1
1070
    44
1040
1.0
1070
    74
1070
     0
1000
MTEXTEND
  0
LINE
  5
8EE1
330
8E3D
100
AcDbEntity
  8
30100_Drilling_DIM
  6
Continuous
 62
     0
370
    -2
100
AcDbLine
 10
322.022813265393
 20
467.0554408962281
 30
0.0
 11
318.1921744258519
 21
464.1630014273713
 31
0.0
  0
SOLID
  5
8EE2
330
8E3D
100
AcDbEntity
  8
30100_Drilling_DIM
  6
Continuous
 62
     0
100
AcDbTrace
 10
323.4180489298645
 20
468.5266405943308
 30
0.0
 11
323.8197766338724
 21
467.9946074221723
 31
0.0
 12
322.022813265393
 22
467.0554408962281
 32
0.0
 13
322.022813265393
 23
467.0554408962281
 33
0.0
  0
SOLID
  5
8EE3
330
8E3D
100
AcDbEntity
  8
30100_Drilling_DIM
  6
Continuous
 62
     0
100
AcDbTrace
 10
316.3952110573727
 20
463.223834901427
 30
0.0
 11
316.7969387613805
 21
462.6918017292685
 31
0.0
 12
318.1921744258519
 22
464.1630014273713
 32
0.0
 13
318.1921744258519
 23
464.1630014273713
 33
0.0
  0
POINT
  5
8EE4
330
8E3D
100
AcDbEntity
  8
Defpoints
  6
Continuous
 62
     0
100
AcDbPoint
 10
318.1921744258519
 20
464.1630014273713
 30
0.0
  0
POINT
  5
8EE5
330
8E3D
100
AcDbEntity
  8
Defpoints
  6
Continuous
 62
     0
100
AcDbPoint
 10
322.022813265393
 20
467.0554408962281
 30
0.0
  0
ENDBLK
  5
8E47
330
8E3D
100
AcDbEntity
  8
0
100
AcDbBlockEnd
  0
ENDSEC
  0
SECTION
  2
ENTITIES
  0
TEXT
  5
8267
330
20
100
AcDbEntity
  8
10000_FRONT
  6
Continuous
 62
     7
370
    20
100
AcDbText
 39
0.25
 10
89.27819679803059
 20
431.9044800354374
 30
0.0
 40
2.5
  1
SIEMENS
 41
0.6600000000000002
100
AcDbText
1001
AUSTER_ANSICHT
1002
{
1000
Det03
1002
}
1001
AUSTER_FOLIE
1002
{
1000
NSB00030_RELAIS
1000
NSB00027_S0
1002
}
  0
ARC
  5
8268
330
20
100
AcDbEntity
  8
11000_Left
  6
DASHED
 62
     7
370
    20
100
AcDbCircle
 39
0.25
 10
172.7665009646991
 20
366.6304800354375
 30
0.0
 40
1.903
100
AcDbArc
 50
90.0
 51
183.0130000000003
1001
AUSTER_ANSICHT
1002
{
1000
Det03
1002
}
1001
AUSTER_FOLIE
1002
{
1000
NSB00030_RELAIS
1000
NSB00027_S0
1002
}
  0
ARC
  5
8269
330
20
100
AcDbEntity
  8
11000_Left
  6
DASHED
 62
     7
370
    20
100
AcDbCircle
 39
0.25
 10
172.7665009646991
 20
366.5304800354375
 30
0.0
 40
0.5
100
AcDbArc
 50
90.0
 51
180.0
1001
AUSTER_ANSICHT
1002
{
1000
Det03
1002
}
1001
AUSTER_FOLIE
1002
{
1000
NSB00030_RELAIS
1000
NSB00027_S0
1002
}
  0
ARC
  5
826A
330
20
100
AcDbEntity
  8
11000_Left
  6
DASHED
 62
     7
370
    20
100
AcDbCircle
 39
0.25
 10
174.7665009646993
 20
368.0304800354374
 30
0.0
 40
1.0
100
AcDbArc
 50
270.0
 51
0.0
1001
AUSTER_ANSICHT
1002
{
1000
Det03
1002
}
1001
AUSTER_FOLIE
1002
{
1000
NSB00030_RELAIS
1000
NSB00027_S0
1002
}
  0
ARC
  5
826B
330
20
100
AcDbEntity
  8
11000_Left
  6
DASHED
 62
     7
370
    20
100
AcDbCircle
 39
0.25
 10
174.7665009646993
 20
458.7384800354374
 30
0.0
 40
1.0
100
AcDbArc
 50
0.0
 51
90.0
1001
AUSTER_ANSICHT
1002
{
1000
Det03
1002
}
1001
AUSTER_FOLIE
1002
{
1000
NSB00030_RELAIS
1000
NSB00027_S0
1002
}
  0
ARC
  5
826C
330
20
100
AcDbEntity
  8
11000_Left
  6
DASHED
 62
     7
370
    20
100
AcDbCircle
 39
0.25
 10
172.7665009646991
 20
460.2384800354374
 30
0.0
 40
0.5
100
AcDbArc
 50
180.0
 51
270.0
1001
AUSTER_ANSICHT
1002
{
1000
Det03
1002
}
1001
AUSTER_FOLIE
1002
{
1000
NSB00030_RELAIS
1000
NSB00027_S0
1002
}
  0
CIRCLE
  5
826D
330
20
100
AcDbEntity
  8
10000_FRONT
  6
DASHED
 62
     7
370
    20
100
AcDbCircle
 39
0.25
 10
121.6551967980306
 20
360.6284800354375
 30
0.0
 40
2.399999999999999
1001
AUSTER_ANSICHT
1002
{
1000
Det03
1002
}
1001
AUSTER_FOLIE
1002
{
1000
NSB00030_RELAIS
1000
NSB00027_S0
1002
}
  0
CIRCLE
  5
826E
330
20
100
AcDbEntity
  8
10000_FRONT
  6
DASHED
 62
     7
370
    20
100
AcDbCircle
 39
0.25
 10
121.6551967980306
 20
466.1404800354373
 30
0.0
 40
2.399999999999999
1001
AUSTER_ANSICHT
1002
{
1000
Det03
1002
}
1001
AUSTER_FOLIE
1002
{
1000
NSB00030_RELAIS
1000
NSB00027_S0
1002
}
  0
ARC
  5
826F
330
20
100
AcDbEntity
  8
10000_FRONT
  6
Continuous
 62
     7
370
    20
100
AcDbCircle
 39
0.25
 10
130.2751967980306
 20
411.8834800354374
 30
0.0
 40
0.5910000000000001
100
AcDbArc
 50
273.5659999999999
 51
13.193999999998
1001
AUSTER_ANSICHT
1002
{
1000
Det03
1002
}
1001
AUSTER_FOLIE
1002
{
1000
NSB00030_RELAIS
1000
NSB00027_S0
1002
}
  0
ARC
  5
8270
330
20
100
AcDbEntity
  8
10000_FRONT
  6
Continuous
 62
     7
370
    20
100
AcDbCircle
 39
0.25
 10
117.3501967980306
 20
413.3844800354373
 30
0.0
 40
8.0
100
AcDbArc
 50
196.7699999999981
 51
339.7409999999998
1001
AUSTER_ANSICHT
1002
{
1000
Det03
1002
}
1001
AUSTER_FOLIE
1002
{
1000
NSB00030_RELAIS
1000
NSB00027_S0
1002
}
  0
ARC
  5
8271
330
20
100
AcDbEntity
  8
10000_FRONT
  6
Continuous
 62
     7
370
    20
100
AcDbCircle
 39
0.25
 10
117.3501967980306
 20
413.3844800354373
 30
0.0
 40
8.0
100
AcDbArc
 50
20.25900000000024
 51
163.2299999999986
1001
AUSTER_ANSICHT
1002
{
1000
Det03
1002
}
1001
AUSTER_FOLIE
1002
{
1000
NSB00030_RELAIS
1000
NSB00027_S0
1002
}
  0
ARC
  5
8272
330
20
100
AcDbEntity
  8
10000_FRONT
  6
Continuous
 62
     7
370
    20
100
AcDbCircle
 39
0.25
 10
130.2751967980306
 20
414.8854800354373
 30
0.0
 40
0.5910000000000001
100
AcDbArc
 50
346.8059999999987
 51
86.43400000000015
1001
AUSTER_ANSICHT
1002
{
1000
Det03
1002
}
1001
AUSTER_FOLIE
1002
{
1000
NSB00030_RELAIS
1000
NSB00027_S0
1002
}
  0
ARC
  5
8273
330
20
100
AcDbEntity
  8
10000_FRONT
  6
Continuous
 62
     7
370
    20
100
AcDbCircle
 39
0.25
 10
119.3041967980306
 20
477.5334800354373
 30
0.0
 40
67.149
100
AcDbArc
 50
261.769
 51
279.4349999999998
1001
AUSTER_ANSICHT
1002
{
1000
Det03
1002
}
1001
AUSTER_FOLIE
1002
{
1000
NSB00030_RELAIS
1000
NSB00027_S0
1002
}
  0
ARC
  5
8274
330
20
100
AcDbEntity
  8
10000_FRONT
  6
Continuous
 62
     7
370
    20
100
AcDbCircle
 39
0.25
 10
119.2191967980305
 20
476.7564800354374
 30
0.0
 40
66.36700000000001
100
AcDbArc
 50
257.4940000000002
 51
261.7459999999999
1001
AUSTER_ANSICHT
1002
{
1000
Det03
1002
}
1001
AUSTER_FOLIE
1002
{
1000
NSB00030_RELAIS
1000
NSB00027_S0
1002
}
  0
ARC
  5
8275
330
20
100
AcDbEntity
  8
10000_FRONT
  6
Continuous
 62
     7
370
    20
100
AcDbCircle
 39
0.25
 10
119.3021967980306
 20
349.3034800354375
 30
0.0
 40
67.081
100
AcDbArc
 50
80.55299999999972
 51
98.23800000000005
1001
AUSTER_ANSICHT
1002
{
1000
Det03
1002
}
1001
AUSTER_FOLIE
1002
{
1000
NSB00030_RELAIS
1000
NSB00027_S0
1002
}
  0
ARC
  5
8276
330
20
100
AcDbEntity
  8
10000_FRONT
  6
Continuous
 62
     7
370
    20
100
AcDbCircle
 39
0.25
 10
118.7711967980306
 20
352.4524800354375
 30
0.0
 40
63.88899999999999
100
AcDbArc
 50
98.17099999999969
 51
102.5879999999997
1001
AUSTER_ANSICHT
1002
{
1000
Det03
1002
}
1001
AUSTER_FOLIE
1002
{
1000
NSB00030_RELAIS
1000
NSB00027_S0
1002
}
  0
ARC
  5
8346
330
20
100
AcDbEntity
  8
11000_Left
  6
Continuous
 62
     7
370
    50
100
AcDbCircle
 39
0.7
 10
220.2345009646992
 20
460.4384800354374
 30
0.0
 40
1.5
100
AcDbArc
 50
0.0
 51
90.0
1001
AUSTER_ANSICHT
1002
{
1000
Det03
1002
}
1001
AUSTER_FOLIE
1002
{
1000
NSB00030_RELAIS
1000
NSB00027_S0
1002
}
  0
ARC
  5
8347
330
20
100
AcDbEntity
  8
11000_Left
  6
Continuous
 62
     7
370
    50
100
AcDbCircle
 39
0.7
 10
198.7345009646992
 20
460.4384800354374
 30
0.0
 40
1.5
100
AcDbArc
 50
90.0
 51
180.0
1001
AUSTER_ANSICHT
1002
{
1000
Det03
1002
}
1001
AUSTER_FOLIE
1002
{
1000
NSB00030_RELAIS
1000
NSB00027_S0
1002
}
  0
ARC
  5
8348
330
20
100
AcDbEntity
  8
11000_Left
  6
Continuous
 62
     7
370
    50
100
AcDbCircle
 39
0.7
 10
220.2345009646992
 20
366.4384800354375
 30
0.0
 40
1.5
100
AcDbArc
 50
270.0
 51
0.0
1001
AUSTER_ANSICHT
1002
{
1000
Det03
1002
}
1001
AUSTER_FOLIE
1002
{
1000
NSB00030_RELAIS
1000
NSB00027_S0
1002
}
  0
ARC
  5
8349
330
20
100
AcDbEntity
  8
11000_Left
  6
Continuous
 62
     7
370
    50
100
AcDbCircle
 39
0.7
 10
198.7345009646992
 20
366.4384800354375
 30
0.0
 40
1.5
100
AcDbArc
 50
180.0
 51
270.0
1001
AUSTER_ANSICHT
1002
{
1000
Det03
1002
}
1001
AUSTER_FOLIE
1002
{
1000
NSB00030_RELAIS
1000
NSB00027_S0
1002
}
  0
ARC
  5
834A
330
20
100
AcDbEntity
  8
11000_Left
  6
Continuous
 62
     7
370
    50
100
AcDbCircle
 39
0.7
 10
228.9715009646993
 20
457.3384800354374
 30
0.0
 40
0.8
100
AcDbArc
 50
6.196000000000759
 51
90.0
1001
AUSTER_ANSICHT
1002
{
1000
Det03
1002
}
1001
AUSTER_FOLIE
1002
{
1000
NSB00030_RELAIS
1000
NSB00027_S0
1002
}
  0
ARC
  5
834B
330
20
100
AcDbEntity
  8
11000_Left
  6
Continuous
 62
     7
370
    50
100
AcDbCircle
 39
0.7
 10
253.2005009646993
 20
435.0384800354373
 30
0.0
 40
0.8
100
AcDbArc
 50
4.996000000001066
 51
90.0
1001
AUSTER_ANSICHT
1002
{
1000
Det03
1002
}
1001
AUSTER_FOLIE
1002
{
1000
NSB00030_RELAIS
1000
NSB00027_S0
1002
}
  0
ARC
  5
834D
330
20
100
AcDbEntity
  8
11000_Left
  6
Continuous
 62
     7
370
    50
100
AcDbCircle
 39
0.7
 10
30.93450096469928
 20
390.8384800354376
 30
0.0
 40
200.0
100
AcDbArc
 50
353.8039999999992
 51
359.913999999998
1001
AUSTER_ANSICHT
1002
{
1000
Det03
1002
}
1001
AUSTER_FOLIE
1002
{
1000
NSB00030_RELAIS
1000
NSB00027_S0
1002
}
  0
ARC
  5
834E
330
20
100
AcDbEntity
  8
11000_Left
  6
Continuous
 62
     7
370
    50
100
AcDbCircle
 39
0.7
 10
228.9715009646993
 20
369.3384800354376
 30
0.0
 40
0.8
100
AcDbArc
 50
270.0010000000002
 51
353.8039999999992
1001
AUSTER_ANSICHT
1002
{
1000
Det03
1002
}
1001
AUSTER_FOLIE
1002
{
1000
NSB00030_RELAIS
1000
NSB00027_S0
1002
}
  0
ARC
  5
834F
330
20
100
AcDbEntity
  8
11000_Left
  6
Continuous
 62
     7
370
    50
100
AcDbCircle
 39
0.7
 10
253.2005009646993
 20
391.6384800354375
 30
0.0
 40
0.8
100
AcDbArc
 50
270.0010000000002
 51
355.006
1001
AUSTER_ANSICHT
1002
{
1000
Det03
1002
}
1001
AUSTER_FOLIE
1002
{
1000
NSB00030_RELAIS
1000
NSB00027_S0
1002
}
  0
ARC
  5
8350
330
20
100
AcDbEntity
  8
10000_FRONT
  6
Continuous
 62
     7
370
    20
100
AcDbCircle
 39
0.25
 10
95.15019679803058
 20
426.2384800354372
 30
0.0
 40
2.0
100
AcDbArc
 50
290.5229999999999
 51
319.4780000000012
1001
AUSTER_ANSICHT
1002
{
1000
Det03
1002
}
1001
AUSTER_FOLIE
1002
{
1000
NSB00030_RELAIS
1000
NSB00027_S0
1002
}
  0
ARC
  5
8351
330
20
100
AcDbEntity
  8
10000_FRONT
  6
Continuous
 62
     7
370
    20
100
AcDbCircle
 39
0.25
 10
95.15019679803058
 20
426.2384800354372
 30
0.0
 40
2.0
100
AcDbArc
 50
110.523
 51
139.4780000000012
1001
AUSTER_ANSICHT
1002
{
1000
Det03
1002
}
1001
AUSTER_FOLIE
1002
{
1000
NSB00030_RELAIS
1000
NSB00027_S0
1002
}
  0
CIRCLE
  5
8352
330
20
100
AcDbEntity
  8
10000_FRONT
  6
Continuous
 62
     7
370
    20
100
AcDbCircle
 39
0.25
 10
123.5501967980306
 20
451.1384800354374
 30
0.0
 40
3.1
1001
AUSTER_ANSICHT
1002
{
1000
Det03
1002
}
1001
AUSTER_FOLIE
1002
{
1000
NSB00030_RELAIS
1000
NSB00027_S0
1002
}
  0
ARC
  5
8353
330
20
100
AcDbEntity
  8
10000_FRONT
  6
Continuous
 62
     7
370
    20
100
AcDbCircle
 39
0.25
 10
123.5501967980306
 20
451.1384800354374
 30
0.0
 40
2.85
100
AcDbArc
 50
347.7599999999991
 51
12.24000000000082
1001
AUSTER_ANSICHT
1002
{
1000
Det03
1002
}
1001
AUSTER_FOLIE
1002
{
1000
NSB00030_RELAIS
1000
NSB00027_S0
1002
}
  0
ARC
  5
8354
330
20
100
AcDbEntity
  8
10000_FRONT
  6
Continuous
 62
     7
370
    20
100
AcDbCircle
 39
0.25
 10
123.5501967980306
 20
451.1384800354374
 30
0.0
 40
1.85
100
AcDbArc
 50
73.83700000000041
 51
106.1629999999996
1001
AUSTER_ANSICHT
1002
{
1000
Det03
1002
}
1001
AUSTER_FOLIE
1002
{
1000
NSB00030_RELAIS
1000
NSB00027_S0
1002
}
  0
ARC
  5
8355
330
20
100
AcDbEntity
  8
10000_FRONT
  6
Continuous
 62
     7
370
    20
100
AcDbCircle
 39
0.25
 10
123.5501967980306
 20
451.1384800354374
 30
0.0
 40
1.85
100
AcDbArc
 50
253.8370000000004
 51
286.1629999999996
1001
AUSTER_ANSICHT
1002
{
1000
Det03
1002
}
1001
AUSTER_FOLIE
1002
{
1000
NSB00030_RELAIS
1000
NSB00027_S0
1002
}
  0
ARC
  5
8356
330
20
100
AcDbEntity
  8
10000_FRONT
  6
Continuous
 62
     7
370
    20
100
AcDbCircle
 39
0.25
 10
123.5501967980306
 20
451.1384800354374
 30
0.0
 40
2.85
100
AcDbArc
 50
167.7599999999991
 51
192.2400000000008
1001
AUSTER_ANSICHT
1002
{
1000
Det03
1002
}
1001
AUSTER_FOLIE
1002
{
1000
NSB00030_RELAIS
1000
NSB00027_S0
1002
}
  0
CIRCLE
  5
8357
330
20
100
AcDbEntity
  8
10000_FRONT
  6
Continuous
 62
     7
370
    20
100
AcDbCircle
 39
0.25
 10
123.5501967980306
 20
451.1384800354374
 30
0.0
 40
3.1
1001
AUSTER_ANSICHT
1002
{
1000
Det03
1002
}
1001
AUSTER_FOLIE
1002
{
1000
NSB00030_RELAIS
1000
NSB00027_S0
1002
}
  0
CIRCLE
  5
8358
330
20
100
AcDbEntity
  8
10000_FRONT
  6
Continuous
 62
     7
370
    20
100
AcDbCircle
 39
0.25
 10
109.1501967980306
 20
451.1384800354374
 30
0.0
 40
3.1
1001
AUSTER_ANSICHT
1002
{
1000
Det03
1002
}
1001
AUSTER_FOLIE
1002
{
1000
NSB00030_RELAIS
1000
NSB00027_S0
1002
}
  0
ARC
  5
8359
330
20
100
AcDbEntity
  8
10000_FRONT
  6
Continuous
 62
     7
370
    20
100
AcDbCircle
 39
0.25
 10
109.1501967980306
 20
451.1384800354374
 30
0.0
 40
2.85
100
AcDbArc
 50
347.7599999999991
 51
12.24000000000082
1001
AUSTER_ANSICHT
1002
{
1000
Det03
1002
}
1001
AUSTER_FOLIE
1002
{
1000
NSB00030_RELAIS
1000
NSB00027_S0
1002
}
  0
ARC
  5
835A
330
20
100
AcDbEntity
  8
10000_FRONT
  6
Continuous
 62
     7
370
    20
100
AcDbCircle
 39
0.25
 10
109.1501967980306
 20
451.1384800354374
 30
0.0
 40
1.85
100
AcDbArc
 50
73.83700000000041
 51
106.1629999999996
1001
AUSTER_ANSICHT
1002
{
1000
Det03
1002
}
1001
AUSTER_FOLIE
1002
{
1000
NSB00030_RELAIS
1000
NSB00027_S0
1002
}
  0
ARC
  5
835B
330
20
100
AcDbEntity
  8
10000_FRONT
  6
Continuous
 62
     7
370
    20
100
AcDbCircle
 39
0.25
 10
109.1501967980306
 20
451.1384800354374
 30
0.0
 40
1.85
100
AcDbArc
 50
253.8370000000004
 51
286.1629999999996
1001
AUSTER_ANSICHT
1002
{
1000
Det03
1002
}
1001
AUSTER_FOLIE
1002
{
1000
NSB00030_RELAIS
1000
NSB00027_S0
1002
}
  0
ARC
  5
835C
330
20
100
AcDbEntity
  8
10000_FRONT
  6
Continuous
 62
     7
370
    20
100
AcDbCircle
 39
0.25
 10
109.1501967980306
 20
451.1384800354374
 30
0.0
 40
2.85
100
AcDbArc
 50
167.7599999999991
 51
192.2400000000008
1001
AUSTER_ANSICHT
1002
{
1000
Det03
1002
}
1001
AUSTER_FOLIE
1002
{
1000
NSB00030_RELAIS
1000
NSB00027_S0
1002
}
  0
CIRCLE
  5
835D
330
20
100
AcDbEntity
  8
10000_FRONT
  6
Continuous
 62
     7
370
    20
100
AcDbCircle
 39
0.25
 10
109.1501967980306
 20
451.1384800354374
 30
0.0
 40
3.1
1001
AUSTER_ANSICHT
1002
{
1000
Det03
1002
}
1001
AUSTER_FOLIE
1002
{
1000
NSB00030_RELAIS
1000
NSB00027_S0
1002
}
  0
CIRCLE
  5
835E
330
20
100
AcDbEntity
  8
10000_FRONT
  6
Continuous
 62
     7
370
    20
100
AcDbCircle
 39
0.25
 10
94.75019679803057
 20
451.1384800354374
 30
0.0
 40
3.1
1001
AUSTER_ANSICHT
1002
{
1000
Det03
1002
}
1001
AUSTER_FOLIE
1002
{
1000
NSB00030_RELAIS
1000
NSB00027_S0
1002
}
  0
ARC
  5
835F
330
20
100
AcDbEntity
  8
10000_FRONT
  6
Continuous
 62
     7
370
    20
100
AcDbCircle
 39
0.25
 10
94.75019679803057
 20
451.1384800354374
 30
0.0
 40
2.85
100
AcDbArc
 50
347.7599999999991
 51
12.24000000000082
1001
AUSTER_ANSICHT
1002
{
1000
Det03
1002
}
1001
AUSTER_FOLIE
1002
{
1000
NSB00030_RELAIS
1000
NSB00027_S0
1002
}
  0
ARC
  5
8360
330
20
100
AcDbEntity
  8
10000_FRONT
  6
Continuous
 62
     7
370
    20
100
AcDbCircle
 39
0.25
 10
94.75019679803057
 20
451.1384800354374
 30
0.0
 40
1.85
100
AcDbArc
 50
73.83700000000041
 51
106.1629999999996
1001
AUSTER_ANSICHT
1002
{
1000
Det03
1002
}
1001
AUSTER_FOLIE
1002
{
1000
NSB00030_RELAIS
1000
NSB00027_S0
1002
}
  0
ARC
  5
8361
330
20
100
AcDbEntity
  8
10000_FRONT
  6
Continuous
 62
     7
370
    20
100
AcDbCircle
 39
0.25
 10
94.75019679803057
 20
451.1384800354374
 30
0.0
 40
1.85
100
AcDbArc
 50
253.8370000000004
 51
286.1629999999996
1001
AUSTER_ANSICHT
1002
{
1000
Det03
1002
}
1001
AUSTER_FOLIE
1002
{
1000
NSB00030_RELAIS
1000
NSB00027_S0
1002
}
  0
ARC
  5
8362
330
20
100
AcDbEntity
  8
10000_FRONT
  6
Continuous
 62
     7
370
    20
100
AcDbCircle
 39
0.25
 10
94.75019679803057
 20
451.1384800354374
 30
0.0
 40
2.85
100
AcDbArc
 50
167.7599999999991
 51
192.2400000000008
1001
AUSTER_ANSICHT
1002
{
1000
Det03
1002
}
1001
AUSTER_FOLIE
1002
{
1000
NSB00030_RELAIS
1000
NSB00027_S0
1002
}
  0
CIRCLE
  5
8363
330
20
100
AcDbEntity
  8
10000_FRONT
  6
Continuous
 62
     7
370
    20
100
AcDbCircle
 39
0.25
 10
94.75019679803057
 20
451.1384800354374
 30
0.0
 40
3.1
1001
AUSTER_ANSICHT
1002
{
1000
Det03
1002
}
1001
AUSTER_FOLIE
1002
{
1000
NSB00030_RELAIS
1000
NSB00027_S0
1002
}
  0
CIRCLE
  5
8364
330
20
100
AcDbEntity
  8
10000_FRONT
  6
Continuous
 62
     7
370
    20
100
AcDbCircle
 39
0.25
 10
95.15019679803058
 20
426.2384800354372
 30
0.0
 40
3.821
1001
AUSTER_ANSICHT
1002
{
1000
Det03
1002
}
1001
AUSTER_FOLIE
1002
{
1000
NSB00030_RELAIS
1000
NSB00027_S0
1002
}
  0
CIRCLE
  5
8365
330
20
100
AcDbEntity
  8
10000_FRONT
  6
Continuous
 62
     7
370
    20
100
AcDbCircle
 39
0.25
 10
123.5501967980306
 20
375.5384800354375
 30
0.0
 40
3.1
1001
AUSTER_ANSICHT
1002
{
1000
Det03
1002
}
1001
AUSTER_FOLIE
1002
{
1000
NSB00030_RELAIS
1000
NSB00027_S0
1002
}
  0
ARC
  5
8366
330
20
100
AcDbEntity
  8
10000_FRONT
  6
Continuous
 62
     7
370
    20
100
AcDbCircle
 39
0.25
 10
123.5501967980306
 20
375.5384800354375
 30
0.0
 40
2.85
100
AcDbArc
 50
347.7599999999991
 51
12.24000000000082
1001
AUSTER_ANSICHT
1002
{
1000
Det03
1002
}
1001
AUSTER_FOLIE
1002
{
1000
NSB00030_RELAIS
1000
NSB00027_S0
1002
}
  0
ARC
  5
8367
330
20
100
AcDbEntity
  8
10000_FRONT
  6
Continuous
 62
     7
370
    20
100
AcDbCircle
 39
0.25
 10
123.5501967980306
 20
375.5384800354375
 30
0.0
 40
1.85
100
AcDbArc
 50
253.8370000000004
 51
286.1629999999996
1001
AUSTER_ANSICHT
1002
{
1000
Det03
1002
}
1001
AUSTER_FOLIE
1002
{
1000
NSB00030_RELAIS
1000
NSB00027_S0
1002
}
  0
ARC
  5
8368
330
20
100
AcDbEntity
  8
10000_FRONT
  6
Continuous
 62
     7
370
    20
100
AcDbCircle
 39
0.25
 10
123.5501967980306
 20
375.5384800354375
 30
0.0
 40
1.85
100
AcDbArc
 50
73.83700000000041
 51
106.1629999999996
1001
AUSTER_ANSICHT
1002
{
1000
Det03
1002
}
1001
AUSTER_FOLIE
1002
{
1000
NSB00030_RELAIS
1000
NSB00027_S0
1002
}
  0
ARC
  5
8369
330
20
100
AcDbEntity
  8
10000_FRONT
  6
Continuous
 62
     7
370
    20
100
AcDbCircle
 39
0.25
 10
123.5501967980306
 20
375.5384800354375
 30
0.0
 40
2.85
100
AcDbArc
 50
167.7599999999991
 51
192.2400000000008
1001
AUSTER_ANSICHT
1002
{
1000
Det03
1002
}
1001
AUSTER_FOLIE
1002
{
1000
NSB00030_RELAIS
1000
NSB00027_S0
1002
}
  0
CIRCLE
  5
836A
330
20
100
AcDbEntity
  8
10000_FRONT
  6
Continuous
 62
     7
370
    20
100
AcDbCircle
 39
0.25
 10
123.5501967980306
 20
375.5384800354375
 30
0.0
 40
3.1
1001
AUSTER_ANSICHT
1002
{
1000
Det03
1002
}
1001
AUSTER_FOLIE
1002
{
1000
NSB00030_RELAIS
1000
NSB00027_S0
1002
}
  0
CIRCLE
  5
836B
330
20
100
AcDbEntity
  8
10000_FRONT
  6
Continuous
 62
     7
370
    20
100
AcDbCircle
 39
0.25
 10
109.1501967980306
 20
375.5384800354375
 30
0.0
 40
3.1
1001
AUSTER_ANSICHT
1002
{
1000
Det03
1002
}
1001
AUSTER_FOLIE
1002
{
1000
NSB00030_RELAIS
1000
NSB00027_S0
1002
}
  0
ARC
  5
836C
330
20
100
AcDbEntity
  8
10000_FRONT
  6
Continuous
 62
     7
370
    20
100
AcDbCircle
 39
0.25
 10
109.1501967980306
 20
375.5384800354375
 30
0.0
 40
2.85
100
AcDbArc
 50
347.7599999999991
 51
12.24000000000082
1001
AUSTER_ANSICHT
1002
{
1000
Det03
1002
}
1001
AUSTER_FOLIE
1002
{
1000
NSB00030_RELAIS
1000
NSB00027_S0
1002
}
  0
ARC
  5
836D
330
20
100
AcDbEntity
  8
10000_FRONT
  6
Continuous
 62
     7
370
    20
100
AcDbCircle
 39
0.25
 10
109.1501967980306
 20
375.5384800354375
 30
0.0
 40
1.85
100
AcDbArc
 50
253.8370000000004
 51
286.1629999999996
1001
AUSTER_ANSICHT
1002
{
1000
Det03
1002
}
1001
AUSTER_FOLIE
1002
{
1000
NSB00030_RELAIS
1000
NSB00027_S0
1002
}
  0
ARC
  5
836E
330
20
100
AcDbEntity
  8
10000_FRONT
  6
Continuous
 62
     7
370
    20
100
AcDbCircle
 39
0.25
 10
109.1501967980306
 20
375.5384800354375
 30
0.0
 40
1.85
100
AcDbArc
 50
73.83700000000041
 51
106.1629999999996
1001
AUSTER_ANSICHT
1002
{
1000
Det03
1002
}
1001
AUSTER_FOLIE
1002
{
1000
NSB00030_RELAIS
1000
NSB00027_S0
1002
}
  0
ARC
  5
836F
330
20
100
AcDbEntity
  8
10000_FRONT
  6
Continuous
 62
     7
370
    20
100
AcDbCircle
 39
0.25
 10
109.1501967980306
 20
375.5384800354375
 30
0.0
 40
2.85
100
AcDbArc
 50
167.7599999999991
 51
192.2400000000008
1001
AUSTER_ANSICHT
1002
{
1000
Det03
1002
}
1001
AUSTER_FOLIE
1002
{
1000
NSB00030_RELAIS
1000
NSB00027_S0
1002
}
  0
CIRCLE
  5
8370
330
20
100
AcDbEntity
  8
10000_FRONT
  6
Continuous
 62
     7
370
    20
100
AcDbCircle
 39
0.25
 10
109.1501967980306
 20
375.5384800354375
 30
0.0
 40
3.1
1001
AUSTER_ANSICHT
1002
{
1000
Det03
1002
}
1001
AUSTER_FOLIE
1002
{
1000
NSB00030_RELAIS
1000
NSB00027_S0
1002
}
  0
CIRCLE
  5
8371
330
20
100
AcDbEntity
  8
10000_FRONT
  6
Continuous
 62
     7
370
    20
100
AcDbCircle
 39
0.25
 10
94.75019679803057
 20
375.5384800354375
 30
0.0
 40
3.1
1001
AUSTER_ANSICHT
1002
{
1000
Det03
1002
}
1001
AUSTER_FOLIE
1002
{
1000
NSB00030_RELAIS
1000
NSB00027_S0
1002
}
  0
ARC
  5
8372
330
20
100
AcDbEntity
  8
10000_FRONT
  6
Continuous
 62
     7
370
    20
100
AcDbCircle
 39
0.25
 10
94.75019679803057
 20
375.5384800354375
 30
0.0
 40
2.85
100
AcDbArc
 50
347.7599999999991
 51
12.24000000000082
1001
AUSTER_ANSICHT
1002
{
1000
Det03
1002
}
1001
AUSTER_FOLIE
1002
{
1000
NSB00030_RELAIS
1000
NSB00027_S0
1002
}
  0
ARC
  5
8373
330
20
100
AcDbEntity
  8
10000_FRONT
  6
Continuous
 62
     7
370
    20
100
AcDbCircle
 39
0.25
 10
94.75019679803057
 20
375.5384800354375
 30
0.0
 40
1.85
100
AcDbArc
 50
253.8370000000004
 51
286.1629999999996
1001
AUSTER_ANSICHT
1002
{
1000
Det03
1002
}
1001
AUSTER_FOLIE
1002
{
1000
NSB00030_RELAIS
1000
NSB00027_S0
1002
}
  0
ARC
  5
8374
330
20
100
AcDbEntity
  8
10000_FRONT
  6
Continuous
 62
     7
370
    20
100
AcDbCircle
 39
0.25
 10
94.75019679803057
 20
375.5384800354375
 30
0.0
 40
1.85
100
AcDbArc
 50
73.83700000000041
 51
106.1629999999996
1001
AUSTER_ANSICHT
1002
{
1000
Det03
1002
}
1001
AUSTER_FOLIE
1002
{
1000
NSB00030_RELAIS
1000
NSB00027_S0
1002
}
  0
ARC
  5
8375
330
20
100
AcDbEntity
  8
10000_FRONT
  6
Continuous
 62
     7
370
    20
100
AcDbCircle
 39
0.25
 10
94.75019679803057
 20
375.5384800354375
 30
0.0
 40
2.85
100
AcDbArc
 50
167.7599999999991
 51
192.2400000000008
1001
AUSTER_ANSICHT
1002
{
1000
Det03
1002
}
1001
AUSTER_FOLIE
1002
{
1000
NSB00030_RELAIS
1000
NSB00027_S0
1002
}
  0
CIRCLE
  5
8376
330
20
100
AcDbEntity
  8
10000_FRONT
  6
Continuous
 62
     7
370
    20
100
AcDbCircle
 39
0.25
 10
94.75019679803057
 20
375.5384800354375
 30
0.0
 40
3.1
1001
AUSTER_ANSICHT
1002
{
1000
Det03
1002
}
1001
AUSTER_FOLIE
1002
{
1000
NSB00030_RELAIS
1000
NSB00027_S0
1002
}
  0
ARC
  5
8377
330
20
100
AcDbEntity
  8
10000_FRONT
  6
Continuous
 62
     7
370
    50
100
AcDbCircle
 39
0.25
 10
130.7501967980305
 20
391.6384800354375
 30
0.0
 40
0.8
100
AcDbArc
 50
270.0
 51
0.0
1001
AUSTER_ANSICHT
1002
{
1000
Det03
1002
}
1001
AUSTER_FOLIE
1002
{
1000
NSB00030_RELAIS
1000
NSB00027_S0
1002
}
  0
ARC
  5
8378
330
20
100
AcDbEntity
  8
10000_FRONT
 62
     7
370
    50
100
AcDbCircle
 39
0.45
 10
130.7501967980305
 20
435.0384800354373
 30
0.0
 40
0.8
100
AcDbArc
 50
0.0
 51
90.0
1001
AUSTER_ANSICHT
1002
{
1000
Det03
1002
}
1001
AUSTER_FOLIE
1002
{
1000
NSB00030_RELAIS
1000
NSB00027_S0
1002
}
  0
ARC
  5
8379
330
20
100
AcDbEntity
  8
10000_FRONT
 62
     7
370
    50
100
AcDbCircle
 39
0.45
 10
87.55019679803059
 20
391.6384800354375
 30
0.0
 40
0.8
100
AcDbArc
 50
179.9990000000003
 51
270.0
1001
AUSTER_ANSICHT
1002
{
1000
Det03
1002
}
1001
AUSTER_FOLIE
1002
{
1000
NSB00030_RELAIS
1000
NSB00027_S0
1002
}
  0
ARC
  5
837A
330
20
100
AcDbEntity
  8
10000_FRONT
 62
     7
370
    50
100
AcDbCircle
 39
0.45
 10
87.55019679803059
 20
435.0384800354373
 30
0.0
 40
0.8
100
AcDbArc
 50
90.0
 51
180.0009999999997
1001
AUSTER_ANSICHT
1002
{
1000
Det03
1002
}
1001
AUSTER_FOLIE
1002
{
1000
NSB00030_RELAIS
1000
NSB00027_S0
1002
}
  0
ARC
  5
837B
330
20
100
AcDbEntity
  8
10000_FRONT
  6
Continuous
 62
     7
370
    20
100
AcDbCircle
 39
0.25
 10
99.35019679803058
 20
413.3844800354373
 30
0.0
 40
2.5
100
AcDbArc
 50
23.57800000000166
 51
336.4219999999983
1001
AUSTER_ANSICHT
1002
{
1000
Det03
1002
}
1001
AUSTER_FOLIE
1002
{
1000
NSB00030_RELAIS
1000
NSB00027_S0
1002
}
  0
ARC
  5
837C
330
20
100
AcDbEntity
  8
11000_Left
  6
DASHED
 62
     7
370
    20
100
AcDbCircle
 39
0.25
 10
171.4845009646992
 20
423.0884800354374
 30
-1.0
 40
1.0
100
AcDbArc
 50
90.0
 51
180.0
1001
AUSTER_ANSICHT
1002
{
1000
Det03
1002
}
1001
AUSTER_FOLIE
1002
{
1000
NSB00030_RELAIS
1000
NSB00027_S0
1002
}
  0
ARC
  5
837D
330
20
100
AcDbEntity
  8
11000_Left
  6
DASHED
 62
     7
370
    20
100
AcDbCircle
 39
0.25
 10
171.4845009646992
 20
404.0884800354374
 30
-1.0
 40
1.0
100
AcDbArc
 50
180.0
 51
270.0
1001
AUSTER_ANSICHT
1002
{
1000
Det03
1002
}
1001
AUSTER_FOLIE
1002
{
1000
NSB00030_RELAIS
1000
NSB00027_S0
1002
}
  0
ARC
  5
837E
330
20
100
AcDbEntity
  8
11000_Left
  6
DASHED
 62
     7
370
    20
100
AcDbCircle
 39
0.25
 10
171.5845009646992
 20
427.9884800354373
 30
-1.0
 40
1.9
100
AcDbArc
 50
270.0
 51
0.0
1001
AUSTER_ANSICHT
1002
{
1000
Det03
1002
}
1001
AUSTER_FOLIE
1002
{
1000
NSB00030_RELAIS
1000
NSB00027_S0
1002
}
  0
ARC
  5
837F
330
20
100
AcDbEntity
  8
11000_Left
  6
DASHED
 62
     7
370
    20
100
AcDbCircle
 39
0.25
 10
173.9845009646991
 20
428.7384800354374
 30
-1.0
 40
0.5
100
AcDbArc
 50
270.0
 51
0.0
1001
AUSTER_ANSICHT
1002
{
1000
Det03
1002
}
1001
AUSTER_FOLIE
1002
{
1000
NSB00030_RELAIS
1000
NSB00027_S0
1002
}
  0
ARC
  5
8380
330
20
100
AcDbEntity
  8
11000_Left
  6
DASHED
 62
     7
370
    20
100
AcDbCircle
 39
0.25
 10
171.5845009646992
 20
399.1884800354375
 30
-1.0
 40
1.9
100
AcDbArc
 50
0.0
 51
90.0
1001
AUSTER_ANSICHT
1002
{
1000
Det03
1002
}
1001
AUSTER_FOLIE
1002
{
1000
NSB00030_RELAIS
1000
NSB00027_S0
1002
}
  0
ARC
  5
8381
330
20
100
AcDbEntity
  8
11000_Left
  6
DASHED
 62
     7
370
    20
100
AcDbCircle
 39
0.25
 10
172.7665009646991
 20
460.1384800354374
 30
0.0
 40
1.903
100
AcDbArc
 50
176.9869999999995
 51
270.0
1001
AUSTER_ANSICHT
1002
{
1000
Det03
1002
}
1001
AUSTER_FOLIE
1002
{
1000
NSB00030_RELAIS
1000
NSB00027_S0
1002
}
  0
CIRCLE
  5
8382
330
20
100
AcDbEntity
  8
10000_FRONT
  6
DASHED
 62
     7
370
    20
100
AcDbCircle
 39
0.25
 10
96.65519679803059
 20
360.6304800354375
 30
0.0
 40
2.399999999999999
1001
AUSTER_ANSICHT
1002
{
1000
Det03
1002
}
1001
AUSTER_FOLIE
1002
{
1000
NSB00030_RELAIS
1000
NSB00027_S0
1002
}
  0
CIRCLE
  5
8383
330
20
100
AcDbEntity
  8
10000_FRONT
  6
DASHED
 62
     7
370
    20
100
AcDbCircle
 39
0.25
 10
96.65519679803059
 20
466.1384800354374
 30
0.0
 40
2.399999999999999
1001
AUSTER_ANSICHT
1002
{
1000
Det03
1002
}
1001
AUSTER_FOLIE
1002
{
1000
NSB00030_RELAIS
1000
NSB00027_S0
1002
}
  0
ARC
  5
8385
330
20
100
AcDbEntity
  8
11000_Left
 62
     7
370
    20
100
AcDbCircle
 39
0.45
 10
225.1105009646993
 20
413.3844800354373
 30
0.0
 40
31.705
100
AcDbArc
 50
345.5719999999983
 51
14.4289999999991
1001
AUSTER_ANSICHT
1002
{
1000
Det03
1002
}
1001
AUSTER_FOLIE
1002
{
1000
NSB00030_RELAIS
1000
NSB00027_S0
1002
}
  0
ARC
  5
8387
330
20
100
AcDbEntity
  8
11000_Left
  6
DASHED
 62
     7
370
    20
100
AcDbCircle
 39
0.25
 10
168.9845009646992
 20
402.0884800354374
 30
0.0
 40
1.0
100
AcDbArc
 50
180.0
 51
270.0
1001
AUSTER_ANSICHT
1002
{
1000
Det03
1002
}
1001
AUSTER_FOLIE
1002
{
1000
NSB00030_RELAIS
1000
NSB00027_S0
1002
}
  0
ARC
  5
8388
330
20
100
AcDbEntity
  8
11000_Left
  6
DASHED
 62
     7
370
    20
100
AcDbCircle
 39
0.25
 10
168.9845009646992
 20
425.0884800354374
 30
0.0
 40
1.0
100
AcDbArc
 50
90.0
 51
180.0
1001
AUSTER_ANSICHT
1002
{
1000
Det03
1002
}
1001
AUSTER_FOLIE
1002
{
1000
NSB00030_RELAIS
1000
NSB00027_S0
1002
}
  0
ARC
  5
8389
330
20
100
AcDbEntity
  8
11000_Left
  6
Continuous
 62
     7
370
    50
100
AcDbCircle
 39
0.7
 10
30.93450096469928
 20
435.8384800354374
 30
0.0
 40
200.0
100
AcDbArc
 50
3.139000000000813
 51
6.196000000000759
1001
AUSTER_ANSICHT
1002
{
1000
Det03
1002
}
1001
AUSTER_FOLIE
1002
{
1000
NSB00030_RELAIS
1000
NSB00027_S0
1002
}
  0
ARC
  5
838A
330
20
100
AcDbEntity
  8
10000_FRONT
  6
Continuous
 62
     7
370
    20
100
AcDbCircle
 39
0.25
 10
105.3501967980306
 20
413.3844800354373
 30
0.0
 40
1.508
100
AcDbArc
 50
109.4759999999999
 51
250.5009999999996
1001
AUSTER_ANSICHT
1002
{
1000
Det03
1002
}
1001
AUSTER_FOLIE
1002
{
1000
NSB00030_RELAIS
1000
NSB00027_S0
1002
}
  0
LINE
  5
838B
330
20
100
AcDbEntity
  8
11000_Left
  6
DASHED
 62
     7
370
    20
100
AcDbLine
 39
0.25
 10
208.4845009646993
 20
380.9384800354375
 30
0.0
 11
214.4845009646992
 21
380.9384800354375
 31
0.0
1001
AUSTER_ANSICHT
1002
{
1000
Det03
1002
}
1001
AUSTER_FOLIE
1002
{
1000
NSB00027_S0
1002
}
  0
LINE
  5
838C
330
20
100
AcDbEntity
  8
11000_Left
  6
DASHED
 62
     7
370
    20
100
AcDbLine
 39
0.25
 10
214.4845009646992
 20
380.9384800354375
 30
0.0
 11
214.4845009646992
 21
364.9384800354375
 31
0.0
1001
AUSTER_ANSICHT
1002
{
1000
Det03
1002
}
1001
AUSTER_FOLIE
1002
{
1000
NSB00027_S0
1002
}
  0
LINE
  5
838D
330
20
100
AcDbEntity
  8
11000_Left
  6
DASHED
 62
     7
370
    20
100
AcDbLine
 39
0.25
 10
208.4845009646993
 20
364.9384800354375
 30
0.0
 11
208.4845009646993
 21
380.9384800354375
 31
0.0
1001
AUSTER_ANSICHT
1002
{
1000
Det03
1002
}
1001
AUSTER_FOLIE
1002
{
1000
NSB00027_S0
1002
}
  0
LINE
  5
8398
330
20
100
AcDbEntity
  8
11000_Left
  6
DASHED
 62
     7
370
    20
100
AcDbLine
 39
0.25
 10
214.4845009646992
 20
445.9384800354373
 30
0.0
 11
214.4845009646992
 21
461.9384800354374
 31
0.0
1001
AUSTER_ANSICHT
1002
{
1000
Det03
1002
}
1001
AUSTER_FOLIE
1002
{
1000
NSB00027_S0
1002
}
  0
LINE
  5
8399
330
20
100
AcDbEntity
  8
11000_Left
  6
DASHED
 62
     7
370
    20
100
AcDbLine
 39
0.25
 10
208.4845009646993
 20
445.9384800354373
 30
0.0
 11
214.4845009646992
 21
445.9384800354373
 31
0.0
1001
AUSTER_ANSICHT
1002
{
1000
Det03
1002
}
1001
AUSTER_FOLIE
1002
{
1000
NSB00027_S0
1002
}
  0
LINE
  5
839A
330
20
100
AcDbEntity
  8
11000_Left
  6
DASHED
 62
     7
370
    20
100
AcDbLine
 39
0.25
 10
208.4845009646993
 20
461.9384800354374
 30
0.0
 11
208.4845009646993
 21
445.9384800354373
 31
0.0
1001
AUSTER_ANSICHT
1002
{
1000
Det03
1002
}
1001
AUSTER_FOLIE
1002
{
1000
NSB00027_S0
1002
}
  0
LINE
  5
839B
330
20
100
AcDbEntity
  8
11000_Left
  6
DASHED
 62
     7
370
    20
100
AcDbLine
 39
0.25
 10
171.5845009646992
 20
401.0884800354374
 30
0.0
 11
168.9845009646992
 21
401.0884800354374
 31
0.0
1001
AUSTER_ANSICHT
1002
{
1000
Det03
1002
}
1001
AUSTER_FOLIE
1002
{
1000
NSB00030_RELAIS
1000
NSB00027_S0
1002
}
  0
LINE
  5
839C
330
20
100
AcDbEntity
  8
11000_Left
  6
DASHED
 62
     7
370
    20
100
AcDbLine
 39
0.25
 10
167.9845009646992
 20
425.0884800354374
 30
0.0
 11
167.9845009646992
 21
402.0884800354374
 31
0.0
1001
AUSTER_ANSICHT
1002
{
1000
Det03
1002
}
1001
AUSTER_FOLIE
1002
{
1000
NSB00030_RELAIS
1000
NSB00027_S0
1002
}
  0
LINE
  5
839D
330
20
100
AcDbEntity
  8
11000_Left
  6
DASHED
 62
     7
370
    20
100
AcDbLine
 39
0.25
 10
171.5845009646992
 20
426.0884800354374
 30
0.0
 11
168.9845009646992
 21
426.0884800354374
 31
0.0
1001
AUSTER_ANSICHT
1002
{
1000
Det03
1002
}
1001
AUSTER_FOLIE
1002
{
1000
NSB00030_RELAIS
1000
NSB00027_S0
1002
}
  0
LINE
  5
839F
330
20
100
AcDbEntity
  8
11000_Left
  6
DASHED
 62
     7
370
    20
100
AcDbLine
 39
0.25
 10
170.8665009646993
 20
356.0304800354375
 30
0.0
 11
172.2665009646993
 21
356.0304800354375
 31
0.0
1001
AUSTER_ANSICHT
1002
{
1000
Det03
1002
}
1001
AUSTER_FOLIE
1002
{
1000
NSB00030_RELAIS
1000
NSB00027_S0
1002
}
  0
LINE
  5
83A0
330
20
100
AcDbEntity
  8
11000_Left
  6
DASHED
 62
     7
370
    20
100
AcDbLine
 39
0.25
 10
170.8665009646993
 20
354.0304800354375
 30
0.0
 11
170.8665009646993
 21
366.5304800354375
 31
0.0
1001
AUSTER_ANSICHT
1002
{
1000
Det03
1002
}
1001
AUSTER_FOLIE
1002
{
1000
NSB00030_RELAIS
1000
NSB00027_S0
1002
}
  0
LINE
  5
83A1
330
20
100
AcDbEntity
  8
11000_Left
  6
DASHED
 62
     7
370
    20
100
AcDbLine
 39
0.25
 10
170.8665009646993
 20
366.0304800354375
 30
0.0
 11
172.2665009646993
 21
366.0304800354375
 31
0.0
1001
AUSTER_ANSICHT
1002
{
1000
Det03
1002
}
1001
AUSTER_FOLIE
1002
{
1000
NSB00030_RELAIS
1000
NSB00027_S0
1002
}
  0
LINE
  5
83A2
330
20
100
AcDbEntity
  8
11000_Left
  6
DASHED
 62
     7
370
    20
100
AcDbLine
 39
0.25
 10
170.8665009646993
 20
362.9304800354374
 30
0.0
 11
172.2665009646993
 21
362.9304800354374
 31
0.0
1001
AUSTER_ANSICHT
1002
{
1000
Det03
1002
}
1001
AUSTER_FOLIE
1002
{
1000
NSB00030_RELAIS
1000
NSB00027_S0
1002
}
  0
LINE
  5
83A3
330
20
100
AcDbEntity
  8
11000_Left
  6
DASHED
 62
     7
370
    20
100
AcDbLine
 39
0.25
 10
170.8665009646993
 20
358.1304800354375
 30
0.0
 11
172.2665009646993
 21
358.1304800354375
 31
0.0
1001
AUSTER_ANSICHT
1002
{
1000
Det03
1002
}
1001
AUSTER_FOLIE
1002
{
1000
NSB00030_RELAIS
1000
NSB00027_S0
1002
}
  0
LINE
  5
83A4
330
20
100
AcDbEntity
  8
11000_Left
  6
DASHED
 62
     7
370
    20
100
AcDbLine
 39
0.25
 10
172.2665009646993
 20
354.0304800354375
 30
0.0
 11
170.8665009646993
 21
354.0304800354375
 31
0.0
1001
AUSTER_ANSICHT
1002
{
1000
Det03
1002
}
1001
AUSTER_FOLIE
1002
{
1000
NSB00030_RELAIS
1000
NSB00027_S0
1002
}
  0
LINE
  5
83A5
330
20
100
AcDbEntity
  8
11000_Left
  6
DASHED
 62
     7
370
    20
100
AcDbLine
 39
0.25
 10
172.7665009646991
 20
367.0304800354375
 30
0.0
 11
174.7665009646993
 21
367.0304800354375
 31
0.0
1001
AUSTER_ANSICHT
1002
{
1000
Det03
1002
}
1001
AUSTER_FOLIE
1002
{
1000
NSB00030_RELAIS
1000
NSB00027_S0
1002
}
  0
LINE
  5
83A6
330
20
100
AcDbEntity
  8
11000_Left
  6
DASHED
 62
     7
370
    20
100
AcDbLine
 39
0.25
 10
174.3665009646993
 20
368.5304800354375
 30
0.0
 11
172.8665009646993
 21
368.5304800354375
 31
0.0
1001
AUSTER_ANSICHT
1002
{
1000
Det03
1002
}
1001
AUSTER_FOLIE
1002
{
1000
NSB00030_RELAIS
1000
NSB00027_S0
1002
}
  0
LINE
  5
83A7
330
20
100
AcDbEntity
  8
11000_Left
  6
DASHED
 62
     7
370
    20
100
AcDbLine
 39
0.25
 10
172.2665009646993
 20
354.0304800354375
 30
0.0
 11
172.2665009646993
 21
366.5304800354375
 31
0.0
1001
AUSTER_ANSICHT
1002
{
1000
Det03
1002
}
1001
AUSTER_FOLIE
1002
{
1000
NSB00030_RELAIS
1000
NSB00027_S0
1002
}
  0
LINE
  5
83A8
330
20
100
AcDbEntity
  8
11000_Left
  6
DASHED
 62
     7
370
    20
100
AcDbLine
 39
0.25
 10
174.3665009646993
 20
382.0304800354374
 30
0.0
 11
175.7665009646991
 21
382.0304800354374
 31
0.0
1001
AUSTER_ANSICHT
1002
{
1000
Det03
1002
}
1001
AUSTER_FOLIE
1002
{
1000
NSB00030_RELAIS
1000
NSB00027_S0
1002
}
  0
LINE
  5
83A9
330
20
100
AcDbEntity
  8
11000_Left
  6
DASHED
 62
     7
370
    20
100
AcDbLine
 39
0.25
 10
174.3665009646993
 20
368.5304800354375
 30
0.0
 11
174.3665009646993
 21
382.0304800354374
 31
0.0
1001
AUSTER_ANSICHT
1002
{
1000
Det03
1002
}
1001
AUSTER_FOLIE
1002
{
1000
NSB00030_RELAIS
1000
NSB00027_S0
1002
}
  0
LINE
  5
83AA
330
20
100
AcDbEntity
  8
11000_Left
  6
DASHED
 62
     7
370
    20
100
AcDbLine
 39
0.25
 10
175.7665009646991
 20
368.5304800354375
 30
0.0
 11
175.7665009646991
 21
368.0304800354374
 31
0.0
1001
AUSTER_ANSICHT
1002
{
1000
Det03
1002
}
1001
AUSTER_FOLIE
1002
{
1000
NSB00030_RELAIS
1000
NSB00027_S0
1002
}
  0
LINE
  5
83AB
330
20
100
AcDbEntity
  8
11000_Left
  6
DASHED
 62
     7
370
    20
100
AcDbLine
 39
0.25
 10
174.3665009646993
 20
444.7384800354374
 30
0.0
 11
175.7665009646991
 21
444.7384800354374
 31
0.0
1001
AUSTER_ANSICHT
1002
{
1000
Det03
1002
}
1001
AUSTER_FOLIE
1002
{
1000
NSB00030_RELAIS
1000
NSB00027_S0
1002
}
  0
LINE
  5
83AC
330
20
100
AcDbEntity
  8
11000_Left
  6
DASHED
 62
     7
370
    20
100
AcDbLine
 39
0.25
 10
174.3665009646993
 20
458.2384800354374
 30
0.0
 11
174.3665009646993
 21
444.7384800354374
 31
0.0
1001
AUSTER_ANSICHT
1002
{
1000
Det03
1002
}
1001
AUSTER_FOLIE
1002
{
1000
NSB00030_RELAIS
1000
NSB00027_S0
1002
}
  0
LINE
  5
83AD
330
20
100
AcDbEntity
  8
11000_Left
  6
DASHED
 62
     7
370
    20
100
AcDbLine
 39
0.25
 10
175.7665009646991
 20
458.2384800354374
 30
0.0
 11
175.7665009646991
 21
458.7384800354374
 31
0.0
1001
AUSTER_ANSICHT
1002
{
1000
Det03
1002
}
1001
AUSTER_FOLIE
1002
{
1000
NSB00030_RELAIS
1000
NSB00027_S0
1002
}
  0
LINE
  5
83AE
330
20
100
AcDbEntity
  8
11000_Left
  6
DASHED
 62
     7
370
    20
100
AcDbLine
 39
0.25
 10
172.7665009646991
 20
459.7384800354374
 30
0.0
 11
174.7665009646993
 21
459.7384800354374
 31
0.0
1001
AUSTER_ANSICHT
1002
{
1000
Det03
1002
}
1001
AUSTER_FOLIE
1002
{
1000
NSB00030_RELAIS
1000
NSB00027_S0
1002
}
  0
LINE
  5
83B0
330
20
100
AcDbEntity
  8
11000_Left
  6
DASHED
 62
     7
370
    20
100
AcDbLine
 39
0.25
 10
170.8665009646993
 20
470.7384800354374
 30
0.0
 11
172.2665009646993
 21
470.7384800354374
 31
0.0
1001
AUSTER_ANSICHT
1002
{
1000
Det03
1002
}
1001
AUSTER_FOLIE
1002
{
1000
NSB00030_RELAIS
1000
NSB00027_S0
1002
}
  0
LINE
  5
83B1
330
20
100
AcDbEntity
  8
11000_Left
  6
DASHED
 62
     7
370
    20
100
AcDbLine
 39
0.25
 10
170.8665009646993
 20
472.7384800354374
 30
0.0
 11
170.8665009646993
 21
460.2384800354374
 31
0.0
1001
AUSTER_ANSICHT
1002
{
1000
Det03
1002
}
1001
AUSTER_FOLIE
1002
{
1000
NSB00030_RELAIS
1000
NSB00027_S0
1002
}
  0
LINE
  5
83B2
330
20
100
AcDbEntity
  8
11000_Left
  6
DASHED
 62
     7
370
    20
100
AcDbLine
 39
0.25
 10
170.8665009646993
 20
460.7384800354374
 30
0.0
 11
172.2665009646993
 21
460.7384800354374
 31
0.0
1001
AUSTER_ANSICHT
1002
{
1000
Det03
1002
}
1001
AUSTER_FOLIE
1002
{
1000
NSB00030_RELAIS
1000
NSB00027_S0
1002
}
  0
LINE
  5
83B3
330
20
100
AcDbEntity
  8
11000_Left
  6
DASHED
 62
     7
370
    20
100
AcDbLine
 39
0.25
 10
170.8665009646993
 20
463.8384800354374
 30
0.0
 11
172.2665009646993
 21
463.8384800354374
 31
0.0
1001
AUSTER_ANSICHT
1002
{
1000
Det03
1002
}
1001
AUSTER_FOLIE
1002
{
1000
NSB00030_RELAIS
1000
NSB00027_S0
1002
}
  0
LINE
  5
83B4
330
20
100
AcDbEntity
  8
11000_Left
  6
DASHED
 62
     7
370
    20
100
AcDbLine
 39
0.25
 10
170.8665009646993
 20
468.6384800354374
 30
0.0
 11
172.2665009646993
 21
468.6384800354374
 31
0.0
1001
AUSTER_ANSICHT
1002
{
1000
Det03
1002
}
1001
AUSTER_FOLIE
1002
{
1000
NSB00030_RELAIS
1000
NSB00027_S0
1002
}
  0
LINE
  5
83B5
330
20
100
AcDbEntity
  8
11000_Left
  6
DASHED
 62
     7
370
    20
100
AcDbLine
 39
0.25
 10
172.2665009646993
 20
472.7384800354374
 30
0.0
 11
170.8665009646993
 21
472.7384800354374
 31
0.0
1001
AUSTER_ANSICHT
1002
{
1000
Det03
1002
}
1001
AUSTER_FOLIE
1002
{
1000
NSB00030_RELAIS
1000
NSB00027_S0
1002
}
  0
LINE
  5
83B6
330
20
100
AcDbEntity
  8
11000_Left
  6
DASHED
 62
     7
370
    20
100
AcDbLine
 39
0.25
 10
172.2665009646993
 20
472.7384800354374
 30
0.0
 11
172.2665009646993
 21
460.2384800354374
 31
0.0
1001
AUSTER_ANSICHT
1002
{
1000
Det03
1002
}
1001
AUSTER_FOLIE
1002
{
1000
NSB00030_RELAIS
1000
NSB00027_S0
1002
}
  0
LINE
  5
83B7
330
20
100
AcDbEntity
  8
10000_FRONT
  6
DASHED
 62
     7
370
    20
100
AcDbLine
 39
0.25
 10
125.1551967980306
 20
366.1284800354374
 30
0.0
 11
125.1551967980306
 21
368.5394800354375
 31
0.0
1001
AUSTER_ANSICHT
1002
{
1000
Det03
1002
}
1001
AUSTER_FOLIE
1002
{
1000
NSB00030_RELAIS
1000
NSB00027_S0
1002
}
  0
LINE
  5
83B8
330
20
100
AcDbEntity
  8
10000_FRONT
  6
DASHED
 62
     7
370
    20
100
AcDbLine
 39
0.25
 10
126.4551967980306
 20
356.1284800354375
 30
0.0
 11
126.4551967980306
 21
366.1284800354374
 31
0.0
1001
AUSTER_ANSICHT
1002
{
1000
Det03
1002
}
1001
AUSTER_FOLIE
1002
{
1000
NSB00030_RELAIS
1000
NSB00027_S0
1002
}
  0
LINE
  5
83B9
330
20
100
AcDbEntity
  8
10000_FRONT
  6
DASHED
 62
     7
370
    20
100
AcDbLine
 39
0.25
 10
118.1551967980306
 20
368.5394800354375
 30
0.0
 11
118.1551967980306
 21
366.1284800354374
 31
0.0
1001
AUSTER_ANSICHT
1002
{
1000
Det03
1002
}
1001
AUSTER_FOLIE
1002
{
1000
NSB00030_RELAIS
1000
NSB00027_S0
1002
}
  0
LINE
  5
83BA
330
20
100
AcDbEntity
  8
10000_FRONT
  6
DASHED
 62
     7
370
    20
100
AcDbLine
 39
0.25
 10
116.8551967980306
 20
356.1284800354375
 30
0.0
 11
118.8551967980306
 21
354.1284800354375
 31
0.0
1001
AUSTER_ANSICHT
1002
{
1000
Det03
1002
}
1001
AUSTER_FOLIE
1002
{
1000
NSB00030_RELAIS
1000
NSB00027_S0
1002
}
  0
LINE
  5
83BB
330
20
100
AcDbEntity
  8
10000_FRONT
  6
DASHED
 62
     7
370
    20
100
AcDbLine
 39
0.25
 10
118.8551967980306
 20
354.1284800354375
 30
0.0
 11
124.4551967980306
 21
354.1284800354375
 31
0.0
1001
AUSTER_ANSICHT
1002
{
1000
Det03
1002
}
1001
AUSTER_FOLIE
1002
{
1000
NSB00030_RELAIS
1000
NSB00027_S0
1002
}
  0
LINE
  5
83BC
330
20
100
AcDbEntity
  8
10000_FRONT
  6
DASHED
 62
     7
370
    20
100
AcDbLine
 39
0.25
 10
124.4551967980306
 20
354.1284800354375
 30
0.0
 11
126.4551967980306
 21
356.1284800354375
 31
0.0
1001
AUSTER_ANSICHT
1002
{
1000
Det03
1002
}
1001
AUSTER_FOLIE
1002
{
1000
NSB00030_RELAIS
1000
NSB00027_S0
1002
}
  0
LINE
  5
83BD
330
20
100
AcDbEntity
  8
10000_FRONT
  6
DASHED
 62
     7
370
    20
100
AcDbLine
 39
0.25
 10
100.1551967980306
 20
366.1304800354375
 30
0.0
 11
101.2501967980306
 21
366.1304800354375
 31
0.0
1001
AUSTER_ANSICHT
1002
{
1000
Det03
1002
}
1001
AUSTER_FOLIE
1002
{
1000
NSB00030_RELAIS
1000
NSB00027_S0
1002
}
  0
LINE
  5
83BE
330
20
100
AcDbEntity
  8
10000_FRONT
  6
DASHED
 62
     7
370
    20
100
AcDbLine
 39
0.25
 10
100.1551967980306
 20
368.5394800354375
 30
0.0
 11
100.1551967980306
 21
366.1304800354375
 31
0.0
1001
AUSTER_ANSICHT
1002
{
1000
Det03
1002
}
1001
AUSTER_FOLIE
1002
{
1000
NSB00030_RELAIS
1000
NSB00027_S0
1002
}
  0
LINE
  5
83BF
330
20
100
AcDbEntity
  8
10000_FRONT
  6
DASHED
 62
     7
370
    20
100
AcDbLine
 39
0.25
 10
101.4551967980306
 20
364.9384800354375
 30
0.0
 11
101.4551967980306
 21
356.1304800354375
 31
0.0
1001
AUSTER_ANSICHT
1002
{
1000
Det03
1002
}
1001
AUSTER_FOLIE
1002
{
1000
NSB00030_RELAIS
1000
NSB00027_S0
1002
}
  0
LINE
  5
83C0
330
20
100
AcDbEntity
  8
10000_FRONT
  6
DASHED
 62
     7
370
    20
100
AcDbLine
 39
0.25
 10
101.4551967980306
 20
356.1304800354375
 30
0.0
 11
99.45519679803062
 21
354.1304800354375
 31
0.0
1001
AUSTER_ANSICHT
1002
{
1000
Det03
1002
}
1001
AUSTER_FOLIE
1002
{
1000
NSB00030_RELAIS
1000
NSB00027_S0
1002
}
  0
LINE
  5
83C1
330
20
100
AcDbEntity
  8
10000_FRONT
  6
DASHED
 62
     7
370
    20
100
AcDbLine
 39
0.25
 10
93.85519679803058
 20
354.1304800354375
 30
0.0
 11
91.85519679803059
 21
356.1304800354375
 31
0.0
1001
AUSTER_ANSICHT
1002
{
1000
Det03
1002
}
1001
AUSTER_FOLIE
1002
{
1000
NSB00030_RELAIS
1000
NSB00027_S0
1002
}
  0
LINE
  5
83C2
330
20
100
AcDbEntity
  8
10000_FRONT
  6
DASHED
 62
     7
370
    20
100
AcDbLine
 39
0.25
 10
99.45519679803062
 20
354.1304800354375
 30
0.0
 11
93.85519679803058
 21
354.1304800354375
 31
0.0
1001
AUSTER_ANSICHT
1002
{
1000
Det03
1002
}
1001
AUSTER_FOLIE
1002
{
1000
NSB00030_RELAIS
1000
NSB00027_S0
1002
}
  0
LINE
  5
83C3
330
20
100
AcDbEntity
  8
10000_FRONT
  6
DASHED
 62
     7
370
    20
100
AcDbLine
 39
0.25
 10
91.85519679803059
 20
356.1304800354375
 30
0.0
 11
91.85519679803059
 21
366.1304800354375
 31
0.0
1001
AUSTER_ANSICHT
1002
{
1000
Det03
1002
}
1001
AUSTER_FOLIE
1002
{
1000
NSB00030_RELAIS
1000
NSB00027_S0
1002
}
  0
LINE
  5
83C4
330
20
100
AcDbEntity
  8
10000_FRONT
  6
DASHED
 62
     7
370
    20
100
AcDbLine
 39
0.25
 10
91.85519679803059
 20
366.1304800354375
 30
0.0
 11
93.15519679803058
 21
366.1304800354375
 31
0.0
1001
AUSTER_ANSICHT
1002
{
1000
Det03
1002
}
1001
AUSTER_FOLIE
1002
{
1000
NSB00030_RELAIS
1000
NSB00027_S0
1002
}
  0
LINE
  5
83C5
330
20
100
AcDbEntity
  8
10000_FRONT
  6
DASHED
 62
     7
370
    20
100
AcDbLine
 39
0.25
 10
93.15519679803058
 20
366.1304800354375
 30
0.0
 11
93.15519679803058
 21
368.5394800354375
 31
0.0
1001
AUSTER_ANSICHT
1002
{
1000
Det03
1002
}
1001
AUSTER_FOLIE
1002
{
1000
NSB00030_RELAIS
1000
NSB00027_S0
1002
}
  0
LINE
  5
83C6
330
20
100
AcDbEntity
  8
10000_FRONT
  6
DASHED
 62
     7
370
    20
100
AcDbLine
 39
0.25
 10
118.1551967980306
 20
460.6404800354375
 30
0.0
 11
117.3001967980306
 21
460.6404800354375
 31
0.0
1001
AUSTER_ANSICHT
1002
{
1000
Det03
1002
}
1001
AUSTER_FOLIE
1002
{
1000
NSB00030_RELAIS
1000
NSB00027_S0
1002
}
  0
LINE
  5
83C7
330
20
100
AcDbEntity
  8
10000_FRONT
  6
DASHED
 62
     7
370
    20
100
AcDbLine
 39
0.25
 10
125.1551967980306
 20
460.6404800354375
 30
0.0
 11
125.1551967980306
 21
458.1404800354373
 31
0.0
1001
AUSTER_ANSICHT
1002
{
1000
Det03
1002
}
1001
AUSTER_FOLIE
1002
{
1000
NSB00030_RELAIS
1000
NSB00027_S0
1002
}
  0
LINE
  5
83C8
330
20
100
AcDbEntity
  8
10000_FRONT
  6
DASHED
 62
     7
370
    20
100
AcDbLine
 39
0.25
 10
126.4551967980306
 20
470.6404800354373
 30
0.0
 11
126.4551967980306
 21
460.6404800354375
 31
0.0
1001
AUSTER_ANSICHT
1002
{
1000
Det03
1002
}
1001
AUSTER_FOLIE
1002
{
1000
NSB00030_RELAIS
1000
NSB00027_S0
1002
}
  0
LINE
  5
83C9
330
20
100
AcDbEntity
  8
10000_FRONT
  6
DASHED
 62
     7
370
    20
100
AcDbLine
 39
0.25
 10
118.1551967980306
 20
458.1404800354373
 30
0.0
 11
118.1551967980306
 21
460.6404800354375
 31
0.0
1001
AUSTER_ANSICHT
1002
{
1000
Det03
1002
}
1001
AUSTER_FOLIE
1002
{
1000
NSB00030_RELAIS
1000
NSB00027_S0
1002
}
  0
LINE
  5
83CA
330
20
100
AcDbEntity
  8
10000_FRONT
  6
DASHED
 62
     7
370
    20
100
AcDbLine
 39
0.25
 10
116.8551967980306
 20
470.6404800354373
 30
0.0
 11
118.8551967980306
 21
472.6404800354374
 31
0.0
1001
AUSTER_ANSICHT
1002
{
1000
Det03
1002
}
1001
AUSTER_FOLIE
1002
{
1000
NSB00030_RELAIS
1000
NSB00027_S0
1002
}
  0
LINE
  5
83CB
330
20
100
AcDbEntity
  8
10000_FRONT
  6
DASHED
 62
     7
370
    20
100
AcDbLine
 39
0.25
 10
118.8551967980306
 20
472.6404800354374
 30
0.0
 11
124.4551967980306
 21
472.6404800354374
 31
0.0
1001
AUSTER_ANSICHT
1002
{
1000
Det03
1002
}
1001
AUSTER_FOLIE
1002
{
1000
NSB00030_RELAIS
1000
NSB00027_S0
1002
}
  0
LINE
  5
83CC
330
20
100
AcDbEntity
  8
10000_FRONT
  6
DASHED
 62
     7
370
    20
100
AcDbLine
 39
0.25
 10
124.4551967980306
 20
472.6404800354374
 30
0.0
 11
126.4551967980306
 21
470.6404800354373
 31
0.0
1001
AUSTER_ANSICHT
1002
{
1000
Det03
1002
}
1001
AUSTER_FOLIE
1002
{
1000
NSB00030_RELAIS
1000
NSB00027_S0
1002
}
  0
LINE
  5
83CD
330
20
100
AcDbEntity
  8
10000_FRONT
  6
DASHED
 62
     7
370
    20
100
AcDbLine
 39
0.25
 10
100.1551967980306
 20
460.6384800354375
 30
0.0
 11
101.0001967980306
 21
460.6384800354375
 31
0.0
1001
AUSTER_ANSICHT
1002
{
1000
Det03
1002
}
1001
AUSTER_FOLIE
1002
{
1000
NSB00030_RELAIS
1000
NSB00027_S0
1002
}
  0
LINE
  5
83CE
330
20
100
AcDbEntity
  8
10000_FRONT
  6
DASHED
 62
     7
370
    20
100
AcDbLine
 39
0.25
 10
100.1551967980306
 20
458.1384800354374
 30
0.0
 11
100.1551967980306
 21
460.6384800354375
 31
0.0
1001
AUSTER_ANSICHT
1002
{
1000
Det03
1002
}
1001
AUSTER_FOLIE
1002
{
1000
NSB00030_RELAIS
1000
NSB00027_S0
1002
}
  0
LINE
  5
83CF
330
20
100
AcDbEntity
  8
10000_FRONT
  6
DASHED
 62
     7
370
    20
100
AcDbLine
 39
0.25
 10
101.4551967980306
 20
461.9384800354374
 30
0.0
 11
101.4551967980306
 21
470.6384800354374
 31
0.0
1001
AUSTER_ANSICHT
1002
{
1000
Det03
1002
}
1001
AUSTER_FOLIE
1002
{
1000
NSB00030_RELAIS
1000
NSB00027_S0
1002
}
  0
LINE
  5
83D0
330
20
100
AcDbEntity
  8
10000_FRONT
  6
DASHED
 62
     7
370
    20
100
AcDbLine
 39
0.25
 10
101.4551967980306
 20
470.6384800354374
 30
0.0
 11
99.45519679803062
 21
472.6384800354374
 31
0.0
1001
AUSTER_ANSICHT
1002
{
1000
Det03
1002
}
1001
AUSTER_FOLIE
1002
{
1000
NSB00030_RELAIS
1000
NSB00027_S0
1002
}
  0
LINE
  5
83D1
330
20
100
AcDbEntity
  8
10000_FRONT
  6
DASHED
 62
     7
370
    20
100
AcDbLine
 39
0.25
 10
93.85519679803058
 20
472.6384800354374
 30
0.0
 11
91.85519679803059
 21
470.6384800354374
 31
0.0
1001
AUSTER_ANSICHT
1002
{
1000
Det03
1002
}
1001
AUSTER_FOLIE
1002
{
1000
NSB00030_RELAIS
1000
NSB00027_S0
1002
}
  0
LINE
  5
83D2
330
20
100
AcDbEntity
  8
10000_FRONT
  6
DASHED
 62
     7
370
    20
100
AcDbLine
 39
0.25
 10
99.45519679803062
 20
472.6384800354374
 30
0.0
 11
93.85519679803058
 21
472.6384800354374
 31
0.0
1001
AUSTER_ANSICHT
1002
{
1000
Det03
1002
}
1001
AUSTER_FOLIE
1002
{
1000
NSB00030_RELAIS
1000
NSB00027_S0
1002
}
  0
LINE
  5
83D3
330
20
100
AcDbEntity
  8
10000_FRONT
  6
DASHED
 62
     7
370
    20
100
AcDbLine
 39
0.25
 10
91.85519679803059
 20
470.6384800354374
 30
0.0
 11
91.85519679803059
 21
460.6384800354375
 31
0.0
1001
AUSTER_ANSICHT
1002
{
1000
Det03
1002
}
1001
AUSTER_FOLIE
1002
{
1000
NSB00030_RELAIS
1000
NSB00027_S0
1002
}
  0
LINE
  5
83D4
330
20
100
AcDbEntity
  8
10000_FRONT
  6
DASHED
 62
     7
370
    20
100
AcDbLine
 39
0.25
 10
91.85519679803059
 20
460.6384800354375
 30
0.0
 11
93.15519679803058
 21
460.6384800354375
 31
0.0
1001
AUSTER_ANSICHT
1002
{
1000
Det03
1002
}
1001
AUSTER_FOLIE
1002
{
1000
NSB00030_RELAIS
1000
NSB00027_S0
1002
}
  0
LINE
  5
83D5
330
20
100
AcDbEntity
  8
10000_FRONT
  6
DASHED
 62
     7
370
    20
100
AcDbLine
 39
0.25
 10
93.15519679803058
 20
460.6384800354375
 30
0.0
 11
93.15519679803058
 21
458.1384800354374
 31
0.0
1001
AUSTER_ANSICHT
1002
{
1000
Det03
1002
}
1001
AUSTER_FOLIE
1002
{
1000
NSB00030_RELAIS
1000
NSB00027_S0
1002
}
  0
LINE
  5
83D6
330
20
100
AcDbEntity
  8
10000_FRONT
  6
Continuous
 62
     7
370
    20
100
AcDbLine
 39
0.25
 10
130.8501967980306
 20
412.0174800354374
 30
0.0
 11
130.8501967980306
 21
414.7514800354374
 31
0.0
1001
AUSTER_ANSICHT
1002
{
1000
Det03
1002
}
1001
AUSTER_FOLIE
1002
{
1000
NSB00030_RELAIS
1000
NSB00027_S0
1002
}
  0
LINE
  5
8451
330
20
100
AcDbEntity
  8
11000_Left
  6
Continuous
 62
     7
370
    50
100
AcDbLine
 39
0.7
 10
254.8155009646992
 20
407.1044800354374
 30
0.0
 11
253.9975009646993
 21
391.5694800354375
 31
0.0
1001
AUSTER_ANSICHT
1002
{
1000
Det03
1002
}
1001
AUSTER_FOLIE
1002
{
1000
NSB00030_RELAIS
1000
NSB00027_S0
1002
}
  0
LINE
  5
8452
330
20
100
AcDbEntity
  8
11000_Left
  6
Continuous
 62
     7
370
    50
100
AcDbLine
 39
0.7
 10
253.9975009646993
 20
435.1084800354374
 30
0.0
 11
254.8155009646992
 21
423.1044800354374
 31
0.0
1001
AUSTER_ANSICHT
1002
{
1000
Det03
1002
}
1001
AUSTER_FOLIE
1002
{
1000
NSB00030_RELAIS
1000
NSB00027_S0
1002
}
  0
LINE
  5
8454
330
20
100
AcDbEntity
  8
11000_Left
  6
Continuous
 62
     7
370
    50
100
AcDbLine
 39
0.7
 10
230.6345009646993
 20
435.8844800354375
 30
0.0
 11
247.3195009646993
 21
435.8844800354375
 31
0.0
1001
AUSTER_ANSICHT
1002
{
1000
Det03
1002
}
1001
AUSTER_FOLIE
1002
{
1000
NSB00030_RELAIS
1000
NSB00027_S0
1002
}
  0
LINE
  5
845C
330
20
100
AcDbEntity
  8
10000_FRONT
  6
Continuous
 62
     7
370
    50
100
AcDbLine
 39
0.7
 10
129.8001967980306
 20
458.1384800354374
 30
0.0
 11
131.5501967980306
 21
458.1384800354374
 31
0.0
1001
AUSTER_ANSICHT
1002
{
1000
Det03
1002
}
1001
AUSTER_FOLIE
1002
{
1000
NSB00030_RELAIS
1000
NSB00027_S0
1002
}
  0
LINE
  5
845D
330
20
100
AcDbEntity
  8
10000_FRONT
  6
Continuous
 62
     7
370
    50
100
AcDbLine
 39
0.7
 10
115.4001967980306
 20
458.1384800354374
 30
0.0
 11
117.3001967980306
 21
458.1384800354374
 31
0.0
1001
AUSTER_ANSICHT
1002
{
1000
Det03
1002
}
1001
AUSTER_FOLIE
1002
{
1000
NSB00030_RELAIS
1000
NSB00027_S0
1002
}
  0
LINE
  5
845E
330
20
100
AcDbEntity
  8
10000_FRONT
  6
Continuous
 62
     7
370
    50
100
AcDbLine
 39
0.7
 10
101.0001967980306
 20
458.1384800354374
 30
0.0
 11
102.9001967980306
 21
458.1384800354374
 31
0.0
1001
AUSTER_ANSICHT
1002
{
1000
Det03
1002
}
1001
AUSTER_FOLIE
1002
{
1000
NSB00030_RELAIS
1000
NSB00027_S0
1002
}
  0
LINE
  5
845F
330
20
100
AcDbEntity
  8
10000_FRONT
  6
Continuous
 62
     7
370
    50
100
AcDbLine
 39
0.7
 10
86.75019679803057
 20
458.1384800354374
 30
0.0
 11
88.50019679803057
 21
458.1384800354374
 31
0.0
1001
AUSTER_ANSICHT
1002
{
1000
Det03
1002
}
1001
AUSTER_FOLIE
1002
{
1000
NSB00030_RELAIS
1000
NSB00027_S0
1002
}
  0
LINE
  5
8460
330
20
100
AcDbEntity
  8
10000_FRONT
  6
Continuous
 62
     7
370
    50
100
AcDbLine
 39
0.7
 10
117.3001967980306
 20
458.1384800354374
 30
0.0
 11
129.8001967980306
 21
458.1384800354374
 31
0.0
1001
AUSTER_ANSICHT
1002
{
1000
Det03
1002
}
1001
AUSTER_FOLIE
1002
{
1000
NSB00030_RELAIS
1000
NSB00027_S0
1002
}
  0
LINE
  5
8461
330
20
100
AcDbEntity
  8
10000_FRONT
  6
Continuous
 62
     7
370
    50
100
AcDbLine
 39
0.7
 10
102.9001967980306
 20
458.1384800354374
 30
0.0
 11
115.4001967980306
 21
458.1384800354374
 31
0.0
1001
AUSTER_ANSICHT
1002
{
1000
Det03
1002
}
1001
AUSTER_FOLIE
1002
{
1000
NSB00030_RELAIS
1000
NSB00027_S0
1002
}
  0
LINE
  5
8462
330
20
100
AcDbEntity
  8
10000_FRONT
  6
Continuous
 62
     7
370
    50
100
AcDbLine
 39
0.7
 10
88.50019679803057
 20
458.1384800354374
 30
0.0
 11
101.0001967980306
 21
458.1384800354374
 31
0.0
1001
AUSTER_ANSICHT
1002
{
1000
Det03
1002
}
1001
AUSTER_FOLIE
1002
{
1000
NSB00030_RELAIS
1000
NSB00027_S0
1002
}
  0
LINE
  5
8463
330
20
100
AcDbEntity
  8
10000_FRONT
  6
Continuous
 62
     7
370
    50
100
AcDbLine
 39
0.7
 10
130.0501967980306
 20
368.5394800354375
 30
0.0
 11
131.5501967980306
 21
368.5384800354375
 31
0.0
1001
AUSTER_ANSICHT
1002
{
1000
Det03
1002
}
1001
AUSTER_FOLIE
1002
{
1000
NSB00030_RELAIS
1000
NSB00027_S0
1002
}
  0
LINE
  5
8464
330
20
100
AcDbEntity
  8
10000_FRONT
  6
Continuous
 62
     7
370
    50
100
AcDbLine
 39
0.7
 10
115.6501967980306
 20
368.5394800354375
 30
0.0
 11
117.0501967980306
 21
368.5394800354375
 31
0.0
1001
AUSTER_ANSICHT
1002
{
1000
Det03
1002
}
1001
AUSTER_FOLIE
1002
{
1000
NSB00030_RELAIS
1000
NSB00027_S0
1002
}
  0
LINE
  5
8465
330
20
100
AcDbEntity
  8
10000_FRONT
  6
Continuous
 62
     7
370
    50
100
AcDbLine
 39
0.7
 10
101.2501967980306
 20
368.5394800354375
 30
0.0
 11
102.6501967980306
 21
368.5394800354375
 31
0.0
1001
AUSTER_ANSICHT
1002
{
1000
Det03
1002
}
1001
AUSTER_FOLIE
1002
{
1000
NSB00030_RELAIS
1000
NSB00027_S0
1002
}
  0
LINE
  5
8466
330
20
100
AcDbEntity
  8
10000_FRONT
  6
Continuous
 62
     7
370
    50
100
AcDbLine
 39
0.7
 10
86.75019679803057
 20
368.5384800354375
 30
0.0
 11
88.25019679803057
 21
368.5394800354375
 31
0.0
1001
AUSTER_ANSICHT
1002
{
1000
Det03
1002
}
1001
AUSTER_FOLIE
1002
{
1000
NSB00030_RELAIS
1000
NSB00027_S0
1002
}
  0
LINE
  5
8467
330
20
100
AcDbEntity
  8
10000_FRONT
  6
Continuous
 62
     7
370
    50
100
AcDbLine
 39
0.7
 10
117.0501967980306
 20
368.5394800354375
 30
0.0
 11
130.0501967980306
 21
368.5394800354375
 31
0.0
1001
AUSTER_ANSICHT
1002
{
1000
Det03
1002
}
1001
AUSTER_FOLIE
1002
{
1000
NSB00030_RELAIS
1000
NSB00027_S0
1002
}
  0
LINE
  5
8468
330
20
100
AcDbEntity
  8
10000_FRONT
  6
Continuous
 62
     7
370
    50
100
AcDbLine
 39
0.7
 10
102.6501967980306
 20
368.5394800354375
 30
0.0
 11
115.6501967980306
 21
368.5394800354375
 31
0.0
1001
AUSTER_ANSICHT
1002
{
1000
Det03
1002
}
1001
AUSTER_FOLIE
1002
{
1000
NSB00030_RELAIS
1000
NSB00027_S0
1002
}
  0
LINE
  5
8469
330
20
100
AcDbEntity
  8
10000_FRONT
  6
Continuous
 62
     7
370
    50
100
AcDbLine
 39
0.7
 10
88.25019679803057
 20
368.5394800354375
 30
0.0
 11
101.2501967980306
 21
368.5394800354375
 31
0.0
1001
AUSTER_ANSICHT
1002
{
1000
Det03
1002
}
1001
AUSTER_FOLIE
1002
{
1000
NSB00030_RELAIS
1000
NSB00027_S0
1002
}
  0
LINE
  5
846D
330
20
100
AcDbEntity
  8
10000_FRONT
  6
Continuous
 62
     7
370
    50
100
AcDbLine
 39
0.7
 10
86.75019679803057
 20
461.9384800354374
 30
0.0
 11
86.70119679803057
 21
457.8844800354374
 31
0.0
1001
AUSTER_ANSICHT
1002
{
1000
Det03
1002
}
1001
AUSTER_FOLIE
1002
{
1000
NSB00030_RELAIS
1000
NSB00027_S0
1002
}
  0
LINE
  5
846E
330
20
100
AcDbEntity
  8
10000_FRONT
  6
DASHED
 62
     7
370
    20
100
AcDbLine
 39
0.25
 10
116.8551967980306
 20
366.1284800354374
 30
0.0
 11
118.1551967980306
 21
366.1284800354374
 31
0.0
1001
AUSTER_ANSICHT
1002
{
1000
Det03
1002
}
1001
AUSTER_FOLIE
1002
{
1000
NSB00030_RELAIS
1000
NSB00027_S0
1002
}
  0
LINE
  5
846F
330
20
100
AcDbEntity
  8
10000_FRONT
  6
DASHED
 62
     7
370
    20
100
AcDbLine
 39
0.25
 10
126.4551967980306
 20
366.1284800354374
 30
0.0
 11
125.1551967980306
 21
366.1284800354374
 31
0.0
1001
AUSTER_ANSICHT
1002
{
1000
Det03
1002
}
1001
AUSTER_FOLIE
1002
{
1000
NSB00030_RELAIS
1000
NSB00027_S0
1002
}
  0
LINE
  5
8470
330
20
100
AcDbEntity
  8
10000_FRONT
  6
DASHED
 62
     7
370
    20
100
AcDbLine
 39
0.25
 10
126.4551967980306
 20
460.6404800354375
 30
0.0
 11
125.1551967980306
 21
460.6404800354375
 31
0.0
1001
AUSTER_ANSICHT
1002
{
1000
Det03
1002
}
1001
AUSTER_FOLIE
1002
{
1000
NSB00030_RELAIS
1000
NSB00027_S0
1002
}
  0
LINE
  5
8474
330
20
100
AcDbEntity
  8
10000_FRONT
 62
     7
370
    50
100
AcDbLine
 39
0.45
 10
86.80919679803059
 20
435.8644800354374
 30
0.0
 11
131.5501967980306
 21
435.8844127628723
 31
0.0
1001
AUSTER_ANSICHT
1002
{
1000
Det03
1002
}
1001
AUSTER_FOLIE
1002
{
1000
NSB00030_RELAIS
1000
NSB00027_S0
1002
}
  0
LINE
  5
8475
330
20
100
AcDbEntity
  8
11000_Left
  6
Continuous
 62
     7
370
    50
100
AcDbLine
 39
0.7
 10
230.6345009646993
 20
443.6384800354374
 30
0.0
 11
230.6345009646993
 21
442.3844800354373
 31
0.0
1001
AUSTER_ANSICHT
1002
{
1000
Det03
1002
}
1001
AUSTER_FOLIE
1002
{
1000
NSB00030_RELAIS
1000
NSB00027_S0
1002
}
  0
LINE
  5
8476
330
20
100
AcDbEntity
  8
11000_Left
  6
Continuous
 62
     7
370
    50
100
AcDbLine
 39
0.7
 10
230.6345009646993
 20
446.7894800354375
 30
0.0
 11
230.6345009646993
 21
443.6384800354374
 31
0.0
1001
AUSTER_ANSICHT
1002
{
1000
Det03
1002
}
1001
AUSTER_FOLIE
1002
{
1000
NSB00030_RELAIS
1000
NSB00027_S0
1002
}
  0
LINE
  5
8479
330
20
100
AcDbEntity
  8
11000_Left
  6
Continuous
 62
     7
370
    50
100
AcDbLine
 39
0.7
 10
247.3195009646993
 20
435.8844800354375
 30
0.0
 11
253.2005009646993
 21
435.8384800354374
 31
0.0
1001
AUSTER_ANSICHT
1002
{
1000
Det03
1002
}
1001
AUSTER_FOLIE
1002
{
1000
NSB00030_RELAIS
1000
NSB00027_S0
1002
}
  0
LINE
  5
847F
330
20
100
AcDbEntity
  8
11000_Left
  6
Continuous
 62
     7
370
    50
100
AcDbLine
 39
0.7
 10
221.7345009646992
 20
460.4384800354374
 30
0.0
 11
221.7355009646993
 21
458.1384800354374
 31
0.0
1001
AUSTER_ANSICHT
1002
{
1000
Det03
1002
}
1001
AUSTER_FOLIE
1002
{
1000
NSB00030_RELAIS
1000
NSB00027_S0
1002
}
  0
LINE
  5
8480
330
20
100
AcDbEntity
  8
11000_Left
  6
Continuous
 62
     7
370
    50
100
AcDbLine
 39
0.7
 10
221.7355009646993
 20
368.5384800354375
 30
0.0
 11
221.7345009646992
 21
366.4384800354375
 31
0.0
1001
AUSTER_ANSICHT
1002
{
1000
Det03
1002
}
1001
AUSTER_FOLIE
1002
{
1000
NSB00030_RELAIS
1000
NSB00027_S0
1002
}
  0
LINE
  5
8481
330
20
100
AcDbEntity
  8
11000_Left
  6
Continuous
 62
     7
370
    50
100
AcDbLine
 39
0.7
 10
170.4845009646992
 20
368.6384800354375
 30
0.0
 11
197.2345009646992
 21
368.6384800354375
 31
0.0
1001
AUSTER_ANSICHT
1002
{
1000
Det03
1002
}
1001
AUSTER_FOLIE
1002
{
1000
NSB00030_RELAIS
1000
NSB00027_S0
1002
}
  0
LINE
  5
8482
330
20
100
AcDbEntity
  8
11000_Left
  6
Continuous
 62
     7
370
    50
100
AcDbLine
 39
0.7
 10
171.3665009646993
 20
458.2384800354374
 30
0.0
 11
197.2345009646992
 21
458.2384800354374
 31
0.0
1001
AUSTER_ANSICHT
1002
{
1000
Det03
1002
}
1001
AUSTER_FOLIE
1002
{
1000
NSB00030_RELAIS
1000
NSB00027_S0
1002
}
  0
LINE
  5
84F2
330
20
100
AcDbEntity
  8
11000_Left
  6
Continuous
 62
     7
370
    50
100
AcDbLine
 39
0.7
 10
230.6345009646993
 20
445.6684800354373
 30
0.0
 11
230.6345009646993
 21
442.3844800354373
 31
0.0
1001
AUSTER_ANSICHT
1002
{
1000
Det03
1002
}
1001
AUSTER_FOLIE
1002
{
1000
NSB00030_RELAIS
1000
NSB00027_S0
1002
}
  0
LINE
  5
84F3
330
20
100
AcDbEntity
  8
11000_Left
  6
Continuous
 62
     7
370
    50
100
AcDbLine
 39
0.7
 10
230.6345009646993
 20
445.6684800354373
 30
0.0
 11
230.6345009646993
 21
442.3844800354373
 31
0.0
1001
AUSTER_ANSICHT
1002
{
1000
Det03
1002
}
1001
AUSTER_FOLIE
1002
{
1000
NSB00030_RELAIS
1000
NSB00027_S0
1002
}
  0
LINE
  5
84F4
330
20
100
AcDbEntity
  8
11000_Left
  6
Continuous
 62
     7
370
    50
100
AcDbLine
 39
0.7
 10
230.6345009646993
 20
445.6684800354373
 30
0.0
 11
230.6345009646993
 21
442.3844800354373
 31
0.0
1001
AUSTER_ANSICHT
1002
{
1000
Det03
1002
}
1001
AUSTER_FOLIE
1002
{
1000
NSB00030_RELAIS
1000
NSB00027_S0
1002
}
  0
LINE
  5
86C6
330
20
100
AcDbEntity
  8
11000_Left
  6
Continuous
 62
     7
370
    50
100
AcDbLine
 39
0.7
 10
170.4845009646992
 20
393.5384800354375
 30
0.0
 11
170.4845009646992
 21
369.6384800354374
 31
0.0
1001
AUSTER_ANSICHT
1002
{
1000
Det03
1002
}
1001
AUSTER_FOLIE
1002
{
1000
NSB00030_RELAIS
1000
NSB00027_S0
1002
}
  0
LINE
  5
86C7
330
20
100
AcDbEntity
  8
11000_Left
  6
Continuous
 62
     7
370
    50
100
AcDbLine
 39
0.7
 10
170.4845009646992
 20
453.2384800354374
 30
0.0
 11
170.4845009646992
 21
434.8384800354374
 31
0.0
1001
AUSTER_ANSICHT
1002
{
1000
Det03
1002
}
1001
AUSTER_FOLIE
1002
{
1000
NSB00030_RELAIS
1000
NSB00027_S0
1002
}
  0
LINE
  5
86C8
330
20
100
AcDbEntity
  8
11000_Left
  6
Continuous
 62
     7
370
    50
100
AcDbLine
 39
0.7
 10
171.1905009646992
 20
457.2384800354374
 30
0.0
 11
170.4845009646992
 21
453.2384800354374
 31
0.0
1001
AUSTER_ANSICHT
1002
{
1000
Det03
1002
}
1001
AUSTER_FOLIE
1002
{
1000
NSB00030_RELAIS
1000
NSB00027_S0
1002
}
  0
LINE
  5
86C9
330
20
100
AcDbEntity
  8
11000_Left
  6
Continuous
 62
     7
370
    50
100
AcDbLine
 39
0.7
 10
171.3665009646993
 20
458.2384800354374
 30
0.0
 11
171.1905009646992
 21
457.2384800354374
 31
0.0
1001
AUSTER_ANSICHT
1002
{
1000
Det03
1002
}
1001
AUSTER_FOLIE
1002
{
1000
NSB00030_RELAIS
1000
NSB00027_S0
1002
}
  0
LINE
  5
86CB
330
20
100
AcDbEntity
  8
11000_Left
  6
Continuous
 62
     7
370
    50
100
AcDbLine
 39
0.7
 10
170.4845009646992
 20
369.6384800354374
 30
0.0
 11
170.4845009646992
 21
368.6384800354375
 31
0.0
1001
AUSTER_ANSICHT
1002
{
1000
Det03
1002
}
1001
AUSTER_FOLIE
1002
{
1000
NSB00030_RELAIS
1000
NSB00027_S0
1002
}
  0
LINE
  5
86CC
330
20
100
AcDbEntity
  8
11000_Left
  6
Continuous
 62
     7
370
    50
100
AcDbLine
 39
0.7
 10
170.4845009646992
 20
434.4384800354374
 30
0.0
 11
170.4845009646992
 21
434.8384800354374
 31
0.0
1001
AUSTER_ANSICHT
1002
{
1000
Det03
1002
}
1001
AUSTER_FOLIE
1002
{
1000
NSB00030_RELAIS
1000
NSB00027_S0
1002
}
  0
LINE
  5
86CD
330
20
100
AcDbEntity
  8
11000_Left
  6
Continuous
 62
     7
370
    50
100
AcDbLine
 39
0.7
 10
170.9845009646992
 20
434.4384800354374
 30
0.0
 11
172.3845009646993
 21
429.1384800354374
 31
0.0
1001
AUSTER_ANSICHT
1002
{
1000
Det03
1002
}
1001
AUSTER_FOLIE
1002
{
1000
NSB00030_RELAIS
1000
NSB00027_S0
1002
}
  0
LINE
  5
86CE
330
20
100
AcDbEntity
  8
11000_Left
  6
Continuous
 62
     7
370
    50
100
AcDbLine
 39
0.7
 10
174.0845009646992
 20
434.4384800354374
 30
0.0
 11
174.0845009646992
 21
430.1384800354374
 31
0.0
1001
AUSTER_ANSICHT
1002
{
1000
Det03
1002
}
1001
AUSTER_FOLIE
1002
{
1000
NSB00030_RELAIS
1000
NSB00027_S0
1002
}
  0
LINE
  5
86CF
330
20
100
AcDbEntity
  8
11000_Left
  6
Continuous
 62
     7
370
    50
100
AcDbLine
 39
0.7
 10
170.4845009646992
 20
393.5384800354375
 30
0.0
 11
170.4845009646992
 21
393.9384800354375
 31
0.0
1001
AUSTER_ANSICHT
1002
{
1000
Det03
1002
}
1001
AUSTER_FOLIE
1002
{
1000
NSB00030_RELAIS
1000
NSB00027_S0
1002
}
  0
LINE
  5
86D0
330
20
100
AcDbEntity
  8
11000_Left
  6
Continuous
 62
     7
370
    50
100
AcDbLine
 39
0.7
 10
170.4845009646992
 20
393.9384800354375
 30
0.0
 11
175.4845009646992
 21
393.9384800354375
 31
0.0
1001
AUSTER_ANSICHT
1002
{
1000
Det03
1002
}
1001
AUSTER_FOLIE
1002
{
1000
NSB00030_RELAIS
1000
NSB00027_S0
1002
}
  0
LINE
  5
86D1
330
20
100
AcDbEntity
  8
11000_Left
  6
Continuous
 62
     7
370
    50
100
AcDbLine
 39
0.7
 10
173.7175009646993
 20
396.9384800354374
 30
0.0
 11
170.4845009646992
 21
393.9384800354375
 31
0.0
1001
AUSTER_ANSICHT
1002
{
1000
Det03
1002
}
1001
AUSTER_FOLIE
1002
{
1000
NSB00030_RELAIS
1000
NSB00027_S0
1002
}
  0
LINE
  5
86D2
330
20
100
AcDbEntity
  8
11000_Left
  6
Continuous
 62
     7
370
    50
100
AcDbLine
 39
0.7
 10
197.2345009646992
 20
460.4384800354374
 30
0.0
 11
197.2345009646992
 21
458.2384800354374
 31
0.0
1001
AUSTER_ANSICHT
1002
{
1000
Det03
1002
}
1001
AUSTER_FOLIE
1002
{
1000
NSB00030_RELAIS
1000
NSB00027_S0
1002
}
  0
LINE
  5
86D3
330
20
100
AcDbEntity
  8
11000_Left
  6
Continuous
 62
     7
370
    50
100
AcDbLine
 39
0.7
 10
221.7355009646993
 20
458.1384800354374
 30
0.0
 11
228.9715009646993
 21
458.1384800354374
 31
0.0
1001
AUSTER_ANSICHT
1002
{
1000
Det03
1002
}
1001
AUSTER_FOLIE
1002
{
1000
NSB00030_RELAIS
1000
NSB00027_S0
1002
}
  0
LINE
  5
86D4
330
20
100
AcDbEntity
  8
11000_Left
  6
Continuous
 62
     7
370
    50
100
AcDbLine
 39
0.7
 10
228.9475009646993
 20
368.5384800354375
 30
0.0
 11
221.7355009646993
 21
368.5384800354375
 31
0.0
1001
AUSTER_ANSICHT
1002
{
1000
Det03
1002
}
1001
AUSTER_FOLIE
1002
{
1000
NSB00030_RELAIS
1000
NSB00027_S0
1002
}
  0
LINE
  5
86D5
330
20
100
AcDbEntity
  8
11000_Left
  6
Continuous
 62
     7
370
    50
100
AcDbLine
 39
0.7
 10
253.2005009646993
 20
390.8384800354376
 30
0.0
 11
231.2345009646993
 21
390.8384800354376
 31
0.0
1001
AUSTER_ANSICHT
1002
{
1000
Det03
1002
}
1001
AUSTER_FOLIE
1002
{
1000
NSB00030_RELAIS
1000
NSB00027_S0
1002
}
  0
LINE
  5
86D6
330
20
100
AcDbEntity
  8
10000_FRONT
  6
Continuous
 62
     7
370
    20
100
AcDbLine
 39
0.25
 10
95.21519679803059
 20
427.0174800354374
 30
0.0
 11
95.25519679803062
 21
427.0444800354375
 31
0.0
1001
AUSTER_ANSICHT
1002
{
1000
Det03
1002
}
1001
AUSTER_FOLIE
1002
{
1000
NSB00030_RELAIS
1000
NSB00027_S0
1002
}
  0
LINE
  5
86D7
330
20
100
AcDbEntity
  8
10000_FRONT
  6
Continuous
 62
     7
370
    20
100
AcDbLine
 39
0.25
 10
92.83219679803062
 20
423.8834800354374
 30
0.0
 11
92.14419679803055
 21
424.8664800354374
 31
0.0
1001
AUSTER_ANSICHT
1002
{
1000
Det03
1002
}
1001
AUSTER_FOLIE
1002
{
1000
NSB00030_RELAIS
1000
NSB00027_S0
1002
}
  0
LINE
  5
86D8
330
20
100
AcDbEntity
  8
10000_FRONT
  6
Continuous
 62
     7
370
    20
100
AcDbLine
 39
0.25
 10
95.08519679803058
 20
425.4604800354374
 30
0.0
 11
92.83219679803062
 21
423.8834800354374
 31
0.0
1001
AUSTER_ANSICHT
1002
{
1000
Det03
1002
}
1001
AUSTER_FOLIE
1002
{
1000
NSB00030_RELAIS
1000
NSB00027_S0
1002
}
  0
LINE
  5
86D9
330
20
100
AcDbEntity
  8
10000_FRONT
  6
Continuous
 62
     7
370
    20
100
AcDbLine
 39
0.25
 10
95.85119679803062
 20
424.3654800354375
 30
0.0
 11
95.08519679803058
 21
425.4604800354374
 31
0.0
1001
AUSTER_ANSICHT
1002
{
1000
Det03
1002
}
1001
AUSTER_FOLIE
1002
{
1000
NSB00030_RELAIS
1000
NSB00027_S0
1002
}
  0
LINE
  5
86DA
330
20
100
AcDbEntity
  8
10000_FRONT
  6
Continuous
 62
     7
370
    20
100
AcDbLine
 39
0.25
 10
95.90419679803057
 20
426.0344800354373
 30
0.0
 11
96.67019679803059
 21
424.9394800354373
 31
0.0
1001
AUSTER_ANSICHT
1002
{
1000
Det03
1002
}
1001
AUSTER_FOLIE
1002
{
1000
NSB00030_RELAIS
1000
NSB00027_S0
1002
}
  0
LINE
  5
86DB
330
20
100
AcDbEntity
  8
10000_FRONT
  6
Continuous
 62
     7
370
    20
100
AcDbLine
 39
0.25
 10
98.15619679803059
 20
427.6114800354374
 30
0.0
 11
95.90419679803057
 21
426.0344800354373
 31
0.0
1001
AUSTER_ANSICHT
1002
{
1000
Det03
1002
}
1001
AUSTER_FOLIE
1002
{
1000
NSB00030_RELAIS
1000
NSB00027_S0
1002
}
  0
LINE
  5
86DC
330
20
100
AcDbEntity
  8
10000_FRONT
  6
Continuous
 62
     7
370
    20
100
AcDbLine
 39
0.25
 10
97.4681967980306
 20
428.5944800354374
 30
0.0
 11
98.15619679803059
 21
427.6114800354374
 31
0.0
1001
AUSTER_ANSICHT
1002
{
1000
Det03
1002
}
1001
AUSTER_FOLIE
1002
{
1000
NSB00030_RELAIS
1000
NSB00027_S0
1002
}
  0
LINE
  5
86DD
330
20
100
AcDbEntity
  8
10000_FRONT
  6
Continuous
 62
     7
370
    20
100
AcDbLine
 39
0.25
 10
95.21519679803059
 20
427.0174800354374
 30
0.0
 11
97.4681967980306
 21
428.5944800354374
 31
0.0
1001
AUSTER_ANSICHT
1002
{
1000
Det03
1002
}
1001
AUSTER_FOLIE
1002
{
1000
NSB00030_RELAIS
1000
NSB00027_S0
1002
}
  0
LINE
  5
86DE
330
20
100
AcDbEntity
  8
10000_FRONT
  6
Continuous
 62
     7
370
    20
100
AcDbLine
 39
0.25
 10
94.44919679803058
 20
428.1114800354374
 30
0.0
 11
95.21519679803059
 21
427.0174800354374
 31
0.0
1001
AUSTER_ANSICHT
1002
{
1000
Det03
1002
}
1001
AUSTER_FOLIE
1002
{
1000
NSB00030_RELAIS
1000
NSB00027_S0
1002
}
  0
LINE
  5
86DF
330
20
100
AcDbEntity
  8
10000_FRONT
  6
Continuous
 62
     7
370
    20
100
AcDbLine
 39
0.25
 10
94.39619679803058
 20
426.4434800354374
 30
0.0
 11
93.63019679803064
 21
427.5384800354373
 31
0.0
1001
AUSTER_ANSICHT
1002
{
1000
Det03
1002
}
1001
AUSTER_FOLIE
1002
{
1000
NSB00030_RELAIS
1000
NSB00027_S0
1002
}
  0
LINE
  5
86E0
330
20
100
AcDbEntity
  8
10000_FRONT
  6
Continuous
 62
     7
370
    20
100
AcDbLine
 39
0.25
 10
92.14419679803055
 20
424.8664800354374
 30
0.0
 11
94.39619679803058
 21
426.4434800354374
 31
0.0
1001
AUSTER_ANSICHT
1002
{
1000
Det03
1002
}
1001
AUSTER_FOLIE
1002
{
1000
NSB00030_RELAIS
1000
NSB00027_S0
1002
}
  0
LINE
  5
86E1
330
20
100
AcDbEntity
  8
10000_FRONT
  6
Continuous
 62
     7
370
    50
100
AcDbLine
 39
0.7
 10
131.5501967980306
 20
368.8634800354374
 30
0.0
 11
131.5501967980306
 21
366.4384800354375
 31
0.0
1001
AUSTER_ANSICHT
1002
{
1000
Det03
1002
}
1001
AUSTER_FOLIE
1002
{
1000
NSB00030_RELAIS
1000
NSB00027_S0
1002
}
  0
LINE
  5
86E2
330
20
100
AcDbEntity
  8
10000_FRONT
  6
Continuous
 62
     7
370
    50
100
AcDbLine
 39
0.7
 10
130.0501967980306
 20
368.5394800354375
 30
0.0
 11
130.0501967980306
 21
366.4384800354375
 31
0.0
1001
AUSTER_ANSICHT
1002
{
1000
Det03
1002
}
1001
AUSTER_FOLIE
1002
{
1000
NSB00030_RELAIS
1000
NSB00027_S0
1002
}
  0
LINE
  5
86E3
330
20
100
AcDbEntity
  8
10000_FRONT
  6
Continuous
 62
     7
370
    50
100
AcDbLine
 39
0.7
 10
129.8001967980306
 20
461.9384800354374
 30
0.0
 11
131.5501967980306
 21
461.9384800354374
 31
0.0
1001
AUSTER_ANSICHT
1002
{
1000
Det03
1002
}
1001
AUSTER_FOLIE
1002
{
1000
NSB00030_RELAIS
1000
NSB00027_S0
1002
}
  0
LINE
  5
86E4
330
20
100
AcDbEntity
  8
10000_FRONT
  6
Continuous
 62
     7
370
    50
100
AcDbLine
 39
0.7
 10
131.5501967980306
 20
461.9384800354374
 30
0.0
 11
131.5501967980306
 21
460.4384800354374
 31
0.0
1001
AUSTER_ANSICHT
1002
{
1000
Det03
1002
}
1001
AUSTER_FOLIE
1002
{
1000
NSB00030_RELAIS
1000
NSB00027_S0
1002
}
  0
LINE
  5
86E5
330
20
100
AcDbEntity
  8
10000_FRONT
  6
Continuous
 62
     7
370
    50
100
AcDbLine
 39
0.7
 10
131.5501967980306
 20
460.4384800354374
 30
0.0
 11
131.5501967980306
 21
457.1384800354374
 31
0.0
1001
AUSTER_ANSICHT
1002
{
1000
Det03
1002
}
1001
AUSTER_FOLIE
1002
{
1000
NSB00030_RELAIS
1000
NSB00027_S0
1002
}
  0
LINE
  5
86E6
330
20
100
AcDbEntity
  8
10000_FRONT
  6
Continuous
 62
     7
370
    50
100
AcDbLine
 39
0.7
 10
129.8001967980306
 20
460.4384800354374
 30
0.0
 11
129.8001967980306
 21
461.9384800354374
 31
0.0
1001
AUSTER_ANSICHT
1002
{
1000
Det03
1002
}
1001
AUSTER_FOLIE
1002
{
1000
NSB00030_RELAIS
1000
NSB00027_S0
1002
}
  0
LINE
  5
86E7
330
20
100
AcDbEntity
  8
10000_FRONT
  6
Continuous
 62
     7
370
    50
100
AcDbLine
 39
0.7
 10
129.8001967980306
 20
458.1384800354374
 30
0.0
 11
129.8001967980306
 21
460.4384800354374
 31
0.0
1001
AUSTER_ANSICHT
1002
{
1000
Det03
1002
}
1001
AUSTER_FOLIE
1002
{
1000
NSB00030_RELAIS
1000
NSB00027_S0
1002
}
  0
LINE
  5
86E8
330
20
100
AcDbEntity
  8
10000_FRONT
  6
Continuous
 62
     7
370
    50
100
AcDbLine
 39
0.7
 10
101.2501967980306
 20
368.5394800354375
 30
0.0
 11
101.2501967980306
 21
366.4384800354375
 31
0.0
1001
AUSTER_ANSICHT
1002
{
1000
Det03
1002
}
1001
AUSTER_FOLIE
1002
{
1000
NSB00030_RELAIS
1000
NSB00027_S0
1002
}
  0
LINE
  5
86E9
330
20
100
AcDbEntity
  8
10000_FRONT
  6
Continuous
 62
     7
370
    50
100
AcDbLine
 39
0.7
 10
102.6501967980306
 20
366.4384800354375
 30
0.0
 11
102.6501967980306
 21
368.5394800354375
 31
0.0
1001
AUSTER_ANSICHT
1002
{
1000
Det03
1002
}
1001
AUSTER_FOLIE
1002
{
1000
NSB00030_RELAIS
1000
NSB00027_S0
1002
}
  0
LINE
  5
86EA
330
20
100
AcDbEntity
  8
10000_FRONT
  6
Continuous
 62
     7
370
    50
100
AcDbLine
 39
0.7
 10
117.0501967980306
 20
366.4384800354375
 30
0.0
 11
117.0501967980306
 21
368.5394800354375
 31
0.0
1001
AUSTER_ANSICHT
1002
{
1000
Det03
1002
}
1001
AUSTER_FOLIE
1002
{
1000
NSB00030_RELAIS
1000
NSB00027_S0
1002
}
  0
LINE
  5
86EB
330
20
100
AcDbEntity
  8
10000_FRONT
 62
     7
370
    20
100
AcDbLine
 39
0.7
 10
117.0501967980306
 20
366.4384800354375
 30
0.0
 11
117.0501967980306
 21
366.1284800354374
 31
0.0
1001
AUSTER_ANSICHT
1002
{
1000
Det03
1002
}
1001
AUSTER_FOLIE
1002
{
1000
NSB00030_RELAIS
1000
NSB00027_S0
1002
}
  0
LINE
  5
86EC
330
20
100
AcDbEntity
  8
10000_FRONT
  6
Continuous
 62
     7
370
    50
100
AcDbLine
 39
0.7
 10
115.6501967980306
 20
364.9384800354375
 30
0.0
 11
116.8551967980306
 21
364.9384800354375
 31
0.0
1001
AUSTER_ANSICHT
1002
{
1000
Det03
1002
}
1001
AUSTER_FOLIE
1002
{
1000
NSB00030_RELAIS
1000
NSB00027_S0
1002
}
  0
LINE
  5
86ED
330
20
100
AcDbEntity
  8
10000_FRONT
  6
Continuous
 62
     7
370
    50
100
AcDbLine
 39
0.7
 10
115.6501967980306
 20
368.5394800354375
 30
0.0
 11
115.6501967980306
 21
366.4384800354375
 31
0.0
1001
AUSTER_ANSICHT
1002
{
1000
Det03
1002
}
1001
AUSTER_FOLIE
1002
{
1000
NSB00030_RELAIS
1000
NSB00027_S0
1002
}
  0
LINE
  5
86EE
330
20
100
AcDbEntity
  8
10000_FRONT
  6
Continuous
 62
     7
370
    50
100
AcDbLine
 39
0.7
 10
115.6501967980306
 20
364.9384800354375
 30
0.0
 11
115.6501967980306
 21
366.4384800354375
 31
0.0
1001
AUSTER_ANSICHT
1002
{
1000
Det03
1002
}
1001
AUSTER_FOLIE
1002
{
1000
NSB00030_RELAIS
1000
NSB00027_S0
1002
}
  0
LINE
  5
86EF
330
20
100
AcDbEntity
  8
10000_FRONT
  6
Continuous
 62
     7
370
    50
100
AcDbLine
 39
0.7
 10
117.3001967980306
 20
461.9384800354374
 30
0.0
 11
117.3001967980306
 21
460.4384800354374
 31
0.0
1001
AUSTER_ANSICHT
1002
{
1000
Det03
1002
}
1001
AUSTER_FOLIE
1002
{
1000
NSB00030_RELAIS
1000
NSB00027_S0
1002
}
  0
LINE
  5
86F0
330
20
100
AcDbEntity
  8
10000_FRONT
  6
Continuous
 62
     7
370
    50
100
AcDbLine
 39
0.7
 10
117.3001967980306
 20
458.1384800354374
 30
0.0
 11
117.3001967980306
 21
460.4384800354374
 31
0.0
1001
AUSTER_ANSICHT
1002
{
1000
Det03
1002
}
1001
AUSTER_FOLIE
1002
{
1000
NSB00030_RELAIS
1000
NSB00027_S0
1002
}
  0
LINE
  5
86F1
330
20
100
AcDbEntity
  8
10000_FRONT
  6
Continuous
 62
     7
370
    50
100
AcDbLine
 39
0.7
 10
102.9001967980306
 20
458.1384800354374
 30
0.0
 11
102.9001967980306
 21
460.4384800354374
 31
0.0
1001
AUSTER_ANSICHT
1002
{
1000
Det03
1002
}
1001
AUSTER_FOLIE
1002
{
1000
NSB00030_RELAIS
1000
NSB00027_S0
1002
}
  0
LINE
  5
86F2
330
20
100
AcDbEntity
  8
10000_FRONT
  6
Continuous
 62
     7
370
    50
100
AcDbLine
 39
0.7
 10
115.4001967980306
 20
460.4384800354374
 30
0.0
 11
115.4001967980306
 21
461.9384800354374
 31
0.0
1001
AUSTER_ANSICHT
1002
{
1000
Det03
1002
}
1001
AUSTER_FOLIE
1002
{
1000
NSB00030_RELAIS
1000
NSB00027_S0
1002
}
  0
LINE
  5
86F3
330
20
100
AcDbEntity
  8
10000_FRONT
  6
Continuous
 62
     7
370
    50
100
AcDbLine
 39
0.7
 10
115.4001967980306
 20
458.1384800354374
 30
0.0
 11
115.4001967980306
 21
460.4384800354374
 31
0.0
1001
AUSTER_ANSICHT
1002
{
1000
Det03
1002
}
1001
AUSTER_FOLIE
1002
{
1000
NSB00030_RELAIS
1000
NSB00027_S0
1002
}
  0
LINE
  5
86F4
330
20
100
AcDbEntity
  8
10000_FRONT
  6
Continuous
 62
     7
370
    50
100
AcDbLine
 39
0.7
 10
101.0001967980306
 20
458.1384800354374
 30
0.0
 11
101.0001967980306
 21
460.4384800354374
 31
0.0
1001
AUSTER_ANSICHT
1002
{
1000
Det03
1002
}
1001
AUSTER_FOLIE
1002
{
1000
NSB00030_RELAIS
1000
NSB00027_S0
1002
}
  0
LINE
  5
86F5
330
20
100
AcDbEntity
  8
10000_FRONT
  6
Continuous
 62
     7
370
    50
100
AcDbLine
 39
0.7
 10
86.75019679803057
 20
366.4384800354375
 30
0.0
 11
86.75019679803057
 21
368.8164800354375
 31
0.0
1001
AUSTER_ANSICHT
1002
{
1000
Det03
1002
}
1001
AUSTER_FOLIE
1002
{
1000
NSB00030_RELAIS
1000
NSB00027_S0
1002
}
  0
LINE
  5
86F6
330
20
100
AcDbEntity
  8
10000_FRONT
  6
Continuous
 62
     7
370
    50
100
AcDbLine
 39
0.7
 10
86.75019679803057
 20
461.9384800354374
 30
0.0
 11
88.50019679803057
 21
461.9384800354374
 31
0.0
1001
AUSTER_ANSICHT
1002
{
1000
Det03
1002
}
1001
AUSTER_FOLIE
1002
{
1000
NSB00030_RELAIS
1000
NSB00027_S0
1002
}
  0
LINE
  5
86F7
330
20
100
AcDbEntity
  8
10000_FRONT
  6
Continuous
 62
     7
370
    50
100
AcDbLine
 39
0.7
 10
88.25019679803057
 20
366.4384800354375
 30
0.0
 11
88.25019679803057
 21
368.5394800354375
 31
0.0
1001
AUSTER_ANSICHT
1002
{
1000
Det03
1002
}
1001
AUSTER_FOLIE
1002
{
1000
NSB00030_RELAIS
1000
NSB00027_S0
1002
}
  0
LINE
  5
86F8
330
20
100
AcDbEntity
  8
10000_FRONT
  6
Continuous
 62
     7
370
    50
100
AcDbLine
 39
0.7
 10
88.50019679803057
 20
460.4384800354374
 30
0.0
 11
88.50019679803057
 21
458.1384800354374
 31
0.0
1001
AUSTER_ANSICHT
1002
{
1000
Det03
1002
}
1001
AUSTER_FOLIE
1002
{
1000
NSB00030_RELAIS
1000
NSB00027_S0
1002
}
  0
LINE
  5
86F9
330
20
100
AcDbEntity
  8
10000_FRONT
  6
Continuous
 62
     7
370
    50
100
AcDbLine
 39
0.7
 10
88.50019679803057
 20
461.9384800354374
 30
0.0
 11
88.50019679803057
 21
460.4384800354374
 31
0.0
1001
AUSTER_ANSICHT
1002
{
1000
Det03
1002
}
1001
AUSTER_FOLIE
1002
{
1000
NSB00030_RELAIS
1000
NSB00027_S0
1002
}
  0
LINE
  5
86FA
330
20
100
AcDbEntity
  8
10000_FRONT
  6
Continuous
 62
     7
370
    50
100
AcDbLine
 39
0.7
 10
101.0001967980306
 20
460.4384800354374
 30
0.0
 11
101.0001967980306
 21
461.9384800354374
 31
0.0
1001
AUSTER_ANSICHT
1002
{
1000
Det03
1002
}
1001
AUSTER_FOLIE
1002
{
1000
NSB00030_RELAIS
1000
NSB00027_S0
1002
}
  0
LINE
  5
86FB
330
20
100
AcDbEntity
  8
10000_FRONT
  6
Continuous
 62
     7
370
    50
100
AcDbLine
 39
0.7
 10
101.0001967980306
 20
461.9384800354374
 30
0.0
 11
102.9001967980306
 21
461.9384800354374
 31
0.0
1001
AUSTER_ANSICHT
1002
{
1000
Det03
1002
}
1001
AUSTER_FOLIE
1002
{
1000
NSB00030_RELAIS
1000
NSB00027_S0
1002
}
  0
LINE
  5
86FC
330
20
100
AcDbEntity
  8
10000_FRONT
  6
Continuous
 62
     7
370
    50
100
AcDbLine
 39
0.7
 10
102.9001967980306
 20
461.9384800354374
 30
0.0
 11
102.9001967980306
 21
460.4384800354374
 31
0.0
1001
AUSTER_ANSICHT
1002
{
1000
Det03
1002
}
1001
AUSTER_FOLIE
1002
{
1000
NSB00030_RELAIS
1000
NSB00027_S0
1002
}
  0
LINE
  5
86FD
330
20
100
AcDbEntity
  8
10000_FRONT
  6
Continuous
 62
     7
370
    50
100
AcDbLine
 39
0.7
 10
88.25019679803057
 20
366.4384800354375
 30
0.0
 11
88.25019679803057
 21
364.9384800354375
 31
0.0
1001
AUSTER_ANSICHT
1002
{
1000
Det03
1002
}
1001
AUSTER_FOLIE
1002
{
1000
NSB00030_RELAIS
1000
NSB00027_S0
1002
}
  0
LINE
  5
86FE
330
20
100
AcDbEntity
  8
10000_FRONT
  6
Continuous
 62
     7
370
    50
100
AcDbLine
 39
0.7
 10
86.75019679803057
 20
364.9384800354375
 30
0.0
 11
86.75019679803057
 21
366.4384800354375
 31
0.0
1001
AUSTER_ANSICHT
1002
{
1000
Det03
1002
}
1001
AUSTER_FOLIE
1002
{
1000
NSB00030_RELAIS
1000
NSB00027_S0
1002
}
  0
LINE
  5
86FF
330
20
100
AcDbEntity
  8
10000_FRONT
  6
Continuous
 62
     7
370
    50
100
AcDbLine
 39
0.7
 10
86.75019679803057
 20
364.9384800354375
 30
0.0
 11
88.25019679803057
 21
364.9384800354375
 31
0.0
1001
AUSTER_ANSICHT
1002
{
1000
Det03
1002
}
1001
AUSTER_FOLIE
1002
{
1000
NSB00030_RELAIS
1000
NSB00027_S0
1002
}
  0
LINE
  5
8700
330
20
100
AcDbEntity
  8
10000_FRONT
  6
Continuous
 62
     7
370
    50
100
AcDbLine
 39
0.7
 10
115.4001967980306
 20
461.9384800354374
 30
0.0
 11
117.3001967980306
 21
461.9384800354374
 31
0.0
1001
AUSTER_ANSICHT
1002
{
1000
Det03
1002
}
1001
AUSTER_FOLIE
1002
{
1000
NSB00030_RELAIS
1000
NSB00027_S0
1002
}
  0
LINE
  5
8701
330
20
100
AcDbEntity
  8
10000_FRONT
  6
Continuous
 62
     7
370
    50
100
AcDbLine
 39
0.7
 10
130.0501967980306
 20
364.9384800354375
 30
0.0
 11
130.0501967980306
 21
366.4384800354375
 31
0.0
1001
AUSTER_ANSICHT
1002
{
1000
Det03
1002
}
1001
AUSTER_FOLIE
1002
{
1000
NSB00030_RELAIS
1000
NSB00027_S0
1002
}
  0
LINE
  5
8702
330
20
100
AcDbEntity
  8
10000_FRONT
  6
Continuous
 62
     7
370
    50
100
AcDbLine
 39
0.7
 10
131.5501967980306
 20
366.4384800354375
 30
0.0
 11
131.5501967980306
 21
364.9384800354375
 31
0.0
1001
AUSTER_ANSICHT
1002
{
1000
Det03
1002
}
1001
AUSTER_FOLIE
1002
{
1000
NSB00030_RELAIS
1000
NSB00027_S0
1002
}
  0
LINE
  5
8703
330
20
100
AcDbEntity
  8
10000_FRONT
  6
Continuous
 62
     7
370
    50
100
AcDbLine
 39
0.7
 10
130.0501967980306
 20
364.9384800354375
 30
0.0
 11
131.5501967980306
 21
364.9384800354375
 31
0.0
1001
AUSTER_ANSICHT
1002
{
1000
Det03
1002
}
1001
AUSTER_FOLIE
1002
{
1000
NSB00030_RELAIS
1000
NSB00027_S0
1002
}
  0
LINE
  5
8704
330
20
100
AcDbEntity
  8
10000_FRONT
  6
Continuous
 62
     7
370
    50
100
AcDbLine
 39
0.7
 10
102.6501967980306
 20
366.4384800354375
 30
0.0
 11
102.6501967980306
 21
364.9384800354375
 31
0.0
1001
AUSTER_ANSICHT
1002
{
1000
Det03
1002
}
1001
AUSTER_FOLIE
1002
{
1000
NSB00030_RELAIS
1000
NSB00027_S0
1002
}
  0
LINE
  5
8705
330
20
100
AcDbEntity
  8
10000_FRONT
  6
Continuous
 62
     7
370
    50
100
AcDbLine
 39
0.7
 10
101.2501967980306
 20
364.9384800354375
 30
0.0
 11
102.6501967980306
 21
364.9384800354375
 31
0.0
1001
AUSTER_ANSICHT
1002
{
1000
Det03
1002
}
1001
AUSTER_FOLIE
1002
{
1000
NSB00030_RELAIS
1000
NSB00027_S0
1002
}
  0
LINE
  5
8706
330
20
100
AcDbEntity
  8
10000_FRONT
  6
Continuous
 62
     7
370
    50
100
AcDbLine
 39
0.7
 10
101.2501967980306
 20
364.9384800354375
 30
0.0
 11
101.2501967980306
 21
366.4384800354375
 31
0.0
1001
AUSTER_ANSICHT
1002
{
1000
Det03
1002
}
1001
AUSTER_FOLIE
1002
{
1000
NSB00030_RELAIS
1000
NSB00027_S0
1002
}
  0
LINE
  5
8707
330
20
100
AcDbEntity
  8
10000_FRONT
  6
Continuous
 62
     7
370
    20
100
AcDbLine
 39
0.25
 10
101.5501967980306
 20
404.9384800354373
 30
0.0
 11
94.55019679803058
 21
404.9384800354373
 31
0.0
1001
AUSTER_ANSICHT
1002
{
1000
Det03
1002
}
1001
AUSTER_FOLIE
1002
{
1000
NSB00030_RELAIS
1000
NSB00027_S0
1002
}
  0
LINE
  5
8708
330
20
100
AcDbEntity
  8
10000_FRONT
  6
Continuous
 62
     7
370
    20
100
AcDbLine
 39
0.25
 10
101.5501967980306
 20
407.9384800354374
 30
0.0
 11
101.5501967980306
 21
404.9384800354373
 31
0.0
1001
AUSTER_ANSICHT
1002
{
1000
Det03
1002
}
1001
AUSTER_FOLIE
1002
{
1000
NSB00030_RELAIS
1000
NSB00027_S0
1002
}
  0
LINE
  5
8709
330
20
100
AcDbEntity
  8
10000_FRONT
  6
Continuous
 62
     7
370
    20
100
AcDbLine
 39
0.25
 10
94.55019679803058
 20
407.9384800354374
 30
0.0
 11
101.5501967980306
 21
407.9384800354374
 31
0.0
1001
AUSTER_ANSICHT
1002
{
1000
Det03
1002
}
1001
AUSTER_FOLIE
1002
{
1000
NSB00030_RELAIS
1000
NSB00027_S0
1002
}
  0
LINE
  5
870A
330
20
100
AcDbEntity
  8
10000_FRONT
  6
Continuous
 62
     7
370
    20
100
AcDbLine
 39
0.25
 10
94.55019679803058
 20
404.9384800354373
 30
0.0
 11
94.55019679803058
 21
407.9384800354374
 31
0.0
1001
AUSTER_ANSICHT
1002
{
1000
Det03
1002
}
1001
AUSTER_FOLIE
1002
{
1000
NSB00030_RELAIS
1000
NSB00027_S0
1002
}
  0
LINE
  5
870B
330
20
100
AcDbEntity
  8
10000_FRONT
  6
Continuous
 62
     7
370
    20
100
AcDbLine
 39
0.25
 10
123.0351967980306
 20
451.9234800354374
 30
0.0
 11
123.0351967980306
 21
451.7434800354374
 31
0.0
1001
AUSTER_ANSICHT
1002
{
1000
Det03
1002
}
1001
AUSTER_FOLIE
1002
{
1000
NSB00030_RELAIS
1000
NSB00027_S0
1002
}
  0
LINE
  5
870C
330
20
100
AcDbEntity
  8
10000_FRONT
  6
Continuous
 62
     7
370
    20
100
AcDbLine
 39
0.25
 10
123.0351967980306
 20
450.3544800354374
 30
0.0
 11
123.0351967980306
 21
450.5344800354373
 31
0.0
1001
AUSTER_ANSICHT
1002
{
1000
Det03
1002
}
1001
AUSTER_FOLIE
1002
{
1000
NSB00030_RELAIS
1000
NSB00027_S0
1002
}
  0
LINE
  5
870D
330
20
100
AcDbEntity
  8
10000_FRONT
  6
Continuous
 62
     7
370
    20
100
AcDbLine
 39
0.25
 10
124.0651967980305
 20
451.9234800354374
 30
0.0
 11
124.0651967980305
 21
451.7434800354374
 31
0.0
1001
AUSTER_ANSICHT
1002
{
1000
Det03
1002
}
1001
AUSTER_FOLIE
1002
{
1000
NSB00030_RELAIS
1000
NSB00027_S0
1002
}
  0
LINE
  5
870E
330
20
100
AcDbEntity
  8
10000_FRONT
  6
Continuous
 62
     7
370
    20
100
AcDbLine
 39
0.25
 10
124.0651967980305
 20
450.3544800354374
 30
0.0
 11
124.0651967980305
 21
450.5344800354373
 31
0.0
1001
AUSTER_ANSICHT
1002
{
1000
Det03
1002
}
1001
AUSTER_FOLIE
1002
{
1000
NSB00030_RELAIS
1000
NSB00027_S0
1002
}
  0
LINE
  5
870F
330
20
100
AcDbEntity
  8
10000_FRONT
  6
Continuous
 62
     7
370
    20
100
AcDbLine
 39
0.25
 10
123.0351967980306
 20
451.9234800354374
 30
0.0
 11
123.0351967980306
 21
452.9154800354374
 31
0.0
1001
AUSTER_ANSICHT
1002
{
1000
Det03
1002
}
1001
AUSTER_FOLIE
1002
{
1000
NSB00030_RELAIS
1000
NSB00027_S0
1002
}
  0
LINE
  5
8710
330
20
100
AcDbEntity
  8
10000_FRONT
  6
Continuous
 62
     7
370
    20
100
AcDbLine
 39
0.25
 10
124.0651967980305
 20
452.9154800354374
 30
0.0
 11
124.0651967980305
 21
451.9234800354374
 31
0.0
1001
AUSTER_ANSICHT
1002
{
1000
Det03
1002
}
1001
AUSTER_FOLIE
1002
{
1000
NSB00030_RELAIS
1000
NSB00027_S0
1002
}
  0
LINE
  5
8711
330
20
100
AcDbEntity
  8
10000_FRONT
  6
Continuous
 62
     7
370
    20
100
AcDbLine
 39
0.25
 10
124.0651967980305
 20
450.3544800354374
 30
0.0
 11
124.0651967980305
 21
449.3624800354374
 31
0.0
1001
AUSTER_ANSICHT
1002
{
1000
Det03
1002
}
1001
AUSTER_FOLIE
1002
{
1000
NSB00030_RELAIS
1000
NSB00027_S0
1002
}
  0
LINE
  5
8712
330
20
100
AcDbEntity
  8
10000_FRONT
  6
Continuous
 62
     7
370
    20
100
AcDbLine
 39
0.25
 10
123.0351967980306
 20
449.3624800354374
 30
0.0
 11
123.0351967980306
 21
450.3544800354374
 31
0.0
1001
AUSTER_ANSICHT
1002
{
1000
Det03
1002
}
1001
AUSTER_FOLIE
1002
{
1000
NSB00030_RELAIS
1000
NSB00027_S0
1002
}
  0
LINE
  5
8713
330
20
100
AcDbEntity
  8
10000_FRONT
  6
Continuous
 62
     7
370
    20
100
AcDbLine
 39
0.25
 10
123.0351967980306
 20
450.5344800354373
 30
0.0
 11
120.7641967980306
 21
450.5344800354373
 31
0.0
1001
AUSTER_ANSICHT
1002
{
1000
Det03
1002
}
1001
AUSTER_FOLIE
1002
{
1000
NSB00030_RELAIS
1000
NSB00027_S0
1002
}
  0
LINE
  5
8714
330
20
100
AcDbEntity
  8
10000_FRONT
  6
Continuous
 62
     7
370
    20
100
AcDbLine
 39
0.25
 10
126.3361967980306
 20
450.5344800354373
 30
0.0
 11
124.0651967980305
 21
450.5344800354373
 31
0.0
1001
AUSTER_ANSICHT
1002
{
1000
Det03
1002
}
1001
AUSTER_FOLIE
1002
{
1000
NSB00030_RELAIS
1000
NSB00027_S0
1002
}
  0
LINE
  5
8715
330
20
100
AcDbEntity
  8
10000_FRONT
  6
Continuous
 62
     7
370
    20
100
AcDbLine
 39
0.25
 10
124.0651967980305
 20
451.7434800354374
 30
0.0
 11
126.3361967980306
 21
451.7434800354374
 31
0.0
1001
AUSTER_ANSICHT
1002
{
1000
Det03
1002
}
1001
AUSTER_FOLIE
1002
{
1000
NSB00030_RELAIS
1000
NSB00027_S0
1002
}
  0
LINE
  5
8716
330
20
100
AcDbEntity
  8
10000_FRONT
  6
Continuous
 62
     7
370
    20
100
AcDbLine
 39
0.25
 10
120.7641967980306
 20
451.7434800354374
 30
0.0
 11
123.0351967980306
 21
451.7434800354374
 31
0.0
1001
AUSTER_ANSICHT
1002
{
1000
Det03
1002
}
1001
AUSTER_FOLIE
1002
{
1000
NSB00030_RELAIS
1000
NSB00027_S0
1002
}
  0
LINE
  5
8717
330
20
100
AcDbEntity
  8
10000_FRONT
  6
Continuous
 62
     7
370
    20
100
AcDbLine
 39
0.25
 10
108.6351967980306
 20
451.9234800354374
 30
0.0
 11
108.6351967980306
 21
451.7434800354374
 31
0.0
1001
AUSTER_ANSICHT
1002
{
1000
Det03
1002
}
1001
AUSTER_FOLIE
1002
{
1000
NSB00030_RELAIS
1000
NSB00027_S0
1002
}
  0
LINE
  5
8718
330
20
100
AcDbEntity
  8
10000_FRONT
  6
Continuous
 62
     7
370
    20
100
AcDbLine
 39
0.25
 10
108.6351967980306
 20
450.3544800354374
 30
0.0
 11
108.6351967980306
 21
450.5344800354373
 31
0.0
1001
AUSTER_ANSICHT
1002
{
1000
Det03
1002
}
1001
AUSTER_FOLIE
1002
{
1000
NSB00030_RELAIS
1000
NSB00027_S0
1002
}
  0
LINE
  5
8719
330
20
100
AcDbEntity
  8
10000_FRONT
  6
Continuous
 62
     7
370
    20
100
AcDbLine
 39
0.25
 10
109.6651967980306
 20
451.9234800354374
 30
0.0
 11
109.6651967980306
 21
451.7434800354374
 31
0.0
1001
AUSTER_ANSICHT
1002
{
1000
Det03
1002
}
1001
AUSTER_FOLIE
1002
{
1000
NSB00030_RELAIS
1000
NSB00027_S0
1002
}
  0
LINE
  5
871A
330
20
100
AcDbEntity
  8
10000_FRONT
  6
Continuous
 62
     7
370
    20
100
AcDbLine
 39
0.25
 10
109.6651967980306
 20
450.3544800354374
 30
0.0
 11
109.6651967980306
 21
450.5344800354373
 31
0.0
1001
AUSTER_ANSICHT
1002
{
1000
Det03
1002
}
1001
AUSTER_FOLIE
1002
{
1000
NSB00030_RELAIS
1000
NSB00027_S0
1002
}
  0
LINE
  5
871B
330
20
100
AcDbEntity
  8
10000_FRONT
  6
Continuous
 62
     7
370
    20
100
AcDbLine
 39
0.25
 10
108.6351967980306
 20
451.9234800354374
 30
0.0
 11
108.6351967980306
 21
452.9154800354374
 31
0.0
1001
AUSTER_ANSICHT
1002
{
1000
Det03
1002
}
1001
AUSTER_FOLIE
1002
{
1000
NSB00030_RELAIS
1000
NSB00027_S0
1002
}
  0
LINE
  5
871C
330
20
100
AcDbEntity
  8
10000_FRONT
  6
Continuous
 62
     7
370
    20
100
AcDbLine
 39
0.25
 10
109.6651967980306
 20
452.9154800354374
 30
0.0
 11
109.6651967980306
 21
451.9234800354374
 31
0.0
1001
AUSTER_ANSICHT
1002
{
1000
Det03
1002
}
1001
AUSTER_FOLIE
1002
{
1000
NSB00030_RELAIS
1000
NSB00027_S0
1002
}
  0
LINE
  5
871D
330
20
100
AcDbEntity
  8
10000_FRONT
  6
Continuous
 62
     7
370
    20
100
AcDbLine
 39
0.25
 10
109.6651967980306
 20
450.3544800354374
 30
0.0
 11
109.6651967980306
 21
449.3624800354374
 31
0.0
1001
AUSTER_ANSICHT
1002
{
1000
Det03
1002
}
1001
AUSTER_FOLIE
1002
{
1000
NSB00030_RELAIS
1000
NSB00027_S0
1002
}
  0
LINE
  5
871E
330
20
100
AcDbEntity
  8
10000_FRONT
  6
Continuous
 62
     7
370
    20
100
AcDbLine
 39
0.25
 10
108.6351967980306
 20
449.3624800354374
 30
0.0
 11
108.6351967980306
 21
450.3544800354374
 31
0.0
1001
AUSTER_ANSICHT
1002
{
1000
Det03
1002
}
1001
AUSTER_FOLIE
1002
{
1000
NSB00030_RELAIS
1000
NSB00027_S0
1002
}
  0
LINE
  5
871F
330
20
100
AcDbEntity
  8
10000_FRONT
  6
Continuous
 62
     7
370
    20
100
AcDbLine
 39
0.25
 10
108.6351967980306
 20
450.5344800354373
 30
0.0
 11
106.3641967980306
 21
450.5344800354373
 31
0.0
1001
AUSTER_ANSICHT
1002
{
1000
Det03
1002
}
1001
AUSTER_FOLIE
1002
{
1000
NSB00030_RELAIS
1000
NSB00027_S0
1002
}
  0
LINE
  5
8720
330
20
100
AcDbEntity
  8
10000_FRONT
  6
Continuous
 62
     7
370
    20
100
AcDbLine
 39
0.25
 10
111.9361967980305
 20
450.5344800354373
 30
0.0
 11
109.6651967980306
 21
450.5344800354373
 31
0.0
1001
AUSTER_ANSICHT
1002
{
1000
Det03
1002
}
1001
AUSTER_FOLIE
1002
{
1000
NSB00030_RELAIS
1000
NSB00027_S0
1002
}
  0
LINE
  5
8721
330
20
100
AcDbEntity
  8
10000_FRONT
  6
Continuous
 62
     7
370
    20
100
AcDbLine
 39
0.25
 10
109.6651967980306
 20
451.7434800354374
 30
0.0
 11
111.9361967980305
 21
451.7434800354374
 31
0.0
1001
AUSTER_ANSICHT
1002
{
1000
Det03
1002
}
1001
AUSTER_FOLIE
1002
{
1000
NSB00030_RELAIS
1000
NSB00027_S0
1002
}
  0
LINE
  5
8722
330
20
100
AcDbEntity
  8
10000_FRONT
  6
Continuous
 62
     7
370
    20
100
AcDbLine
 39
0.25
 10
106.3641967980306
 20
451.7434800354374
 30
0.0
 11
108.6351967980306
 21
451.7434800354374
 31
0.0
1001
AUSTER_ANSICHT
1002
{
1000
Det03
1002
}
1001
AUSTER_FOLIE
1002
{
1000
NSB00030_RELAIS
1000
NSB00027_S0
1002
}
  0
LINE
  5
8723
330
20
100
AcDbEntity
  8
10000_FRONT
  6
Continuous
 62
     7
370
    20
100
AcDbLine
 39
0.25
 10
94.23519679803058
 20
451.9234800354374
 30
0.0
 11
94.23519679803058
 21
451.7434800354374
 31
0.0
1001
AUSTER_ANSICHT
1002
{
1000
Det03
1002
}
1001
AUSTER_FOLIE
1002
{
1000
NSB00030_RELAIS
1000
NSB00027_S0
1002
}
  0
LINE
  5
8724
330
20
100
AcDbEntity
  8
10000_FRONT
  6
Continuous
 62
     7
370
    20
100
AcDbLine
 39
0.25
 10
94.23519679803058
 20
450.3544800354374
 30
0.0
 11
94.23519679803058
 21
450.5344800354373
 31
0.0
1001
AUSTER_ANSICHT
1002
{
1000
Det03
1002
}
1001
AUSTER_FOLIE
1002
{
1000
NSB00030_RELAIS
1000
NSB00027_S0
1002
}
  0
LINE
  5
8725
330
20
100
AcDbEntity
  8
10000_FRONT
  6
Continuous
 62
     7
370
    20
100
AcDbLine
 39
0.25
 10
95.26519679803064
 20
451.9234800354374
 30
0.0
 11
95.26519679803064
 21
451.7434800354374
 31
0.0
1001
AUSTER_ANSICHT
1002
{
1000
Det03
1002
}
1001
AUSTER_FOLIE
1002
{
1000
NSB00030_RELAIS
1000
NSB00027_S0
1002
}
  0
LINE
  5
8726
330
20
100
AcDbEntity
  8
10000_FRONT
  6
Continuous
 62
     7
370
    20
100
AcDbLine
 39
0.25
 10
95.26519679803064
 20
450.3544800354374
 30
0.0
 11
95.26519679803064
 21
450.5344800354373
 31
0.0
1001
AUSTER_ANSICHT
1002
{
1000
Det03
1002
}
1001
AUSTER_FOLIE
1002
{
1000
NSB00030_RELAIS
1000
NSB00027_S0
1002
}
  0
LINE
  5
8727
330
20
100
AcDbEntity
  8
10000_FRONT
  6
Continuous
 62
     7
370
    20
100
AcDbLine
 39
0.25
 10
94.23519679803058
 20
451.9234800354374
 30
0.0
 11
94.23519679803058
 21
452.9154800354374
 31
0.0
1001
AUSTER_ANSICHT
1002
{
1000
Det03
1002
}
1001
AUSTER_FOLIE
1002
{
1000
NSB00030_RELAIS
1000
NSB00027_S0
1002
}
  0
LINE
  5
8728
330
20
100
AcDbEntity
  8
10000_FRONT
  6
Continuous
 62
     7
370
    20
100
AcDbLine
 39
0.25
 10
95.26519679803064
 20
452.9154800354374
 30
0.0
 11
95.26519679803064
 21
451.9234800354374
 31
0.0
1001
AUSTER_ANSICHT
1002
{
1000
Det03
1002
}
1001
AUSTER_FOLIE
1002
{
1000
NSB00030_RELAIS
1000
NSB00027_S0
1002
}
  0
LINE
  5
8729
330
20
100
AcDbEntity
  8
10000_FRONT
  6
Continuous
 62
     7
370
    20
100
AcDbLine
 39
0.25
 10
95.26519679803064
 20
450.3544800354374
 30
0.0
 11
95.26519679803064
 21
449.3624800354374
 31
0.0
1001
AUSTER_ANSICHT
1002
{
1000
Det03
1002
}
1001
AUSTER_FOLIE
1002
{
1000
NSB00030_RELAIS
1000
NSB00027_S0
1002
}
  0
LINE
  5
872A
330
20
100
AcDbEntity
  8
10000_FRONT
  6
Continuous
 62
     7
370
    20
100
AcDbLine
 39
0.25
 10
94.23519679803058
 20
449.3624800354374
 30
0.0
 11
94.23519679803058
 21
450.3544800354374
 31
0.0
1001
AUSTER_ANSICHT
1002
{
1000
Det03
1002
}
1001
AUSTER_FOLIE
1002
{
1000
NSB00030_RELAIS
1000
NSB00027_S0
1002
}
  0
LINE
  5
872B
330
20
100
AcDbEntity
  8
10000_FRONT
  6
Continuous
 62
     7
370
    20
100
AcDbLine
 39
0.25
 10
94.23519679803058
 20
450.5344800354373
 30
0.0
 11
91.96419679803057
 21
450.5344800354373
 31
0.0
1001
AUSTER_ANSICHT
1002
{
1000
Det03
1002
}
1001
AUSTER_FOLIE
1002
{
1000
NSB00030_RELAIS
1000
NSB00027_S0
1002
}
  0
LINE
  5
872C
330
20
100
AcDbEntity
  8
10000_FRONT
  6
Continuous
 62
     7
370
    20
100
AcDbLine
 39
0.25
 10
97.53619679803058
 20
450.5344800354373
 30
0.0
 11
95.26519679803064
 21
450.5344800354373
 31
0.0
1001
AUSTER_ANSICHT
1002
{
1000
Det03
1002
}
1001
AUSTER_FOLIE
1002
{
1000
NSB00030_RELAIS
1000
NSB00027_S0
1002
}
  0
LINE
  5
872D
330
20
100
AcDbEntity
  8
10000_FRONT
  6
Continuous
 62
     7
370
    20
100
AcDbLine
 39
0.25
 10
95.26519679803064
 20
451.7434800354374
 30
0.0
 11
97.53619679803058
 21
451.7434800354374
 31
0.0
1001
AUSTER_ANSICHT
1002
{
1000
Det03
1002
}
1001
AUSTER_FOLIE
1002
{
1000
NSB00030_RELAIS
1000
NSB00027_S0
1002
}
  0
LINE
  5
872E
330
20
100
AcDbEntity
  8
10000_FRONT
  6
Continuous
 62
     7
370
    20
100
AcDbLine
 39
0.25
 10
91.96419679803057
 20
451.7434800354374
 30
0.0
 11
94.23519679803058
 21
451.7434800354374
 31
0.0
1001
AUSTER_ANSICHT
1002
{
1000
Det03
1002
}
1001
AUSTER_FOLIE
1002
{
1000
NSB00030_RELAIS
1000
NSB00027_S0
1002
}
  0
LINE
  5
872F
330
20
100
AcDbEntity
  8
10000_FRONT
  6
Continuous
 62
     7
370
    20
100
AcDbLine
 39
0.25
 10
123.0351967980306
 20
374.7544800354375
 30
0.0
 11
123.0351967980306
 21
374.9344800354375
 31
0.0
1001
AUSTER_ANSICHT
1002
{
1000
Det03
1002
}
1001
AUSTER_FOLIE
1002
{
1000
NSB00030_RELAIS
1000
NSB00027_S0
1002
}
  0
LINE
  5
8730
330
20
100
AcDbEntity
  8
10000_FRONT
  6
Continuous
 62
     7
370
    20
100
AcDbLine
 39
0.25
 10
123.0351967980306
 20
376.3234800354374
 30
0.0
 11
123.0351967980306
 21
376.1434800354375
 31
0.0
1001
AUSTER_ANSICHT
1002
{
1000
Det03
1002
}
1001
AUSTER_FOLIE
1002
{
1000
NSB00030_RELAIS
1000
NSB00027_S0
1002
}
  0
LINE
  5
8731
330
20
100
AcDbEntity
  8
10000_FRONT
  6
Continuous
 62
     7
370
    20
100
AcDbLine
 39
0.25
 10
124.0651967980305
 20
374.7544800354375
 30
0.0
 11
124.0651967980305
 21
374.9344800354375
 31
0.0
1001
AUSTER_ANSICHT
1002
{
1000
Det03
1002
}
1001
AUSTER_FOLIE
1002
{
1000
NSB00030_RELAIS
1000
NSB00027_S0
1002
}
  0
LINE
  5
8732
330
20
100
AcDbEntity
  8
10000_FRONT
  6
Continuous
 62
     7
370
    20
100
AcDbLine
 39
0.25
 10
124.0651967980305
 20
376.3234800354374
 30
0.0
 11
124.0651967980305
 21
376.1434800354375
 31
0.0
1001
AUSTER_ANSICHT
1002
{
1000
Det03
1002
}
1001
AUSTER_FOLIE
1002
{
1000
NSB00030_RELAIS
1000
NSB00027_S0
1002
}
  0
LINE
  5
8733
330
20
100
AcDbEntity
  8
10000_FRONT
  6
Continuous
 62
     7
370
    20
100
AcDbLine
 39
0.25
 10
123.0351967980306
 20
374.7544800354375
 30
0.0
 11
123.0351967980306
 21
373.7624800354375
 31
0.0
1001
AUSTER_ANSICHT
1002
{
1000
Det03
1002
}
1001
AUSTER_FOLIE
1002
{
1000
NSB00030_RELAIS
1000
NSB00027_S0
1002
}
  0
LINE
  5
8734
330
20
100
AcDbEntity
  8
10000_FRONT
  6
Continuous
 62
     7
370
    20
100
AcDbLine
 39
0.25
 10
124.0651967980305
 20
373.7624800354375
 30
0.0
 11
124.0651967980305
 21
374.7544800354375
 31
0.0
1001
AUSTER_ANSICHT
1002
{
1000
Det03
1002
}
1001
AUSTER_FOLIE
1002
{
1000
NSB00030_RELAIS
1000
NSB00027_S0
1002
}
  0
LINE
  5
8735
330
20
100
AcDbEntity
  8
10000_FRONT
  6
Continuous
 62
     7
370
    20
100
AcDbLine
 39
0.25
 10
124.0651967980305
 20
376.3234800354374
 30
0.0
 11
124.0651967980305
 21
377.3154800354374
 31
0.0
1001
AUSTER_ANSICHT
1002
{
1000
Det03
1002
}
1001
AUSTER_FOLIE
1002
{
1000
NSB00030_RELAIS
1000
NSB00027_S0
1002
}
  0
LINE
  5
8736
330
20
100
AcDbEntity
  8
10000_FRONT
  6
Continuous
 62
     7
370
    20
100
AcDbLine
 39
0.25
 10
123.0351967980306
 20
377.3154800354374
 30
0.0
 11
123.0351967980306
 21
376.3234800354374
 31
0.0
1001
AUSTER_ANSICHT
1002
{
1000
Det03
1002
}
1001
AUSTER_FOLIE
1002
{
1000
NSB00030_RELAIS
1000
NSB00027_S0
1002
}
  0
LINE
  5
8737
330
20
100
AcDbEntity
  8
10000_FRONT
  6
Continuous
 62
     7
370
    20
100
AcDbLine
 39
0.25
 10
123.0351967980306
 20
376.1434800354375
 30
0.0
 11
120.7641967980306
 21
376.1434800354375
 31
0.0
1001
AUSTER_ANSICHT
1002
{
1000
Det03
1002
}
1001
AUSTER_FOLIE
1002
{
1000
NSB00030_RELAIS
1000
NSB00027_S0
1002
}
  0
LINE
  5
8738
330
20
100
AcDbEntity
  8
10000_FRONT
  6
Continuous
 62
     7
370
    20
100
AcDbLine
 39
0.25
 10
126.3361967980306
 20
376.1434800354375
 30
0.0
 11
124.0651967980305
 21
376.1434800354375
 31
0.0
1001
AUSTER_ANSICHT
1002
{
1000
Det03
1002
}
1001
AUSTER_FOLIE
1002
{
1000
NSB00030_RELAIS
1000
NSB00027_S0
1002
}
  0
LINE
  5
8739
330
20
100
AcDbEntity
  8
10000_FRONT
  6
Continuous
 62
     7
370
    20
100
AcDbLine
 39
0.25
 10
124.0651967980305
 20
374.9344800354375
 30
0.0
 11
126.3361967980306
 21
374.9344800354375
 31
0.0
1001
AUSTER_ANSICHT
1002
{
1000
Det03
1002
}
1001
AUSTER_FOLIE
1002
{
1000
NSB00030_RELAIS
1000
NSB00027_S0
1002
}
  0
LINE
  5
873A
330
20
100
AcDbEntity
  8
10000_FRONT
  6
Continuous
 62
     7
370
    20
100
AcDbLine
 39
0.25
 10
120.7641967980306
 20
374.9344800354375
 30
0.0
 11
123.0351967980306
 21
374.9344800354375
 31
0.0
1001
AUSTER_ANSICHT
1002
{
1000
Det03
1002
}
1001
AUSTER_FOLIE
1002
{
1000
NSB00030_RELAIS
1000
NSB00027_S0
1002
}
  0
LINE
  5
873B
330
20
100
AcDbEntity
  8
10000_FRONT
  6
Continuous
 62
     7
370
    20
100
AcDbLine
 39
0.25
 10
108.6351967980306
 20
374.7544800354375
 30
0.0
 11
108.6351967980306
 21
374.9344800354375
 31
0.0
1001
AUSTER_ANSICHT
1002
{
1000
Det03
1002
}
1001
AUSTER_FOLIE
1002
{
1000
NSB00030_RELAIS
1000
NSB00027_S0
1002
}
  0
LINE
  5
873C
330
20
100
AcDbEntity
  8
10000_FRONT
  6
Continuous
 62
     7
370
    20
100
AcDbLine
 39
0.25
 10
108.6351967980306
 20
376.3234800354374
 30
0.0
 11
108.6351967980306
 21
376.1434800354375
 31
0.0
1001
AUSTER_ANSICHT
1002
{
1000
Det03
1002
}
1001
AUSTER_FOLIE
1002
{
1000
NSB00030_RELAIS
1000
NSB00027_S0
1002
}
  0
LINE
  5
873D
330
20
100
AcDbEntity
  8
10000_FRONT
  6
Continuous
 62
     7
370
    20
100
AcDbLine
 39
0.25
 10
109.6651967980306
 20
374.7544800354375
 30
0.0
 11
109.6651967980306
 21
374.9344800354375
 31
0.0
1001
AUSTER_ANSICHT
1002
{
1000
Det03
1002
}
1001
AUSTER_FOLIE
1002
{
1000
NSB00030_RELAIS
1000
NSB00027_S0
1002
}
  0
LINE
  5
873E
330
20
100
AcDbEntity
  8
10000_FRONT
  6
Continuous
 62
     7
370
    20
100
AcDbLine
 39
0.25
 10
109.6651967980306
 20
376.3234800354374
 30
0.0
 11
109.6651967980306
 21
376.1434800354375
 31
0.0
1001
AUSTER_ANSICHT
1002
{
1000
Det03
1002
}
1001
AUSTER_FOLIE
1002
{
1000
NSB00030_RELAIS
1000
NSB00027_S0
1002
}
  0
LINE
  5
873F
330
20
100
AcDbEntity
  8
10000_FRONT
  6
Continuous
 62
     7
370
    20
100
AcDbLine
 39
0.25
 10
108.6351967980306
 20
374.7544800354375
 30
0.0
 11
108.6351967980306
 21
373.7624800354375
 31
0.0
1001
AUSTER_ANSICHT
1002
{
1000
Det03
1002
}
1001
AUSTER_FOLIE
1002
{
1000
NSB00030_RELAIS
1000
NSB00027_S0
1002
}
  0
LINE
  5
8740
330
20
100
AcDbEntity
  8
10000_FRONT
  6
Continuous
 62
     7
370
    20
100
AcDbLine
 39
0.25
 10
109.6651967980306
 20
373.7624800354375
 30
0.0
 11
109.6651967980306
 21
374.7544800354375
 31
0.0
1001
AUSTER_ANSICHT
1002
{
1000
Det03
1002
}
1001
AUSTER_FOLIE
1002
{
1000
NSB00030_RELAIS
1000
NSB00027_S0
1002
}
  0
LINE
  5
8741
330
20
100
AcDbEntity
  8
10000_FRONT
  6
Continuous
 62
     7
370
    20
100
AcDbLine
 39
0.25
 10
109.6651967980306
 20
376.3234800354374
 30
0.0
 11
109.6651967980306
 21
377.3154800354374
 31
0.0
1001
AUSTER_ANSICHT
1002
{
1000
Det03
1002
}
1001
AUSTER_FOLIE
1002
{
1000
NSB00030_RELAIS
1000
NSB00027_S0
1002
}
  0
LINE
  5
8742
330
20
100
AcDbEntity
  8
10000_FRONT
  6
Continuous
 62
     7
370
    20
100
AcDbLine
 39
0.25
 10
108.6351967980306
 20
377.3154800354374
 30
0.0
 11
108.6351967980306
 21
376.3234800354374
 31
0.0
1001
AUSTER_ANSICHT
1002
{
1000
Det03
1002
}
1001
AUSTER_FOLIE
1002
{
1000
NSB00030_RELAIS
1000
NSB00027_S0
1002
}
  0
LINE
  5
8743
330
20
100
AcDbEntity
  8
10000_FRONT
  6
Continuous
 62
     7
370
    20
100
AcDbLine
 39
0.25
 10
108.6351967980306
 20
376.1434800354375
 30
0.0
 11
106.3641967980306
 21
376.1434800354375
 31
0.0
1001
AUSTER_ANSICHT
1002
{
1000
Det03
1002
}
1001
AUSTER_FOLIE
1002
{
1000
NSB00030_RELAIS
1000
NSB00027_S0
1002
}
  0
LINE
  5
8744
330
20
100
AcDbEntity
  8
10000_FRONT
  6
Continuous
 62
     7
370
    20
100
AcDbLine
 39
0.25
 10
111.9361967980305
 20
376.1434800354375
 30
0.0
 11
109.6651967980306
 21
376.1434800354375
 31
0.0
1001
AUSTER_ANSICHT
1002
{
1000
Det03
1002
}
1001
AUSTER_FOLIE
1002
{
1000
NSB00030_RELAIS
1000
NSB00027_S0
1002
}
  0
LINE
  5
8745
330
20
100
AcDbEntity
  8
10000_FRONT
  6
Continuous
 62
     7
370
    20
100
AcDbLine
 39
0.25
 10
109.6651967980306
 20
374.9344800354375
 30
0.0
 11
111.9361967980305
 21
374.9344800354375
 31
0.0
1001
AUSTER_ANSICHT
1002
{
1000
Det03
1002
}
1001
AUSTER_FOLIE
1002
{
1000
NSB00030_RELAIS
1000
NSB00027_S0
1002
}
  0
LINE
  5
8746
330
20
100
AcDbEntity
  8
10000_FRONT
  6
Continuous
 62
     7
370
    20
100
AcDbLine
 39
0.25
 10
106.3641967980306
 20
374.9344800354375
 30
0.0
 11
108.6351967980306
 21
374.9344800354375
 31
0.0
1001
AUSTER_ANSICHT
1002
{
1000
Det03
1002
}
1001
AUSTER_FOLIE
1002
{
1000
NSB00030_RELAIS
1000
NSB00027_S0
1002
}
  0
LINE
  5
8747
330
20
100
AcDbEntity
  8
10000_FRONT
  6
Continuous
 62
     7
370
    20
100
AcDbLine
 39
0.25
 10
94.23519679803058
 20
374.7544800354375
 30
0.0
 11
94.23519679803058
 21
374.9344800354375
 31
0.0
1001
AUSTER_ANSICHT
1002
{
1000
Det03
1002
}
1001
AUSTER_FOLIE
1002
{
1000
NSB00030_RELAIS
1000
NSB00027_S0
1002
}
  0
LINE
  5
8748
330
20
100
AcDbEntity
  8
10000_FRONT
  6
Continuous
 62
     7
370
    20
100
AcDbLine
 39
0.25
 10
94.23519679803058
 20
376.3234800354374
 30
0.0
 11
94.23519679803058
 21
376.1434800354375
 31
0.0
1001
AUSTER_ANSICHT
1002
{
1000
Det03
1002
}
1001
AUSTER_FOLIE
1002
{
1000
NSB00030_RELAIS
1000
NSB00027_S0
1002
}
  0
LINE
  5
8749
330
20
100
AcDbEntity
  8
10000_FRONT
  6
Continuous
 62
     7
370
    20
100
AcDbLine
 39
0.25
 10
95.26519679803064
 20
374.7544800354375
 30
0.0
 11
95.26519679803064
 21
374.9344800354375
 31
0.0
1001
AUSTER_ANSICHT
1002
{
1000
Det03
1002
}
1001
AUSTER_FOLIE
1002
{
1000
NSB00030_RELAIS
1000
NSB00027_S0
1002
}
  0
LINE
  5
874A
330
20
100
AcDbEntity
  8
10000_FRONT
  6
Continuous
 62
     7
370
    20
100
AcDbLine
 39
0.25
 10
95.26519679803064
 20
376.3234800354374
 30
0.0
 11
95.26519679803064
 21
376.1434800354375
 31
0.0
1001
AUSTER_ANSICHT
1002
{
1000
Det03
1002
}
1001
AUSTER_FOLIE
1002
{
1000
NSB00030_RELAIS
1000
NSB00027_S0
1002
}
  0
LINE
  5
874B
330
20
100
AcDbEntity
  8
10000_FRONT
  6
Continuous
 62
     7
370
    20
100
AcDbLine
 39
0.25
 10
94.23519679803058
 20
374.7544800354375
 30
0.0
 11
94.23519679803058
 21
373.7624800354375
 31
0.0
1001
AUSTER_ANSICHT
1002
{
1000
Det03
1002
}
1001
AUSTER_FOLIE
1002
{
1000
NSB00030_RELAIS
1000
NSB00027_S0
1002
}
  0
LINE
  5
874C
330
20
100
AcDbEntity
  8
10000_FRONT
  6
Continuous
 62
     7
370
    20
100
AcDbLine
 39
0.25
 10
95.26519679803064
 20
373.7624800354375
 30
0.0
 11
95.26519679803064
 21
374.7544800354375
 31
0.0
1001
AUSTER_ANSICHT
1002
{
1000
Det03
1002
}
1001
AUSTER_FOLIE
1002
{
1000
NSB00030_RELAIS
1000
NSB00027_S0
1002
}
  0
LINE
  5
874D
330
20
100
AcDbEntity
  8
10000_FRONT
  6
Continuous
 62
     7
370
    20
100
AcDbLine
 39
0.25
 10
95.26519679803064
 20
376.3234800354374
 30
0.0
 11
95.26519679803064
 21
377.3154800354374
 31
0.0
1001
AUSTER_ANSICHT
1002
{
1000
Det03
1002
}
1001
AUSTER_FOLIE
1002
{
1000
NSB00030_RELAIS
1000
NSB00027_S0
1002
}
  0
LINE
  5
874E
330
20
100
AcDbEntity
  8
10000_FRONT
  6
Continuous
 62
     7
370
    20
100
AcDbLine
 39
0.25
 10
94.23519679803058
 20
377.3154800354374
 30
0.0
 11
94.23519679803058
 21
376.3234800354374
 31
0.0
1001
AUSTER_ANSICHT
1002
{
1000
Det03
1002
}
1001
AUSTER_FOLIE
1002
{
1000
NSB00030_RELAIS
1000
NSB00027_S0
1002
}
  0
LINE
  5
874F
330
20
100
AcDbEntity
  8
10000_FRONT
  6
Continuous
 62
     7
370
    20
100
AcDbLine
 39
0.25
 10
94.23519679803058
 20
376.1434800354375
 30
0.0
 11
91.96419679803057
 21
376.1434800354375
 31
0.0
1001
AUSTER_ANSICHT
1002
{
1000
Det03
1002
}
1001
AUSTER_FOLIE
1002
{
1000
NSB00030_RELAIS
1000
NSB00027_S0
1002
}
  0
LINE
  5
8750
330
20
100
AcDbEntity
  8
10000_FRONT
  6
Continuous
 62
     7
370
    20
100
AcDbLine
 39
0.25
 10
97.53619679803058
 20
376.1434800354375
 30
0.0
 11
95.26519679803064
 21
376.1434800354375
 31
0.0
1001
AUSTER_ANSICHT
1002
{
1000
Det03
1002
}
1001
AUSTER_FOLIE
1002
{
1000
NSB00030_RELAIS
1000
NSB00027_S0
1002
}
  0
LINE
  5
8751
330
20
100
AcDbEntity
  8
10000_FRONT
  6
Continuous
 62
     7
370
    20
100
AcDbLine
 39
0.25
 10
95.26519679803064
 20
374.9344800354375
 30
0.0
 11
97.53619679803058
 21
374.9344800354375
 31
0.0
1001
AUSTER_ANSICHT
1002
{
1000
Det03
1002
}
1001
AUSTER_FOLIE
1002
{
1000
NSB00030_RELAIS
1000
NSB00027_S0
1002
}
  0
LINE
  5
8752
330
20
100
AcDbEntity
  8
10000_FRONT
  6
Continuous
 62
     7
370
    20
100
AcDbLine
 39
0.25
 10
91.96419679803057
 20
374.9344800354375
 30
0.0
 11
94.23519679803058
 21
374.9344800354375
 31
0.0
1001
AUSTER_ANSICHT
1002
{
1000
Det03
1002
}
1001
AUSTER_FOLIE
1002
{
1000
NSB00030_RELAIS
1000
NSB00027_S0
1002
}
  0
LINE
  5
8753
330
20
100
AcDbEntity
  8
11000_Left
  6
Continuous
 62
     7
370
    50
100
AcDbLine
 39
0.7
 10
230.6345009646993
 20
435.8384800354374
 30
0.0
 11
230.6345009646993
 21
443.6384800354374
 31
0.0
1001
AUSTER_ANSICHT
1002
{
1000
Det03
1002
}
1001
AUSTER_FOLIE
1002
{
1000
NSB00030_RELAIS
1000
NSB00027_S0
1002
}
  0
LINE
  5
8754
330
20
100
AcDbEntity
  8
10000_FRONT
 62
     7
370
    50
100
AcDbLine
 39
0.45
 10
87.55019679803059
 20
390.8384800354376
 30
0.0
 11
130.7501967980305
 21
390.8384800354376
 31
0.0
1001
AUSTER_ANSICHT
1002
{
1000
Det03
1002
}
1001
AUSTER_FOLIE
1002
{
1000
NSB00030_RELAIS
1000
NSB00027_S0
1002
}
  0
LINE
  5
8755
330
20
100
AcDbEntity
  8
10000_FRONT
  6
Continuous
 62
     7
370
    50
100
AcDbLine
 39
0.7
 10
131.5501967980306
 20
368.5384800354375
 30
0.0
 11
131.5501967980306
 21
457.1384800354374
 31
0.0
1001
AUSTER_ANSICHT
1002
{
1000
Det03
1002
}
1001
AUSTER_FOLIE
1002
{
1000
NSB00030_RELAIS
1000
NSB00027_S0
1002
}
  0
LINE
  5
8756
330
20
100
AcDbEntity
  8
10000_FRONT
  6
Continuous
 62
     7
370
    20
100
AcDbLine
 39
0.25
 10
105.8661967980306
 20
429.0874800354374
 30
0.0
 11
105.8661967980306
 21
430.8464800354373
 31
0.0
1001
AUSTER_ANSICHT
1002
{
1000
Det03
1002
}
1001
AUSTER_FOLIE
1002
{
1000
NSB00030_RELAIS
1000
NSB00027_S0
1002
}
  0
LINE
  5
8757
330
20
100
AcDbEntity
  8
10000_FRONT
  6
Continuous
 62
     7
370
    20
100
AcDbLine
 39
0.25
 10
102.0341967980306
 20
429.0874800354374
 30
0.0
 11
105.8661967980306
 21
429.0874800354374
 31
0.0
1001
AUSTER_ANSICHT
1002
{
1000
Det03
1002
}
1001
AUSTER_FOLIE
1002
{
1000
NSB00030_RELAIS
1000
NSB00027_S0
1002
}
  0
LINE
  5
8758
330
20
100
AcDbEntity
  8
10000_FRONT
  6
Continuous
 62
     7
370
    20
100
AcDbLine
 39
0.25
 10
102.0341967980306
 20
430.8464800354373
 30
0.0
 11
102.0341967980306
 21
429.0874800354374
 31
0.0
1001
AUSTER_ANSICHT
1002
{
1000
Det03
1002
}
1001
AUSTER_FOLIE
1002
{
1000
NSB00030_RELAIS
1000
NSB00027_S0
1002
}
  0
LINE
  5
8759
330
20
100
AcDbEntity
  8
10000_FRONT
  6
Continuous
 62
     7
370
    20
100
AcDbLine
 39
0.25
 10
102.0341967980306
 20
430.8464800354373
 30
0.0
 11
105.8661967980306
 21
430.8464800354373
 31
0.0
1001
AUSTER_ANSICHT
1002
{
1000
Det03
1002
}
1001
AUSTER_FOLIE
1002
{
1000
NSB00030_RELAIS
1000
NSB00027_S0
1002
}
  0
LINE
  5
875A
330
20
100
AcDbEntity
  8
10000_FRONT
  6
Continuous
 62
     7
370
    20
100
AcDbLine
 39
0.25
 10
91.46619679803057
 20
430.8464800354373
 30
0.0
 11
91.46619679803057
 21
429.0874800354374
 31
0.0
1001
AUSTER_ANSICHT
1002
{
1000
Det03
1002
}
1001
AUSTER_FOLIE
1002
{
1000
NSB00030_RELAIS
1000
NSB00027_S0
1002
}
  0
LINE
  5
875B
330
20
100
AcDbEntity
  8
10000_FRONT
  6
Continuous
 62
     7
370
    20
100
AcDbLine
 39
0.25
 10
87.70719679803063
 20
429.0874800354374
 30
0.0
 11
91.46619679803057
 21
429.0874800354374
 31
0.0
1001
AUSTER_ANSICHT
1002
{
1000
Det03
1002
}
1001
AUSTER_FOLIE
1002
{
1000
NSB00030_RELAIS
1000
NSB00027_S0
1002
}
  0
LINE
  5
875C
330
20
100
AcDbEntity
  8
10000_FRONT
  6
Continuous
 62
     7
370
    20
100
AcDbLine
 39
0.25
 10
87.70719679803063
 20
430.8464800354373
 30
0.0
 11
87.70719679803063
 21
429.0874800354374
 31
0.0
1001
AUSTER_ANSICHT
1002
{
1000
Det03
1002
}
1001
AUSTER_FOLIE
1002
{
1000
NSB00030_RELAIS
1000
NSB00027_S0
1002
}
  0
LINE
  5
875D
330
20
100
AcDbEntity
  8
10000_FRONT
  6
Continuous
 62
     7
370
    20
100
AcDbLine
 39
0.25
 10
87.63419679803059
 20
430.8464800354373
 30
0.0
 11
91.46619679803057
 21
430.8464800354373
 31
0.0
1001
AUSTER_ANSICHT
1002
{
1000
Det03
1002
}
1001
AUSTER_FOLIE
1002
{
1000
NSB00030_RELAIS
1000
NSB00027_S0
1002
}
  0
LINE
  5
875E
330
20
100
AcDbEntity
  8
10000_FRONT
  6
Continuous
 62
     7
370
    20
100
AcDbLine
 39
0.25
 10
130.5501967980306
 20
400.2384800354374
 30
0.0
 11
130.5501967980306
 21
394.2384800354374
 31
0.0
1001
AUSTER_ANSICHT
1002
{
1000
Det03
1002
}
1001
AUSTER_FOLIE
1002
{
1000
NSB00030_RELAIS
1000
NSB00027_S0
1002
}
  0
LINE
  5
875F
330
20
100
AcDbEntity
  8
10000_FRONT
  6
Continuous
 62
     7
370
    20
100
AcDbLine
 39
0.25
 10
129.2501967980306
 20
400.2384800354374
 30
0.0
 11
130.5501967980306
 21
400.2384800354374
 31
0.0
1001
AUSTER_ANSICHT
1002
{
1000
Det03
1002
}
1001
AUSTER_FOLIE
1002
{
1000
NSB00030_RELAIS
1000
NSB00027_S0
1002
}
  0
LINE
  5
8760
330
20
100
AcDbEntity
  8
10000_FRONT
  6
Continuous
 62
     7
370
    20
100
AcDbLine
 39
0.25
 10
129.2501967980306
 20
401.3384800354374
 30
0.0
 11
129.2501967980306
 21
400.2384800354374
 31
0.0
1001
AUSTER_ANSICHT
1002
{
1000
Det03
1002
}
1001
AUSTER_FOLIE
1002
{
1000
NSB00030_RELAIS
1000
NSB00027_S0
1002
}
  0
LINE
  5
8761
330
20
100
AcDbEntity
  8
10000_FRONT
  6
Continuous
 62
     7
370
    20
100
AcDbLine
 39
0.25
 10
89.05019679803059
 20
401.3384800354374
 30
0.0
 11
129.2501967980306
 21
401.3384800354374
 31
0.0
1001
AUSTER_ANSICHT
1002
{
1000
Det03
1002
}
1001
AUSTER_FOLIE
1002
{
1000
NSB00030_RELAIS
1000
NSB00027_S0
1002
}
  0
LINE
  5
8762
330
20
100
AcDbEntity
  8
10000_FRONT
  6
Continuous
 62
     7
370
    20
100
AcDbLine
 39
0.25
 10
89.05019679803059
 20
400.2384800354374
 30
0.0
 11
89.05019679803059
 21
401.3384800354374
 31
0.0
1001
AUSTER_ANSICHT
1002
{
1000
Det03
1002
}
1001
AUSTER_FOLIE
1002
{
1000
NSB00030_RELAIS
1000
NSB00027_S0
1002
}
  0
LINE
  5
8763
330
20
100
AcDbEntity
  8
10000_FRONT
  6
Continuous
 62
     7
370
    20
100
AcDbLine
 39
0.25
 10
87.75019679803056
 20
400.2384800354374
 30
0.0
 11
89.05019679803059
 21
400.2384800354374
 31
0.0
1001
AUSTER_ANSICHT
1002
{
1000
Det03
1002
}
1001
AUSTER_FOLIE
1002
{
1000
NSB00030_RELAIS
1000
NSB00027_S0
1002
}
  0
LINE
  5
8764
330
20
100
AcDbEntity
  8
10000_FRONT
  6
Continuous
 62
     7
370
    20
100
AcDbLine
 39
0.25
 10
87.75019679803056
 20
394.2384800354374
 30
0.0
 11
87.75019679803056
 21
400.2384800354374
 31
0.0
1001
AUSTER_ANSICHT
1002
{
1000
Det03
1002
}
1001
AUSTER_FOLIE
1002
{
1000
NSB00030_RELAIS
1000
NSB00027_S0
1002
}
  0
LINE
  5
8765
330
20
100
AcDbEntity
  8
11000_Left
  6
Continuous
 62
     7
370
    50
100
AcDbLine
 39
0.7
 10
197.2345009646992
 20
368.6384800354375
 30
0.0
 11
197.2345009646992
 21
366.4384800354375
 31
0.0
1001
AUSTER_ANSICHT
1002
{
1000
Det03
1002
}
1001
AUSTER_FOLIE
1002
{
1000
NSB00030_RELAIS
1000
NSB00027_S0
1002
}
  0
LINE
  5
8766
330
20
100
AcDbEntity
  8
10000_FRONT
  6
Continuous
 62
     7
370
    20
100
AcDbLine
 39
0.25
 10
109.1501967980306
 20
401.3384800354374
 30
0.0
 11
109.1501967980306
 21
394.2384800354374
 31
0.0
1001
AUSTER_ANSICHT
1002
{
1000
Det03
1002
}
1001
AUSTER_FOLIE
1002
{
1000
NSB00030_RELAIS
1000
NSB00027_S0
1002
}
  0
LINE
  5
8768
330
20
100
AcDbEntity
  8
11000_Left
  6
Continuous
 62
     7
370
    50
100
AcDbLine
 39
0.7
 10
198.7345009646992
 20
364.9384800354375
 30
0.0
 11
220.2345009646992
 21
364.9384800354375
 31
0.0
1001
AUSTER_ANSICHT
1002
{
1000
Det03
1002
}
1001
AUSTER_FOLIE
1002
{
1000
NSB00030_RELAIS
1000
NSB00027_S0
1002
}
  0
LINE
  5
8769
330
20
100
AcDbEntity
  8
11000_Left
  6
Continuous
 62
     7
370
    50
100
AcDbLine
 39
0.7
 10
220.2345009646992
 20
461.9384800354374
 30
0.0
 11
198.7345009646992
 21
461.9384800354374
 31
0.0
1001
AUSTER_ANSICHT
1002
{
1000
Det03
1002
}
1001
AUSTER_FOLIE
1002
{
1000
NSB00030_RELAIS
1000
NSB00027_S0
1002
}
  0
LINE
  5
876A
330
20
100
AcDbEntity
  8
10000_FRONT
  6
Continuous
 62
     7
370
    20
100
AcDbLine
 39
0.25
 10
130.5501967980306
 20
394.2384800354374
 30
0.0
 11
87.75019679803056
 21
394.2384800354374
 31
0.0
1001
AUSTER_ANSICHT
1002
{
1000
Det03
1002
}
1001
AUSTER_FOLIE
1002
{
1000
NSB00030_RELAIS
1000
NSB00027_S0
1002
}
  0
LINE
  5
876E
330
20
100
AcDbEntity
  8
10000_FRONT
  6
Continuous
 62
     7
370
    20
100
AcDbLine
 39
0.25
 10
101.6411967980306
 20
412.3844800354373
 30
0.0
 11
104.2221967980305
 21
412.3844800354373
 31
0.0
1001
AUSTER_ANSICHT
1002
{
1000
Det03
1002
}
1001
AUSTER_FOLIE
1002
{
1000
NSB00030_RELAIS
1000
NSB00027_S0
1002
}
  0
LINE
  5
876F
330
20
100
AcDbEntity
  8
10000_FRONT
  6
Continuous
 62
     7
370
    20
100
AcDbLine
 39
0.25
 10
101.6411967980306
 20
414.3844800354375
 30
0.0
 11
104.2221967980305
 21
414.3844800354375
 31
0.0
1001
AUSTER_ANSICHT
1002
{
1000
Det03
1002
}
1001
AUSTER_FOLIE
1002
{
1000
NSB00030_RELAIS
1000
NSB00027_S0
1002
}
  0
LINE
  5
8770
330
20
100
AcDbEntity
  8
11000_Left
 62
     7
370
    20
100
AcDbLine
 39
0.45
 10
254.9345009646994
 20
405.4844800354374
 30
0.0
 11
255.8155009646994
 21
405.4844800354374
 31
0.0
1001
AUSTER_ANSICHT
1002
{
1000
Det03
1002
}
1001
AUSTER_FOLIE
1002
{
1000
NSB00030_RELAIS
1000
NSB00027_S0
1002
}
  0
LINE
  5
8771
330
20
100
AcDbEntity
  8
11000_Left
 62
     7
370
    20
100
AcDbLine
 39
0.45
 10
254.9345009646994
 20
421.2844800354374
 30
0.0
 11
255.8155009646994
 21
421.2844800354374
 31
0.0
1001
AUSTER_ANSICHT
1002
{
1000
Det03
1002
}
1001
AUSTER_FOLIE
1002
{
1000
NSB00030_RELAIS
1000
NSB00027_S0
1002
}
  0
LINE
  5
8772
330
20
100
AcDbEntity
  8
11000_Left
  6
DASHED
 62
     7
370
    20
100
AcDbLine
 39
0.25
 10
175.4845009646992
 20
395.9384800354375
 30
-1.0
 11
175.4845009646992
 21
401.0884800354374
 31
-1.0
1001
AUSTER_ANSICHT
1002
{
1000
Det03
1002
}
1001
AUSTER_FOLIE
1002
{
1000
NSB00030_RELAIS
1000
NSB00027_S0
1002
}
  0
LINE
  5
8773
330
20
100
AcDbEntity
  8
11000_Left
  6
DASHED
 62
     7
370
    20
100
AcDbLine
 39
0.25
 10
174.4845009646992
 20
431.2384800354374
 30
-1.0
 11
175.4845009646992
 21
431.2384800354374
 31
-1.0
1001
AUSTER_ANSICHT
1002
{
1000
Det03
1002
}
1001
AUSTER_FOLIE
1002
{
1000
NSB00030_RELAIS
1000
NSB00027_S0
1002
}
  0
LINE
  5
8774
330
20
100
AcDbEntity
  8
11000_Left
  6
Continuous
 62
     7
370
    50
100
AcDbLine
 39
0.7
 10
175.4845009646992
 20
434.4384800354374
 30
0.0
 11
170.4845009646992
 21
434.4384800354374
 31
0.0
1001
AUSTER_ANSICHT
1002
{
1000
Det03
1002
}
1001
AUSTER_FOLIE
1002
{
1000
NSB00030_RELAIS
1000
NSB00027_S0
1002
}
  0
LINE
  5
8775
330
20
100
AcDbEntity
  8
11000_Left
  6
Continuous
 62
     7
370
    50
100
AcDbLine
 39
0.7
 10
173.0845009646992
 20
429.1384800354374
 30
0.0
 11
174.0845009646992
 21
430.1384800354374
 31
0.0
1001
AUSTER_ANSICHT
1002
{
1000
Det03
1002
}
1001
AUSTER_FOLIE
1002
{
1000
NSB00030_RELAIS
1000
NSB00027_S0
1002
}
  0
LINE
  5
8776
330
20
100
AcDbEntity
  8
11000_Left
  6
Continuous
 62
     7
370
    50
100
AcDbLine
 39
0.7
 10
172.3845009646993
 20
429.1384800354374
 30
0.0
 11
173.0845009646992
 21
429.1384800354374
 31
0.0
1001
AUSTER_ANSICHT
1002
{
1000
Det03
1002
}
1001
AUSTER_FOLIE
1002
{
1000
NSB00030_RELAIS
1000
NSB00027_S0
1002
}
  0
LINE
  5
8777
330
20
100
AcDbEntity
  8
11000_Left
  6
DASHED
 62
     7
370
    20
100
AcDbLine
 39
0.25
 10
175.4845009646992
 20
395.9384800354375
 30
0.0
 11
174.4845009646992
 21
395.9384800354375
 31
0.0
1001
AUSTER_ANSICHT
1002
{
1000
Det03
1002
}
1001
AUSTER_FOLIE
1002
{
1000
NSB00030_RELAIS
1000
NSB00027_S0
1002
}
  0
LINE
  5
8778
330
20
100
AcDbEntity
  8
11000_Left
  6
Continuous
 62
     7
370
    50
100
AcDbLine
 39
0.7
 10
174.2175009646993
 20
396.9384800354374
 30
0.0
 11
174.4845009646992
 21
395.9384800354375
 31
0.0
1001
AUSTER_ANSICHT
1002
{
1000
Det03
1002
}
1001
AUSTER_FOLIE
1002
{
1000
NSB00030_RELAIS
1000
NSB00027_S0
1002
}
  0
LINE
  5
8779
330
20
100
AcDbEntity
  8
11000_Left
  6
Continuous
 62
     7
370
    50
100
AcDbLine
 39
0.7
 10
174.2175009646993
 20
396.9384800354374
 30
0.0
 11
173.7175009646993
 21
396.9384800354374
 31
0.0
1001
AUSTER_ANSICHT
1002
{
1000
Det03
1002
}
1001
AUSTER_FOLIE
1002
{
1000
NSB00030_RELAIS
1000
NSB00027_S0
1002
}
  0
LINE
  5
877A
330
20
100
AcDbEntity
  8
11000_Left
  6
DASHED
 62
     7
370
    20
100
AcDbLine
 39
0.25
 10
175.4845009646992
 20
431.2384800354374
 30
-1.0
 11
175.4845009646992
 21
426.0884800354374
 31
-1.0
1001
AUSTER_ANSICHT
1002
{
1000
Det03
1002
}
1001
AUSTER_FOLIE
1002
{
1000
NSB00030_RELAIS
1000
NSB00027_S0
1002
}
  0
LINE
  5
877B
330
20
100
AcDbEntity
  8
11000_Left
  6
DASHED
 62
     7
370
    20
100
AcDbLine
 39
0.25
 10
174.4845009646992
 20
398.4384800354375
 30
-1.0
 11
174.4845009646992
 21
395.9384800354375
 31
-1.0
1001
AUSTER_ANSICHT
1002
{
1000
Det03
1002
}
1001
AUSTER_FOLIE
1002
{
1000
NSB00030_RELAIS
1000
NSB00027_S0
1002
}
  0
LINE
  5
877C
330
20
100
AcDbEntity
  8
11000_Left
  6
DASHED
 62
     7
370
    20
100
AcDbLine
 39
0.25
 10
174.4845009646992
 20
428.7384800354374
 30
-1.0
 11
174.4845009646992
 21
431.2384800354374
 31
-1.0
1001
AUSTER_ANSICHT
1002
{
1000
Det03
1002
}
1001
AUSTER_FOLIE
1002
{
1000
NSB00030_RELAIS
1000
NSB00027_S0
1002
}
  0
LINE
  5
877D
330
20
100
AcDbEntity
  8
11000_Left
  6
DASHED
 62
     7
370
    20
100
AcDbLine
 39
0.25
 10
170.4845009646992
 20
423.0884800354374
 30
-1.0
 11
170.4845009646992
 21
413.5884800354374
 31
-1.0
1001
AUSTER_ANSICHT
1002
{
1000
Det03
1002
}
1001
AUSTER_FOLIE
1002
{
1000
NSB00030_RELAIS
1000
NSB00027_S0
1002
}
  0
LINE
  5
877E
330
20
100
AcDbEntity
  8
11000_Left
  6
DASHED
 62
     7
370
    20
100
AcDbLine
 39
0.25
 10
170.4845009646992
 20
404.0884800354374
 30
-1.0
 11
170.4845009646992
 21
413.5884800354374
 31
-1.0
1001
AUSTER_ANSICHT
1002
{
1000
Det03
1002
}
1001
AUSTER_FOLIE
1002
{
1000
NSB00030_RELAIS
1000
NSB00027_S0
1002
}
  0
LINE
  5
877F
330
20
100
AcDbEntity
  8
11000_Left
  6
DASHED
 62
     7
370
    20
100
AcDbLine
 39
0.25
 10
173.4845009646992
 20
427.9884800354373
 30
-1.0
 11
173.4845009646992
 21
428.2384800354374
 31
-1.0
1001
AUSTER_ANSICHT
1002
{
1000
Det03
1002
}
1001
AUSTER_FOLIE
1002
{
1000
NSB00030_RELAIS
1000
NSB00027_S0
1002
}
  0
LINE
  5
8780
330
20
100
AcDbEntity
  8
11000_Left
  6
DASHED
 62
     7
370
    20
100
AcDbLine
 39
0.25
 10
173.9845009646991
 20
428.2384800354374
 30
-1.0
 11
173.4845009646992
 21
428.2384800354374
 31
-1.0
1001
AUSTER_ANSICHT
1002
{
1000
Det03
1002
}
1001
AUSTER_FOLIE
1002
{
1000
NSB00030_RELAIS
1000
NSB00027_S0
1002
}
  0
LINE
  5
8781
330
20
100
AcDbEntity
  8
11000_Left
  6
DASHED
 62
     7
370
    20
100
AcDbLine
 39
0.25
 10
175.4845009646992
 20
426.0884800354374
 30
-1.0
 11
173.4845009646992
 21
424.0884800354374
 31
-1.0
1001
AUSTER_ANSICHT
1002
{
1000
Det03
1002
}
1001
AUSTER_FOLIE
1002
{
1000
NSB00030_RELAIS
1000
NSB00027_S0
1002
}
  0
LINE
  5
8782
330
20
100
AcDbEntity
  8
11000_Left
  6
DASHED
 62
     7
370
    20
100
AcDbLine
 39
0.25
 10
173.4845009646992
 20
399.1884800354375
 30
-1.0
 11
173.4845009646992
 21
398.9384800354375
 31
-1.0
1001
AUSTER_ANSICHT
1002
{
1000
Det03
1002
}
1001
AUSTER_FOLIE
1002
{
1000
NSB00030_RELAIS
1000
NSB00027_S0
1002
}
  0
LINE
  5
8783
330
20
100
AcDbEntity
  8
11000_Left
  6
DASHED
 62
     7
370
    20
100
AcDbLine
 39
0.25
 10
173.9845009646991
 20
398.9384800354375
 30
-1.0
 11
173.4845009646992
 21
398.9384800354375
 31
-1.0
1001
AUSTER_ANSICHT
1002
{
1000
Det03
1002
}
1001
AUSTER_FOLIE
1002
{
1000
NSB00030_RELAIS
1000
NSB00027_S0
1002
}
  0
LINE
  5
8784
330
20
100
AcDbEntity
  8
11000_Left
  6
DASHED
 62
     7
370
    20
100
AcDbLine
 39
0.25
 10
175.4845009646992
 20
401.0884800354374
 30
-1.0
 11
173.4845009646992
 21
403.0884800354376
 31
-1.0
1001
AUSTER_ANSICHT
1002
{
1000
Det03
1002
}
1001
AUSTER_FOLIE
1002
{
1000
NSB00030_RELAIS
1000
NSB00027_S0
1002
}
  0
LINE
  5
8785
330
20
100
AcDbEntity
  8
11000_Left
  6
DASHED
 62
     7
370
    20
100
AcDbLine
 39
0.25
 10
171.4845009646992
 20
424.0884800354374
 30
-1.0
 11
173.4845009646992
 21
424.0884800354374
 31
-1.0
1001
AUSTER_ANSICHT
1002
{
1000
Det03
1002
}
1001
AUSTER_FOLIE
1002
{
1000
NSB00030_RELAIS
1000
NSB00027_S0
1002
}
  0
LINE
  5
8786
330
20
100
AcDbEntity
  8
11000_Left
  6
DASHED
 62
     7
370
    20
100
AcDbLine
 39
0.25
 10
171.4845009646992
 20
403.0884800354376
 30
-1.0
 11
173.4845009646992
 21
403.0884800354376
 31
-1.0
1001
AUSTER_ANSICHT
1002
{
1000
Det03
1002
}
1001
AUSTER_FOLIE
1002
{
1000
NSB00030_RELAIS
1000
NSB00027_S0
1002
}
  0
LINE
  5
8787
330
20
100
AcDbEntity
  8
11000_Left
  6
Continuous
 62
     7
370
    50
100
AcDbLine
 39
0.7
 10
254.9345009646994
 20
426.8844800354375
 30
0.0
 11
256.5155009646993
 21
426.8844800354375
 31
0.0
1001
AUSTER_ANSICHT
1002
{
1000
Det03
1002
}
1001
AUSTER_FOLIE
1002
{
1000
NSB00030_RELAIS
1000
NSB00027_S0
1002
}
  0
LINE
  5
8788
330
20
100
AcDbEntity
  8
11000_Left
  6
Continuous
 62
     7
370
    50
100
AcDbLine
 39
0.7
 10
254.9345009646994
 20
415.1044800354374
 30
0.0
 11
254.9345009646994
 21
426.8844800354375
 31
0.0
1001
AUSTER_ANSICHT
1002
{
1000
Det03
1002
}
1001
AUSTER_FOLIE
1002
{
1000
NSB00030_RELAIS
1000
NSB00027_S0
1002
}
  0
LINE
  5
8789
330
20
100
AcDbEntity
  8
11000_Left
  6
Continuous
 62
     7
370
    50
100
AcDbLine
 39
0.7
 10
254.9345009646994
 20
399.8844800354375
 30
0.0
 11
266.3155009646993
 21
399.8844800354375
 31
0.0
1001
AUSTER_ANSICHT
1002
{
1000
Det03
1002
}
1001
AUSTER_FOLIE
1002
{
1000
NSB00030_RELAIS
1000
NSB00027_S0
1002
}
  0
LINE
  5
878A
330
20
100
AcDbEntity
  8
11000_Left
  6
Continuous
 62
     7
370
    50
100
AcDbLine
 39
0.7
 10
266.3155009646993
 20
426.8844800354375
 30
0.0
 11
266.3155009646993
 21
399.8844800354375
 31
0.0
1001
AUSTER_ANSICHT
1002
{
1000
Det03
1002
}
1001
AUSTER_FOLIE
1002
{
1000
NSB00030_RELAIS
1000
NSB00027_S0
1002
}
  0
LINE
  5
878B
330
20
100
AcDbEntity
  8
11000_Left
  6
Continuous
 62
     7
370
    50
100
AcDbLine
 39
0.7
 10
263.9155009646994
 20
428.0844800354373
 30
0.0
 11
263.9155009646994
 21
426.8844800354375
 31
0.0
1001
AUSTER_ANSICHT
1002
{
1000
Det03
1002
}
1001
AUSTER_FOLIE
1002
{
1000
NSB00030_RELAIS
1000
NSB00027_S0
1002
}
  0
LINE
  5
878C
330
20
100
AcDbEntity
  8
11000_Left
  6
Continuous
 62
     7
370
    50
100
AcDbLine
 39
0.7
 10
263.9155009646994
 20
426.8844800354375
 30
0.0
 11
266.3155009646993
 21
426.8844800354375
 31
0.0
1001
AUSTER_ANSICHT
1002
{
1000
Det03
1002
}
1001
AUSTER_FOLIE
1002
{
1000
NSB00030_RELAIS
1000
NSB00027_S0
1002
}
  0
LINE
  5
878D
330
20
100
AcDbEntity
  8
11000_Left
 62
     7
370
    20
100
AcDbLine
 39
0.45
 10
263.9155009646994
 20
423.5844800354374
 30
0.0
 11
263.9155009646994
 21
426.8844800354375
 31
0.0
1001
AUSTER_ANSICHT
1002
{
1000
Det03
1002
}
1001
AUSTER_FOLIE
1002
{
1000
NSB00030_RELAIS
1000
NSB00027_S0
1002
}
  0
LINE
  5
878E
330
20
100
AcDbEntity
  8
11000_Left
 62
     7
370
    20
100
AcDbLine
 39
0.45
 10
256.5155009646993
 20
423.5844800354374
 30
0.0
 11
263.9155009646994
 21
423.5844800354374
 31
0.0
1001
AUSTER_ANSICHT
1002
{
1000
Det03
1002
}
1001
AUSTER_FOLIE
1002
{
1000
NSB00030_RELAIS
1000
NSB00027_S0
1002
}
  0
LINE
  5
878F
330
20
100
AcDbEntity
  8
11000_Left
 62
     7
370
    20
100
AcDbLine
 39
0.45
 10
256.5155009646993
 20
426.8844800354375
 30
0.0
 11
256.5155009646993
 21
423.5844800354374
 31
0.0
1001
AUSTER_ANSICHT
1002
{
1000
Det03
1002
}
1001
AUSTER_FOLIE
1002
{
1000
NSB00030_RELAIS
1000
NSB00027_S0
1002
}
  0
LINE
  5
8790
330
20
100
AcDbEntity
  8
11000_Left
  6
Continuous
 62
     7
370
    50
100
AcDbLine
 39
0.7
 10
256.5155009646993
 20
426.8844800354375
 30
0.0
 11
256.5155009646993
 21
428.0844800354373
 31
0.0
1001
AUSTER_ANSICHT
1002
{
1000
Det03
1002
}
1001
AUSTER_FOLIE
1002
{
1000
NSB00030_RELAIS
1000
NSB00027_S0
1002
}
  0
LINE
  5
8791
330
20
100
AcDbEntity
  8
11000_Left
  6
Continuous
 62
     7
370
    50
100
AcDbLine
 39
0.7
 10
256.5155009646993
 20
428.0844800354373
 30
0.0
 11
263.9155009646994
 21
428.0844800354373
 31
0.0
1001
AUSTER_ANSICHT
1002
{
1000
Det03
1002
}
1001
AUSTER_FOLIE
1002
{
1000
NSB00030_RELAIS
1000
NSB00027_S0
1002
}
  0
LINE
  5
8793
330
20
100
AcDbEntity
  8
10000_FRONT
  6
Continuous
 62
     7
370
    50
100
AcDbLine
 39
0.7
 10
86.70119679803057
 20
457.8844800354374
 30
0.0
 11
86.70119679803057
 21
368.8844800354375
 31
0.0
1001
AUSTER_ANSICHT
1002
{
1000
Det03
1002
}
1001
AUSTER_FOLIE
1002
{
1000
NSB00030_RELAIS
1000
NSB00027_S0
1002
}
  0
LINE
  5
8796
330
20
100
AcDbEntity
  8
11000_Left
  6
Continuous
 62
     7
370
    50
100
AcDbLine
 39
0.7
 10
230.6345009646993
 20
442.3844800354373
 30
0.0
 11
230.6345009646993
 21
435.8844800354375
 31
0.0
1001
AUSTER_ANSICHT
1002
{
1000
Det03
1002
}
1001
AUSTER_FOLIE
1002
{
1000
NSB00030_RELAIS
1000
NSB00027_S0
1002
}
  0
LINE
  5
8797
330
20
100
AcDbEntity
  8
10000_FRONT
  6
DASHED
 62
     7
370
    20
100
AcDbLine
 39
0.25
 10
116.8551967980306
 20
366.1284800354374
 30
0.0
 11
116.8551967980306
 21
356.1284800354375
 31
0.0
1001
AUSTER_ANSICHT
1002
{
1000
Det03
1002
}
1001
AUSTER_FOLIE
1002
{
1000
NSB00030_RELAIS
1000
NSB00027_S0
1002
}
  0
LINE
  5
8798
330
20
100
AcDbEntity
  8
10000_FRONT
  6
DASHED
 62
     7
370
    20
100
AcDbLine
 39
0.25
 10
116.8551967980306
 20
461.9384800354374
 30
0.0
 11
116.8551967980306
 21
470.6404800354373
 31
0.0
1001
AUSTER_ANSICHT
1002
{
1000
Det03
1002
}
1001
AUSTER_FOLIE
1002
{
1000
NSB00030_RELAIS
1000
NSB00027_S0
1002
}
  0
LINE
  5
879C
330
20
100
AcDbEntity
  8
11000_Left
  6
Continuous
 62
     7
370
    50
100
AcDbLine
 39
0.7
 10
254.9345009646994
 20
415.1044800354374
 30
0.0
 11
254.9345009646994
 21
399.8844800354375
 31
0.0
1001
AUSTER_ANSICHT
1002
{
1000
Det03
1002
}
1001
AUSTER_FOLIE
1002
{
1000
NSB00030_RELAIS
1000
NSB00027_S0
1002
}
  0
LINE
  5
879D
330
20
100
AcDbEntity
  8
11000_Left
  6
Continuous
 62
     7
370
    50
100
AcDbLine
 39
0.7
 10
175.4845009646992
 20
434.4384800354374
 30
0.0
 11
175.4845009646992
 21
393.9384800354375
 31
0.0
1001
AUSTER_ANSICHT
1002
{
1000
Det03
1002
}
1001
AUSTER_FOLIE
1002
{
1000
NSB00030_RELAIS
1000
NSB00027_S0
1002
}
  0
CIRCLE
  5
879E
330
20
100
AcDbEntity
  8
30000_Drilling
  6
DASHED
 62
     7
370
    20
100
AcDbCircle
 39
0.25
 10
320.1074938456224
 20
465.6092211617997
 30
0.0
 40
2.399999999999999
1001
AUSTER_ANSICHT
1002
{
1000
Det03
1002
}
1001
AUSTER_FOLIE
1002
{
1000
NSB00030_RELAIS
1000
NSB00027_S0
1002
}
  0
CIRCLE
  5
879F
330
20
100
AcDbEntity
  8
30000_Drilling
  6
DASHED
 62
     7
370
    20
100
AcDbCircle
 39
0.25
 10
295.1074938456224
 20
465.6072211617996
 30
0.0
 40
2.399999999999999
1001
AUSTER_ANSICHT
1002
{
1000
Det03
1002
}
1001
AUSTER_FOLIE
1002
{
1000
NSB00030_RELAIS
1000
NSB00027_S0
1002
}
  0
CIRCLE
  5
87A0
330
20
100
AcDbEntity
  8
30000_Drilling
  6
DASHED
 62
     7
370
    20
100
AcDbCircle
 39
0.25
 10
295.1074938456224
 20
360.0992211617997
 30
0.0
 40
2.399999999999999
1001
AUSTER_ANSICHT
1002
{
1000
Det03
1002
}
1001
AUSTER_FOLIE
1002
{
1000
NSB00030_RELAIS
1000
NSB00027_S0
1002
}
  0
CIRCLE
  5
87A1
330
20
100
AcDbEntity
  8
30000_Drilling
  6
DASHED
 62
     7
370
    20
100
AcDbCircle
 39
0.25
 10
320.1074938456224
 20
360.0972211617998
 30
0.0
 40
2.399999999999999
1001
AUSTER_ANSICHT
1002
{
1000
Det03
1002
}
1001
AUSTER_FOLIE
1002
{
1000
NSB00030_RELAIS
1000
NSB00027_S0
1002
}
  0
POINT
  5
87CA
330
20
100
AcDbEntity
  8
10000_FRONT
  6
Continuous
 62
     7
370
    50
100
AcDbPoint
 10
86.75019679803057
 20
365.6884800354375
 30
0.0
 39
0.7
1001
AUSTER_FOLIE
1002
{
1000
NSB00030_RELAIS
1000
NSB00027_S0
1002
}
1001
AUSTER_ANSICHT
1002
{
1000
Det03
1002
}
  0
POINT
  5
87FF
330
20
100
AcDbEntity
  8
10000_FRONT
  6
Continuous
 62
     7
370
    50
100
AcDbPoint
 10
131.5501967980306
 20
365.6884800354375
 30
0.0
 39
0.7
1001
AUSTER_FOLIE
1002
{
1000
NSB00030_RELAIS
1000
NSB00027_S0
1002
}
1001
AUSTER_ANSICHT
1002
{
1000
Det03
1002
}
  0
POINT
  5
8817
330
20
100
AcDbEntity
  8
11000_Left
  6
Continuous
 62
     7
370
    50
100
AcDbPoint
 10
254.9345009646994
 20
399.8844800354375
 30
0.0
 39
0.7
1001
AUSTER_FOLIE
1002
{
1000
NSB00030_RELAIS
1000
NSB00027_S0
1002
}
1001
AUSTER_ANSICHT
1002
{
1000
Det03
1002
}
  0
POINT
  5
8833
330
20
100
AcDbEntity
  8
11000_Left
  6
Continuous
 62
     7
370
    50
100
AcDbPoint
 10
175.4845009646992
 20
434.4384800354374
 30
0.0
 39
0.7
1001
AUSTER_FOLIE
1002
{
1000
NSB00030_RELAIS
1000
NSB00027_S0
1002
}
1001
AUSTER_ANSICHT
1002
{
1000
Det03
1002
}
  0
POINT
  5
883D
330
20
100
AcDbEntity
  8
30000_Drilling
  6
Continuous
 62
     7
370
    50
100
AcDbPoint
 10
317.7074938456224
 20
465.6092211617997
 30
0.0
 39
0.25
1001
AUSTER_FOLIE
1002
{
1000
NSB00030_RELAIS
1000
NSB00027_S0
1002
}
1001
AUSTER_ANSICHT
1002
{
1000
Det03
1002
}
  0
DIMENSION
  5
8862
330
20
100
AcDbEntity
  8
10100_FRONT_DIM
  6
Continuous
 62
     7
370
    13
100
AcDbDimension
  2
*D1
 10
131.5501967980306
 20
346.4355265534302
 30
0.0
 11
109.1501967980305
 21
346.4355265534302
 31
0.0
 70
    32
 71
     5
 42
44.79999999999999
  3
H035
100
AcDbAlignedDimension
 13
86.75019679803058
 23
364.9384800354375
 33
0.0
 14
131.5501967980306
 24
364.9384800354375
 34
0.0
100
AcDbRotatedDimension
1001
ACAD
1000
DSTYLE
1002
{
1070
    40
1040
1.0
1070
    77
1070
     0
1070
   147
1040
1.5
1070
   272
1070
     0
1070
   279
1070
     1
1070
   288
1070
     1
1002
}
  0
DIMENSION
  5
887C
330
20
100
AcDbEntity
  8
10100_FRONT_DIM
  6
Continuous
 62
     7
370
    13
100
AcDbDimension
  2
*D2
 10
146.0466363921388
 20
364.9384800354375
 30
0.0
 11
146.0466363921387
 21
413.4384800354374
 31
0.0
 70
    32
 71
     5
 42
97.0
  3
H035
100
AcDbAlignedDimension
 13
131.770047853893
 23
461.9384800354374
 33
0.0
 14
131.770047853893
 24
364.9384800354375
 34
0.0
 50
90.0
100
AcDbRotatedDimension
1001
ACAD
1000
DSTYLE
1002
{
1070
    40
1040
1.0
1070
    77
1070
     0
1070
   147
1040
1.5
1070
   272
1070
     0
1070
   279
1070
     1
1070
   288
1070
     1
1002
}
  0
DIMENSION
  5
8889
330
20
100
AcDbEntity
  8
10100_FRONT_DIM
  6
Continuous
 62
     7
370
    13
100
AcDbDimension
  2
*D3
 10
140.0458511444311
 20
390.8384800354376
 30
0.0
 11
140.0458511444311
 21
413.3614463991548
 31
0.0
 70
    32
 71
     5
 42
45.04593272743476
  3
H035
100
AcDbAlignedDimension
 13
131.5501967980306
 23
435.8844127628723
 33
0.0
 14
130.7501967980305
 24
390.8384800354376
 34
0.0
 50
90.0
100
AcDbRotatedDimension
1001
ACAD
1000
DSTYLE
1002
{
1070
    40
1040
1.0
1070
    77
1070
     0
1070
   147
1040
1.5
1070
   272
1070
     0
1070
   279
1070
     1
1070
   288
1070
     1
1002
}
  0
LINE
  5
889F
330
20
100
AcDbEntity
  8
11000_Left
  6
DASHED
 62
     7
370
    20
100
AcDbLine
 39
0.25
 10
175.7665009646991
 20
382.0304800354374
 30
0.0
 11
175.7665009646991
 21
368.6384800354375
 31
0.0
  0
LINE
  5
88A0
330
20
100
AcDbEntity
  8
11000_Left
  6
DASHED
 62
     7
370
    20
100
AcDbLine
 39
0.25
 10
175.7665009646991
 20
444.7384800354374
 30
0.0
 11
175.7665009646991
 21
458.2384800354374
 31
0.0
  0
DIMENSION
  5
88A1
330
20
100
AcDbEntity
  8
11100_LEFT_DIM
  6
Continuous
 62
     7
370
    13
100
AcDbDimension
  2
*D4
 10
175.4845009646992
 20
346.045854372689
 30
0.0
 11
172.9845009646991
 21
346.045854372689
 31
0.0
 70
    32
 71
     5
 42
5.0
  3
DSTYLE1
100
AcDbAlignedDimension
 13
170.4845009646992
 23
368.6384800354375
 33
0.0
 14
175.4845009646992
 24
393.9384800354375
 34
0.0
100
AcDbRotatedDimension
1001
ACAD
1000
DSTYLE
1002
{
1070
    41
1040
2.0
1070
    42
1040
1.0
1070
    43
1040
1.0
1070
    47
1040
0.005
1070
    48
1040
-0.005
1070
    77
1070
     0
1070
    78
1070
     0
1070
   140
1040
3.5
1070
   143
1040
25.4
1070
   171
1070
     0
1070
   172
1070
     1
1070
   271
1070
     0
1070
   272
1070
     1
1070
   277
1070
     6
1070
   279
1070
     0
1002
}
  0
DIMENSION
  5
88B0
330
20
100
AcDbEntity
  8
11100_LEFT_DIM
  6
Continuous
 62
     7
370
    13
100
AcDbDimension
  2
*D5
 10
208.4845009646993
 20
346.045854372689
 30
0.0
 11
191.9845009646993
 21
346.045854372689
 31
0.0
 70
    32
 71
     5
 42
33.0
  3
DSTYLE1
100
AcDbAlignedDimension
 13
175.4845009646992
 23
368.6384800354375
 33
0.0
 14
208.4845009646993
 24
364.9384800354375
 34
0.0
100
AcDbRotatedDimension
1001
ACAD
1000
DSTYLE
1002
{
1070
    41
1040
2.0
1070
    42
1040
1.0
1070
    43
1040
1.0
1070
    47
1040
0.005
1070
    48
1040
-0.005
1070
    77
1070
     0
1070
    78
1070
     0
1070
   140
1040
3.5
1070
   143
1040
25.4
1070
   171
1070
     0
1070
   172
1070
     1
1070
   271
1070
     0
1070
   272
1070
     1
1070
   277
1070
     6
1070
   279
1070
     0
1002
}
  0
DIMENSION
  5
88BD
330
20
100
AcDbEntity
  8
11100_LEFT_DIM
  6
Continuous
 62
     7
370
    13
100
AcDbDimension
  2
*D6
 10
266.3155009646993
 20
338.0726867537205
 30
0.0
 11
220.9000009646993
 21
338.0726867537205
 31
0.0
 70
    32
 71
     5
 42
90.83099999999999
  3
DSTYLE1
100
AcDbAlignedDimension
 13
175.4845009646992
 23
368.6384800354375
 33
0.0
 14
266.3155009646993
 24
399.8844800354375
 34
0.0
100
AcDbRotatedDimension
1001
ACAD
1000
DSTYLE
1002
{
1070
    41
1040
2.0
1070
    42
1040
1.0
1070
    43
1040
1.0
1070
    47
1040
0.005
1070
    48
1040
-0.005
1070
    77
1070
     0
1070
    78
1070
     0
1070
   140
1040
3.5
1070
   143
1040
25.4
1070
   171
1070
     0
1070
   172
1070
     1
1070
   271
1070
     0
1070
   272
1070
     1
1070
   277
1070
     6
1070
   279
1070
     0
1002
}
  0
TEXT
  5
8CAC
330
20
100
AcDbEntity
  8
91000_TIP
  6
Continuous
 62
     7
100
AcDbText
 10
73.44876640497284
 20
297.5317263287093
 30
0.0
 40
2.5
  1
Alle Bemassungswerte sind in Millimeter (mm) angegeben.
 41
0.6056311217924565
 72
     5
 11
147.1338862230551
 21
297.5317263287093
 31
0.0
100
AcDbText
  0
TEXT
  5
8CAD
330
20
100
AcDbEntity
  8
91000_TIP
  6
Continuous
 62
     7
100
AcDbText
 10
73.44876640497284
 20
292.2817263287094
 30
0.0
 40
2.5
  1
All dimensions are in millimeters (mm).
 41
0.7513350295680256
 72
     5
 11
133.5555687704149
 21
292.2817263287094
 31
0.0
100
AcDbText
  0
LINE
  5
8CAE
330
20
100
AcDbEntity
  8
90000_FRAME
  6
Continuous
 62
     7
100
AcDbLine
 10
329.3954166223081
 20
298.7994897070328
 30
0.0
 11
329.3954166223081
 21
316.7994897070327
 31
0.0
  0
LINE
  5
8CAF
330
20
100
AcDbEntity
  8
90000_FRAME
  6
Continuous
 62
     7
100
AcDbLine
 10
69.39541662230897
 20
288.7994897070327
 30
0.0
 11
69.39541662230897
 21
488.7994897070324
 31
0.0
  0
LINE
  5
8CB0
330
20
100
AcDbEntity
  8
90000_FRAME
  6
Continuous
 62
     7
100
AcDbLine
 10
69.39541662230897
 20
488.7994897070324
 30
0.0
 11
339.3954166223088
 21
488.7994897070324
 31
0.0
  0
LINE
  5
8CB1
330
20
100
AcDbEntity
  8
90000_FRAME
  6
Continuous
 62
     7
100
AcDbLine
 10
69.39541662230897
 20
288.7994897070327
 30
0.0
 11
339.3954166223088
 21
288.7994897070327
 31
0.0
  0
LINE
  5
8CB2
330
20
100
AcDbEntity
  8
90000_FRAME
  6
Continuous
 62
     7
100
AcDbLine
 10
339.3954166223088
 20
288.7994897070327
 30
0.0
 11
339.3954166223088
 21
488.7994897070324
 31
0.0
  0
TEXT
  5
8CB3
330
20
100
AcDbEntity
  8
90000_FRAME
  6
Continuous
 62
     7
100
AcDbText
 10
257.7013411462589
 20
309.0494897070328
 30
0.0
 40
3.5
  1
3RV102__00000180_000_ALL
 41
0.7373033857474678
 72
     5
 11
313.6135145654419
 21
309.0494897070328
 31
0.0
100
AcDbText
  0
CIRCLE
  5
8CB4
330
20
100
AcDbEntity
  8
91000_TIP
  6
Continuous
 62
     7
100
AcDbCircle
 10
185.710086389334
 20
307.6232272805033
 30
0.0
 40
2.499999948899997
  0
CIRCLE
  5
8CB5
330
20
100
AcDbEntity
  8
91000_TIP
  6
Continuous
 62
     7
100
AcDbCircle
 10
185.710086389334
 20
307.6232272805033
 30
0.0
 40
4.9999998979
  0
LINE
  5
8CB6
330
20
100
AcDbEntity
  8
91000_TIP
  6
CENTER
 62
     7
100
AcDbLine
 10
185.710086389334
 20
301.9017460741033
 30
0.0
 11
185.710086389334
 21
313.1851320741033
 31
0.0
  0
LINE
  5
8CB7
330
20
100
AcDbEntity
  8
91000_TIP
  6
Continuous
 62
     7
100
AcDbLine
 10
179.2100865221341
 20
312.6232271784033
 30
0.0
 11
179.2100865221341
 21
302.6232273826032
 31
0.0
  0
LINE
  5
8CB8
330
20
100
AcDbEntity
  8
91000_TIP
  6
Continuous
 62
     7
100
AcDbLine
 10
169.210086726334
 20
310.1232272294034
 30
0.0
 11
169.210086726334
 21
305.1232273316033
 31
0.0
  0
LINE
  5
8CB9
330
20
100
AcDbEntity
  8
91000_TIP
  6
Continuous
 62
     7
100
AcDbLine
 10
169.210086726334
 20
305.1232273316033
 30
0.0
 11
179.2100865221341
 21
302.6232273826032
 31
0.0
  0
LINE
  5
8CBA
330
20
100
AcDbEntity
  8
91000_TIP
  6
CENTER
 62
     7
100
AcDbLine
 10
167.930576254333
 20
307.6232272805033
 30
0.0
 11
191.532565518433
 21
307.6232272805033
 31
0.0
  0
LINE
  5
8CBB
330
20
100
AcDbEntity
  8
91000_TIP
  6
Continuous
 62
     7
100
AcDbLine
 10
169.210086726334
 20
310.1232272294034
 30
0.0
 11
179.2100865221341
 21
312.6232271784033
 31
0.0
  0
TEXT
  5
8CBC
330
20
100
AcDbEntity
  8
90000_FRAME
  6
Continuous
 62
     7
100
AcDbText
 10
287.5554166223082
 20
300.6994897070327
 30
0.0
 40
2.2
  1
Massstab / Scale: 1:1
 41
0.7732634338148471
 72
     5
 11
318.4601785271082
 21
300.6994897070327
 31
0.0
100
AcDbText
  0
TEXT
  5
8CBD
330
20
100
AcDbEntity
  8
90000_FRAME
  6
Continuous
 62
     7
100
AcDbText
 10
245.0554166223081
 20
300.6994897070327
 30
0.0
 40
2.2
  1
Format / Size: DIN A4
 41
0.7994987468660268
 72
     5
 11
278.474464241308
 21
300.6994897070327
 31
0.0
100
AcDbText
  0
LINE
  5
8CBE
330
20
100
AcDbEntity
  8
90000_FRAME
  6
Continuous
 62
     7
100
AcDbLine
 10
329.3954166223081
 20
298.7994897070328
 30
0.0
 11
329.3954166223081
 21
316.7994897070327
 31
0.0
  0
LINE
  5
8CBF
330
20
100
AcDbEntity
  8
90000_FRAME
  6
Continuous
 62
     7
100
AcDbLine
 10
286.8954166223081
 20
298.7994897070328
 30
0.0
 11
286.8954166223081
 21
304.7994897070328
 31
0.0
  0
LINE
  5
8CC0
330
20
100
AcDbEntity
  8
90000_FRAME
  6
Continuous
 62
     7
100
AcDbLine
 10
244.3954166223081
 20
298.7994897070328
 30
0.0
 11
244.3954166223081
 21
316.7994897070327
 31
0.0
  0
LINE
  5
8CC1
330
20
100
AcDbEntity
  8
90000_FRAME
  6
Continuous
 62
     7
100
AcDbLine
 10
194.395416622308
 20
316.7994897070327
 30
0.0
 11
329.3954166223081
 21
316.7994897070327
 31
0.0
  0
LINE
  5
8CC2
330
20
100
AcDbEntity
  8
90000_FRAME
  6
Continuous
 62
     7
100
AcDbLine
 10
244.3954166223081
 20
304.7994897070328
 30
0.0
 11
329.3954166223081
 21
304.7994897070328
 31
0.0
  0
LINE
  5
8CC3
330
20
100
AcDbEntity
  8
90000_FRAME
  6
Continuous
 62
     7
100
AcDbLine
 10
194.395416622308
 20
298.7994897070328
 30
0.0
 11
194.395416622308
 21
316.7994897070327
 31
0.0
  0
LINE
  5
8CC4
330
20
100
AcDbEntity
  8
90000_FRAME
  6
Continuous
 62
     7
100
AcDbLine
 10
194.395416622308
 20
298.7994897070328
 30
0.0
 11
329.3954166223081
 21
298.7994897070328
 31
0.0
  0
INSERT
  5
8CC5
330
20
100
AcDbEntity
  8
90000_FRAME
  6
Continuous
 62
     7
100
AcDbBlockReference
  2
SIEMENS_OUTLINE_BL0
 10
-80.60458337769194
 20
288.7994897070327
 30
0.0
  0
DIMENSION
  5
8E21
330
20
100
AcDbEntity
  8
30100_Drilling_DIM
  6
Continuous
 62
     7
370
    13
100
AcDbDimension
  2
*D7
 10
284.8879278250413
 20
360.0992211617997
 30
0.0
 11
284.8879278250412
 21
412.8532211617998
 31
0.0
 70
    32
 71
     5
 42
105.508
  3
DSTYLE1
100
AcDbAlignedDimension
 13
292.7074938456225
 23
465.6072211617996
 33
0.0
 14
292.7074938456225
 24
360.0992211617997
 34
0.0
 50
90.0
100
AcDbRotatedDimension
1001
ACAD
1000
DSTYLE
1002
{
1070
    41
1040
2.0
1070
    42
1040
1.0
1070
    43
1040
1.0
1070
    47
1040
0.005
1070
    48
1040
-0.005
1070
    77
1070
     0
1070
    78
1070
     0
1070
   143
1040
25.4
1070
   171
1070
     0
1070
   172
1070
     1
1070
   271
1070
     0
1070
   272
1070
     1
1070
   277
1070
     6
1002
}
  0
DIMENSION
  5
8E2F
330
20
100
AcDbEntity
  8
30100_Drilling_DIM
  6
Continuous
 62
     7
370
    13
100
AcDbDimension
  2
*D8
 10
320.1074938456224
 20
474.3455038483554
 30
0.0
 11
307.6074938456224
 21
474.3455038483554
 31
0.0
 70
    32
 71
     5
 42
25.0
  3
DSTYLE1
100
AcDbAlignedDimension
 13
295.1074938456224
 23
468.0072211617996
 33
0.0
 14
320.1074938456224
 24
468.0092211617997
 34
0.0
100
AcDbRotatedDimension
1001
ACAD
1000
DSTYLE
1002
{
1070
    41
1040
2.0
1070
    42
1040
1.0
1070
    43
1040
1.0
1070
    47
1040
0.005
1070
    48
1040
-0.005
1070
    77
1070
     0
1070
    78
1070
     0
1070
   143
1040
25.4
1070
   171
1070
     0
1070
   172
1070
     1
1070
   271
1070
     0
1070
   272
1070
     1
1070
   277
1070
     6
1002
}
  0
DIMENSION
  5
8E3C
330
20
100
AcDbEntity
  8
30100_Drilling_DIM
  6
Continuous
 62
     7
370
    13
100
AcDbDimension
  2
*D9
 10
322.022813265393
 20
467.0554408962281
 30
0.0
 11
312.5393219716681
 21
459.8946445722877
 31
0.0
 70
    35
 71
     5
 42
4.799999999999954
  3
DSTYLE1
100
AcDbDiametricDimension
 15
318.1921744258519
 25
464.1630014273713
 35
0.0
 40
0.0
1001
ACAD
1000
DSTYLE
1002
{
1070
    41
1040
2.0
1070
    42
1040
1.0
1070
    43
1040
1.0
1070
    47
1040
0.005
1070
    48
1040
-0.005
1070
    77
1070
     0
1070
    78
1070
     0
1070
   143
1040
25.4
1070
   171
1070
     0
1070
   172
1070
     1
1070
   271
1070
     0
1070
   272
1070
     1
1070
   277
1070
     6
1002
}
  0
ENDSEC
  0
SECTION
  2
OBJECTS
  0
DICTIONARY
  5
C
330
0
100
AcDbDictionary
281
     1
  3
ACAD_COLOR
350
1B
  3
ACAD_GROUP
350
D
  3
ACAD_LAYOUT
350
19
  3
ACAD_MATERIAL
350
1A
  3
ACAD_MLINESTYLE
350
16
  3
ACAD_PLOTSETTINGS
350
18
  3
ACAD_PLOTSTYLENAME
350
E
  3
ACDBHEADERROUNDTRIPXREC
350
8F85
  3
AcDbVariableDictionary
350
687E
  3
DWGPROPS
350
8F84
  0
DICTIONARY
  5
1B
102
{ACAD_REACTORS
330
C
102
}
330
C
100
AcDbDictionary
281
     1
  0
DICTIONARY
  5
D
102
{ACAD_REACTORS
330
C
102
}
330
C
100
AcDbDictionary
281
     1
  0
DICTIONARY
  5
19
102
{ACAD_REACTORS
330
C
102
}
330
C
100
AcDbDictionary
281
     1
  3
Layout1
350
1F
  3
Model
350
23
  0
DICTIONARY
  5
1A
102
{ACAD_REACTORS
330
C
102
}
330
C
100
AcDbDictionary
281
     1
  0
DICTIONARY
  5
16
102
{ACAD_REACTORS
330
C
102
}
330
C
100
AcDbDictionary
281
     1
  3
Standard
350
17
  0
DICTIONARY
  5
18
102
{ACAD_REACTORS
330
C
102
}
330
C
100
AcDbDictionary
281
     1
  0
ACDBDICTIONARYWDFLT
  5
E
102
{ACAD_REACTORS
330
C
102
}
330
C
100
AcDbDictionary
281
     1
  3
Normal
350
F
100
AcDbDictionaryWithDefault
340
F
  0
DICTIONARY
  5
8F85
102
{ACAD_REACTORS
330
C
102
}
330
C
100
AcDbDictionary
281
     1
  3
COLORDICT
350
8F87
  3
MATERIALDICT
350
8F86
  0
DICTIONARY
  5
687E
102
{ACAD_REACTORS
330
C
102
}
330
C
100
AcDbDictionary
281
     1
  3
DIMASSOC
350
687F
  3
PROJECTNAME
350
6880
  0
XRECORD
  5
8F84
102
{ACAD_REACTORS
330
C
102
}
330
C
100
AcDbXrecord
280
     1
  1
DWGPROPS COOKIE
  2

  3

  4

  6

  7

  8

  9

300
=
301
=
302
=
303
=
304
=
305
=
306
=
307
=
308
=
309
=
 40
1.670646782407407
 41
2452829.417613079
 42
2453425.325984433
  1

 90
        0
  0
LAYOUT
  5
1F
102
{ACAD_XDICTIONARY
360
8F88
102
}
102
{ACAD_REACTORS
330
19
102
}
330
19
100
AcDbPlotSettings
  1

  2
HP LaserJet 5000 Series PS
  4

  6

 40
0.0
 41
0.0
 42
0.0
 43
0.0
 44
0.0
 45
0.0
 46
0.0
 47
0.0
 48
0.0
 49
0.0
140
0.0
141
0.0
142
1.0
143
1.0
 70
   688
 72
     0
 73
     0
 74
     5
  7
monochrome.ctb
 75
    16
147
1.0
148
0.0
149
0.0
100
AcDbLayout
  1
Layout1
 70
     1
 71
     1
 10
0.0
 20
0.0
 11
12.0
 21
9.0
 12
0.0
 22
0.0
 32
0.0
 14
1.000000000000000E+20
 24
1.000000000000000E+20
 34
1.000000000000000E+20
 15
-1.000000000000000E+20
 25
-1.000000000000000E+20
 35
-1.000000000000000E+20
146
0.0
 13
0.0
 23
0.0
 33
0.0
 16
1.0
 26
0.0
 36
0.0
 17
0.0
 27
1.0
 37
0.0
 76
     0
330
1C
  0
LAYOUT
  5
23
102
{ACAD_XDICTIONARY
360
8F8A
102
}
102
{ACAD_REACTORS
330
19
102
}
330
19
100
AcDbPlotSettings
  1

  2
\\AMBW779A\A_P00873 (Canon iR2200-3300 PCL6)
  4
A4
  6

 40
4.815416812896728
 41
4.815412044525146
 42
4.815414428710936
 43
4.8154296875
 44
209.9733276367186
 45
296.9259948730469
 46
0.0
 47
0.0
 48
0.0
 49
0.0
140
0.0
141
0.0
142
1.0
143
1.0
 70
 11952
 72
     1
 73
     1
 74
     1
  7
monochrome.ctb
 75
    16
147
1.0
148
-69.39448254423883
149
-288.7830057878352
100
AcDbLayout
  1
Model
 70
     1
 71
     0
 10
0.0
 20
0.0
 11
12.0
 21
9.0
 12
0.0
 22
0.0
 32
0.0
 14
0.0
 24
0.0
 34
0.0
 15
0.0
 25
0.0
 35
0.0
146
0.0
 13
0.0
 23
0.0
 33
0.0
 16
1.0
 26
0.0
 36
0.0
 17
0.0
 27
1.0
 37
0.0
 76
     0
330
20
  0
MLINESTYLE
  5
17
102
{ACAD_REACTORS
330
16
102
}
330
16
100
AcDbMlineStyle
  2
STANDARD
 70
     0
  3

 62
   256
 51
90.0
 52
90.0
 71
     2
 49
0.5
 62
   256
  6
BYLAYER
 49
-0.5
 62
   256
  6
BYLAYER
  0
ACDBPLACEHOLDER
  5
F
102
{ACAD_REACTORS
330
E
102
}
330
E
  0
XRECORD
  5
8F87
102
{ACAD_REACTORS
330
8F85
102
}
330
8F85
100
AcDbXrecord
280
     1
340
1B
  0
XRECORD
  5
8F86
102
{ACAD_REACTORS
330
8F85
102
}
330
8F85
100
AcDbXrecord
280
     1
340
1A
  0
DICTIONARYVAR
  5
687F
102
{ACAD_REACTORS
330
687E
102
}
330
687E
100
DictionaryVariables
280
     0
  1
1
  0
DICTIONARYVAR
  5
6880
102
{ACAD_REACTORS
330
687E
102
}
330
687E
100
DictionaryVariables
280
     0
  1

  0
DICTIONARY
  5
8F88
330
1F
100
AcDbDictionary
280
     1
281
     1
  3
ACAD_XREC_ROUNDTRIP
360
8F89
  0
DICTIONARY
  5
8F8A
330
23
100
AcDbDictionary
280
     1
281
     1
  3
ACAD_XREC_ROUNDTRIP
360
8F8B
  0
XRECORD
  5
8F89
102
{ACAD_REACTORS
330
8F88
102
}
330
8F88
100
AcDbXrecord
280
     1
102
SHADEPLOT
 70
     0
102
SHADEPLOTRESLEVEL
 70
     2
102
SHADEPLOTCUSTOMDPI
 70
   300
  0
XRECORD
  5
8F8B
102
{ACAD_REACTORS
330
8F8A
102
}
330
8F8A
100
AcDbXrecord
280
     1
102
SHADEPLOT
 70
     1
102
SHADEPLOTRESLEVEL
 70
     2
102
SHADEPLOTCUSTOMDPI
 70
   300
  0
ENDSEC
  0
EOF
