  0
SECTION
  2
HEADER
  9
$ACADVER
  1
AC1015
  9
$ACADMAINTVER
 70
    20
  9
$DWGCODEPAGE
  3
ANSI_1252
  9
$INSBASE
 10
0.0
 20
0.0
 30
0.0
  9
$EXTMIN
 10
9.98474220045
 20
-0.0090630292066862
 30
-0.4500381440623178
  9
$EXTMAX
 10
420.0128183607161
 20
270.0218359872488
 30
0.800038149883084
  9
$LIMMIN
 10
0.0
 20
0.0
  9
$LIMMAX
 10
420.0
 20
297.0
  9
$ORTHOMODE
 70
     1
  9
$REGENMODE
 70
     1
  9
$FILLMODE
 70
     1
  9
$QTEXTMODE
 70
     0
  9
$MIRRTEXT
 70
     0
  9
$LTSCALE
 40
23.1
  9
$ATTMODE
 70
     1
  9
$TEXTSIZE
 40
0.2
  9
$TRACEWID
 40
0.05
  9
$TEXTSTYLE
  7
Standard
  9
$CLAYER
  8
0
  9
$CELTYPE
  6
ByLayer
  9
$CECOLOR
 62
   256
  9
$CELTSCALE
 40
1.0
  9
$DISPSILH
 70
     0
  9
$DIMSCALE
 40
0.0
  9
$DIMASZ
 40
3.5
  9
$DIMEXO
 40
0.0
  9
$DIMDLI
 40
3.75
  9
$DIMRND
 40
0.0
  9
$DIMDLE
 40
0.0
  9
$DIMEXE
 40
2.0
  9
$DIMTP
 40
0.0
  9
$DIMTM
 40
0.0
  9
$DIMTXT
 40
3.5
  9
$DIMCEN
 40
2.5
  9
$DIMTSZ
 40
0.0
  9
$DIMTOL
 70
     0
  9
$DIMLIM
 70
     0
  9
$DIMTIH
 70
     0
  9
$DIMTOH
 70
     0
  9
$DIMSE1
 70
     0
  9
$DIMSE2
 70
     0
  9
$DIMTAD
 70
     1
  9
$DIMZIN
 70
     8
  9
$DIMBLK
  1

  9
$DIMASO
 70
     1
  9
$DIMSHO
 70
     1
  9
$DIMPOST
  1

  9
$DIMAPOST
  1

  9
$DIMALT
 70
     0
  9
$DIMALTD
 70
     4
  9
$DIMALTF
 40
0.039
  9
$DIMLFAC
 40
1.0
  9
$DIMTOFL
 70
     1
  9
$DIMTVP
 40
0.0
  9
$DIMTIX
 70
     0
  9
$DIMSOXD
 70
     0
  9
$DIMSAH
 70
     0
  9
$DIMBLK1
  1

  9
$DIMBLK2
  1

  9
$DIMSTYLE
  2
H035
  9
$DIMCLRD
 70
   256
  9
$DIMCLRE
 70
     7
  9
$DIMCLRT
 70
     7
  9
$DIMTFAC
 40
1.0
  9
$DIMGAP
 40
0.5
  9
$DIMJUST
 70
     0
  9
$DIMSD1
 70
     0
  9
$DIMSD2
 70
     0
  9
$DIMTOLJ
 70
     1
  9
$DIMTZIN
 70
     0
  9
$DIMALTZ
 70
     0
  9
$DIMALTTZ
 70
     0
  9
$DIMUPT
 70
     0
  9
$DIMDEC
 70
     0
  9
$DIMTDEC
 70
     2
  9
$DIMALTU
 70
     8
  9
$DIMALTTD
 70
     4
  9
$DIMTXSTY
  7
Standard
  9
$DIMAUNIT
 70
     0
  9
$DIMADEC
 70
     0
  9
$DIMALTRND
 40
0.0
  9
$DIMAZIN
 70
     0
  9
$DIMDSEP
 70
    46
  9
$DIMATFIT
 70
     3
  9
$DIMFRAC
 70
     0
  9
$DIMLDRBLK
  1

  9
$DIMLUNIT
 70
     2
  9
$DIMLWD
 70
    -2
  9
$DIMLWE
 70
    -2
  9
$DIMTMOVE
 70
     0
  9
$LUNITS
 70
     2
  9
$LUPREC
 70
     4
  9
$SKETCHINC
 40
0.1
  9
$FILLETRAD
 40
0.5
  9
$AUNITS
 70
     0
  9
$AUPREC
 70
     0
  9
$MENU
  1
.
  9
$ELEVATION
 40
0.0
  9
$PELEVATION
 40
0.0
  9
$THICKNESS
 40
0.0
  9
$LIMCHECK
 70
     0
  9
$CHAMFERA
 40
0.0
  9
$CHAMFERB
 40
0.0
  9
$CHAMFERC
 40
0.0
  9
$CHAMFERD
 40
0.0
  9
$SKPOLY
 70
     0
  9
$TDCREATE
 40
2452829.417613079
  9
$TDUCREATE
 40
2452829.375946412
  9
$TDUPDATE
 40
2453406.469096806
  9
$TDUUPDATE
 40
2453406.427430139
  9
$TDINDWG
 40
0.7925767130
  9
$TDUSRTIMER
 40
0.7925725694
  9
$USRTIMER
 70
     1
  9
$ANGBASE
 50
0.0
  9
$ANGDIR
 70
     0
  9
$PDMODE
 70
     0
  9
$PDSIZE
 40
0.0
  9
$PLINEWID
 40
0.0
  9
$SPLFRAME
 70
     0
  9
$SPLINETYPE
 70
     6
  9
$SPLINESEGS
 70
     8
  9
$HANDSEED
  5
6364
  9
$SURFTAB1
 70
     6
  9
$SURFTAB2
 70
     6
  9
$SURFTYPE
 70
     6
  9
$SURFU
 70
     6
  9
$SURFV
 70
     6
  9
$UCSBASE
  2

  9
$UCSNAME
  2

  9
$UCSORG
 10
0.0
 20
0.0
 30
0.0
  9
$UCSXDIR
 10
1.0
 20
0.0
 30
0.0
  9
$UCSYDIR
 10
0.0
 20
1.0
 30
0.0
  9
$UCSORTHOREF
  2

  9
$UCSORTHOVIEW
 70
     0
  9
$UCSORGTOP
 10
0.0
 20
0.0
 30
0.0
  9
$UCSORGBOTTOM
 10
0.0
 20
0.0
 30
0.0
  9
$UCSORGLEFT
 10
0.0
 20
0.0
 30
0.0
  9
$UCSORGRIGHT
 10
0.0
 20
0.0
 30
0.0
  9
$UCSORGFRONT
 10
0.0
 20
0.0
 30
0.0
  9
$UCSORGBACK
 10
0.0
 20
0.0
 30
0.0
  9
$PUCSBASE
  2

  9
$PUCSNAME
  2

  9
$PUCSORG
 10
0.0
 20
0.0
 30
0.0
  9
$PUCSXDIR
 10
1.0
 20
0.0
 30
0.0
  9
$PUCSYDIR
 10
0.0
 20
1.0
 30
0.0
  9
$PUCSORTHOREF
  2

  9
$PUCSORTHOVIEW
 70
     0
  9
$PUCSORGTOP
 10
0.0
 20
0.0
 30
0.0
  9
$PUCSORGBOTTOM
 10
0.0
 20
0.0
 30
0.0
  9
$PUCSORGLEFT
 10
0.0
 20
0.0
 30
0.0
  9
$PUCSORGRIGHT
 10
0.0
 20
0.0
 30
0.0
  9
$PUCSORGFRONT
 10
0.0
 20
0.0
 30
0.0
  9
$PUCSORGBACK
 10
0.0
 20
0.0
 30
0.0
  9
$USERI1
 70
     0
  9
$USERI2
 70
     0
  9
$USERI3
 70
     0
  9
$USERI4
 70
     0
  9
$USERI5
 70
     0
  9
$USERR1
 40
0.0
  9
$USERR2
 40
0.0
  9
$USERR3
 40
0.0
  9
$USERR4
 40
0.0
  9
$USERR5
 40
0.0
  9
$WORLDVIEW
 70
     1
  9
$SHADEDGE
 70
     3
  9
$SHADEDIF
 70
    70
  9
$TILEMODE
 70
     1
  9
$MAXACTVP
 70
    64
  9
$PINSBASE
 10
0.0
 20
0.0
 30
0.0
  9
$PLIMCHECK
 70
     0
  9
$PEXTMIN
 10
1.000000000000000E+20
 20
1.000000000000000E+20
 30
1.000000000000000E+20
  9
$PEXTMAX
 10
-1.000000000000000E+20
 20
-1.000000000000000E+20
 30
-1.000000000000000E+20
  9
$PLIMMIN
 10
0.0
 20
0.0
  9
$PLIMMAX
 10
12.0
 20
9.0
  9
$UNITMODE
 70
     0
  9
$VISRETAIN
 70
     1
  9
$PLINEGEN
 70
     0
  9
$PSLTSCALE
 70
     1
  9
$TREEDEPTH
 70
  3020
  9
$CMLSTYLE
  2
Standard
  9
$CMLJUST
 70
     0
  9
$CMLSCALE
 40
1.0
  9
$PROXYGRAPHICS
 70
     1
  9
$MEASUREMENT
 70
     0
  9
$CELWEIGHT
370
    -1
  9
$ENDCAPS
280
     0
  9
$JOINSTYLE
280
     0
  9
$LWDISPLAY
290
     0
  9
$INSUNITS
 70
     0
  9
$HYPERLINKBASE
  1

  9
$STYLESHEET
  1
MONOCHROME.CTB
  9
$XEDIT
290
     1
  9
$CEPSNTYPE
380
     0
  9
$PSTYLEMODE
290
     1
  9
$FINGERPRINTGUID
  2
{D88032C4-1185-41D3-97DD-7638FCF99E3F}
  9
$VERSIONGUID
  2
{6E42990E-A6DE-41E8-A1F3-252593FA5546}
  9
$EXTNAMES
290
     1
  9
$PSVPSCALE
 40
0.0
  9
$OLESTARTUP
290
     0
  0
ENDSEC
  0
SECTION
  2
CLASSES
  0
CLASS
  1
ACDBDICTIONARYWDFLT
  2
AcDbDictionaryWithDefault
  3
ObjectDBX Classes
 90
        0
280
     0
281
     0
  0
CLASS
  1
DICTIONARYVAR
  2
AcDbDictionaryVar
  3
ObjectDBX Classes
 90
        0
280
     0
281
     0
  0
CLASS
  1
ACDBPLACEHOLDER
  2
AcDbPlaceHolder
  3
ObjectDBX Classes
 90
        0
280
     0
281
     0
  0
CLASS
  1
LAYOUT
  2
AcDbLayout
  3
ObjectDBX Classes
 90
        0
280
     0
281
     0
  0
ENDSEC
  0
SECTION
  2
TABLES
  0
TABLE
  2
VPORT
  5
8
330
0
100
AcDbSymbolTable
 70
     2
  0
VPORT
  5
635B
330
8
100
AcDbSymbolTableRecord
100
AcDbViewportTableRecord
  2
*Active
 70
     0
 10
0.0
 20
0.0
 11
1.0
 21
1.0
 12
214.9987802805831
 22
135.006386479021
 13
0.0
 23
0.0
 14
1.0
 24
1.0
 15
0.0
 25
0.0
 16
0.0
 26
0.0
 36
1.0
 17
0.0
 27
0.0
 37
0.0
 40
272.1133995230091
 41
1.571428571428571
 42
50.0
 43
0.0
 44
0.0
 50
0.0
 51
0.0
 71
     0
 72
   100
 73
     1
 74
     1
 75
     0
 76
     0
 77
     0
 78
     0
281
     0
 65
     1
110
0.0
120
0.0
130
0.0
111
1.0
121
0.0
131
0.0
112
0.0
122
1.0
132
0.0
 79
     0
146
0.0
  0
ENDTAB
  0
TABLE
  2
LTYPE
  5
5
330
0
100
AcDbSymbolTable
 70
     3
  0
LTYPE
  5
13
330
5
100
AcDbSymbolTableRecord
100
AcDbLinetypeTableRecord
  2
ByBlock
 70
     0
  3

 72
    65
 73
     0
 40
0.0
  0
LTYPE
  5
14
330
5
100
AcDbSymbolTableRecord
100
AcDbLinetypeTableRecord
  2
ByLayer
 70
     0
  3

 72
    65
 73
     0
 40
0.0
  0
LTYPE
  5
15
330
5
100
AcDbSymbolTableRecord
100
AcDbLinetypeTableRecord
  2
CONTINUOUS
 70
     0
  3
Solid line
 72
    65
 73
     0
 40
0.0
  0
LTYPE
  5
26
330
5
100
AcDbSymbolTableRecord
100
AcDbLinetypeTableRecord
  2
CENTER
 70
     0
  3
____ _ ____ _ ____ _ ____ _ ____ _ ____ _ ____
 72
    65
 73
     4
 40
0.6
 49
0.375
 74
     0
 49
-0.075
 74
     0
 49
0.075
 74
     0
 49
-0.075
 74
     0
  0
LTYPE
  5
4F7A
330
5
100
AcDbSymbolTableRecord
100
AcDbLinetypeTableRecord
  2
DASHED
 70
     0
  3
_ _ _ _ _ _ _ _ _ _ _ _ _ _ _ _ _ _ _ _ _ _ _ _
 72
    65
 73
     2
 40
0.375
 49
0.25
 74
     0
 49
-0.125
 74
     0
  0
ENDTAB
  0
TABLE
  2
LAYER
  5
2
330
0
100
AcDbSymbolTable
 70
     8
  0
LAYER
  5
10
330
2
100
AcDbSymbolTableRecord
100
AcDbLayerTableRecord
  2
0
 70
     0
 62
     7
  6
CONTINUOUS
370
    -3
390
F
  0
LAYER
  5
1D8
330
2
100
AcDbSymbolTableRecord
100
AcDbLayerTableRecord
  2
Defpoints
 70
     0
 62
     7
  6
CONTINUOUS
290
     0
370
    -3
390
F
  0
LAYER
  5
1D9
330
2
100
AcDbSymbolTableRecord
100
AcDbLayerTableRecord
  2
91000_TIP
 70
     0
 62
     7
  6
CONTINUOUS
370
    -3
390
F
  0
LAYER
  5
1DA
330
2
100
AcDbSymbolTableRecord
100
AcDbLayerTableRecord
  2
11000_Left
 70
     0
 62
     7
  6
CONTINUOUS
370
    -3
390
F
  0
LAYER
  5
1DB
330
2
100
AcDbSymbolTableRecord
100
AcDbLayerTableRecord
  2
10000_FRONT
 70
     0
 62
     7
  6
CONTINUOUS
370
    -3
390
F
  0
LAYER
  5
1DC
330
2
100
AcDbSymbolTableRecord
100
AcDbLayerTableRecord
  2
10100_FRONT_DIM
 70
     0
 62
     7
  6
CONTINUOUS
370
    -3
390
F
  0
LAYER
  5
1DD
330
2
100
AcDbSymbolTableRecord
100
AcDbLayerTableRecord
  2
90000_FRAME
 70
     0
 62
     7
  6
CONTINUOUS
370
    -3
390
F
  0
LAYER
  5
1DE
330
2
100
AcDbSymbolTableRecord
100
AcDbLayerTableRecord
  2
11100_LEFT_DIM
 70
     0
 62
     7
  6
CONTINUOUS
370
    -3
390
F
  0
ENDTAB
  0
TABLE
  2
STYLE
  5
3
330
0
100
AcDbSymbolTable
 70
     2
  0
STYLE
  5
11
330
3
100
AcDbSymbolTableRecord
100
AcDbTextStyleTableRecord
  2
Standard
 70
     0
 40
0.0
 41
1.0
 50
0.0
 71
     0
 42
0.2
  3
txt
  4

  0
STYLE
  5
5752
330
3
100
AcDbSymbolTableRecord
100
AcDbTextStyleTableRecord
  2
Helvetica
 70
     0
 40
0.0
 41
1.0
 50
0.0
 71
     0
 42
5.0
  3
ARIAL.TTF
  4

1001
ACAD
1000
Arial
1071
       34
  0
ENDTAB
  0
TABLE
  2
VIEW
  5
6
330
0
100
AcDbSymbolTable
 70
     0
  0
ENDTAB
  0
TABLE
  2
UCS
  5
7
330
0
100
AcDbSymbolTable
 70
     0
  0
ENDTAB
  0
TABLE
  2
APPID
  5
9
330
0
100
AcDbSymbolTable
 70
     3
  0
APPID
  5
12
330
9
100
AcDbSymbolTableRecord
100
AcDbRegAppTableRecord
  2
ACAD
 70
     0
  0
APPID
  5
1E8
330
9
100
AcDbSymbolTableRecord
100
AcDbRegAppTableRecord
  2
AUSTER_ANSICHT
 70
     0
  0
APPID
  5
1E9
330
9
100
AcDbSymbolTableRecord
100
AcDbRegAppTableRecord
  2
AUSTER_FOLIE
 70
     0
  0
ENDTAB
  0
TABLE
  2
DIMSTYLE
  5
A
330
0
100
AcDbSymbolTable
 70
     3
100
AcDbDimStyleTable
 71
     3
340
3A1A
340
1E7
340
BA
  0
DIMSTYLE
105
BA
330
A
100
AcDbSymbolTableRecord
100
AcDbDimStyleTableRecord
  2
Standard
 70
     0
340
11
  0
DIMSTYLE
105
1E7
102
{ACAD_REACTORS
330
58EC
330
58F7
330
590E
330
590F
102
}
330
A
100
AcDbSymbolTableRecord
100
AcDbDimStyleTableRecord
  2
DSTYLE1
 70
     0
 41
3.0
 42
0.0
 44
1.0
 73
     0
 74
     0
 77
     1
 78
     3
140
2.5
143
0.039370079
147
1.0
271
     3
272
     3
274
     0
279
     2
340
11
  0
DIMSTYLE
105
3A1A
102
{ACAD_REACTORS
330
6105
330
6104
330
6103
330
6102
102
}
330
A
100
AcDbSymbolTableRecord
100
AcDbDimStyleTableRecord
  2
H035
 70
     0
 40
0.0
 41
3.5
 42
0.0
 43
3.75
 44
2.0
 73
     0
 74
     0
 77
     1
 78
     8
140
3.5
141
2.5
143
0.039
147
0.5
171
     4
172
     1
176
   256
177
     7
178
     7
271
     0
272
     2
273
     8
274
     4
340
11
  0
ENDTAB
  0
TABLE
  2
BLOCK_RECORD
  5
1
330
0
100
AcDbSymbolTable
 70
    10
  0
BLOCK_RECORD
  5
20
330
1
100
AcDbSymbolTableRecord
100
AcDbBlockTableRecord
  2
*Model_Space
340
23
  0
BLOCK_RECORD
  5
1C
330
1
100
AcDbSymbolTableRecord
100
AcDbBlockTableRecord
  2
*Paper_Space
340
1F
  0
BLOCK_RECORD
  5
3A
330
1
100
AcDbSymbolTableRecord
100
AcDbBlockTableRecord
  2
SIEMENS_OUTLINE_BL0
340
0
102
{BLKREFS
331
AA
102
}
  0
BLOCK_RECORD
  5
59B7
330
1
100
AcDbSymbolTableRecord
100
AcDbBlockTableRecord
  2
*D1
340
0
  0
BLOCK_RECORD
  5
59C4
330
1
100
AcDbSymbolTableRecord
100
AcDbBlockTableRecord
  2
*D2
340
0
  0
BLOCK_RECORD
  5
5A05
330
1
100
AcDbSymbolTableRecord
100
AcDbBlockTableRecord
  2
*D3
340
0
  0
BLOCK_RECORD
  5
5A12
330
1
100
AcDbSymbolTableRecord
100
AcDbBlockTableRecord
  2
*D4
340
0
  0
BLOCK_RECORD
  5
61B7
330
1
100
AcDbSymbolTableRecord
100
AcDbBlockTableRecord
  2
*D5
340
0
  0
BLOCK_RECORD
  5
61C4
330
1
100
AcDbSymbolTableRecord
100
AcDbBlockTableRecord
  2
*D6
340
0
  0
BLOCK_RECORD
  5
61D1
330
1
100
AcDbSymbolTableRecord
100
AcDbBlockTableRecord
  2
*D7
340
0
  0
BLOCK_RECORD
  5
61DE
330
1
100
AcDbSymbolTableRecord
100
AcDbBlockTableRecord
  2
*D8
340
0
  0
BLOCK_RECORD
  5
61EB
330
1
100
AcDbSymbolTableRecord
100
AcDbBlockTableRecord
  2
*D9
340
0
  0
ENDTAB
  0
ENDSEC
  0
SECTION
  2
BLOCKS
  0
BLOCK
  5
21
330
20
100
AcDbEntity
  8
0
100
AcDbBlockBegin
  2
*Model_Space
 70
     0
 10
0.0
 20
0.0
 30
0.0
  3
*Model_Space
  1

  0
ENDBLK
  5
22
330
20
100
AcDbEntity
  8
0
100
AcDbBlockEnd
  0
BLOCK
  5
1D
330
1C
100
AcDbEntity
 67
     1
  8
0
100
AcDbBlockBegin
  2
*Paper_Space
 70
     0
 10
0.0
 20
0.0
 30
0.0
  3
*Paper_Space
  1

  0
ENDBLK
  5
1E
330
1C
100
AcDbEntity
 67
     1
  8
0
100
AcDbBlockEnd
  0
BLOCK
  5
3B
330
3A
100
AcDbEntity
  8
0
  6
Continuous
 62
     7
100
AcDbBlockBegin
  2
SIEMENS_OUTLINE_BL0
 70
     0
 10
0.0
 20
0.0
 30
0.0
  3
SIEMENS_OUTLINE_BL0
  1

  0
LINE
  5
3C
330
3A
100
AcDbEntity
  8
0
  6
Continuous
 62
     7
100
AcDbLine
 10
289.1235341257
 20
21.4969115175
 30
0.0
 11
289.1235341257
 21
16.7436424342
 31
0.0
  0
LINE
  5
3D
330
3A
100
AcDbEntity
  8
0
  6
Continuous
 62
     7
100
AcDbLine
 10
290.5495148507
 20
21.4969115175
 30
0.0
 11
290.5495148507
 21
16.7436424342
 31
0.0
  0
LINE
  5
3E
330
3A
100
AcDbEntity
  8
0
  6
Continuous
 62
     7
100
AcDbLine
 10
289.1235341257
 20
16.7436424342
 30
0.0
 11
290.5495148507
 21
16.7436424342
 31
0.0
  0
LINE
  5
3F
330
3A
100
AcDbEntity
  8
0
  6
Continuous
 62
     7
100
AcDbLine
 10
289.1235341257
 20
21.4969115175
 30
0.0
 11
290.5495148507
 21
21.4969115175
 31
0.0
  0
LINE
  5
40
330
3A
100
AcDbEntity
  8
0
  6
Continuous
 62
     7
100
AcDbLine
 10
291.6427667399
 20
21.4969115175
 30
0.0
 11
291.6427667399
 21
16.7436424342
 31
0.0
  0
LINE
  5
41
330
3A
100
AcDbEntity
  8
0
  6
Continuous
 62
     7
100
AcDbLine
 10
291.6427667399
 20
16.7436424342
 30
0.0
 11
295.2077185523
 21
16.7436424342
 31
0.0
  0
LINE
  5
42
330
3A
100
AcDbEntity
  8
0
  6
Continuous
 62
     7
100
AcDbLine
 10
295.2077185523
 20
17.64676356
 30
0.0
 11
293.021214774
 21
17.64676356
 31
0.0
  0
LINE
  5
43
330
3A
100
AcDbEntity
  8
0
  6
Continuous
 62
     7
100
AcDbLine
 10
295.2077185523
 20
17.64676356
 30
0.0
 11
295.2077185523
 21
16.7436424342
 31
0.0
  0
LINE
  5
44
330
3A
100
AcDbEntity
  8
0
  6
Continuous
 62
     7
100
AcDbLine
 10
295.1601858615
 20
21.4969115175
 30
0.0
 11
291.6427667399
 21
21.4969115175
 31
0.0
  0
LINE
  5
45
330
3A
100
AcDbEntity
  8
0
  6
Continuous
 62
     7
100
AcDbLine
 10
295.1601858615
 20
20.6175567371
 30
0.0
 11
293.021214774
 21
20.6175567371
 31
0.0
  0
LINE
  5
46
330
3A
100
AcDbEntity
  8
0
  6
Continuous
 62
     7
100
AcDbLine
 10
295.1601858615
 20
21.4969115175
 30
0.0
 11
295.1601858615
 21
20.6175567371
 31
0.0
  0
LINE
  5
47
330
3A
100
AcDbEntity
  8
0
  6
Continuous
 62
     7
100
AcDbLine
 10
294.8749897165
 20
18.7637817946
 30
0.0
 11
293.021214774
 21
18.7637817946
 31
0.0
  0
LINE
  5
48
330
3A
100
AcDbEntity
  8
0
  6
Continuous
 62
     7
100
AcDbLine
 10
294.8749897165
 20
19.5480711933
 30
0.0
 11
294.8749897165
 21
18.7637817946
 31
0.0
  0
LINE
  5
49
330
3A
100
AcDbEntity
  8
0
  6
Continuous
 62
     7
100
AcDbLine
 10
294.8749897165
 20
19.5480711933
 30
0.0
 11
293.021214774
 21
19.5480711933
 31
0.0
  0
LINE
  5
4A
330
3A
100
AcDbEntity
  8
0
  6
Continuous
 62
     7
100
AcDbLine
 10
293.021214774
 20
20.6175567371
 30
0.0
 11
293.021214774
 21
19.5480711933
 31
0.0
  0
LINE
  5
4B
330
3A
100
AcDbEntity
  8
0
  6
Continuous
 62
     7
100
AcDbLine
 10
293.021214774
 20
18.7637817946
 30
0.0
 11
293.021214774
 21
17.64676356
 31
0.0
  0
LINE
  5
4C
330
3A
100
AcDbEntity
  8
0
  6
Continuous
 62
     7
100
AcDbLine
 10
296.0157742965
 20
16.7436424342
 30
0.0
 11
296.0157742965
 21
21.4969115175
 31
0.0
  0
LINE
  5
4D
330
3A
100
AcDbEntity
  8
0
  6
Continuous
 62
     7
100
AcDbLine
 10
296.0157742965
 20
16.7436424342
 30
0.0
 11
296.9664281131
 21
16.7436424342
 31
0.0
  0
LINE
  5
4E
330
3A
100
AcDbEntity
  8
0
  6
Continuous
 62
     7
100
AcDbLine
 10
301.8622952689
 20
21.4969115175
 30
0.0
 11
301.8622952689
 21
16.7436424342
 31
0.0
  0
LINE
  5
4F
330
3A
100
AcDbEntity
  8
0
  6
Continuous
 62
     7
100
AcDbLine
 10
301.8622952689
 20
16.7436424342
 30
0.0
 11
300.4838472348
 21
16.7436424342
 31
0.0
  0
LINE
  5
50
330
3A
100
AcDbEntity
  8
0
  6
Continuous
 62
     7
100
AcDbLine
 10
298.2973434565
 20
16.6961097434
 30
0.0
 11
299.1529318914
 21
16.6961097434
 31
0.0
  0
LINE
  5
51
330
3A
100
AcDbEntity
  8
0
  6
Continuous
 62
     7
100
AcDbLine
 10
298.2973434565
 20
16.6961097434
 30
0.0
 11
296.9664281131
 21
19.7857346475
 31
0.0
  0
LINE
  5
52
330
3A
100
AcDbEntity
  8
0
  6
Continuous
 62
     7
100
AcDbLine
 10
296.9664281131
 20
16.7436424342
 30
0.0
 11
296.9664281131
 21
19.7857346475
 31
0.0
  0
LINE
  5
53
330
3A
100
AcDbEntity
  8
0
  6
Continuous
 62
     7
100
AcDbLine
 10
300.4838472348
 20
19.8332673383
 30
0.0
 11
299.1529318914
 21
16.6961097434
 31
0.0
  0
LINE
  5
54
330
3A
100
AcDbEntity
  8
0
  6
Continuous
 62
     7
100
AcDbLine
 10
297.7269511665
 20
21.4969115175
 30
0.0
 11
296.0157742965
 21
21.4969115175
 31
0.0
  0
LINE
  5
55
330
3A
100
AcDbEntity
  8
0
  6
Continuous
 62
     7
100
AcDbLine
 10
301.8622952689
 20
21.4969115175
 30
0.0
 11
300.1511183989
 21
21.4969115175
 31
0.0
  0
LINE
  5
56
330
3A
100
AcDbEntity
  8
0
  6
Continuous
 62
     7
100
AcDbLine
 10
297.7269511665
 20
21.4969115175
 30
0.0
 11
298.9628011281
 21
18.5974173767
 31
0.0
  0
LINE
  5
57
330
3A
100
AcDbEntity
  8
0
  6
Continuous
 62
     7
100
AcDbLine
 10
300.1511183989
 20
21.4969115175
 30
0.0
 11
298.9628011281
 21
18.5974173767
 31
0.0
  0
LINE
  5
58
330
3A
100
AcDbEntity
  8
0
  6
Continuous
 62
     7
100
AcDbLine
 10
300.4838472348
 20
19.8332673383
 30
0.0
 11
300.4838472348
 21
16.7436424342
 31
0.0
  0
LINE
  5
59
330
3A
100
AcDbEntity
  8
0
  6
Continuous
 62
     7
100
AcDbLine
 10
302.9555471581
 20
21.4969115175
 30
0.0
 11
302.9555471581
 21
16.7436424342
 31
0.0
  0
LINE
  5
5A
330
3A
100
AcDbEntity
  8
0
  6
Continuous
 62
     7
100
AcDbLine
 10
302.9555471581
 20
16.7436424342
 30
0.0
 11
306.5204989705
 21
16.7436424342
 31
0.0
  0
LINE
  5
5B
330
3A
100
AcDbEntity
  8
0
  6
Continuous
 62
     7
100
AcDbLine
 10
306.5204989705
 20
17.64676356
 30
0.0
 11
304.3339951922
 21
17.64676356
 31
0.0
  0
LINE
  5
5C
330
3A
100
AcDbEntity
  8
0
  6
Continuous
 62
     7
100
AcDbLine
 10
306.5204989705
 20
17.64676356
 30
0.0
 11
306.5204989705
 21
16.7436424342
 31
0.0
  0
LINE
  5
5D
330
3A
100
AcDbEntity
  8
0
  6
Continuous
 62
     7
100
AcDbLine
 10
306.4729662797
 20
21.4969115175
 30
0.0
 11
302.9555471581
 21
21.4969115175
 31
0.0
  0
LINE
  5
5E
330
3A
100
AcDbEntity
  8
0
  6
Continuous
 62
     7
100
AcDbLine
 10
306.4729662797
 20
20.6175567371
 30
0.0
 11
304.3339951922
 21
20.6175567371
 31
0.0
  0
LINE
  5
5F
330
3A
100
AcDbEntity
  8
0
  6
Continuous
 62
     7
100
AcDbLine
 10
306.4729662797
 20
21.4969115175
 30
0.0
 11
306.4729662797
 21
20.6175567371
 31
0.0
  0
LINE
  5
60
330
3A
100
AcDbEntity
  8
0
  6
Continuous
 62
     7
100
AcDbLine
 10
306.1877701347
 20
18.7637817946
 30
0.0
 11
304.3339951922
 21
18.7637817946
 31
0.0
  0
LINE
  5
61
330
3A
100
AcDbEntity
  8
0
  6
Continuous
 62
     7
100
AcDbLine
 10
306.1877701347
 20
19.5480711933
 30
0.0
 11
306.1877701347
 21
18.7637817946
 31
0.0
  0
LINE
  5
62
330
3A
100
AcDbEntity
  8
0
  6
Continuous
 62
     7
100
AcDbLine
 10
306.1877701347
 20
19.5480711933
 30
0.0
 11
304.3339951922
 21
19.5480711933
 31
0.0
  0
LINE
  5
63
330
3A
100
AcDbEntity
  8
0
  6
Continuous
 62
     7
100
AcDbLine
 10
304.3339951922
 20
20.6175567371
 30
0.0
 11
304.3339951922
 21
19.5480711933
 31
0.0
  0
LINE
  5
64
330
3A
100
AcDbEntity
  8
0
  6
Continuous
 62
     7
100
AcDbLine
 10
304.3339951922
 20
18.7637817946
 30
0.0
 11
304.3339951922
 21
17.64676356
 31
0.0
  0
LINE
  5
65
330
3A
100
AcDbEntity
  8
0
  6
Continuous
 62
     7
100
AcDbLine
 10
307.3047883693
 20
16.7436424342
 30
0.0
 11
307.3047883693
 21
21.4969115175
 31
0.0
  0
LINE
  5
66
330
3A
100
AcDbEntity
  8
0
  6
Continuous
 62
     7
100
AcDbLine
 10
311.4876651625
 20
21.4969115175
 30
0.0
 11
311.4876651625
 21
16.7436424342
 31
0.0
  0
LINE
  5
67
330
3A
100
AcDbEntity
  8
0
  6
Continuous
 62
     7
100
AcDbLine
 10
307.3047883693
 20
16.7436424342
 30
0.0
 11
308.2554421859
 21
16.7436424342
 31
0.0
  0
LINE
  5
68
330
3A
100
AcDbEntity
  8
0
  6
Continuous
 62
     7
100
AcDbLine
 10
311.4876651625
 20
21.4969115175
 30
0.0
 11
310.5370113459
 21
21.4969115175
 31
0.0
  0
LINE
  5
69
330
3A
100
AcDbEntity
  8
0
  6
Continuous
 62
     7
100
AcDbLine
 10
308.8496008213
 20
21.4969115175
 30
0.0
 11
307.3047883693
 21
21.4969115175
 31
0.0
  0
LINE
  5
6A
330
3A
100
AcDbEntity
  8
0
  6
Continuous
 62
     7
100
AcDbLine
 10
311.4876651625
 20
16.7436424342
 30
0.0
 11
309.9666190559
 21
16.7436424342
 31
0.0
  0
LINE
  5
6B
330
3A
100
AcDbEntity
  8
0
  6
Continuous
 62
     7
100
AcDbLine
 10
309.9666190559
 20
16.7436424342
 30
0.0
 11
308.2554421859
 21
19.7857346475
 31
0.0
  0
LINE
  5
6C
330
3A
100
AcDbEntity
  8
0
  6
Continuous
 62
     7
100
AcDbLine
 10
308.8496008213
 20
21.4969115175
 30
0.0
 11
310.5370113459
 21
18.5498846858
 31
0.0
  0
LINE
  5
6D
330
3A
100
AcDbEntity
  8
0
  6
Continuous
 62
     7
100
AcDbLine
 10
310.5370113459
 20
21.4969115175
 30
0.0
 11
310.5370113459
 21
18.5498846858
 31
0.0
  0
LINE
  5
6E
330
3A
100
AcDbEntity
  8
0
  6
Continuous
 62
     7
100
AcDbLine
 10
308.2554421859
 20
16.7436424342
 30
0.0
 11
308.2554421859
 21
19.7857346475
 31
0.0
  0
LINE
  5
6F
330
3A
100
AcDbEntity
  8
0
  6
Continuous
 62
     7
100
AcDbLine
 10
312.2957209067
 20
16.8387078159
 30
0.0
 11
312.2957209067
 21
17.7893616325
 31
0.0
  0
LINE
  5
70
330
3A
100
AcDbEntity
  8
0
  6
Continuous
 62
     7
100
AcDbLine
 10
315.623009265
 20
20.49872501
 30
0.0
 11
315.623009265
 21
21.4493788266
 31
0.0
  0
ARC
  5
71
330
3A
100
AcDbEntity
  8
0
  6
Continuous
 62
     7
100
AcDbCircle
 10
314.0003620317
 20
18.7008009792
 30
0.0
 40
1.111619360599997
100
AcDbArc
 50
277.7099956934
 51
295.6884927746
  0
ARC
  5
72
330
3A
100
AcDbEntity
  8
0
  6
Continuous
 62
     7
100
AcDbCircle
 10
314.2846720145
 20
17.9759752156
 30
0.0
 40
0.3401689265
100
AcDbArc
 50
305.503221255
 51
72.46528985229999
  0
ARC
  5
73
330
3A
100
AcDbEntity
  8
0
  6
Continuous
 62
     7
100
AcDbCircle
 10
313.7186782063
 20
21.3776821252
 30
0.0
 40
4.756794641099999
100
AcDbArc
 50
252.5939200548001
 51
280.9816604256
  0
ARC
  5
74
330
3A
100
AcDbEntity
  8
0
  6
Continuous
 62
     7
100
AcDbCircle
 10
314.1735135694
 20
18.7596683887
 30
0.0
 40
2.100726595299998
100
AcDbArc
 50
282.405835852
 51
311.8644433928
  0
ARC
  5
75
330
3A
100
AcDbEntity
  8
0
  6
Continuous
 62
     7
100
AcDbCircle
 10
313.8999492223
 20
20.3680101102
 30
0.0
 40
0.3029626476
100
AcDbArc
 50
154.4400348282
 51
221.8201698801
  0
ARC
  5
76
330
3A
100
AcDbEntity
  8
0
  6
Continuous
 62
     7
100
AcDbCircle
 10
313.9791703737
 20
20.2887889588
 30
0.0
 40
0.4103089737
100
AcDbArc
 50
102.8287828681
 51
149.2259639003
  0
ARC
  5
77
330
3A
100
AcDbEntity
  8
0
  6
Continuous
 62
     7
100
AcDbCircle
 10
314.3961972093
 20
18.546453629
 30
0.0
 40
2.201836557
100
AcDbArc
 50
84.0400061857
 51
103.3427657870999
  0
ARC
  5
78
330
3A
100
AcDbEntity
  8
0
  6
Continuous
 62
     7
100
AcDbCircle
 10
314.0552333846
 20
16.1290897051
 30
0.0
 40
4.642373736499997
100
AcDbArc
 50
70.2625858546
 51
82.95241863799999
  0
ARC
  5
79
330
3A
100
AcDbEntity
  8
0
  6
Continuous
 62
     7
100
AcDbCircle
 10
313.5412151824001
 20
20.8007125947
 30
0.0
 40
3.258755990899997
100
AcDbArc
 50
247.5300206145
 51
280.7579522143
  0
ARC
  5
7A
330
3A
100
AcDbEntity
  8
0
  6
Continuous
 62
     7
100
AcDbCircle
 10
307.1562487104
 20
2.5491926343
 30
0.0
 40
17.3316084133
100
AcDbArc
 50
65.34146746500001
 51
67.39977707359999
  0
ARC
  5
7B
330
3A
100
AcDbEntity
  8
0
  6
Continuous
 62
     7
100
AcDbCircle
 10
317.9521111158
 20
28.3416189974
 30
0.0
 40
10.6291642039
100
AcDbArc
 50
242.8620101252001
 51
247.1042029186
  0
ARC
  5
7C
330
3A
100
AcDbEntity
  8
0
  6
Continuous
 62
     7
100
AcDbCircle
 10
314.0972098893
 20
20.8076875004
 30
0.0
 40
2.166291629199998
100
AcDbArc
 50
227.3119280794
 51
242.7040315235
  0
ARC
  5
7D
330
3A
100
AcDbEntity
  8
0
  6
Continuous
 62
     7
100
AcDbCircle
 10
313.4931790796
 20
20.1020098596
 30
0.0
 40
1.238521734
100
AcDbArc
 50
194.7952194236
 51
225.7176549047
  0
ARC
  5
7E
330
3A
100
AcDbEntity
  8
0
  6
Continuous
 62
     7
100
AcDbCircle
 10
313.5553372138
 20
20.1422298287
 30
0.0
 40
1.309092072899999
100
AcDbArc
 50
164.1974860461
 51
195.8025139539
  0
ARC
  5
7F
330
3A
100
AcDbEntity
  8
0
  6
Continuous
 62
     7
100
AcDbCircle
 10
314.1123609345001
 20
19.2539626688
 30
0.0
 40
2.366924815299999
100
AcDbArc
 50
86.22180229280001
 51
120.4272602309
  0
ARC
  5
80
330
3A
100
AcDbEntity
  8
0
  6
Continuous
 62
     7
100
AcDbCircle
 10
313.8435041519
 20
12.5577948477
 30
0.0
 40
9.0679051661
100
AcDbArc
 50
78.68270492259998
 51
87.3147599624
  0
ARC
  5
81
330
3A
100
AcDbEntity
  8
0
  6
Continuous
 62
     7
100
AcDbCircle
 10
313.3874349735
 20
20.2497375912
 30
0.0
 40
1.119747444
100
AcDbArc
 50
142.813917903
 51
167.1522951417
  0
ARC
  5
82
330
3A
100
AcDbEntity
  8
0
  6
Continuous
 62
     7
100
AcDbCircle
 10
313.7327443151
 20
19.9431558946
 30
0.0
 40
1.580546684499998
100
AcDbArc
 50
121.2140948535
 51
141.5254768286
  0
ARC
  5
83
330
3A
100
AcDbEntity
  8
0
  6
Continuous
 62
     7
100
AcDbCircle
 10
314.3099186807
 20
20.7542132232
 30
0.0
 40
0.8661276051999998
100
AcDbArc
 50
222.7760387596
 51
239.0362434679
  0
ARC
  5
84
330
3A
100
AcDbEntity
  8
0
  6
Continuous
 62
     7
100
AcDbCircle
 10
311.8032091024
 20
13.4239410246
 30
0.0
 40
6.858773576299999
100
AcDbArc
 50
59.90202725600001
 51
68.2036481279
  0
ARC
  5
85
330
3A
100
AcDbEntity
  8
0
  6
Continuous
 62
     7
100
AcDbCircle
 10
315.2117035963
 20
22.3498275319
 30
0.0
 40
2.698741017099999
100
AcDbArc
 50
240.0481997804
 51
251.3779673736999
  0
ARC
  5
86
330
3A
100
AcDbEntity
  8
0
  6
Continuous
 62
     7
100
AcDbCircle
 10
314.5462464295
 20
18.1929289165
 30
0.0
 40
1.4334474881
100
AcDbArc
 50
315.8904553224
 51
333.5229264373
  0
ARC
  5
87
330
3A
100
AcDbEntity
  8
0
  6
Continuous
 62
     7
100
AcDbCircle
 10
314.5508846732
 20
18.1395217664
 30
0.0
 40
1.406228711899998
100
AcDbArc
 50
335.3867972702
 51
24.3915119402
  0
ARC
  5
88
330
3A
100
AcDbEntity
  8
0
  6
Continuous
 62
     7
100
AcDbCircle
 10
314.4786797697
 20
18.0616650746
 30
0.0
 40
1.504702514799999
100
AcDbArc
 50
25.95629166050001
 51
59.4834829668
  0
LINE
  5
89
330
3A
100
AcDbEntity
  8
0
  6
Continuous
 62
     7
100
AcDbLine
 10
284.7029938783
 20
16.8387078159
 30
0.0
 11
284.7029938783
 21
17.7893616325
 31
0.0
  0
LINE
  5
8A
330
3A
100
AcDbEntity
  8
0
  6
Continuous
 62
     7
100
AcDbLine
 10
288.0302822366
 20
20.49872501
 30
0.0
 11
288.0302822366
 21
21.4493788266
 31
0.0
  0
ARC
  5
8B
330
3A
100
AcDbEntity
  8
0
  6
Continuous
 62
     7
100
AcDbCircle
 10
286.4076350033
 20
18.7008009792
 30
0.0
 40
1.111619360599997
100
AcDbArc
 50
277.7099956934
 51
295.6884927746
  0
ARC
  5
8C
330
3A
100
AcDbEntity
  8
0
  6
Continuous
 62
     7
100
AcDbCircle
 10
286.691944986
 20
17.9759752156
 30
0.0
 40
0.3401689265
100
AcDbArc
 50
305.5032212556
 51
72.4652898515
  0
ARC
  5
8D
330
3A
100
AcDbEntity
  8
0
  6
Continuous
 62
     7
100
AcDbCircle
 10
286.1259511779
 20
21.3776821252
 30
0.0
 40
4.756794641099999
100
AcDbArc
 50
252.5939200545
 51
280.9816604253
  0
ARC
  5
8E
330
3A
100
AcDbEntity
  8
0
  6
Continuous
 62
     7
100
AcDbCircle
 10
286.580786541
 20
18.7596683887
 30
0.0
 40
2.100726595299998
100
AcDbArc
 50
282.4058358513
 51
311.8644433923
  0
ARC
  5
8F
330
3A
100
AcDbEntity
  8
0
  6
Continuous
 62
     7
100
AcDbCircle
 10
286.3072221939
 20
20.3680101102
 30
0.0
 40
0.3029626476
100
AcDbArc
 50
154.4400348282
 51
221.8201698801
  0
ARC
  5
90
330
3A
100
AcDbEntity
  8
0
  6
Continuous
 62
     7
100
AcDbCircle
 10
286.3864433453
 20
20.2887889588
 30
0.0
 40
0.4103089737
100
AcDbArc
 50
102.8287828727
 51
149.2259639027
  0
ARC
  5
91
330
3A
100
AcDbEntity
  8
0
  6
Continuous
 62
     7
100
AcDbCircle
 10
286.8034701809
 20
18.546453629
 30
0.0
 40
2.201836557
100
AcDbArc
 50
84.0400061859
 51
103.3427657872
  0
ARC
  5
92
330
3A
100
AcDbEntity
  8
0
  6
Continuous
 62
     7
100
AcDbCircle
 10
286.4625063562
 20
16.1290897051
 30
0.0
 40
4.642373736499997
100
AcDbArc
 50
70.2625858546
 51
82.9524186379
  0
ARC
  5
93
330
3A
100
AcDbEntity
  8
0
  6
Continuous
 62
     7
100
AcDbCircle
 10
285.948488154
 20
20.8007125947
 30
0.0
 40
3.258755990899997
100
AcDbArc
 50
247.5300206148
 51
280.7579522145
  0
ARC
  5
94
330
3A
100
AcDbEntity
  8
0
  6
Continuous
 62
     7
100
AcDbCircle
 10
279.563521682
 20
2.5491926343
 30
0.0
 40
17.3316084133
100
AcDbArc
 50
65.34146746500001
 51
67.39977707359999
  0
ARC
  5
95
330
3A
100
AcDbEntity
  8
0
  6
Continuous
 62
     7
100
AcDbCircle
 10
290.3593840874
 20
28.3416189974
 30
0.0
 40
10.6291642039
100
AcDbArc
 50
242.8620101252001
 51
247.1042029185
  0
ARC
  5
96
330
3A
100
AcDbEntity
  8
0
  6
Continuous
 62
     7
100
AcDbCircle
 10
286.5044828608
 20
20.8076875004
 30
0.0
 40
2.166291629199998
100
AcDbArc
 50
227.3119280794
 51
242.7040315235
  0
ARC
  5
97
330
3A
100
AcDbEntity
  8
0
  6
Continuous
 62
     7
100
AcDbCircle
 10
285.9004520512
 20
20.1020098596
 30
0.0
 40
1.238521734
100
AcDbArc
 50
194.7952194234
 51
225.7176549042
  0
ARC
  5
98
330
3A
100
AcDbEntity
  8
0
  6
Continuous
 62
     7
100
AcDbCircle
 10
286.519633906
 20
19.2539626688
 30
0.0
 40
2.366924815299999
100
AcDbArc
 50
86.22180229280001
 51
120.4272602309
  0
ARC
  5
99
330
3A
100
AcDbEntity
  8
0
  6
Continuous
 62
     7
100
AcDbCircle
 10
286.2507771235
 20
12.5577948477
 30
0.0
 40
9.0679051661
100
AcDbArc
 50
78.68270492259998
 51
87.3147599624
  0
ARC
  5
9A
330
3A
100
AcDbEntity
  8
0
  6
Continuous
 62
     7
100
AcDbCircle
 10
286.1400172867
 20
19.9431558946
 30
0.0
 40
1.580546684599998
100
AcDbArc
 50
121.2140948541
 51
141.525476829
  0
ARC
  5
9B
330
3A
100
AcDbEntity
  8
0
  6
Continuous
 62
     7
100
AcDbCircle
 10
286.7171916523
 20
20.7542132232
 30
0.0
 40
0.8661276051999998
100
AcDbArc
 50
222.7760387596
 51
239.0362434679
  0
ARC
  5
9C
330
3A
100
AcDbEntity
  8
0
  6
Continuous
 62
     7
100
AcDbCircle
 10
284.210482074
 20
13.4239410246
 30
0.0
 40
6.858773576299999
100
AcDbArc
 50
59.90202725620001
 51
68.20364812820002
  0
ARC
  5
9D
330
3A
100
AcDbEntity
  8
0
  6
Continuous
 62
     7
100
AcDbCircle
 10
287.6189765678
 20
22.3498275319
 30
0.0
 40
2.698741017099999
100
AcDbArc
 50
240.0481997804
 51
251.3779673734
  0
ARC
  5
9E
330
3A
100
AcDbEntity
  8
0
  6
Continuous
 62
     7
100
AcDbCircle
 10
286.953519401
 20
18.1929289165
 30
0.0
 40
1.4334474881
100
AcDbArc
 50
315.8904553226
 51
333.5229264375
  0
ARC
  5
9F
330
3A
100
AcDbEntity
  8
0
  6
Continuous
 62
     7
100
AcDbCircle
 10
286.9581576447
 20
18.1395217664
 30
0.0
 40
1.406228711899998
100
AcDbArc
 50
335.3867972703
 51
24.3915119403
  0
ARC
  5
A0
330
3A
100
AcDbEntity
  8
0
  6
Continuous
 62
     7
100
AcDbCircle
 10
286.8859527412
 20
18.0616650746
 30
0.0
 40
1.504702514699999
100
AcDbArc
 50
25.9562916611
 51
59.4834829676
  0
LINE
  5
A1
330
3A
100
AcDbEntity
  8
0
  6
Continuous
 62
     7
100
AcDbLine
 10
284.8948224676
 20
20.9161059766
 30
0.0
 11
285.1688882922
 21
21.1901790542
 31
0.0
  0
ARC
  5
A2
330
3A
100
AcDbEntity
  8
0
  6
Continuous
 62
     7
100
AcDbCircle
 10
285.9626101853
 20
20.1422298287
 30
0.0
 40
1.309092072899999
100
AcDbArc
 50
164.1974860461
 51
195.8025139539
  0
ARC
  5
A3
330
3A
100
AcDbEntity
  8
0
  6
Continuous
 62
     7
100
AcDbCircle
 10
285.7947079451
 20
20.2497375912
 30
0.0
 40
1.119747444
100
AcDbArc
 50
142.813917903
 51
167.1522951417
  0
ENDBLK
  5
A4
330
3A
100
AcDbEntity
  8
0
100
AcDbBlockEnd
  0
BLOCK
  5
59C2
330
59B7
100
AcDbEntity
  8
0
100
AcDbBlockBegin
  2
*D1
 70
     1
 10
0.0
 20
0.0
 30
0.0
  3
*D1
  1

  0
LINE
  5
633D
330
59B7
100
AcDbEntity
  8
11100_LEFT_DIM
  6
Continuous
 62
     0
370
    -2
100
AcDbLine
 10
310.9318038384935
 20
159.3970040843429
 30
0.0
 11
302.9390140094811
 21
159.3970040843429
 31
0.0
  0
LINE
  5
633E
330
59B7
100
AcDbEntity
  8
11100_LEFT_DIM
  6
Continuous
 62
     0
370
    -2
100
AcDbLine
 10
334.1786038384935
 20
226.128604084343
 30
0.0
 11
302.9390140094811
 21
226.128604084343
 31
0.0
  0
LINE
  5
633F
330
59B7
100
AcDbEntity
  8
11100_LEFT_DIM
  6
Continuous
 62
     0
370
    -2
100
AcDbLine
 10
303.9390140094811
 20
161.3970040843429
 30
0.0
 11
303.9390140094811
 21
188.7811374176763
 31
0.0
  0
LINE
  5
6340
330
59B7
100
AcDbEntity
  8
11100_LEFT_DIM
  6
Continuous
 62
     0
370
    -2
100
AcDbLine
 10
303.9390140094811
 20
224.128604084343
 30
0.0
 11
303.9390140094811
 21
193.1144707510096
 31
0.0
  0
SOLID
  5
6341
330
59B7
100
AcDbEntity
  8
11100_LEFT_DIM
  6
Continuous
 62
     0
100
AcDbTrace
 10
303.6056806761477
 20
161.3970040843429
 30
0.0
 11
304.2723473428144
 21
161.3970040843429
 31
0.0
 12
303.9390140094811
 22
159.3970040843429
 32
0.0
 13
303.9390140094811
 23
159.3970040843429
 33
0.0
  0
SOLID
  5
6342
330
59B7
100
AcDbEntity
  8
11100_LEFT_DIM
  6
Continuous
 62
     0
100
AcDbTrace
 10
303.6056806761477
 20
224.128604084343
 30
0.0
 11
304.2723473428144
 21
224.128604084343
 31
0.0
 12
303.9390140094811
 22
226.128604084343
 32
0.0
 13
303.9390140094811
 23
226.128604084343
 33
0.0
  0
MTEXT
  5
6343
330
59B7
100
AcDbEntity
  8
11100_LEFT_DIM
  6
Continuous
 62
     0
370
    13
100
AcDbMText
 10
303.939014009481
 20
190.947804084343
 30
0.0
 40
3.5
 41
0.0
 71
     5
 72
     1
  1
\A1;B
 11
0.0000000000000001
 21
1.0
 31
0.0
 73
     1
 44
1.0
1001
ACAD
1000
MTEXTBEGIN
1070
    73
1070
     1
1070
    44
1040
1.0
1070
    74
1070
     0
1000
MTEXTEND
  0
POINT
  5
6344
330
59B7
100
AcDbEntity
  8
Defpoints
  6
Continuous
 62
     0
100
AcDbPoint
 10
311.9318038384935
 20
159.3970040843429
 30
0.55
  0
POINT
  5
6345
330
59B7
100
AcDbEntity
  8
Defpoints
  6
Continuous
 62
     0
100
AcDbPoint
 10
335.1786038384935
 20
226.128604084343
 30
0.0
  0
POINT
  5
6346
330
59B7
100
AcDbEntity
  8
Defpoints
  6
Continuous
 62
     0
100
AcDbPoint
 10
303.9390140094811
 20
226.128604084343
 30
0.0
  0
ENDBLK
  5
59C3
330
59B7
100
AcDbEntity
  8
0
100
AcDbBlockEnd
  0
BLOCK
  5
59CF
330
59C4
100
AcDbEntity
  8
0
100
AcDbBlockBegin
  2
*D2
 70
     1
 10
0.0
 20
0.0
 30
0.0
  3
*D2
  1

  0
LINE
  5
6333
330
59C4
100
AcDbEntity
  8
11100_LEFT_DIM
  6
Continuous
 62
     0
370
    -2
100
AcDbLine
 10
313.3786038384936
 20
115.490904084343
 30
0.0
 11
295.368716885625
 21
115.490904084343
 31
0.0
  0
LINE
  5
6334
330
59C4
100
AcDbEntity
  8
11100_LEFT_DIM
  6
Continuous
 62
     0
370
    -2
100
AcDbLine
 10
334.1786038384935
 20
226.128604084343
 30
0.0
 11
295.3687168856251
 21
226.128604084343
 31
0.0
  0
LINE
  5
6335
330
59C4
100
AcDbEntity
  8
11100_LEFT_DIM
  6
Continuous
 62
     0
370
    -2
100
AcDbLine
 10
296.368716885625
 20
117.490904084343
 30
0.0
 11
296.3687168856251
 21
167.1530874176764
 31
0.0
  0
LINE
  5
6336
330
59C4
100
AcDbEntity
  8
11100_LEFT_DIM
  6
Continuous
 62
     0
370
    -2
100
AcDbLine
 10
296.3687168856251
 20
224.128604084343
 30
0.0
 11
296.3687168856251
 21
171.4864207510097
 31
0.0
  0
SOLID
  5
6337
330
59C4
100
AcDbEntity
  8
11100_LEFT_DIM
  6
Continuous
 62
     0
100
AcDbTrace
 10
296.0353835522917
 20
117.490904084343
 30
0.0
 11
296.7020502189583
 21
117.490904084343
 31
0.0
 12
296.368716885625
 22
115.490904084343
 32
0.0
 13
296.368716885625
 23
115.490904084343
 33
0.0
  0
SOLID
  5
6338
330
59C4
100
AcDbEntity
  8
11100_LEFT_DIM
  6
Continuous
 62
     0
100
AcDbTrace
 10
296.0353835522917
 20
224.128604084343
 30
0.0
 11
296.7020502189584
 21
224.128604084343
 31
0.0
 12
296.3687168856251
 22
226.128604084343
 32
0.0
 13
296.3687168856251
 23
226.128604084343
 33
0.0
  0
MTEXT
  5
6339
330
59C4
100
AcDbEntity
  8
11100_LEFT_DIM
  6
Continuous
 62
     0
370
    13
100
AcDbMText
 10
296.368716885625
 20
169.3197540843431
 30
0.0
 40
3.5
 41
0.0
 71
     5
 72
     1
  1
\A1;A
 11
0.0000000000000001
 21
1.0
 31
0.0
 73
     1
 44
1.0
1001
ACAD
1000
MTEXTBEGIN
1070
    73
1070
     1
1070
    44
1040
1.0
1070
    74
1070
     0
1000
MTEXTEND
  0
POINT
  5
633A
330
59C4
100
AcDbEntity
  8
Defpoints
  6
Continuous
 62
     0
100
AcDbPoint
 10
314.3786038384936
 20
115.490904084343
 30
0.0
  0
POINT
  5
633B
330
59C4
100
AcDbEntity
  8
Defpoints
  6
Continuous
 62
     0
100
AcDbPoint
 10
335.1786038384935
 20
226.128604084343
 30
0.0
  0
POINT
  5
633C
330
59C4
100
AcDbEntity
  8
Defpoints
  6
Continuous
 62
     0
100
AcDbPoint
 10
296.3687168856251
 20
226.128604084343
 30
0.0
  0
ENDBLK
  5
59D0
330
59C4
100
AcDbEntity
  8
0
100
AcDbBlockEnd
  0
BLOCK
  5
5A10
330
5A05
100
AcDbEntity
  8
0
100
AcDbBlockBegin
  2
*D3
 70
     1
 10
0.0
 20
0.0
 30
0.0
  3
*D3
  1

  0
LINE
  5
6351
330
5A05
100
AcDbEntity
  8
11100_LEFT_DIM
  6
Continuous
 62
     0
370
    -2
100
AcDbLine
 10
349.5786038384935
 20
227.648604084343
 30
0.0
 11
349.5786038384935
 21
233.0744332152695
 31
0.0
  0
LINE
  5
6352
330
5A05
100
AcDbEntity
  8
11100_LEFT_DIM
  6
Continuous
 62
     0
370
    -2
100
AcDbLine
 10
362.5786038384934
 20
226.648604084343
 30
0.0
 11
362.5786038384934
 21
233.0744332152695
 31
0.0
  0
LINE
  5
6353
330
5A05
100
AcDbEntity
  8
11100_LEFT_DIM
  6
Continuous
 62
     0
370
    -2
100
AcDbLine
 10
351.5786038384935
 20
232.0744332152695
 30
0.0
 11
352.6920031301193
 21
232.0744332152695
 31
0.0
  0
LINE
  5
6354
330
5A05
100
AcDbEntity
  8
11100_LEFT_DIM
  6
Continuous
 62
     0
370
    -2
100
AcDbLine
 10
360.5786038384934
 20
232.0744332152695
 30
0.0
 11
359.3586697967859
 21
232.0744332152695
 31
0.0
  0
SOLID
  5
6355
330
5A05
100
AcDbEntity
  8
11100_LEFT_DIM
  6
Continuous
 62
     0
100
AcDbTrace
 10
351.5786038384935
 20
232.4077665486029
 30
0.0
 11
351.5786038384935
 21
231.7410998819362
 31
0.0
 12
349.5786038384935
 22
232.0744332152695
 32
0.0
 13
349.5786038384935
 23
232.0744332152695
 33
0.0
  0
SOLID
  5
6356
330
5A05
100
AcDbEntity
  8
11100_LEFT_DIM
  6
Continuous
 62
     0
100
AcDbTrace
 10
360.5786038384934
 20
232.4077665486029
 30
0.0
 11
360.5786038384934
 21
231.7410998819362
 31
0.0
 12
362.5786038384934
 22
232.0744332152695
 32
0.0
 13
362.5786038384934
 23
232.0744332152695
 33
0.0
  0
MTEXT
  5
6357
330
5A05
100
AcDbEntity
  8
11100_LEFT_DIM
  6
Continuous
 62
     0
370
    13
100
AcDbMText
 10
356.0253364634526
 20
232.0744332152695
 30
0.0
 40
3.5
 41
0.0
 71
     5
 72
     1
  1
\A1;13
 73
     1
 44
1.0
1001
ACAD
1000
MTEXTBEGIN
1070
    73
1070
     1
1070
    44
1040
1.0
1070
    74
1070
     0
1000
MTEXTEND
  0
POINT
  5
6358
330
5A05
100
AcDbEntity
  8
Defpoints
  6
Continuous
 62
     0
100
AcDbPoint
 10
349.5786038384935
 20
226.648604084343
 30
0.0
  0
POINT
  5
6359
330
5A05
100
AcDbEntity
  8
Defpoints
  6
Continuous
 62
     0
100
AcDbPoint
 10
362.5786038384934
 20
225.648604084343
 30
0.0
  0
POINT
  5
635A
330
5A05
100
AcDbEntity
  8
Defpoints
  6
Continuous
 62
     0
100
AcDbPoint
 10
362.5786038384934
 20
232.0744332152695
 30
0.0
  0
ENDBLK
  5
5A11
330
5A05
100
AcDbEntity
  8
0
100
AcDbBlockEnd
  0
BLOCK
  5
5A1D
330
5A12
100
AcDbEntity
  8
0
100
AcDbBlockBegin
  2
*D4
 70
     1
 10
0.0
 20
0.0
 30
0.0
  3
*D4
  1

  0
LINE
  5
6347
330
5A12
100
AcDbEntity
  8
11100_LEFT_DIM
  6
Continuous
 62
     0
370
    -2
100
AcDbLine
 10
363.5716479342742
 20
226.128604084343
 30
0.0
 11
370.7299568083288
 21
226.128604084343
 31
0.0
  0
LINE
  5
6348
330
5A12
100
AcDbEntity
  8
11100_LEFT_DIM
  6
Continuous
 62
     0
370
    -2
100
AcDbLine
 10
363.5716479342742
 20
204.648604084343
 30
0.0
 11
370.7299568083288
 21
204.648604084343
 31
0.0
  0
LINE
  5
6349
330
5A12
100
AcDbEntity
  8
11100_LEFT_DIM
  6
Continuous
 62
     0
370
    -2
100
AcDbLine
 10
369.7299568083288
 20
224.128604084343
 30
0.0
 11
369.7299568083288
 21
218.7219374176763
 31
0.0
  0
LINE
  5
634A
330
5A12
100
AcDbEntity
  8
11100_LEFT_DIM
  6
Continuous
 62
     0
370
    -2
100
AcDbLine
 10
369.7299568083288
 20
206.648604084343
 30
0.0
 11
369.7299568083288
 21
212.0552707510096
 31
0.0
  0
SOLID
  5
634B
330
5A12
100
AcDbEntity
  8
11100_LEFT_DIM
  6
Continuous
 62
     0
100
AcDbTrace
 10
369.3966234749955
 20
224.128604084343
 30
0.0
 11
370.0632901416621
 21
224.128604084343
 31
0.0
 12
369.7299568083288
 22
226.128604084343
 32
0.0
 13
369.7299568083288
 23
226.128604084343
 33
0.0
  0
SOLID
  5
634C
330
5A12
100
AcDbEntity
  8
11100_LEFT_DIM
  6
Continuous
 62
     0
100
AcDbTrace
 10
369.3966234749955
 20
206.648604084343
 30
0.0
 11
370.0632901416621
 21
206.648604084343
 31
0.0
 12
369.7299568083288
 22
204.648604084343
 32
0.0
 13
369.7299568083288
 23
204.648604084343
 33
0.0
  0
MTEXT
  5
634D
330
5A12
100
AcDbEntity
  8
11100_LEFT_DIM
  6
Continuous
 62
     0
370
    13
100
AcDbMText
 10
369.7299568083287
 20
215.388604084343
 30
0.0
 40
3.5
 41
0.0
 71
     5
 72
     1
  1
\A1;21
 11
0.0000000000000001
 21
1.0
 31
0.0
 73
     1
 44
1.0
1001
ACAD
1000
MTEXTBEGIN
1070
    73
1070
     1
1070
    44
1040
1.0
1070
    74
1070
     0
1000
MTEXTEND
  0
POINT
  5
634E
330
5A12
100
AcDbEntity
  8
Defpoints
  6
Continuous
 62
     0
100
AcDbPoint
 10
362.5716479342742
 20
226.128604084343
 30
0.0
  0
POINT
  5
634F
330
5A12
100
AcDbEntity
  8
Defpoints
  6
Continuous
 62
     0
100
AcDbPoint
 10
362.5716479342742
 20
204.648604084343
 30
0.0
  0
POINT
  5
6350
330
5A12
100
AcDbEntity
  8
Defpoints
  6
Continuous
 62
     0
100
AcDbPoint
 10
369.7299568083288
 20
204.648604084343
 30
0.0
  0
ENDBLK
  5
5A1E
330
5A12
100
AcDbEntity
  8
0
100
AcDbBlockEnd
  0
BLOCK
  5
61C2
330
61B7
100
AcDbEntity
  8
0
100
AcDbBlockBegin
  2
*D5
 70
     1
 10
0.0
 20
0.0
 30
0.0
  3
*D5
  1

  0
LINE
  5
630B
330
61B7
100
AcDbEntity
  8
10100_FRONT_DIM
  6
Continuous
 62
     7
370
    -2
100
AcDbLine
 10
66.0568058924947
 20
196.971004064347
 30
0.0
 11
66.0568058924947
 21
179.9599904651923
 31
0.0
  0
LINE
  5
630C
330
61B7
100
AcDbEntity
  8
10100_FRONT_DIM
  6
Continuous
 62
     7
370
    -2
100
AcDbLine
 10
121.0568058924947
 20
196.9710040643469
 30
0.0
 11
121.0568058924947
 21
179.9599904651923
 31
0.0
  0
LINE
  5
630D
330
61B7
100
AcDbEntity
  8
10100_FRONT_DIM
  6
Continuous
370
    -2
100
AcDbLine
 10
69.55680589249471
 20
181.9599904651923
 30
0.0
 11
89.14013922582803
 21
181.9599904651923
 31
0.0
  0
LINE
  5
630E
330
61B7
100
AcDbEntity
  8
10100_FRONT_DIM
  6
Continuous
370
    -2
100
AcDbLine
 10
117.5568058924947
 20
181.9599904651923
 30
0.0
 11
97.97347255916138
 21
181.9599904651923
 31
0.0
  0
SOLID
  5
630F
330
61B7
100
AcDbEntity
  8
10100_FRONT_DIM
  6
Continuous
100
AcDbTrace
 10
69.55680589249471
 20
182.5433237985256
 30
0.0
 11
69.55680589249471
 21
181.3766571318589
 31
0.0
 12
66.0568058924947
 22
181.9599904651923
 32
0.0
 13
66.0568058924947
 23
181.9599904651923
 33
0.0
  0
SOLID
  5
6310
330
61B7
100
AcDbEntity
  8
10100_FRONT_DIM
  6
Continuous
100
AcDbTrace
 10
117.5568058924947
 20
182.5433237985256
 30
0.0
 11
117.5568058924947
 21
181.3766571318589
 31
0.0
 12
121.0568058924947
 22
181.9599904651923
 32
0.0
 13
121.0568058924947
 23
181.9599904651923
 33
0.0
  0
MTEXT
  5
6311
330
61B7
100
AcDbEntity
  8
10100_FRONT_DIM
  6
Continuous
 62
     7
370
    13
100
AcDbMText
 10
93.55680589249471
 20
181.9599904651923
 30
0.0
 40
3.5
 41
0.0
 71
     5
 72
     1
  1
\A1;55
 73
     1
 44
1.0
1001
ACAD
1000
MTEXTBEGIN
1070
    73
1070
     1
1070
    44
1040
1.0
1070
    74
1070
     0
1000
MTEXTEND
  0
POINT
  5
6312
330
61B7
100
AcDbEntity
  8
Defpoints
  6
Continuous
 62
     0
100
AcDbPoint
 10
66.0568058924947
 20
196.971004064347
 30
0.0
  0
POINT
  5
6313
330
61B7
100
AcDbEntity
  8
Defpoints
  6
Continuous
 62
     0
100
AcDbPoint
 10
121.0568058924947
 20
196.9710040643469
 30
0.0
  0
POINT
  5
6314
330
61B7
100
AcDbEntity
  8
Defpoints
  6
Continuous
 62
     0
100
AcDbPoint
 10
121.0568058924947
 20
181.9599904651923
 30
0.0
  0
ENDBLK
  5
61C3
330
61B7
100
AcDbEntity
  8
0
100
AcDbBlockEnd
  0
BLOCK
  5
61CF
330
61C4
100
AcDbEntity
  8
0
100
AcDbBlockBegin
  2
*D6
 70
     1
 10
0.0
 20
0.0
 30
0.0
  3
*D6
  1

  0
LINE
  5
6315
330
61C4
100
AcDbEntity
  8
10100_FRONT_DIM
  6
Continuous
 62
     7
370
    -2
100
AcDbLine
 10
61.45680589249479
 20
183.5874355392881
 30
0.0
 11
61.45680589249479
 21
171.3855947625078
 31
0.0
  0
LINE
  5
6316
330
61C4
100
AcDbEntity
  8
10100_FRONT_DIM
  6
Continuous
 62
     7
370
    -2
100
AcDbLine
 10
154.4568058924948
 20
204.971004064347
 30
0.0
 11
154.4568058924948
 21
171.3855947625078
 31
0.0
  0
LINE
  5
6317
330
61C4
100
AcDbEntity
  8
10100_FRONT_DIM
  6
Continuous
370
    -2
100
AcDbLine
 10
64.9568058924948
 20
173.3855947625078
 30
0.0
 11
103.5401392258281
 21
173.3855947625078
 31
0.0
  0
LINE
  5
6318
330
61C4
100
AcDbEntity
  8
10100_FRONT_DIM
  6
Continuous
370
    -2
100
AcDbLine
 10
150.9568058924948
 20
173.3855947625078
 30
0.0
 11
112.3734725591615
 21
173.3855947625078
 31
0.0
  0
SOLID
  5
6319
330
61C4
100
AcDbEntity
  8
10100_FRONT_DIM
  6
Continuous
100
AcDbTrace
 10
64.9568058924948
 20
173.9689280958411
 30
0.0
 11
64.9568058924948
 21
172.8022614291744
 31
0.0
 12
61.45680589249479
 22
173.3855947625078
 32
0.0
 13
61.45680589249479
 23
173.3855947625078
 33
0.0
  0
SOLID
  5
631A
330
61C4
100
AcDbEntity
  8
10100_FRONT_DIM
  6
Continuous
100
AcDbTrace
 10
150.9568058924948
 20
173.9689280958411
 30
0.0
 11
150.9568058924948
 21
172.8022614291744
 31
0.0
 12
154.4568058924948
 22
173.3855947625078
 32
0.0
 13
154.4568058924948
 23
173.3855947625078
 33
0.0
  0
MTEXT
  5
631B
330
61C4
100
AcDbEntity
  8
10100_FRONT_DIM
  6
Continuous
 62
     7
370
    13
100
AcDbMText
 10
107.9568058924948
 20
173.3855947625078
 30
0.0
 40
3.5
 41
0.0
 71
     5
 72
     1
  1
\A1;93
 73
     1
 44
1.0
1001
ACAD
1000
MTEXTBEGIN
1070
    73
1070
     1
1070
    44
1040
1.0
1070
    74
1070
     0
1000
MTEXTEND
  0
POINT
  5
631C
330
61C4
100
AcDbEntity
  8
Defpoints
  6
Continuous
 62
     0
100
AcDbPoint
 10
61.45680589249479
 20
183.5874355392881
 30
0.0
  0
POINT
  5
631D
330
61C4
100
AcDbEntity
  8
Defpoints
  6
Continuous
 62
     0
100
AcDbPoint
 10
154.4568058924948
 20
204.971004064347
 30
0.0
  0
POINT
  5
631E
330
61C4
100
AcDbEntity
  8
Defpoints
  6
Continuous
 62
     0
100
AcDbPoint
 10
154.4568058924948
 20
173.3855947625078
 30
0.0
  0
ENDBLK
  5
61D0
330
61C4
100
AcDbEntity
  8
0
100
AcDbBlockEnd
  0
BLOCK
  5
61DC
330
61D1
100
AcDbEntity
  8
0
100
AcDbBlockBegin
  2
*D7
 70
     1
 10
0.0
 20
0.0
 30
0.0
  3
*D7
  1

  0
LINE
  5
631F
330
61D1
100
AcDbEntity
  8
10100_FRONT_DIM
  6
Continuous
 62
     7
370
    -2
100
AcDbLine
 10
61.45680589249479
 20
183.5874355392881
 30
0.0
 11
61.45680589249479
 21
162.2038670142292
 31
0.0
  0
LINE
  5
6320
330
61D1
100
AcDbEntity
  8
10100_FRONT_DIM
  6
Continuous
 62
     7
370
    -2
100
AcDbLine
 10
209.4568058924948
 20
204.971004064347
 30
0.0
 11
209.4568058924948
 21
162.2038670142292
 31
0.0
  0
LINE
  5
6321
330
61D1
100
AcDbEntity
  8
10100_FRONT_DIM
  6
Continuous
370
    -2
100
AcDbLine
 10
64.9568058924948
 20
164.2038670142292
 30
0.0
 11
129.8734725591614
 21
164.2038670142292
 31
0.0
  0
LINE
  5
6322
330
61D1
100
AcDbEntity
  8
10100_FRONT_DIM
  6
Continuous
370
    -2
100
AcDbLine
 10
205.9568058924948
 20
164.2038670142292
 30
0.0
 11
141.0401392258281
 21
164.2038670142292
 31
0.0
  0
SOLID
  5
6323
330
61D1
100
AcDbEntity
  8
10100_FRONT_DIM
  6
Continuous
100
AcDbTrace
 10
64.9568058924948
 20
164.7872003475625
 30
0.0
 11
64.9568058924948
 21
163.6205336808958
 31
0.0
 12
61.45680589249479
 22
164.2038670142292
 32
0.0
 13
61.45680589249479
 23
164.2038670142292
 33
0.0
  0
SOLID
  5
6324
330
61D1
100
AcDbEntity
  8
10100_FRONT_DIM
  6
Continuous
100
AcDbTrace
 10
205.9568058924948
 20
164.7872003475625
 30
0.0
 11
205.9568058924948
 21
163.6205336808958
 31
0.0
 12
209.4568058924948
 22
164.2038670142292
 32
0.0
 13
209.4568058924948
 23
164.2038670142292
 33
0.0
  0
MTEXT
  5
6325
330
61D1
100
AcDbEntity
  8
10100_FRONT_DIM
  6
Continuous
 62
     7
370
    13
100
AcDbMText
 10
135.4568058924948
 20
164.2038670142292
 30
0.0
 40
3.5
 41
0.0
 71
     5
 72
     1
  1
\A1;148
 73
     1
 44
1.0
1001
ACAD
1000
MTEXTBEGIN
1070
    73
1070
     1
1070
    44
1040
1.0
1070
    74
1070
     0
1000
MTEXTEND
  0
POINT
  5
6326
330
61D1
100
AcDbEntity
  8
Defpoints
  6
Continuous
 62
     0
100
AcDbPoint
 10
61.45680589249479
 20
183.5874355392881
 30
0.0
  0
POINT
  5
6327
330
61D1
100
AcDbEntity
  8
Defpoints
  6
Continuous
 62
     0
100
AcDbPoint
 10
209.4568058924948
 20
204.971004064347
 30
0.0
  0
POINT
  5
6328
330
61D1
100
AcDbEntity
  8
Defpoints
  6
Continuous
 62
     0
100
AcDbPoint
 10
209.4568058924948
 20
164.2038670142292
 30
0.0
  0
ENDBLK
  5
61DD
330
61D1
100
AcDbEntity
  8
0
100
AcDbBlockEnd
  0
BLOCK
  5
61E9
330
61DE
100
AcDbEntity
  8
0
100
AcDbBlockBegin
  2
*D8
 70
     1
 10
0.0
 20
0.0
 30
0.0
  3
*D8
  1

  0
LINE
  5
6329
330
61DE
100
AcDbEntity
  8
10100_FRONT_DIM
  6
Continuous
 62
     7
370
    -2
100
AcDbLine
 10
61.45680589249479
 20
204.971004064347
 30
0.0
 11
61.45680589249479
 21
152.9426898278421
 31
0.0
  0
LINE
  5
632A
330
61DE
100
AcDbEntity
  8
10100_FRONT_DIM
  6
Continuous
 62
     7
370
    -2
100
AcDbLine
 10
264.4568058924948
 20
204.971004064347
 30
0.0
 11
264.4568058924948
 21
152.9426898278421
 31
0.0
  0
LINE
  5
632B
330
61DE
100
AcDbEntity
  8
10100_FRONT_DIM
  6
Continuous
370
    -2
100
AcDbLine
 10
64.9568058924948
 20
154.9426898278421
 30
0.0
 11
157.0818058924948
 21
154.9426898278421
 31
0.0
  0
LINE
  5
632C
330
61DE
100
AcDbEntity
  8
10100_FRONT_DIM
  6
Continuous
370
    -2
100
AcDbLine
 10
260.9568058924948
 20
154.9426898278421
 30
0.0
 11
168.8318058924948
 21
154.9426898278421
 31
0.0
  0
SOLID
  5
632D
330
61DE
100
AcDbEntity
  8
10100_FRONT_DIM
  6
Continuous
100
AcDbTrace
 10
64.9568058924948
 20
155.5260231611754
 30
0.0
 11
64.9568058924948
 21
154.3593564945087
 31
0.0
 12
61.45680589249479
 22
154.9426898278421
 32
0.0
 13
61.45680589249479
 23
154.9426898278421
 33
0.0
  0
SOLID
  5
632E
330
61DE
100
AcDbEntity
  8
10100_FRONT_DIM
  6
Continuous
100
AcDbTrace
 10
260.9568058924948
 20
155.5260231611754
 30
0.0
 11
260.9568058924948
 21
154.3593564945087
 31
0.0
 12
264.4568058924948
 22
154.9426898278421
 32
0.0
 13
264.4568058924948
 23
154.9426898278421
 33
0.0
  0
MTEXT
  5
632F
330
61DE
100
AcDbEntity
  8
10100_FRONT_DIM
  6
Continuous
 62
     7
370
    13
100
AcDbMText
 10
162.9568058924948
 20
154.9426898278421
 30
0.0
 40
3.5
 41
0.0
 71
     5
 72
     1
  1
\A1;203
 73
     1
 44
1.0
1001
ACAD
1000
MTEXTBEGIN
1070
    73
1070
     1
1070
    44
1040
1.0
1070
    74
1070
     0
1000
MTEXTEND
  0
POINT
  5
6330
330
61DE
100
AcDbEntity
  8
Defpoints
  6
Continuous
 62
     0
100
AcDbPoint
 10
61.45680589249479
 20
204.971004064347
 30
0.0
  0
POINT
  5
6331
330
61DE
100
AcDbEntity
  8
Defpoints
  6
Continuous
 62
     0
100
AcDbPoint
 10
264.4568058924948
 20
204.971004064347
 30
0.0
  0
POINT
  5
6332
330
61DE
100
AcDbEntity
  8
Defpoints
  6
Continuous
 62
     0
100
AcDbPoint
 10
264.4568058924948
 20
154.9426898278421
 30
0.0
  0
ENDBLK
  5
61EA
330
61DE
100
AcDbEntity
  8
0
100
AcDbBlockEnd
  0
BLOCK
  5
61F6
330
61EB
100
AcDbEntity
  8
0
100
AcDbBlockBegin
  2
*D9
 70
     1
 10
0.0
 20
0.0
 30
0.0
  3
*D9
  1

  0
LINE
  5
6284
330
61EB
100
AcDbEntity
  8
10100_FRONT_DIM
  6
Continuous
 62
     7
370
    -2
100
AcDbLine
 10
30.30280271162917
 20
204.971004064347
 30
0.0
 11
30.30280271162917
 21
144.5370850186948
 31
0.0
  0
LINE
  5
6285
330
61EB
100
AcDbEntity
  8
10100_FRONT_DIM
  6
Continuous
 62
     7
370
    -2
100
AcDbLine
 10
288.2705952401876
 20
204.971004064347
 30
0.0
 11
288.2705952401876
 21
144.5370850186948
 31
0.0
  0
LINE
  5
6286
330
61EB
100
AcDbEntity
  8
10100_FRONT_DIM
  6
Continuous
370
    -2
100
AcDbLine
 10
33.80280271162917
 20
146.5370850186948
 30
0.0
 11
153.1200323092417
 21
146.5370850186948
 31
0.0
  0
LINE
  5
6287
330
61EB
100
AcDbEntity
  8
10100_FRONT_DIM
  6
Continuous
370
    -2
100
AcDbLine
 10
284.7705952401876
 20
146.5370850186948
 30
0.0
 11
165.453365642575
 21
146.5370850186948
 31
0.0
  0
SOLID
  5
6288
330
61EB
100
AcDbEntity
  8
10100_FRONT_DIM
  6
Continuous
100
AcDbTrace
 10
33.80280271162917
 20
147.1204183520281
 30
0.0
 11
33.80280271162917
 21
145.9537516853615
 31
0.0
 12
30.30280271162917
 22
146.5370850186948
 32
0.0
 13
30.30280271162917
 23
146.5370850186948
 33
0.0
  0
SOLID
  5
6289
330
61EB
100
AcDbEntity
  8
10100_FRONT_DIM
  6
Continuous
100
AcDbTrace
 10
284.7705952401876
 20
147.1204183520281
 30
0.0
 11
284.7705952401876
 21
145.9537516853615
 31
0.0
 12
288.2705952401876
 22
146.5370850186948
 32
0.0
 13
288.2705952401876
 23
146.5370850186948
 33
0.0
  0
MTEXT
  5
628A
330
61EB
100
AcDbEntity
  8
10100_FRONT_DIM
  6
Continuous
 62
     7
370
    13
100
AcDbMText
 10
159.2866989759084
 20
146.5370850186948
 30
0.0
 40
3.5
 41
0.0
 71
     5
 72
     1
  1
\A1;258
 73
     1
 44
1.0
1001
ACAD
1000
MTEXTBEGIN
1070
    73
1070
     1
1070
    44
1040
1.0
1070
    74
1070
     0
1000
MTEXTEND
  0
POINT
  5
628B
330
61EB
100
AcDbEntity
  8
Defpoints
  6
Continuous
 62
     0
100
AcDbPoint
 10
30.30280271162917
 20
204.971004064347
 30
0.0
  0
POINT
  5
628C
330
61EB
100
AcDbEntity
  8
Defpoints
  6
Continuous
 62
     0
100
AcDbPoint
 10
288.2705952401876
 20
204.971004064347
 30
0.0
  0
POINT
  5
628D
330
61EB
100
AcDbEntity
  8
Defpoints
  6
Continuous
 62
     0
100
AcDbPoint
 10
288.2705952401876
 20
146.5370850186948
 30
0.0
  0
ENDBLK
  5
61F7
330
61EB
100
AcDbEntity
  8
0
100
AcDbBlockEnd
  0
ENDSEC
  0
SECTION
  2
ENTITIES
  0
INSERT
  5
AA
330
20
100
AcDbEntity
  8
90000_FRAME
  6
Continuous
 62
     7
100
AcDbBlockReference
  2
SIEMENS_OUTLINE_BL0
 10
0.0
 20
0.0
 30
0.0
  0
LINE
  5
AB
330
20
100
AcDbEntity
  8
90000_FRAME
  6
Continuous
 62
     7
100
AcDbLine
 10
275.0
 20
10.0
 30
0.0
 11
410.0
 21
10.0
 31
0.0
  0
LINE
  5
AC
330
20
100
AcDbEntity
  8
90000_FRAME
  6
Continuous
 62
     7
100
AcDbLine
 10
275.0
 20
10.0
 30
0.0
 11
275.0
 21
28.0
 31
0.0
  0
LINE
  5
AD
330
20
100
AcDbEntity
  8
90000_FRAME
  6
Continuous
 62
     7
100
AcDbLine
 10
325.0
 20
16.0
 30
0.0
 11
410.0
 21
16.0
 31
0.0
  0
LINE
  5
AE
330
20
100
AcDbEntity
  8
90000_FRAME
  6
Continuous
 62
     7
100
AcDbLine
 10
275.0
 20
28.0
 30
0.0
 11
410.0
 21
28.0
 31
0.0
  0
LINE
  5
AF
330
20
100
AcDbEntity
  8
90000_FRAME
  6
Continuous
 62
     7
100
AcDbLine
 10
325.0
 20
10.0
 30
0.0
 11
325.0
 21
28.0
 31
0.0
  0
LINE
  5
B0
330
20
100
AcDbEntity
  8
90000_FRAME
  6
Continuous
 62
     7
100
AcDbLine
 10
367.5
 20
10.0
 30
0.0
 11
367.5
 21
16.0
 31
0.0
  0
LINE
  5
B1
330
20
100
AcDbEntity
  8
90000_FRAME
  6
Continuous
 62
     7
100
AcDbLine
 10
410.0
 20
10.0
 30
0.0
 11
410.0
 21
28.0
 31
0.0
  0
TEXT
  5
B2
330
20
100
AcDbEntity
  8
90000_FRAME
  6
Continuous
 62
     7
100
AcDbText
 10
325.66
 20
11.9
 30
0.0
 40
2.2
  1
Format / Size: DIN A3
 41
0.7994987468660284
 72
     5
 11
359.079047619
 21
11.9
 31
0.0
100
AcDbText
  0
TEXT
  5
B3
330
20
100
AcDbEntity
  8
90000_FRAME
  6
Continuous
 62
     7
100
AcDbText
 10
368.16
 20
11.9
 30
0.0
 40
2.2
  1
Massstab / Scale: 1:1
 41
0.7732634338148471
 72
     5
 11
399.0647619048001
 21
11.9
 31
0.0
100
AcDbText
  0
LINE
  5
B7
330
20
100
AcDbEntity
  8
90000_FRAME
  6
Continuous
 62
     7
100
AcDbLine
 10
10.0
 20
0.0
 30
0.0
 11
420.0
 21
0.0
 31
0.0
  0
LINE
  5
B9
330
20
100
AcDbEntity
  8
90000_FRAME
  6
Continuous
 62
     7
100
AcDbLine
 10
420.0
 20
0.0
 30
0.0
 11
420.0
 21
270.0
 31
0.0
  0
LINE
  5
20F5
330
20
100
AcDbEntity
  8
91000_TIP
  6
Continuous
 62
     7
100
AcDbLine
 10
249.8146701040259
 20
21.32373752237061
 30
0.0
 11
259.814669899826
 21
23.82373747137058
 31
0.0
  0
LINE
  5
20F6
330
20
100
AcDbEntity
  8
91000_TIP
  6
CENTER
 62
     7
100
AcDbLine
 10
248.5351596320249
 20
18.82373757347062
 30
0.0
 11
272.1371488961249
 21
18.82373757347062
 31
0.0
  0
LINE
  5
20F7
330
20
100
AcDbEntity
  8
91000_TIP
  6
Continuous
 62
     7
100
AcDbLine
 10
249.8146701040259
 20
16.32373762457058
 30
0.0
 11
259.814669899826
 21
13.8237376755705
 31
0.0
  0
LINE
  5
20F8
330
20
100
AcDbEntity
  8
91000_TIP
  6
Continuous
 62
     7
100
AcDbLine
 10
249.8146701040259
 20
21.32373752237061
 30
0.0
 11
249.8146701040259
 21
16.32373762457058
 31
0.0
  0
LINE
  5
20F9
330
20
100
AcDbEntity
  8
91000_TIP
  6
Continuous
 62
     7
100
AcDbLine
 10
259.814669899826
 20
23.82373747137058
 30
0.0
 11
259.814669899826
 21
13.8237376755705
 31
0.0
  0
LINE
  5
20FA
330
20
100
AcDbEntity
  8
91000_TIP
  6
CENTER
 62
     7
100
AcDbLine
 10
266.3146697670259
 20
13.10225636707057
 30
0.0
 11
266.3146697670259
 21
24.38564236707057
 31
0.0
  0
CIRCLE
  5
20FB
330
20
100
AcDbEntity
  8
91000_TIP
  6
Continuous
 62
     7
100
AcDbCircle
 10
266.3146697670259
 20
18.82373757347062
 30
0.0
 40
4.9999998979
  0
CIRCLE
  5
20FC
330
20
100
AcDbEntity
  8
91000_TIP
  6
Continuous
 62
     7
100
AcDbCircle
 10
266.3146697670259
 20
18.82373757347062
 30
0.0
 40
2.499999948899997
  0
TEXT
  5
2196
330
20
100
AcDbEntity
  8
90000_FRAME
  6
Continuous
 62
     7
100
AcDbText
 10
338.3059245239508
 20
20.25
 30
0.0
 40
3.5
  1
3RV191__00000164_000_ALL
 41
0.7373033857474686
 72
     5
 11
394.2180979431339
 21
20.25
 31
0.0
100
AcDbText
  0
TEXT
  5
2FDF
330
20
100
AcDbEntity
  8
91000_TIP
  6
Continuous
 62
     7
100
AcDbText
 10
21.2756234532
 20
15.1898618139
 30
0.0
 40
3.5
  1
Alle Bemassungswerte sind in Millimeter (mm) angegeben.
 41
0.7901174168295487
 72
     5
 11
155.8589567865
 21
15.1898618139
 31
0.0
100
AcDbText
  0
TEXT
  5
2FE0
330
20
100
AcDbEntity
  8
91000_TIP
  6
Continuous
 62
     7
100
AcDbText
 10
21.2756234532
 20
9.9398618139
 30
0.0
 40
3.5
  1
All dimensions are in millimeters (mm).
 41
0.831845238095536
 72
     5
 11
114.4422901199
 21
9.9398618139
 31
0.0
100
AcDbText
  0
LINE
  5
4E2A
330
20
100
AcDbEntity
  8
90000_FRAME
  6
Continuous
 62
     7
100
AcDbLine
 10
10.0
 20
0.0
 30
0.0
 11
10.0
 21
270.0
 31
0.0
  0
LINE
  5
4E2B
330
20
100
AcDbEntity
  8
90000_FRAME
  6
Continuous
 62
     7
100
AcDbLine
 10
10.0
 20
270.0
 30
0.0
 11
420.0
 21
270.0
 31
0.0
  0
LINE
  5
5888
330
20
100
AcDbEntity
  8
11100_LEFT_DIM
  6
Continuous
 62
     7
370
    13
100
AcDbLine
 10
205.7759908051245
 20
121.3675793364746
 30
0.0
 11
273.5653135770495
 21
121.3675793364746
 31
0.0
1001
AUSTER_FOLIE
1002
{
1000
NSB00055_3PSSTE45
1002
}
  0
TEXT
  5
5889
330
20
100
AcDbEntity
  8
11100_LEFT_DIM
  6
Continuous
 62
     7
370
    13
100
AcDbText
 10
209.3741307071156
 20
114.5233685524281
 30
0.0
 40
5.0
  1
B
  7
Helvetica
100
AcDbText
1001
AUSTER_FOLIE
1002
{
1000
NSB00055_3PSSTE45
1002
}
  0
TEXT
  5
588A
330
20
100
AcDbEntity
  8
11100_LEFT_DIM
  6
Continuous
 62
     7
370
    13
100
AcDbText
 10
231.8155213311527
 20
114.5233685524281
 30
0.0
 40
5.0
  1
67
  7
Helvetica
100
AcDbText
1001
AUSTER_FOLIE
1002
{
1000
NSB00055_3PSSTE45
1002
}
  0
TEXT
  5
588B
330
20
100
AcDbEntity
  8
11100_LEFT_DIM
  6
Continuous
 62
     7
370
    13
100
AcDbText
 10
260.4904905670661
 20
114.5233685524281
 30
0.0
 40
5.0
  1
70
  7
Helvetica
100
AcDbText
1001
AUSTER_FOLIE
1002
{
1000
NSB00055_3PSSTE45
1002
}
  0
TEXT
  5
588C
330
20
100
AcDbEntity
  8
11100_LEFT_DIM
  6
Continuous
 62
     7
370
    13
100
AcDbText
 10
258.0778704765431
 20
123.4069440863886
 30
0.0
 40
5.0
  1
119
  7
Helvetica
100
AcDbText
1001
AUSTER_FOLIE
1002
{
1000
NSB00055_3PSSTE45
1002
}
  0
TEXT
  5
588D
330
20
100
AcDbEntity
  8
11100_LEFT_DIM
  6
Continuous
 62
     7
370
    13
100
AcDbText
 10
209.3741307071156
 20
123.4069440863886
 30
0.0
 40
5.0
  1
A
  7
Helvetica
100
AcDbText
1001
AUSTER_FOLIE
1002
{
1000
NSB00055_3PSSTE45
1002
}
  0
TEXT
  5
588E
330
20
100
AcDbEntity
  8
11100_LEFT_DIM
  6
Continuous
 62
     7
370
    13
100
AcDbText
 10
229.9394293958136
 20
123.4069440863886
 30
0.0
 40
5.0
  1
111
  7
Helvetica
100
AcDbText
1001
AUSTER_FOLIE
1002
{
1000
NSB00055_3PSSTE45
1002
}
  0
LINE
  5
588F
330
20
100
AcDbEntity
  8
11100_LEFT_DIM
  6
Continuous
 62
     7
370
    13
100
AcDbLine
 10
205.7759908051245
 20
131.5290683775975
 30
0.0
 11
273.5653135770495
 21
131.5290683775975
 31
0.0
1001
AUSTER_FOLIE
1002
{
1000
NSB00055_3PSSTE45
1002
}
  0
TEXT
  5
5890
330
20
100
AcDbEntity
  8
11100_LEFT_DIM
  6
Continuous
 62
     7
370
    13
100
AcDbText
 10
229.9394293958136
 20
136.8115396907988
 30
0.0
 40
5.0
  1
S00
  7
Helvetica
100
AcDbText
1001
AUSTER_FOLIE
1002
{
1000
NSB00055_3PSSTE45
1002
}
  0
TEXT
  5
5891
330
20
100
AcDbEntity
  8
11100_LEFT_DIM
  6
Continuous
 62
     7
370
    13
100
AcDbText
 10
258.0778704765431
 20
136.8115396907988
 30
0.0
 40
5.0
  1
S0
  7
Helvetica
100
AcDbText
1001
AUSTER_FOLIE
1002
{
1000
NSB00055_3PSSTE45
1002
}
  0
LINE
  5
5892
330
20
100
AcDbEntity
  8
11100_LEFT_DIM
  6
Continuous
 62
     7
370
    13
100
AcDbLine
 10
222.5329032838378
 20
141.9355463970632
 30
0.0
 11
222.5329032838378
 21
113.8277146313793
 31
0.0
1001
AUSTER_FOLIE
1002
{
1000
NSB00055_3PSSTE45
1002
}
  0
LINE
  5
5893
330
20
100
AcDbEntity
  8
11100_LEFT_DIM
  6
Continuous
 62
     7
370
    13
100
AcDbLine
 10
250.6713443645673
 20
141.9355463970632
 30
0.0
 11
250.6713443645673
 21
113.8277146313793
 31
0.0
1001
AUSTER_FOLIE
1002
{
1000
NSB00055_3PSSTE45
1002
}
  0
ARC
  5
5894
330
20
100
AcDbEntity
  8
11000_Left
  6
DASHED
 62
     7
370
    20
100
AcDbCircle
 39
0.25
 10
317.9261821372062
 20
144.2413823830555
 30
0.0000000000000001
 40
0.5056529524664213
100
AcDbArc
 50
0.6370108029236052
 51
89.36298919707967
1001
AUSTER_FOLIE
1002
{
1000
NSB00055_3PSSTE45
1002
}
  0
LINE
  5
5895
330
20
100
AcDbEntity
  8
11000_Left
  6
DASHED
 62
     7
370
    20
100
AcDbLine
 39
0.25
 10
318.4318038384934
 20
144.2470040843429
 30
-0.45
 11
318.4318038384934
 21
141.7470040843429
 31
-0.45
1001
AUSTER_ANSICHT
1002
{
1000
SL
1002
}
1001
AUSTER_FOLIE
1002
{
1000
NSB00055_3PSSTE45
1002
}
  0
LINE
  5
5896
330
20
100
AcDbEntity
  8
11000_Left
  6
DASHED
 62
     7
370
    20
100
AcDbLine
 39
0.25
 10
317.4318038384935
 20
144.9970040843429
 30
-0.45
 11
317.4318038384935
 21
144.7470040843429
 31
-0.45
1001
AUSTER_ANSICHT
1002
{
1000
SL
1002
}
1001
AUSTER_FOLIE
1002
{
1000
NSB00055_3PSSTE45
1002
}
  0
LINE
  5
5897
330
20
100
AcDbEntity
  8
11000_Left
  6
DASHED
 62
     7
370
    20
100
AcDbLine
 39
0.25
 10
317.9318038384935
 20
144.7470040843429
 30
-0.45
 11
317.4318038384935
 21
144.7470040843429
 31
-0.45
1001
AUSTER_ANSICHT
1002
{
1000
SL
1002
}
1001
AUSTER_FOLIE
1002
{
1000
NSB00055_3PSSTE45
1002
}
  0
LINE
  5
5898
330
20
100
AcDbEntity
  8
11000_Left
  6
DASHED
 62
     7
370
    20
100
AcDbLine
 39
0.25
 10
318.4318038384934
 20
144.2470040843429
 30
-0.45
 11
318.4318038384934
 21
141.7470040843429
 31
-0.45
1001
AUSTER_ANSICHT
1002
{
1000
SL
1002
}
1001
AUSTER_FOLIE
1002
{
1000
NSB00055_3PSSTE45
1002
}
  0
LINE
  5
5899
330
20
100
AcDbEntity
  8
11000_Left
  6
DASHED
 62
     7
370
    20
100
AcDbLine
 39
0.25
 10
317.4318038384935
 20
144.9970040843429
 30
-0.45
 11
317.4318038384935
 21
144.7470040843429
 31
-0.45
1001
AUSTER_ANSICHT
1002
{
1000
SL
1002
}
1001
AUSTER_FOLIE
1002
{
1000
NSB00055_3PSSTE45
1002
}
  0
LINE
  5
589A
330
20
100
AcDbEntity
  8
11000_Left
  6
DASHED
 62
     7
370
    20
100
AcDbLine
 39
0.25
 10
317.9318038384935
 20
144.7470040843429
 30
-0.45
 11
317.4318038384935
 21
144.7470040843429
 31
-0.45
1001
AUSTER_ANSICHT
1002
{
1000
SL
1002
}
1001
AUSTER_FOLIE
1002
{
1000
NSB00055_3PSSTE45
1002
}
  0
LINE
  5
589B
330
20
100
AcDbEntity
  8
11000_Left
  6
DASHED
 62
     7
370
    20
100
AcDbLine
 39
0.25
 10
380.8640038384934
 20
137.490904084343
 30
0.0
 11
364.3786038384936
 21
137.490904084343
 31
0.0
1001
AUSTER_ANSICHT
1002
{
1000
Det03
1002
}
1001
AUSTER_FOLIE
1002
{
1000
NSB00055_3PSSTE45
1002
}
  0
LINE
  5
589C
330
20
100
AcDbEntity
  8
11000_Left
  6
DASHED
 62
     7
370
    20
100
AcDbLine
 39
0.25
 10
380.8640038384934
 20
137.490904084343
 30
0.0
 11
364.3786038384936
 21
137.490904084343
 31
0.0
1001
AUSTER_ANSICHT
1002
{
1000
Det03
1002
}
1001
AUSTER_FOLIE
1002
{
1000
NSB00055_3PSSTE45
1002
}
  0
LINE
  5
589D
330
20
100
AcDbEntity
  8
11000_Left
  6
DASHED
 62
     7
370
    20
100
AcDbLine
 39
0.25
 10
380.8640038384934
 20
137.490904084343
 30
0.0
 11
364.3786038384936
 21
137.490904084343
 31
0.0
1001
AUSTER_ANSICHT
1002
{
1000
Det03
1002
}
1001
AUSTER_FOLIE
1002
{
1000
NSB00055_3PSSTE45
1002
}
  0
LINE
  5
589E
330
20
100
AcDbEntity
  8
11000_Left
  6
DASHED
 62
     7
370
    20
100
AcDbLine
 39
0.25
 10
346.8786038384934
 20
115.490904084343
 30
0.0
 11
363.1649038384935
 21
115.490904084343
 31
0.0
1001
AUSTER_ANSICHT
1002
{
1000
Det03
1002
}
1001
AUSTER_FOLIE
1002
{
1000
NSB00055_3PSSTE45
1002
}
  0
LINE
  5
589F
330
20
100
AcDbEntity
  8
11000_Left
  6
DASHED
 62
     7
370
    20
100
AcDbLine
 39
0.25
 10
346.8786038384934
 20
115.490904084343
 30
0.0
 11
363.1649038384935
 21
115.490904084343
 31
0.0
1001
AUSTER_ANSICHT
1002
{
1000
Det03
1002
}
1001
AUSTER_FOLIE
1002
{
1000
NSB00055_3PSSTE45
1002
}
  0
LINE
  5
58A0
330
20
100
AcDbEntity
  8
11000_Left
  6
DASHED
 62
     7
370
    20
100
AcDbLine
 39
0.25
 10
346.8786038384934
 20
115.490904084343
 30
0.0
 11
363.1649038384935
 21
115.490904084343
 31
0.0
1001
AUSTER_ANSICHT
1002
{
1000
Det03
1002
}
1001
AUSTER_FOLIE
1002
{
1000
NSB00055_3PSSTE45
1002
}
  0
LINE
  5
58A1
330
20
100
AcDbEntity
  8
11000_Left
  6
DASHED
 62
     7
370
    20
100
AcDbLine
 39
0.25
 10
364.3786038384936
 20
137.490904084343
 30
0.0
 11
363.1649038384935
 21
115.490904084343
 31
0.0
1001
AUSTER_ANSICHT
1002
{
1000
Det03
1002
}
1001
AUSTER_FOLIE
1002
{
1000
NSB00055_3PSSTE45
1002
}
  0
LINE
  5
58A2
330
20
100
AcDbEntity
  8
11000_Left
  6
DASHED
 62
     7
370
    20
100
AcDbLine
 39
0.25
 10
364.3786038384936
 20
137.490904084343
 30
0.0
 11
363.1649038384935
 21
115.490904084343
 31
0.0
1001
AUSTER_ANSICHT
1002
{
1000
Det03
1002
}
1001
AUSTER_FOLIE
1002
{
1000
NSB00055_3PSSTE45
1002
}
  0
LINE
  5
58A3
330
20
100
AcDbEntity
  8
11000_Left
  6
DASHED
 62
     7
370
    20
100
AcDbLine
 39
0.25
 10
364.3786038384936
 20
137.490904084343
 30
0.0
 11
363.1649038384935
 21
115.490904084343
 31
0.0
1001
AUSTER_ANSICHT
1002
{
1000
Det03
1002
}
1001
AUSTER_FOLIE
1002
{
1000
NSB00055_3PSSTE45
1002
}
  0
LINE
  5
58A4
330
20
100
AcDbEntity
  8
11000_Left
  6
DASHED
 62
     7
370
    20
100
AcDbLine
 39
0.25
 10
314.3786038384936
 20
139.740904084343
 30
0.0
 11
317.6986038384933
 21
142.740904084343
 31
0.0
1001
AUSTER_ANSICHT
1002
{
1000
Det03
1002
}
1001
AUSTER_FOLIE
1002
{
1000
NSB00055_3PSSTE45
1002
}
  0
LINE
  5
58A5
330
20
100
AcDbEntity
  8
11000_Left
  6
DASHED
 62
     7
370
    20
100
AcDbLine
 39
0.25
 10
319.3786038384935
 20
139.740904084343
 30
0.0
 11
314.3786038384936
 21
139.740904084343
 31
0.0
1001
AUSTER_ANSICHT
1002
{
1000
Det03
1002
}
1001
AUSTER_FOLIE
1002
{
1000
NSB00055_3PSSTE45
1002
}
  0
LINE
  5
58A6
330
20
100
AcDbEntity
  8
11000_Left
  6
DASHED
 62
     7
370
    20
100
AcDbLine
 39
0.25
 10
318.4318038384934
 20
141.7470040843429
 30
0.0
 11
319.3786038384935
 21
141.7470040843429
 31
0.0
1001
AUSTER_ANSICHT
1002
{
1000
Det03
1002
}
1001
AUSTER_FOLIE
1002
{
1000
NSB00055_3PSSTE45
1002
}
  0
LINE
  5
58A7
330
20
100
AcDbEntity
  8
11000_Left
  6
DASHED
 62
     7
370
    20
100
AcDbLine
 39
0.25
 10
318.1548038384934
 20
142.740904084343
 30
0.0
 11
318.4318038384934
 21
141.7470040843429
 31
0.0
1001
AUSTER_ANSICHT
1002
{
1000
Det03
1002
}
1001
AUSTER_FOLIE
1002
{
1000
NSB00055_3PSSTE45
1002
}
  0
LINE
  5
58A8
330
20
100
AcDbEntity
  8
11000_Left
  6
DASHED
 62
     7
370
    20
100
AcDbLine
 39
0.25
 10
317.6986038384933
 20
142.740904084343
 30
0.0
 11
318.1548038384934
 21
142.740904084343
 31
0.0
1001
AUSTER_ANSICHT
1002
{
1000
Det03
1002
}
1001
AUSTER_FOLIE
1002
{
1000
NSB00055_3PSSTE45
1002
}
  0
LINE
  5
58AC
330
20
100
AcDbEntity
  8
11000_Left
  6
DASHED
 62
     7
370
    20
100
AcDbLine
 39
0.25
 10
314.3786038384936
 20
139.740904084343
 30
0.0
 11
314.3786038384936
 21
115.490904084343
 31
0.0
1001
AUSTER_ANSICHT
1002
{
1000
Det03
1002
}
1001
AUSTER_FOLIE
1002
{
1000
NSB00055_3PSSTE45
1002
}
  0
LINE
  5
58AD
330
20
100
AcDbEntity
  8
11000_Left
  6
DASHED
 62
     7
370
    20
100
AcDbLine
 39
0.25
 10
314.3786038384936
 20
139.740904084343
 30
0.0
 11
314.3786038384936
 21
115.490904084343
 31
0.0
1001
AUSTER_ANSICHT
1002
{
1000
Det03
1002
}
1001
AUSTER_FOLIE
1002
{
1000
NSB00055_3PSSTE45
1002
}
  0
LINE
  5
58AE
330
20
100
AcDbEntity
  8
11000_Left
  6
DASHED
 62
     7
370
    20
100
AcDbLine
 39
0.25
 10
314.3786038384936
 20
139.740904084343
 30
0.0
 11
314.3786038384936
 21
115.490904084343
 31
0.0
1001
AUSTER_ANSICHT
1002
{
1000
Det03
1002
}
1001
AUSTER_FOLIE
1002
{
1000
NSB00055_3PSSTE45
1002
}
  0
LINE
  5
58AF
330
20
100
AcDbEntity
  8
11000_Left
  6
DASHED
 62
     7
370
    20
100
AcDbLine
 39
0.25
 10
349.8786038384936
 20
115.490904084343
 30
0.0
 11
314.3786038384936
 21
115.490904084343
 31
0.0
1001
AUSTER_ANSICHT
1002
{
1000
Det03
1002
}
1001
AUSTER_FOLIE
1002
{
1000
NSB00055_3PSSTE45
1002
}
  0
LINE
  5
58B0
330
20
100
AcDbEntity
  8
11000_Left
  6
DASHED
 62
     7
370
    20
100
AcDbLine
 39
0.25
 10
349.8786038384936
 20
115.490904084343
 30
0.0
 11
314.3786038384936
 21
115.490904084343
 31
0.0
1001
AUSTER_ANSICHT
1002
{
1000
Det03
1002
}
1001
AUSTER_FOLIE
1002
{
1000
NSB00055_3PSSTE45
1002
}
  0
LINE
  5
58B1
330
20
100
AcDbEntity
  8
11000_Left
  6
DASHED
 62
     7
370
    20
100
AcDbLine
 39
0.25
 10
349.8786038384936
 20
115.490904084343
 30
0.0
 11
314.3786038384936
 21
115.490904084343
 31
0.0
1001
AUSTER_ANSICHT
1002
{
1000
Det03
1002
}
1001
AUSTER_FOLIE
1002
{
1000
NSB00055_3PSSTE45
1002
}
  0
LINE
  5
58B2
330
20
100
AcDbEntity
  8
11000_Left
  6
DASHED
 62
     7
370
    20
100
AcDbLine
 39
0.25
 10
335.1786038384935
 20
226.128604084343
 30
0.0
 11
348.1786038384933
 21
226.128604084343
 31
0.0
1001
AUSTER_ANSICHT
1002
{
1000
Det03
1002
}
1001
AUSTER_FOLIE
1002
{
1000
NSB00055_3PSSTE45
1002
}
  0
LINE
  5
58B3
330
20
100
AcDbEntity
  8
11000_Left
  6
Continuous
 62
     7
370
    50
100
AcDbLine
 39
0.5
 10
349.5786038384935
 20
226.128604084343
 30
0.0
 11
362.5716479342742
 21
226.128604084343
 31
0.0
1001
AUSTER_ANSICHT
1002
{
1000
Det03
1002
}
1001
AUSTER_FOLIE
1002
{
1000
NSB00055_3PSSTE45
1002
}
  0
LINE
  5
58B4
330
20
100
AcDbEntity
  8
11000_Left
  6
DASHED
 62
     7
370
    20
100
AcDbLine
 39
0.25
 10
318.4318038384934
 20
177.047004084343
 30
-0.45
 11
319.4318038384935
 21
177.047004084343
 31
-0.45
1001
AUSTER_ANSICHT
1002
{
1000
SL
1002
}
1001
AUSTER_FOLIE
1002
{
1000
NSB00055_3PSSTE45
1002
}
  0
LINE
  5
58B5
330
20
100
AcDbEntity
  8
11000_Left
  6
DASHED
 62
     7
370
    20
100
AcDbLine
 39
0.25
 10
318.4318038384934
 20
177.047004084343
 30
-0.45
 11
319.4318038384935
 21
177.047004084343
 31
-0.45
1001
AUSTER_ANSICHT
1002
{
1000
SL
1002
}
1001
AUSTER_FOLIE
1002
{
1000
NSB00055_3PSSTE45
1002
}
  0
ARC
  5
58B6
330
20
100
AcDbEntity
  8
11000_Left
  6
DASHED
 62
     7
370
    20
100
AcDbCircle
 39
0.25
 10
312.9318038384935
 20
170.8970040843429
 30
0.55
 40
1.0
100
AcDbArc
 50
90.0
 51
180.0
1001
AUSTER_ANSICHT
1002
{
1000
SL
1002
}
1001
AUSTER_FOLIE
1002
{
1000
NSB00055_3PSSTE45
1002
}
  0
ARC
  5
58B7
330
20
100
AcDbEntity
  8
11000_Left
  6
DASHED
 62
     7
370
    20
100
AcDbCircle
 39
0.25
 10
312.9318038384935
 20
170.8970040843429
 30
0.55
 40
1.0
100
AcDbArc
 50
90.0
 51
180.0
1001
AUSTER_ANSICHT
1002
{
1000
SL
1002
}
1001
AUSTER_FOLIE
1002
{
1000
NSB00055_3PSSTE45
1002
}
  0
LINE
  5
58B8
330
20
100
AcDbEntity
  8
11000_Left
  6
DASHED
 62
     7
370
    20
100
AcDbLine
 39
0.25
 10
315.5318038384934
 20
171.8970040843429
 30
0.55
 11
312.9318038384935
 21
171.8970040843429
 31
0.55
1001
AUSTER_ANSICHT
1002
{
1000
SL
1002
}
1001
AUSTER_FOLIE
1002
{
1000
NSB00055_3PSSTE45
1002
}
  0
LINE
  5
58B9
330
20
100
AcDbEntity
  8
11000_Left
  6
DASHED
 62
     7
370
    20
100
AcDbLine
 39
0.25
 10
314.4318038384934
 20
168.8970040843429
 30
-0.45
 11
314.4318038384934
 21
159.3970040843429
 31
-0.45
1001
AUSTER_ANSICHT
1002
{
1000
SL
1002
}
1001
AUSTER_FOLIE
1002
{
1000
NSB00055_3PSSTE45
1002
}
  0
LINE
  5
58BA
330
20
100
AcDbEntity
  8
11000_Left
  6
DASHED
 62
     7
370
    20
100
AcDbLine
 39
0.25
 10
314.4318038384934
 20
168.8970040843429
 30
-0.45
 11
314.4318038384934
 21
159.3970040843429
 31
-0.45
1001
AUSTER_ANSICHT
1002
{
1000
SL
1002
}
1001
AUSTER_FOLIE
1002
{
1000
NSB00055_3PSSTE45
1002
}
  0
ARC
  5
58BB
330
20
100
AcDbEntity
  8
11000_Left
  6
DASHED
 62
     7
370
    20
100
AcDbCircle
 39
0.25
 10
315.4318038384935
 20
168.8970040843429
 30
-0.45
 40
1.0
100
AcDbArc
 50
90.0
 51
180.0
1001
AUSTER_ANSICHT
1002
{
1000
SL
1002
}
1001
AUSTER_FOLIE
1002
{
1000
NSB00055_3PSSTE45
1002
}
  0
ARC
  5
58BC
330
20
100
AcDbEntity
  8
11000_Left
  6
DASHED
 62
     7
370
    20
100
AcDbCircle
 39
0.25
 10
315.5318038384934
 20
173.7970040843429
 30
-0.45
 40
1.9
100
AcDbArc
 50
270.0
 51
0.0
1001
AUSTER_ANSICHT
1002
{
1000
SL
1002
}
1001
AUSTER_FOLIE
1002
{
1000
NSB00055_3PSSTE45
1002
}
  0
ARC
  5
58BD
330
20
100
AcDbEntity
  8
11000_Left
  6
DASHED
 62
     7
370
    20
100
AcDbCircle
 39
0.25
 10
317.9318038384935
 20
174.5470040843429
 30
-0.45
 40
0.5
100
AcDbArc
 50
270.0
 51
0.0
1001
AUSTER_ANSICHT
1002
{
1000
SL
1002
}
1001
AUSTER_FOLIE
1002
{
1000
NSB00055_3PSSTE45
1002
}
  0
LINE
  5
58BE
330
20
100
AcDbEntity
  8
11000_Left
  6
DASHED
 62
     7
370
    20
100
AcDbLine
 39
0.25
 10
318.4318038384934
 20
174.5470040843429
 30
-0.45
 11
318.4318038384934
 21
177.047004084343
 31
-0.45
1001
AUSTER_ANSICHT
1002
{
1000
SL
1002
}
1001
AUSTER_FOLIE
1002
{
1000
NSB00055_3PSSTE45
1002
}
  0
LINE
  5
58BF
330
20
100
AcDbEntity
  8
11000_Left
  6
DASHED
 62
     7
370
    20
100
AcDbLine
 39
0.25
 10
317.4318038384935
 20
173.7970040843429
 30
-0.45
 11
317.4318038384935
 21
174.0470040843429
 31
-0.45
1001
AUSTER_ANSICHT
1002
{
1000
SL
1002
}
1001
AUSTER_FOLIE
1002
{
1000
NSB00055_3PSSTE45
1002
}
  0
LINE
  5
58C0
330
20
100
AcDbEntity
  8
11000_Left
  6
DASHED
 62
     7
370
    20
100
AcDbLine
 39
0.25
 10
317.9318038384935
 20
174.0470040843429
 30
-0.45
 11
317.4318038384935
 21
174.0470040843429
 31
-0.45
1001
AUSTER_ANSICHT
1002
{
1000
SL
1002
}
1001
AUSTER_FOLIE
1002
{
1000
NSB00055_3PSSTE45
1002
}
  0
LINE
  5
58C1
330
20
100
AcDbEntity
  8
11000_Left
  6
DASHED
 62
     7
370
    20
100
AcDbLine
 39
0.25
 10
319.4318038384935
 20
171.8970040843429
 30
-0.45
 11
317.4318038384935
 21
169.8970040843429
 31
-0.45
1001
AUSTER_ANSICHT
1002
{
1000
SL
1002
}
1001
AUSTER_FOLIE
1002
{
1000
NSB00055_3PSSTE45
1002
}
  0
LINE
  5
58C2
330
20
100
AcDbEntity
  8
11000_Left
  6
DASHED
 62
     7
370
    20
100
AcDbLine
 39
0.25
 10
315.4318038384935
 20
169.8970040843429
 30
-0.45
 11
317.4318038384935
 21
169.8970040843429
 31
-0.45
1001
AUSTER_ANSICHT
1002
{
1000
SL
1002
}
1001
AUSTER_FOLIE
1002
{
1000
NSB00055_3PSSTE45
1002
}
  0
ARC
  5
58C3
330
20
100
AcDbEntity
  8
11000_Left
  6
DASHED
 62
     7
370
    20
100
AcDbCircle
 39
0.25
 10
315.4318038384935
 20
168.8970040843429
 30
-0.45
 40
1.0
100
AcDbArc
 50
90.0
 51
180.0
1001
AUSTER_ANSICHT
1002
{
1000
SL
1002
}
1001
AUSTER_FOLIE
1002
{
1000
NSB00055_3PSSTE45
1002
}
  0
ARC
  5
58C4
330
20
100
AcDbEntity
  8
11000_Left
  6
DASHED
 62
     7
370
    20
100
AcDbCircle
 39
0.25
 10
315.5318038384934
 20
173.7970040843429
 30
-0.45
 40
1.9
100
AcDbArc
 50
270.0
 51
0.0
1001
AUSTER_ANSICHT
1002
{
1000
SL
1002
}
1001
AUSTER_FOLIE
1002
{
1000
NSB00055_3PSSTE45
1002
}
  0
ARC
  5
58C5
330
20
100
AcDbEntity
  8
11000_Left
  6
DASHED
 62
     7
370
    20
100
AcDbCircle
 39
0.25
 10
317.9318038384935
 20
174.5470040843429
 30
-0.45
 40
0.5
100
AcDbArc
 50
270.0
 51
0.0
1001
AUSTER_ANSICHT
1002
{
1000
SL
1002
}
1001
AUSTER_FOLIE
1002
{
1000
NSB00055_3PSSTE45
1002
}
  0
LINE
  5
58C6
330
20
100
AcDbEntity
  8
11000_Left
  6
DASHED
 62
     7
370
    20
100
AcDbLine
 39
0.25
 10
318.4318038384934
 20
174.5470040843429
 30
-0.45
 11
318.4318038384934
 21
177.047004084343
 31
-0.45
1001
AUSTER_ANSICHT
1002
{
1000
SL
1002
}
1001
AUSTER_FOLIE
1002
{
1000
NSB00055_3PSSTE45
1002
}
  0
LINE
  5
58C7
330
20
100
AcDbEntity
  8
11000_Left
  6
DASHED
 62
     7
370
    20
100
AcDbLine
 39
0.25
 10
317.4318038384935
 20
173.7970040843429
 30
-0.45
 11
317.4318038384935
 21
174.0470040843429
 31
-0.45
1001
AUSTER_ANSICHT
1002
{
1000
SL
1002
}
1001
AUSTER_FOLIE
1002
{
1000
NSB00055_3PSSTE45
1002
}
  0
LINE
  5
58C8
330
20
100
AcDbEntity
  8
11000_Left
  6
DASHED
 62
     7
370
    20
100
AcDbLine
 39
0.25
 10
317.9318038384935
 20
174.0470040843429
 30
-0.45
 11
317.4318038384935
 21
174.0470040843429
 31
-0.45
1001
AUSTER_ANSICHT
1002
{
1000
SL
1002
}
1001
AUSTER_FOLIE
1002
{
1000
NSB00055_3PSSTE45
1002
}
  0
LINE
  5
58C9
330
20
100
AcDbEntity
  8
11000_Left
  6
DASHED
 62
     7
370
    20
100
AcDbLine
 39
0.25
 10
319.4318038384935
 20
171.8970040843429
 30
-0.45
 11
317.4318038384935
 21
169.8970040843429
 31
-0.45
1001
AUSTER_ANSICHT
1002
{
1000
SL
1002
}
1001
AUSTER_FOLIE
1002
{
1000
NSB00055_3PSSTE45
1002
}
  0
LINE
  5
58CA
330
20
100
AcDbEntity
  8
11000_Left
  6
DASHED
 62
     7
370
    20
100
AcDbLine
 39
0.25
 10
315.4318038384935
 20
169.8970040843429
 30
-0.45
 11
317.4318038384935
 21
169.8970040843429
 31
-0.45
1001
AUSTER_ANSICHT
1002
{
1000
SL
1002
}
1001
AUSTER_FOLIE
1002
{
1000
NSB00055_3PSSTE45
1002
}
  0
LINE
  5
58CB
330
20
100
AcDbEntity
  8
11000_Left
  6
DASHED
 62
     7
370
    20
100
AcDbLine
 39
0.25
 10
311.9318038384935
 20
170.8970040843429
 30
0.55
 11
311.9318038384935
 21
147.8970040843429
 31
0.55
1001
AUSTER_ANSICHT
1002
{
1000
SL
1002
}
1001
AUSTER_FOLIE
1002
{
1000
NSB00055_3PSSTE45
1002
}
  0
ARC
  5
58CC
330
20
100
AcDbEntity
  8
11000_Left
  6
DASHED
 62
     7
370
    20
100
AcDbCircle
 39
0.25
 10
312.9318038384935
 20
147.8970040843429
 30
0.55
 40
1.0
100
AcDbArc
 50
180.0
 51
270.0
1001
AUSTER_ANSICHT
1002
{
1000
SL
1002
}
1001
AUSTER_FOLIE
1002
{
1000
NSB00055_3PSSTE45
1002
}
  0
ARC
  5
58CD
330
20
100
AcDbEntity
  8
11000_Left
  6
DASHED
 62
     7
370
    20
100
AcDbCircle
 39
0.25
 10
312.9318038384935
 20
147.8970040843429
 30
0.55
 40
1.0
100
AcDbArc
 50
180.0
 51
270.0
1001
AUSTER_ANSICHT
1002
{
1000
SL
1002
}
1001
AUSTER_FOLIE
1002
{
1000
NSB00055_3PSSTE45
1002
}
  0
LINE
  5
58CE
330
20
100
AcDbEntity
  8
11000_Left
  6
DASHED
 62
     7
370
    20
100
AcDbLine
 39
0.25
 10
315.5318038384934
 20
146.8970040843429
 30
0.55
 11
312.9318038384935
 21
146.8970040843429
 31
0.55
1001
AUSTER_ANSICHT
1002
{
1000
SL
1002
}
1001
AUSTER_FOLIE
1002
{
1000
NSB00055_3PSSTE45
1002
}
  0
LINE
  5
58CF
330
20
100
AcDbEntity
  8
11000_Left
  6
DASHED
 62
     7
370
    20
100
AcDbLine
 39
0.25
 10
315.5318038384934
 20
146.8970040843429
 30
0.55
 11
312.9318038384935
 21
146.8970040843429
 31
0.55
1001
AUSTER_ANSICHT
1002
{
1000
SL
1002
}
1001
AUSTER_FOLIE
1002
{
1000
NSB00055_3PSSTE45
1002
}
  0
ARC
  5
58D0
330
20
100
AcDbEntity
  8
11000_Left
  6
DASHED
 62
     7
370
    20
100
AcDbCircle
 39
0.25
 10
315.4318038384935
 20
149.8970040843429
 30
-0.45
 40
1.0
100
AcDbArc
 50
180.0
 51
270.0
1001
AUSTER_ANSICHT
1002
{
1000
SL
1002
}
1001
AUSTER_FOLIE
1002
{
1000
NSB00055_3PSSTE45
1002
}
  0
ARC
  5
58D1
330
20
100
AcDbEntity
  8
11000_Left
  6
DASHED
 62
     7
370
    20
100
AcDbCircle
 39
0.25
 10
315.5318038384934
 20
144.9970040843429
 30
-0.45
 40
1.9
100
AcDbArc
 50
0.0000000107542442
 51
90.0
1001
AUSTER_ANSICHT
1002
{
1000
SL
1002
}
1001
AUSTER_FOLIE
1002
{
1000
NSB00055_3PSSTE45
1002
}
  0
LINE
  5
58D2
330
20
100
AcDbEntity
  8
11000_Left
  6
DASHED
 62
     7
370
    20
100
AcDbLine
 39
0.25
 10
314.4318038384934
 20
149.8970040843429
 30
-0.45
 11
314.4318038384934
 21
159.3970040843429
 31
-0.45
1001
AUSTER_ANSICHT
1002
{
1000
SL
1002
}
1001
AUSTER_FOLIE
1002
{
1000
NSB00055_3PSSTE45
1002
}
  0
LINE
  5
58D3
330
20
100
AcDbEntity
  8
11000_Left
  6
DASHED
 62
     7
370
    20
100
AcDbLine
 39
0.25
 10
319.4318038384935
 20
146.8970040843429
 30
-0.45
 11
317.4318038384935
 21
148.8970040843429
 31
-0.45
1001
AUSTER_ANSICHT
1002
{
1000
SL
1002
}
1001
AUSTER_FOLIE
1002
{
1000
NSB00055_3PSSTE45
1002
}
  0
LINE
  5
58D4
330
20
100
AcDbEntity
  8
11000_Left
  6
DASHED
 62
     7
370
    20
100
AcDbLine
 39
0.25
 10
315.4318038384935
 20
148.8970040843429
 30
-0.45
 11
317.4318038384935
 21
148.8970040843429
 31
-0.45
1001
AUSTER_ANSICHT
1002
{
1000
SL
1002
}
1001
AUSTER_FOLIE
1002
{
1000
NSB00055_3PSSTE45
1002
}
  0
ARC
  5
58D5
330
20
100
AcDbEntity
  8
11000_Left
  6
DASHED
 62
     7
370
    20
100
AcDbCircle
 39
0.25
 10
315.4318038384935
 20
149.8970040843429
 30
-0.45
 40
1.0
100
AcDbArc
 50
180.0
 51
270.0
1001
AUSTER_ANSICHT
1002
{
1000
SL
1002
}
1001
AUSTER_FOLIE
1002
{
1000
NSB00055_3PSSTE45
1002
}
  0
ARC
  5
58D6
330
20
100
AcDbEntity
  8
11000_Left
  6
DASHED
 62
     7
370
    20
100
AcDbCircle
 39
0.25
 10
315.5318038384934
 20
144.9970040843429
 30
-0.45
 40
1.9
100
AcDbArc
 50
0.0000000107542442
 51
90.0
1001
AUSTER_ANSICHT
1002
{
1000
SL
1002
}
1001
AUSTER_FOLIE
1002
{
1000
NSB00055_3PSSTE45
1002
}
  0
LINE
  5
58D7
330
20
100
AcDbEntity
  8
11000_Left
  6
DASHED
 62
     7
370
    20
100
AcDbLine
 39
0.25
 10
314.4318038384934
 20
149.8970040843429
 30
-0.45
 11
314.4318038384934
 21
159.3970040843429
 31
-0.45
1001
AUSTER_ANSICHT
1002
{
1000
SL
1002
}
1001
AUSTER_FOLIE
1002
{
1000
NSB00055_3PSSTE45
1002
}
  0
LINE
  5
58D8
330
20
100
AcDbEntity
  8
11000_Left
  6
DASHED
 62
     7
370
    20
100
AcDbLine
 39
0.25
 10
319.4318038384935
 20
146.8970040843429
 30
-0.45
 11
317.4318038384935
 21
148.8970040843429
 31
-0.45
1001
AUSTER_ANSICHT
1002
{
1000
SL
1002
}
1001
AUSTER_FOLIE
1002
{
1000
NSB00055_3PSSTE45
1002
}
  0
LINE
  5
58D9
330
20
100
AcDbEntity
  8
11000_Left
  6
DASHED
 62
     7
370
    20
100
AcDbLine
 39
0.25
 10
315.4318038384935
 20
148.8970040843429
 30
-0.45
 11
317.4318038384935
 21
148.8970040843429
 31
-0.45
1001
AUSTER_ANSICHT
1002
{
1000
SL
1002
}
1001
AUSTER_FOLIE
1002
{
1000
NSB00055_3PSSTE45
1002
}
  0
LINE
  5
58DA
330
20
100
AcDbEntity
  8
11000_Left
  6
DASHED
 62
     7
370
    20
100
AcDbLine
 39
0.25
 10
389.3786038384936
 20
166.499004084343
 30
0.0
 11
389.3786038384936
 21
158.999004084343
 31
0.0
1001
AUSTER_ANSICHT
1002
{
1000
Det03
1002
}
1001
AUSTER_FOLIE
1002
{
1000
NSB00055_3PSSTE45
1002
}
  0
LINE
  5
58DB
330
20
100
AcDbEntity
  8
11000_Left
  6
DASHED
 62
     7
370
    20
100
AcDbLine
 39
0.25
 10
389.3786038384936
 20
166.499004084343
 30
0.0
 11
389.3786038384936
 21
158.999004084343
 31
0.0
1001
AUSTER_ANSICHT
1002
{
1000
Det03
1002
}
1001
AUSTER_FOLIE
1002
{
1000
NSB00055_3PSSTE45
1002
}
  0
LINE
  5
58DC
330
20
100
AcDbEntity
  8
11000_Left
  6
DASHED
 62
     7
370
    20
100
AcDbLine
 39
0.25
 10
389.3786038384936
 20
166.499004084343
 30
0.0
 11
389.3786038384936
 21
158.999004084343
 31
0.0
1001
AUSTER_ANSICHT
1002
{
1000
Det03
1002
}
1001
AUSTER_FOLIE
1002
{
1000
NSB00055_3PSSTE45
1002
}
  0
LINE
  5
58DD
330
20
100
AcDbEntity
  8
11000_Left
  6
DASHED
 62
     7
370
    20
100
AcDbLine
 39
0.25
 10
381.8766038384934
 20
158.999004084343
 30
0.0
 11
380.8640038384934
 21
137.490904084343
 31
0.0
1001
AUSTER_ANSICHT
1002
{
1000
Det03
1002
}
1001
AUSTER_FOLIE
1002
{
1000
NSB00055_3PSSTE45
1002
}
  0
LINE
  5
58DE
330
20
100
AcDbEntity
  8
11000_Left
  6
DASHED
 62
     7
370
    20
100
AcDbLine
 39
0.25
 10
381.8766038384934
 20
158.999004084343
 30
0.0
 11
380.8640038384934
 21
137.490904084343
 31
0.0
1001
AUSTER_ANSICHT
1002
{
1000
Det03
1002
}
1001
AUSTER_FOLIE
1002
{
1000
NSB00055_3PSSTE45
1002
}
  0
LINE
  5
58DF
330
20
100
AcDbEntity
  8
11000_Left
  6
DASHED
 62
     7
370
    20
100
AcDbLine
 39
0.25
 10
381.8766038384934
 20
158.999004084343
 30
0.0
 11
380.8640038384934
 21
137.490904084343
 31
0.0
1001
AUSTER_ANSICHT
1002
{
1000
Det03
1002
}
1001
AUSTER_FOLIE
1002
{
1000
NSB00055_3PSSTE45
1002
}
  0
LINE
  5
58E0
330
20
100
AcDbEntity
  8
11000_Left
  6
DASHED
 62
     7
370
    20
100
AcDbLine
 39
0.25
 10
381.7939038384933
 20
166.499004084343
 30
0.0
 11
381.8766038384934
 21
158.999004084343
 31
0.0
1001
AUSTER_ANSICHT
1002
{
1000
Det03
1002
}
1001
AUSTER_FOLIE
1002
{
1000
NSB00055_3PSSTE45
1002
}
  0
LINE
  5
58E1
330
20
100
AcDbEntity
  8
11000_Left
  6
DASHED
 62
     7
370
    20
100
AcDbLine
 39
0.25
 10
381.7939038384933
 20
166.499004084343
 30
0.0
 11
381.8766038384934
 21
158.999004084343
 31
0.0
1001
AUSTER_ANSICHT
1002
{
1000
Det03
1002
}
1001
AUSTER_FOLIE
1002
{
1000
NSB00055_3PSSTE45
1002
}
  0
LINE
  5
58E2
330
20
100
AcDbEntity
  8
11000_Left
  6
DASHED
 62
     7
370
    20
100
AcDbLine
 39
0.25
 10
381.7939038384933
 20
166.499004084343
 30
0.0
 11
381.8766038384934
 21
158.999004084343
 31
0.0
1001
AUSTER_ANSICHT
1002
{
1000
Det03
1002
}
1001
AUSTER_FOLIE
1002
{
1000
NSB00055_3PSSTE45
1002
}
  0
LINE
  5
58E3
330
20
100
AcDbEntity
  8
11000_Left
  6
DASHED
 62
     7
370
    20
100
AcDbLine
 39
0.25
 10
389.3786038384936
 20
158.999004084343
 30
0.0
 11
381.8766038384934
 21
158.999004084343
 31
0.0
1001
AUSTER_ANSICHT
1002
{
1000
Det03
1002
}
1001
AUSTER_FOLIE
1002
{
1000
NSB00055_3PSSTE45
1002
}
  0
LINE
  5
58E4
330
20
100
AcDbEntity
  8
11000_Left
  6
DASHED
 62
     7
370
    20
100
AcDbLine
 39
0.25
 10
389.3786038384936
 20
158.999004084343
 30
0.0
 11
381.8766038384934
 21
158.999004084343
 31
0.0
1001
AUSTER_ANSICHT
1002
{
1000
Det03
1002
}
1001
AUSTER_FOLIE
1002
{
1000
NSB00055_3PSSTE45
1002
}
  0
LINE
  5
58E5
330
20
100
AcDbEntity
  8
11000_Left
  6
DASHED
 62
     7
370
    20
100
AcDbLine
 39
0.25
 10
389.3786038384936
 20
158.999004084343
 30
0.0
 11
381.8766038384934
 21
158.999004084343
 31
0.0
1001
AUSTER_ANSICHT
1002
{
1000
Det03
1002
}
1001
AUSTER_FOLIE
1002
{
1000
NSB00055_3PSSTE45
1002
}
  0
LINE
  5
58E6
330
20
100
AcDbEntity
  8
11000_Left
  6
DASHED
 62
     7
370
    20
100
AcDbLine
 39
0.25
 10
381.7939038384933
 20
166.499004084343
 30
0.0
 11
389.3786038384936
 21
166.499004084343
 31
0.0
1001
AUSTER_ANSICHT
1002
{
1000
Det03
1002
}
1001
AUSTER_FOLIE
1002
{
1000
NSB00055_3PSSTE45
1002
}
  0
LINE
  5
58E7
330
20
100
AcDbEntity
  8
11000_Left
  6
DASHED
 62
     7
370
    20
100
AcDbLine
 39
0.25
 10
381.7939038384933
 20
166.499004084343
 30
0.0
 11
389.3786038384936
 21
166.499004084343
 31
0.0
1001
AUSTER_ANSICHT
1002
{
1000
Det03
1002
}
1001
AUSTER_FOLIE
1002
{
1000
NSB00055_3PSSTE45
1002
}
  0
LINE
  5
58E8
330
20
100
AcDbEntity
  8
11000_Left
  6
DASHED
 62
     7
370
    20
100
AcDbLine
 39
0.25
 10
381.7939038384933
 20
166.499004084343
 30
0.0
 11
389.3786038384936
 21
166.499004084343
 31
0.0
1001
AUSTER_ANSICHT
1002
{
1000
Det03
1002
}
1001
AUSTER_FOLIE
1002
{
1000
NSB00055_3PSSTE45
1002
}
  0
LINE
  5
58E9
330
20
100
AcDbEntity
  8
11000_Left
  6
DASHED
 62
     7
370
    20
100
AcDbLine
 39
0.25
 10
380.8640038384934
 20
182.490904084343
 30
0.0
 11
381.7939038384933
 21
166.499004084343
 31
0.0
1001
AUSTER_ANSICHT
1002
{
1000
Det03
1002
}
1001
AUSTER_FOLIE
1002
{
1000
NSB00055_3PSSTE45
1002
}
  0
LINE
  5
58EA
330
20
100
AcDbEntity
  8
11000_Left
  6
DASHED
 62
     7
370
    20
100
AcDbLine
 39
0.25
 10
380.8640038384934
 20
182.490904084343
 30
0.0
 11
381.7939038384933
 21
166.499004084343
 31
0.0
1001
AUSTER_ANSICHT
1002
{
1000
Det03
1002
}
1001
AUSTER_FOLIE
1002
{
1000
NSB00055_3PSSTE45
1002
}
  0
LINE
  5
58EB
330
20
100
AcDbEntity
  8
11000_Left
  6
DASHED
 62
     7
370
    20
100
AcDbLine
 39
0.25
 10
380.8640038384934
 20
182.490904084343
 30
0.0
 11
381.7939038384933
 21
166.499004084343
 31
0.0
1001
AUSTER_ANSICHT
1002
{
1000
Det03
1002
}
1001
AUSTER_FOLIE
1002
{
1000
NSB00055_3PSSTE45
1002
}
  0
DIMENSION
  5
58EC
330
20
100
AcDbEntity
  8
11100_LEFT_DIM
  6
Continuous
 62
     7
370
    13
100
AcDbDimension
  2
*D3
 10
362.5786038384934
 20
232.0744332152695
 30
0.0
 11
356.0253364634526
 21
232.0744332152695
 31
0.0
 70
   160
 71
     5
 42
12.99999999999983
  3
DSTYLE1
100
AcDbAlignedDimension
 13
349.5786038384935
 23
226.648604084343
 33
0.0
 14
362.5786038384934
 24
225.648604084343
 34
0.0
100
AcDbRotatedDimension
1001
AUSTER_FOLIE
1002
{
1000
NSB00055_3PSSTE45
1002
}
1001
AUSTER_ANSICHT
1002
{
1000
Det03
1002
}
1001
ACAD
1000
DSTYLE
1002
{
1070
   140
1040
3.5
1070
    41
1040
2.0
1070
    42
1040
1.0
1070
    43
1040
1.0
1070
    47
1040
0.005
1070
    48
1040
-0.005
1070
    77
1070
     0
1070
    78
1070
     0
1070
   143
1040
25.4
1070
   171
1070
     0
1070
   172
1070
     1
1070
   271
1070
     0
1070
   272
1070
     1
1070
   277
1070
     6
1070
   279
1070
     0
1002
}
  0
LINE
  5
58ED
330
20
100
AcDbEntity
  8
11000_Left
  6
DASHED
 62
     7
370
    20
100
AcDbLine
 39
0.25
 10
362.7593038384933
 20
204.4359040843431
 30
0.0
 11
364.3786038384936
 21
182.490904084343
 31
0.0
1001
AUSTER_ANSICHT
1002
{
1000
Det03
1002
}
1001
AUSTER_FOLIE
1002
{
1000
NSB00055_3PSSTE45
1002
}
  0
LINE
  5
58EE
330
20
100
AcDbEntity
  8
11000_Left
  6
DASHED
 62
     7
370
    20
100
AcDbLine
 39
0.25
 10
362.7593038384933
 20
204.4359040843431
 30
0.0
 11
364.3786038384936
 21
182.490904084343
 31
0.0
1001
AUSTER_ANSICHT
1002
{
1000
Det03
1002
}
1001
AUSTER_FOLIE
1002
{
1000
NSB00055_3PSSTE45
1002
}
  0
LINE
  5
58EF
330
20
100
AcDbEntity
  8
11000_Left
  6
DASHED
 62
     7
370
    20
100
AcDbLine
 39
0.25
 10
362.7593038384933
 20
204.4359040843431
 30
0.0
 11
364.3786038384936
 21
182.490904084343
 31
0.0
1001
AUSTER_ANSICHT
1002
{
1000
Det03
1002
}
1001
AUSTER_FOLIE
1002
{
1000
NSB00055_3PSSTE45
1002
}
  0
LINE
  5
58F0
330
20
100
AcDbEntity
  8
11000_Left
  6
DASHED
 62
     7
370
    20
100
AcDbLine
 39
0.25
 10
348.1786038384933
 20
204.648604084343
 30
0.0
 11
348.1786038384933
 21
189.490904084343
 31
0.0
1001
AUSTER_ANSICHT
1002
{
1000
Det03
1002
}
1001
AUSTER_FOLIE
1002
{
1000
NSB00055_3PSSTE45
1002
}
  0
LINE
  5
58F1
330
20
100
AcDbEntity
  8
11000_Left
  6
DASHED
 62
     7
370
    20
100
AcDbLine
 39
0.25
 10
346.8786038384934
 20
189.490904084343
 30
0.0
 11
346.8786038384934
 21
204.648604084343
 31
0.0
1001
AUSTER_ANSICHT
1002
{
1000
Det03
1002
}
1001
AUSTER_FOLIE
1002
{
1000
NSB00055_3PSSTE45
1002
}
  0
LINE
  5
58F2
330
20
100
AcDbEntity
  8
11000_Left
  6
DASHED
 62
     7
370
    20
100
AcDbLine
 39
0.25
 10
335.1786038384935
 20
204.648604084343
 30
0.0
 11
348.1786038384933
 21
204.648604084343
 31
0.0
1001
AUSTER_ANSICHT
1002
{
1000
Det03
1002
}
1001
AUSTER_FOLIE
1002
{
1000
NSB00055_3PSSTE45
1002
}
  0
LINE
  5
58F3
330
20
100
AcDbEntity
  8
11000_Left
  6
DASHED
 62
     7
370
    20
100
AcDbLine
 39
0.25
 10
348.1786038384933
 20
189.490904084343
 30
0.0
 11
346.8786038384934
 21
189.490904084343
 31
0.0
1001
AUSTER_ANSICHT
1002
{
1000
Det03
1002
}
1001
AUSTER_FOLIE
1002
{
1000
NSB00055_3PSSTE45
1002
}
  0
LINE
  5
58F4
330
20
100
AcDbEntity
  8
11000_Left
  6
DASHED
 62
     7
370
    20
100
AcDbLine
 39
0.25
 10
348.1786038384933
 20
206.648604084343
 30
0.0
 11
335.1786038384935
 21
206.648604084343
 31
0.0
1001
AUSTER_ANSICHT
1002
{
1000
Det03
1002
}
1001
AUSTER_FOLIE
1002
{
1000
NSB00055_3PSSTE45
1002
}
  0
LINE
  5
58F5
330
20
100
AcDbEntity
  8
11000_Left
  6
DASHED
 62
     7
370
    20
100
AcDbLine
 39
0.25
 10
335.1786038384935
 20
226.128604084343
 30
0.0
 11
335.1786038384935
 21
204.648604084343
 31
0.0
1001
AUSTER_ANSICHT
1002
{
1000
Det03
1002
}
1001
AUSTER_FOLIE
1002
{
1000
NSB00055_3PSSTE45
1002
}
  0
LINE
  5
58F6
330
20
100
AcDbEntity
  8
11000_Left
  6
DASHED
 62
     7
370
    20
100
AcDbLine
 39
0.25
 10
348.1786038384933
 20
204.648604084343
 30
0.0
 11
348.1786038384933
 21
226.128604084343
 31
0.0
1001
AUSTER_ANSICHT
1002
{
1000
Det03
1002
}
1001
AUSTER_FOLIE
1002
{
1000
NSB00055_3PSSTE45
1002
}
  0
DIMENSION
  5
58F7
330
20
100
AcDbEntity
  8
11100_LEFT_DIM
  6
Continuous
 62
     7
370
    13
100
AcDbDimension
  2
*D4
 10
369.7299568083288
 20
204.648604084343
 30
0.0
 11
369.7299568083287
 21
215.388604084343
 31
0.0
 70
    32
 71
     5
 42
21.47999999999999
  3
DSTYLE1
100
AcDbAlignedDimension
 13
362.5716479342742
 23
226.128604084343
 33
0.0
 14
362.5716479342742
 24
204.648604084343
 34
0.0
 50
90.0
100
AcDbRotatedDimension
1001
AUSTER_FOLIE
1002
{
1000
NSB00055_3PSSTE45
1002
}
1001
AUSTER_ANSICHT
1002
{
1000
Det03
1002
}
1001
ACAD
1000
DSTYLE
1002
{
1070
   140
1040
3.5
1070
    41
1040
2.0
1070
    42
1040
1.0
1070
    43
1040
1.0
1070
    47
1040
0.005
1070
    48
1040
-0.005
1070
    77
1070
     0
1070
    78
1070
     0
1070
   143
1040
25.4
1070
   171
1070
     0
1070
   172
1070
     1
1070
   271
1070
     0
1070
   272
1070
     1
1070
   277
1070
     6
1070
   279
1070
     0
1002
}
  0
LINE
  5
58F8
330
20
100
AcDbEntity
  8
11000_Left
  6
Continuous
 62
     7
370
    50
100
AcDbLine
 10
349.5786038384935
 20
204.648604084343
 30
0.0
 11
349.5790038384933
 21
225.648604084343
 31
0.0
1001
AUSTER_ANSICHT
1002
{
1000
Det03
1002
}
1001
AUSTER_FOLIE
1002
{
1000
NSB00055_3PSSTE45
1002
}
  0
LINE
  5
58F9
330
20
100
AcDbEntity
  8
11000_Left
  6
DASHED
 62
     7
370
    20
100
AcDbLine
 39
0.25
 10
364.3786038384936
 20
182.490904084343
 30
0.0
 11
380.8640038384934
 21
182.490904084343
 31
0.0
1001
AUSTER_ANSICHT
1002
{
1000
Det03
1002
}
1001
AUSTER_FOLIE
1002
{
1000
NSB00055_3PSSTE45
1002
}
  0
LINE
  5
58FA
330
20
100
AcDbEntity
  8
11000_Left
  6
DASHED
 62
     7
370
    20
100
AcDbLine
 39
0.25
 10
364.3786038384936
 20
182.490904084343
 30
0.0
 11
380.8640038384934
 21
182.490904084343
 31
0.0
1001
AUSTER_ANSICHT
1002
{
1000
Det03
1002
}
1001
AUSTER_FOLIE
1002
{
1000
NSB00055_3PSSTE45
1002
}
  0
LINE
  5
58FB
330
20
100
AcDbEntity
  8
11000_Left
  6
DASHED
 62
     7
370
    20
100
AcDbLine
 39
0.25
 10
364.3786038384936
 20
182.490904084343
 30
0.0
 11
380.8640038384934
 21
182.490904084343
 31
0.0
1001
AUSTER_ANSICHT
1002
{
1000
Det03
1002
}
1001
AUSTER_FOLIE
1002
{
1000
NSB00055_3PSSTE45
1002
}
  0
LINE
  5
58FC
330
20
100
AcDbEntity
  8
11000_Left
  6
DASHED
 62
     7
370
    20
100
AcDbLine
 39
0.25
 10
364.3786038384936
 20
182.490904084343
 30
0.0
 11
379.8475038384935
 21
182.490904084343
 31
0.0
1001
AUSTER_ANSICHT
1002
{
1000
Det03
1002
}
1001
AUSTER_FOLIE
1002
{
1000
NSB00055_3PSSTE45
1002
}
  0
LINE
  5
58FD
330
20
100
AcDbEntity
  8
11000_Left
  6
DASHED
 62
     7
370
    20
100
AcDbLine
 39
0.25
 10
314.3786038384936
 20
204.490904084343
 30
0.0
 11
314.3786038384936
 21
180.240904084343
 31
0.0
1001
AUSTER_ANSICHT
1002
{
1000
Det03
1002
}
1001
AUSTER_FOLIE
1002
{
1000
NSB00055_3PSSTE45
1002
}
  0
LINE
  5
58FE
330
20
100
AcDbEntity
  8
11000_Left
  6
DASHED
 62
     7
370
    20
100
AcDbLine
 39
0.25
 10
314.3786038384936
 20
204.490904084343
 30
0.0
 11
314.3786038384936
 21
180.240904084343
 31
0.0
1001
AUSTER_ANSICHT
1002
{
1000
Det03
1002
}
1001
AUSTER_FOLIE
1002
{
1000
NSB00055_3PSSTE45
1002
}
  0
LINE
  5
58FF
330
20
100
AcDbEntity
  8
11000_Left
  6
DASHED
 62
     7
370
    20
100
AcDbLine
 39
0.25
 10
314.3786038384936
 20
204.490904084343
 30
0.0
 11
314.3786038384936
 21
180.240904084343
 31
0.0
1001
AUSTER_ANSICHT
1002
{
1000
Det03
1002
}
1001
AUSTER_FOLIE
1002
{
1000
NSB00055_3PSSTE45
1002
}
  0
LINE
  5
5900
330
20
100
AcDbEntity
  8
11000_Left
  6
DASHED
 62
     7
370
    20
100
AcDbLine
 39
0.25
 10
316.7827038384934
 20
174.439904084343
 30
0.0
 11
317.4752038384935
 21
174.439904084343
 31
0.0
1001
AUSTER_ANSICHT
1002
{
1000
Det03
1002
}
1001
AUSTER_FOLIE
1002
{
1000
NSB00055_3PSSTE45
1002
}
  0
LINE
  5
5901
330
20
100
AcDbEntity
  8
11000_Left
  6
DASHED
 62
     7
370
    20
100
AcDbLine
 39
0.25
 10
314.3786038384936
 20
180.240904084343
 30
0.0
 11
319.3786038384935
 21
180.240904084343
 31
0.0
1001
AUSTER_ANSICHT
1002
{
1000
Det03
1002
}
1001
AUSTER_FOLIE
1002
{
1000
NSB00055_3PSSTE45
1002
}
  0
LINE
  5
5902
330
20
100
AcDbEntity
  8
11000_Left
  6
DASHED
 62
     7
370
    20
100
AcDbLine
 39
0.25
 10
314.3786038384936
 20
180.240904084343
 30
0.0
 11
319.3786038384935
 21
180.240904084343
 31
0.0
1001
AUSTER_ANSICHT
1002
{
1000
Det03
1002
}
1001
AUSTER_FOLIE
1002
{
1000
NSB00055_3PSSTE45
1002
}
  0
LINE
  5
5903
330
20
100
AcDbEntity
  8
11000_Left
  6
DASHED
 62
     7
370
    20
100
AcDbLine
 39
0.25
 10
314.3786038384936
 20
180.240904084343
 30
0.0
 11
319.3786038384935
 21
180.240904084343
 31
0.0
1001
AUSTER_ANSICHT
1002
{
1000
Det03
1002
}
1001
AUSTER_FOLIE
1002
{
1000
NSB00055_3PSSTE45
1002
}
  0
LINE
  5
5904
330
20
100
AcDbEntity
  8
11000_Left
  6
DASHED
 62
     7
370
    20
100
AcDbLine
 39
0.25
 10
315.4776038384933
 20
180.240904084343
 30
0.0
 11
316.7827038384934
 21
174.439904084343
 31
0.0
1001
AUSTER_ANSICHT
1002
{
1000
Det03
1002
}
1001
AUSTER_FOLIE
1002
{
1000
NSB00055_3PSSTE45
1002
}
  0
LINE
  5
5905
330
20
100
AcDbEntity
  8
11000_Left
  6
DASHED
 62
     7
370
    20
100
AcDbLine
 39
0.25
 10
317.9813038384933
 20
177.2366040843429
 30
0.0
 11
317.9813038384933
 21
180.240904084343
 31
0.0
1001
AUSTER_ANSICHT
1002
{
1000
Det03
1002
}
1001
AUSTER_FOLIE
1002
{
1000
NSB00055_3PSSTE45
1002
}
  0
LINE
  5
5906
330
20
100
AcDbEntity
  8
11000_Left
  6
DASHED
 62
     7
370
    20
100
AcDbLine
 39
0.25
 10
318.3808038384933
 20
177.2366040843429
 30
0.0
 11
317.9813038384933
 21
177.2366040843429
 31
0.0
1001
AUSTER_ANSICHT
1002
{
1000
Det03
1002
}
1001
AUSTER_FOLIE
1002
{
1000
NSB00055_3PSSTE45
1002
}
  0
LINE
  5
5907
330
20
100
AcDbEntity
  8
11000_Left
  6
DASHED
 62
     7
370
    20
100
AcDbLine
 39
0.25
 10
318.3808038384933
 20
176.2511040843429
 30
0.0
 11
318.3808038384933
 21
177.2366040843429
 31
0.0
1001
AUSTER_ANSICHT
1002
{
1000
Det03
1002
}
1001
AUSTER_FOLIE
1002
{
1000
NSB00055_3PSSTE45
1002
}
  0
LINE
  5
5908
330
20
100
AcDbEntity
  8
11000_Left
  6
DASHED
 62
     7
370
    20
100
AcDbLine
 39
0.25
 10
317.4752038384935
 20
174.439904084343
 30
0.0
 11
318.3808038384933
 21
176.2511040843429
 31
0.0
1001
AUSTER_ANSICHT
1002
{
1000
Det03
1002
}
1001
AUSTER_FOLIE
1002
{
1000
NSB00055_3PSSTE45
1002
}
  0
LINE
  5
5909
330
20
100
AcDbEntity
  8
11000_Left
  6
DASHED
 62
     7
370
    20
100
AcDbLine
 39
0.25
 10
319.3786038384935
 20
180.240904084343
 30
0.0
 11
319.3786038384935
 21
139.740904084343
 31
0.0
1001
AUSTER_ANSICHT
1002
{
1000
Det03
1002
}
1001
AUSTER_FOLIE
1002
{
1000
NSB00055_3PSSTE45
1002
}
  0
LINE
  5
590A
330
20
100
AcDbEntity
  8
11000_Left
  6
DASHED
 62
     7
370
    20
100
AcDbLine
 39
0.25
 10
319.3786038384935
 20
180.240904084343
 30
0.0
 11
319.3786038384935
 21
139.740904084343
 31
0.0
1001
AUSTER_ANSICHT
1002
{
1000
Det03
1002
}
1001
AUSTER_FOLIE
1002
{
1000
NSB00055_3PSSTE45
1002
}
  0
LINE
  5
590B
330
20
100
AcDbEntity
  8
11000_Left
  6
DASHED
 62
     7
370
    20
100
AcDbLine
 39
0.25
 10
319.3786038384935
 20
180.240904084343
 30
0.0
 11
319.3786038384935
 21
139.740904084343
 31
0.0
1001
AUSTER_ANSICHT
1002
{
1000
Det03
1002
}
1001
AUSTER_FOLIE
1002
{
1000
NSB00055_3PSSTE45
1002
}
  0
LINE
  5
590C
330
20
100
AcDbEntity
  8
11000_Left
  6
DASHED
 62
     7
370
    20
100
AcDbLine
 39
0.25
 10
314.3786038384936
 20
204.490904084343
 30
0.0
 11
362.7593038384933
 21
204.4359040843431
 31
0.0
1001
AUSTER_ANSICHT
1002
{
1000
Det03
1002
}
1001
AUSTER_FOLIE
1002
{
1000
NSB00055_3PSSTE45
1002
}
  0
LINE
  5
590D
330
20
100
AcDbEntity
  8
11000_Left
  6
DASHED
 62
     7
370
    20
100
AcDbLine
 39
0.25
 10
314.3786038384936
 20
204.490904084343
 30
0.0
 11
362.7593038384933
 21
204.4359040843431
 31
0.0
1001
AUSTER_ANSICHT
1002
{
1000
Det03
1002
}
1001
AUSTER_FOLIE
1002
{
1000
NSB00055_3PSSTE45
1002
}
  0
DIMENSION
  5
590E
330
20
100
AcDbEntity
  8
11100_LEFT_DIM
  6
Continuous
 62
     7
370
    13
100
AcDbDimension
  2
*D1
 10
303.9390140094811
 20
226.128604084343
 30
0.0
 11
303.939014009481
 21
190.947804084343
 31
0.0
 70
   160
  1
B
 71
     5
 42
66.73160000000009
  3
DSTYLE1
100
AcDbAlignedDimension
 13
311.9318038384935
 23
159.3970040843429
 33
0.55
 14
335.1786038384935
 24
226.128604084343
 34
0.0
 50
90.0
100
AcDbRotatedDimension
1001
AUSTER_FOLIE
1002
{
1000
NSB00055_3PSSTE45
1002
}
1001
AUSTER_ANSICHT
1002
{
1000
Det03
1002
}
1001
ACAD
1000
DSTYLE
1002
{
1070
   140
1040
3.5
1070
    41
1040
2.0
1070
    42
1040
1.0
1070
    43
1040
1.0
1070
    47
1040
0.005
1070
    48
1040
-0.005
1070
    77
1070
     0
1070
    78
1070
     0
1070
   143
1040
25.4
1070
   171
1070
     0
1070
   172
1070
     1
1070
   271
1070
     0
1070
   272
1070
     1
1070
   277
1070
     6
1070
   279
1070
     0
1002
}
  0
DIMENSION
  5
590F
330
20
100
AcDbEntity
  8
11100_LEFT_DIM
  6
Continuous
 62
     7
370
    13
100
AcDbDimension
  2
*D2
 10
296.3687168856251
 20
226.128604084343
 30
0.0
 11
296.368716885625
 21
169.3197540843431
 31
0.0
 70
   160
  1
A
 71
     5
 42
110.6377
  3
DSTYLE1
100
AcDbAlignedDimension
 13
314.3786038384936
 23
115.490904084343
 33
0.0
 14
335.1786038384935
 24
226.128604084343
 34
0.0
 50
90.0
100
AcDbRotatedDimension
1001
AUSTER_FOLIE
1002
{
1000
NSB00055_3PSSTE45
1002
}
1001
AUSTER_ANSICHT
1002
{
1000
Det03
1002
}
1001
ACAD
1000
DSTYLE
1002
{
1070
   140
1040
3.5
1070
    41
1040
2.0
1070
    42
1040
1.0
1070
    43
1040
1.0
1070
    47
1040
0.005
1070
    48
1040
-0.005
1070
    77
1070
     0
1070
    78
1070
     0
1070
   143
1040
25.4
1070
   171
1070
     0
1070
   172
1070
     1
1070
   271
1070
     0
1070
   272
1070
     1
1070
   277
1070
     6
1070
   279
1070
     0
1002
}
  0
LINE
  5
5910
330
20
100
AcDbEntity
  8
11000_Left
  6
Continuous
 62
     7
370
    50
100
AcDbLine
 39
0.7
 10
362.5716479342742
 20
226.128604084343
 30
0.0
 11
362.5716479342742
 21
204.648604084343
 31
0.0
1001
AUSTER_ANSICHT
1002
{
1000
Det03
1002
}
1001
AUSTER_FOLIE
1002
{
1000
NSB00055_3PSSTE45
1002
}
  0
LINE
  5
5911
330
20
100
AcDbEntity
  8
11000_Left
  6
Continuous
 62
     7
370
    50
100
AcDbLine
 39
0.7
 10
349.5786038384935
 20
204.648604084343
 30
0.0
 11
349.5786038384935
 21
226.148604084343
 31
0.0
1001
AUSTER_ANSICHT
1002
{
1000
Det03
1002
}
1001
AUSTER_FOLIE
1002
{
1000
NSB00055_3PSSTE45
1002
}
  0
LINE
  5
5912
330
20
100
AcDbEntity
  8
11000_Left
  6
Continuous
 62
     7
370
    20
100
AcDbLine
 39
0.25
 10
349.5786038384935
 20
206.648604084343
 30
0.0
 11
362.5723101826018
 21
206.6479437019444
 31
0.0
1001
AUSTER_ANSICHT
1002
{
1000
Det03
1002
}
1001
AUSTER_FOLIE
1002
{
1000
NSB00055_3PSSTE45
1002
}
  0
LINE
  5
5913
330
20
100
AcDbEntity
  8
11000_Left
  6
Continuous
 62
     7
370
    50
100
AcDbLine
 39
0.7
 10
349.5786038384935
 20
189.490904084343
 30
0.0
 11
350.8786038384934
 21
189.490904084343
 31
0.0
1001
AUSTER_ANSICHT
1002
{
1000
Det03
1002
}
1001
AUSTER_FOLIE
1002
{
1000
NSB00055_3PSSTE45
1002
}
  0
LINE
  5
5914
330
20
100
AcDbEntity
  8
11000_Left
  6
Continuous
 62
     7
370
    50
100
AcDbLine
 39
0.7
 10
350.8786038384934
 20
189.490904084343
 30
0.0
 11
350.8786038384934
 21
204.490904084343
 31
0.0
1001
AUSTER_ANSICHT
1002
{
1000
Det03
1002
}
1001
AUSTER_FOLIE
1002
{
1000
NSB00055_3PSSTE45
1002
}
  0
LINE
  5
5915
330
20
100
AcDbEntity
  8
11000_Left
  6
Continuous
 62
     7
370
    50
100
AcDbLine
 39
0.7
 10
349.5786038384935
 20
204.648604084343
 30
0.0
 11
349.5786038384935
 21
189.490904084343
 31
0.0
1001
AUSTER_ANSICHT
1002
{
1000
Det03
1002
}
1001
AUSTER_FOLIE
1002
{
1000
NSB00055_3PSSTE45
1002
}
  0
LINE
  5
5916
330
20
100
AcDbEntity
  8
11000_Left
  6
Continuous
 62
     7
370
    50
100
AcDbLine
 39
0.5
 10
349.5786038384935
 20
204.648604084343
 30
0.0
 11
362.5716479342742
 21
204.648604084343
 31
0.0
1001
AUSTER_ANSICHT
1002
{
1000
Det03
1002
}
1001
AUSTER_FOLIE
1002
{
1000
NSB00055_3PSSTE45
1002
}
  0
DIMENSION
  5
6102
330
20
100
AcDbEntity
  8
10100_FRONT_DIM
  6
Continuous
 62
     7
370
    13
100
AcDbDimension
  2
*D8
 10
264.4568058924948
 20
154.9426898278421
 30
0.0
 11
162.9568058924948
 21
154.9426898278421
 31
0.0
 70
    32
 71
     5
 42
203.0
  3
H035
100
AcDbAlignedDimension
 13
61.45680589249479
 23
204.971004064347
 33
0.0
 14
264.4568058924948
 24
204.971004064347
 34
0.0
100
AcDbRotatedDimension
1001
ACAD
1000
DSTYLE
1002
{
1070
    40
1040
1.0
1070
    77
1070
     0
1070
   147
1040
1.5
1070
   272
1070
     0
1070
   279
1070
     1
1070
   288
1070
     1
1002
}
  0
DIMENSION
  5
6103
330
20
100
AcDbEntity
  8
10100_FRONT_DIM
  6
Continuous
 62
     7
370
    13
100
AcDbDimension
  2
*D7
 10
209.4568058924948
 20
164.2038670142292
 30
0.0
 11
135.4568058924948
 21
164.2038670142292
 31
0.0
 70
    32
 71
     5
 42
148.0
  3
H035
100
AcDbAlignedDimension
 13
61.45680589249479
 23
183.5874355392881
 33
0.0
 14
209.4568058924948
 24
204.971004064347
 34
0.0
100
AcDbRotatedDimension
1001
ACAD
1000
DSTYLE
1002
{
1070
    40
1040
1.0
1070
    77
1070
     0
1070
   147
1040
1.5
1070
   272
1070
     0
1070
   279
1070
     1
1070
   288
1070
     1
1002
}
  0
DIMENSION
  5
6104
330
20
100
AcDbEntity
  8
10100_FRONT_DIM
  6
Continuous
 62
     7
370
    13
100
AcDbDimension
  2
*D6
 10
154.4568058924948
 20
173.3855947625078
 30
0.0
 11
107.9568058924948
 21
173.3855947625078
 31
0.0
 70
    32
 71
     5
 42
93.0
  3
H035
100
AcDbAlignedDimension
 13
61.45680589249479
 23
183.5874355392881
 33
0.0
 14
154.4568058924948
 24
204.971004064347
 34
0.0
100
AcDbRotatedDimension
1001
ACAD
1000
DSTYLE
1002
{
1070
    40
1040
1.0
1070
    77
1070
     0
1070
   147
1040
1.5
1070
   272
1070
     0
1070
   279
1070
     1
1070
   288
1070
     1
1002
}
  0
DIMENSION
  5
6105
330
20
100
AcDbEntity
  8
10100_FRONT_DIM
  6
Continuous
 62
     7
370
    13
100
AcDbDimension
  2
*D5
 10
121.0568058924947
 20
181.9599904651923
 30
0.0
 11
93.55680589249471
 21
181.9599904651923
 31
0.0
 70
    32
 71
     5
 42
54.99999999999999
  3
H035
100
AcDbAlignedDimension
 13
66.0568058924947
 23
196.971004064347
 33
0.0
 14
121.0568058924947
 24
196.9710040643469
 34
0.0
100
AcDbRotatedDimension
1001
ACAD
1000
DSTYLE
1002
{
1070
    40
1040
1.0
1070
    77
1070
     0
1070
   147
1040
1.5
1070
   272
1070
     0
1070
   279
1070
     1
1070
   288
1070
     1
1002
}
  0
ARC
  5
6106
330
20
100
AcDbEntity
  8
10000_FRONT
 62
     7
370
    50
100
AcDbCircle
 10
118.1568058924946
 20
192.7210040643471
 30
0.0
 40
0.8000000000000111
100
AcDbArc
 50
180.0
 51
0.0
1001
AUSTER_FOLIE
1002
{
1000
NSB00056_3PSSTE55
1002
}
1001
AUSTER_ANSICHT
1002
{
1000
Det03
1002
}
  0
LINE
  5
6107
330
20
100
AcDbEntity
  8
10000_FRONT
 62
     7
370
    50
100
AcDbLine
 10
117.3568058924949
 20
200.5210040643469
 30
0.0
 11
118.5568058924947
 21
201.7210040643468
 31
0.0
1001
AUSTER_FOLIE
1002
{
1000
NSB00056_3PSSTE55
1002
}
1001
AUSTER_ANSICHT
1002
{
1000
Det03
1002
}
  0
LINE
  5
6108
330
20
100
AcDbEntity
  8
10000_FRONT
 62
     7
370
    50
100
AcDbLine
 10
61.45680589249479
 20
204.971004064347
 30
0.0
 11
264.4568058924948
 21
204.971004064347
 31
0.0
1001
AUSTER_FOLIE
1002
{
1000
NSB00056_3PSSTE55
1002
}
1001
AUSTER_ANSICHT
1002
{
1000
Det03
1002
}
  0
LINE
  5
6109
330
20
100
AcDbEntity
  8
10000_FRONT
 62
     7
370
    50
100
AcDbLine
 10
61.45680589249479
 20
226.128604084343
 30
0.0
 11
264.4568058924948
 21
226.128604084343
 31
0.0
1001
AUSTER_FOLIE
1002
{
1000
NSB00056_3PSSTE55
1002
}
1001
AUSTER_ANSICHT
1002
{
1000
Det03
1002
}
  0
LINE
  5
610A
330
20
100
AcDbEntity
  8
10000_FRONT
  6
Continuous
 62
     7
370
    50
100
AcDbLine
 39
0.7
 10
82.5568058924947
 20
196.971004064347
 30
0.0
 11
82.5568058924947
 21
192.721004064347
 31
0.0
1001
AUSTER_ANSICHT
1002
{
1000
Det03
1002
}
1001
AUSTER_FOLIE
1002
{
1000
NSB00056_3PSSTE55
1002
}
  0
LINE
  5
610B
330
20
100
AcDbEntity
  8
10000_FRONT
  6
Continuous
 62
     7
370
    50
100
AcDbLine
 39
0.7
 10
78.35680589249489
 20
196.971004064347
 30
0.0
 11
78.35680589249466
 21
192.721004064347
 31
0.0
1001
AUSTER_ANSICHT
1002
{
1000
Det03
1002
}
1001
AUSTER_FOLIE
1002
{
1000
NSB00056_3PSSTE55
1002
}
  0
LINE
  5
610C
330
20
100
AcDbEntity
  8
10000_FRONT
  6
Continuous
 62
     7
370
    50
100
AcDbLine
 39
0.7
 10
92.75680589249477
 20
196.971004064347
 30
0.0
 11
92.75680589249452
 21
192.721004064347
 31
0.0
1001
AUSTER_ANSICHT
1002
{
1000
Det03
1002
}
1001
AUSTER_FOLIE
1002
{
1000
NSB00056_3PSSTE55
1002
}
  0
LINE
  5
610D
330
20
100
AcDbEntity
  8
10000_FRONT
  6
Continuous
 62
     7
370
    50
100
AcDbLine
 39
0.7
 10
96.9568058924948
 20
196.971004064347
 30
0.0
 11
96.9568058924948
 21
192.721004064347
 31
0.0
1001
AUSTER_ANSICHT
1002
{
1000
Det03
1002
}
1001
AUSTER_FOLIE
1002
{
1000
NSB00056_3PSSTE55
1002
}
  0
LINE
  5
610E
330
20
100
AcDbEntity
  8
10000_FRONT
  6
Continuous
 62
     7
370
    50
100
AcDbLine
 39
0.7
 10
63.95680589249479
 20
196.971004064347
 30
0.0
 11
63.95680589249479
 21
192.721004064347
 31
0.0
1001
AUSTER_ANSICHT
1002
{
1000
Det03
1002
}
1001
AUSTER_FOLIE
1002
{
1000
NSB00056_3PSSTE55
1002
}
  0
LINE
  5
610F
330
20
100
AcDbEntity
  8
10000_FRONT
  6
Continuous
 62
     7
370
    50
100
AcDbLine
 39
0.7
 10
68.15680589249462
 20
196.971004064347
 30
0.0
 11
68.15680589249485
 21
192.721004064347
 31
0.0
1001
AUSTER_ANSICHT
1002
{
1000
Det03
1002
}
1001
AUSTER_FOLIE
1002
{
1000
NSB00056_3PSSTE55
1002
}
  0
LINE
  5
6110
330
20
100
AcDbEntity
  8
10000_FRONT
 62
     7
370
    50
100
AcDbLine
 10
61.45680589249479
 20
204.971004064347
 30
0.0
 11
61.45680589249479
 21
226.128604084343
 31
0.0
1001
AUSTER_FOLIE
1002
{
1000
NSB00056_3PSSTE55
1002
}
1001
AUSTER_ANSICHT
1002
{
1000
Det03
1002
}
  0
ARC
  5
6112
330
20
100
AcDbEntity
  8
10000_FRONT
 62
     7
370
    50
100
AcDbCircle
 10
68.95680589249479
 20
192.7210040643471
 30
0.0
 40
0.8000000000000111
100
AcDbArc
 50
180.0
 51
0.0
1001
AUSTER_FOLIE
1002
{
1000
NSB00056_3PSSTE55
1002
}
1001
AUSTER_ANSICHT
1002
{
1000
Det03
1002
}
  0
LINE
  5
6113
330
20
100
AcDbEntity
  8
10000_FRONT
 62
     7
370
    50
100
AcDbLine
 10
69.75680589249454
 20
200.5210040643469
 30
0.0
 11
68.5568058924947
 21
201.7210040643468
 31
0.0
1001
AUSTER_FOLIE
1002
{
1000
NSB00056_3PSSTE55
1002
}
1001
AUSTER_ANSICHT
1002
{
1000
Det03
1002
}
  0
LINE
  5
6114
330
20
100
AcDbEntity
  8
10000_FRONT
 62
     7
370
    50
100
AcDbLine
 10
63.5568058924947
 20
204.9711040443511
 30
0.0
 11
63.5568058924947
 21
201.7210040643468
 31
0.0
1001
AUSTER_FOLIE
1002
{
1000
NSB00056_3PSSTE55
1002
}
1001
AUSTER_ANSICHT
1002
{
1000
Det03
1002
}
  0
LINE
  5
6115
330
20
100
AcDbEntity
  8
10000_FRONT
 62
     7
370
    50
100
AcDbLine
 10
68.5568058924947
 20
204.9711040443511
 30
0.0
 11
68.5568058924947
 21
201.7210040643468
 31
0.0
1001
AUSTER_FOLIE
1002
{
1000
NSB00056_3PSSTE55
1002
}
1001
AUSTER_ANSICHT
1002
{
1000
Det03
1002
}
  0
ARC
  5
6116
330
20
100
AcDbEntity
  8
10000_FRONT
 62
     7
370
    50
100
AcDbCircle
 10
63.15680589249462
 20
192.7210040643471
 30
0.0
 40
0.8000000000000111
100
AcDbArc
 50
180.0
 51
0.0
1001
AUSTER_FOLIE
1002
{
1000
NSB00056_3PSSTE55
1002
}
1001
AUSTER_ANSICHT
1002
{
1000
Det03
1002
}
  0
ARC
  5
6117
330
20
100
AcDbEntity
  8
10000_FRONT
 62
     7
370
    50
100
AcDbCircle
 10
66.0568058924947
 20
196.971004064347
 30
0.0
 40
2.099999999999965
100
AcDbArc
 50
0.0
 51
180.0
1001
AUSTER_FOLIE
1002
{
1000
NSB00056_3PSSTE55
1002
}
1001
AUSTER_ANSICHT
1002
{
1000
Det03
1002
}
  0
LINE
  5
6118
330
20
100
AcDbEntity
  8
10000_FRONT
 62
     7
370
    50
100
AcDbLine
 10
62.35680589249489
 20
200.5210040643469
 30
0.0
 11
62.35680589249466
 21
192.7210040643471
 31
0.0
1001
AUSTER_FOLIE
1002
{
1000
NSB00056_3PSSTE55
1002
}
1001
AUSTER_ANSICHT
1002
{
1000
Det03
1002
}
  0
LINE
  5
6119
330
20
100
AcDbEntity
  8
10000_FRONT
 62
     7
370
    50
100
AcDbLine
 10
62.35680589249489
 20
200.5210040643469
 30
0.0
 11
63.5568058924947
 21
201.7210040643468
 31
0.0
1001
AUSTER_FOLIE
1002
{
1000
NSB00056_3PSSTE55
1002
}
1001
AUSTER_ANSICHT
1002
{
1000
Det03
1002
}
  0
LINE
  5
611A
330
20
100
AcDbEntity
  8
10000_FRONT
 62
     7
370
    50
100
AcDbLine
 10
69.75680589249454
 20
200.5210040643471
 30
0.0
 11
69.75680589249498
 21
192.7210040643471
 31
0.0
1001
AUSTER_FOLIE
1002
{
1000
NSB00056_3PSSTE55
1002
}
1001
AUSTER_ANSICHT
1002
{
1000
Det03
1002
}
  0
ARC
  5
611B
330
20
100
AcDbEntity
  8
10000_FRONT
 62
     7
370
    50
100
AcDbCircle
 10
97.75680589249477
 20
192.7210040643471
 30
0.0
 40
0.8000000000000111
100
AcDbArc
 50
180.0
 51
0.0
1001
AUSTER_FOLIE
1002
{
1000
NSB00056_3PSSTE55
1002
}
1001
AUSTER_ANSICHT
1002
{
1000
Det03
1002
}
  0
LINE
  5
611C
330
20
100
AcDbEntity
  8
10000_FRONT
 62
     7
370
    50
100
AcDbLine
 10
92.35680589249488
 20
204.9711040443511
 30
0.0
 11
92.35680589249488
 21
201.7210040643468
 31
0.0
1001
AUSTER_FOLIE
1002
{
1000
NSB00056_3PSSTE55
1002
}
1001
AUSTER_ANSICHT
1002
{
1000
Det03
1002
}
  0
ARC
  5
611D
330
20
100
AcDbEntity
  8
10000_FRONT
 62
     7
370
    50
100
AcDbCircle
 10
91.95680589249455
 20
192.7210040643471
 30
0.0
 40
0.8000000000000111
100
AcDbArc
 50
180.0
 51
0.0
1001
AUSTER_FOLIE
1002
{
1000
NSB00056_3PSSTE55
1002
}
1001
AUSTER_ANSICHT
1002
{
1000
Det03
1002
}
  0
LINE
  5
611E
330
20
100
AcDbEntity
  8
10000_FRONT
 62
     7
370
    50
100
AcDbLine
 10
91.15680589249484
 20
200.5210040643469
 30
0.0
 11
91.15680589249462
 21
192.7210040643471
 31
0.0
1001
AUSTER_FOLIE
1002
{
1000
NSB00056_3PSSTE55
1002
}
1001
AUSTER_ANSICHT
1002
{
1000
Det03
1002
}
  0
LINE
  5
611F
330
20
100
AcDbEntity
  8
10000_FRONT
 62
     7
370
    50
100
AcDbLine
 10
91.15680589249508
 20
200.5210040643469
 30
0.0
 11
92.35680589249488
 21
201.7210040643468
 31
0.0
1001
AUSTER_FOLIE
1002
{
1000
NSB00056_3PSSTE55
1002
}
1001
AUSTER_ANSICHT
1002
{
1000
Det03
1002
}
  0
ARC
  5
6120
330
20
100
AcDbEntity
  8
10000_FRONT
 62
     7
370
    50
100
AcDbCircle
 10
94.85680589249467
 20
196.971004064347
 30
0.0
 40
2.099999999999965
100
AcDbArc
 50
0.0
 51
180.0
1001
AUSTER_FOLIE
1002
{
1000
NSB00056_3PSSTE55
1002
}
1001
AUSTER_ANSICHT
1002
{
1000
Det03
1002
}
  0
LINE
  5
6121
330
20
100
AcDbEntity
  8
10000_FRONT
 62
     7
370
    50
100
AcDbLine
 10
84.15680589249461
 20
200.5210040643471
 30
0.0
 11
84.15680589249484
 21
192.7210040643471
 31
0.0
1001
AUSTER_FOLIE
1002
{
1000
NSB00056_3PSSTE55
1002
}
1001
AUSTER_ANSICHT
1002
{
1000
Det03
1002
}
  0
LINE
  5
6122
330
20
100
AcDbEntity
  8
10000_FRONT
 62
     7
370
    50
100
AcDbLine
 10
76.75680589249498
 20
200.5210040643469
 30
0.0
 11
77.9568058924948
 21
201.7210040643468
 31
0.0
1001
AUSTER_FOLIE
1002
{
1000
NSB00056_3PSSTE55
1002
}
1001
AUSTER_ANSICHT
1002
{
1000
Det03
1002
}
  0
LINE
  5
6123
330
20
100
AcDbEntity
  8
10000_FRONT
 62
     7
370
    50
100
AcDbLine
 10
76.75680589249498
 20
200.5210040643469
 30
0.0
 11
76.75680589249451
 21
192.7210040643471
 31
0.0
1001
AUSTER_FOLIE
1002
{
1000
NSB00056_3PSSTE55
1002
}
1001
AUSTER_ANSICHT
1002
{
1000
Det03
1002
}
  0
ARC
  5
6124
330
20
100
AcDbEntity
  8
10000_FRONT
 62
     7
370
    50
100
AcDbCircle
 10
80.4568058924948
 20
196.971004064347
 30
0.0
 40
2.099999999999965
100
AcDbArc
 50
0.0
 51
180.0
1001
AUSTER_FOLIE
1002
{
1000
NSB00056_3PSSTE55
1002
}
1001
AUSTER_ANSICHT
1002
{
1000
Det03
1002
}
  0
ARC
  5
6125
330
20
100
AcDbEntity
  8
10000_FRONT
 62
     7
370
    50
100
AcDbCircle
 10
77.55680589249471
 20
192.7210040643471
 30
0.0
 40
0.8000000000000111
100
AcDbArc
 50
180.0
 51
0.0
1001
AUSTER_FOLIE
1002
{
1000
NSB00056_3PSSTE55
1002
}
1001
AUSTER_ANSICHT
1002
{
1000
Det03
1002
}
  0
LINE
  5
6126
330
20
100
AcDbEntity
  8
10000_FRONT
 62
     7
370
    50
100
AcDbLine
 10
82.9568058924948
 20
204.9711040443511
 30
0.0
 11
82.9568058924948
 21
201.7210040643468
 31
0.0
1001
AUSTER_FOLIE
1002
{
1000
NSB00056_3PSSTE55
1002
}
1001
AUSTER_ANSICHT
1002
{
1000
Det03
1002
}
  0
LINE
  5
6127
330
20
100
AcDbEntity
  8
10000_FRONT
 62
     7
370
    50
100
AcDbLine
 10
77.9568058924948
 20
204.9711040443511
 30
0.0
 11
77.9568058924948
 21
201.7210040643468
 31
0.0
1001
AUSTER_FOLIE
1002
{
1000
NSB00056_3PSSTE55
1002
}
1001
AUSTER_ANSICHT
1002
{
1000
Det03
1002
}
  0
LINE
  5
6128
330
20
100
AcDbEntity
  8
10000_FRONT
 62
     7
370
    50
100
AcDbLine
 10
84.15680589249461
 20
200.5210040643469
 30
0.0
 11
82.9568058924948
 21
201.7210040643468
 31
0.0
1001
AUSTER_FOLIE
1002
{
1000
NSB00056_3PSSTE55
1002
}
1001
AUSTER_ANSICHT
1002
{
1000
Det03
1002
}
  0
ARC
  5
6129
330
20
100
AcDbEntity
  8
10000_FRONT
 62
     7
370
    50
100
AcDbCircle
 10
83.3568058924949
 20
192.7210040643471
 30
0.0
 40
0.8000000000000111
100
AcDbArc
 50
180.0
 51
0.0
1001
AUSTER_FOLIE
1002
{
1000
NSB00056_3PSSTE55
1002
}
1001
AUSTER_ANSICHT
1002
{
1000
Det03
1002
}
  0
LINE
  5
612A
330
20
100
AcDbEntity
  8
10000_FRONT
 62
     7
370
    50
100
AcDbLine
 10
117.3568058924949
 20
200.5210040643469
 30
0.0
 11
117.3568058924946
 21
192.7210040643471
 31
0.0
1001
AUSTER_FOLIE
1002
{
1000
NSB00056_3PSSTE55
1002
}
1001
AUSTER_ANSICHT
1002
{
1000
Det03
1002
}
  0
LINE
  5
612B
330
20
100
AcDbEntity
  8
10000_FRONT
 62
     7
370
    50
100
AcDbLine
 10
98.55680589249448
 20
200.5210040643469
 30
0.0
 11
97.35680589249469
 21
201.7210040643468
 31
0.0
1001
AUSTER_FOLIE
1002
{
1000
NSB00056_3PSSTE55
1002
}
1001
AUSTER_ANSICHT
1002
{
1000
Det03
1002
}
  0
LINE
  5
612C
330
20
100
AcDbEntity
  8
10000_FRONT
 62
     7
370
    50
100
AcDbLine
 10
97.35680589249469
 20
204.9711040443511
 30
0.0
 11
97.35680589249469
 21
201.7210040643468
 31
0.0
1001
AUSTER_FOLIE
1002
{
1000
NSB00056_3PSSTE55
1002
}
1001
AUSTER_ANSICHT
1002
{
1000
Det03
1002
}
  0
LINE
  5
612D
330
20
100
AcDbEntity
  8
10000_FRONT
 62
     7
370
    50
100
AcDbLine
 10
98.55680589249473
 20
200.5210040643471
 30
0.0
 11
98.55680589249473
 21
192.7210040643471
 31
0.0
1001
AUSTER_FOLIE
1002
{
1000
NSB00056_3PSSTE55
1002
}
1001
AUSTER_ANSICHT
1002
{
1000
Det03
1002
}
  0
LINE
  5
6135
330
20
100
AcDbEntity
  8
10000_FRONT
  6
Continuous
 62
     7
370
    50
100
AcDbLine
 39
0.7
 10
261.9568058924947
 20
196.971004064347
 30
0.0
 11
261.9568058924948
 21
192.721004064347
 31
0.0
1001
AUSTER_ANSICHT
1002
{
1000
Det03
1002
}
1001
AUSTER_FOLIE
1002
{
1000
NSB00056_3PSSTE55
1002
}
  0
LINE
  5
6136
330
20
100
AcDbEntity
  8
10000_FRONT
  6
Continuous
 62
     7
370
    50
100
AcDbLine
 39
0.7
 10
257.7568058924947
 20
196.971004064347
 30
0.0
 11
257.7568058924947
 21
192.721004064347
 31
0.0
1001
AUSTER_ANSICHT
1002
{
1000
Det03
1002
}
1001
AUSTER_FOLIE
1002
{
1000
NSB00056_3PSSTE55
1002
}
  0
LINE
  5
6137
330
20
100
AcDbEntity
  8
10000_FRONT
  6
Continuous
 62
     7
370
    50
100
AcDbLine
 39
0.7
 10
243.3568058924948
 20
196.971004064347
 30
0.0
 11
243.3568058924947
 21
192.721004064347
 31
0.0
1001
AUSTER_ANSICHT
1002
{
1000
Det03
1002
}
1001
AUSTER_FOLIE
1002
{
1000
NSB00056_3PSSTE55
1002
}
  0
LINE
  5
6138
330
20
100
AcDbEntity
  8
10000_FRONT
  6
Continuous
 62
     7
370
    50
100
AcDbLine
 39
0.7
 10
247.5568058924947
 20
196.971004064347
 30
0.0
 11
247.5568058924948
 21
192.721004064347
 31
0.0
1001
AUSTER_ANSICHT
1002
{
1000
Det03
1002
}
1001
AUSTER_FOLIE
1002
{
1000
NSB00056_3PSSTE55
1002
}
  0
LINE
  5
6139
330
20
100
AcDbEntity
  8
10000_FRONT
  6
Continuous
 62
     7
370
    50
100
AcDbLine
 39
0.7
 10
233.1568058924947
 20
196.971004064347
 30
0.0
 11
233.1568058924948
 21
192.721004064347
 31
0.0
1001
AUSTER_ANSICHT
1002
{
1000
Det03
1002
}
1001
AUSTER_FOLIE
1002
{
1000
NSB00056_3PSSTE55
1002
}
  0
LINE
  5
613A
330
20
100
AcDbEntity
  8
10000_FRONT
  6
Continuous
 62
     7
370
    50
100
AcDbLine
 39
0.7
 10
228.9568058924948
 20
196.971004064347
 30
0.0
 11
228.9568058924947
 21
192.721004064347
 31
0.0
1001
AUSTER_ANSICHT
1002
{
1000
Det03
1002
}
1001
AUSTER_FOLIE
1002
{
1000
NSB00056_3PSSTE55
1002
}
  0
LINE
  5
613B
330
20
100
AcDbEntity
  8
10000_FRONT
  6
Continuous
 62
     7
370
    50
100
AcDbLine
 39
0.7
 10
173.9568058924948
 20
196.971004064347
 30
0.0
 11
173.9568058924948
 21
192.721004064347
 31
0.0
1001
AUSTER_ANSICHT
1002
{
1000
Det03
1002
}
1001
AUSTER_FOLIE
1002
{
1000
NSB00056_3PSSTE55
1002
}
  0
LINE
  5
613C
330
20
100
AcDbEntity
  8
10000_FRONT
  6
Continuous
 62
     7
370
    50
100
AcDbLine
 39
0.7
 10
178.1568058924946
 20
196.971004064347
 30
0.0
 11
178.1568058924948
 21
192.721004064347
 31
0.0
1001
AUSTER_ANSICHT
1002
{
1000
Det03
1002
}
1001
AUSTER_FOLIE
1002
{
1000
NSB00056_3PSSTE55
1002
}
  0
LINE
  5
613D
330
20
100
AcDbEntity
  8
10000_FRONT
  6
Continuous
 62
     7
370
    50
100
AcDbLine
 39
0.7
 10
192.5568058924947
 20
196.971004064347
 30
0.0
 11
192.5568058924947
 21
192.721004064347
 31
0.0
1001
AUSTER_ANSICHT
1002
{
1000
Det03
1002
}
1001
AUSTER_FOLIE
1002
{
1000
NSB00056_3PSSTE55
1002
}
  0
LINE
  5
613E
330
20
100
AcDbEntity
  8
10000_FRONT
  6
Continuous
 62
     7
370
    50
100
AcDbLine
 39
0.7
 10
188.3568058924949
 20
196.971004064347
 30
0.0
 11
188.3568058924945
 21
192.721004064347
 31
0.0
1001
AUSTER_ANSICHT
1002
{
1000
Det03
1002
}
1001
AUSTER_FOLIE
1002
{
1000
NSB00056_3PSSTE55
1002
}
  0
LINE
  5
613F
330
20
100
AcDbEntity
  8
10000_FRONT
  6
Continuous
 62
     7
370
    50
100
AcDbLine
 39
0.7
 10
202.7568058924948
 20
196.971004064347
 30
0.0
 11
202.7568058924946
 21
192.721004064347
 31
0.0
1001
AUSTER_ANSICHT
1002
{
1000
Det03
1002
}
1001
AUSTER_FOLIE
1002
{
1000
NSB00056_3PSSTE55
1002
}
  0
LINE
  5
6140
330
20
100
AcDbEntity
  8
10000_FRONT
  6
Continuous
 62
     7
370
    50
100
AcDbLine
 39
0.7
 10
206.9568058924947
 20
196.971004064347
 30
0.0
 11
206.9568058924948
 21
192.721004064347
 31
0.0
1001
AUSTER_ANSICHT
1002
{
1000
Det03
1002
}
1001
AUSTER_FOLIE
1002
{
1000
NSB00056_3PSSTE55
1002
}
  0
LINE
  5
6141
330
20
100
AcDbEntity
  8
10000_FRONT
  6
Continuous
 62
     7
370
    50
100
AcDbLine
 39
0.7
 10
151.9568058924948
 20
196.971004064347
 30
0.0
 11
151.9568058924948
 21
192.721004064347
 31
0.0
1001
AUSTER_ANSICHT
1002
{
1000
Det03
1002
}
1001
AUSTER_FOLIE
1002
{
1000
NSB00056_3PSSTE55
1002
}
  0
LINE
  5
6142
330
20
100
AcDbEntity
  8
10000_FRONT
  6
Continuous
 62
     7
370
    50
100
AcDbLine
 39
0.7
 10
147.7568058924946
 20
196.971004064347
 30
0.0
 11
147.7568058924945
 21
192.721004064347
 31
0.0
1001
AUSTER_ANSICHT
1002
{
1000
Det03
1002
}
1001
AUSTER_FOLIE
1002
{
1000
NSB00056_3PSSTE55
1002
}
  0
LINE
  5
6143
330
20
100
AcDbEntity
  8
10000_FRONT
  6
Continuous
 62
     7
370
    50
100
AcDbLine
 39
0.7
 10
133.3568058924949
 20
196.971004064347
 30
0.0
 11
133.3568058924946
 21
192.721004064347
 31
0.0
1001
AUSTER_ANSICHT
1002
{
1000
Det03
1002
}
1001
AUSTER_FOLIE
1002
{
1000
NSB00056_3PSSTE55
1002
}
  0
LINE
  5
6144
330
20
100
AcDbEntity
  8
10000_FRONT
  6
Continuous
 62
     7
370
    50
100
AcDbLine
 39
0.7
 10
137.5568058924947
 20
196.971004064347
 30
0.0
 11
137.5568058924947
 21
192.721004064347
 31
0.0
1001
AUSTER_ANSICHT
1002
{
1000
Det03
1002
}
1001
AUSTER_FOLIE
1002
{
1000
NSB00056_3PSSTE55
1002
}
  0
LINE
  5
6145
330
20
100
AcDbEntity
  8
10000_FRONT
  6
Continuous
 62
     7
370
    50
100
AcDbLine
 39
0.7
 10
123.1568058924946
 20
196.971004064347
 30
0.0
 11
123.1568058924948
 21
192.721004064347
 31
0.0
1001
AUSTER_ANSICHT
1002
{
1000
Det03
1002
}
1001
AUSTER_FOLIE
1002
{
1000
NSB00056_3PSSTE55
1002
}
  0
LINE
  5
6146
330
20
100
AcDbEntity
  8
10000_FRONT
  6
Continuous
 62
     7
370
    50
100
AcDbLine
 39
0.7
 10
118.9568058924948
 20
196.971004064347
 30
0.0
 11
118.9568058924948
 21
192.721004064347
 31
0.0
1001
AUSTER_ANSICHT
1002
{
1000
Det03
1002
}
1001
AUSTER_FOLIE
1002
{
1000
NSB00056_3PSSTE55
1002
}
  0
ARC
  5
6147
330
20
100
AcDbEntity
  8
10000_FRONT
 62
     7
370
    50
100
AcDbCircle
 10
204.8568058924947
 20
196.971004064347
 30
0.0
 40
2.099999999999965
100
AcDbArc
 50
0.0
 51
180.0
1001
AUSTER_FOLIE
1002
{
1000
NSB00056_3PSSTE55
1002
}
1001
AUSTER_ANSICHT
1002
{
1000
Det03
1002
}
  0
LINE
  5
6148
330
20
100
AcDbEntity
  8
10000_FRONT
 62
     7
370
    50
100
AcDbLine
 10
121.0568058924947
 20
204.971004064347
 30
0.0
 11
176.0568058924947
 21
204.971004064347
 31
0.0
1001
AUSTER_FOLIE
1002
{
1000
NSB00056_3PSSTE55
1002
}
1001
AUSTER_ANSICHT
1002
{
1000
Det03
1002
}
  0
ARC
  5
6149
330
20
100
AcDbEntity
  8
10000_FRONT
 62
     7
370
    50
100
AcDbCircle
 10
138.3568058924949
 20
192.7210040643471
 30
0.0
 40
0.8000000000000111
100
AcDbArc
 50
180.0
 51
0.0
1001
AUSTER_FOLIE
1002
{
1000
NSB00056_3PSSTE55
1002
}
1001
AUSTER_ANSICHT
1002
{
1000
Det03
1002
}
  0
LINE
  5
614A
330
20
100
AcDbEntity
  8
10000_FRONT
 62
     7
370
    50
100
AcDbLine
 10
139.1568058924946
 20
200.5210040643469
 30
0.0
 11
137.9568058924948
 21
201.7210040643468
 31
0.0
1001
AUSTER_FOLIE
1002
{
1000
NSB00056_3PSSTE55
1002
}
1001
AUSTER_ANSICHT
1002
{
1000
Det03
1002
}
  0
LINE
  5
614B
330
20
100
AcDbEntity
  8
10000_FRONT
 62
     7
370
    50
100
AcDbLine
 10
132.9568058924948
 20
204.9711040443511
 30
0.0
 11
132.9568058924948
 21
201.7210040643468
 31
0.0
1001
AUSTER_FOLIE
1002
{
1000
NSB00056_3PSSTE55
1002
}
1001
AUSTER_ANSICHT
1002
{
1000
Det03
1002
}
  0
LINE
  5
614C
330
20
100
AcDbEntity
  8
10000_FRONT
 62
     7
370
    50
100
AcDbLine
 10
137.9568058924948
 20
204.9711040443511
 30
0.0
 11
137.9568058924948
 21
201.7210040643468
 31
0.0
1001
AUSTER_FOLIE
1002
{
1000
NSB00056_3PSSTE55
1002
}
1001
AUSTER_ANSICHT
1002
{
1000
Det03
1002
}
  0
ARC
  5
614D
330
20
100
AcDbEntity
  8
10000_FRONT
 62
     7
370
    50
100
AcDbCircle
 10
132.5568058924947
 20
192.7210040643471
 30
0.0
 40
0.8000000000000111
100
AcDbArc
 50
180.0
 51
0.0
1001
AUSTER_FOLIE
1002
{
1000
NSB00056_3PSSTE55
1002
}
1001
AUSTER_ANSICHT
1002
{
1000
Det03
1002
}
  0
ARC
  5
614E
330
20
100
AcDbEntity
  8
10000_FRONT
 62
     7
370
    50
100
AcDbCircle
 10
135.4568058924948
 20
196.971004064347
 30
0.0
 40
2.099999999999965
100
AcDbArc
 50
0.0
 51
180.0
1001
AUSTER_FOLIE
1002
{
1000
NSB00056_3PSSTE55
1002
}
1001
AUSTER_ANSICHT
1002
{
1000
Det03
1002
}
  0
LINE
  5
614F
330
20
100
AcDbEntity
  8
10000_FRONT
 62
     7
370
    50
100
AcDbLine
 10
131.756805892495
 20
200.5210040643469
 30
0.0
 11
131.7568058924945
 21
192.7210040643471
 31
0.0
1001
AUSTER_FOLIE
1002
{
1000
NSB00056_3PSSTE55
1002
}
1001
AUSTER_ANSICHT
1002
{
1000
Det03
1002
}
  0
LINE
  5
6150
330
20
100
AcDbEntity
  8
10000_FRONT
 62
     7
370
    50
100
AcDbLine
 10
131.756805892495
 20
200.5210040643469
 30
0.0
 11
132.9568058924948
 21
201.7210040643468
 31
0.0
1001
AUSTER_FOLIE
1002
{
1000
NSB00056_3PSSTE55
1002
}
1001
AUSTER_ANSICHT
1002
{
1000
Det03
1002
}
  0
LINE
  5
6151
330
20
100
AcDbEntity
  8
10000_FRONT
 62
     7
370
    50
100
AcDbLine
 10
139.1568058924946
 20
200.5210040643471
 30
0.0
 11
139.1568058924948
 21
192.7210040643471
 31
0.0
1001
AUSTER_FOLIE
1002
{
1000
NSB00056_3PSSTE55
1002
}
1001
AUSTER_ANSICHT
1002
{
1000
Det03
1002
}
  0
ARC
  5
6153
330
20
100
AcDbEntity
  8
10000_FRONT
 62
     7
370
    50
100
AcDbCircle
 10
121.0568058924947
 20
196.971004064347
 30
0.0
 40
2.099999999999965
100
AcDbArc
 50
0.0
 51
180.0
1001
AUSTER_FOLIE
1002
{
1000
NSB00056_3PSSTE55
1002
}
1001
AUSTER_ANSICHT
1002
{
1000
Det03
1002
}
  0
LINE
  5
6154
330
20
100
AcDbEntity
  8
10000_FRONT
 62
     7
370
    50
100
AcDbLine
 10
124.7568058924945
 20
200.5210040643471
 30
0.0
 11
124.756805892495
 21
192.7210040643471
 31
0.0
1001
AUSTER_FOLIE
1002
{
1000
NSB00056_3PSSTE55
1002
}
1001
AUSTER_ANSICHT
1002
{
1000
Det03
1002
}
  0
ARC
  5
6155
330
20
100
AcDbEntity
  8
10000_FRONT
 62
     7
370
    50
100
AcDbCircle
 10
123.9568058924948
 20
192.7210040643471
 30
0.0
 40
0.8000000000000111
100
AcDbArc
 50
180.0
 51
0.0
1001
AUSTER_FOLIE
1002
{
1000
NSB00056_3PSSTE55
1002
}
1001
AUSTER_ANSICHT
1002
{
1000
Det03
1002
}
  0
LINE
  5
6156
330
20
100
AcDbEntity
  8
10000_FRONT
 62
     7
370
    50
100
AcDbLine
 10
118.5568058924947
 20
204.9711040443511
 30
0.0
 11
118.5568058924947
 21
201.7210040643468
 31
0.0
1001
AUSTER_FOLIE
1002
{
1000
NSB00056_3PSSTE55
1002
}
1001
AUSTER_ANSICHT
1002
{
1000
Det03
1002
}
  0
LINE
  5
6157
330
20
100
AcDbEntity
  8
10000_FRONT
 62
     7
370
    50
100
AcDbLine
 10
123.5568058924947
 20
204.9711040443511
 30
0.0
 11
123.5568058924947
 21
201.7210040643468
 31
0.0
1001
AUSTER_FOLIE
1002
{
1000
NSB00056_3PSSTE55
1002
}
1001
AUSTER_ANSICHT
1002
{
1000
Det03
1002
}
  0
LINE
  5
6158
330
20
100
AcDbEntity
  8
10000_FRONT
 62
     7
370
    50
100
AcDbLine
 10
124.7568058924945
 20
200.5210040643469
 30
0.0
 11
123.5568058924947
 21
201.7210040643468
 31
0.0
1001
AUSTER_FOLIE
1002
{
1000
NSB00056_3PSSTE55
1002
}
1001
AUSTER_ANSICHT
1002
{
1000
Det03
1002
}
  0
LINE
  5
6159
330
20
100
AcDbEntity
  8
10000_FRONT
 62
     7
370
    50
100
AcDbLine
 10
153.5568058924947
 20
200.5210040643471
 30
0.0
 11
153.5568058924947
 21
192.7210040643471
 31
0.0
1001
AUSTER_FOLIE
1002
{
1000
NSB00056_3PSSTE55
1002
}
1001
AUSTER_ANSICHT
1002
{
1000
Det03
1002
}
  0
LINE
  5
615A
330
20
100
AcDbEntity
  8
10000_FRONT
 62
     7
370
    50
100
AcDbLine
 10
146.156805892495
 20
200.5210040643469
 30
0.0
 11
147.3568058924949
 21
201.7210040643468
 31
0.0
1001
AUSTER_FOLIE
1002
{
1000
NSB00056_3PSSTE55
1002
}
1001
AUSTER_ANSICHT
1002
{
1000
Det03
1002
}
  0
LINE
  5
615B
330
20
100
AcDbEntity
  8
10000_FRONT
 62
     7
370
    50
100
AcDbLine
 10
146.1568058924948
 20
200.5210040643469
 30
0.0
 11
146.1568058924946
 21
192.7210040643471
 31
0.0
1001
AUSTER_FOLIE
1002
{
1000
NSB00056_3PSSTE55
1002
}
1001
AUSTER_ANSICHT
1002
{
1000
Det03
1002
}
  0
ARC
  5
615C
330
20
100
AcDbEntity
  8
10000_FRONT
 62
     7
370
    50
100
AcDbCircle
 10
149.8568058924946
 20
196.971004064347
 30
0.0
 40
2.099999999999965
100
AcDbArc
 50
0.0
 51
180.0
1001
AUSTER_FOLIE
1002
{
1000
NSB00056_3PSSTE55
1002
}
1001
AUSTER_ANSICHT
1002
{
1000
Det03
1002
}
  0
ARC
  5
615D
330
20
100
AcDbEntity
  8
10000_FRONT
 62
     7
370
    50
100
AcDbCircle
 10
146.9568058924946
 20
192.7210040643471
 30
0.0
 40
0.8000000000000111
100
AcDbArc
 50
180.0
 51
0.0
1001
AUSTER_FOLIE
1002
{
1000
NSB00056_3PSSTE55
1002
}
1001
AUSTER_ANSICHT
1002
{
1000
Det03
1002
}
  0
LINE
  5
615E
330
20
100
AcDbEntity
  8
10000_FRONT
 62
     7
370
    50
100
AcDbLine
 10
152.3568058924946
 20
204.9711040443511
 30
0.0
 11
152.3568058924946
 21
201.7210040643468
 31
0.0
1001
AUSTER_FOLIE
1002
{
1000
NSB00056_3PSSTE55
1002
}
1001
AUSTER_ANSICHT
1002
{
1000
Det03
1002
}
  0
LINE
  5
615F
330
20
100
AcDbEntity
  8
10000_FRONT
 62
     7
370
    50
100
AcDbLine
 10
147.3568058924949
 20
204.9711040443511
 30
0.0
 11
147.3568058924949
 21
201.7210040643468
 31
0.0
1001
AUSTER_FOLIE
1002
{
1000
NSB00056_3PSSTE55
1002
}
1001
AUSTER_ANSICHT
1002
{
1000
Det03
1002
}
  0
LINE
  5
6160
330
20
100
AcDbEntity
  8
10000_FRONT
 62
     7
370
    50
100
AcDbLine
 10
153.5568058924944
 20
200.5210040643469
 30
0.0
 11
152.3568058924946
 21
201.7210040643468
 31
0.0
1001
AUSTER_FOLIE
1002
{
1000
NSB00056_3PSSTE55
1002
}
1001
AUSTER_ANSICHT
1002
{
1000
Det03
1002
}
  0
ARC
  5
6161
330
20
100
AcDbEntity
  8
10000_FRONT
 62
     7
370
    50
100
AcDbCircle
 10
152.7568058924947
 20
192.7210040643471
 30
0.0
 40
0.8000000000000111
100
AcDbArc
 50
180.0
 51
0.0
1001
AUSTER_FOLIE
1002
{
1000
NSB00056_3PSSTE55
1002
}
1001
AUSTER_ANSICHT
1002
{
1000
Det03
1002
}
  0
ARC
  5
6162
330
20
100
AcDbEntity
  8
10000_FRONT
 62
     7
370
    50
100
AcDbCircle
 10
178.9568058924948
 20
192.7210040643471
 30
0.0
 40
0.8000000000000111
100
AcDbArc
 50
180.0
 51
0.0
1001
AUSTER_FOLIE
1002
{
1000
NSB00056_3PSSTE55
1002
}
1001
AUSTER_ANSICHT
1002
{
1000
Det03
1002
}
  0
LINE
  5
6163
330
20
100
AcDbEntity
  8
10000_FRONT
 62
     7
370
    50
100
AcDbLine
 10
179.7568058924945
 20
200.5210040643469
 30
0.0
 11
178.5568058924947
 21
201.7210040643468
 31
0.0
1001
AUSTER_FOLIE
1002
{
1000
NSB00056_3PSSTE55
1002
}
1001
AUSTER_ANSICHT
1002
{
1000
Det03
1002
}
  0
LINE
  5
6164
330
20
100
AcDbEntity
  8
10000_FRONT
 62
     7
370
    50
100
AcDbLine
 10
173.5568058924947
 20
204.9711040443511
 30
0.0
 11
173.5568058924947
 21
201.7210040643468
 31
0.0
1001
AUSTER_FOLIE
1002
{
1000
NSB00056_3PSSTE55
1002
}
1001
AUSTER_ANSICHT
1002
{
1000
Det03
1002
}
  0
LINE
  5
6165
330
20
100
AcDbEntity
  8
10000_FRONT
 62
     7
370
    50
100
AcDbLine
 10
178.5568058924947
 20
204.9711040443511
 30
0.0
 11
178.5568058924947
 21
201.7210040643468
 31
0.0
1001
AUSTER_FOLIE
1002
{
1000
NSB00056_3PSSTE55
1002
}
1001
AUSTER_ANSICHT
1002
{
1000
Det03
1002
}
  0
ARC
  5
6166
330
20
100
AcDbEntity
  8
10000_FRONT
 62
     7
370
    50
100
AcDbCircle
 10
173.1568058924946
 20
192.7210040643471
 30
0.0
 40
0.8000000000000111
100
AcDbArc
 50
180.0
 51
0.0
1001
AUSTER_FOLIE
1002
{
1000
NSB00056_3PSSTE55
1002
}
1001
AUSTER_ANSICHT
1002
{
1000
Det03
1002
}
  0
ARC
  5
6167
330
20
100
AcDbEntity
  8
10000_FRONT
 62
     7
370
    50
100
AcDbCircle
 10
176.0568058924947
 20
196.971004064347
 30
0.0
 40
2.099999999999965
100
AcDbArc
 50
0.0
 51
180.0
1001
AUSTER_FOLIE
1002
{
1000
NSB00056_3PSSTE55
1002
}
1001
AUSTER_ANSICHT
1002
{
1000
Det03
1002
}
  0
LINE
  5
6168
330
20
100
AcDbEntity
  8
10000_FRONT
 62
     7
370
    50
100
AcDbLine
 10
172.3568058924949
 20
200.5210040643469
 30
0.0
 11
172.3568058924946
 21
192.7210040643471
 31
0.0
1001
AUSTER_FOLIE
1002
{
1000
NSB00056_3PSSTE55
1002
}
1001
AUSTER_ANSICHT
1002
{
1000
Det03
1002
}
  0
LINE
  5
6169
330
20
100
AcDbEntity
  8
10000_FRONT
 62
     7
370
    50
100
AcDbLine
 10
172.3568058924949
 20
200.5210040643469
 30
0.0
 11
173.5568058924947
 21
201.7210040643468
 31
0.0
1001
AUSTER_FOLIE
1002
{
1000
NSB00056_3PSSTE55
1002
}
1001
AUSTER_ANSICHT
1002
{
1000
Det03
1002
}
  0
LINE
  5
616A
330
20
100
AcDbEntity
  8
10000_FRONT
 62
     7
370
    50
100
AcDbLine
 10
179.7568058924945
 20
200.5210040643471
 30
0.0
 11
179.756805892495
 21
192.7210040643471
 31
0.0
1001
AUSTER_FOLIE
1002
{
1000
NSB00056_3PSSTE55
1002
}
1001
AUSTER_ANSICHT
1002
{
1000
Det03
1002
}
  0
LINE
  5
616B
330
20
100
AcDbEntity
  8
10000_FRONT
 62
     7
370
    50
100
AcDbLine
 10
202.3568058924948
 20
204.9711040443511
 30
0.0
 11
202.3568058924948
 21
201.7210040643468
 31
0.0
1001
AUSTER_FOLIE
1002
{
1000
NSB00056_3PSSTE55
1002
}
1001
AUSTER_ANSICHT
1002
{
1000
Det03
1002
}
  0
ARC
  5
616C
330
20
100
AcDbEntity
  8
10000_FRONT
 62
     7
370
    50
100
AcDbCircle
 10
201.9568058924946
 20
192.7210040643471
 30
0.0
 40
0.8000000000000111
100
AcDbArc
 50
180.0
 51
0.0
1001
AUSTER_FOLIE
1002
{
1000
NSB00056_3PSSTE55
1002
}
1001
AUSTER_ANSICHT
1002
{
1000
Det03
1002
}
  0
LINE
  5
616D
330
20
100
AcDbEntity
  8
10000_FRONT
 62
     7
370
    50
100
AcDbLine
 10
201.1568058924948
 20
200.5210040643469
 30
0.0
 11
201.1568058924946
 21
192.7210040643471
 31
0.0
1001
AUSTER_FOLIE
1002
{
1000
NSB00056_3PSSTE55
1002
}
1001
AUSTER_ANSICHT
1002
{
1000
Det03
1002
}
  0
LINE
  5
616E
330
20
100
AcDbEntity
  8
10000_FRONT
 62
     7
370
    50
100
AcDbLine
 10
201.156805892495
 20
200.5210040643469
 30
0.0
 11
202.3568058924948
 21
201.7210040643468
 31
0.0
1001
AUSTER_FOLIE
1002
{
1000
NSB00056_3PSSTE55
1002
}
1001
AUSTER_ANSICHT
1002
{
1000
Det03
1002
}
  0
LINE
  5
616F
330
20
100
AcDbEntity
  8
10000_FRONT
 62
     7
370
    50
100
AcDbLine
 10
194.1568058924946
 20
200.5210040643471
 30
0.0
 11
194.1568058924948
 21
192.7210040643471
 31
0.0
1001
AUSTER_FOLIE
1002
{
1000
NSB00056_3PSSTE55
1002
}
1001
AUSTER_ANSICHT
1002
{
1000
Det03
1002
}
  0
LINE
  5
6170
330
20
100
AcDbEntity
  8
10000_FRONT
 62
     7
370
    50
100
AcDbLine
 10
186.756805892495
 20
200.5210040643469
 30
0.0
 11
187.9568058924948
 21
201.7210040643468
 31
0.0
1001
AUSTER_FOLIE
1002
{
1000
NSB00056_3PSSTE55
1002
}
1001
AUSTER_ANSICHT
1002
{
1000
Det03
1002
}
  0
LINE
  5
6171
330
20
100
AcDbEntity
  8
10000_FRONT
 62
     7
370
    50
100
AcDbLine
 10
186.756805892495
 20
200.5210040643469
 30
0.0
 11
186.7568058924945
 21
192.7210040643471
 31
0.0
1001
AUSTER_FOLIE
1002
{
1000
NSB00056_3PSSTE55
1002
}
1001
AUSTER_ANSICHT
1002
{
1000
Det03
1002
}
  0
ARC
  5
6172
330
20
100
AcDbEntity
  8
10000_FRONT
 62
     7
370
    50
100
AcDbCircle
 10
190.4568058924948
 20
196.971004064347
 30
0.0
 40
2.099999999999965
100
AcDbArc
 50
0.0
 51
180.0
1001
AUSTER_FOLIE
1002
{
1000
NSB00056_3PSSTE55
1002
}
1001
AUSTER_ANSICHT
1002
{
1000
Det03
1002
}
  0
ARC
  5
6173
330
20
100
AcDbEntity
  8
10000_FRONT
 62
     7
370
    50
100
AcDbCircle
 10
187.5568058924947
 20
192.7210040643471
 30
0.0
 40
0.8000000000000111
100
AcDbArc
 50
180.0
 51
0.0
1001
AUSTER_FOLIE
1002
{
1000
NSB00056_3PSSTE55
1002
}
1001
AUSTER_ANSICHT
1002
{
1000
Det03
1002
}
  0
LINE
  5
6174
330
20
100
AcDbEntity
  8
10000_FRONT
 62
     7
370
    50
100
AcDbLine
 10
192.9568058924948
 20
204.9711040443511
 30
0.0
 11
192.9568058924948
 21
201.7210040643468
 31
0.0
1001
AUSTER_FOLIE
1002
{
1000
NSB00056_3PSSTE55
1002
}
1001
AUSTER_ANSICHT
1002
{
1000
Det03
1002
}
  0
LINE
  5
6175
330
20
100
AcDbEntity
  8
10000_FRONT
 62
     7
370
    50
100
AcDbLine
 10
187.9568058924948
 20
204.9711040443511
 30
0.0
 11
187.9568058924948
 21
201.7210040643468
 31
0.0
1001
AUSTER_FOLIE
1002
{
1000
NSB00056_3PSSTE55
1002
}
1001
AUSTER_ANSICHT
1002
{
1000
Det03
1002
}
  0
LINE
  5
6176
330
20
100
AcDbEntity
  8
10000_FRONT
 62
     7
370
    50
100
AcDbLine
 10
194.1568058924946
 20
200.5210040643469
 30
0.0
 11
192.9568058924948
 21
201.7210040643468
 31
0.0
1001
AUSTER_FOLIE
1002
{
1000
NSB00056_3PSSTE55
1002
}
1001
AUSTER_ANSICHT
1002
{
1000
Det03
1002
}
  0
ARC
  5
6177
330
20
100
AcDbEntity
  8
10000_FRONT
 62
     7
370
    50
100
AcDbCircle
 10
193.3568058924949
 20
192.7210040643471
 30
0.0
 40
0.8000000000000111
100
AcDbArc
 50
180.0
 51
0.0
1001
AUSTER_FOLIE
1002
{
1000
NSB00056_3PSSTE55
1002
}
1001
AUSTER_ANSICHT
1002
{
1000
Det03
1002
}
  0
ARC
  5
6178
330
20
100
AcDbEntity
  8
10000_FRONT
 62
     7
370
    50
100
AcDbCircle
 10
248.3568058924949
 20
192.7210040643471
 30
0.0
 40
0.8000000000000111
100
AcDbArc
 50
180.0
 51
0.0
1001
AUSTER_FOLIE
1002
{
1000
NSB00056_3PSSTE55
1002
}
1001
AUSTER_ANSICHT
1002
{
1000
Det03
1002
}
  0
LINE
  5
6179
330
20
100
AcDbEntity
  8
10000_FRONT
 62
     7
370
    50
100
AcDbLine
 10
249.1568058924946
 20
200.5210040643469
 30
0.0
 11
247.9568058924948
 21
201.7210040643468
 31
0.0
1001
AUSTER_FOLIE
1002
{
1000
NSB00056_3PSSTE55
1002
}
1001
AUSTER_ANSICHT
1002
{
1000
Det03
1002
}
  0
ARC
  5
617B
330
20
100
AcDbEntity
  8
10000_FRONT
 62
     7
370
    50
100
AcDbCircle
 10
207.7568058924947
 20
192.7210040643471
 30
0.0
 40
0.8000000000000111
100
AcDbArc
 50
180.0
 51
0.0
1001
AUSTER_FOLIE
1002
{
1000
NSB00056_3PSSTE55
1002
}
1001
AUSTER_ANSICHT
1002
{
1000
Det03
1002
}
  0
LINE
  5
617C
330
20
100
AcDbEntity
  8
10000_FRONT
 62
     7
370
    50
100
AcDbLine
 10
208.5568058924945
 20
200.5210040643469
 30
0.0
 11
207.3568058924946
 21
201.7210040643468
 31
0.0
1001
AUSTER_FOLIE
1002
{
1000
NSB00056_3PSSTE55
1002
}
1001
AUSTER_ANSICHT
1002
{
1000
Det03
1002
}
  0
LINE
  5
617D
330
20
100
AcDbEntity
  8
10000_FRONT
 62
     7
370
    50
100
AcDbLine
 10
207.3568058924946
 20
204.9711040443511
 30
0.0
 11
207.3568058924946
 21
201.7210040643468
 31
0.0
1001
AUSTER_FOLIE
1002
{
1000
NSB00056_3PSSTE55
1002
}
1001
AUSTER_ANSICHT
1002
{
1000
Det03
1002
}
  0
LINE
  5
617E
330
20
100
AcDbEntity
  8
10000_FRONT
 62
     7
370
    50
100
AcDbLine
 10
208.5568058924946
 20
200.5210040643471
 30
0.0
 11
208.5568058924948
 21
192.7210040643471
 31
0.0
1001
AUSTER_FOLIE
1002
{
1000
NSB00056_3PSSTE55
1002
}
1001
AUSTER_ANSICHT
1002
{
1000
Det03
1002
}
  0
LINE
  5
617F
330
20
100
AcDbEntity
  8
10000_FRONT
 62
     7
370
    50
100
AcDbLine
 10
242.9568058924948
 20
204.9711040443511
 30
0.0
 11
242.9568058924948
 21
201.7210040643468
 31
0.0
1001
AUSTER_FOLIE
1002
{
1000
NSB00056_3PSSTE55
1002
}
1001
AUSTER_ANSICHT
1002
{
1000
Det03
1002
}
  0
LINE
  5
6180
330
20
100
AcDbEntity
  8
10000_FRONT
 62
     7
370
    50
100
AcDbLine
 10
247.9568058924947
 20
204.9711040443511
 30
0.0
 11
247.9568058924948
 21
201.7210040643468
 31
0.0
1001
AUSTER_FOLIE
1002
{
1000
NSB00056_3PSSTE55
1002
}
1001
AUSTER_ANSICHT
1002
{
1000
Det03
1002
}
  0
ARC
  5
6181
330
20
100
AcDbEntity
  8
10000_FRONT
 62
     7
370
    50
100
AcDbCircle
 10
242.5568058924947
 20
192.7210040643471
 30
0.0
 40
0.8000000000000111
100
AcDbArc
 50
180.0
 51
0.0
1001
AUSTER_FOLIE
1002
{
1000
NSB00056_3PSSTE55
1002
}
1001
AUSTER_ANSICHT
1002
{
1000
Det03
1002
}
  0
ARC
  5
6182
330
20
100
AcDbEntity
  8
10000_FRONT
 62
     7
370
    50
100
AcDbCircle
 10
245.4568058924948
 20
196.971004064347
 30
0.0
 40
2.099999999999965
100
AcDbArc
 50
0.0
 51
180.0
1001
AUSTER_FOLIE
1002
{
1000
NSB00056_3PSSTE55
1002
}
1001
AUSTER_ANSICHT
1002
{
1000
Det03
1002
}
  0
LINE
  5
6183
330
20
100
AcDbEntity
  8
10000_FRONT
 62
     7
370
    50
100
AcDbLine
 10
241.756805892495
 20
200.5210040643469
 30
0.0
 11
241.7568058924946
 21
192.7210040643471
 31
0.0
1001
AUSTER_FOLIE
1002
{
1000
NSB00056_3PSSTE55
1002
}
1001
AUSTER_ANSICHT
1002
{
1000
Det03
1002
}
  0
LINE
  5
6184
330
20
100
AcDbEntity
  8
10000_FRONT
 62
     7
370
    50
100
AcDbLine
 10
241.756805892495
 20
200.5210040643469
 30
0.0
 11
242.9568058924948
 21
201.7210040643468
 31
0.0
1001
AUSTER_FOLIE
1002
{
1000
NSB00056_3PSSTE55
1002
}
1001
AUSTER_ANSICHT
1002
{
1000
Det03
1002
}
  0
LINE
  5
6185
330
20
100
AcDbEntity
  8
10000_FRONT
 62
     7
370
    50
100
AcDbLine
 10
234.7568058924947
 20
200.5210040643471
 30
0.0
 11
234.7568058924949
 21
192.7210040643471
 31
0.0
1001
AUSTER_FOLIE
1002
{
1000
NSB00056_3PSSTE55
1002
}
1001
AUSTER_ANSICHT
1002
{
1000
Det03
1002
}
  0
ARC
  5
6186
330
20
100
AcDbEntity
  8
10000_FRONT
 62
     7
370
    50
100
AcDbCircle
 10
231.0568058924947
 20
196.971004064347
 30
0.0
 40
2.099999999999965
100
AcDbArc
 50
0.0
 51
180.0
1001
AUSTER_FOLIE
1002
{
1000
NSB00056_3PSSTE55
1002
}
1001
AUSTER_ANSICHT
1002
{
1000
Det03
1002
}
  0
LINE
  5
6187
330
20
100
AcDbEntity
  8
10000_FRONT
 62
     7
370
    50
100
AcDbLine
 10
233.5568058924947
 20
204.9711040443511
 30
0.0
 11
233.5568058924947
 21
201.7210040643468
 31
0.0
1001
AUSTER_FOLIE
1002
{
1000
NSB00056_3PSSTE55
1002
}
1001
AUSTER_ANSICHT
1002
{
1000
Det03
1002
}
  0
LINE
  5
6188
330
20
100
AcDbEntity
  8
10000_FRONT
 62
     7
370
    50
100
AcDbLine
 10
234.7568058924945
 20
200.5210040643469
 30
0.0
 11
233.5568058924947
 21
201.7210040643468
 31
0.0
1001
AUSTER_FOLIE
1002
{
1000
NSB00056_3PSSTE55
1002
}
1001
AUSTER_ANSICHT
1002
{
1000
Det03
1002
}
  0
ARC
  5
6189
330
20
100
AcDbEntity
  8
10000_FRONT
 62
     7
370
    50
100
AcDbCircle
 10
233.9568058924948
 20
192.7210040643471
 30
0.0
 40
0.8000000000000111
100
AcDbArc
 50
180.0
 51
0.0
1001
AUSTER_FOLIE
1002
{
1000
NSB00056_3PSSTE55
1002
}
1001
AUSTER_ANSICHT
1002
{
1000
Det03
1002
}
  0
LINE
  5
618A
330
20
100
AcDbEntity
  8
10000_FRONT
 62
     7
370
    50
100
AcDbLine
 10
227.356805892495
 20
200.5210040643469
 30
0.0
 11
228.5568058924948
 21
201.7210040643468
 31
0.0
1001
AUSTER_FOLIE
1002
{
1000
NSB00056_3PSSTE55
1002
}
1001
AUSTER_ANSICHT
1002
{
1000
Det03
1002
}
  0
LINE
  5
618B
330
20
100
AcDbEntity
  8
10000_FRONT
 62
     7
370
    50
100
AcDbLine
 10
227.3568058924949
 20
200.5210040643469
 30
0.0
 11
227.3568058924947
 21
192.7210040643471
 31
0.0
1001
AUSTER_FOLIE
1002
{
1000
NSB00056_3PSSTE55
1002
}
1001
AUSTER_ANSICHT
1002
{
1000
Det03
1002
}
  0
LINE
  5
618C
330
20
100
AcDbEntity
  8
10000_FRONT
 62
     7
370
    50
100
AcDbLine
 10
228.5568058924948
 20
204.9711040443511
 30
0.0
 11
228.5568058924948
 21
201.7210040643468
 31
0.0
1001
AUSTER_FOLIE
1002
{
1000
NSB00056_3PSSTE55
1002
}
1001
AUSTER_ANSICHT
1002
{
1000
Det03
1002
}
  0
ARC
  5
618D
330
20
100
AcDbEntity
  8
10000_FRONT
 62
     7
370
    50
100
AcDbCircle
 10
228.1568058924946
 20
192.7210040643471
 30
0.0
 40
0.8000000000000111
100
AcDbArc
 50
180.0
 51
0.0
1001
AUSTER_FOLIE
1002
{
1000
NSB00056_3PSSTE55
1002
}
1001
AUSTER_ANSICHT
1002
{
1000
Det03
1002
}
  0
LINE
  5
618F
330
20
100
AcDbEntity
  8
10000_FRONT
 62
     7
370
    50
100
AcDbLine
 10
263.5568058924946
 20
200.5210040643471
 30
0.0
 11
263.5568058924948
 21
192.7210040643471
 31
0.0
1001
AUSTER_FOLIE
1002
{
1000
NSB00056_3PSSTE55
1002
}
1001
AUSTER_ANSICHT
1002
{
1000
Det03
1002
}
  0
ARC
  5
6190
330
20
100
AcDbEntity
  8
10000_FRONT
 62
     7
370
    50
100
AcDbCircle
 10
259.8568058924946
 20
196.971004064347
 30
0.0
 40
2.099999999999965
100
AcDbArc
 50
0.0
 51
180.0
1001
AUSTER_FOLIE
1002
{
1000
NSB00056_3PSSTE55
1002
}
1001
AUSTER_ANSICHT
1002
{
1000
Det03
1002
}
  0
LINE
  5
6191
330
20
100
AcDbEntity
  8
10000_FRONT
 62
     7
370
    50
100
AcDbLine
 10
256.156805892495
 20
200.5210040643469
 30
0.0
 11
257.3568058924948
 21
201.7210040643468
 31
0.0
1001
AUSTER_FOLIE
1002
{
1000
NSB00056_3PSSTE55
1002
}
1001
AUSTER_ANSICHT
1002
{
1000
Det03
1002
}
  0
LINE
  5
6192
330
20
100
AcDbEntity
  8
10000_FRONT
 62
     7
370
    50
100
AcDbLine
 10
256.1568058924948
 20
200.5210040643469
 30
0.0
 11
256.1568058924946
 21
192.7210040643471
 31
0.0
1001
AUSTER_FOLIE
1002
{
1000
NSB00056_3PSSTE55
1002
}
1001
AUSTER_ANSICHT
1002
{
1000
Det03
1002
}
  0
ARC
  5
6193
330
20
100
AcDbEntity
  8
10000_FRONT
 62
     7
370
    50
100
AcDbCircle
 10
256.9568058924946
 20
192.7210040643471
 30
0.0
 40
0.8000000000000111
100
AcDbArc
 50
180.0
 51
0.0
1001
AUSTER_FOLIE
1002
{
1000
NSB00056_3PSSTE55
1002
}
1001
AUSTER_ANSICHT
1002
{
1000
Det03
1002
}
  0
LINE
  5
6194
330
20
100
AcDbEntity
  8
10000_FRONT
 62
     7
370
    50
100
AcDbLine
 10
257.3568058924948
 20
204.9711040443511
 30
0.0
 11
257.3568058924948
 21
201.7210040643468
 31
0.0
1001
AUSTER_FOLIE
1002
{
1000
NSB00056_3PSSTE55
1002
}
1001
AUSTER_ANSICHT
1002
{
1000
Det03
1002
}
  0
LINE
  5
6195
330
20
100
AcDbEntity
  8
10000_FRONT
 62
     7
370
    50
100
AcDbLine
 10
262.3568058924947
 20
204.9711040443511
 30
0.0
 11
262.3568058924947
 21
201.7210040643468
 31
0.0
1001
AUSTER_FOLIE
1002
{
1000
NSB00056_3PSSTE55
1002
}
1001
AUSTER_ANSICHT
1002
{
1000
Det03
1002
}
  0
LINE
  5
6196
330
20
100
AcDbEntity
  8
10000_FRONT
 62
     7
370
    50
100
AcDbLine
 10
263.5568058924945
 20
200.5210040643469
 30
0.0
 11
262.3568058924947
 21
201.7210040643468
 31
0.0
1001
AUSTER_FOLIE
1002
{
1000
NSB00056_3PSSTE55
1002
}
1001
AUSTER_ANSICHT
1002
{
1000
Det03
1002
}
  0
ARC
  5
6197
330
20
100
AcDbEntity
  8
10000_FRONT
 62
     7
370
    50
100
AcDbCircle
 10
262.7568058924948
 20
192.7210040643471
 30
0.0
 40
0.8000000000000111
100
AcDbArc
 50
180.0
 51
0.0
1001
AUSTER_FOLIE
1002
{
1000
NSB00056_3PSSTE55
1002
}
1001
AUSTER_ANSICHT
1002
{
1000
Det03
1002
}
  0
LINE
  5
6198
330
20
100
AcDbEntity
  8
10000_FRONT
 62
     7
370
    50
100
AcDbLine
 10
249.1568058924946
 20
200.5210040643471
 30
0.0
 11
249.1568058924948
 21
192.7210040643471
 31
0.0
1001
AUSTER_FOLIE
1002
{
1000
NSB00056_3PSSTE55
1002
}
1001
AUSTER_ANSICHT
1002
{
1000
Det03
1002
}
  0
LINE
  5
61A2
330
20
100
AcDbEntity
  8
10000_FRONT
 62
     7
370
    50
100
AcDbLine
 10
264.4568058924948
 20
204.971004064347
 30
0.0
 11
264.4568058924948
 21
226.128604084343
 31
0.0
1001
AUSTER_FOLIE
1002
{
1000
NSB00056_3PSSTE55
1002
}
1001
AUSTER_ANSICHT
1002
{
1000
Det03
1002
}
  0
ENDSEC
  0
SECTION
  2
OBJECTS
  0
DICTIONARY
  5
C
330
0
100
AcDbDictionary
281
     1
  3
ACAD_COLOR
350
1B
  3
ACAD_GROUP
350
D
  3
ACAD_LAYOUT
350
19
  3
ACAD_MATERIAL
350
1A
  3
ACAD_MLINESTYLE
350
16
  3
ACAD_PLOTSETTINGS
350
18
  3
ACAD_PLOTSTYLENAME
350
E
  3
ACDBHEADERROUNDTRIPXREC
350
635D
  3
AcDbVariableDictionary
350
62FA
  3
DWGPROPS
350
635C
  0
DICTIONARY
  5
1B
102
{ACAD_REACTORS
330
C
102
}
330
C
100
AcDbDictionary
281
     1
  0
DICTIONARY
  5
D
102
{ACAD_REACTORS
330
C
102
}
330
C
100
AcDbDictionary
281
     1
  0
DICTIONARY
  5
19
102
{ACAD_REACTORS
330
C
102
}
330
C
100
AcDbDictionary
281
     1
  3
Layout1
350
1F
  3
Model
350
23
  0
DICTIONARY
  5
1A
102
{ACAD_REACTORS
330
C
102
}
330
C
100
AcDbDictionary
281
     1
  0
DICTIONARY
  5
16
102
{ACAD_REACTORS
330
C
102
}
330
C
100
AcDbDictionary
281
     1
  3
Standard
350
17
  0
DICTIONARY
  5
18
102
{ACAD_REACTORS
330
C
102
}
330
C
100
AcDbDictionary
281
     1
  0
ACDBDICTIONARYWDFLT
  5
E
102
{ACAD_REACTORS
330
C
102
}
330
C
100
AcDbDictionary
281
     1
  3
Normal
350
F
100
AcDbDictionaryWithDefault
340
F
  0
DICTIONARY
  5
635D
102
{ACAD_REACTORS
330
C
102
}
330
C
100
AcDbDictionary
281
     1
  3
COLORDICT
350
635F
  3
MATERIALDICT
350
635E
  0
DICTIONARY
  5
62FA
102
{ACAD_REACTORS
330
C
102
}
330
C
100
AcDbDictionary
281
     1
  3
DIMASSOC
350
62FB
  3
PROJECTNAME
350
62FC
  0
XRECORD
  5
635C
102
{ACAD_REACTORS
330
C
102
}
330
C
100
AcDbXrecord
280
     1
  1
DWGPROPS COOKIE
  2

  3

  4

  6

  7

  8

  9

300
=
301
=
302
=
303
=
304
=
305
=
306
=
307
=
308
=
309
=
 40
0.792576712962963
 41
2452829.417613079
 42
2453406.469096806
  1

 90
        0
  0
LAYOUT
  5
1F
102
{ACAD_XDICTIONARY
360
6360
102
}
102
{ACAD_REACTORS
330
19
102
}
330
19
100
AcDbPlotSettings
  1

  2
HP LaserJet 5000 Series PS
  4

  6

 40
0.0
 41
0.0
 42
0.0
 43
0.0
 44
0.0
 45
0.0
 46
0.0
 47
0.0
 48
0.0
 49
0.0
140
0.0
141
0.0
142
1.0
143
1.0
 70
   688
 72
     0
 73
     0
 74
     5
  7
monochrome.ctb
 75
    16
147
1.0
148
0.0
149
0.0
100
AcDbLayout
  1
Layout1
 70
     1
 71
     1
 10
0.0
 20
0.0
 11
12.0
 21
9.0
 12
0.0
 22
0.0
 32
0.0
 14
1.000000000000000E+20
 24
1.000000000000000E+20
 34
1.000000000000000E+20
 15
-1.000000000000000E+20
 25
-1.000000000000000E+20
 35
-1.000000000000000E+20
146
0.0
 13
0.0
 23
0.0
 33
0.0
 16
1.0
 26
0.0
 36
0.0
 17
0.0
 27
1.0
 37
0.0
 76
     0
330
1C
  0
LAYOUT
  5
23
102
{ACAD_XDICTIONARY
360
6362
102
}
102
{ACAD_REACTORS
330
19
102
}
330
19
100
AcDbPlotSettings
  1

  2
\\AMBW779A\A_P00873 (Canon iR2200-3300 PCL6)
  4
A3
  6

 40
4.815417
 41
4.815412
 42
4.815399
 43
4.81543
 44
296.925995
 45
419.9466549999998
 46
0.0
 47
0.0
 48
0.0
 49
0.0
140
0.0
141
0.0
142
1.0
143
1.0
 70
 11952
 72
     1
 73
     1
 74
     1
  7
monochrome.ctb
 75
    16
147
1.0
148
-9.985199354018503
149
0.0226561206029601
100
AcDbLayout
  1
Model
 70
     1
 71
     0
 10
0.0
 20
0.0
 11
12.0
 21
9.0
 12
0.0
 22
0.0
 32
0.0
 14
0.0
 24
0.0
 34
0.0
 15
0.0
 25
0.0
 35
0.0
146
0.0
 13
0.0
 23
0.0
 33
0.0
 16
1.0
 26
0.0
 36
0.0
 17
0.0
 27
1.0
 37
0.0
 76
     0
330
20
  0
MLINESTYLE
  5
17
102
{ACAD_REACTORS
330
16
102
}
330
16
100
AcDbMlineStyle
  2
STANDARD
 70
     0
  3

 62
   256
 51
90.0
 52
90.0
 71
     2
 49
0.5
 62
   256
  6
BYLAYER
 49
-0.5
 62
   256
  6
BYLAYER
  0
ACDBPLACEHOLDER
  5
F
102
{ACAD_REACTORS
330
E
102
}
330
E
  0
XRECORD
  5
635F
102
{ACAD_REACTORS
330
635D
102
}
330
635D
100
AcDbXrecord
280
     1
340
1B
  0
XRECORD
  5
635E
102
{ACAD_REACTORS
330
635D
102
}
330
635D
100
AcDbXrecord
280
     1
340
1A
  0
DICTIONARYVAR
  5
62FB
102
{ACAD_REACTORS
330
62FA
102
}
330
62FA
100
DictionaryVariables
280
     0
  1
1
  0
DICTIONARYVAR
  5
62FC
102
{ACAD_REACTORS
330
62FA
102
}
330
62FA
100
DictionaryVariables
280
     0
  1

  0
DICTIONARY
  5
6360
330
1F
100
AcDbDictionary
280
     1
281
     1
  3
ACAD_XREC_ROUNDTRIP
360
6361
  0
DICTIONARY
  5
6362
330
23
100
AcDbDictionary
280
     1
281
     1
  3
ACAD_XREC_ROUNDTRIP
360
6363
  0
XRECORD
  5
6361
102
{ACAD_REACTORS
330
6360
102
}
330
6360
100
AcDbXrecord
280
     1
102
SHADEPLOT
 70
     0
102
SHADEPLOTRESLEVEL
 70
     2
102
SHADEPLOTCUSTOMDPI
 70
   300
  0
XRECORD
  5
6363
102
{ACAD_REACTORS
330
6362
102
}
330
6362
100
AcDbXrecord
280
     1
102
SHADEPLOT
 70
     1
102
SHADEPLOTRESLEVEL
 70
     2
102
SHADEPLOTCUSTOMDPI
 70
   300
  0
ENDSEC
  0
EOF
