  0
SECTION
  2
HEADER
  9
$ACADVER
  1
AC1015
  9
$ACADMAINTVER
 70
    20
  9
$DWGCODEPAGE
  3
ANSI_1252
  9
$INSBASE
 10
0.0
 20
0.0
 30
0.0
  9
$EXTMIN
 10
149.9826061329604
 20
-0.0090630292066862
 30
-0.4500381440623178
  9
$EXTMAX
 10
420.0128183607169
 20
200.0045934740973
 30
0.800038149883084
  9
$LIMMIN
 10
0.0
 20
0.0
  9
$LIMMAX
 10
420.0
 20
297.0
  9
$ORTHOMODE
 70
     0
  9
$REGENMODE
 70
     1
  9
$FILLMODE
 70
     1
  9
$QTEXTMODE
 70
     0
  9
$MIRRTEXT
 70
     0
  9
$LTSCALE
 40
23.1
  9
$ATTMODE
 70
     1
  9
$TEXTSIZE
 40
0.2
  9
$TRACEWID
 40
0.05
  9
$TEXTSTYLE
  7
Standard
  9
$CLAYER
  8
0
  9
$CELTYPE
  6
ByLayer
  9
$CECOLOR
 62
   256
  9
$CELTSCALE
 40
1.0
  9
$DISPSILH
 70
     0
  9
$DIMSCALE
 40
0.0
  9
$DIMASZ
 40
3.5
  9
$DIMEXO
 40
0.0
  9
$DIMDLI
 40
3.75
  9
$DIMRND
 40
0.0
  9
$DIMDLE
 40
0.0
  9
$DIMEXE
 40
2.0
  9
$DIMTP
 40
0.0
  9
$DIMTM
 40
0.0
  9
$DIMTXT
 40
3.5
  9
$DIMCEN
 40
2.5
  9
$DIMTSZ
 40
0.0
  9
$DIMTOL
 70
     0
  9
$DIMLIM
 70
     0
  9
$DIMTIH
 70
     0
  9
$DIMTOH
 70
     0
  9
$DIMSE1
 70
     0
  9
$DIMSE2
 70
     0
  9
$DIMTAD
 70
     1
  9
$DIMZIN
 70
     8
  9
$DIMBLK
  1

  9
$DIMASO
 70
     1
  9
$DIMSHO
 70
     1
  9
$DIMPOST
  1

  9
$DIMAPOST
  1

  9
$DIMALT
 70
     0
  9
$DIMALTD
 70
     4
  9
$DIMALTF
 40
0.039
  9
$DIMLFAC
 40
1.0
  9
$DIMTOFL
 70
     1
  9
$DIMTVP
 40
0.0
  9
$DIMTIX
 70
     0
  9
$DIMSOXD
 70
     0
  9
$DIMSAH
 70
     0
  9
$DIMBLK1
  1

  9
$DIMBLK2
  1

  9
$DIMSTYLE
  2
H035
  9
$DIMCLRD
 70
   256
  9
$DIMCLRE
 70
     7
  9
$DIMCLRT
 70
     7
  9
$DIMTFAC
 40
1.0
  9
$DIMGAP
 40
0.5
  9
$DIMJUST
 70
     0
  9
$DIMSD1
 70
     0
  9
$DIMSD2
 70
     0
  9
$DIMTOLJ
 70
     1
  9
$DIMTZIN
 70
     0
  9
$DIMALTZ
 70
     0
  9
$DIMALTTZ
 70
     0
  9
$DIMUPT
 70
     0
  9
$DIMDEC
 70
     0
  9
$DIMTDEC
 70
     2
  9
$DIMALTU
 70
     8
  9
$DIMALTTD
 70
     4
  9
$DIMTXSTY
  7
Standard
  9
$DIMAUNIT
 70
     0
  9
$DIMADEC
 70
     0
  9
$DIMALTRND
 40
0.0
  9
$DIMAZIN
 70
     0
  9
$DIMDSEP
 70
    46
  9
$DIMATFIT
 70
     3
  9
$DIMFRAC
 70
     0
  9
$DIMLDRBLK
  1

  9
$DIMLUNIT
 70
     2
  9
$DIMLWD
 70
    -2
  9
$DIMLWE
 70
    -2
  9
$DIMTMOVE
 70
     0
  9
$LUNITS
 70
     2
  9
$LUPREC
 70
     4
  9
$SKETCHINC
 40
0.1
  9
$FILLETRAD
 40
0.5
  9
$AUNITS
 70
     0
  9
$AUPREC
 70
     0
  9
$MENU
  1
.
  9
$ELEVATION
 40
0.0
  9
$PELEVATION
 40
0.0
  9
$THICKNESS
 40
0.0
  9
$LIMCHECK
 70
     0
  9
$CHAMFERA
 40
0.0
  9
$CHAMFERB
 40
0.0
  9
$CHAMFERC
 40
0.0
  9
$CHAMFERD
 40
0.0
  9
$SKPOLY
 70
     0
  9
$TDCREATE
 40
2452829.417613079
  9
$TDUCREATE
 40
2452829.375946412
  9
$TDUPDATE
 40
2453406.484252465
  9
$TDUUPDATE
 40
2453406.442585798
  9
$TDINDWG
 40
1.0249575231
  9
$TDUSRTIMER
 40
1.0249537384
  9
$USRTIMER
 70
     1
  9
$ANGBASE
 50
0.0
  9
$ANGDIR
 70
     0
  9
$PDMODE
 70
     0
  9
$PDSIZE
 40
0.0
  9
$PLINEWID
 40
0.0
  9
$SPLFRAME
 70
     0
  9
$SPLINETYPE
 70
     6
  9
$SPLINESEGS
 70
     8
  9
$HANDSEED
  5
659E
  9
$SURFTAB1
 70
     6
  9
$SURFTAB2
 70
     6
  9
$SURFTYPE
 70
     6
  9
$SURFU
 70
     6
  9
$SURFV
 70
     6
  9
$UCSBASE
  2

  9
$UCSNAME
  2

  9
$UCSORG
 10
0.0
 20
0.0
 30
0.0
  9
$UCSXDIR
 10
1.0
 20
0.0
 30
0.0
  9
$UCSYDIR
 10
0.0
 20
1.0
 30
0.0
  9
$UCSORTHOREF
  2

  9
$UCSORTHOVIEW
 70
     0
  9
$UCSORGTOP
 10
0.0
 20
0.0
 30
0.0
  9
$UCSORGBOTTOM
 10
0.0
 20
0.0
 30
0.0
  9
$UCSORGLEFT
 10
0.0
 20
0.0
 30
0.0
  9
$UCSORGRIGHT
 10
0.0
 20
0.0
 30
0.0
  9
$UCSORGFRONT
 10
0.0
 20
0.0
 30
0.0
  9
$UCSORGBACK
 10
0.0
 20
0.0
 30
0.0
  9
$PUCSBASE
  2

  9
$PUCSNAME
  2

  9
$PUCSORG
 10
0.0
 20
0.0
 30
0.0
  9
$PUCSXDIR
 10
1.0
 20
0.0
 30
0.0
  9
$PUCSYDIR
 10
0.0
 20
1.0
 30
0.0
  9
$PUCSORTHOREF
  2

  9
$PUCSORTHOVIEW
 70
     0
  9
$PUCSORGTOP
 10
0.0
 20
0.0
 30
0.0
  9
$PUCSORGBOTTOM
 10
0.0
 20
0.0
 30
0.0
  9
$PUCSORGLEFT
 10
0.0
 20
0.0
 30
0.0
  9
$PUCSORGRIGHT
 10
0.0
 20
0.0
 30
0.0
  9
$PUCSORGFRONT
 10
0.0
 20
0.0
 30
0.0
  9
$PUCSORGBACK
 10
0.0
 20
0.0
 30
0.0
  9
$USERI1
 70
     0
  9
$USERI2
 70
     0
  9
$USERI3
 70
     0
  9
$USERI4
 70
     0
  9
$USERI5
 70
     0
  9
$USERR1
 40
0.0
  9
$USERR2
 40
0.0
  9
$USERR3
 40
0.0
  9
$USERR4
 40
0.0
  9
$USERR5
 40
0.0
  9
$WORLDVIEW
 70
     1
  9
$SHADEDGE
 70
     3
  9
$SHADEDIF
 70
    70
  9
$TILEMODE
 70
     1
  9
$MAXACTVP
 70
    64
  9
$PINSBASE
 10
0.0
 20
0.0
 30
0.0
  9
$PLIMCHECK
 70
     0
  9
$PEXTMIN
 10
1.000000000000000E+20
 20
1.000000000000000E+20
 30
1.000000000000000E+20
  9
$PEXTMAX
 10
-1.000000000000000E+20
 20
-1.000000000000000E+20
 30
-1.000000000000000E+20
  9
$PLIMMIN
 10
0.0
 20
0.0
  9
$PLIMMAX
 10
12.0
 20
9.0
  9
$UNITMODE
 70
     0
  9
$VISRETAIN
 70
     1
  9
$PLINEGEN
 70
     0
  9
$PSLTSCALE
 70
     1
  9
$TREEDEPTH
 70
  3020
  9
$CMLSTYLE
  2
Standard
  9
$CMLJUST
 70
     0
  9
$CMLSCALE
 40
1.0
  9
$PROXYGRAPHICS
 70
     1
  9
$MEASUREMENT
 70
     0
  9
$CELWEIGHT
370
    -1
  9
$ENDCAPS
280
     0
  9
$JOINSTYLE
280
     0
  9
$LWDISPLAY
290
     0
  9
$INSUNITS
 70
     0
  9
$HYPERLINKBASE
  1

  9
$STYLESHEET
  1
MONOCHROME.CTB
  9
$XEDIT
290
     1
  9
$CEPSNTYPE
380
     0
  9
$PSTYLEMODE
290
     1
  9
$FINGERPRINTGUID
  2
{D88032C4-1185-41D3-97DD-7638FCF99E3F}
  9
$VERSIONGUID
  2
{DA8A892A-0D63-4DFC-912A-19938C69431C}
  9
$EXTNAMES
290
     1
  9
$PSVPSCALE
 40
0.0
  9
$OLESTARTUP
290
     0
  0
ENDSEC
  0
SECTION
  2
CLASSES
  0
CLASS
  1
ACDBDICTIONARYWDFLT
  2
AcDbDictionaryWithDefault
  3
ObjectDBX Classes
 90
        0
280
     0
281
     0
  0
CLASS
  1
DICTIONARYVAR
  2
AcDbDictionaryVar
  3
ObjectDBX Classes
 90
        0
280
     0
281
     0
  0
CLASS
  1
ACDBPLACEHOLDER
  2
AcDbPlaceHolder
  3
ObjectDBX Classes
 90
        0
280
     0
281
     0
  0
CLASS
  1
LAYOUT
  2
AcDbLayout
  3
ObjectDBX Classes
 90
        0
280
     0
281
     0
  0
ENDSEC
  0
SECTION
  2
TABLES
  0
TABLE
  2
VPORT
  5
8
330
0
100
AcDbSymbolTable
 70
     2
  0
VPORT
  5
6595
330
8
100
AcDbSymbolTableRecord
100
AcDbViewportTableRecord
  2
*Active
 70
     0
 10
0.0
 20
0.0
 11
1.0
 21
1.0
 12
284.9977122468387
 22
99.99776522244532
 13
0.0
 23
0.0
 14
1.0
 24
1.0
 15
0.0
 25
0.0
 16
0.0
 26
0.0
 36
1.0
 17
0.0
 27
0.0
 37
0.0
 40
201.5561782758231
 41
1.571428571428571
 42
50.0
 43
0.0
 44
0.0
 50
0.0
 51
0.0
 71
     0
 72
   100
 73
     1
 74
     1
 75
     0
 76
     0
 77
     0
 78
     0
281
     0
 65
     1
110
0.0
120
0.0
130
0.0
111
1.0
121
0.0
131
0.0
112
0.0
122
1.0
132
0.0
 79
     0
146
0.0
  0
ENDTAB
  0
TABLE
  2
LTYPE
  5
5
330
0
100
AcDbSymbolTable
 70
     3
  0
LTYPE
  5
13
330
5
100
AcDbSymbolTableRecord
100
AcDbLinetypeTableRecord
  2
ByBlock
 70
     0
  3

 72
    65
 73
     0
 40
0.0
  0
LTYPE
  5
14
330
5
100
AcDbSymbolTableRecord
100
AcDbLinetypeTableRecord
  2
ByLayer
 70
     0
  3

 72
    65
 73
     0
 40
0.0
  0
LTYPE
  5
15
330
5
100
AcDbSymbolTableRecord
100
AcDbLinetypeTableRecord
  2
CONTINUOUS
 70
     0
  3
Solid line
 72
    65
 73
     0
 40
0.0
  0
LTYPE
  5
26
330
5
100
AcDbSymbolTableRecord
100
AcDbLinetypeTableRecord
  2
CENTER
 70
     0
  3
____ _ ____ _ ____ _ ____ _ ____ _ ____ _ ____
 72
    65
 73
     4
 40
0.6
 49
0.375
 74
     0
 49
-0.075
 74
     0
 49
0.075
 74
     0
 49
-0.075
 74
     0
  0
LTYPE
  5
4F7A
330
5
100
AcDbSymbolTableRecord
100
AcDbLinetypeTableRecord
  2
DASHED
 70
     0
  3
_ _ _ _ _ _ _ _ _ _ _ _ _ _ _ _ _ _ _ _ _ _ _ _
 72
    65
 73
     2
 40
0.375
 49
0.25
 74
     0
 49
-0.125
 74
     0
  0
ENDTAB
  0
TABLE
  2
LAYER
  5
2
330
0
100
AcDbSymbolTable
 70
     8
  0
LAYER
  5
10
330
2
100
AcDbSymbolTableRecord
100
AcDbLayerTableRecord
  2
0
 70
     0
 62
     7
  6
CONTINUOUS
370
    -3
390
F
  0
LAYER
  5
1D8
330
2
100
AcDbSymbolTableRecord
100
AcDbLayerTableRecord
  2
Defpoints
 70
     0
 62
     7
  6
CONTINUOUS
290
     0
370
    -3
390
F
  0
LAYER
  5
1D9
330
2
100
AcDbSymbolTableRecord
100
AcDbLayerTableRecord
  2
91000_TIP
 70
     0
 62
     7
  6
CONTINUOUS
370
    -3
390
F
  0
LAYER
  5
1DA
330
2
100
AcDbSymbolTableRecord
100
AcDbLayerTableRecord
  2
11000_Left
 70
     0
 62
     7
  6
CONTINUOUS
370
    -3
390
F
  0
LAYER
  5
1DB
330
2
100
AcDbSymbolTableRecord
100
AcDbLayerTableRecord
  2
10000_FRONT
 70
     0
 62
     7
  6
CONTINUOUS
370
    -3
390
F
  0
LAYER
  5
1DC
330
2
100
AcDbSymbolTableRecord
100
AcDbLayerTableRecord
  2
10100_FRONT_DIM
 70
     0
 62
     7
  6
CONTINUOUS
370
    -3
390
F
  0
LAYER
  5
1DD
330
2
100
AcDbSymbolTableRecord
100
AcDbLayerTableRecord
  2
90000_FRAME
 70
     0
 62
     7
  6
CONTINUOUS
370
    -3
390
F
  0
LAYER
  5
1DE
330
2
100
AcDbSymbolTableRecord
100
AcDbLayerTableRecord
  2
11100_LEFT_DIM
 70
     0
 62
     7
  6
CONTINUOUS
370
    -3
390
F
  0
ENDTAB
  0
TABLE
  2
STYLE
  5
3
330
0
100
AcDbSymbolTable
 70
     2
  0
STYLE
  5
11
330
3
100
AcDbSymbolTableRecord
100
AcDbTextStyleTableRecord
  2
Standard
 70
     0
 40
0.0
 41
1.0
 50
0.0
 71
     0
 42
0.2
  3
txt
  4

  0
STYLE
  5
5752
330
3
100
AcDbSymbolTableRecord
100
AcDbTextStyleTableRecord
  2
Helvetica
 70
     0
 40
0.0
 41
1.0
 50
0.0
 71
     0
 42
5.0
  3
ARIAL.TTF
  4

1001
ACAD
1000
Arial
1071
       34
  0
ENDTAB
  0
TABLE
  2
VIEW
  5
6
330
0
100
AcDbSymbolTable
 70
     0
  0
ENDTAB
  0
TABLE
  2
UCS
  5
7
330
0
100
AcDbSymbolTable
 70
     0
  0
ENDTAB
  0
TABLE
  2
APPID
  5
9
330
0
100
AcDbSymbolTable
 70
     3
  0
APPID
  5
12
330
9
100
AcDbSymbolTableRecord
100
AcDbRegAppTableRecord
  2
ACAD
 70
     0
  0
APPID
  5
1E8
330
9
100
AcDbSymbolTableRecord
100
AcDbRegAppTableRecord
  2
AUSTER_ANSICHT
 70
     0
  0
APPID
  5
1E9
330
9
100
AcDbSymbolTableRecord
100
AcDbRegAppTableRecord
  2
AUSTER_FOLIE
 70
     0
  0
ENDTAB
  0
TABLE
  2
DIMSTYLE
  5
A
330
0
100
AcDbSymbolTable
 70
     3
100
AcDbDimStyleTable
 71
     3
340
3A1A
340
1E7
340
BA
  0
DIMSTYLE
105
BA
330
A
100
AcDbSymbolTableRecord
100
AcDbDimStyleTableRecord
  2
Standard
 70
     0
340
11
  0
DIMSTYLE
105
1E7
102
{ACAD_REACTORS
330
58EC
330
58F7
330
590E
330
590F
102
}
330
A
100
AcDbSymbolTableRecord
100
AcDbDimStyleTableRecord
  2
DSTYLE1
 70
     0
 41
3.0
 42
0.0
 44
1.0
 73
     0
 74
     0
 77
     1
 78
     3
140
2.5
143
0.039370079
147
1.0
271
     3
272
     3
274
     0
279
     2
340
11
  0
DIMSTYLE
105
3A1A
102
{ACAD_REACTORS
330
64A7
330
64A8
102
}
330
A
100
AcDbSymbolTableRecord
100
AcDbDimStyleTableRecord
  2
H035
 70
     0
 40
0.0
 41
3.5
 42
0.0
 43
3.75
 44
2.0
 73
     0
 74
     0
 77
     1
 78
     8
140
3.5
141
2.5
143
0.039
147
0.5
171
     4
172
     1
176
   256
177
     7
178
     7
271
     0
272
     2
273
     8
274
     4
340
11
  0
ENDTAB
  0
TABLE
  2
BLOCK_RECORD
  5
1
330
0
100
AcDbSymbolTable
 70
     7
  0
BLOCK_RECORD
  5
20
330
1
100
AcDbSymbolTableRecord
100
AcDbBlockTableRecord
  2
*Model_Space
340
23
  0
BLOCK_RECORD
  5
1C
330
1
100
AcDbSymbolTableRecord
100
AcDbBlockTableRecord
  2
*Paper_Space
340
1F
  0
BLOCK_RECORD
  5
3A
330
1
100
AcDbSymbolTableRecord
100
AcDbBlockTableRecord
  2
SIEMENS_OUTLINE_BL0
340
0
102
{BLKREFS
331
AA
102
}
  0
BLOCK_RECORD
  5
59B7
330
1
100
AcDbSymbolTableRecord
100
AcDbBlockTableRecord
  2
*D1
340
0
  0
BLOCK_RECORD
  5
59C4
330
1
100
AcDbSymbolTableRecord
100
AcDbBlockTableRecord
  2
*D2
340
0
  0
BLOCK_RECORD
  5
5A05
330
1
100
AcDbSymbolTableRecord
100
AcDbBlockTableRecord
  2
*D3
340
0
  0
BLOCK_RECORD
  5
5A12
330
1
100
AcDbSymbolTableRecord
100
AcDbBlockTableRecord
  2
*D4
340
0
  0
BLOCK_RECORD
  5
64FC
330
1
100
AcDbSymbolTableRecord
100
AcDbBlockTableRecord
  2
*D5
340
0
  0
BLOCK_RECORD
  5
6509
330
1
100
AcDbSymbolTableRecord
100
AcDbBlockTableRecord
  2
*D6
340
0
  0
ENDTAB
  0
ENDSEC
  0
SECTION
  2
BLOCKS
  0
BLOCK
  5
21
330
20
100
AcDbEntity
  8
0
100
AcDbBlockBegin
  2
*Model_Space
 70
     0
 10
0.0
 20
0.0
 30
0.0
  3
*Model_Space
  1

  0
ENDBLK
  5
22
330
20
100
AcDbEntity
  8
0
100
AcDbBlockEnd
  0
BLOCK
  5
1D
330
1C
100
AcDbEntity
 67
     1
  8
0
100
AcDbBlockBegin
  2
*Paper_Space
 70
     0
 10
0.0
 20
0.0
 30
0.0
  3
*Paper_Space
  1

  0
ENDBLK
  5
1E
330
1C
100
AcDbEntity
 67
     1
  8
0
100
AcDbBlockEnd
  0
BLOCK
  5
3B
330
3A
100
AcDbEntity
  8
0
  6
Continuous
 62
     7
100
AcDbBlockBegin
  2
SIEMENS_OUTLINE_BL0
 70
     0
 10
0.0
 20
0.0
 30
0.0
  3
SIEMENS_OUTLINE_BL0
  1

  0
LINE
  5
3C
330
3A
100
AcDbEntity
  8
0
  6
Continuous
 62
     7
100
AcDbLine
 10
289.1235341257
 20
21.4969115175
 30
0.0
 11
289.1235341257
 21
16.7436424342
 31
0.0
  0
LINE
  5
3D
330
3A
100
AcDbEntity
  8
0
  6
Continuous
 62
     7
100
AcDbLine
 10
290.5495148507
 20
21.4969115175
 30
0.0
 11
290.5495148507
 21
16.7436424342
 31
0.0
  0
LINE
  5
3E
330
3A
100
AcDbEntity
  8
0
  6
Continuous
 62
     7
100
AcDbLine
 10
289.1235341257
 20
16.7436424342
 30
0.0
 11
290.5495148507
 21
16.7436424342
 31
0.0
  0
LINE
  5
3F
330
3A
100
AcDbEntity
  8
0
  6
Continuous
 62
     7
100
AcDbLine
 10
289.1235341257
 20
21.4969115175
 30
0.0
 11
290.5495148507
 21
21.4969115175
 31
0.0
  0
LINE
  5
40
330
3A
100
AcDbEntity
  8
0
  6
Continuous
 62
     7
100
AcDbLine
 10
291.6427667399
 20
21.4969115175
 30
0.0
 11
291.6427667399
 21
16.7436424342
 31
0.0
  0
LINE
  5
41
330
3A
100
AcDbEntity
  8
0
  6
Continuous
 62
     7
100
AcDbLine
 10
291.6427667399
 20
16.7436424342
 30
0.0
 11
295.2077185523
 21
16.7436424342
 31
0.0
  0
LINE
  5
42
330
3A
100
AcDbEntity
  8
0
  6
Continuous
 62
     7
100
AcDbLine
 10
295.2077185523
 20
17.64676356
 30
0.0
 11
293.021214774
 21
17.64676356
 31
0.0
  0
LINE
  5
43
330
3A
100
AcDbEntity
  8
0
  6
Continuous
 62
     7
100
AcDbLine
 10
295.2077185523
 20
17.64676356
 30
0.0
 11
295.2077185523
 21
16.7436424342
 31
0.0
  0
LINE
  5
44
330
3A
100
AcDbEntity
  8
0
  6
Continuous
 62
     7
100
AcDbLine
 10
295.1601858615
 20
21.4969115175
 30
0.0
 11
291.6427667399
 21
21.4969115175
 31
0.0
  0
LINE
  5
45
330
3A
100
AcDbEntity
  8
0
  6
Continuous
 62
     7
100
AcDbLine
 10
295.1601858615
 20
20.6175567371
 30
0.0
 11
293.021214774
 21
20.6175567371
 31
0.0
  0
LINE
  5
46
330
3A
100
AcDbEntity
  8
0
  6
Continuous
 62
     7
100
AcDbLine
 10
295.1601858615
 20
21.4969115175
 30
0.0
 11
295.1601858615
 21
20.6175567371
 31
0.0
  0
LINE
  5
47
330
3A
100
AcDbEntity
  8
0
  6
Continuous
 62
     7
100
AcDbLine
 10
294.8749897165
 20
18.7637817946
 30
0.0
 11
293.021214774
 21
18.7637817946
 31
0.0
  0
LINE
  5
48
330
3A
100
AcDbEntity
  8
0
  6
Continuous
 62
     7
100
AcDbLine
 10
294.8749897165
 20
19.5480711933
 30
0.0
 11
294.8749897165
 21
18.7637817946
 31
0.0
  0
LINE
  5
49
330
3A
100
AcDbEntity
  8
0
  6
Continuous
 62
     7
100
AcDbLine
 10
294.8749897165
 20
19.5480711933
 30
0.0
 11
293.021214774
 21
19.5480711933
 31
0.0
  0
LINE
  5
4A
330
3A
100
AcDbEntity
  8
0
  6
Continuous
 62
     7
100
AcDbLine
 10
293.021214774
 20
20.6175567371
 30
0.0
 11
293.021214774
 21
19.5480711933
 31
0.0
  0
LINE
  5
4B
330
3A
100
AcDbEntity
  8
0
  6
Continuous
 62
     7
100
AcDbLine
 10
293.021214774
 20
18.7637817946
 30
0.0
 11
293.021214774
 21
17.64676356
 31
0.0
  0
LINE
  5
4C
330
3A
100
AcDbEntity
  8
0
  6
Continuous
 62
     7
100
AcDbLine
 10
296.0157742965
 20
16.7436424342
 30
0.0
 11
296.0157742965
 21
21.4969115175
 31
0.0
  0
LINE
  5
4D
330
3A
100
AcDbEntity
  8
0
  6
Continuous
 62
     7
100
AcDbLine
 10
296.0157742965
 20
16.7436424342
 30
0.0
 11
296.9664281131
 21
16.7436424342
 31
0.0
  0
LINE
  5
4E
330
3A
100
AcDbEntity
  8
0
  6
Continuous
 62
     7
100
AcDbLine
 10
301.8622952689
 20
21.4969115175
 30
0.0
 11
301.8622952689
 21
16.7436424342
 31
0.0
  0
LINE
  5
4F
330
3A
100
AcDbEntity
  8
0
  6
Continuous
 62
     7
100
AcDbLine
 10
301.8622952689
 20
16.7436424342
 30
0.0
 11
300.4838472348
 21
16.7436424342
 31
0.0
  0
LINE
  5
50
330
3A
100
AcDbEntity
  8
0
  6
Continuous
 62
     7
100
AcDbLine
 10
298.2973434565
 20
16.6961097434
 30
0.0
 11
299.1529318914
 21
16.6961097434
 31
0.0
  0
LINE
  5
51
330
3A
100
AcDbEntity
  8
0
  6
Continuous
 62
     7
100
AcDbLine
 10
298.2973434565
 20
16.6961097434
 30
0.0
 11
296.9664281131
 21
19.7857346475
 31
0.0
  0
LINE
  5
52
330
3A
100
AcDbEntity
  8
0
  6
Continuous
 62
     7
100
AcDbLine
 10
296.9664281131
 20
16.7436424342
 30
0.0
 11
296.9664281131
 21
19.7857346475
 31
0.0
  0
LINE
  5
53
330
3A
100
AcDbEntity
  8
0
  6
Continuous
 62
     7
100
AcDbLine
 10
300.4838472348
 20
19.8332673383
 30
0.0
 11
299.1529318914
 21
16.6961097434
 31
0.0
  0
LINE
  5
54
330
3A
100
AcDbEntity
  8
0
  6
Continuous
 62
     7
100
AcDbLine
 10
297.7269511665
 20
21.4969115175
 30
0.0
 11
296.0157742965
 21
21.4969115175
 31
0.0
  0
LINE
  5
55
330
3A
100
AcDbEntity
  8
0
  6
Continuous
 62
     7
100
AcDbLine
 10
301.8622952689
 20
21.4969115175
 30
0.0
 11
300.1511183989
 21
21.4969115175
 31
0.0
  0
LINE
  5
56
330
3A
100
AcDbEntity
  8
0
  6
Continuous
 62
     7
100
AcDbLine
 10
297.7269511665
 20
21.4969115175
 30
0.0
 11
298.9628011281
 21
18.5974173767
 31
0.0
  0
LINE
  5
57
330
3A
100
AcDbEntity
  8
0
  6
Continuous
 62
     7
100
AcDbLine
 10
300.1511183989
 20
21.4969115175
 30
0.0
 11
298.9628011281
 21
18.5974173767
 31
0.0
  0
LINE
  5
58
330
3A
100
AcDbEntity
  8
0
  6
Continuous
 62
     7
100
AcDbLine
 10
300.4838472348
 20
19.8332673383
 30
0.0
 11
300.4838472348
 21
16.7436424342
 31
0.0
  0
LINE
  5
59
330
3A
100
AcDbEntity
  8
0
  6
Continuous
 62
     7
100
AcDbLine
 10
302.9555471581
 20
21.4969115175
 30
0.0
 11
302.9555471581
 21
16.7436424342
 31
0.0
  0
LINE
  5
5A
330
3A
100
AcDbEntity
  8
0
  6
Continuous
 62
     7
100
AcDbLine
 10
302.9555471581
 20
16.7436424342
 30
0.0
 11
306.5204989705
 21
16.7436424342
 31
0.0
  0
LINE
  5
5B
330
3A
100
AcDbEntity
  8
0
  6
Continuous
 62
     7
100
AcDbLine
 10
306.5204989705
 20
17.64676356
 30
0.0
 11
304.3339951922
 21
17.64676356
 31
0.0
  0
LINE
  5
5C
330
3A
100
AcDbEntity
  8
0
  6
Continuous
 62
     7
100
AcDbLine
 10
306.5204989705
 20
17.64676356
 30
0.0
 11
306.5204989705
 21
16.7436424342
 31
0.0
  0
LINE
  5
5D
330
3A
100
AcDbEntity
  8
0
  6
Continuous
 62
     7
100
AcDbLine
 10
306.4729662797
 20
21.4969115175
 30
0.0
 11
302.9555471581
 21
21.4969115175
 31
0.0
  0
LINE
  5
5E
330
3A
100
AcDbEntity
  8
0
  6
Continuous
 62
     7
100
AcDbLine
 10
306.4729662797
 20
20.6175567371
 30
0.0
 11
304.3339951922
 21
20.6175567371
 31
0.0
  0
LINE
  5
5F
330
3A
100
AcDbEntity
  8
0
  6
Continuous
 62
     7
100
AcDbLine
 10
306.4729662797
 20
21.4969115175
 30
0.0
 11
306.4729662797
 21
20.6175567371
 31
0.0
  0
LINE
  5
60
330
3A
100
AcDbEntity
  8
0
  6
Continuous
 62
     7
100
AcDbLine
 10
306.1877701347
 20
18.7637817946
 30
0.0
 11
304.3339951922
 21
18.7637817946
 31
0.0
  0
LINE
  5
61
330
3A
100
AcDbEntity
  8
0
  6
Continuous
 62
     7
100
AcDbLine
 10
306.1877701347
 20
19.5480711933
 30
0.0
 11
306.1877701347
 21
18.7637817946
 31
0.0
  0
LINE
  5
62
330
3A
100
AcDbEntity
  8
0
  6
Continuous
 62
     7
100
AcDbLine
 10
306.1877701347
 20
19.5480711933
 30
0.0
 11
304.3339951922
 21
19.5480711933
 31
0.0
  0
LINE
  5
63
330
3A
100
AcDbEntity
  8
0
  6
Continuous
 62
     7
100
AcDbLine
 10
304.3339951922
 20
20.6175567371
 30
0.0
 11
304.3339951922
 21
19.5480711933
 31
0.0
  0
LINE
  5
64
330
3A
100
AcDbEntity
  8
0
  6
Continuous
 62
     7
100
AcDbLine
 10
304.3339951922
 20
18.7637817946
 30
0.0
 11
304.3339951922
 21
17.64676356
 31
0.0
  0
LINE
  5
65
330
3A
100
AcDbEntity
  8
0
  6
Continuous
 62
     7
100
AcDbLine
 10
307.3047883693
 20
16.7436424342
 30
0.0
 11
307.3047883693
 21
21.4969115175
 31
0.0
  0
LINE
  5
66
330
3A
100
AcDbEntity
  8
0
  6
Continuous
 62
     7
100
AcDbLine
 10
311.4876651625
 20
21.4969115175
 30
0.0
 11
311.4876651625
 21
16.7436424342
 31
0.0
  0
LINE
  5
67
330
3A
100
AcDbEntity
  8
0
  6
Continuous
 62
     7
100
AcDbLine
 10
307.3047883693
 20
16.7436424342
 30
0.0
 11
308.2554421859
 21
16.7436424342
 31
0.0
  0
LINE
  5
68
330
3A
100
AcDbEntity
  8
0
  6
Continuous
 62
     7
100
AcDbLine
 10
311.4876651625
 20
21.4969115175
 30
0.0
 11
310.5370113459
 21
21.4969115175
 31
0.0
  0
LINE
  5
69
330
3A
100
AcDbEntity
  8
0
  6
Continuous
 62
     7
100
AcDbLine
 10
308.8496008213
 20
21.4969115175
 30
0.0
 11
307.3047883693
 21
21.4969115175
 31
0.0
  0
LINE
  5
6A
330
3A
100
AcDbEntity
  8
0
  6
Continuous
 62
     7
100
AcDbLine
 10
311.4876651625
 20
16.7436424342
 30
0.0
 11
309.9666190559
 21
16.7436424342
 31
0.0
  0
LINE
  5
6B
330
3A
100
AcDbEntity
  8
0
  6
Continuous
 62
     7
100
AcDbLine
 10
309.9666190559
 20
16.7436424342
 30
0.0
 11
308.2554421859
 21
19.7857346475
 31
0.0
  0
LINE
  5
6C
330
3A
100
AcDbEntity
  8
0
  6
Continuous
 62
     7
100
AcDbLine
 10
308.8496008213
 20
21.4969115175
 30
0.0
 11
310.5370113459
 21
18.5498846858
 31
0.0
  0
LINE
  5
6D
330
3A
100
AcDbEntity
  8
0
  6
Continuous
 62
     7
100
AcDbLine
 10
310.5370113459
 20
21.4969115175
 30
0.0
 11
310.5370113459
 21
18.5498846858
 31
0.0
  0
LINE
  5
6E
330
3A
100
AcDbEntity
  8
0
  6
Continuous
 62
     7
100
AcDbLine
 10
308.2554421859
 20
16.7436424342
 30
0.0
 11
308.2554421859
 21
19.7857346475
 31
0.0
  0
LINE
  5
6F
330
3A
100
AcDbEntity
  8
0
  6
Continuous
 62
     7
100
AcDbLine
 10
312.2957209067
 20
16.8387078159
 30
0.0
 11
312.2957209067
 21
17.7893616325
 31
0.0
  0
LINE
  5
70
330
3A
100
AcDbEntity
  8
0
  6
Continuous
 62
     7
100
AcDbLine
 10
315.623009265
 20
20.49872501
 30
0.0
 11
315.623009265
 21
21.4493788266
 31
0.0
  0
ARC
  5
71
330
3A
100
AcDbEntity
  8
0
  6
Continuous
 62
     7
100
AcDbCircle
 10
314.0003620317
 20
18.7008009792
 30
0.0
 40
1.111619360599997
100
AcDbArc
 50
277.7099956934
 51
295.6884927746
  0
ARC
  5
72
330
3A
100
AcDbEntity
  8
0
  6
Continuous
 62
     7
100
AcDbCircle
 10
314.2846720145
 20
17.9759752156
 30
0.0
 40
0.3401689265
100
AcDbArc
 50
305.503221255
 51
72.46528985229999
  0
ARC
  5
73
330
3A
100
AcDbEntity
  8
0
  6
Continuous
 62
     7
100
AcDbCircle
 10
313.7186782063
 20
21.3776821252
 30
0.0
 40
4.756794641099999
100
AcDbArc
 50
252.5939200548001
 51
280.9816604256
  0
ARC
  5
74
330
3A
100
AcDbEntity
  8
0
  6
Continuous
 62
     7
100
AcDbCircle
 10
314.1735135694
 20
18.7596683887
 30
0.0
 40
2.100726595299998
100
AcDbArc
 50
282.405835852
 51
311.8644433928
  0
ARC
  5
75
330
3A
100
AcDbEntity
  8
0
  6
Continuous
 62
     7
100
AcDbCircle
 10
313.8999492223
 20
20.3680101102
 30
0.0
 40
0.3029626476
100
AcDbArc
 50
154.4400348282
 51
221.8201698801
  0
ARC
  5
76
330
3A
100
AcDbEntity
  8
0
  6
Continuous
 62
     7
100
AcDbCircle
 10
313.9791703737
 20
20.2887889588
 30
0.0
 40
0.4103089737
100
AcDbArc
 50
102.8287828681
 51
149.2259639003
  0
ARC
  5
77
330
3A
100
AcDbEntity
  8
0
  6
Continuous
 62
     7
100
AcDbCircle
 10
314.3961972093
 20
18.546453629
 30
0.0
 40
2.201836557
100
AcDbArc
 50
84.0400061857
 51
103.3427657870999
  0
ARC
  5
78
330
3A
100
AcDbEntity
  8
0
  6
Continuous
 62
     7
100
AcDbCircle
 10
314.0552333846
 20
16.1290897051
 30
0.0
 40
4.642373736499997
100
AcDbArc
 50
70.2625858546
 51
82.95241863799999
  0
ARC
  5
79
330
3A
100
AcDbEntity
  8
0
  6
Continuous
 62
     7
100
AcDbCircle
 10
313.5412151824001
 20
20.8007125947
 30
0.0
 40
3.258755990899997
100
AcDbArc
 50
247.5300206145
 51
280.7579522143
  0
ARC
  5
7A
330
3A
100
AcDbEntity
  8
0
  6
Continuous
 62
     7
100
AcDbCircle
 10
307.1562487104
 20
2.5491926343
 30
0.0
 40
17.3316084133
100
AcDbArc
 50
65.34146746500001
 51
67.39977707359999
  0
ARC
  5
7B
330
3A
100
AcDbEntity
  8
0
  6
Continuous
 62
     7
100
AcDbCircle
 10
317.9521111158
 20
28.3416189974
 30
0.0
 40
10.6291642039
100
AcDbArc
 50
242.8620101252001
 51
247.1042029186
  0
ARC
  5
7C
330
3A
100
AcDbEntity
  8
0
  6
Continuous
 62
     7
100
AcDbCircle
 10
314.0972098893
 20
20.8076875004
 30
0.0
 40
2.166291629199998
100
AcDbArc
 50
227.3119280794
 51
242.7040315235
  0
ARC
  5
7D
330
3A
100
AcDbEntity
  8
0
  6
Continuous
 62
     7
100
AcDbCircle
 10
313.4931790796
 20
20.1020098596
 30
0.0
 40
1.238521734
100
AcDbArc
 50
194.7952194236
 51
225.7176549047
  0
ARC
  5
7E
330
3A
100
AcDbEntity
  8
0
  6
Continuous
 62
     7
100
AcDbCircle
 10
313.5553372138
 20
20.1422298287
 30
0.0
 40
1.309092072899999
100
AcDbArc
 50
164.1974860461
 51
195.8025139539
  0
ARC
  5
7F
330
3A
100
AcDbEntity
  8
0
  6
Continuous
 62
     7
100
AcDbCircle
 10
314.1123609345001
 20
19.2539626688
 30
0.0
 40
2.366924815299999
100
AcDbArc
 50
86.22180229280001
 51
120.4272602309
  0
ARC
  5
80
330
3A
100
AcDbEntity
  8
0
  6
Continuous
 62
     7
100
AcDbCircle
 10
313.8435041519
 20
12.5577948477
 30
0.0
 40
9.0679051661
100
AcDbArc
 50
78.68270492259998
 51
87.3147599624
  0
ARC
  5
81
330
3A
100
AcDbEntity
  8
0
  6
Continuous
 62
     7
100
AcDbCircle
 10
313.3874349735
 20
20.2497375912
 30
0.0
 40
1.119747444
100
AcDbArc
 50
142.813917903
 51
167.1522951417
  0
ARC
  5
82
330
3A
100
AcDbEntity
  8
0
  6
Continuous
 62
     7
100
AcDbCircle
 10
313.7327443151
 20
19.9431558946
 30
0.0
 40
1.580546684499998
100
AcDbArc
 50
121.2140948535
 51
141.5254768286
  0
ARC
  5
83
330
3A
100
AcDbEntity
  8
0
  6
Continuous
 62
     7
100
AcDbCircle
 10
314.3099186807
 20
20.7542132232
 30
0.0
 40
0.8661276051999998
100
AcDbArc
 50
222.7760387596
 51
239.0362434679
  0
ARC
  5
84
330
3A
100
AcDbEntity
  8
0
  6
Continuous
 62
     7
100
AcDbCircle
 10
311.8032091024
 20
13.4239410246
 30
0.0
 40
6.858773576299999
100
AcDbArc
 50
59.90202725600001
 51
68.2036481279
  0
ARC
  5
85
330
3A
100
AcDbEntity
  8
0
  6
Continuous
 62
     7
100
AcDbCircle
 10
315.2117035963
 20
22.3498275319
 30
0.0
 40
2.698741017099999
100
AcDbArc
 50
240.0481997804
 51
251.3779673736999
  0
ARC
  5
86
330
3A
100
AcDbEntity
  8
0
  6
Continuous
 62
     7
100
AcDbCircle
 10
314.5462464295
 20
18.1929289165
 30
0.0
 40
1.4334474881
100
AcDbArc
 50
315.8904553224
 51
333.5229264373
  0
ARC
  5
87
330
3A
100
AcDbEntity
  8
0
  6
Continuous
 62
     7
100
AcDbCircle
 10
314.5508846732
 20
18.1395217664
 30
0.0
 40
1.406228711899998
100
AcDbArc
 50
335.3867972702
 51
24.3915119402
  0
ARC
  5
88
330
3A
100
AcDbEntity
  8
0
  6
Continuous
 62
     7
100
AcDbCircle
 10
314.4786797697
 20
18.0616650746
 30
0.0
 40
1.504702514799999
100
AcDbArc
 50
25.95629166050001
 51
59.4834829668
  0
LINE
  5
89
330
3A
100
AcDbEntity
  8
0
  6
Continuous
 62
     7
100
AcDbLine
 10
284.7029938783
 20
16.8387078159
 30
0.0
 11
284.7029938783
 21
17.7893616325
 31
0.0
  0
LINE
  5
8A
330
3A
100
AcDbEntity
  8
0
  6
Continuous
 62
     7
100
AcDbLine
 10
288.0302822366
 20
20.49872501
 30
0.0
 11
288.0302822366
 21
21.4493788266
 31
0.0
  0
ARC
  5
8B
330
3A
100
AcDbEntity
  8
0
  6
Continuous
 62
     7
100
AcDbCircle
 10
286.4076350033
 20
18.7008009792
 30
0.0
 40
1.111619360599997
100
AcDbArc
 50
277.7099956934
 51
295.6884927746
  0
ARC
  5
8C
330
3A
100
AcDbEntity
  8
0
  6
Continuous
 62
     7
100
AcDbCircle
 10
286.691944986
 20
17.9759752156
 30
0.0
 40
0.3401689265
100
AcDbArc
 50
305.5032212556
 51
72.4652898515
  0
ARC
  5
8D
330
3A
100
AcDbEntity
  8
0
  6
Continuous
 62
     7
100
AcDbCircle
 10
286.1259511779
 20
21.3776821252
 30
0.0
 40
4.756794641099999
100
AcDbArc
 50
252.5939200545
 51
280.9816604253
  0
ARC
  5
8E
330
3A
100
AcDbEntity
  8
0
  6
Continuous
 62
     7
100
AcDbCircle
 10
286.580786541
 20
18.7596683887
 30
0.0
 40
2.100726595299998
100
AcDbArc
 50
282.4058358513
 51
311.8644433923
  0
ARC
  5
8F
330
3A
100
AcDbEntity
  8
0
  6
Continuous
 62
     7
100
AcDbCircle
 10
286.3072221939
 20
20.3680101102
 30
0.0
 40
0.3029626476
100
AcDbArc
 50
154.4400348282
 51
221.8201698801
  0
ARC
  5
90
330
3A
100
AcDbEntity
  8
0
  6
Continuous
 62
     7
100
AcDbCircle
 10
286.3864433453
 20
20.2887889588
 30
0.0
 40
0.4103089737
100
AcDbArc
 50
102.8287828727
 51
149.2259639027
  0
ARC
  5
91
330
3A
100
AcDbEntity
  8
0
  6
Continuous
 62
     7
100
AcDbCircle
 10
286.8034701809
 20
18.546453629
 30
0.0
 40
2.201836557
100
AcDbArc
 50
84.0400061859
 51
103.3427657872
  0
ARC
  5
92
330
3A
100
AcDbEntity
  8
0
  6
Continuous
 62
     7
100
AcDbCircle
 10
286.4625063562
 20
16.1290897051
 30
0.0
 40
4.642373736499997
100
AcDbArc
 50
70.2625858546
 51
82.9524186379
  0
ARC
  5
93
330
3A
100
AcDbEntity
  8
0
  6
Continuous
 62
     7
100
AcDbCircle
 10
285.948488154
 20
20.8007125947
 30
0.0
 40
3.258755990899997
100
AcDbArc
 50
247.5300206148
 51
280.7579522145
  0
ARC
  5
94
330
3A
100
AcDbEntity
  8
0
  6
Continuous
 62
     7
100
AcDbCircle
 10
279.563521682
 20
2.5491926343
 30
0.0
 40
17.3316084133
100
AcDbArc
 50
65.34146746500001
 51
67.39977707359999
  0
ARC
  5
95
330
3A
100
AcDbEntity
  8
0
  6
Continuous
 62
     7
100
AcDbCircle
 10
290.3593840874
 20
28.3416189974
 30
0.0
 40
10.6291642039
100
AcDbArc
 50
242.8620101252001
 51
247.1042029185
  0
ARC
  5
96
330
3A
100
AcDbEntity
  8
0
  6
Continuous
 62
     7
100
AcDbCircle
 10
286.5044828608
 20
20.8076875004
 30
0.0
 40
2.166291629199998
100
AcDbArc
 50
227.3119280794
 51
242.7040315235
  0
ARC
  5
97
330
3A
100
AcDbEntity
  8
0
  6
Continuous
 62
     7
100
AcDbCircle
 10
285.9004520512
 20
20.1020098596
 30
0.0
 40
1.238521734
100
AcDbArc
 50
194.7952194234
 51
225.7176549042
  0
ARC
  5
98
330
3A
100
AcDbEntity
  8
0
  6
Continuous
 62
     7
100
AcDbCircle
 10
286.519633906
 20
19.2539626688
 30
0.0
 40
2.366924815299999
100
AcDbArc
 50
86.22180229280001
 51
120.4272602309
  0
ARC
  5
99
330
3A
100
AcDbEntity
  8
0
  6
Continuous
 62
     7
100
AcDbCircle
 10
286.2507771235
 20
12.5577948477
 30
0.0
 40
9.0679051661
100
AcDbArc
 50
78.68270492259998
 51
87.3147599624
  0
ARC
  5
9A
330
3A
100
AcDbEntity
  8
0
  6
Continuous
 62
     7
100
AcDbCircle
 10
286.1400172867
 20
19.9431558946
 30
0.0
 40
1.580546684599998
100
AcDbArc
 50
121.2140948541
 51
141.525476829
  0
ARC
  5
9B
330
3A
100
AcDbEntity
  8
0
  6
Continuous
 62
     7
100
AcDbCircle
 10
286.7171916523
 20
20.7542132232
 30
0.0
 40
0.8661276051999998
100
AcDbArc
 50
222.7760387596
 51
239.0362434679
  0
ARC
  5
9C
330
3A
100
AcDbEntity
  8
0
  6
Continuous
 62
     7
100
AcDbCircle
 10
284.210482074
 20
13.4239410246
 30
0.0
 40
6.858773576299999
100
AcDbArc
 50
59.90202725620001
 51
68.20364812820002
  0
ARC
  5
9D
330
3A
100
AcDbEntity
  8
0
  6
Continuous
 62
     7
100
AcDbCircle
 10
287.6189765678
 20
22.3498275319
 30
0.0
 40
2.698741017099999
100
AcDbArc
 50
240.0481997804
 51
251.3779673734
  0
ARC
  5
9E
330
3A
100
AcDbEntity
  8
0
  6
Continuous
 62
     7
100
AcDbCircle
 10
286.953519401
 20
18.1929289165
 30
0.0
 40
1.4334474881
100
AcDbArc
 50
315.8904553226
 51
333.5229264375
  0
ARC
  5
9F
330
3A
100
AcDbEntity
  8
0
  6
Continuous
 62
     7
100
AcDbCircle
 10
286.9581576447
 20
18.1395217664
 30
0.0
 40
1.406228711899998
100
AcDbArc
 50
335.3867972703
 51
24.3915119403
  0
ARC
  5
A0
330
3A
100
AcDbEntity
  8
0
  6
Continuous
 62
     7
100
AcDbCircle
 10
286.8859527412
 20
18.0616650746
 30
0.0
 40
1.504702514699999
100
AcDbArc
 50
25.9562916611
 51
59.4834829676
  0
LINE
  5
A1
330
3A
100
AcDbEntity
  8
0
  6
Continuous
 62
     7
100
AcDbLine
 10
284.8948224676
 20
20.9161059766
 30
0.0
 11
285.1688882922
 21
21.1901790542
 31
0.0
  0
ARC
  5
A2
330
3A
100
AcDbEntity
  8
0
  6
Continuous
 62
     7
100
AcDbCircle
 10
285.9626101853
 20
20.1422298287
 30
0.0
 40
1.309092072899999
100
AcDbArc
 50
164.1974860461
 51
195.8025139539
  0
ARC
  5
A3
330
3A
100
AcDbEntity
  8
0
  6
Continuous
 62
     7
100
AcDbCircle
 10
285.7947079451
 20
20.2497375912
 30
0.0
 40
1.119747444
100
AcDbArc
 50
142.813917903
 51
167.1522951417
  0
ENDBLK
  5
A4
330
3A
100
AcDbEntity
  8
0
100
AcDbBlockEnd
  0
BLOCK
  5
59C2
330
59B7
100
AcDbEntity
  8
0
100
AcDbBlockBegin
  2
*D1
 70
     1
 10
0.0
 20
0.0
 30
0.0
  3
*D1
  1

  0
LINE
  5
6577
330
59B7
100
AcDbEntity
  8
11100_LEFT_DIM
  6
Continuous
 62
     0
370
    -2
100
AcDbLine
 10
321.5982197045253
 20
104.1750923302351
 30
0.0
 11
313.6054298755128
 21
104.1750923302351
 31
0.0
  0
LINE
  5
6578
330
59B7
100
AcDbEntity
  8
11100_LEFT_DIM
  6
Continuous
 62
     0
370
    -2
100
AcDbLine
 10
344.8450197045253
 20
170.9066923302351
 30
0.0
 11
313.6054298755129
 21
170.9066923302351
 31
0.0
  0
LINE
  5
6579
330
59B7
100
AcDbEntity
  8
11100_LEFT_DIM
  6
Continuous
 62
     0
370
    -2
100
AcDbLine
 10
314.6054298755128
 20
106.1750923302351
 30
0.0
 11
314.6054298755128
 21
133.5592256635684
 31
0.0
  0
LINE
  5
657A
330
59B7
100
AcDbEntity
  8
11100_LEFT_DIM
  6
Continuous
 62
     0
370
    -2
100
AcDbLine
 10
314.6054298755128
 20
168.9066923302351
 30
0.0
 11
314.6054298755128
 21
137.8925589969017
 31
0.0
  0
SOLID
  5
657B
330
59B7
100
AcDbEntity
  8
11100_LEFT_DIM
  6
Continuous
 62
     0
100
AcDbTrace
 10
314.2720965421795
 20
106.1750923302351
 30
0.0
 11
314.9387632088461
 21
106.1750923302351
 31
0.0
 12
314.6054298755128
 22
104.1750923302351
 32
0.0
 13
314.6054298755128
 23
104.1750923302351
 33
0.0
  0
SOLID
  5
657C
330
59B7
100
AcDbEntity
  8
11100_LEFT_DIM
  6
Continuous
 62
     0
100
AcDbTrace
 10
314.2720965421796
 20
168.9066923302351
 30
0.0
 11
314.9387632088462
 21
168.9066923302351
 31
0.0
 12
314.6054298755128
 22
170.9066923302351
 32
0.0
 13
314.6054298755128
 23
170.9066923302351
 33
0.0
  0
MTEXT
  5
657D
330
59B7
100
AcDbEntity
  8
11100_LEFT_DIM
  6
Continuous
 62
     0
370
    13
100
AcDbMText
 10
314.6054298755128
 20
135.7258923302351
 30
0.0
 40
3.5
 41
0.0
 71
     5
 72
     1
  1
\A1;B
 11
0.0000000000000001
 21
1.0
 31
0.0
 73
     1
 44
1.0
1001
ACAD
1000
MTEXTBEGIN
1070
    73
1070
     1
1070
    44
1040
1.0
1070
    74
1070
     0
1000
MTEXTEND
  0
POINT
  5
657E
330
59B7
100
AcDbEntity
  8
Defpoints
  6
Continuous
 62
     0
100
AcDbPoint
 10
322.5982197045253
 20
104.1750923302351
 30
0.55
  0
POINT
  5
657F
330
59B7
100
AcDbEntity
  8
Defpoints
  6
Continuous
 62
     0
100
AcDbPoint
 10
345.8450197045253
 20
170.9066923302351
 30
0.0
  0
POINT
  5
6580
330
59B7
100
AcDbEntity
  8
Defpoints
  6
Continuous
 62
     0
100
AcDbPoint
 10
314.6054298755128
 20
170.9066923302351
 30
0.0
  0
ENDBLK
  5
59C3
330
59B7
100
AcDbEntity
  8
0
100
AcDbBlockEnd
  0
BLOCK
  5
59CF
330
59C4
100
AcDbEntity
  8
0
100
AcDbBlockBegin
  2
*D2
 70
     1
 10
0.0
 20
0.0
 30
0.0
  3
*D2
  1

  0
LINE
  5
656D
330
59C4
100
AcDbEntity
  8
11100_LEFT_DIM
  6
Continuous
 62
     0
370
    -2
100
AcDbLine
 10
324.0450197045254
 20
60.26899233023518
 30
0.0
 11
306.0351327516568
 21
60.26899233023518
 31
0.0
  0
LINE
  5
656E
330
59C4
100
AcDbEntity
  8
11100_LEFT_DIM
  6
Continuous
 62
     0
370
    -2
100
AcDbLine
 10
344.8450197045253
 20
170.9066923302351
 30
0.0
 11
306.0351327516569
 21
170.9066923302351
 31
0.0
  0
LINE
  5
656F
330
59C4
100
AcDbEntity
  8
11100_LEFT_DIM
  6
Continuous
 62
     0
370
    -2
100
AcDbLine
 10
307.0351327516568
 20
62.26899233023518
 30
0.0
 11
307.0351327516568
 21
111.9311756635684
 31
0.0
  0
LINE
  5
6570
330
59C4
100
AcDbEntity
  8
11100_LEFT_DIM
  6
Continuous
 62
     0
370
    -2
100
AcDbLine
 10
307.0351327516569
 20
168.9066923302351
 30
0.0
 11
307.0351327516568
 21
116.2645089969018
 31
0.0
  0
SOLID
  5
6571
330
59C4
100
AcDbEntity
  8
11100_LEFT_DIM
  6
Continuous
 62
     0
100
AcDbTrace
 10
306.7017994183235
 20
62.26899233023518
 30
0.0
 11
307.3684660849901
 21
62.26899233023518
 31
0.0
 12
307.0351327516568
 22
60.26899233023518
 32
0.0
 13
307.0351327516568
 23
60.26899233023518
 33
0.0
  0
SOLID
  5
6572
330
59C4
100
AcDbEntity
  8
11100_LEFT_DIM
  6
Continuous
 62
     0
100
AcDbTrace
 10
306.7017994183236
 20
168.9066923302351
 30
0.0
 11
307.3684660849902
 21
168.9066923302351
 31
0.0
 12
307.0351327516569
 22
170.9066923302351
 32
0.0
 13
307.0351327516569
 23
170.9066923302351
 33
0.0
  0
MTEXT
  5
6573
330
59C4
100
AcDbEntity
  8
11100_LEFT_DIM
  6
Continuous
 62
     0
370
    13
100
AcDbMText
 10
307.0351327516568
 20
114.0978423302352
 30
0.0
 40
3.5
 41
0.0
 71
     5
 72
     1
  1
\A1;A
 11
0.0000000000000001
 21
1.0
 31
0.0
 73
     1
 44
1.0
1001
ACAD
1000
MTEXTBEGIN
1070
    73
1070
     1
1070
    44
1040
1.0
1070
    74
1070
     0
1000
MTEXTEND
  0
POINT
  5
6574
330
59C4
100
AcDbEntity
  8
Defpoints
  6
Continuous
 62
     0
100
AcDbPoint
 10
325.0450197045254
 20
60.26899233023518
 30
0.0
  0
POINT
  5
6575
330
59C4
100
AcDbEntity
  8
Defpoints
  6
Continuous
 62
     0
100
AcDbPoint
 10
345.8450197045253
 20
170.9066923302351
 30
0.0
  0
POINT
  5
6576
330
59C4
100
AcDbEntity
  8
Defpoints
  6
Continuous
 62
     0
100
AcDbPoint
 10
307.0351327516569
 20
170.9066923302351
 30
0.0
  0
ENDBLK
  5
59D0
330
59C4
100
AcDbEntity
  8
0
100
AcDbBlockEnd
  0
BLOCK
  5
5A10
330
5A05
100
AcDbEntity
  8
0
100
AcDbBlockBegin
  2
*D3
 70
     1
 10
0.0
 20
0.0
 30
0.0
  3
*D3
  1

  0
LINE
  5
658B
330
5A05
100
AcDbEntity
  8
11100_LEFT_DIM
  6
Continuous
 62
     0
370
    -2
100
AcDbLine
 10
360.2450197045254
 20
172.4266923302352
 30
0.0
 11
360.2450197045254
 21
177.8525214611617
 31
0.0
  0
LINE
  5
658C
330
5A05
100
AcDbEntity
  8
11100_LEFT_DIM
  6
Continuous
 62
     0
370
    -2
100
AcDbLine
 10
373.2450197045253
 20
171.4266923302351
 30
0.0
 11
373.2450197045253
 21
177.8525214611617
 31
0.0
  0
LINE
  5
658D
330
5A05
100
AcDbEntity
  8
11100_LEFT_DIM
  6
Continuous
 62
     0
370
    -2
100
AcDbLine
 10
362.2450197045254
 20
176.8525214611617
 30
0.0
 11
363.3584189961512
 21
176.8525214611617
 31
0.0
  0
LINE
  5
658E
330
5A05
100
AcDbEntity
  8
11100_LEFT_DIM
  6
Continuous
 62
     0
370
    -2
100
AcDbLine
 10
371.2450197045253
 20
176.8525214611617
 30
0.0
 11
370.0250856628178
 21
176.8525214611617
 31
0.0
  0
SOLID
  5
658F
330
5A05
100
AcDbEntity
  8
11100_LEFT_DIM
  6
Continuous
 62
     0
100
AcDbTrace
 10
362.2450197045254
 20
177.185854794495
 30
0.0
 11
362.2450197045254
 21
176.5191881278283
 31
0.0
 12
360.2450197045254
 22
176.8525214611617
 32
0.0
 13
360.2450197045254
 23
176.8525214611617
 33
0.0
  0
SOLID
  5
6590
330
5A05
100
AcDbEntity
  8
11100_LEFT_DIM
  6
Continuous
 62
     0
100
AcDbTrace
 10
371.2450197045253
 20
177.185854794495
 30
0.0
 11
371.2450197045253
 21
176.5191881278283
 31
0.0
 12
373.2450197045253
 22
176.8525214611617
 32
0.0
 13
373.2450197045253
 23
176.8525214611617
 33
0.0
  0
MTEXT
  5
6591
330
5A05
100
AcDbEntity
  8
11100_LEFT_DIM
  6
Continuous
 62
     0
370
    13
100
AcDbMText
 10
366.6917523294845
 20
176.8525214611617
 30
0.0
 40
3.5
 41
0.0
 71
     5
 72
     1
  1
\A1;13
 73
     1
 44
1.0
1001
ACAD
1000
MTEXTBEGIN
1070
    73
1070
     1
1070
    44
1040
1.0
1070
    74
1070
     0
1000
MTEXTEND
  0
POINT
  5
6592
330
5A05
100
AcDbEntity
  8
Defpoints
  6
Continuous
 62
     0
100
AcDbPoint
 10
360.2450197045254
 20
171.4266923302352
 30
0.0
  0
POINT
  5
6593
330
5A05
100
AcDbEntity
  8
Defpoints
  6
Continuous
 62
     0
100
AcDbPoint
 10
373.2450197045253
 20
170.4266923302351
 30
0.0
  0
POINT
  5
6594
330
5A05
100
AcDbEntity
  8
Defpoints
  6
Continuous
 62
     0
100
AcDbPoint
 10
373.2450197045253
 20
176.8525214611617
 30
0.0
  0
ENDBLK
  5
5A11
330
5A05
100
AcDbEntity
  8
0
100
AcDbBlockEnd
  0
BLOCK
  5
5A1D
330
5A12
100
AcDbEntity
  8
0
100
AcDbBlockBegin
  2
*D4
 70
     1
 10
0.0
 20
0.0
 30
0.0
  3
*D4
  1

  0
LINE
  5
6581
330
5A12
100
AcDbEntity
  8
11100_LEFT_DIM
  6
Continuous
 62
     0
370
    -2
100
AcDbLine
 10
374.238063800306
 20
170.9066923302351
 30
0.0
 11
381.3963726743608
 21
170.9066923302351
 31
0.0
  0
LINE
  5
6582
330
5A12
100
AcDbEntity
  8
11100_LEFT_DIM
  6
Continuous
 62
     0
370
    -2
100
AcDbLine
 10
374.238063800306
 20
149.4266923302352
 30
0.0
 11
381.3963726743608
 21
149.4266923302352
 31
0.0
  0
LINE
  5
6583
330
5A12
100
AcDbEntity
  8
11100_LEFT_DIM
  6
Continuous
 62
     0
370
    -2
100
AcDbLine
 10
380.3963726743608
 20
168.9066923302351
 30
0.0
 11
380.3963726743608
 21
163.5000256635685
 31
0.0
  0
LINE
  5
6584
330
5A12
100
AcDbEntity
  8
11100_LEFT_DIM
  6
Continuous
 62
     0
370
    -2
100
AcDbLine
 10
380.3963726743608
 20
151.4266923302352
 30
0.0
 11
380.3963726743608
 21
156.8333589969018
 31
0.0
  0
SOLID
  5
6585
330
5A12
100
AcDbEntity
  8
11100_LEFT_DIM
  6
Continuous
 62
     0
100
AcDbTrace
 10
380.0630393410275
 20
168.9066923302351
 30
0.0
 11
380.7297060076941
 21
168.9066923302351
 31
0.0
 12
380.3963726743608
 22
170.9066923302351
 32
0.0
 13
380.3963726743608
 23
170.9066923302351
 33
0.0
  0
SOLID
  5
6586
330
5A12
100
AcDbEntity
  8
11100_LEFT_DIM
  6
Continuous
 62
     0
100
AcDbTrace
 10
380.0630393410275
 20
151.4266923302352
 30
0.0
 11
380.7297060076941
 21
151.4266923302352
 31
0.0
 12
380.3963726743608
 22
149.4266923302352
 32
0.0
 13
380.3963726743608
 23
149.4266923302352
 33
0.0
  0
MTEXT
  5
6587
330
5A12
100
AcDbEntity
  8
11100_LEFT_DIM
  6
Continuous
 62
     0
370
    13
100
AcDbMText
 10
380.3963726743607
 20
160.1666923302352
 30
0.0
 40
3.5
 41
0.0
 71
     5
 72
     1
  1
\A1;21
 11
0.0000000000000001
 21
1.0
 31
0.0
 73
     1
 44
1.0
1001
ACAD
1000
MTEXTBEGIN
1070
    73
1070
     1
1070
    44
1040
1.0
1070
    74
1070
     0
1000
MTEXTEND
  0
POINT
  5
6588
330
5A12
100
AcDbEntity
  8
Defpoints
  6
Continuous
 62
     0
100
AcDbPoint
 10
373.238063800306
 20
170.9066923302351
 30
0.0
  0
POINT
  5
6589
330
5A12
100
AcDbEntity
  8
Defpoints
  6
Continuous
 62
     0
100
AcDbPoint
 10
373.238063800306
 20
149.4266923302352
 30
0.0
  0
POINT
  5
658A
330
5A12
100
AcDbEntity
  8
Defpoints
  6
Continuous
 62
     0
100
AcDbPoint
 10
380.3963726743608
 20
149.4266923302352
 30
0.0
  0
ENDBLK
  5
5A1E
330
5A12
100
AcDbEntity
  8
0
100
AcDbBlockEnd
  0
BLOCK
  5
6507
330
64FC
100
AcDbEntity
  8
0
100
AcDbBlockBegin
  2
*D5
 70
     1
 10
0.0
 20
0.0
 30
0.0
  3
*D5
  1

  0
LINE
  5
6563
330
64FC
100
AcDbEntity
  8
10100_FRONT_DIM
  6
Continuous
 62
     7
370
    -2
100
AcDbLine
 10
185.8252263054112
 20
149.7489923302349
 30
0.0
 11
185.8252263054112
 21
120.3349050830916
 31
0.0
  0
LINE
  5
6564
330
64FC
100
AcDbEntity
  8
10100_FRONT_DIM
  6
Continuous
 62
     7
370
    -2
100
AcDbLine
 10
286.8252263054112
 20
149.7489923302349
 30
0.0
 11
286.8252263054112
 21
120.3349050830916
 31
0.0
  0
LINE
  5
6565
330
64FC
100
AcDbEntity
  8
10100_FRONT_DIM
  6
Continuous
370
    -2
100
AcDbLine
 10
189.3252263054112
 20
122.3349050830916
 30
0.0
 11
231.6168929720779
 21
122.3349050830916
 31
0.0
  0
LINE
  5
6566
330
64FC
100
AcDbEntity
  8
10100_FRONT_DIM
  6
Continuous
370
    -2
100
AcDbLine
 10
283.3252263054112
 20
122.3349050830916
 30
0.0
 11
241.0335596387445
 21
122.3349050830916
 31
0.0
  0
SOLID
  5
6567
330
64FC
100
AcDbEntity
  8
10100_FRONT_DIM
  6
Continuous
100
AcDbTrace
 10
189.3252263054112
 20
122.9182384164249
 30
0.0
 11
189.3252263054112
 21
121.7515717497583
 31
0.0
 12
185.8252263054112
 22
122.3349050830916
 32
0.0
 13
185.8252263054112
 23
122.3349050830916
 33
0.0
  0
SOLID
  5
6568
330
64FC
100
AcDbEntity
  8
10100_FRONT_DIM
  6
Continuous
100
AcDbTrace
 10
283.3252263054112
 20
122.9182384164249
 30
0.0
 11
283.3252263054112
 21
121.7515717497583
 31
0.0
 12
286.8252263054112
 22
122.3349050830916
 32
0.0
 13
286.8252263054112
 23
122.3349050830916
 33
0.0
  0
MTEXT
  5
6569
330
64FC
100
AcDbEntity
  8
10100_FRONT_DIM
  6
Continuous
 62
     7
370
    13
100
AcDbMText
 10
236.3252263054112
 20
122.3349050830916
 30
0.0
 40
3.5
 41
0.0
 71
     5
 72
     1
  1
\A1;101
 73
     1
 44
1.0
1001
ACAD
1000
MTEXTBEGIN
1070
    73
1070
     1
1070
    44
1040
1.0
1070
    74
1070
     0
1000
MTEXTEND
  0
POINT
  5
656A
330
64FC
100
AcDbEntity
  8
Defpoints
  6
Continuous
 62
     0
100
AcDbPoint
 10
185.8252263054112
 20
149.7489923302349
 30
0.0
  0
POINT
  5
656B
330
64FC
100
AcDbEntity
  8
Defpoints
  6
Continuous
 62
     0
100
AcDbPoint
 10
286.8252263054112
 20
149.7489923302349
 30
0.0
  0
POINT
  5
656C
330
64FC
100
AcDbEntity
  8
Defpoints
  6
Continuous
 62
     0
100
AcDbPoint
 10
286.8252263054112
 20
122.3349050830916
 30
0.0
  0
ENDBLK
  5
6508
330
64FC
100
AcDbEntity
  8
0
100
AcDbBlockEnd
  0
BLOCK
  5
6514
330
6509
100
AcDbEntity
  8
0
100
AcDbBlockBegin
  2
*D6
 70
     1
 10
0.0
 20
0.0
 30
0.0
  3
*D6
  1

  0
LINE
  5
6559
330
6509
100
AcDbEntity
  8
10100_FRONT_DIM
  6
Continuous
 62
     7
370
    -2
100
AcDbLine
 10
190.4252263054115
 20
141.7488923502308
 30
0.0
 11
190.4252263054115
 21
126.8592307256446
 31
0.0
  0
LINE
  5
655A
330
6509
100
AcDbEntity
  8
10100_FRONT_DIM
  6
Continuous
 62
     7
370
    -2
100
AcDbLine
 10
253.4252263054116
 20
141.7488923502307
 30
0.0
 11
253.4252263054116
 21
126.8592307256446
 31
0.0
  0
LINE
  5
655B
330
6509
100
AcDbEntity
  8
10100_FRONT_DIM
  6
Continuous
370
    -2
100
AcDbLine
 10
193.9252263054115
 20
128.8592307256446
 30
0.0
 11
217.5085596387449
 21
128.8592307256446
 31
0.0
  0
LINE
  5
655C
330
6509
100
AcDbEntity
  8
10100_FRONT_DIM
  6
Continuous
370
    -2
100
AcDbLine
 10
249.9252263054116
 20
128.8592307256446
 30
0.0
 11
226.3418929720782
 21
128.8592307256446
 31
0.0
  0
SOLID
  5
655D
330
6509
100
AcDbEntity
  8
10100_FRONT_DIM
  6
Continuous
100
AcDbTrace
 10
193.9252263054115
 20
129.4425640589779
 30
0.0
 11
193.9252263054115
 21
128.2758973923112
 31
0.0
 12
190.4252263054115
 22
128.8592307256446
 32
0.0
 13
190.4252263054115
 23
128.8592307256446
 33
0.0
  0
SOLID
  5
655E
330
6509
100
AcDbEntity
  8
10100_FRONT_DIM
  6
Continuous
100
AcDbTrace
 10
249.9252263054116
 20
129.4425640589779
 30
0.0
 11
249.9252263054116
 21
128.2758973923112
 31
0.0
 12
253.4252263054116
 22
128.8592307256446
 32
0.0
 13
253.4252263054116
 23
128.8592307256446
 33
0.0
  0
MTEXT
  5
655F
330
6509
100
AcDbEntity
  8
10100_FRONT_DIM
  6
Continuous
 62
     7
370
    13
100
AcDbMText
 10
221.9252263054115
 20
128.8592307256446
 30
0.0
 40
3.5
 41
0.0
 71
     5
 72
     1
  1
\A1;63
 73
     1
 44
1.0
1001
ACAD
1000
MTEXTBEGIN
1070
    73
1070
     1
1070
    44
1040
1.0
1070
    74
1070
     0
1000
MTEXTEND
  0
POINT
  5
6560
330
6509
100
AcDbEntity
  8
Defpoints
  6
Continuous
 62
     0
100
AcDbPoint
 10
190.4252263054115
 20
141.7488923502308
 30
0.0
  0
POINT
  5
6561
330
6509
100
AcDbEntity
  8
Defpoints
  6
Continuous
 62
     0
100
AcDbPoint
 10
253.4252263054116
 20
141.7488923502307
 30
0.0
  0
POINT
  5
6562
330
6509
100
AcDbEntity
  8
Defpoints
  6
Continuous
 62
     0
100
AcDbPoint
 10
253.4252263054116
 20
128.8592307256446
 30
0.0
  0
ENDBLK
  5
6515
330
6509
100
AcDbEntity
  8
0
100
AcDbBlockEnd
  0
ENDSEC
  0
SECTION
  2
ENTITIES
  0
INSERT
  5
AA
330
20
100
AcDbEntity
  8
90000_FRAME
  6
Continuous
 62
     7
100
AcDbBlockReference
  2
SIEMENS_OUTLINE_BL0
 10
0.0
 20
0.0
 30
0.0
  0
LINE
  5
AB
330
20
100
AcDbEntity
  8
90000_FRAME
  6
Continuous
 62
     7
100
AcDbLine
 10
275.0
 20
10.0
 30
0.0
 11
410.0
 21
10.0
 31
0.0
  0
LINE
  5
AC
330
20
100
AcDbEntity
  8
90000_FRAME
  6
Continuous
 62
     7
100
AcDbLine
 10
275.0
 20
10.0
 30
0.0
 11
275.0
 21
28.0
 31
0.0
  0
LINE
  5
AD
330
20
100
AcDbEntity
  8
90000_FRAME
  6
Continuous
 62
     7
100
AcDbLine
 10
325.0
 20
16.0
 30
0.0
 11
410.0
 21
16.0
 31
0.0
  0
LINE
  5
AE
330
20
100
AcDbEntity
  8
90000_FRAME
  6
Continuous
 62
     7
100
AcDbLine
 10
275.0
 20
28.0
 30
0.0
 11
410.0
 21
28.0
 31
0.0
  0
LINE
  5
AF
330
20
100
AcDbEntity
  8
90000_FRAME
  6
Continuous
 62
     7
100
AcDbLine
 10
325.0
 20
10.0
 30
0.0
 11
325.0
 21
28.0
 31
0.0
  0
LINE
  5
B0
330
20
100
AcDbEntity
  8
90000_FRAME
  6
Continuous
 62
     7
100
AcDbLine
 10
367.5
 20
10.0
 30
0.0
 11
367.5
 21
16.0
 31
0.0
  0
LINE
  5
B1
330
20
100
AcDbEntity
  8
90000_FRAME
  6
Continuous
 62
     7
100
AcDbLine
 10
410.0
 20
10.0
 30
0.0
 11
410.0
 21
28.0
 31
0.0
  0
TEXT
  5
B2
330
20
100
AcDbEntity
  8
90000_FRAME
  6
Continuous
 62
     7
100
AcDbText
 10
325.66
 20
11.9
 30
0.0
 40
2.2
  1
Format / Size: DIN A4
 41
0.7994987468660285
 72
     5
 11
359.079047619
 21
11.9
 31
0.0
100
AcDbText
  0
TEXT
  5
B3
330
20
100
AcDbEntity
  8
90000_FRAME
  6
Continuous
 62
     7
100
AcDbText
 10
368.16
 20
11.9
 30
0.0
 40
2.2
  1
Massstab / Scale: 1:1
 41
0.7732634338148469
 72
     5
 11
399.0647619048001
 21
11.9
 31
0.0
100
AcDbText
  0
LINE
  5
20F5
330
20
100
AcDbEntity
  8
91000_TIP
  6
Continuous
 62
     7
100
AcDbLine
 10
249.8146701040259
 20
21.32373752237061
 30
0.0
 11
259.814669899826
 21
23.82373747137058
 31
0.0
  0
LINE
  5
20F6
330
20
100
AcDbEntity
  8
91000_TIP
  6
CENTER
 62
     7
100
AcDbLine
 10
248.5351596320249
 20
18.82373757347062
 30
0.0
 11
272.1371488961249
 21
18.82373757347062
 31
0.0
  0
LINE
  5
20F7
330
20
100
AcDbEntity
  8
91000_TIP
  6
Continuous
 62
     7
100
AcDbLine
 10
249.8146701040259
 20
16.32373762457058
 30
0.0
 11
259.814669899826
 21
13.8237376755705
 31
0.0
  0
LINE
  5
20F8
330
20
100
AcDbEntity
  8
91000_TIP
  6
Continuous
 62
     7
100
AcDbLine
 10
249.8146701040259
 20
21.32373752237061
 30
0.0
 11
249.8146701040259
 21
16.32373762457058
 31
0.0
  0
LINE
  5
20F9
330
20
100
AcDbEntity
  8
91000_TIP
  6
Continuous
 62
     7
100
AcDbLine
 10
259.814669899826
 20
23.82373747137058
 30
0.0
 11
259.814669899826
 21
13.8237376755705
 31
0.0
  0
LINE
  5
20FA
330
20
100
AcDbEntity
  8
91000_TIP
  6
CENTER
 62
     7
100
AcDbLine
 10
266.3146697670259
 20
13.10225636707057
 30
0.0
 11
266.3146697670259
 21
24.38564236707057
 31
0.0
  0
CIRCLE
  5
20FB
330
20
100
AcDbEntity
  8
91000_TIP
  6
Continuous
 62
     7
100
AcDbCircle
 10
266.3146697670259
 20
18.82373757347062
 30
0.0
 40
4.9999998979
  0
CIRCLE
  5
20FC
330
20
100
AcDbEntity
  8
91000_TIP
  6
Continuous
 62
     7
100
AcDbCircle
 10
266.3146697670259
 20
18.82373757347062
 30
0.0
 40
2.499999948899997
  0
TEXT
  5
2196
330
20
100
AcDbEntity
  8
90000_FRAME
  6
Continuous
 62
     7
100
AcDbText
 10
338.3059245239508
 20
20.25
 30
0.0
 40
3.5
  1
3RV191__00000168_000_ALL
 41
0.7373033857474686
 72
     5
 11
394.2180979431339
 21
20.25
 31
0.0
100
AcDbText
  0
LINE
  5
5888
330
20
100
AcDbEntity
  8
11100_LEFT_DIM
 62
     7
370
    13
100
AcDbLine
 10
220.9148637845531
 20
66.14566758236676
 30
0.0
 11
288.7041865564782
 21
66.14566758236676
 31
0.0
1001
AUSTER_FOLIE
1002
{
1000
NSB00055_3PSSTE45
1002
}
  0
TEXT
  5
5889
330
20
100
AcDbEntity
  8
11100_LEFT_DIM
  6
Continuous
 62
     7
370
    13
100
AcDbText
 10
224.5130036865443
 20
59.30145679832027
 30
0.0
 40
5.0
  1
B
  7
Helvetica
100
AcDbText
1001
AUSTER_FOLIE
1002
{
1000
NSB00055_3PSSTE45
1002
}
  0
TEXT
  5
588A
330
20
100
AcDbEntity
  8
11100_LEFT_DIM
  6
Continuous
 62
     7
370
    13
100
AcDbText
 10
246.9543943105813
 20
59.30145679832027
 30
0.0
 40
5.0
  1
67
  7
Helvetica
100
AcDbText
1001
AUSTER_FOLIE
1002
{
1000
NSB00055_3PSSTE45
1002
}
  0
TEXT
  5
588B
330
20
100
AcDbEntity
  8
11100_LEFT_DIM
  6
Continuous
 62
     7
370
    13
100
AcDbText
 10
275.6293635464948
 20
59.30145679832027
 30
0.0
 40
5.0
  1
70
  7
Helvetica
100
AcDbText
1001
AUSTER_FOLIE
1002
{
1000
NSB00055_3PSSTE45
1002
}
  0
TEXT
  5
588C
330
20
100
AcDbEntity
  8
11100_LEFT_DIM
  6
Continuous
 62
     7
370
    13
100
AcDbText
 10
273.2167434559718
 20
68.18503233228077
 30
0.0
 40
5.0
  1
119
  7
Helvetica
100
AcDbText
1001
AUSTER_FOLIE
1002
{
1000
NSB00055_3PSSTE45
1002
}
  0
TEXT
  5
588D
330
20
100
AcDbEntity
  8
11100_LEFT_DIM
  6
Continuous
 62
     7
370
    13
100
AcDbText
 10
224.5130036865443
 20
68.18503233228077
 30
0.0
 40
5.0
  1
A
  7
Helvetica
100
AcDbText
1001
AUSTER_FOLIE
1002
{
1000
NSB00055_3PSSTE45
1002
}
  0
TEXT
  5
588E
330
20
100
AcDbEntity
  8
11100_LEFT_DIM
  6
Continuous
 62
     7
370
    13
100
AcDbText
 10
245.0783023752423
 20
68.18503233228077
 30
0.0
 40
5.0
  1
111
  7
Helvetica
100
AcDbText
1001
AUSTER_FOLIE
1002
{
1000
NSB00055_3PSSTE45
1002
}
  0
LINE
  5
588F
330
20
100
AcDbEntity
  8
11100_LEFT_DIM
 62
     7
370
    13
100
AcDbLine
 10
220.9148637845531
 20
76.30715662348968
 30
0.0
 11
288.7041865564782
 21
76.30715662348968
 31
0.0
1001
AUSTER_FOLIE
1002
{
1000
NSB00055_3PSSTE45
1002
}
  0
TEXT
  5
5890
330
20
100
AcDbEntity
  8
11100_LEFT_DIM
  6
Continuous
 62
     7
370
    13
100
AcDbText
 10
245.0783023752423
 20
81.58962793669099
 30
0.0
 40
5.0
  1
S00
  7
Helvetica
100
AcDbText
1001
AUSTER_FOLIE
1002
{
1000
NSB00055_3PSSTE45
1002
}
  0
TEXT
  5
5891
330
20
100
AcDbEntity
  8
11100_LEFT_DIM
  6
Continuous
 62
     7
370
    13
100
AcDbText
 10
273.2167434559718
 20
81.58962793669099
 30
0.0
 40
5.0
  1
S0
  7
Helvetica
100
AcDbText
1001
AUSTER_FOLIE
1002
{
1000
NSB00055_3PSSTE45
1002
}
  0
LINE
  5
5892
330
20
100
AcDbEntity
  8
11100_LEFT_DIM
 62
     7
370
    13
100
AcDbLine
 10
237.6717762632665
 20
86.71363464295536
 30
0.0
 11
237.6717762632665
 21
58.60580287727147
 31
0.0
1001
AUSTER_FOLIE
1002
{
1000
NSB00055_3PSSTE45
1002
}
  0
LINE
  5
5893
330
20
100
AcDbEntity
  8
11100_LEFT_DIM
 62
     7
370
    13
100
AcDbLine
 10
265.8102173439959
 20
86.71363464295536
 30
0.0
 11
265.8102173439959
 21
58.60580287727147
 31
0.0
1001
AUSTER_FOLIE
1002
{
1000
NSB00055_3PSSTE45
1002
}
  0
ARC
  5
5894
330
20
100
AcDbEntity
  8
11000_Left
  6
DASHED
 62
     7
370
    20
100
AcDbCircle
 39
0.25
 10
328.592598003238
 20
89.0194706289477
 30
0.0000000000000001
 40
0.5056529524664213
100
AcDbArc
 50
0.6370108029236052
 51
89.36298919707967
1001
AUSTER_FOLIE
1002
{
1000
NSB00055_3PSSTE45
1002
}
  0
LINE
  5
5895
330
20
100
AcDbEntity
  8
11000_Left
  6
DASHED
 62
     7
370
    20
100
AcDbLine
 39
0.25
 10
329.0982197045253
 20
89.02509233023508
 30
-0.45
 11
329.0982197045253
 21
86.52509233023508
 31
-0.45
1001
AUSTER_ANSICHT
1002
{
1000
SL
1002
}
1001
AUSTER_FOLIE
1002
{
1000
NSB00055_3PSSTE45
1002
}
  0
LINE
  5
5896
330
20
100
AcDbEntity
  8
11000_Left
  6
DASHED
 62
     7
370
    20
100
AcDbLine
 39
0.25
 10
328.0982197045253
 20
89.77509233023509
 30
-0.45
 11
328.0982197045253
 21
89.52509233023508
 31
-0.45
1001
AUSTER_ANSICHT
1002
{
1000
SL
1002
}
1001
AUSTER_FOLIE
1002
{
1000
NSB00055_3PSSTE45
1002
}
  0
LINE
  5
5897
330
20
100
AcDbEntity
  8
11000_Left
  6
DASHED
 62
     7
370
    20
100
AcDbLine
 39
0.25
 10
328.5982197045253
 20
89.52509233023508
 30
-0.45
 11
328.0982197045253
 21
89.52509233023508
 31
-0.45
1001
AUSTER_ANSICHT
1002
{
1000
SL
1002
}
1001
AUSTER_FOLIE
1002
{
1000
NSB00055_3PSSTE45
1002
}
  0
LINE
  5
5898
330
20
100
AcDbEntity
  8
11000_Left
  6
DASHED
 62
     7
370
    20
100
AcDbLine
 39
0.25
 10
329.0982197045253
 20
89.02509233023508
 30
-0.45
 11
329.0982197045253
 21
86.52509233023508
 31
-0.45
1001
AUSTER_ANSICHT
1002
{
1000
SL
1002
}
1001
AUSTER_FOLIE
1002
{
1000
NSB00055_3PSSTE45
1002
}
  0
LINE
  5
5899
330
20
100
AcDbEntity
  8
11000_Left
  6
DASHED
 62
     7
370
    20
100
AcDbLine
 39
0.25
 10
328.0982197045253
 20
89.77509233023509
 30
-0.45
 11
328.0982197045253
 21
89.52509233023508
 31
-0.45
1001
AUSTER_ANSICHT
1002
{
1000
SL
1002
}
1001
AUSTER_FOLIE
1002
{
1000
NSB00055_3PSSTE45
1002
}
  0
LINE
  5
589A
330
20
100
AcDbEntity
  8
11000_Left
  6
DASHED
 62
     7
370
    20
100
AcDbLine
 39
0.25
 10
328.5982197045253
 20
89.52509233023508
 30
-0.45
 11
328.0982197045253
 21
89.52509233023508
 31
-0.45
1001
AUSTER_ANSICHT
1002
{
1000
SL
1002
}
1001
AUSTER_FOLIE
1002
{
1000
NSB00055_3PSSTE45
1002
}
  0
LINE
  5
589B
330
20
100
AcDbEntity
  8
11000_Left
  6
DASHED
 62
     7
370
    20
100
AcDbLine
 39
0.25
 10
391.5304197045253
 20
82.26899233023514
 30
0.0
 11
375.0450197045254
 21
82.26899233023514
 31
0.0
1001
AUSTER_ANSICHT
1002
{
1000
Det03
1002
}
1001
AUSTER_FOLIE
1002
{
1000
NSB00055_3PSSTE45
1002
}
  0
LINE
  5
589C
330
20
100
AcDbEntity
  8
11000_Left
  6
DASHED
 62
     7
370
    20
100
AcDbLine
 39
0.25
 10
391.5304197045253
 20
82.26899233023514
 30
0.0
 11
375.0450197045254
 21
82.26899233023514
 31
0.0
1001
AUSTER_ANSICHT
1002
{
1000
Det03
1002
}
1001
AUSTER_FOLIE
1002
{
1000
NSB00055_3PSSTE45
1002
}
  0
LINE
  5
589D
330
20
100
AcDbEntity
  8
11000_Left
  6
DASHED
 62
     7
370
    20
100
AcDbLine
 39
0.25
 10
391.5304197045253
 20
82.26899233023514
 30
0.0
 11
375.0450197045254
 21
82.26899233023514
 31
0.0
1001
AUSTER_ANSICHT
1002
{
1000
Det03
1002
}
1001
AUSTER_FOLIE
1002
{
1000
NSB00055_3PSSTE45
1002
}
  0
LINE
  5
589E
330
20
100
AcDbEntity
  8
11000_Left
  6
DASHED
 62
     7
370
    20
100
AcDbLine
 39
0.25
 10
357.5450197045253
 20
60.26899233023518
 30
0.0
 11
373.8313197045253
 21
60.26899233023518
 31
0.0
1001
AUSTER_ANSICHT
1002
{
1000
Det03
1002
}
1001
AUSTER_FOLIE
1002
{
1000
NSB00055_3PSSTE45
1002
}
  0
LINE
  5
589F
330
20
100
AcDbEntity
  8
11000_Left
  6
DASHED
 62
     7
370
    20
100
AcDbLine
 39
0.25
 10
357.5450197045253
 20
60.26899233023518
 30
0.0
 11
373.8313197045253
 21
60.26899233023518
 31
0.0
1001
AUSTER_ANSICHT
1002
{
1000
Det03
1002
}
1001
AUSTER_FOLIE
1002
{
1000
NSB00055_3PSSTE45
1002
}
  0
LINE
  5
58A0
330
20
100
AcDbEntity
  8
11000_Left
  6
DASHED
 62
     7
370
    20
100
AcDbLine
 39
0.25
 10
357.5450197045253
 20
60.26899233023518
 30
0.0
 11
373.8313197045253
 21
60.26899233023518
 31
0.0
1001
AUSTER_ANSICHT
1002
{
1000
Det03
1002
}
1001
AUSTER_FOLIE
1002
{
1000
NSB00055_3PSSTE45
1002
}
  0
LINE
  5
58A1
330
20
100
AcDbEntity
  8
11000_Left
  6
DASHED
 62
     7
370
    20
100
AcDbLine
 39
0.25
 10
375.0450197045254
 20
82.26899233023514
 30
0.0
 11
373.8313197045253
 21
60.26899233023518
 31
0.0
1001
AUSTER_ANSICHT
1002
{
1000
Det03
1002
}
1001
AUSTER_FOLIE
1002
{
1000
NSB00055_3PSSTE45
1002
}
  0
LINE
  5
58A2
330
20
100
AcDbEntity
  8
11000_Left
  6
DASHED
 62
     7
370
    20
100
AcDbLine
 39
0.25
 10
375.0450197045254
 20
82.26899233023514
 30
0.0
 11
373.8313197045253
 21
60.26899233023518
 31
0.0
1001
AUSTER_ANSICHT
1002
{
1000
Det03
1002
}
1001
AUSTER_FOLIE
1002
{
1000
NSB00055_3PSSTE45
1002
}
  0
LINE
  5
58A3
330
20
100
AcDbEntity
  8
11000_Left
  6
DASHED
 62
     7
370
    20
100
AcDbLine
 39
0.25
 10
375.0450197045254
 20
82.26899233023514
 30
0.0
 11
373.8313197045253
 21
60.26899233023518
 31
0.0
1001
AUSTER_ANSICHT
1002
{
1000
Det03
1002
}
1001
AUSTER_FOLIE
1002
{
1000
NSB00055_3PSSTE45
1002
}
  0
LINE
  5
58A4
330
20
100
AcDbEntity
  8
11000_Left
  6
DASHED
 62
     7
370
    20
100
AcDbLine
 39
0.25
 10
325.0450197045254
 20
84.51899233023516
 30
0.0
 11
328.3650197045251
 21
87.51899233023515
 31
0.0
1001
AUSTER_ANSICHT
1002
{
1000
Det03
1002
}
1001
AUSTER_FOLIE
1002
{
1000
NSB00055_3PSSTE45
1002
}
  0
LINE
  5
58A5
330
20
100
AcDbEntity
  8
11000_Left
  6
DASHED
 62
     7
370
    20
100
AcDbLine
 39
0.25
 10
330.0450197045253
 20
84.51899233023516
 30
0.0
 11
325.0450197045254
 21
84.51899233023516
 31
0.0
1001
AUSTER_ANSICHT
1002
{
1000
Det03
1002
}
1001
AUSTER_FOLIE
1002
{
1000
NSB00055_3PSSTE45
1002
}
  0
LINE
  5
58A6
330
20
100
AcDbEntity
  8
11000_Left
  6
DASHED
 62
     7
370
    20
100
AcDbLine
 39
0.25
 10
329.0982197045253
 20
86.52509233023508
 30
0.0
 11
330.0450197045253
 21
86.52509233023508
 31
0.0
1001
AUSTER_ANSICHT
1002
{
1000
Det03
1002
}
1001
AUSTER_FOLIE
1002
{
1000
NSB00055_3PSSTE45
1002
}
  0
LINE
  5
58A7
330
20
100
AcDbEntity
  8
11000_Left
  6
DASHED
 62
     7
370
    20
100
AcDbLine
 39
0.25
 10
328.8212197045253
 20
87.51899233023515
 30
0.0
 11
329.0982197045253
 21
86.52509233023508
 31
0.0
1001
AUSTER_ANSICHT
1002
{
1000
Det03
1002
}
1001
AUSTER_FOLIE
1002
{
1000
NSB00055_3PSSTE45
1002
}
  0
LINE
  5
58A8
330
20
100
AcDbEntity
  8
11000_Left
  6
DASHED
 62
     7
370
    20
100
AcDbLine
 39
0.25
 10
328.3650197045251
 20
87.51899233023515
 30
0.0
 11
328.8212197045253
 21
87.51899233023515
 31
0.0
1001
AUSTER_ANSICHT
1002
{
1000
Det03
1002
}
1001
AUSTER_FOLIE
1002
{
1000
NSB00055_3PSSTE45
1002
}
  0
LINE
  5
58AC
330
20
100
AcDbEntity
  8
11000_Left
  6
DASHED
 62
     7
370
    20
100
AcDbLine
 39
0.25
 10
325.0450197045254
 20
84.51899233023516
 30
0.0
 11
325.0450197045254
 21
60.26899233023518
 31
0.0
1001
AUSTER_ANSICHT
1002
{
1000
Det03
1002
}
1001
AUSTER_FOLIE
1002
{
1000
NSB00055_3PSSTE45
1002
}
  0
LINE
  5
58AD
330
20
100
AcDbEntity
  8
11000_Left
  6
DASHED
 62
     7
370
    20
100
AcDbLine
 39
0.25
 10
325.0450197045254
 20
84.51899233023516
 30
0.0
 11
325.0450197045254
 21
60.26899233023518
 31
0.0
1001
AUSTER_ANSICHT
1002
{
1000
Det03
1002
}
1001
AUSTER_FOLIE
1002
{
1000
NSB00055_3PSSTE45
1002
}
  0
LINE
  5
58AE
330
20
100
AcDbEntity
  8
11000_Left
  6
DASHED
 62
     7
370
    20
100
AcDbLine
 39
0.25
 10
325.0450197045254
 20
84.51899233023516
 30
0.0
 11
325.0450197045254
 21
60.26899233023518
 31
0.0
1001
AUSTER_ANSICHT
1002
{
1000
Det03
1002
}
1001
AUSTER_FOLIE
1002
{
1000
NSB00055_3PSSTE45
1002
}
  0
LINE
  5
58AF
330
20
100
AcDbEntity
  8
11000_Left
  6
DASHED
 62
     7
370
    20
100
AcDbLine
 39
0.25
 10
360.5450197045254
 20
60.26899233023518
 30
0.0
 11
325.0450197045254
 21
60.26899233023518
 31
0.0
1001
AUSTER_ANSICHT
1002
{
1000
Det03
1002
}
1001
AUSTER_FOLIE
1002
{
1000
NSB00055_3PSSTE45
1002
}
  0
LINE
  5
58B0
330
20
100
AcDbEntity
  8
11000_Left
  6
DASHED
 62
     7
370
    20
100
AcDbLine
 39
0.25
 10
360.5450197045254
 20
60.26899233023518
 30
0.0
 11
325.0450197045254
 21
60.26899233023518
 31
0.0
1001
AUSTER_ANSICHT
1002
{
1000
Det03
1002
}
1001
AUSTER_FOLIE
1002
{
1000
NSB00055_3PSSTE45
1002
}
  0
LINE
  5
58B1
330
20
100
AcDbEntity
  8
11000_Left
  6
DASHED
 62
     7
370
    20
100
AcDbLine
 39
0.25
 10
360.5450197045254
 20
60.26899233023518
 30
0.0
 11
325.0450197045254
 21
60.26899233023518
 31
0.0
1001
AUSTER_ANSICHT
1002
{
1000
Det03
1002
}
1001
AUSTER_FOLIE
1002
{
1000
NSB00055_3PSSTE45
1002
}
  0
LINE
  5
58B2
330
20
100
AcDbEntity
  8
11000_Left
  6
DASHED
 62
     7
370
    20
100
AcDbLine
 39
0.25
 10
345.8450197045253
 20
170.9066923302351
 30
0.0
 11
358.8450197045252
 21
170.9066923302351
 31
0.0
1001
AUSTER_ANSICHT
1002
{
1000
Det03
1002
}
1001
AUSTER_FOLIE
1002
{
1000
NSB00055_3PSSTE45
1002
}
  0
LINE
  5
58B3
330
20
100
AcDbEntity
  8
11000_Left
  6
Continuous
 62
     7
370
    50
100
AcDbLine
 39
0.5
 10
360.2450197045254
 20
170.9066923302351
 30
0.0
 11
373.238063800306
 21
170.9066923302351
 31
0.0
1001
AUSTER_ANSICHT
1002
{
1000
Det03
1002
}
1001
AUSTER_FOLIE
1002
{
1000
NSB00055_3PSSTE45
1002
}
  0
LINE
  5
58B4
330
20
100
AcDbEntity
  8
11000_Left
  6
DASHED
 62
     7
370
    20
100
AcDbLine
 39
0.25
 10
329.0982197045253
 20
121.8250923302351
 30
-0.45
 11
330.0982197045253
 21
121.8250923302351
 31
-0.45
1001
AUSTER_ANSICHT
1002
{
1000
SL
1002
}
1001
AUSTER_FOLIE
1002
{
1000
NSB00055_3PSSTE45
1002
}
  0
LINE
  5
58B5
330
20
100
AcDbEntity
  8
11000_Left
  6
DASHED
 62
     7
370
    20
100
AcDbLine
 39
0.25
 10
329.0982197045253
 20
121.8250923302351
 30
-0.45
 11
330.0982197045253
 21
121.8250923302351
 31
-0.45
1001
AUSTER_ANSICHT
1002
{
1000
SL
1002
}
1001
AUSTER_FOLIE
1002
{
1000
NSB00055_3PSSTE45
1002
}
  0
ARC
  5
58B6
330
20
100
AcDbEntity
  8
11000_Left
  6
DASHED
 62
     7
370
    20
100
AcDbCircle
 39
0.25
 10
323.5982197045253
 20
115.6750923302351
 30
0.55
 40
1.0
100
AcDbArc
 50
90.0
 51
180.0
1001
AUSTER_ANSICHT
1002
{
1000
SL
1002
}
1001
AUSTER_FOLIE
1002
{
1000
NSB00055_3PSSTE45
1002
}
  0
ARC
  5
58B7
330
20
100
AcDbEntity
  8
11000_Left
  6
DASHED
 62
     7
370
    20
100
AcDbCircle
 39
0.25
 10
323.5982197045253
 20
115.6750923302351
 30
0.55
 40
1.0
100
AcDbArc
 50
90.0
 51
180.0
1001
AUSTER_ANSICHT
1002
{
1000
SL
1002
}
1001
AUSTER_FOLIE
1002
{
1000
NSB00055_3PSSTE45
1002
}
  0
LINE
  5
58B8
330
20
100
AcDbEntity
  8
11000_Left
  6
DASHED
 62
     7
370
    20
100
AcDbLine
 39
0.25
 10
326.1982197045253
 20
116.6750923302351
 30
0.55
 11
323.5982197045253
 21
116.6750923302351
 31
0.55
1001
AUSTER_ANSICHT
1002
{
1000
SL
1002
}
1001
AUSTER_FOLIE
1002
{
1000
NSB00055_3PSSTE45
1002
}
  0
LINE
  5
58B9
330
20
100
AcDbEntity
  8
11000_Left
  6
DASHED
 62
     7
370
    20
100
AcDbLine
 39
0.25
 10
325.0982197045253
 20
113.6750923302351
 30
-0.45
 11
325.0982197045253
 21
104.1750923302351
 31
-0.45
1001
AUSTER_ANSICHT
1002
{
1000
SL
1002
}
1001
AUSTER_FOLIE
1002
{
1000
NSB00055_3PSSTE45
1002
}
  0
LINE
  5
58BA
330
20
100
AcDbEntity
  8
11000_Left
  6
DASHED
 62
     7
370
    20
100
AcDbLine
 39
0.25
 10
325.0982197045253
 20
113.6750923302351
 30
-0.45
 11
325.0982197045253
 21
104.1750923302351
 31
-0.45
1001
AUSTER_ANSICHT
1002
{
1000
SL
1002
}
1001
AUSTER_FOLIE
1002
{
1000
NSB00055_3PSSTE45
1002
}
  0
ARC
  5
58BB
330
20
100
AcDbEntity
  8
11000_Left
  6
DASHED
 62
     7
370
    20
100
AcDbCircle
 39
0.25
 10
326.0982197045253
 20
113.6750923302351
 30
-0.45
 40
1.0
100
AcDbArc
 50
90.0
 51
180.0
1001
AUSTER_ANSICHT
1002
{
1000
SL
1002
}
1001
AUSTER_FOLIE
1002
{
1000
NSB00055_3PSSTE45
1002
}
  0
ARC
  5
58BC
330
20
100
AcDbEntity
  8
11000_Left
  6
DASHED
 62
     7
370
    20
100
AcDbCircle
 39
0.25
 10
326.1982197045253
 20
118.5750923302351
 30
-0.45
 40
1.9
100
AcDbArc
 50
270.0
 51
0.0
1001
AUSTER_ANSICHT
1002
{
1000
SL
1002
}
1001
AUSTER_FOLIE
1002
{
1000
NSB00055_3PSSTE45
1002
}
  0
ARC
  5
58BD
330
20
100
AcDbEntity
  8
11000_Left
  6
DASHED
 62
     7
370
    20
100
AcDbCircle
 39
0.25
 10
328.5982197045253
 20
119.3250923302351
 30
-0.45
 40
0.5
100
AcDbArc
 50
270.0
 51
0.0
1001
AUSTER_ANSICHT
1002
{
1000
SL
1002
}
1001
AUSTER_FOLIE
1002
{
1000
NSB00055_3PSSTE45
1002
}
  0
LINE
  5
58BE
330
20
100
AcDbEntity
  8
11000_Left
  6
DASHED
 62
     7
370
    20
100
AcDbLine
 39
0.25
 10
329.0982197045253
 20
119.3250923302351
 30
-0.45
 11
329.0982197045253
 21
121.8250923302351
 31
-0.45
1001
AUSTER_ANSICHT
1002
{
1000
SL
1002
}
1001
AUSTER_FOLIE
1002
{
1000
NSB00055_3PSSTE45
1002
}
  0
LINE
  5
58BF
330
20
100
AcDbEntity
  8
11000_Left
  6
DASHED
 62
     7
370
    20
100
AcDbLine
 39
0.25
 10
328.0982197045253
 20
118.5750923302351
 30
-0.45
 11
328.0982197045253
 21
118.8250923302351
 31
-0.45
1001
AUSTER_ANSICHT
1002
{
1000
SL
1002
}
1001
AUSTER_FOLIE
1002
{
1000
NSB00055_3PSSTE45
1002
}
  0
LINE
  5
58C0
330
20
100
AcDbEntity
  8
11000_Left
  6
DASHED
 62
     7
370
    20
100
AcDbLine
 39
0.25
 10
328.5982197045253
 20
118.8250923302351
 30
-0.45
 11
328.0982197045253
 21
118.8250923302351
 31
-0.45
1001
AUSTER_ANSICHT
1002
{
1000
SL
1002
}
1001
AUSTER_FOLIE
1002
{
1000
NSB00055_3PSSTE45
1002
}
  0
LINE
  5
58C1
330
20
100
AcDbEntity
  8
11000_Left
  6
DASHED
 62
     7
370
    20
100
AcDbLine
 39
0.25
 10
330.0982197045253
 20
116.6750923302351
 30
-0.45
 11
328.0982197045253
 21
114.6750923302351
 31
-0.45
1001
AUSTER_ANSICHT
1002
{
1000
SL
1002
}
1001
AUSTER_FOLIE
1002
{
1000
NSB00055_3PSSTE45
1002
}
  0
LINE
  5
58C2
330
20
100
AcDbEntity
  8
11000_Left
  6
DASHED
 62
     7
370
    20
100
AcDbLine
 39
0.25
 10
326.0982197045253
 20
114.6750923302351
 30
-0.45
 11
328.0982197045253
 21
114.6750923302351
 31
-0.45
1001
AUSTER_ANSICHT
1002
{
1000
SL
1002
}
1001
AUSTER_FOLIE
1002
{
1000
NSB00055_3PSSTE45
1002
}
  0
ARC
  5
58C3
330
20
100
AcDbEntity
  8
11000_Left
  6
DASHED
 62
     7
370
    20
100
AcDbCircle
 39
0.25
 10
326.0982197045253
 20
113.6750923302351
 30
-0.45
 40
1.0
100
AcDbArc
 50
90.0
 51
180.0
1001
AUSTER_ANSICHT
1002
{
1000
SL
1002
}
1001
AUSTER_FOLIE
1002
{
1000
NSB00055_3PSSTE45
1002
}
  0
ARC
  5
58C4
330
20
100
AcDbEntity
  8
11000_Left
  6
DASHED
 62
     7
370
    20
100
AcDbCircle
 39
0.25
 10
326.1982197045253
 20
118.5750923302351
 30
-0.45
 40
1.9
100
AcDbArc
 50
270.0
 51
0.0
1001
AUSTER_ANSICHT
1002
{
1000
SL
1002
}
1001
AUSTER_FOLIE
1002
{
1000
NSB00055_3PSSTE45
1002
}
  0
ARC
  5
58C5
330
20
100
AcDbEntity
  8
11000_Left
  6
DASHED
 62
     7
370
    20
100
AcDbCircle
 39
0.25
 10
328.5982197045253
 20
119.3250923302351
 30
-0.45
 40
0.5
100
AcDbArc
 50
270.0
 51
0.0
1001
AUSTER_ANSICHT
1002
{
1000
SL
1002
}
1001
AUSTER_FOLIE
1002
{
1000
NSB00055_3PSSTE45
1002
}
  0
LINE
  5
58C6
330
20
100
AcDbEntity
  8
11000_Left
  6
DASHED
 62
     7
370
    20
100
AcDbLine
 39
0.25
 10
329.0982197045253
 20
119.3250923302351
 30
-0.45
 11
329.0982197045253
 21
121.8250923302351
 31
-0.45
1001
AUSTER_ANSICHT
1002
{
1000
SL
1002
}
1001
AUSTER_FOLIE
1002
{
1000
NSB00055_3PSSTE45
1002
}
  0
LINE
  5
58C7
330
20
100
AcDbEntity
  8
11000_Left
  6
DASHED
 62
     7
370
    20
100
AcDbLine
 39
0.25
 10
328.0982197045253
 20
118.5750923302351
 30
-0.45
 11
328.0982197045253
 21
118.8250923302351
 31
-0.45
1001
AUSTER_ANSICHT
1002
{
1000
SL
1002
}
1001
AUSTER_FOLIE
1002
{
1000
NSB00055_3PSSTE45
1002
}
  0
LINE
  5
58C8
330
20
100
AcDbEntity
  8
11000_Left
  6
DASHED
 62
     7
370
    20
100
AcDbLine
 39
0.25
 10
328.5982197045253
 20
118.8250923302351
 30
-0.45
 11
328.0982197045253
 21
118.8250923302351
 31
-0.45
1001
AUSTER_ANSICHT
1002
{
1000
SL
1002
}
1001
AUSTER_FOLIE
1002
{
1000
NSB00055_3PSSTE45
1002
}
  0
LINE
  5
58C9
330
20
100
AcDbEntity
  8
11000_Left
  6
DASHED
 62
     7
370
    20
100
AcDbLine
 39
0.25
 10
330.0982197045253
 20
116.6750923302351
 30
-0.45
 11
328.0982197045253
 21
114.6750923302351
 31
-0.45
1001
AUSTER_ANSICHT
1002
{
1000
SL
1002
}
1001
AUSTER_FOLIE
1002
{
1000
NSB00055_3PSSTE45
1002
}
  0
LINE
  5
58CA
330
20
100
AcDbEntity
  8
11000_Left
  6
DASHED
 62
     7
370
    20
100
AcDbLine
 39
0.25
 10
326.0982197045253
 20
114.6750923302351
 30
-0.45
 11
328.0982197045253
 21
114.6750923302351
 31
-0.45
1001
AUSTER_ANSICHT
1002
{
1000
SL
1002
}
1001
AUSTER_FOLIE
1002
{
1000
NSB00055_3PSSTE45
1002
}
  0
LINE
  5
58CB
330
20
100
AcDbEntity
  8
11000_Left
  6
DASHED
 62
     7
370
    20
100
AcDbLine
 39
0.25
 10
322.5982197045253
 20
115.6750923302351
 30
0.55
 11
322.5982197045253
 21
92.67509233023508
 31
0.55
1001
AUSTER_ANSICHT
1002
{
1000
SL
1002
}
1001
AUSTER_FOLIE
1002
{
1000
NSB00055_3PSSTE45
1002
}
  0
ARC
  5
58CC
330
20
100
AcDbEntity
  8
11000_Left
  6
DASHED
 62
     7
370
    20
100
AcDbCircle
 39
0.25
 10
323.5982197045253
 20
92.67509233023508
 30
0.55
 40
1.0
100
AcDbArc
 50
180.0
 51
270.0
1001
AUSTER_ANSICHT
1002
{
1000
SL
1002
}
1001
AUSTER_FOLIE
1002
{
1000
NSB00055_3PSSTE45
1002
}
  0
ARC
  5
58CD
330
20
100
AcDbEntity
  8
11000_Left
  6
DASHED
 62
     7
370
    20
100
AcDbCircle
 39
0.25
 10
323.5982197045253
 20
92.67509233023508
 30
0.55
 40
1.0
100
AcDbArc
 50
180.0
 51
270.0
1001
AUSTER_ANSICHT
1002
{
1000
SL
1002
}
1001
AUSTER_FOLIE
1002
{
1000
NSB00055_3PSSTE45
1002
}
  0
LINE
  5
58CE
330
20
100
AcDbEntity
  8
11000_Left
  6
DASHED
 62
     7
370
    20
100
AcDbLine
 39
0.25
 10
326.1982197045253
 20
91.67509233023507
 30
0.55
 11
323.5982197045253
 21
91.67509233023507
 31
0.55
1001
AUSTER_ANSICHT
1002
{
1000
SL
1002
}
1001
AUSTER_FOLIE
1002
{
1000
NSB00055_3PSSTE45
1002
}
  0
LINE
  5
58CF
330
20
100
AcDbEntity
  8
11000_Left
  6
DASHED
 62
     7
370
    20
100
AcDbLine
 39
0.25
 10
326.1982197045253
 20
91.67509233023507
 30
0.55
 11
323.5982197045253
 21
91.67509233023507
 31
0.55
1001
AUSTER_ANSICHT
1002
{
1000
SL
1002
}
1001
AUSTER_FOLIE
1002
{
1000
NSB00055_3PSSTE45
1002
}
  0
ARC
  5
58D0
330
20
100
AcDbEntity
  8
11000_Left
  6
DASHED
 62
     7
370
    20
100
AcDbCircle
 39
0.25
 10
326.0982197045253
 20
94.67509233023507
 30
-0.45
 40
1.0
100
AcDbArc
 50
180.0
 51
270.0
1001
AUSTER_ANSICHT
1002
{
1000
SL
1002
}
1001
AUSTER_FOLIE
1002
{
1000
NSB00055_3PSSTE45
1002
}
  0
ARC
  5
58D1
330
20
100
AcDbEntity
  8
11000_Left
  6
DASHED
 62
     7
370
    20
100
AcDbCircle
 39
0.25
 10
326.1982197045253
 20
89.77509233023509
 30
-0.45
 40
1.9
100
AcDbArc
 50
0.0000000107542442
 51
90.0
1001
AUSTER_ANSICHT
1002
{
1000
SL
1002
}
1001
AUSTER_FOLIE
1002
{
1000
NSB00055_3PSSTE45
1002
}
  0
LINE
  5
58D2
330
20
100
AcDbEntity
  8
11000_Left
  6
DASHED
 62
     7
370
    20
100
AcDbLine
 39
0.25
 10
325.0982197045253
 20
94.67509233023507
 30
-0.45
 11
325.0982197045253
 21
104.1750923302351
 31
-0.45
1001
AUSTER_ANSICHT
1002
{
1000
SL
1002
}
1001
AUSTER_FOLIE
1002
{
1000
NSB00055_3PSSTE45
1002
}
  0
LINE
  5
58D3
330
20
100
AcDbEntity
  8
11000_Left
  6
DASHED
 62
     7
370
    20
100
AcDbLine
 39
0.25
 10
330.0982197045253
 20
91.67509233023507
 30
-0.45
 11
328.0982197045253
 21
93.67509233023508
 31
-0.45
1001
AUSTER_ANSICHT
1002
{
1000
SL
1002
}
1001
AUSTER_FOLIE
1002
{
1000
NSB00055_3PSSTE45
1002
}
  0
LINE
  5
58D4
330
20
100
AcDbEntity
  8
11000_Left
  6
DASHED
 62
     7
370
    20
100
AcDbLine
 39
0.25
 10
326.0982197045253
 20
93.67509233023508
 30
-0.45
 11
328.0982197045253
 21
93.67509233023508
 31
-0.45
1001
AUSTER_ANSICHT
1002
{
1000
SL
1002
}
1001
AUSTER_FOLIE
1002
{
1000
NSB00055_3PSSTE45
1002
}
  0
ARC
  5
58D5
330
20
100
AcDbEntity
  8
11000_Left
  6
DASHED
 62
     7
370
    20
100
AcDbCircle
 39
0.25
 10
326.0982197045253
 20
94.67509233023507
 30
-0.45
 40
1.0
100
AcDbArc
 50
180.0
 51
270.0
1001
AUSTER_ANSICHT
1002
{
1000
SL
1002
}
1001
AUSTER_FOLIE
1002
{
1000
NSB00055_3PSSTE45
1002
}
  0
ARC
  5
58D6
330
20
100
AcDbEntity
  8
11000_Left
  6
DASHED
 62
     7
370
    20
100
AcDbCircle
 39
0.25
 10
326.1982197045253
 20
89.77509233023509
 30
-0.45
 40
1.9
100
AcDbArc
 50
0.0000000107542442
 51
90.0
1001
AUSTER_ANSICHT
1002
{
1000
SL
1002
}
1001
AUSTER_FOLIE
1002
{
1000
NSB00055_3PSSTE45
1002
}
  0
LINE
  5
58D7
330
20
100
AcDbEntity
  8
11000_Left
  6
DASHED
 62
     7
370
    20
100
AcDbLine
 39
0.25
 10
325.0982197045253
 20
94.67509233023507
 30
-0.45
 11
325.0982197045253
 21
104.1750923302351
 31
-0.45
1001
AUSTER_ANSICHT
1002
{
1000
SL
1002
}
1001
AUSTER_FOLIE
1002
{
1000
NSB00055_3PSSTE45
1002
}
  0
LINE
  5
58D8
330
20
100
AcDbEntity
  8
11000_Left
  6
DASHED
 62
     7
370
    20
100
AcDbLine
 39
0.25
 10
330.0982197045253
 20
91.67509233023507
 30
-0.45
 11
328.0982197045253
 21
93.67509233023508
 31
-0.45
1001
AUSTER_ANSICHT
1002
{
1000
SL
1002
}
1001
AUSTER_FOLIE
1002
{
1000
NSB00055_3PSSTE45
1002
}
  0
LINE
  5
58D9
330
20
100
AcDbEntity
  8
11000_Left
  6
DASHED
 62
     7
370
    20
100
AcDbLine
 39
0.25
 10
326.0982197045253
 20
93.67509233023508
 30
-0.45
 11
328.0982197045253
 21
93.67509233023508
 31
-0.45
1001
AUSTER_ANSICHT
1002
{
1000
SL
1002
}
1001
AUSTER_FOLIE
1002
{
1000
NSB00055_3PSSTE45
1002
}
  0
LINE
  5
58DA
330
20
100
AcDbEntity
  8
11000_Left
  6
DASHED
 62
     7
370
    20
100
AcDbLine
 39
0.25
 10
400.0450197045251
 20
111.2770923302351
 30
0.0
 11
400.0450197045251
 21
103.7770923302351
 31
0.0
1001
AUSTER_ANSICHT
1002
{
1000
Det03
1002
}
1001
AUSTER_FOLIE
1002
{
1000
NSB00055_3PSSTE45
1002
}
  0
LINE
  5
58DB
330
20
100
AcDbEntity
  8
11000_Left
  6
DASHED
 62
     7
370
    20
100
AcDbLine
 39
0.25
 10
400.0450197045251
 20
111.2770923302351
 30
0.0
 11
400.0450197045251
 21
103.7770923302351
 31
0.0
1001
AUSTER_ANSICHT
1002
{
1000
Det03
1002
}
1001
AUSTER_FOLIE
1002
{
1000
NSB00055_3PSSTE45
1002
}
  0
LINE
  5
58DC
330
20
100
AcDbEntity
  8
11000_Left
  6
DASHED
 62
     7
370
    20
100
AcDbLine
 39
0.25
 10
400.0450197045251
 20
111.2770923302351
 30
0.0
 11
400.0450197045251
 21
103.7770923302351
 31
0.0
1001
AUSTER_ANSICHT
1002
{
1000
Det03
1002
}
1001
AUSTER_FOLIE
1002
{
1000
NSB00055_3PSSTE45
1002
}
  0
LINE
  5
58DD
330
20
100
AcDbEntity
  8
11000_Left
  6
DASHED
 62
     7
370
    20
100
AcDbLine
 39
0.25
 10
392.5430197045253
 20
103.7770923302351
 30
0.0
 11
391.5304197045253
 21
82.26899233023514
 31
0.0
1001
AUSTER_ANSICHT
1002
{
1000
Det03
1002
}
1001
AUSTER_FOLIE
1002
{
1000
NSB00055_3PSSTE45
1002
}
  0
LINE
  5
58DE
330
20
100
AcDbEntity
  8
11000_Left
  6
DASHED
 62
     7
370
    20
100
AcDbLine
 39
0.25
 10
392.5430197045253
 20
103.7770923302351
 30
0.0
 11
391.5304197045253
 21
82.26899233023514
 31
0.0
1001
AUSTER_ANSICHT
1002
{
1000
Det03
1002
}
1001
AUSTER_FOLIE
1002
{
1000
NSB00055_3PSSTE45
1002
}
  0
LINE
  5
58DF
330
20
100
AcDbEntity
  8
11000_Left
  6
DASHED
 62
     7
370
    20
100
AcDbLine
 39
0.25
 10
392.5430197045253
 20
103.7770923302351
 30
0.0
 11
391.5304197045253
 21
82.26899233023514
 31
0.0
1001
AUSTER_ANSICHT
1002
{
1000
Det03
1002
}
1001
AUSTER_FOLIE
1002
{
1000
NSB00055_3PSSTE45
1002
}
  0
LINE
  5
58E0
330
20
100
AcDbEntity
  8
11000_Left
  6
DASHED
 62
     7
370
    20
100
AcDbLine
 39
0.25
 10
392.4603197045252
 20
111.2770923302351
 30
0.0
 11
392.5430197045253
 21
103.7770923302351
 31
0.0
1001
AUSTER_ANSICHT
1002
{
1000
Det03
1002
}
1001
AUSTER_FOLIE
1002
{
1000
NSB00055_3PSSTE45
1002
}
  0
LINE
  5
58E1
330
20
100
AcDbEntity
  8
11000_Left
  6
DASHED
 62
     7
370
    20
100
AcDbLine
 39
0.25
 10
392.4603197045252
 20
111.2770923302351
 30
0.0
 11
392.5430197045253
 21
103.7770923302351
 31
0.0
1001
AUSTER_ANSICHT
1002
{
1000
Det03
1002
}
1001
AUSTER_FOLIE
1002
{
1000
NSB00055_3PSSTE45
1002
}
  0
LINE
  5
58E2
330
20
100
AcDbEntity
  8
11000_Left
  6
DASHED
 62
     7
370
    20
100
AcDbLine
 39
0.25
 10
392.4603197045252
 20
111.2770923302351
 30
0.0
 11
392.5430197045253
 21
103.7770923302351
 31
0.0
1001
AUSTER_ANSICHT
1002
{
1000
Det03
1002
}
1001
AUSTER_FOLIE
1002
{
1000
NSB00055_3PSSTE45
1002
}
  0
LINE
  5
58E3
330
20
100
AcDbEntity
  8
11000_Left
  6
DASHED
 62
     7
370
    20
100
AcDbLine
 39
0.25
 10
400.0450197045251
 20
103.7770923302351
 30
0.0
 11
392.5430197045253
 21
103.7770923302351
 31
0.0
1001
AUSTER_ANSICHT
1002
{
1000
Det03
1002
}
1001
AUSTER_FOLIE
1002
{
1000
NSB00055_3PSSTE45
1002
}
  0
LINE
  5
58E4
330
20
100
AcDbEntity
  8
11000_Left
  6
DASHED
 62
     7
370
    20
100
AcDbLine
 39
0.25
 10
400.0450197045251
 20
103.7770923302351
 30
0.0
 11
392.5430197045253
 21
103.7770923302351
 31
0.0
1001
AUSTER_ANSICHT
1002
{
1000
Det03
1002
}
1001
AUSTER_FOLIE
1002
{
1000
NSB00055_3PSSTE45
1002
}
  0
LINE
  5
58E5
330
20
100
AcDbEntity
  8
11000_Left
  6
DASHED
 62
     7
370
    20
100
AcDbLine
 39
0.25
 10
400.0450197045251
 20
103.7770923302351
 30
0.0
 11
392.5430197045253
 21
103.7770923302351
 31
0.0
1001
AUSTER_ANSICHT
1002
{
1000
Det03
1002
}
1001
AUSTER_FOLIE
1002
{
1000
NSB00055_3PSSTE45
1002
}
  0
LINE
  5
58E6
330
20
100
AcDbEntity
  8
11000_Left
  6
DASHED
 62
     7
370
    20
100
AcDbLine
 39
0.25
 10
392.4603197045252
 20
111.2770923302351
 30
0.0
 11
400.0450197045251
 21
111.2770923302351
 31
0.0
1001
AUSTER_ANSICHT
1002
{
1000
Det03
1002
}
1001
AUSTER_FOLIE
1002
{
1000
NSB00055_3PSSTE45
1002
}
  0
LINE
  5
58E7
330
20
100
AcDbEntity
  8
11000_Left
  6
DASHED
 62
     7
370
    20
100
AcDbLine
 39
0.25
 10
392.4603197045252
 20
111.2770923302351
 30
0.0
 11
400.0450197045251
 21
111.2770923302351
 31
0.0
1001
AUSTER_ANSICHT
1002
{
1000
Det03
1002
}
1001
AUSTER_FOLIE
1002
{
1000
NSB00055_3PSSTE45
1002
}
  0
LINE
  5
58E8
330
20
100
AcDbEntity
  8
11000_Left
  6
DASHED
 62
     7
370
    20
100
AcDbLine
 39
0.25
 10
392.4603197045252
 20
111.2770923302351
 30
0.0
 11
400.0450197045251
 21
111.2770923302351
 31
0.0
1001
AUSTER_ANSICHT
1002
{
1000
Det03
1002
}
1001
AUSTER_FOLIE
1002
{
1000
NSB00055_3PSSTE45
1002
}
  0
LINE
  5
58E9
330
20
100
AcDbEntity
  8
11000_Left
  6
DASHED
 62
     7
370
    20
100
AcDbLine
 39
0.25
 10
391.5304197045253
 20
127.2689923302351
 30
0.0
 11
392.4603197045252
 21
111.2770923302351
 31
0.0
1001
AUSTER_ANSICHT
1002
{
1000
Det03
1002
}
1001
AUSTER_FOLIE
1002
{
1000
NSB00055_3PSSTE45
1002
}
  0
LINE
  5
58EA
330
20
100
AcDbEntity
  8
11000_Left
  6
DASHED
 62
     7
370
    20
100
AcDbLine
 39
0.25
 10
391.5304197045253
 20
127.2689923302351
 30
0.0
 11
392.4603197045252
 21
111.2770923302351
 31
0.0
1001
AUSTER_ANSICHT
1002
{
1000
Det03
1002
}
1001
AUSTER_FOLIE
1002
{
1000
NSB00055_3PSSTE45
1002
}
  0
LINE
  5
58EB
330
20
100
AcDbEntity
  8
11000_Left
  6
DASHED
 62
     7
370
    20
100
AcDbLine
 39
0.25
 10
391.5304197045253
 20
127.2689923302351
 30
0.0
 11
392.4603197045252
 21
111.2770923302351
 31
0.0
1001
AUSTER_ANSICHT
1002
{
1000
Det03
1002
}
1001
AUSTER_FOLIE
1002
{
1000
NSB00055_3PSSTE45
1002
}
  0
DIMENSION
  5
58EC
330
20
100
AcDbEntity
  8
11100_LEFT_DIM
  6
Continuous
 62
     7
370
    13
100
AcDbDimension
  2
*D3
 10
373.2450197045253
 20
176.8525214611617
 30
0.0
 11
366.6917523294845
 21
176.8525214611617
 31
0.0
 70
   160
 71
     5
 42
12.99999999999994
  3
DSTYLE1
100
AcDbAlignedDimension
 13
360.2450197045254
 23
171.4266923302352
 33
0.0
 14
373.2450197045253
 24
170.4266923302351
 34
0.0
100
AcDbRotatedDimension
1001
AUSTER_FOLIE
1002
{
1000
NSB00055_3PSSTE45
1002
}
1001
AUSTER_ANSICHT
1002
{
1000
Det03
1002
}
1001
ACAD
1000
DSTYLE
1002
{
1070
   140
1040
3.5
1070
    41
1040
2.0
1070
    42
1040
1.0
1070
    43
1040
1.0
1070
    47
1040
0.005
1070
    48
1040
-0.005
1070
    77
1070
     0
1070
    78
1070
     0
1070
   143
1040
25.4
1070
   171
1070
     0
1070
   172
1070
     1
1070
   271
1070
     0
1070
   272
1070
     1
1070
   277
1070
     6
1070
   279
1070
     0
1002
}
  0
LINE
  5
58ED
330
20
100
AcDbEntity
  8
11000_Left
  6
DASHED
 62
     7
370
    20
100
AcDbLine
 39
0.25
 10
373.4257197045252
 20
149.2139923302353
 30
0.0
 11
375.0450197045254
 21
127.2689923302351
 31
0.0
1001
AUSTER_ANSICHT
1002
{
1000
Det03
1002
}
1001
AUSTER_FOLIE
1002
{
1000
NSB00055_3PSSTE45
1002
}
  0
LINE
  5
58EE
330
20
100
AcDbEntity
  8
11000_Left
  6
DASHED
 62
     7
370
    20
100
AcDbLine
 39
0.25
 10
373.4257197045252
 20
149.2139923302353
 30
0.0
 11
375.0450197045254
 21
127.2689923302351
 31
0.0
1001
AUSTER_ANSICHT
1002
{
1000
Det03
1002
}
1001
AUSTER_FOLIE
1002
{
1000
NSB00055_3PSSTE45
1002
}
  0
LINE
  5
58EF
330
20
100
AcDbEntity
  8
11000_Left
  6
DASHED
 62
     7
370
    20
100
AcDbLine
 39
0.25
 10
373.4257197045252
 20
149.2139923302353
 30
0.0
 11
375.0450197045254
 21
127.2689923302351
 31
0.0
1001
AUSTER_ANSICHT
1002
{
1000
Det03
1002
}
1001
AUSTER_FOLIE
1002
{
1000
NSB00055_3PSSTE45
1002
}
  0
LINE
  5
58F0
330
20
100
AcDbEntity
  8
11000_Left
  6
DASHED
 62
     7
370
    20
100
AcDbLine
 39
0.25
 10
358.8450197045252
 20
149.4266923302352
 30
0.0
 11
358.8450197045252
 21
134.2689923302351
 31
0.0
1001
AUSTER_ANSICHT
1002
{
1000
Det03
1002
}
1001
AUSTER_FOLIE
1002
{
1000
NSB00055_3PSSTE45
1002
}
  0
LINE
  5
58F1
330
20
100
AcDbEntity
  8
11000_Left
  6
DASHED
 62
     7
370
    20
100
AcDbLine
 39
0.25
 10
357.5450197045253
 20
134.2689923302351
 30
0.0
 11
357.5450197045253
 21
149.4266923302352
 31
0.0
1001
AUSTER_ANSICHT
1002
{
1000
Det03
1002
}
1001
AUSTER_FOLIE
1002
{
1000
NSB00055_3PSSTE45
1002
}
  0
LINE
  5
58F2
330
20
100
AcDbEntity
  8
11000_Left
  6
DASHED
 62
     7
370
    20
100
AcDbLine
 39
0.25
 10
345.8450197045253
 20
149.4266923302352
 30
0.0
 11
358.8450197045252
 21
149.4266923302352
 31
0.0
1001
AUSTER_ANSICHT
1002
{
1000
Det03
1002
}
1001
AUSTER_FOLIE
1002
{
1000
NSB00055_3PSSTE45
1002
}
  0
LINE
  5
58F3
330
20
100
AcDbEntity
  8
11000_Left
  6
DASHED
 62
     7
370
    20
100
AcDbLine
 39
0.25
 10
358.8450197045252
 20
134.2689923302351
 30
0.0
 11
357.5450197045253
 21
134.2689923302351
 31
0.0
1001
AUSTER_ANSICHT
1002
{
1000
Det03
1002
}
1001
AUSTER_FOLIE
1002
{
1000
NSB00055_3PSSTE45
1002
}
  0
LINE
  5
58F4
330
20
100
AcDbEntity
  8
11000_Left
  6
DASHED
 62
     7
370
    20
100
AcDbLine
 39
0.25
 10
358.8450197045252
 20
151.4266923302352
 30
0.0
 11
345.8450197045253
 21
151.4266923302352
 31
0.0
1001
AUSTER_ANSICHT
1002
{
1000
Det03
1002
}
1001
AUSTER_FOLIE
1002
{
1000
NSB00055_3PSSTE45
1002
}
  0
LINE
  5
58F5
330
20
100
AcDbEntity
  8
11000_Left
  6
DASHED
 62
     7
370
    20
100
AcDbLine
 39
0.25
 10
345.8450197045253
 20
170.9066923302351
 30
0.0
 11
345.8450197045253
 21
149.4266923302352
 31
0.0
1001
AUSTER_ANSICHT
1002
{
1000
Det03
1002
}
1001
AUSTER_FOLIE
1002
{
1000
NSB00055_3PSSTE45
1002
}
  0
LINE
  5
58F6
330
20
100
AcDbEntity
  8
11000_Left
  6
DASHED
 62
     7
370
    20
100
AcDbLine
 39
0.25
 10
358.8450197045252
 20
149.4266923302352
 30
0.0
 11
358.8450197045252
 21
170.9066923302351
 31
0.0
1001
AUSTER_ANSICHT
1002
{
1000
Det03
1002
}
1001
AUSTER_FOLIE
1002
{
1000
NSB00055_3PSSTE45
1002
}
  0
DIMENSION
  5
58F7
330
20
100
AcDbEntity
  8
11100_LEFT_DIM
  6
Continuous
 62
     7
370
    13
100
AcDbDimension
  2
*D4
 10
380.3963726743608
 20
149.4266923302352
 30
0.0
 11
380.3963726743607
 21
160.1666923302352
 31
0.0
 70
    32
 71
     5
 42
21.4799999999999
  3
DSTYLE1
100
AcDbAlignedDimension
 13
373.238063800306
 23
170.9066923302351
 33
0.0
 14
373.238063800306
 24
149.4266923302352
 34
0.0
 50
90.0
100
AcDbRotatedDimension
1001
AUSTER_FOLIE
1002
{
1000
NSB00055_3PSSTE45
1002
}
1001
AUSTER_ANSICHT
1002
{
1000
Det03
1002
}
1001
ACAD
1000
DSTYLE
1002
{
1070
   140
1040
3.5
1070
    41
1040
2.0
1070
    42
1040
1.0
1070
    43
1040
1.0
1070
    47
1040
0.005
1070
    48
1040
-0.005
1070
    77
1070
     0
1070
    78
1070
     0
1070
   143
1040
25.4
1070
   171
1070
     0
1070
   172
1070
     1
1070
   271
1070
     0
1070
   272
1070
     1
1070
   277
1070
     6
1070
   279
1070
     0
1002
}
  0
LINE
  5
58F8
330
20
100
AcDbEntity
  8
11000_Left
  6
Continuous
 62
     7
370
    50
100
AcDbLine
 10
360.2450197045254
 20
149.4266923302352
 30
0.0
 11
360.2454197045251
 21
170.4266923302351
 31
0.0
1001
AUSTER_ANSICHT
1002
{
1000
Det03
1002
}
1001
AUSTER_FOLIE
1002
{
1000
NSB00055_3PSSTE45
1002
}
  0
LINE
  5
58F9
330
20
100
AcDbEntity
  8
11000_Left
  6
DASHED
 62
     7
370
    20
100
AcDbLine
 39
0.25
 10
375.0450197045254
 20
127.2689923302351
 30
0.0
 11
391.5304197045253
 21
127.2689923302351
 31
0.0
1001
AUSTER_ANSICHT
1002
{
1000
Det03
1002
}
1001
AUSTER_FOLIE
1002
{
1000
NSB00055_3PSSTE45
1002
}
  0
LINE
  5
58FA
330
20
100
AcDbEntity
  8
11000_Left
  6
DASHED
 62
     7
370
    20
100
AcDbLine
 39
0.25
 10
375.0450197045254
 20
127.2689923302351
 30
0.0
 11
391.5304197045253
 21
127.2689923302351
 31
0.0
1001
AUSTER_ANSICHT
1002
{
1000
Det03
1002
}
1001
AUSTER_FOLIE
1002
{
1000
NSB00055_3PSSTE45
1002
}
  0
LINE
  5
58FB
330
20
100
AcDbEntity
  8
11000_Left
  6
DASHED
 62
     7
370
    20
100
AcDbLine
 39
0.25
 10
375.0450197045254
 20
127.2689923302351
 30
0.0
 11
391.5304197045253
 21
127.2689923302351
 31
0.0
1001
AUSTER_ANSICHT
1002
{
1000
Det03
1002
}
1001
AUSTER_FOLIE
1002
{
1000
NSB00055_3PSSTE45
1002
}
  0
LINE
  5
58FC
330
20
100
AcDbEntity
  8
11000_Left
  6
DASHED
 62
     7
370
    20
100
AcDbLine
 39
0.25
 10
375.0450197045254
 20
127.2689923302351
 30
0.0
 11
390.5139197045254
 21
127.2689923302351
 31
0.0
1001
AUSTER_ANSICHT
1002
{
1000
Det03
1002
}
1001
AUSTER_FOLIE
1002
{
1000
NSB00055_3PSSTE45
1002
}
  0
LINE
  5
58FD
330
20
100
AcDbEntity
  8
11000_Left
  6
DASHED
 62
     7
370
    20
100
AcDbLine
 39
0.25
 10
325.0450197045254
 20
149.2689923302351
 30
0.0
 11
325.0450197045254
 21
125.0189923302351
 31
0.0
1001
AUSTER_ANSICHT
1002
{
1000
Det03
1002
}
1001
AUSTER_FOLIE
1002
{
1000
NSB00055_3PSSTE45
1002
}
  0
LINE
  5
58FE
330
20
100
AcDbEntity
  8
11000_Left
  6
DASHED
 62
     7
370
    20
100
AcDbLine
 39
0.25
 10
325.0450197045254
 20
149.2689923302351
 30
0.0
 11
325.0450197045254
 21
125.0189923302351
 31
0.0
1001
AUSTER_ANSICHT
1002
{
1000
Det03
1002
}
1001
AUSTER_FOLIE
1002
{
1000
NSB00055_3PSSTE45
1002
}
  0
LINE
  5
58FF
330
20
100
AcDbEntity
  8
11000_Left
  6
DASHED
 62
     7
370
    20
100
AcDbLine
 39
0.25
 10
325.0450197045254
 20
149.2689923302351
 30
0.0
 11
325.0450197045254
 21
125.0189923302351
 31
0.0
1001
AUSTER_ANSICHT
1002
{
1000
Det03
1002
}
1001
AUSTER_FOLIE
1002
{
1000
NSB00055_3PSSTE45
1002
}
  0
LINE
  5
5900
330
20
100
AcDbEntity
  8
11000_Left
  6
DASHED
 62
     7
370
    20
100
AcDbLine
 39
0.25
 10
327.4491197045253
 20
119.2179923302352
 30
0.0
 11
328.1416197045254
 21
119.2179923302352
 31
0.0
1001
AUSTER_ANSICHT
1002
{
1000
Det03
1002
}
1001
AUSTER_FOLIE
1002
{
1000
NSB00055_3PSSTE45
1002
}
  0
LINE
  5
5901
330
20
100
AcDbEntity
  8
11000_Left
  6
DASHED
 62
     7
370
    20
100
AcDbLine
 39
0.25
 10
325.0450197045254
 20
125.0189923302351
 30
0.0
 11
330.0450197045253
 21
125.0189923302351
 31
0.0
1001
AUSTER_ANSICHT
1002
{
1000
Det03
1002
}
1001
AUSTER_FOLIE
1002
{
1000
NSB00055_3PSSTE45
1002
}
  0
LINE
  5
5902
330
20
100
AcDbEntity
  8
11000_Left
  6
DASHED
 62
     7
370
    20
100
AcDbLine
 39
0.25
 10
325.0450197045254
 20
125.0189923302351
 30
0.0
 11
330.0450197045253
 21
125.0189923302351
 31
0.0
1001
AUSTER_ANSICHT
1002
{
1000
Det03
1002
}
1001
AUSTER_FOLIE
1002
{
1000
NSB00055_3PSSTE45
1002
}
  0
LINE
  5
5903
330
20
100
AcDbEntity
  8
11000_Left
  6
DASHED
 62
     7
370
    20
100
AcDbLine
 39
0.25
 10
325.0450197045254
 20
125.0189923302351
 30
0.0
 11
330.0450197045253
 21
125.0189923302351
 31
0.0
1001
AUSTER_ANSICHT
1002
{
1000
Det03
1002
}
1001
AUSTER_FOLIE
1002
{
1000
NSB00055_3PSSTE45
1002
}
  0
LINE
  5
5904
330
20
100
AcDbEntity
  8
11000_Left
  6
DASHED
 62
     7
370
    20
100
AcDbLine
 39
0.25
 10
326.1440197045252
 20
125.0189923302351
 30
0.0
 11
327.4491197045253
 21
119.2179923302352
 31
0.0
1001
AUSTER_ANSICHT
1002
{
1000
Det03
1002
}
1001
AUSTER_FOLIE
1002
{
1000
NSB00055_3PSSTE45
1002
}
  0
LINE
  5
5905
330
20
100
AcDbEntity
  8
11000_Left
  6
DASHED
 62
     7
370
    20
100
AcDbLine
 39
0.25
 10
328.6477197045252
 20
122.0146923302351
 30
0.0
 11
328.6477197045252
 21
125.0189923302351
 31
0.0
1001
AUSTER_ANSICHT
1002
{
1000
Det03
1002
}
1001
AUSTER_FOLIE
1002
{
1000
NSB00055_3PSSTE45
1002
}
  0
LINE
  5
5906
330
20
100
AcDbEntity
  8
11000_Left
  6
DASHED
 62
     7
370
    20
100
AcDbLine
 39
0.25
 10
329.0472197045251
 20
122.0146923302351
 30
0.0
 11
328.6477197045252
 21
122.0146923302351
 31
0.0
1001
AUSTER_ANSICHT
1002
{
1000
Det03
1002
}
1001
AUSTER_FOLIE
1002
{
1000
NSB00055_3PSSTE45
1002
}
  0
LINE
  5
5907
330
20
100
AcDbEntity
  8
11000_Left
  6
DASHED
 62
     7
370
    20
100
AcDbLine
 39
0.25
 10
329.0472197045251
 20
121.0291923302351
 30
0.0
 11
329.0472197045251
 21
122.0146923302351
 31
0.0
1001
AUSTER_ANSICHT
1002
{
1000
Det03
1002
}
1001
AUSTER_FOLIE
1002
{
1000
NSB00055_3PSSTE45
1002
}
  0
LINE
  5
5908
330
20
100
AcDbEntity
  8
11000_Left
  6
DASHED
 62
     7
370
    20
100
AcDbLine
 39
0.25
 10
328.1416197045254
 20
119.2179923302352
 30
0.0
 11
329.0472197045251
 21
121.0291923302351
 31
0.0
1001
AUSTER_ANSICHT
1002
{
1000
Det03
1002
}
1001
AUSTER_FOLIE
1002
{
1000
NSB00055_3PSSTE45
1002
}
  0
LINE
  5
5909
330
20
100
AcDbEntity
  8
11000_Left
  6
DASHED
 62
     7
370
    20
100
AcDbLine
 39
0.25
 10
330.0450197045253
 20
125.0189923302351
 30
0.0
 11
330.0450197045253
 21
84.51899233023516
 31
0.0
1001
AUSTER_ANSICHT
1002
{
1000
Det03
1002
}
1001
AUSTER_FOLIE
1002
{
1000
NSB00055_3PSSTE45
1002
}
  0
LINE
  5
590A
330
20
100
AcDbEntity
  8
11000_Left
  6
DASHED
 62
     7
370
    20
100
AcDbLine
 39
0.25
 10
330.0450197045253
 20
125.0189923302351
 30
0.0
 11
330.0450197045253
 21
84.51899233023516
 31
0.0
1001
AUSTER_ANSICHT
1002
{
1000
Det03
1002
}
1001
AUSTER_FOLIE
1002
{
1000
NSB00055_3PSSTE45
1002
}
  0
LINE
  5
590B
330
20
100
AcDbEntity
  8
11000_Left
  6
DASHED
 62
     7
370
    20
100
AcDbLine
 39
0.25
 10
330.0450197045253
 20
125.0189923302351
 30
0.0
 11
330.0450197045253
 21
84.51899233023516
 31
0.0
1001
AUSTER_ANSICHT
1002
{
1000
Det03
1002
}
1001
AUSTER_FOLIE
1002
{
1000
NSB00055_3PSSTE45
1002
}
  0
LINE
  5
590C
330
20
100
AcDbEntity
  8
11000_Left
  6
DASHED
 62
     7
370
    20
100
AcDbLine
 39
0.25
 10
325.0450197045254
 20
149.2689923302351
 30
0.0
 11
373.4257197045252
 21
149.2139923302353
 31
0.0
1001
AUSTER_ANSICHT
1002
{
1000
Det03
1002
}
1001
AUSTER_FOLIE
1002
{
1000
NSB00055_3PSSTE45
1002
}
  0
LINE
  5
590D
330
20
100
AcDbEntity
  8
11000_Left
  6
DASHED
 62
     7
370
    20
100
AcDbLine
 39
0.25
 10
325.0450197045254
 20
149.2689923302351
 30
0.0
 11
373.4257197045252
 21
149.2139923302353
 31
0.0
1001
AUSTER_ANSICHT
1002
{
1000
Det03
1002
}
1001
AUSTER_FOLIE
1002
{
1000
NSB00055_3PSSTE45
1002
}
  0
DIMENSION
  5
590E
330
20
100
AcDbEntity
  8
11100_LEFT_DIM
  6
Continuous
 62
     7
370
    13
100
AcDbDimension
  2
*D1
 10
314.6054298755128
 20
170.9066923302351
 30
0.0
 11
314.6054298755128
 21
135.7258923302351
 31
0.0
 70
   160
  1
B
 71
     5
 42
66.73160000000001
  3
DSTYLE1
100
AcDbAlignedDimension
 13
322.5982197045253
 23
104.1750923302351
 33
0.55
 14
345.8450197045253
 24
170.9066923302351
 34
0.0
 50
90.0
100
AcDbRotatedDimension
1001
AUSTER_FOLIE
1002
{
1000
NSB00055_3PSSTE45
1002
}
1001
AUSTER_ANSICHT
1002
{
1000
Det03
1002
}
1001
ACAD
1000
DSTYLE
1002
{
1070
   140
1040
3.5
1070
    41
1040
2.0
1070
    42
1040
1.0
1070
    43
1040
1.0
1070
    47
1040
0.005
1070
    48
1040
-0.005
1070
    77
1070
     0
1070
    78
1070
     0
1070
   143
1040
25.4
1070
   171
1070
     0
1070
   172
1070
     1
1070
   271
1070
     0
1070
   272
1070
     1
1070
   277
1070
     6
1070
   279
1070
     0
1002
}
  0
DIMENSION
  5
590F
330
20
100
AcDbEntity
  8
11100_LEFT_DIM
  6
Continuous
 62
     7
370
    13
100
AcDbDimension
  2
*D2
 10
307.0351327516569
 20
170.9066923302351
 30
0.0
 11
307.0351327516568
 21
114.0978423302352
 31
0.0
 70
   160
  1
A
 71
     5
 42
110.6376999999999
  3
DSTYLE1
100
AcDbAlignedDimension
 13
325.0450197045254
 23
60.26899233023518
 33
0.0
 14
345.8450197045253
 24
170.9066923302351
 34
0.0
 50
90.0
100
AcDbRotatedDimension
1001
AUSTER_FOLIE
1002
{
1000
NSB00055_3PSSTE45
1002
}
1001
AUSTER_ANSICHT
1002
{
1000
Det03
1002
}
1001
ACAD
1000
DSTYLE
1002
{
1070
   140
1040
3.5
1070
    41
1040
2.0
1070
    42
1040
1.0
1070
    43
1040
1.0
1070
    47
1040
0.005
1070
    48
1040
-0.005
1070
    77
1070
     0
1070
    78
1070
     0
1070
   143
1040
25.4
1070
   171
1070
     0
1070
   172
1070
     1
1070
   271
1070
     0
1070
   272
1070
     1
1070
   277
1070
     6
1070
   279
1070
     0
1002
}
  0
LINE
  5
5910
330
20
100
AcDbEntity
  8
11000_Left
  6
Continuous
 62
     7
370
    50
100
AcDbLine
 39
0.7
 10
373.238063800306
 20
170.9066923302351
 30
0.0
 11
373.238063800306
 21
149.4266923302352
 31
0.0
1001
AUSTER_ANSICHT
1002
{
1000
Det03
1002
}
1001
AUSTER_FOLIE
1002
{
1000
NSB00055_3PSSTE45
1002
}
  0
LINE
  5
5911
330
20
100
AcDbEntity
  8
11000_Left
  6
Continuous
 62
     7
370
    50
100
AcDbLine
 39
0.7
 10
360.2450197045254
 20
149.4266923302352
 30
0.0
 11
360.2450197045254
 21
170.9266923302351
 31
0.0
1001
AUSTER_ANSICHT
1002
{
1000
Det03
1002
}
1001
AUSTER_FOLIE
1002
{
1000
NSB00055_3PSSTE45
1002
}
  0
LINE
  5
5912
330
20
100
AcDbEntity
  8
11000_Left
  6
Continuous
 62
     7
370
    20
100
AcDbLine
 39
0.25
 10
360.2450197045254
 20
151.4266923302352
 30
0.0
 11
373.2387260486338
 21
151.4260319478365
 31
0.0
1001
AUSTER_ANSICHT
1002
{
1000
Det03
1002
}
1001
AUSTER_FOLIE
1002
{
1000
NSB00055_3PSSTE45
1002
}
  0
LINE
  5
5913
330
20
100
AcDbEntity
  8
11000_Left
  6
Continuous
 62
     7
370
    50
100
AcDbLine
 39
0.7
 10
360.2450197045254
 20
134.2689923302351
 30
0.0
 11
361.5450197045253
 21
134.2689923302351
 31
0.0
1001
AUSTER_ANSICHT
1002
{
1000
Det03
1002
}
1001
AUSTER_FOLIE
1002
{
1000
NSB00055_3PSSTE45
1002
}
  0
LINE
  5
5914
330
20
100
AcDbEntity
  8
11000_Left
  6
Continuous
 62
     7
370
    50
100
AcDbLine
 39
0.7
 10
361.5450197045253
 20
134.2689923302351
 30
0.0
 11
361.5450197045253
 21
149.2689923302351
 31
0.0
1001
AUSTER_ANSICHT
1002
{
1000
Det03
1002
}
1001
AUSTER_FOLIE
1002
{
1000
NSB00055_3PSSTE45
1002
}
  0
LINE
  5
5915
330
20
100
AcDbEntity
  8
11000_Left
  6
Continuous
 62
     7
370
    50
100
AcDbLine
 39
0.7
 10
360.2450197045254
 20
149.4266923302352
 30
0.0
 11
360.2450197045254
 21
134.2689923302351
 31
0.0
1001
AUSTER_ANSICHT
1002
{
1000
Det03
1002
}
1001
AUSTER_FOLIE
1002
{
1000
NSB00055_3PSSTE45
1002
}
  0
LINE
  5
5916
330
20
100
AcDbEntity
  8
11000_Left
  6
Continuous
 62
     7
370
    50
100
AcDbLine
 39
0.5
 10
360.2450197045254
 20
149.4266923302352
 30
0.0
 11
373.238063800306
 21
149.4266923302352
 31
0.0
1001
AUSTER_ANSICHT
1002
{
1000
Det03
1002
}
1001
AUSTER_FOLIE
1002
{
1000
NSB00055_3PSSTE45
1002
}
  0
LINE
  5
633F
330
20
100
AcDbEntity
  8
90000_FRAME
  6
Continuous
 62
     7
100
AcDbLine
 10
420.0000000000008
 20
0.0
 30
0.0
 11
420.0000000000008
 21
199.9999999999998
 31
0.0
  0
LINE
  5
6340
330
20
100
AcDbEntity
  8
90000_FRAME
  6
Continuous
 62
     7
100
AcDbLine
 10
150.0000000000009
 20
0.0
 30
0.0
 11
420.0000000000008
 21
0.0
 31
0.0
  0
LINE
  5
6341
330
20
100
AcDbEntity
  8
90000_FRAME
  6
Continuous
 62
     7
100
AcDbLine
 10
150.0000000000009
 20
199.9999999999998
 30
0.0
 11
420.0000000000008
 21
199.9999999999998
 31
0.0
  0
LINE
  5
6342
330
20
100
AcDbEntity
  8
90000_FRAME
  6
Continuous
 62
     7
100
AcDbLine
 10
150.0000000000009
 20
0.0
 30
0.0
 11
150.0000000000009
 21
199.9999999999998
 31
0.0
  0
LINE
  5
6343
330
20
100
AcDbEntity
  8
90000_FRAME
  6
Continuous
 62
     7
100
AcDbLine
 10
410.0
 20
10.0
 30
0.0
 11
410.0
 21
28.0
 31
0.0
  0
TEXT
  5
634B
330
20
100
AcDbEntity
  8
91000_TIP
  6
Continuous
 62
     7
100
AcDbText
 10
154.0533497826648
 20
3.482236621676662
 30
0.0
 40
2.5
  1
All dimensions are in millimeters (mm).
 41
0.7513350295680247
 72
     5
 11
214.1601521481068
 21
3.482236621676662
 31
0.0
100
AcDbText
  0
TEXT
  5
634C
330
20
100
AcDbEntity
  8
91000_TIP
  6
Continuous
 62
     7
100
AcDbText
 10
154.0533497826648
 20
8.732236621676605
 30
0.0
 40
2.5
  1
Alle Bemassungswerte sind in Millimeter (mm) angegeben.
 41
0.6056311217924568
 72
     5
 11
227.7384696007471
 21
8.732236621676605
 31
0.0
100
AcDbText
  0
DIMENSION
  5
64A7
330
20
100
AcDbEntity
  8
10100_FRONT_DIM
  6
Continuous
 62
     7
370
    13
100
AcDbDimension
  2
*D5
 10
286.8252263054112
 20
122.3349050830916
 30
0.0
 11
236.3252263054112
 21
122.3349050830916
 31
0.0
 70
    32
 71
     5
 42
101.0
  3
H035
100
AcDbAlignedDimension
 13
185.8252263054112
 23
149.7489923302349
 33
0.0
 14
286.8252263054112
 24
149.7489923302349
 34
0.0
100
AcDbRotatedDimension
1001
ACAD
1000
DSTYLE
1002
{
1070
    40
1040
1.0
1070
    77
1070
     0
1070
   147
1040
1.5
1070
   272
1070
     0
1070
   279
1070
     1
1070
   288
1070
     1
1002
}
  0
DIMENSION
  5
64A8
330
20
100
AcDbEntity
  8
10100_FRONT_DIM
  6
Continuous
 62
     7
370
    13
100
AcDbDimension
  2
*D6
 10
253.4252263054116
 20
128.8592307256446
 30
0.0
 11
221.9252263054115
 21
128.8592307256446
 31
0.0
 70
    32
 71
     5
 42
63.00000000000011
  3
H035
100
AcDbAlignedDimension
 13
190.4252263054115
 23
141.7488923502308
 33
0.0
 14
253.4252263054116
 24
141.7488923502307
 34
0.0
100
AcDbRotatedDimension
1001
ACAD
1000
DSTYLE
1002
{
1070
    40
1040
1.0
1070
    77
1070
     0
1070
   147
1040
1.5
1070
   272
1070
     0
1070
   279
1070
     1
1070
   288
1070
     1
1002
}
  0
LINE
  5
64A9
330
20
100
AcDbEntity
  8
10000_FRONT
 62
     7
370
    50
100
AcDbLine
 10
280.1252263054114
 20
141.7488923502308
 30
0.0
 11
280.1252263054114
 21
137.4988923502308
 31
0.0
1001
AUSTER_ANSICHT
1002
{
1000
Det03
1002
}
1001
AUSTER_FOLIE
1002
{
1000
NSB01092_S0_3P_SS_63
1002
}
  0
LINE
  5
64AA
330
20
100
AcDbEntity
  8
10000_FRONT
 62
     7
370
    50
100
AcDbLine
 10
284.3252263054112
 20
141.7488923502308
 30
0.0
 11
284.3252263054112
 21
137.4988923502308
 31
0.0
1001
AUSTER_ANSICHT
1002
{
1000
Det03
1002
}
1001
AUSTER_FOLIE
1002
{
1000
NSB01092_S0_3P_SS_63
1002
}
  0
LINE
  5
64AB
330
20
100
AcDbEntity
  8
10000_FRONT
 62
     7
370
    50
100
AcDbLine
 10
251.3252263054112
 20
141.7488923502308
 30
0.0
 11
251.3252263054112
 21
137.4988923502308
 31
0.0
1001
AUSTER_ANSICHT
1002
{
1000
Det03
1002
}
1001
AUSTER_FOLIE
1002
{
1000
NSB01092_S0_3P_SS_63
1002
}
  0
LINE
  5
64AC
330
20
100
AcDbEntity
  8
10000_FRONT
 62
     7
370
    50
100
AcDbLine
 10
255.5252263054119
 20
141.7488923502308
 30
0.0
 11
255.5252263054119
 21
137.4988923502308
 31
0.0
1001
AUSTER_ANSICHT
1002
{
1000
Det03
1002
}
1001
AUSTER_FOLIE
1002
{
1000
NSB01092_S0_3P_SS_63
1002
}
  0
LINE
  5
64AD
330
20
100
AcDbEntity
  8
10000_FRONT
 62
     7
370
    50
100
AcDbLine
 10
269.9252263054116
 20
141.7488923502308
 30
0.0
 11
269.9252263054116
 21
137.4988923502308
 31
0.0
1001
AUSTER_ANSICHT
1002
{
1000
Det03
1002
}
1001
AUSTER_FOLIE
1002
{
1000
NSB01092_S0_3P_SS_63
1002
}
  0
LINE
  5
64AE
330
20
100
AcDbEntity
  8
10000_FRONT
 62
     7
370
    50
100
AcDbLine
 10
265.7252263054118
 20
141.7488923502308
 30
0.0
 11
265.7252263054118
 21
137.4988923502308
 31
0.0
1001
AUSTER_ANSICHT
1002
{
1000
Det03
1002
}
1001
AUSTER_FOLIE
1002
{
1000
NSB01092_S0_3P_SS_63
1002
}
  0
LINE
  5
64AF
330
20
100
AcDbEntity
  8
10000_FRONT
 62
     7
370
    50
100
AcDbLine
 10
188.3252263054112
 20
141.7488923502308
 30
0.0
 11
188.3252263054112
 21
137.4988923502312
 31
0.0
1001
AUSTER_ANSICHT
1002
{
1000
Det03
1002
}
1001
AUSTER_FOLIE
1002
{
1000
NSB01092_S0_3P_SS_63
1002
}
  0
LINE
  5
64B0
330
20
100
AcDbEntity
  8
10000_FRONT
 62
     7
370
    50
100
AcDbLine
 10
192.5252263054119
 20
141.7488923502308
 30
0.0
 11
192.5252263054119
 21
137.4988923502312
 31
0.0
1001
AUSTER_ANSICHT
1002
{
1000
Det03
1002
}
1001
AUSTER_FOLIE
1002
{
1000
NSB01092_S0_3P_SS_63
1002
}
  0
LINE
  5
64B1
330
20
100
AcDbEntity
  8
10000_FRONT
 62
     7
370
    50
100
AcDbLine
 10
206.9252263054116
 20
141.7488923502308
 30
0.0
 11
206.9252263054116
 21
137.4988923502312
 31
0.0
1001
AUSTER_ANSICHT
1002
{
1000
Det03
1002
}
1001
AUSTER_FOLIE
1002
{
1000
NSB01092_S0_3P_SS_63
1002
}
  0
LINE
  5
64B2
330
20
100
AcDbEntity
  8
10000_FRONT
 62
     7
370
    50
100
AcDbLine
 10
202.7252263054117
 20
141.7488923502308
 30
0.0
 11
202.7252263054117
 21
137.4988923502312
 31
0.0
1001
AUSTER_ANSICHT
1002
{
1000
Det03
1002
}
1001
AUSTER_FOLIE
1002
{
1000
NSB01092_S0_3P_SS_63
1002
}
  0
LINE
  5
64B3
330
20
100
AcDbEntity
  8
10000_FRONT
 62
     7
370
    50
100
AcDbLine
 10
217.1252263054114
 20
141.7488923502308
 30
0.0
 11
217.1252263054114
 21
137.4988923502312
 31
0.0
1001
AUSTER_ANSICHT
1002
{
1000
Det03
1002
}
1001
AUSTER_FOLIE
1002
{
1000
NSB01092_S0_3P_SS_63
1002
}
  0
LINE
  5
64B4
330
20
100
AcDbEntity
  8
10000_FRONT
 62
     7
370
    50
100
AcDbLine
 10
221.3252263054112
 20
141.7488923502308
 30
0.0
 11
221.3252263054112
 21
137.4988923502312
 31
0.0
1001
AUSTER_ANSICHT
1002
{
1000
Det03
1002
}
1001
AUSTER_FOLIE
1002
{
1000
NSB01092_S0_3P_SS_63
1002
}
  0
LINE
  5
64B5
330
20
100
AcDbEntity
  8
10000_FRONT
 62
     7
370
    50
100
AcDbLine
 10
185.8252263054112
 20
149.7489923302349
 30
0.0
 11
185.8252263054112
 21
170.9066923302351
 31
0.0
1001
AUSTER_ANSICHT
1002
{
1000
Det03
1002
}
1001
AUSTER_FOLIE
1002
{
1000
NSB01092_S0_3P_SS_63
1002
}
  0
LINE
  5
64B6
330
20
100
AcDbEntity
  8
10000_FRONT
 62
     7
370
    50
100
AcDbLine
 10
185.8252263054112
 20
149.7489923302349
 30
0.0
 11
286.8252263054112
 21
149.7489923302349
 31
0.0
1001
AUSTER_ANSICHT
1002
{
1000
Det03
1002
}
1001
AUSTER_FOLIE
1002
{
1000
NSB01092_S0_3P_SS_63
1002
}
  0
LINE
  5
64B7
330
20
100
AcDbEntity
  8
10000_FRONT
 62
     7
370
    20
100
AcDbLine
 10
185.8252263054112
 20
151.7489923302349
 30
0.0
 11
286.8252263054112
 21
151.7489923302349
 31
0.0
1001
AUSTER_ANSICHT
1002
{
1000
Det03
1002
}
1001
AUSTER_FOLIE
1002
{
1000
NSB01092_S0_3P_SS_63
1002
}
  0
LINE
  5
64B8
330
20
100
AcDbEntity
  8
10000_FRONT
 62
     7
370
    50
100
AcDbLine
 10
185.8252263054112
 20
170.9066923302351
 30
0.0
 11
286.8252263054112
 21
170.9066923302351
 31
0.0
1001
AUSTER_ANSICHT
1002
{
1000
Det03
1002
}
1001
AUSTER_FOLIE
1002
{
1000
NSB01092_S0_3P_SS_63
1002
}
  0
ARC
  5
64B9
330
20
100
AcDbEntity
  8
10000_FRONT
 62
     7
370
    50
100
AcDbCircle
 10
193.3252263054121
 20
137.4988923502312
 30
0.0
 40
0.8000000000000111
100
AcDbArc
 50
180.0
 51
0.0
1001
AUSTER_FOLIE
1002
{
1000
NSB01092_S0_3P_SS_63
1002
}
1001
AUSTER_ANSICHT
1002
{
1000
Det03
1002
}
  0
LINE
  5
64BA
330
20
100
AcDbEntity
  8
10000_FRONT
 62
     7
370
    50
100
AcDbLine
 10
194.1252263054114
 20
145.298892350231
 30
0.0
 11
192.9252263054116
 21
146.4988923502308
 31
0.0
1001
AUSTER_FOLIE
1002
{
1000
NSB01092_S0_3P_SS_63
1002
}
1001
AUSTER_ANSICHT
1002
{
1000
Det03
1002
}
  0
POINT
  5
64BB
330
20
100
AcDbEntity
  8
10000_FRONT
 62
     7
370
    50
100
AcDbPoint
 10
187.5252263054119
 20
136.6988923502311
 30
0.0
1001
AUSTER_FOLIE
1002
{
1000
NSB01092_S0_3P_SS_63
1002
}
1001
AUSTER_ANSICHT
1002
{
1000
Det03
1002
}
  0
POINT
  5
64BC
330
20
100
AcDbEntity
  8
10000_FRONT
 62
     7
370
    50
100
AcDbPoint
 10
185.8252263054112
 20
149.7489923302349
 30
0.0
1001
AUSTER_FOLIE
1002
{
1000
NSB01092_S0_3P_SS_63
1002
}
1001
AUSTER_ANSICHT
1002
{
1000
Det03
1002
}
  0
POINT
  5
64BD
330
20
100
AcDbEntity
  8
10000_FRONT
 62
     7
370
    50
100
AcDbPoint
 10
185.8252263054112
 20
149.7489923302349
 30
0.0
1001
AUSTER_FOLIE
1002
{
1000
NSB01092_S0_3P_SS_63
1002
}
1001
AUSTER_ANSICHT
1002
{
1000
Det03
1002
}
  0
POINT
  5
64BE
330
20
100
AcDbEntity
  8
10000_FRONT
 62
     7
370
    50
100
AcDbPoint
 10
185.8252263054112
 20
149.7489923302349
 30
0.0
1001
AUSTER_FOLIE
1002
{
1000
NSB01092_S0_3P_SS_63
1002
}
1001
AUSTER_ANSICHT
1002
{
1000
Det03
1002
}
  0
POINT
  5
64BF
330
20
100
AcDbEntity
  8
10000_FRONT
 62
     7
370
    50
100
AcDbPoint
 10
185.8252263054112
 20
149.7489923302349
 30
0.0
1001
AUSTER_FOLIE
1002
{
1000
NSB01092_S0_3P_SS_63
1002
}
1001
AUSTER_ANSICHT
1002
{
1000
Det03
1002
}
  0
LINE
  5
64C0
330
20
100
AcDbEntity
  8
10000_FRONT
 62
     7
370
    50
100
AcDbLine
 10
187.9252263054116
 20
149.7489923302349
 30
0.0
 11
192.9252263054116
 21
149.7489923302353
 31
0.0
1001
AUSTER_FOLIE
1002
{
1000
NSB01092_S0_3P_SS_63
1002
}
1001
AUSTER_ANSICHT
1002
{
1000
Det03
1002
}
  0
LINE
  5
64C1
330
20
100
AcDbEntity
  8
10000_FRONT
 62
     7
370
    50
100
AcDbLine
 10
187.9252263054116
 20
149.7489923302349
 30
0.0
 11
187.9252263054116
 21
146.4988923502308
 31
0.0
1001
AUSTER_FOLIE
1002
{
1000
NSB01092_S0_3P_SS_63
1002
}
1001
AUSTER_ANSICHT
1002
{
1000
Det03
1002
}
  0
LINE
  5
64C2
330
20
100
AcDbEntity
  8
10000_FRONT
 62
     7
370
    50
100
AcDbLine
 10
192.9252263054116
 20
149.7489923302349
 30
0.0
 11
192.9252263054116
 21
146.4988923502308
 31
0.0
1001
AUSTER_FOLIE
1002
{
1000
NSB01092_S0_3P_SS_63
1002
}
1001
AUSTER_ANSICHT
1002
{
1000
Det03
1002
}
  0
ARC
  5
64C3
330
20
100
AcDbEntity
  8
10000_FRONT
 62
     7
370
    50
100
AcDbCircle
 10
190.4252263054115
 20
141.7488923502308
 30
0.0
 40
2.099999999999965
100
AcDbArc
 50
0.0
 51
180.0
1001
AUSTER_FOLIE
1002
{
1000
NSB01092_S0_3P_SS_63
1002
}
1001
AUSTER_ANSICHT
1002
{
1000
Det03
1002
}
  0
LINE
  5
64C4
330
20
100
AcDbEntity
  8
10000_FRONT
 62
     7
370
    50
100
AcDbLine
 10
186.7252263054117
 20
145.298892350231
 30
0.0
 11
186.7252263054117
 21
137.4988923502312
 31
0.0
1001
AUSTER_FOLIE
1002
{
1000
NSB01092_S0_3P_SS_63
1002
}
1001
AUSTER_ANSICHT
1002
{
1000
Det03
1002
}
  0
ARC
  5
64C5
330
20
100
AcDbEntity
  8
10000_FRONT
 62
     7
370
    50
100
AcDbCircle
 10
187.5252263054119
 20
137.4988923502312
 30
0.0
 40
0.8000000000000111
100
AcDbArc
 50
180.0
 51
0.0
1001
AUSTER_FOLIE
1002
{
1000
NSB01092_S0_3P_SS_63
1002
}
1001
AUSTER_ANSICHT
1002
{
1000
Det03
1002
}
  0
LINE
  5
64C6
330
20
100
AcDbEntity
  8
10000_FRONT
 62
     7
370
    50
100
AcDbLine
 10
186.7252263054117
 20
145.298892350231
 30
0.0
 11
187.9252263054116
 21
146.4988923502308
 31
0.0
1001
AUSTER_FOLIE
1002
{
1000
NSB01092_S0_3P_SS_63
1002
}
1001
AUSTER_ANSICHT
1002
{
1000
Det03
1002
}
  0
LINE
  5
64C7
330
20
100
AcDbEntity
  8
10000_FRONT
 62
     7
370
    50
100
AcDbLine
 10
207.3252263054112
 20
149.7489923302349
 30
0.0
 11
207.3252263054112
 21
146.4988923502308
 31
0.0
1001
AUSTER_FOLIE
1002
{
1000
NSB01092_S0_3P_SS_63
1002
}
1001
AUSTER_ANSICHT
1002
{
1000
Det03
1002
}
  0
LINE
  5
64C8
330
20
100
AcDbEntity
  8
10000_FRONT
 62
     7
370
    50
100
AcDbLine
 10
208.5252263054119
 20
145.298892350231
 30
0.0
 11
208.5252263054119
 21
137.4988923502312
 31
0.0
1001
AUSTER_FOLIE
1002
{
1000
NSB01092_S0_3P_SS_63
1002
}
1001
AUSTER_ANSICHT
1002
{
1000
Det03
1002
}
  0
ARC
  5
64C9
330
20
100
AcDbEntity
  8
10000_FRONT
 62
     7
370
    50
100
AcDbCircle
 10
207.7252263054118
 20
137.4988923502312
 30
0.0
 40
0.8000000000000111
100
AcDbArc
 50
180.0
 51
0.0
1001
AUSTER_FOLIE
1002
{
1000
NSB01092_S0_3P_SS_63
1002
}
1001
AUSTER_ANSICHT
1002
{
1000
Det03
1002
}
  0
LINE
  5
64CA
330
20
100
AcDbEntity
  8
10000_FRONT
 62
     7
370
    50
100
AcDbLine
 10
208.525226305411
 20
145.298892350231
 30
0.0
 11
207.3252263054112
 21
146.4988923502308
 31
0.0
1001
AUSTER_FOLIE
1002
{
1000
NSB01092_S0_3P_SS_63
1002
}
1001
AUSTER_ANSICHT
1002
{
1000
Det03
1002
}
  0
LINE
  5
64CB
330
20
100
AcDbEntity
  8
10000_FRONT
 62
     7
370
    50
100
AcDbLine
 10
202.3252263054112
 20
149.7489923302349
 30
0.0
 11
202.3252263054112
 21
146.4988923502308
 31
0.0
1001
AUSTER_FOLIE
1002
{
1000
NSB01092_S0_3P_SS_63
1002
}
1001
AUSTER_ANSICHT
1002
{
1000
Det03
1002
}
  0
LINE
  5
64CC
330
20
100
AcDbEntity
  8
10000_FRONT
 62
     7
370
    50
100
AcDbLine
 10
201.1252263054114
 20
145.298892350231
 30
0.0
 11
201.1252263054114
 21
137.4988923502312
 31
0.0
1001
AUSTER_FOLIE
1002
{
1000
NSB01092_S0_3P_SS_63
1002
}
1001
AUSTER_ANSICHT
1002
{
1000
Det03
1002
}
  0
ARC
  5
64CD
330
20
100
AcDbEntity
  8
10000_FRONT
 62
     7
370
    50
100
AcDbCircle
 10
201.9252263054116
 20
137.4988923502312
 30
0.0
 40
0.8000000000000111
100
AcDbArc
 50
180.0
 51
0.0
1001
AUSTER_FOLIE
1002
{
1000
NSB01092_S0_3P_SS_63
1002
}
1001
AUSTER_ANSICHT
1002
{
1000
Det03
1002
}
  0
POINT
  5
64CE
330
20
100
AcDbEntity
  8
10000_FRONT
 62
     7
370
    50
100
AcDbPoint
 10
204.8252263054112
 20
143.8488923502312
 30
0.0
1001
AUSTER_FOLIE
1002
{
1000
NSB01092_S0_3P_SS_63
1002
}
1001
AUSTER_ANSICHT
1002
{
1000
Det03
1002
}
  0
LINE
  5
64CF
330
20
100
AcDbEntity
  8
10000_FRONT
 62
     7
370
    50
100
AcDbLine
 10
201.1252263054123
 20
145.298892350231
 30
0.0
 11
202.3252263054112
 21
146.4988923502308
 31
0.0
1001
AUSTER_FOLIE
1002
{
1000
NSB01092_S0_3P_SS_63
1002
}
1001
AUSTER_ANSICHT
1002
{
1000
Det03
1002
}
  0
ARC
  5
64D0
330
20
100
AcDbEntity
  8
10000_FRONT
 62
     7
370
    50
100
AcDbCircle
 10
204.8252263054112
 20
141.7488923502308
 30
0.0
 40
2.099999999999965
100
AcDbArc
 50
0.0
 51
180.0
1001
AUSTER_FOLIE
1002
{
1000
NSB01092_S0_3P_SS_63
1002
}
1001
AUSTER_ANSICHT
1002
{
1000
Det03
1002
}
  0
LINE
  5
64D1
330
20
100
AcDbEntity
  8
10000_FRONT
 62
     7
370
    50
100
AcDbLine
 10
194.1252263054114
 20
145.298892350231
 30
0.0
 11
194.1252263054114
 21
137.4988923502312
 31
0.0
1001
AUSTER_FOLIE
1002
{
1000
NSB01092_S0_3P_SS_63
1002
}
1001
AUSTER_ANSICHT
1002
{
1000
Det03
1002
}
  0
POINT
  5
64D3
330
20
100
AcDbEntity
  8
10000_FRONT
 62
     7
370
    50
100
AcDbPoint
 10
219.2252263054117
 20
143.8488923502307
 30
0.0
1001
AUSTER_FOLIE
1002
{
1000
NSB01092_S0_3P_SS_63
1002
}
1001
AUSTER_ANSICHT
1002
{
1000
Det03
1002
}
  0
LINE
  5
64D4
330
20
100
AcDbEntity
  8
10000_FRONT
 62
     7
370
    50
100
AcDbLine
 10
221.7252263054117
 20
149.7489923302349
 30
0.0
 11
221.7252263054117
 21
146.4988923502308
 31
0.0
1001
AUSTER_FOLIE
1002
{
1000
NSB01092_S0_3P_SS_63
1002
}
1001
AUSTER_ANSICHT
1002
{
1000
Det03
1002
}
  0
LINE
  5
64D5
330
20
100
AcDbEntity
  8
10000_FRONT
 62
     7
370
    50
100
AcDbLine
 10
222.9252263054116
 20
145.298892350231
 30
0.0
 11
222.9252263054116
 21
137.4988923502312
 31
0.0
1001
AUSTER_FOLIE
1002
{
1000
NSB01092_S0_3P_SS_63
1002
}
1001
AUSTER_ANSICHT
1002
{
1000
Det03
1002
}
  0
ARC
  5
64D6
330
20
100
AcDbEntity
  8
10000_FRONT
 62
     7
370
    50
100
AcDbCircle
 10
222.1252263054114
 20
137.4988923502312
 30
0.0
 40
0.8000000000000111
100
AcDbArc
 50
180.0
 51
0.0
1001
AUSTER_FOLIE
1002
{
1000
NSB01092_S0_3P_SS_63
1002
}
1001
AUSTER_ANSICHT
1002
{
1000
Det03
1002
}
  0
LINE
  5
64D7
330
20
100
AcDbEntity
  8
10000_FRONT
 62
     7
370
    50
100
AcDbLine
 10
222.9252263054116
 20
145.298892350231
 30
0.0
 11
221.7252263054117
 21
146.4988923502308
 31
0.0
1001
AUSTER_FOLIE
1002
{
1000
NSB01092_S0_3P_SS_63
1002
}
1001
AUSTER_ANSICHT
1002
{
1000
Det03
1002
}
  0
POINT
  5
64D8
330
20
100
AcDbEntity
  8
10000_FRONT
 62
     7
370
    50
100
AcDbPoint
 10
219.2252263054117
 20
143.8488923502312
 30
0.0
1001
AUSTER_FOLIE
1002
{
1000
NSB01092_S0_3P_SS_63
1002
}
1001
AUSTER_ANSICHT
1002
{
1000
Det03
1002
}
  0
ARC
  5
64D9
330
20
100
AcDbEntity
  8
10000_FRONT
 62
     7
370
    50
100
AcDbCircle
 10
219.2252263054117
 20
141.7488923502308
 30
0.0
 40
2.099999999999965
100
AcDbArc
 50
0.0
 51
180.0
1001
AUSTER_FOLIE
1002
{
1000
NSB01092_S0_3P_SS_63
1002
}
1001
AUSTER_ANSICHT
1002
{
1000
Det03
1002
}
  0
LINE
  5
64DA
330
20
100
AcDbEntity
  8
10000_FRONT
 62
     7
370
    50
100
AcDbLine
 10
216.7252263054117
 20
149.7489923302349
 30
0.0
 11
216.7252263054117
 21
146.4988923502308
 31
0.0
1001
AUSTER_FOLIE
1002
{
1000
NSB01092_S0_3P_SS_63
1002
}
1001
AUSTER_ANSICHT
1002
{
1000
Det03
1002
}
  0
LINE
  5
64DB
330
20
100
AcDbEntity
  8
10000_FRONT
 62
     7
370
    50
100
AcDbLine
 10
215.5252263054119
 20
145.298892350231
 30
0.0
 11
215.5252263054119
 21
137.4988923502312
 31
0.0
1001
AUSTER_FOLIE
1002
{
1000
NSB01092_S0_3P_SS_63
1002
}
1001
AUSTER_ANSICHT
1002
{
1000
Det03
1002
}
  0
LINE
  5
64DC
330
20
100
AcDbEntity
  8
10000_FRONT
 62
     7
370
    50
100
AcDbLine
 10
215.5252263054119
 20
145.298892350231
 30
0.0
 11
216.7252263054117
 21
146.4988923502308
 31
0.0
1001
AUSTER_FOLIE
1002
{
1000
NSB01092_S0_3P_SS_63
1002
}
1001
AUSTER_ANSICHT
1002
{
1000
Det03
1002
}
  0
ARC
  5
64DD
330
20
100
AcDbEntity
  8
10000_FRONT
 62
     7
370
    50
100
AcDbCircle
 10
216.3252263054112
 20
137.4988923502312
 30
0.0
 40
0.8000000000000111
100
AcDbArc
 50
180.0
 51
0.0
1001
AUSTER_FOLIE
1002
{
1000
NSB01092_S0_3P_SS_63
1002
}
1001
AUSTER_ANSICHT
1002
{
1000
Det03
1002
}
  0
LINE
  5
64DE
330
20
100
AcDbEntity
  8
10000_FRONT
 62
     7
370
    50
100
AcDbLine
 10
250.9252263054116
 20
149.7489923302349
 30
0.0
 11
250.9252263054116
 21
146.4988923502308
 31
0.0
1001
AUSTER_FOLIE
1002
{
1000
NSB01092_S0_3P_SS_63
1002
}
1001
AUSTER_ANSICHT
1002
{
1000
Det03
1002
}
  0
LINE
  5
64DF
330
20
100
AcDbEntity
  8
10000_FRONT
 62
     7
370
    50
100
AcDbLine
 10
255.9252263054116
 20
149.7489923302349
 30
0.0
 11
255.9252263054116
 21
146.4988923502308
 31
0.0
1001
AUSTER_FOLIE
1002
{
1000
NSB01092_S0_3P_SS_63
1002
}
1001
AUSTER_ANSICHT
1002
{
1000
Det03
1002
}
  0
LINE
  5
64E0
330
20
100
AcDbEntity
  8
10000_FRONT
 62
     7
370
    50
100
AcDbLine
 10
257.1252263054114
 20
145.298892350231
 30
0.0
 11
257.1252263054114
 21
137.4988923502312
 31
0.0
1001
AUSTER_FOLIE
1002
{
1000
NSB01092_S0_3P_SS_63
1002
}
1001
AUSTER_ANSICHT
1002
{
1000
Det03
1002
}
  0
ARC
  5
64E1
330
20
100
AcDbEntity
  8
10000_FRONT
 62
     7
370
    50
100
AcDbCircle
 10
253.4252263054116
 20
141.7488923502308
 30
0.0
 40
2.099999999999965
100
AcDbArc
 50
0.0
 51
180.0
1001
AUSTER_FOLIE
1002
{
1000
NSB01092_S0_3P_SS_63
1002
}
1001
AUSTER_ANSICHT
1002
{
1000
Det03
1002
}
  0
ARC
  5
64E2
330
20
100
AcDbEntity
  8
10000_FRONT
 62
     7
370
    50
100
AcDbCircle
 10
256.3252263054121
 20
137.4988923502312
 30
0.0
 40
0.8000000000000111
100
AcDbArc
 50
180.0
 51
0.0
1001
AUSTER_FOLIE
1002
{
1000
NSB01092_S0_3P_SS_63
1002
}
1001
AUSTER_ANSICHT
1002
{
1000
Det03
1002
}
  0
LINE
  5
64E3
330
20
100
AcDbEntity
  8
10000_FRONT
 62
     7
370
    50
100
AcDbLine
 10
249.7252263054118
 20
145.298892350231
 30
0.0
 11
249.7252263054118
 21
137.4988923502312
 31
0.0
1001
AUSTER_FOLIE
1002
{
1000
NSB01092_S0_3P_SS_63
1002
}
1001
AUSTER_ANSICHT
1002
{
1000
Det03
1002
}
  0
ARC
  5
64E4
330
20
100
AcDbEntity
  8
10000_FRONT
 62
     7
370
    50
100
AcDbCircle
 10
250.5252263054119
 20
137.4988923502312
 30
0.0
 40
0.8000000000000111
100
AcDbArc
 50
180.0
 51
0.0
1001
AUSTER_FOLIE
1002
{
1000
NSB01092_S0_3P_SS_63
1002
}
1001
AUSTER_ANSICHT
1002
{
1000
Det03
1002
}
  0
LINE
  5
64E5
330
20
100
AcDbEntity
  8
10000_FRONT
 62
     7
370
    50
100
AcDbLine
 10
257.1252263054114
 20
145.2988923502305
 30
0.0
 11
255.9252263054116
 21
146.4988923502308
 31
0.0
1001
AUSTER_FOLIE
1002
{
1000
NSB01092_S0_3P_SS_63
1002
}
1001
AUSTER_ANSICHT
1002
{
1000
Det03
1002
}
  0
LINE
  5
64E6
330
20
100
AcDbEntity
  8
10000_FRONT
 62
     7
370
    50
100
AcDbLine
 10
249.7252263054118
 20
145.298892350231
 30
0.0
 11
250.9252263054116
 21
146.4988923502308
 31
0.0
1001
AUSTER_FOLIE
1002
{
1000
NSB01092_S0_3P_SS_63
1002
}
1001
AUSTER_ANSICHT
1002
{
1000
Det03
1002
}
  0
ARC
  5
64E7
330
20
100
AcDbEntity
  8
10000_FRONT
 62
     7
370
    50
100
AcDbCircle
 10
279.3252263054112
 20
137.4988923502312
 30
0.0
 40
0.8000000000000111
100
AcDbArc
 50
180.0
 51
0.0
1001
AUSTER_FOLIE
1002
{
1000
NSB01092_S0_3P_SS_63
1002
}
1001
AUSTER_ANSICHT
1002
{
1000
Det03
1002
}
  0
LINE
  5
64E8
330
20
100
AcDbEntity
  8
10000_FRONT
 62
     7
370
    50
100
AcDbLine
 10
279.7252263054117
 20
149.7489923302349
 30
0.0
 11
279.7252263054117
 21
146.4988923502308
 31
0.0
1001
AUSTER_FOLIE
1002
{
1000
NSB01092_S0_3P_SS_63
1002
}
1001
AUSTER_ANSICHT
1002
{
1000
Det03
1002
}
  0
LINE
  5
64E9
330
20
100
AcDbEntity
  8
10000_FRONT
 62
     7
370
    50
100
AcDbLine
 10
278.5252263054119
 20
145.298892350231
 30
0.0
 11
278.5252263054119
 21
137.4988923502312
 31
0.0
1001
AUSTER_FOLIE
1002
{
1000
NSB01092_S0_3P_SS_63
1002
}
1001
AUSTER_ANSICHT
1002
{
1000
Det03
1002
}
  0
LINE
  5
64EA
330
20
100
AcDbEntity
  8
10000_FRONT
 62
     7
370
    50
100
AcDbLine
 10
278.5252263054119
 20
145.298892350231
 30
0.0
 11
279.7252263054117
 21
146.4988923502308
 31
0.0
1001
AUSTER_FOLIE
1002
{
1000
NSB01092_S0_3P_SS_63
1002
}
1001
AUSTER_ANSICHT
1002
{
1000
Det03
1002
}
  0
LINE
  5
64EB
330
20
100
AcDbEntity
  8
10000_FRONT
 62
     7
370
    50
100
AcDbLine
 10
265.3252263054112
 20
149.7489923302349
 30
0.0
 11
265.3252263054112
 21
146.4988923502308
 31
0.0
1001
AUSTER_FOLIE
1002
{
1000
NSB01092_S0_3P_SS_63
1002
}
1001
AUSTER_ANSICHT
1002
{
1000
Det03
1002
}
  0
LINE
  5
64EC
330
20
100
AcDbEntity
  8
10000_FRONT
 62
     7
370
    50
100
AcDbLine
 10
270.3252263054112
 20
149.7489923302349
 30
0.0
 11
270.3252263054112
 21
146.4988923502308
 31
0.0
1001
AUSTER_FOLIE
1002
{
1000
NSB01092_S0_3P_SS_63
1002
}
1001
AUSTER_ANSICHT
1002
{
1000
Det03
1002
}
  0
LINE
  5
64ED
330
20
100
AcDbEntity
  8
10000_FRONT
 62
     7
370
    50
100
AcDbLine
 10
271.5252263054119
 20
145.298892350231
 30
0.0
 11
271.5252263054119
 21
137.4988923502312
 31
0.0
1001
AUSTER_FOLIE
1002
{
1000
NSB01092_S0_3P_SS_63
1002
}
1001
AUSTER_ANSICHT
1002
{
1000
Det03
1002
}
  0
LINE
  5
64EE
330
20
100
AcDbEntity
  8
10000_FRONT
 62
     7
370
    50
100
AcDbLine
 10
264.1252263054114
 20
145.298892350231
 30
0.0
 11
264.1252263054114
 21
137.4988923502312
 31
0.0
1001
AUSTER_FOLIE
1002
{
1000
NSB01092_S0_3P_SS_63
1002
}
1001
AUSTER_ANSICHT
1002
{
1000
Det03
1002
}
  0
ARC
  5
64EF
330
20
100
AcDbEntity
  8
10000_FRONT
 62
     7
370
    50
100
AcDbCircle
 10
267.8252263054112
 20
141.7488923502308
 30
0.0
 40
2.099999999999965
100
AcDbArc
 50
0.0
 51
180.0
1001
AUSTER_FOLIE
1002
{
1000
NSB01092_S0_3P_SS_63
1002
}
1001
AUSTER_ANSICHT
1002
{
1000
Det03
1002
}
  0
ARC
  5
64F0
330
20
100
AcDbEntity
  8
10000_FRONT
 62
     7
370
    50
100
AcDbCircle
 10
264.9252263054115
 20
137.4988923502312
 30
0.0
 40
0.8000000000000111
100
AcDbArc
 50
180.0
 51
0.0
1001
AUSTER_FOLIE
1002
{
1000
NSB01092_S0_3P_SS_63
1002
}
1001
AUSTER_ANSICHT
1002
{
1000
Det03
1002
}
  0
ARC
  5
64F1
330
20
100
AcDbEntity
  8
10000_FRONT
 62
     7
370
    50
100
AcDbCircle
 10
270.7252263054118
 20
137.4988923502312
 30
0.0
 40
0.8000000000000111
100
AcDbArc
 50
180.0
 51
0.0
1001
AUSTER_FOLIE
1002
{
1000
NSB01092_S0_3P_SS_63
1002
}
1001
AUSTER_ANSICHT
1002
{
1000
Det03
1002
}
  0
LINE
  5
64F2
330
20
100
AcDbEntity
  8
10000_FRONT
 62
     7
370
    50
100
AcDbLine
 10
264.1252263054123
 20
145.298892350231
 30
0.0
 11
265.3252263054112
 21
146.4988923502308
 31
0.0
1001
AUSTER_FOLIE
1002
{
1000
NSB01092_S0_3P_SS_63
1002
}
1001
AUSTER_ANSICHT
1002
{
1000
Det03
1002
}
  0
LINE
  5
64F3
330
20
100
AcDbEntity
  8
10000_FRONT
 62
     7
370
    50
100
AcDbLine
 10
271.525226305411
 20
145.2988923502305
 30
0.0
 11
270.3252263054112
 21
146.4988923502308
 31
0.0
1001
AUSTER_FOLIE
1002
{
1000
NSB01092_S0_3P_SS_63
1002
}
1001
AUSTER_ANSICHT
1002
{
1000
Det03
1002
}
  0
POINT
  5
64F4
330
20
100
AcDbEntity
  8
10000_FRONT
 62
     7
370
    50
100
AcDbPoint
 10
286.8252263054112
 20
149.7489923302349
 30
0.0
1001
AUSTER_FOLIE
1002
{
1000
NSB01092_S0_3P_SS_63
1002
}
1001
AUSTER_ANSICHT
1002
{
1000
Det03
1002
}
  0
LINE
  5
64F5
330
20
100
AcDbEntity
  8
10000_FRONT
 62
     7
370
    50
100
AcDbLine
 10
284.7252263054118
 20
149.7489923302349
 30
0.0
 11
284.7252263054118
 21
146.4988923502308
 31
0.0
1001
AUSTER_FOLIE
1002
{
1000
NSB01092_S0_3P_SS_63
1002
}
1001
AUSTER_ANSICHT
1002
{
1000
Det03
1002
}
  0
LINE
  5
64F6
330
20
100
AcDbEntity
  8
10000_FRONT
 62
     7
370
    50
100
AcDbLine
 10
285.9252263054116
 20
145.298892350231
 30
0.0
 11
285.9252263054116
 21
137.4988923502312
 31
0.0
1001
AUSTER_FOLIE
1002
{
1000
NSB01092_S0_3P_SS_63
1002
}
1001
AUSTER_ANSICHT
1002
{
1000
Det03
1002
}
  0
ARC
  5
64F7
330
20
100
AcDbEntity
  8
10000_FRONT
 62
     7
370
    50
100
AcDbCircle
 10
282.2252263054117
 20
141.7488923502308
 30
0.0
 40
2.099999999999965
100
AcDbArc
 50
0.0
 51
180.0
1001
AUSTER_FOLIE
1002
{
1000
NSB01092_S0_3P_SS_63
1002
}
1001
AUSTER_ANSICHT
1002
{
1000
Det03
1002
}
  0
POINT
  5
64F8
330
20
100
AcDbEntity
  8
10000_FRONT
 62
     7
370
    50
100
AcDbPoint
 10
282.2252263054117
 20
143.8488923502307
 30
0.0
1001
AUSTER_FOLIE
1002
{
1000
NSB01092_S0_3P_SS_63
1002
}
1001
AUSTER_ANSICHT
1002
{
1000
Det03
1002
}
  0
ARC
  5
64F9
330
20
100
AcDbEntity
  8
10000_FRONT
 62
     7
370
    50
100
AcDbCircle
 10
285.1252263054114
 20
137.4988923502312
 30
0.0
 40
0.8000000000000111
100
AcDbArc
 50
180.0
 51
0.0
1001
AUSTER_FOLIE
1002
{
1000
NSB01092_S0_3P_SS_63
1002
}
1001
AUSTER_ANSICHT
1002
{
1000
Det03
1002
}
  0
LINE
  5
64FA
330
20
100
AcDbEntity
  8
10000_FRONT
 62
     7
370
    50
100
AcDbLine
 10
285.9252263054116
 20
145.2988923502305
 30
0.0
 11
284.7252263054118
 21
146.4988923502308
 31
0.0
1001
AUSTER_FOLIE
1002
{
1000
NSB01092_S0_3P_SS_63
1002
}
1001
AUSTER_ANSICHT
1002
{
1000
Det03
1002
}
  0
LINE
  5
64FB
330
20
100
AcDbEntity
  8
10000_FRONT
 62
     7
370
    50
100
AcDbLine
 10
286.8252263054112
 20
170.9066923302351
 30
0.0
 11
286.8252263054112
 21
149.7489923302349
 31
0.0
1001
AUSTER_ANSICHT
1002
{
1000
Det03
1002
}
1001
AUSTER_FOLIE
1002
{
1000
NSB01092_S0_3P_SS_63
1002
}
  0
ENDSEC
  0
SECTION
  2
OBJECTS
  0
DICTIONARY
  5
C
330
0
100
AcDbDictionary
281
     1
  3
ACAD_COLOR
350
1B
  3
ACAD_GROUP
350
D
  3
ACAD_LAYOUT
350
19
  3
ACAD_MATERIAL
350
1A
  3
ACAD_MLINESTYLE
350
16
  3
ACAD_PLOTSETTINGS
350
18
  3
ACAD_PLOTSTYLENAME
350
E
  3
ACDBHEADERROUNDTRIPXREC
350
6597
  3
AcDbVariableDictionary
350
6548
  3
DWGPROPS
350
6596
  0
DICTIONARY
  5
1B
102
{ACAD_REACTORS
330
C
102
}
330
C
100
AcDbDictionary
281
     1
  0
DICTIONARY
  5
D
102
{ACAD_REACTORS
330
C
102
}
330
C
100
AcDbDictionary
281
     1
  0
DICTIONARY
  5
19
102
{ACAD_REACTORS
330
C
102
}
330
C
100
AcDbDictionary
281
     1
  3
Layout1
350
1F
  3
Model
350
23
  0
DICTIONARY
  5
1A
102
{ACAD_REACTORS
330
C
102
}
330
C
100
AcDbDictionary
281
     1
  0
DICTIONARY
  5
16
102
{ACAD_REACTORS
330
C
102
}
330
C
100
AcDbDictionary
281
     1
  3
Standard
350
17
  0
DICTIONARY
  5
18
102
{ACAD_REACTORS
330
C
102
}
330
C
100
AcDbDictionary
281
     1
  0
ACDBDICTIONARYWDFLT
  5
E
102
{ACAD_REACTORS
330
C
102
}
330
C
100
AcDbDictionary
281
     1
  3
Normal
350
F
100
AcDbDictionaryWithDefault
340
F
  0
DICTIONARY
  5
6597
102
{ACAD_REACTORS
330
C
102
}
330
C
100
AcDbDictionary
281
     1
  3
COLORDICT
350
6599
  3
MATERIALDICT
350
6598
  0
DICTIONARY
  5
6548
102
{ACAD_REACTORS
330
C
102
}
330
C
100
AcDbDictionary
281
     1
  3
DIMASSOC
350
6549
  3
PROJECTNAME
350
654A
  0
XRECORD
  5
6596
102
{ACAD_REACTORS
330
C
102
}
330
C
100
AcDbXrecord
280
     1
  1
DWGPROPS COOKIE
  2

  3

  4

  6

  7

  8

  9

300
=
301
=
302
=
303
=
304
=
305
=
306
=
307
=
308
=
309
=
 40
1.024957349537036
 41
2452829.417613079
 42
2453406.484252465
  1

 90
        0
  0
LAYOUT
  5
1F
102
{ACAD_XDICTIONARY
360
659A
102
}
102
{ACAD_REACTORS
330
19
102
}
330
19
100
AcDbPlotSettings
  1

  2
HP LaserJet 5000 Series PS
  4

  6

 40
0.0
 41
0.0
 42
0.0
 43
0.0
 44
0.0
 45
0.0
 46
0.0
 47
0.0
 48
0.0
 49
0.0
140
0.0
141
0.0
142
1.0
143
1.0
 70
   688
 72
     0
 73
     0
 74
     5
  7
monochrome.ctb
 75
    16
147
1.0
148
0.0
149
0.0
100
AcDbLayout
  1
Layout1
 70
     1
 71
     1
 10
0.0
 20
0.0
 11
12.0
 21
9.0
 12
0.0
 22
0.0
 32
0.0
 14
1.000000000000000E+20
 24
1.000000000000000E+20
 34
1.000000000000000E+20
 15
-1.000000000000000E+20
 25
-1.000000000000000E+20
 35
-1.000000000000000E+20
146
0.0
 13
0.0
 23
0.0
 33
0.0
 16
1.0
 26
0.0
 36
0.0
 17
0.0
 27
1.0
 37
0.0
 76
     0
330
1C
  0
LAYOUT
  5
23
102
{ACAD_XDICTIONARY
360
659C
102
}
102
{ACAD_REACTORS
330
19
102
}
330
19
100
AcDbPlotSettings
  1

  2
\\AMBW779A\A_P00873 (Canon iR2200-3300 PCL6)
  4
A4
  6

 40
4.815416812896728
 41
4.815412044525146
 42
4.815414428710936
 43
4.8154296875
 44
209.9733276367186
 45
296.9259948730469
 46
0.0
 47
0.0
 48
0.0
 49
0.0
140
0.0
141
0.0
142
1.0
143
1.0
 70
 11952
 72
     1
 73
     1
 74
     1
  7
monochrome.ctb
 75
    16
147
1.0
148
-149.9826074948478
149
0.0090588108578231
100
AcDbLayout
  1
Model
 70
     1
 71
     0
 10
0.0
 20
0.0
 11
12.0
 21
9.0
 12
0.0
 22
0.0
 32
0.0
 14
0.0
 24
0.0
 34
0.0
 15
0.0
 25
0.0
 35
0.0
146
0.0
 13
0.0
 23
0.0
 33
0.0
 16
1.0
 26
0.0
 36
0.0
 17
0.0
 27
1.0
 37
0.0
 76
     0
330
20
  0
MLINESTYLE
  5
17
102
{ACAD_REACTORS
330
16
102
}
330
16
100
AcDbMlineStyle
  2
STANDARD
 70
     0
  3

 62
   256
 51
90.0
 52
90.0
 71
     2
 49
0.5
 62
   256
  6
BYLAYER
 49
-0.5
 62
   256
  6
BYLAYER
  0
ACDBPLACEHOLDER
  5
F
102
{ACAD_REACTORS
330
E
102
}
330
E
  0
XRECORD
  5
6599
102
{ACAD_REACTORS
330
6597
102
}
330
6597
100
AcDbXrecord
280
     1
340
1B
  0
XRECORD
  5
6598
102
{ACAD_REACTORS
330
6597
102
}
330
6597
100
AcDbXrecord
280
     1
340
1A
  0
DICTIONARYVAR
  5
6549
102
{ACAD_REACTORS
330
6548
102
}
330
6548
100
DictionaryVariables
280
     0
  1
1
  0
DICTIONARYVAR
  5
654A
102
{ACAD_REACTORS
330
6548
102
}
330
6548
100
DictionaryVariables
280
     0
  1

  0
DICTIONARY
  5
659A
330
1F
100
AcDbDictionary
280
     1
281
     1
  3
ACAD_XREC_ROUNDTRIP
360
659B
  0
DICTIONARY
  5
659C
330
23
100
AcDbDictionary
280
     1
281
     1
  3
ACAD_XREC_ROUNDTRIP
360
659D
  0
XRECORD
  5
659B
102
{ACAD_REACTORS
330
659A
102
}
330
659A
100
AcDbXrecord
280
     1
102
SHADEPLOT
 70
     0
102
SHADEPLOTRESLEVEL
 70
     2
102
SHADEPLOTCUSTOMDPI
 70
   300
  0
XRECORD
  5
659D
102
{ACAD_REACTORS
330
659C
102
}
330
659C
100
AcDbXrecord
280
     1
102
SHADEPLOT
 70
     1
102
SHADEPLOTRESLEVEL
 70
     2
102
SHADEPLOTCUSTOMDPI
 70
   300
  0
ENDSEC
  0
EOF
