  0
SECTION
  2
HEADER
  9
$ACADVER
  1
AC1015
  9
$ACADMAINTVER
 70
    20
  9
$DWGCODEPAGE
  3
ANSI_1252
  9
$INSBASE
 10
0.0
 20
0.0
 30
0.0
  9
$EXTMIN
 10
9.985351676546429
 20
-0.0075588683080241
 30
-0.0000076153084496
  9
$EXTMAX
 10
420.0064108427806
 20
270.0199142600136
 30
0.5000076269507634
  9
$LIMMIN
 10
0.0
 20
0.0
  9
$LIMMAX
 10
420.0
 20
297.0
  9
$ORTHOMODE
 70
     0
  9
$REGENMODE
 70
     1
  9
$FILLMODE
 70
     1
  9
$QTEXTMODE
 70
     0
  9
$MIRRTEXT
 70
     0
  9
$LTSCALE
 40
23.1
  9
$ATTMODE
 70
     1
  9
$TEXTSIZE
 40
0.2
  9
$TRACEWID
 40
0.05
  9
$TEXTSTYLE
  7
Standard
  9
$CLAYER
  8
10000_FRONT
  9
$CELTYPE
  6
CONTINUOUS
  9
$CECOLOR
 62
     7
  9
$CELTSCALE
 40
1.0
  9
$DISPSILH
 70
     0
  9
$DIMSCALE
 40
1.0
  9
$DIMASZ
 40
3.5
  9
$DIMEXO
 40
1.0
  9
$DIMDLI
 40
15.96
  9
$DIMRND
 40
0.0
  9
$DIMDLE
 40
0.0
  9
$DIMEXE
 40
7.559999999999997
  9
$DIMTP
 40
0.0
  9
$DIMTM
 40
0.0
  9
$DIMTXT
 40
0.18
  9
$DIMCEN
 40
3.779999999999998
  9
$DIMTSZ
 40
0.0
  9
$DIMTOL
 70
     0
  9
$DIMLIM
 70
     0
  9
$DIMTIH
 70
     1
  9
$DIMTOH
 70
     1
  9
$DIMSE1
 70
     0
  9
$DIMSE2
 70
     0
  9
$DIMTAD
 70
     0
  9
$DIMZIN
 70
     0
  9
$DIMBLK
  1

  9
$DIMASO
 70
     1
  9
$DIMSHO
 70
     1
  9
$DIMPOST
  1

  9
$DIMAPOST
  1

  9
$DIMALT
 70
     0
  9
$DIMALTD
 70
     2
  9
$DIMALTF
 40
25.4
  9
$DIMLFAC
 40
1.0
  9
$DIMTOFL
 70
     0
  9
$DIMTVP
 40
0.0
  9
$DIMTIX
 70
     0
  9
$DIMSOXD
 70
     0
  9
$DIMSAH
 70
     0
  9
$DIMBLK1
  1

  9
$DIMBLK2
  1

  9
$DIMSTYLE
  2
Standard
  9
$DIMCLRD
 70
     0
  9
$DIMCLRE
 70
     0
  9
$DIMCLRT
 70
     0
  9
$DIMTFAC
 40
1.0
  9
$DIMGAP
 40
0.09
  9
$DIMJUST
 70
     0
  9
$DIMSD1
 70
     0
  9
$DIMSD2
 70
     0
  9
$DIMTOLJ
 70
     1
  9
$DIMTZIN
 70
     0
  9
$DIMALTZ
 70
     0
  9
$DIMALTTZ
 70
     0
  9
$DIMUPT
 70
     0
  9
$DIMDEC
 70
     4
  9
$DIMTDEC
 70
     4
  9
$DIMALTU
 70
     2
  9
$DIMALTTD
 70
     2
  9
$DIMTXSTY
  7
Standard
  9
$DIMAUNIT
 70
     0
  9
$DIMADEC
 70
     0
  9
$DIMALTRND
 40
0.0
  9
$DIMAZIN
 70
     0
  9
$DIMDSEP
 70
    46
  9
$DIMATFIT
 70
     3
  9
$DIMFRAC
 70
     0
  9
$DIMLDRBLK
  1

  9
$DIMLUNIT
 70
     2
  9
$DIMLWD
 70
    -2
  9
$DIMLWE
 70
    -2
  9
$DIMTMOVE
 70
     0
  9
$LUNITS
 70
     2
  9
$LUPREC
 70
     4
  9
$SKETCHINC
 40
0.1
  9
$FILLETRAD
 40
0.0
  9
$AUNITS
 70
     0
  9
$AUPREC
 70
     0
  9
$MENU
  1
.
  9
$ELEVATION
 40
0.0
  9
$PELEVATION
 40
0.0
  9
$THICKNESS
 40
0.0
  9
$LIMCHECK
 70
     0
  9
$CHAMFERA
 40
0.0
  9
$CHAMFERB
 40
0.0
  9
$CHAMFERC
 40
0.0
  9
$CHAMFERD
 40
0.0
  9
$SKPOLY
 70
     0
  9
$TDCREATE
 40
2452829.417613079
  9
$TDUCREATE
 40
2452829.375946412
  9
$TDUPDATE
 40
2454082.521074132
  9
$TDUUPDATE
 40
2454082.479407465
  9
$TDINDWG
 40
1.7357251505
  9
$TDUSRTIMER
 40
1.7357199190
  9
$USRTIMER
 70
     1
  9
$ANGBASE
 50
0.0
  9
$ANGDIR
 70
     0
  9
$PDMODE
 70
     0
  9
$PDSIZE
 40
0.0
  9
$PLINEWID
 40
0.0
  9
$SPLFRAME
 70
     0
  9
$SPLINETYPE
 70
     6
  9
$SPLINESEGS
 70
     8
  9
$HANDSEED
  5
24790
  9
$SURFTAB1
 70
     6
  9
$SURFTAB2
 70
     6
  9
$SURFTYPE
 70
     6
  9
$SURFU
 70
     6
  9
$SURFV
 70
     6
  9
$UCSBASE
  2

  9
$UCSNAME
  2

  9
$UCSORG
 10
0.0
 20
0.0
 30
0.0
  9
$UCSXDIR
 10
1.0
 20
0.0
 30
0.0
  9
$UCSYDIR
 10
0.0
 20
1.0
 30
0.0
  9
$UCSORTHOREF
  2

  9
$UCSORTHOVIEW
 70
     0
  9
$UCSORGTOP
 10
0.0
 20
0.0
 30
0.0
  9
$UCSORGBOTTOM
 10
0.0
 20
0.0
 30
0.0
  9
$UCSORGLEFT
 10
0.0
 20
0.0
 30
0.0
  9
$UCSORGRIGHT
 10
0.0
 20
0.0
 30
0.0
  9
$UCSORGFRONT
 10
0.0
 20
0.0
 30
0.0
  9
$UCSORGBACK
 10
0.0
 20
0.0
 30
0.0
  9
$PUCSBASE
  2

  9
$PUCSNAME
  2

  9
$PUCSORG
 10
0.0
 20
0.0
 30
0.0
  9
$PUCSXDIR
 10
1.0
 20
0.0
 30
0.0
  9
$PUCSYDIR
 10
0.0
 20
1.0
 30
0.0
  9
$PUCSORTHOREF
  2

  9
$PUCSORTHOVIEW
 70
     0
  9
$PUCSORGTOP
 10
0.0
 20
0.0
 30
0.0
  9
$PUCSORGBOTTOM
 10
0.0
 20
0.0
 30
0.0
  9
$PUCSORGLEFT
 10
0.0
 20
0.0
 30
0.0
  9
$PUCSORGRIGHT
 10
0.0
 20
0.0
 30
0.0
  9
$PUCSORGFRONT
 10
0.0
 20
0.0
 30
0.0
  9
$PUCSORGBACK
 10
0.0
 20
0.0
 30
0.0
  9
$USERI1
 70
     0
  9
$USERI2
 70
     0
  9
$USERI3
 70
     0
  9
$USERI4
 70
     0
  9
$USERI5
 70
     0
  9
$USERR1
 40
0.0
  9
$USERR2
 40
0.0
  9
$USERR3
 40
0.0
  9
$USERR4
 40
0.0
  9
$USERR5
 40
0.0
  9
$WORLDVIEW
 70
     1
  9
$SHADEDGE
 70
     3
  9
$SHADEDIF
 70
    70
  9
$TILEMODE
 70
     1
  9
$MAXACTVP
 70
    64
  9
$PINSBASE
 10
0.0
 20
0.0
 30
0.0
  9
$PLIMCHECK
 70
     0
  9
$PEXTMIN
 10
1.000000000000000E+20
 20
1.000000000000000E+20
 30
1.000000000000000E+20
  9
$PEXTMAX
 10
-1.000000000000000E+20
 20
-1.000000000000000E+20
 30
-1.000000000000000E+20
  9
$PLIMMIN
 10
0.0
 20
0.0
  9
$PLIMMAX
 10
12.0
 20
9.0
  9
$UNITMODE
 70
     0
  9
$VISRETAIN
 70
     1
  9
$PLINEGEN
 70
     0
  9
$PSLTSCALE
 70
     1
  9
$TREEDEPTH
 70
  3020
  9
$CMLSTYLE
  2
Standard
  9
$CMLJUST
 70
     0
  9
$CMLSCALE
 40
1.0
  9
$PROXYGRAPHICS
 70
     1
  9
$MEASUREMENT
 70
     0
  9
$CELWEIGHT
370
    13
  9
$ENDCAPS
280
     0
  9
$JOINSTYLE
280
     0
  9
$LWDISPLAY
290
     0
  9
$INSUNITS
 70
     0
  9
$HYPERLINKBASE
  1

  9
$STYLESHEET
  1
MONOCHROME.CTB
  9
$XEDIT
290
     1
  9
$CEPSNTYPE
380
     0
  9
$PSTYLEMODE
290
     1
  9
$FINGERPRINTGUID
  2
{D88032C4-1185-41D3-97DD-7638FCF99E3F}
  9
$VERSIONGUID
  2
{4D14CB0B-9BD0-410A-866B-B242D1AD2973}
  9
$EXTNAMES
290
     1
  9
$PSVPSCALE
 40
0.0
  9
$OLESTARTUP
290
     0
  0
ENDSEC
  0
SECTION
  2
CLASSES
  0
CLASS
  1
ACDBDICTIONARYWDFLT
  2
AcDbDictionaryWithDefault
  3
ObjectDBX Classes
 90
        0
280
     0
281
     0
  0
CLASS
  1
DICTIONARYVAR
  2
AcDbDictionaryVar
  3
ObjectDBX Classes
 90
        0
280
     0
281
     0
  0
CLASS
  1
ACDBPLACEHOLDER
  2
AcDbPlaceHolder
  3
ObjectDBX Classes
 90
        0
280
     0
281
     0
  0
CLASS
  1
LAYOUT
  2
AcDbLayout
  3
ObjectDBX Classes
 90
        0
280
     0
281
     0
  0
CLASS
  1
MATERIAL
  2
AcDbMaterial
  3
ObjectDBX Classes
 90
     1153
280
     0
281
     0
  0
CLASS
  1
VISUALSTYLE
  2
AcDbVisualStyle
  3
ObjectDBX Classes
 90
     4095
280
     0
281
     0
  0
CLASS
  1
TABLESTYLE
  2
AcDbTableStyle
  3
ObjectDBX Classes
 90
     4095
280
     0
281
     0
  0
CLASS
  1
SORTENTSTABLE
  2
AcDbSortentsTable
  3
ObjectDBX Classes
 90
        0
280
     0
281
     0
  0
ENDSEC
  0
SECTION
  2
TABLES
  0
TABLE
  2
VPORT
  5
8
102
{ACAD_XDICTIONARY
360
2439F
102
}
330
0
100
AcDbSymbolTable
 70
     1
  0
VPORT
  5
3C40
330
8
100
AcDbSymbolTableRecord
100
AcDbViewportTableRecord
  2
*Active
 70
     0
 10
0.0
 20
0.0
 11
1.0
 21
1.0
 12
214.9958812596636
 22
135.0061776958528
 13
0.0
 23
0.0
 14
1.0
 24
1.0
 15
0.0
 25
0.0
 16
0.0
 26
0.0
 36
1.0
 17
0.0
 27
0.0
 37
0.0
 40
272.1370627621367
 41
1.594524119947848
 42
50.0
 43
0.0
 44
0.0
 50
0.0
 51
0.0
 71
     0
 72
   100
 73
     1
 74
     1
 75
     0
 76
     0
 77
     0
 78
     0
281
     0
 65
     1
110
0.0
120
0.0
130
0.0
111
1.0
121
0.0
131
0.0
112
0.0
122
1.0
132
0.0
 79
     0
146
0.0
  0
ENDTAB
  0
TABLE
  2
LTYPE
  5
5
330
0
100
AcDbSymbolTable
 70
     2
  0
LTYPE
  5
13
330
5
100
AcDbSymbolTableRecord
100
AcDbLinetypeTableRecord
  2
ByBlock
 70
     0
  3

 72
    65
 73
     0
 40
0.0
  0
LTYPE
  5
14
330
5
100
AcDbSymbolTableRecord
100
AcDbLinetypeTableRecord
  2
ByLayer
 70
     0
  3

 72
    65
 73
     0
 40
0.0
  0
LTYPE
  5
15
330
5
100
AcDbSymbolTableRecord
100
AcDbLinetypeTableRecord
  2
CONTINUOUS
 70
     0
  3
Solid line
 72
    65
 73
     0
 40
0.0
  0
LTYPE
  5
26
330
5
100
AcDbSymbolTableRecord
100
AcDbLinetypeTableRecord
  2
CENTER
 70
     0
  3
____ _ ____ _ ____ _ ____ _ ____ _ ____ _ ____
 72
    65
 73
     4
 40
0.6
 49
0.375
 74
     0
 49
-0.075
 74
     0
 49
0.075
 74
     0
 49
-0.075
 74
     0
  0
ENDTAB
  0
TABLE
  2
LAYER
  5
2
102
{ACAD_XDICTIONARY
360
3E7E
102
}
330
0
100
AcDbSymbolTable
 70
     8
  0
LAYER
  5
10
330
2
100
AcDbSymbolTableRecord
100
AcDbLayerTableRecord
  2
0
 70
     0
 62
     7
  6
CONTINUOUS
370
    -3
390
F
  0
LAYER
  5
1D8
330
2
100
AcDbSymbolTableRecord
100
AcDbLayerTableRecord
  2
Defpoints
 70
     0
 62
     7
  6
CONTINUOUS
290
     0
370
    -3
390
F
  0
LAYER
  5
1D9
330
2
100
AcDbSymbolTableRecord
100
AcDbLayerTableRecord
  2
91000_TIP
 70
     0
 62
     7
  6
CONTINUOUS
370
    -3
390
F
  0
LAYER
  5
1DA
330
2
100
AcDbSymbolTableRecord
100
AcDbLayerTableRecord
  2
11000_Left
 70
     0
 62
     7
  6
CONTINUOUS
370
    -3
390
F
  0
LAYER
  5
1DB
330
2
100
AcDbSymbolTableRecord
100
AcDbLayerTableRecord
  2
10000_FRONT
 70
     0
 62
     7
  6
CONTINUOUS
370
    -3
390
F
  0
LAYER
  5
1DC
330
2
100
AcDbSymbolTableRecord
100
AcDbLayerTableRecord
  2
10100_FRONT_DIM
 70
     0
 62
     7
  6
CONTINUOUS
370
    -3
390
F
  0
LAYER
  5
1DD
330
2
100
AcDbSymbolTableRecord
100
AcDbLayerTableRecord
  2
90000_FRAME
 70
     0
 62
     7
  6
CONTINUOUS
370
    -3
390
F
  0
LAYER
  5
1DE
330
2
100
AcDbSymbolTableRecord
100
AcDbLayerTableRecord
  2
11100_LEFT_DIM
 70
     0
 62
     7
  6
CONTINUOUS
370
    -3
390
F
  0
ENDTAB
  0
TABLE
  2
STYLE
  5
3
330
0
100
AcDbSymbolTable
 70
     1
  0
STYLE
  5
11
330
3
100
AcDbSymbolTableRecord
100
AcDbTextStyleTableRecord
  2
Standard
 70
     0
 40
0.0
 41
1.0
 50
0.0
 71
     0
 42
0.2
  3
txt
  4

  0
ENDTAB
  0
TABLE
  2
VIEW
  5
6
330
0
100
AcDbSymbolTable
 70
     0
  0
ENDTAB
  0
TABLE
  2
UCS
  5
7
330
0
100
AcDbSymbolTable
 70
     0
  0
ENDTAB
  0
TABLE
  2
APPID
  5
9
330
0
100
AcDbSymbolTable
 70
     4
  0
APPID
  5
12
330
9
100
AcDbSymbolTableRecord
100
AcDbRegAppTableRecord
  2
ACAD
 70
     0
  0
APPID
  5
1E8
330
9
100
AcDbSymbolTableRecord
100
AcDbRegAppTableRecord
  2
AUSTER_ANSICHT
 70
     0
  0
APPID
  5
1E9
330
9
100
AcDbSymbolTableRecord
100
AcDbRegAppTableRecord
  2
AUSTER_FOLIE
 70
     0
  0
APPID
  5
3E77
330
9
100
AcDbSymbolTableRecord
100
AcDbRegAppTableRecord
  2
ACAD_EXEMPT_FROM_CAD_STANDARDS
 70
     0
  0
ENDTAB
  0
TABLE
  2
DIMSTYLE
  5
A
330
0
100
AcDbSymbolTable
 70
     2
100
AcDbDimStyleTable
 71
     2
340
BA
340
1E7
  0
DIMSTYLE
105
BA
330
A
100
AcDbSymbolTableRecord
100
AcDbDimStyleTableRecord
  2
Standard
 70
     0
340
11
  0
DIMSTYLE
105
1E7
102
{ACAD_REACTORS
330
244A7
330
244A8
330
24559
330
2455A
330
24457
330
245B3
330
24456
330
24600
330
24455
102
}
330
A
100
AcDbSymbolTableRecord
100
AcDbDimStyleTableRecord
  2
DSTYLE1
 70
     0
 41
3.0
 42
0.0
 44
1.0
 73
     0
 74
     0
 77
     1
 78
     3
140
2.5
143
0.039370079
147
1.0
271
     3
272
     3
274
     0
279
     2
340
11
  0
ENDTAB
  0
TABLE
  2
BLOCK_RECORD
  5
1
330
0
100
AcDbSymbolTable
 70
    10
  0
BLOCK_RECORD
  5
20
102
{ACAD_XDICTIONARY
360
3C6A
102
}
330
1
100
AcDbSymbolTableRecord
100
AcDbBlockTableRecord
  2
*Model_Space
340
23
  0
BLOCK_RECORD
  5
1C
330
1
100
AcDbSymbolTableRecord
100
AcDbBlockTableRecord
  2
*Paper_Space
340
1F
  0
BLOCK_RECORD
  5
3A
330
1
100
AcDbSymbolTableRecord
100
AcDbBlockTableRecord
  2
SIEMENS_OUTLINE_BL0
340
0
102
{BLKREFS
331
AA
102
}
  0
BLOCK_RECORD
  5
24458
330
1
100
AcDbSymbolTableRecord
100
AcDbBlockTableRecord
  2
*D1
340
0
  0
BLOCK_RECORD
  5
24465
330
1
100
AcDbSymbolTableRecord
100
AcDbBlockTableRecord
  2
*D2
340
0
  0
BLOCK_RECORD
  5
24472
330
1
100
AcDbSymbolTableRecord
100
AcDbBlockTableRecord
  2
*D3
340
0
  0
BLOCK_RECORD
  5
244A9
330
1
100
AcDbSymbolTableRecord
100
AcDbBlockTableRecord
  2
*D4
340
0
  0
BLOCK_RECORD
  5
244B8
330
1
100
AcDbSymbolTableRecord
100
AcDbBlockTableRecord
  2
*D5
340
0
  0
BLOCK_RECORD
  5
2455B
330
1
100
AcDbSymbolTableRecord
100
AcDbBlockTableRecord
  2
*D6
340
0
  0
BLOCK_RECORD
  5
24568
330
1
100
AcDbSymbolTableRecord
100
AcDbBlockTableRecord
  2
*D7
340
0
  0
BLOCK_RECORD
  5
245B4
330
1
100
AcDbSymbolTableRecord
100
AcDbBlockTableRecord
  2
*D8
340
0
  0
BLOCK_RECORD
  5
24601
330
1
100
AcDbSymbolTableRecord
100
AcDbBlockTableRecord
  2
*D9
340
0
  0
ENDTAB
  0
ENDSEC
  0
SECTION
  2
BLOCKS
  0
BLOCK
  5
21
330
20
100
AcDbEntity
  8
0
100
AcDbBlockBegin
  2
*Model_Space
 70
     0
 10
0.0
 20
0.0
 30
0.0
  3
*Model_Space
  1

  0
ENDBLK
  5
22
330
20
100
AcDbEntity
  8
0
100
AcDbBlockEnd
  0
BLOCK
  5
1D
330
1C
100
AcDbEntity
 67
     1
  8
0
100
AcDbBlockBegin
  2
*Paper_Space
 70
     0
 10
0.0
 20
0.0
 30
0.0
  3
*Paper_Space
  1

  0
ENDBLK
  5
1E
330
1C
100
AcDbEntity
 67
     1
  8
0
100
AcDbBlockEnd
  0
BLOCK
  5
3B
330
3A
100
AcDbEntity
  8
0
  6
Continuous
 62
     7
100
AcDbBlockBegin
  2
SIEMENS_OUTLINE_BL0
 70
     0
 10
0.0
 20
0.0
 30
0.0
  3
SIEMENS_OUTLINE_BL0
  1

  0
LINE
  5
3C
330
3A
100
AcDbEntity
  8
0
  6
Continuous
 62
     7
100
AcDbLine
 10
289.1235341257
 20
21.4969115175
 30
0.0
 11
289.1235341257
 21
16.7436424342
 31
0.0
  0
LINE
  5
3D
330
3A
100
AcDbEntity
  8
0
  6
Continuous
 62
     7
100
AcDbLine
 10
290.5495148507
 20
21.4969115175
 30
0.0
 11
290.5495148507
 21
16.7436424342
 31
0.0
  0
LINE
  5
3E
330
3A
100
AcDbEntity
  8
0
  6
Continuous
 62
     7
100
AcDbLine
 10
289.1235341257
 20
16.7436424342
 30
0.0
 11
290.5495148507
 21
16.7436424342
 31
0.0
  0
LINE
  5
3F
330
3A
100
AcDbEntity
  8
0
  6
Continuous
 62
     7
100
AcDbLine
 10
289.1235341257
 20
21.4969115175
 30
0.0
 11
290.5495148507
 21
21.4969115175
 31
0.0
  0
LINE
  5
40
330
3A
100
AcDbEntity
  8
0
  6
Continuous
 62
     7
100
AcDbLine
 10
291.6427667399
 20
21.4969115175
 30
0.0
 11
291.6427667399
 21
16.7436424342
 31
0.0
  0
LINE
  5
41
330
3A
100
AcDbEntity
  8
0
  6
Continuous
 62
     7
100
AcDbLine
 10
291.6427667399
 20
16.7436424342
 30
0.0
 11
295.2077185523
 21
16.7436424342
 31
0.0
  0
LINE
  5
42
330
3A
100
AcDbEntity
  8
0
  6
Continuous
 62
     7
100
AcDbLine
 10
295.2077185523
 20
17.64676356
 30
0.0
 11
293.021214774
 21
17.64676356
 31
0.0
  0
LINE
  5
43
330
3A
100
AcDbEntity
  8
0
  6
Continuous
 62
     7
100
AcDbLine
 10
295.2077185523
 20
17.64676356
 30
0.0
 11
295.2077185523
 21
16.7436424342
 31
0.0
  0
LINE
  5
44
330
3A
100
AcDbEntity
  8
0
  6
Continuous
 62
     7
100
AcDbLine
 10
295.1601858615
 20
21.4969115175
 30
0.0
 11
291.6427667399
 21
21.4969115175
 31
0.0
  0
LINE
  5
45
330
3A
100
AcDbEntity
  8
0
  6
Continuous
 62
     7
100
AcDbLine
 10
295.1601858615
 20
20.6175567371
 30
0.0
 11
293.021214774
 21
20.6175567371
 31
0.0
  0
LINE
  5
46
330
3A
100
AcDbEntity
  8
0
  6
Continuous
 62
     7
100
AcDbLine
 10
295.1601858615
 20
21.4969115175
 30
0.0
 11
295.1601858615
 21
20.6175567371
 31
0.0
  0
LINE
  5
47
330
3A
100
AcDbEntity
  8
0
  6
Continuous
 62
     7
100
AcDbLine
 10
294.8749897165
 20
18.7637817946
 30
0.0
 11
293.021214774
 21
18.7637817946
 31
0.0
  0
LINE
  5
48
330
3A
100
AcDbEntity
  8
0
  6
Continuous
 62
     7
100
AcDbLine
 10
294.8749897165
 20
19.5480711933
 30
0.0
 11
294.8749897165
 21
18.7637817946
 31
0.0
  0
LINE
  5
49
330
3A
100
AcDbEntity
  8
0
  6
Continuous
 62
     7
100
AcDbLine
 10
294.8749897165
 20
19.5480711933
 30
0.0
 11
293.021214774
 21
19.5480711933
 31
0.0
  0
LINE
  5
4A
330
3A
100
AcDbEntity
  8
0
  6
Continuous
 62
     7
100
AcDbLine
 10
293.021214774
 20
20.6175567371
 30
0.0
 11
293.021214774
 21
19.5480711933
 31
0.0
  0
LINE
  5
4B
330
3A
100
AcDbEntity
  8
0
  6
Continuous
 62
     7
100
AcDbLine
 10
293.021214774
 20
18.7637817946
 30
0.0
 11
293.021214774
 21
17.64676356
 31
0.0
  0
LINE
  5
4C
330
3A
100
AcDbEntity
  8
0
  6
Continuous
 62
     7
100
AcDbLine
 10
296.0157742965
 20
16.7436424342
 30
0.0
 11
296.0157742965
 21
21.4969115175
 31
0.0
  0
LINE
  5
4D
330
3A
100
AcDbEntity
  8
0
  6
Continuous
 62
     7
100
AcDbLine
 10
296.0157742965
 20
16.7436424342
 30
0.0
 11
296.9664281131
 21
16.7436424342
 31
0.0
  0
LINE
  5
4E
330
3A
100
AcDbEntity
  8
0
  6
Continuous
 62
     7
100
AcDbLine
 10
301.8622952689
 20
21.4969115175
 30
0.0
 11
301.8622952689
 21
16.7436424342
 31
0.0
  0
LINE
  5
4F
330
3A
100
AcDbEntity
  8
0
  6
Continuous
 62
     7
100
AcDbLine
 10
301.8622952689
 20
16.7436424342
 30
0.0
 11
300.4838472348
 21
16.7436424342
 31
0.0
  0
LINE
  5
50
330
3A
100
AcDbEntity
  8
0
  6
Continuous
 62
     7
100
AcDbLine
 10
298.2973434565
 20
16.6961097434
 30
0.0
 11
299.1529318914
 21
16.6961097434
 31
0.0
  0
LINE
  5
51
330
3A
100
AcDbEntity
  8
0
  6
Continuous
 62
     7
100
AcDbLine
 10
298.2973434565
 20
16.6961097434
 30
0.0
 11
296.9664281131
 21
19.7857346475
 31
0.0
  0
LINE
  5
52
330
3A
100
AcDbEntity
  8
0
  6
Continuous
 62
     7
100
AcDbLine
 10
296.9664281131
 20
16.7436424342
 30
0.0
 11
296.9664281131
 21
19.7857346475
 31
0.0
  0
LINE
  5
53
330
3A
100
AcDbEntity
  8
0
  6
Continuous
 62
     7
100
AcDbLine
 10
300.4838472348
 20
19.8332673383
 30
0.0
 11
299.1529318914
 21
16.6961097434
 31
0.0
  0
LINE
  5
54
330
3A
100
AcDbEntity
  8
0
  6
Continuous
 62
     7
100
AcDbLine
 10
297.7269511665
 20
21.4969115175
 30
0.0
 11
296.0157742965
 21
21.4969115175
 31
0.0
  0
LINE
  5
55
330
3A
100
AcDbEntity
  8
0
  6
Continuous
 62
     7
100
AcDbLine
 10
301.8622952689
 20
21.4969115175
 30
0.0
 11
300.1511183989
 21
21.4969115175
 31
0.0
  0
LINE
  5
56
330
3A
100
AcDbEntity
  8
0
  6
Continuous
 62
     7
100
AcDbLine
 10
297.7269511665
 20
21.4969115175
 30
0.0
 11
298.9628011281
 21
18.5974173767
 31
0.0
  0
LINE
  5
57
330
3A
100
AcDbEntity
  8
0
  6
Continuous
 62
     7
100
AcDbLine
 10
300.1511183989
 20
21.4969115175
 30
0.0
 11
298.9628011281
 21
18.5974173767
 31
0.0
  0
LINE
  5
58
330
3A
100
AcDbEntity
  8
0
  6
Continuous
 62
     7
100
AcDbLine
 10
300.4838472348
 20
19.8332673383
 30
0.0
 11
300.4838472348
 21
16.7436424342
 31
0.0
  0
LINE
  5
59
330
3A
100
AcDbEntity
  8
0
  6
Continuous
 62
     7
100
AcDbLine
 10
302.9555471581
 20
21.4969115175
 30
0.0
 11
302.9555471581
 21
16.7436424342
 31
0.0
  0
LINE
  5
5A
330
3A
100
AcDbEntity
  8
0
  6
Continuous
 62
     7
100
AcDbLine
 10
302.9555471581
 20
16.7436424342
 30
0.0
 11
306.5204989705
 21
16.7436424342
 31
0.0
  0
LINE
  5
5B
330
3A
100
AcDbEntity
  8
0
  6
Continuous
 62
     7
100
AcDbLine
 10
306.5204989705
 20
17.64676356
 30
0.0
 11
304.3339951922
 21
17.64676356
 31
0.0
  0
LINE
  5
5C
330
3A
100
AcDbEntity
  8
0
  6
Continuous
 62
     7
100
AcDbLine
 10
306.5204989705
 20
17.64676356
 30
0.0
 11
306.5204989705
 21
16.7436424342
 31
0.0
  0
LINE
  5
5D
330
3A
100
AcDbEntity
  8
0
  6
Continuous
 62
     7
100
AcDbLine
 10
306.4729662797
 20
21.4969115175
 30
0.0
 11
302.9555471581
 21
21.4969115175
 31
0.0
  0
LINE
  5
5E
330
3A
100
AcDbEntity
  8
0
  6
Continuous
 62
     7
100
AcDbLine
 10
306.4729662797
 20
20.6175567371
 30
0.0
 11
304.3339951922
 21
20.6175567371
 31
0.0
  0
LINE
  5
5F
330
3A
100
AcDbEntity
  8
0
  6
Continuous
 62
     7
100
AcDbLine
 10
306.4729662797
 20
21.4969115175
 30
0.0
 11
306.4729662797
 21
20.6175567371
 31
0.0
  0
LINE
  5
60
330
3A
100
AcDbEntity
  8
0
  6
Continuous
 62
     7
100
AcDbLine
 10
306.1877701347
 20
18.7637817946
 30
0.0
 11
304.3339951922
 21
18.7637817946
 31
0.0
  0
LINE
  5
61
330
3A
100
AcDbEntity
  8
0
  6
Continuous
 62
     7
100
AcDbLine
 10
306.1877701347
 20
19.5480711933
 30
0.0
 11
306.1877701347
 21
18.7637817946
 31
0.0
  0
LINE
  5
62
330
3A
100
AcDbEntity
  8
0
  6
Continuous
 62
     7
100
AcDbLine
 10
306.1877701347
 20
19.5480711933
 30
0.0
 11
304.3339951922
 21
19.5480711933
 31
0.0
  0
LINE
  5
63
330
3A
100
AcDbEntity
  8
0
  6
Continuous
 62
     7
100
AcDbLine
 10
304.3339951922
 20
20.6175567371
 30
0.0
 11
304.3339951922
 21
19.5480711933
 31
0.0
  0
LINE
  5
64
330
3A
100
AcDbEntity
  8
0
  6
Continuous
 62
     7
100
AcDbLine
 10
304.3339951922
 20
18.7637817946
 30
0.0
 11
304.3339951922
 21
17.64676356
 31
0.0
  0
LINE
  5
65
330
3A
100
AcDbEntity
  8
0
  6
Continuous
 62
     7
100
AcDbLine
 10
307.3047883693
 20
16.7436424342
 30
0.0
 11
307.3047883693
 21
21.4969115175
 31
0.0
  0
LINE
  5
66
330
3A
100
AcDbEntity
  8
0
  6
Continuous
 62
     7
100
AcDbLine
 10
311.4876651625
 20
21.4969115175
 30
0.0
 11
311.4876651625
 21
16.7436424342
 31
0.0
  0
LINE
  5
67
330
3A
100
AcDbEntity
  8
0
  6
Continuous
 62
     7
100
AcDbLine
 10
307.3047883693
 20
16.7436424342
 30
0.0
 11
308.2554421859
 21
16.7436424342
 31
0.0
  0
LINE
  5
68
330
3A
100
AcDbEntity
  8
0
  6
Continuous
 62
     7
100
AcDbLine
 10
311.4876651625
 20
21.4969115175
 30
0.0
 11
310.5370113459
 21
21.4969115175
 31
0.0
  0
LINE
  5
69
330
3A
100
AcDbEntity
  8
0
  6
Continuous
 62
     7
100
AcDbLine
 10
308.8496008213
 20
21.4969115175
 30
0.0
 11
307.3047883693
 21
21.4969115175
 31
0.0
  0
LINE
  5
6A
330
3A
100
AcDbEntity
  8
0
  6
Continuous
 62
     7
100
AcDbLine
 10
311.4876651625
 20
16.7436424342
 30
0.0
 11
309.9666190559
 21
16.7436424342
 31
0.0
  0
LINE
  5
6B
330
3A
100
AcDbEntity
  8
0
  6
Continuous
 62
     7
100
AcDbLine
 10
309.9666190559
 20
16.7436424342
 30
0.0
 11
308.2554421859
 21
19.7857346475
 31
0.0
  0
LINE
  5
6C
330
3A
100
AcDbEntity
  8
0
  6
Continuous
 62
     7
100
AcDbLine
 10
308.8496008213
 20
21.4969115175
 30
0.0
 11
310.5370113459
 21
18.5498846858
 31
0.0
  0
LINE
  5
6D
330
3A
100
AcDbEntity
  8
0
  6
Continuous
 62
     7
100
AcDbLine
 10
310.5370113459
 20
21.4969115175
 30
0.0
 11
310.5370113459
 21
18.5498846858
 31
0.0
  0
LINE
  5
6E
330
3A
100
AcDbEntity
  8
0
  6
Continuous
 62
     7
100
AcDbLine
 10
308.2554421859
 20
16.7436424342
 30
0.0
 11
308.2554421859
 21
19.7857346475
 31
0.0
  0
LINE
  5
6F
330
3A
100
AcDbEntity
  8
0
  6
Continuous
 62
     7
100
AcDbLine
 10
312.2957209067
 20
16.8387078159
 30
0.0
 11
312.2957209067
 21
17.7893616325
 31
0.0
  0
LINE
  5
70
330
3A
100
AcDbEntity
  8
0
  6
Continuous
 62
     7
100
AcDbLine
 10
315.623009265
 20
20.49872501
 30
0.0
 11
315.623009265
 21
21.4493788266
 31
0.0
  0
ARC
  5
71
330
3A
100
AcDbEntity
  8
0
  6
Continuous
 62
     7
100
AcDbCircle
 10
314.0003620317
 20
18.7008009792
 30
0.0
 40
1.111619360599997
100
AcDbArc
 50
277.7099956934
 51
295.6884927746
  0
ARC
  5
72
330
3A
100
AcDbEntity
  8
0
  6
Continuous
 62
     7
100
AcDbCircle
 10
314.2846720145
 20
17.9759752156
 30
0.0
 40
0.3401689265
100
AcDbArc
 50
305.503221255
 51
72.46528985229999
  0
ARC
  5
73
330
3A
100
AcDbEntity
  8
0
  6
Continuous
 62
     7
100
AcDbCircle
 10
313.7186782063
 20
21.3776821252
 30
0.0
 40
4.756794641099999
100
AcDbArc
 50
252.5939200548001
 51
280.9816604256
  0
ARC
  5
74
330
3A
100
AcDbEntity
  8
0
  6
Continuous
 62
     7
100
AcDbCircle
 10
314.1735135694
 20
18.7596683887
 30
0.0
 40
2.100726595299998
100
AcDbArc
 50
282.405835852
 51
311.8644433928
  0
ARC
  5
75
330
3A
100
AcDbEntity
  8
0
  6
Continuous
 62
     7
100
AcDbCircle
 10
313.8999492223
 20
20.3680101102
 30
0.0
 40
0.3029626476
100
AcDbArc
 50
154.4400348282
 51
221.8201698801
  0
ARC
  5
76
330
3A
100
AcDbEntity
  8
0
  6
Continuous
 62
     7
100
AcDbCircle
 10
313.9791703737
 20
20.2887889588
 30
0.0
 40
0.4103089737
100
AcDbArc
 50
102.8287828681
 51
149.2259639003
  0
ARC
  5
77
330
3A
100
AcDbEntity
  8
0
  6
Continuous
 62
     7
100
AcDbCircle
 10
314.3961972093
 20
18.546453629
 30
0.0
 40
2.201836557
100
AcDbArc
 50
84.0400061857
 51
103.3427657870999
  0
ARC
  5
78
330
3A
100
AcDbEntity
  8
0
  6
Continuous
 62
     7
100
AcDbCircle
 10
314.0552333846
 20
16.1290897051
 30
0.0
 40
4.642373736499997
100
AcDbArc
 50
70.2625858546
 51
82.95241863799999
  0
ARC
  5
79
330
3A
100
AcDbEntity
  8
0
  6
Continuous
 62
     7
100
AcDbCircle
 10
313.5412151824001
 20
20.8007125947
 30
0.0
 40
3.258755990899997
100
AcDbArc
 50
247.5300206145
 51
280.7579522143
  0
ARC
  5
7A
330
3A
100
AcDbEntity
  8
0
  6
Continuous
 62
     7
100
AcDbCircle
 10
307.1562487104
 20
2.5491926343
 30
0.0
 40
17.3316084133
100
AcDbArc
 50
65.34146746500001
 51
67.39977707359999
  0
ARC
  5
7B
330
3A
100
AcDbEntity
  8
0
  6
Continuous
 62
     7
100
AcDbCircle
 10
317.9521111158
 20
28.3416189974
 30
0.0
 40
10.6291642039
100
AcDbArc
 50
242.8620101252001
 51
247.1042029186
  0
ARC
  5
7C
330
3A
100
AcDbEntity
  8
0
  6
Continuous
 62
     7
100
AcDbCircle
 10
314.0972098893
 20
20.8076875004
 30
0.0
 40
2.166291629199998
100
AcDbArc
 50
227.3119280794
 51
242.7040315235
  0
ARC
  5
7D
330
3A
100
AcDbEntity
  8
0
  6
Continuous
 62
     7
100
AcDbCircle
 10
313.4931790796
 20
20.1020098596
 30
0.0
 40
1.238521734
100
AcDbArc
 50
194.7952194236
 51
225.7176549047
  0
ARC
  5
7E
330
3A
100
AcDbEntity
  8
0
  6
Continuous
 62
     7
100
AcDbCircle
 10
313.5553372138
 20
20.1422298287
 30
0.0
 40
1.309092072899999
100
AcDbArc
 50
164.1974860461
 51
195.8025139539
  0
ARC
  5
7F
330
3A
100
AcDbEntity
  8
0
  6
Continuous
 62
     7
100
AcDbCircle
 10
314.1123609345001
 20
19.2539626688
 30
0.0
 40
2.366924815299999
100
AcDbArc
 50
86.22180229280001
 51
120.4272602309
  0
ARC
  5
80
330
3A
100
AcDbEntity
  8
0
  6
Continuous
 62
     7
100
AcDbCircle
 10
313.8435041519
 20
12.5577948477
 30
0.0
 40
9.0679051661
100
AcDbArc
 50
78.68270492259998
 51
87.3147599624
  0
ARC
  5
81
330
3A
100
AcDbEntity
  8
0
  6
Continuous
 62
     7
100
AcDbCircle
 10
313.3874349735
 20
20.2497375912
 30
0.0
 40
1.119747444
100
AcDbArc
 50
142.813917903
 51
167.1522951417
  0
ARC
  5
82
330
3A
100
AcDbEntity
  8
0
  6
Continuous
 62
     7
100
AcDbCircle
 10
313.7327443151
 20
19.9431558946
 30
0.0
 40
1.580546684499998
100
AcDbArc
 50
121.2140948535
 51
141.5254768286
  0
ARC
  5
83
330
3A
100
AcDbEntity
  8
0
  6
Continuous
 62
     7
100
AcDbCircle
 10
314.3099186807
 20
20.7542132232
 30
0.0
 40
0.8661276051999998
100
AcDbArc
 50
222.7760387596
 51
239.0362434679
  0
ARC
  5
84
330
3A
100
AcDbEntity
  8
0
  6
Continuous
 62
     7
100
AcDbCircle
 10
311.8032091024
 20
13.4239410246
 30
0.0
 40
6.858773576299999
100
AcDbArc
 50
59.90202725599999
 51
68.2036481279
  0
ARC
  5
85
330
3A
100
AcDbEntity
  8
0
  6
Continuous
 62
     7
100
AcDbCircle
 10
315.2117035963
 20
22.3498275319
 30
0.0
 40
2.698741017099999
100
AcDbArc
 50
240.0481997804
 51
251.3779673736999
  0
ARC
  5
86
330
3A
100
AcDbEntity
  8
0
  6
Continuous
 62
     7
100
AcDbCircle
 10
314.5462464295
 20
18.1929289165
 30
0.0
 40
1.4334474881
100
AcDbArc
 50
315.8904553224
 51
333.5229264373
  0
ARC
  5
87
330
3A
100
AcDbEntity
  8
0
  6
Continuous
 62
     7
100
AcDbCircle
 10
314.5508846732
 20
18.1395217664
 30
0.0
 40
1.406228711899998
100
AcDbArc
 50
335.3867972702
 51
24.3915119402
  0
ARC
  5
88
330
3A
100
AcDbEntity
  8
0
  6
Continuous
 62
     7
100
AcDbCircle
 10
314.4786797697
 20
18.0616650746
 30
0.0
 40
1.504702514799999
100
AcDbArc
 50
25.95629166050001
 51
59.4834829668
  0
LINE
  5
89
330
3A
100
AcDbEntity
  8
0
  6
Continuous
 62
     7
100
AcDbLine
 10
284.7029938783
 20
16.8387078159
 30
0.0
 11
284.7029938783
 21
17.7893616325
 31
0.0
  0
LINE
  5
8A
330
3A
100
AcDbEntity
  8
0
  6
Continuous
 62
     7
100
AcDbLine
 10
288.0302822366
 20
20.49872501
 30
0.0
 11
288.0302822366
 21
21.4493788266
 31
0.0
  0
ARC
  5
8B
330
3A
100
AcDbEntity
  8
0
  6
Continuous
 62
     7
100
AcDbCircle
 10
286.4076350033
 20
18.7008009792
 30
0.0
 40
1.111619360599997
100
AcDbArc
 50
277.7099956934
 51
295.6884927746
  0
ARC
  5
8C
330
3A
100
AcDbEntity
  8
0
  6
Continuous
 62
     7
100
AcDbCircle
 10
286.691944986
 20
17.9759752156
 30
0.0
 40
0.3401689265
100
AcDbArc
 50
305.5032212556
 51
72.4652898515
  0
ARC
  5
8D
330
3A
100
AcDbEntity
  8
0
  6
Continuous
 62
     7
100
AcDbCircle
 10
286.1259511779
 20
21.3776821252
 30
0.0
 40
4.756794641099999
100
AcDbArc
 50
252.5939200545
 51
280.9816604253
  0
ARC
  5
8E
330
3A
100
AcDbEntity
  8
0
  6
Continuous
 62
     7
100
AcDbCircle
 10
286.580786541
 20
18.7596683887
 30
0.0
 40
2.100726595299998
100
AcDbArc
 50
282.4058358513
 51
311.8644433923
  0
ARC
  5
8F
330
3A
100
AcDbEntity
  8
0
  6
Continuous
 62
     7
100
AcDbCircle
 10
286.3072221939
 20
20.3680101102
 30
0.0
 40
0.3029626476
100
AcDbArc
 50
154.4400348282
 51
221.8201698801
  0
ARC
  5
90
330
3A
100
AcDbEntity
  8
0
  6
Continuous
 62
     7
100
AcDbCircle
 10
286.3864433453
 20
20.2887889588
 30
0.0
 40
0.4103089737
100
AcDbArc
 50
102.8287828727
 51
149.2259639027
  0
ARC
  5
91
330
3A
100
AcDbEntity
  8
0
  6
Continuous
 62
     7
100
AcDbCircle
 10
286.8034701809
 20
18.546453629
 30
0.0
 40
2.201836557
100
AcDbArc
 50
84.0400061859
 51
103.3427657872
  0
ARC
  5
92
330
3A
100
AcDbEntity
  8
0
  6
Continuous
 62
     7
100
AcDbCircle
 10
286.4625063562
 20
16.1290897051
 30
0.0
 40
4.642373736499997
100
AcDbArc
 50
70.2625858546
 51
82.9524186379
  0
ARC
  5
93
330
3A
100
AcDbEntity
  8
0
  6
Continuous
 62
     7
100
AcDbCircle
 10
285.948488154
 20
20.8007125947
 30
0.0
 40
3.258755990899997
100
AcDbArc
 50
247.5300206148
 51
280.7579522145
  0
ARC
  5
94
330
3A
100
AcDbEntity
  8
0
  6
Continuous
 62
     7
100
AcDbCircle
 10
279.563521682
 20
2.5491926343
 30
0.0
 40
17.3316084133
100
AcDbArc
 50
65.34146746500001
 51
67.39977707359999
  0
ARC
  5
95
330
3A
100
AcDbEntity
  8
0
  6
Continuous
 62
     7
100
AcDbCircle
 10
290.3593840874
 20
28.3416189974
 30
0.0
 40
10.6291642039
100
AcDbArc
 50
242.8620101252001
 51
247.1042029185
  0
ARC
  5
96
330
3A
100
AcDbEntity
  8
0
  6
Continuous
 62
     7
100
AcDbCircle
 10
286.5044828608
 20
20.8076875004
 30
0.0
 40
2.166291629199998
100
AcDbArc
 50
227.3119280794
 51
242.7040315235
  0
ARC
  5
97
330
3A
100
AcDbEntity
  8
0
  6
Continuous
 62
     7
100
AcDbCircle
 10
285.9004520512
 20
20.1020098596
 30
0.0
 40
1.238521734
100
AcDbArc
 50
194.7952194234
 51
225.7176549042
  0
ARC
  5
98
330
3A
100
AcDbEntity
  8
0
  6
Continuous
 62
     7
100
AcDbCircle
 10
286.519633906
 20
19.2539626688
 30
0.0
 40
2.366924815299999
100
AcDbArc
 50
86.22180229280001
 51
120.4272602309
  0
ARC
  5
99
330
3A
100
AcDbEntity
  8
0
  6
Continuous
 62
     7
100
AcDbCircle
 10
286.2507771235
 20
12.5577948477
 30
0.0
 40
9.0679051661
100
AcDbArc
 50
78.68270492259998
 51
87.3147599624
  0
ARC
  5
9A
330
3A
100
AcDbEntity
  8
0
  6
Continuous
 62
     7
100
AcDbCircle
 10
286.1400172867
 20
19.9431558946
 30
0.0
 40
1.580546684599998
100
AcDbArc
 50
121.2140948541
 51
141.525476829
  0
ARC
  5
9B
330
3A
100
AcDbEntity
  8
0
  6
Continuous
 62
     7
100
AcDbCircle
 10
286.7171916523
 20
20.7542132232
 30
0.0
 40
0.8661276051999998
100
AcDbArc
 50
222.7760387596
 51
239.0362434679
  0
ARC
  5
9C
330
3A
100
AcDbEntity
  8
0
  6
Continuous
 62
     7
100
AcDbCircle
 10
284.210482074
 20
13.4239410246
 30
0.0
 40
6.858773576299999
100
AcDbArc
 50
59.90202725620001
 51
68.20364812820002
  0
ARC
  5
9D
330
3A
100
AcDbEntity
  8
0
  6
Continuous
 62
     7
100
AcDbCircle
 10
287.6189765678
 20
22.3498275319
 30
0.0
 40
2.698741017099999
100
AcDbArc
 50
240.0481997804
 51
251.3779673734
  0
ARC
  5
9E
330
3A
100
AcDbEntity
  8
0
  6
Continuous
 62
     7
100
AcDbCircle
 10
286.953519401
 20
18.1929289165
 30
0.0
 40
1.4334474881
100
AcDbArc
 50
315.8904553226
 51
333.5229264375
  0
ARC
  5
9F
330
3A
100
AcDbEntity
  8
0
  6
Continuous
 62
     7
100
AcDbCircle
 10
286.9581576447
 20
18.1395217664
 30
0.0
 40
1.406228711899998
100
AcDbArc
 50
335.3867972703
 51
24.3915119403
  0
ARC
  5
A0
330
3A
100
AcDbEntity
  8
0
  6
Continuous
 62
     7
100
AcDbCircle
 10
286.8859527412
 20
18.0616650746
 30
0.0
 40
1.504702514699999
100
AcDbArc
 50
25.9562916611
 51
59.4834829676
  0
LINE
  5
A1
330
3A
100
AcDbEntity
  8
0
  6
Continuous
 62
     7
100
AcDbLine
 10
284.8948224676
 20
20.9161059766
 30
0.0
 11
285.1688882922
 21
21.1901790542
 31
0.0
  0
ARC
  5
A2
330
3A
100
AcDbEntity
  8
0
  6
Continuous
 62
     7
100
AcDbCircle
 10
285.9626101853
 20
20.1422298287
 30
0.0
 40
1.309092072899999
100
AcDbArc
 50
164.1974860461
 51
195.8025139539
  0
ARC
  5
A3
330
3A
100
AcDbEntity
  8
0
  6
Continuous
 62
     7
100
AcDbCircle
 10
285.7947079451
 20
20.2497375912
 30
0.0
 40
1.119747444
100
AcDbArc
 50
142.813917903
 51
167.1522951417
  0
ENDBLK
  5
A4
330
3A
100
AcDbEntity
  8
0
100
AcDbBlockEnd
  0
BLOCK
  5
24463
330
24458
100
AcDbEntity
  8
0
 62
     7
370
    13
100
AcDbBlockBegin
  2
*D1
 70
     1
 10
0.0
 20
0.0
 30
0.0
  3
*D1
  1

  0
LINE
  5
2465E
330
24458
100
AcDbEntity
  8
10100_FRONT_DIM
  6
Continuous
 62
     0
370
    -2
100
AcDbLine
 10
125.4690949555322
 20
198.2899719480799
 30
0.0
 11
158.8907902158195
 21
198.2899719480799
 31
0.0
  0
LINE
  5
2465F
330
24458
100
AcDbEntity
  8
10100_FRONT_DIM
  6
Continuous
 62
     0
370
    -2
100
AcDbLine
 10
125.4409462957074
 20
108.9343315635104
 30
0.0
 11
158.8907902158195
 21
108.9343315635104
 31
0.0
  0
LINE
  5
24660
330
24458
100
AcDbEntity
  8
10100_FRONT_DIM
  6
Continuous
 62
     0
370
    -2
100
AcDbLine
 10
157.8907902158196
 20
196.2899719480799
 30
0.0
 11
157.8907902158196
 21
159.7858266759605
 31
0.0
  0
LINE
  5
24661
330
24458
100
AcDbEntity
  8
10100_FRONT_DIM
  6
Continuous
 62
     0
370
    -2
100
AcDbLine
 10
157.8907902158196
 20
110.9343315635104
 30
0.0
 11
157.8907902158196
 21
149.8691600092938
 31
0.0
  0
MTEXT
  5
24662
330
24458
100
AcDbEntity
  8
10100_FRONT_DIM
  6
Continuous
 62
     0
370
    13
100
AcDbMText
 10
158.2723861635502
 20
154.8274933426271
 30
0.0
 40
2.5
 41
0.0
 71
     5
 72
     1
  1
\A1;89,4
 11
0.0000000000000001
 21
1.0
 31
0.0
 73
     1
 44
1.0
1001
ACAD
1000
MTEXTBEGIN
1070
    73
1070
     1
1070
    44
1040
1.0
1070
    74
1070
     0
1000
MTEXTEND
  0
SOLID
  5
24663
330
24458
100
AcDbEntity
  8
10100_FRONT_DIM
  6
Continuous
 62
     0
370
    13
100
AcDbTrace
 10
157.5574568824863
 20
196.2899719480799
 30
0.0
 11
158.224123549153
 21
196.2899719480799
 31
0.0
 12
157.8907902158196
 22
198.2899719480799
 32
0.0
 13
157.8907902158196
 23
198.2899719480799
 33
0.0
  0
SOLID
  5
24664
330
24458
100
AcDbEntity
  8
10100_FRONT_DIM
  6
Continuous
 62
     0
370
    13
100
AcDbTrace
 10
157.5574568824863
 20
110.9343315635104
 30
0.0
 11
158.224123549153
 21
110.9343315635104
 31
0.0
 12
157.8907902158196
 22
108.9343315635104
 32
0.0
 13
157.8907902158196
 23
108.9343315635104
 33
0.0
  0
POINT
  5
24665
330
24458
100
AcDbEntity
  8
Defpoints
  6
Continuous
 62
     0
370
    13
100
AcDbPoint
 10
124.4690949555322
 20
198.2899719480799
 30
0.0
  0
POINT
  5
24666
330
24458
100
AcDbEntity
  8
Defpoints
  6
Continuous
 62
     0
370
    13
100
AcDbPoint
 10
124.4409462957074
 20
108.9343315635104
 30
0.0
  0
POINT
  5
24667
330
24458
100
AcDbEntity
  8
Defpoints
  6
Continuous
 62
     0
370
    13
100
AcDbPoint
 10
157.8907902158196
 20
108.9343315635104
 30
0.0
  0
ENDBLK
  5
24464
330
24458
100
AcDbEntity
  8
0
 62
     7
370
    13
100
AcDbBlockEnd
  0
BLOCK
  5
24470
330
24465
100
AcDbEntity
  8
0
 62
     7
370
    13
100
AcDbBlockBegin
  2
*D2
 70
     1
 10
0.0
 20
0.0
 30
0.0
  3
*D2
  1

  0
LINE
  5
24700
330
24465
100
AcDbEntity
  8
10100_FRONT_DIM
  6
Continuous
 62
     0
370
    -2
100
AcDbLine
 10
125.1635635526427
 20
127.8250619480813
 30
0.0
 11
139.0690949555323
 21
127.8250619480813
 31
0.0
  0
LINE
  5
24701
330
24465
100
AcDbEntity
  8
10100_FRONT_DIM
  6
Continuous
 62
     0
370
    -2
100
AcDbLine
 10
126.0690949555322
 20
179.5899719480799
 30
0.0
 11
139.0690949555323
 21
179.5899719480799
 31
0.0
  0
LINE
  5
24702
330
24465
100
AcDbEntity
  8
10100_FRONT_DIM
  6
Continuous
 62
     0
370
    -2
100
AcDbLine
 10
138.0690949555323
 20
129.8250619480813
 30
0.0
 11
138.0690949555323
 21
150.7032136267326
 31
0.0
  0
LINE
  5
24703
330
24465
100
AcDbEntity
  8
10100_FRONT_DIM
  6
Continuous
 62
     0
370
    -2
100
AcDbLine
 10
138.0690949555323
 20
177.5899719480799
 30
0.0
 11
138.0690949555323
 21
156.8698802933993
 31
0.0
  0
SOLID
  5
24704
330
24465
100
AcDbEntity
  8
10100_FRONT_DIM
  6
Continuous
 62
     0
370
    13
100
AcDbTrace
 10
137.735761622199
 20
129.8250619480813
 30
0.0
 11
138.4024282888657
 21
129.8250619480813
 31
0.0
 12
138.0690949555323
 22
127.8250619480813
 32
0.0
 13
138.0690949555323
 23
127.8250619480813
 33
0.0
  0
SOLID
  5
24705
330
24465
100
AcDbEntity
  8
10100_FRONT_DIM
  6
Continuous
 62
     0
370
    13
100
AcDbTrace
 10
137.735761622199
 20
177.5899719480799
 30
0.0
 11
138.4024282888657
 21
177.5899719480799
 31
0.0
 12
138.0690949555323
 22
179.5899719480799
 32
0.0
 13
138.0690949555323
 23
179.5899719480799
 33
0.0
  0
MTEXT
  5
24706
330
24465
100
AcDbEntity
  8
10100_FRONT_DIM
  6
Continuous
 62
     0
370
    13
100
AcDbMText
 10
138.0690949555323
 20
153.786546960066
 30
0.0
 40
2.5
 41
0.0
 71
     5
 72
     1
  1
\A1;52
 11
0.0000000000000001
 21
1.0
 31
0.0
 73
     1
 44
1.0
1001
ACAD
1000
MTEXTBEGIN
1070
    73
1070
     1
1070
    44
1040
1.0
1070
    74
1070
     0
1000
MTEXTEND
  0
POINT
  5
24707
330
24465
100
AcDbEntity
  8
Defpoints
  6
Continuous
 62
     0
370
    13
100
AcDbPoint
 10
124.1635635526427
 20
127.8250619480813
 30
0.0
  0
POINT
  5
24708
330
24465
100
AcDbEntity
  8
Defpoints
  6
Continuous
 62
     0
370
    13
100
AcDbPoint
 10
125.0690949555322
 20
179.5899719480799
 30
0.0
  0
POINT
  5
24709
330
24465
100
AcDbEntity
  8
Defpoints
  6
Continuous
 62
     0
370
    13
100
AcDbPoint
 10
138.0690949555323
 20
179.5899719480799
 30
0.0
  0
ENDBLK
  5
24471
330
24465
100
AcDbEntity
  8
0
 62
     7
370
    13
100
AcDbBlockEnd
  0
BLOCK
  5
2447D
330
24472
100
AcDbEntity
  8
0
 62
     7
370
    13
100
AcDbBlockBegin
  2
*D3
 70
     1
 10
0.0
 20
0.0
 30
0.0
  3
*D3
  1

  0
LINE
  5
245A9
330
24472
100
AcDbEntity
  8
10100_FRONT_DIM
  6
Continuous
 62
     0
370
    -2
100
AcDbLine
 10
107.0690949555322
 20
107.2399719480797
 30
0.0
 11
107.0690949555322
 21
84.88997194807998
 31
0.0
  0
LINE
  5
245AA
330
24472
100
AcDbEntity
  8
10100_FRONT_DIM
  6
Continuous
 62
     0
370
    -2
100
AcDbLine
 10
125.0690949555322
 20
108.48997194808
 30
0.0
 11
125.0690949555322
 21
84.88997194807998
 31
0.0
  0
LINE
  5
245AB
330
24472
100
AcDbEntity
  8
10100_FRONT_DIM
  6
Continuous
 62
     0
370
    -2
100
AcDbLine
 10
109.0690949555322
 20
85.88997194807999
 30
0.0
 11
112.8024282888656
 21
85.88997194807999
 31
0.0
  0
LINE
  5
245AC
330
24472
100
AcDbEntity
  8
10100_FRONT_DIM
  6
Continuous
 62
     0
370
    -2
100
AcDbLine
 10
123.0690949555322
 20
85.88997194807999
 30
0.0
 11
118.1357616221989
 21
85.88997194807999
 31
0.0
  0
SOLID
  5
245AD
330
24472
100
AcDbEntity
  8
10100_FRONT_DIM
  6
Continuous
 62
     0
370
    13
100
AcDbTrace
 10
109.0690949555322
 20
86.22330528141331
 30
0.0
 11
109.0690949555322
 21
85.55663861474666
 31
0.0
 12
107.0690949555322
 22
85.88997194807999
 32
0.0
 13
107.0690949555322
 23
85.88997194807999
 33
0.0
  0
SOLID
  5
245AE
330
24472
100
AcDbEntity
  8
10100_FRONT_DIM
  6
Continuous
 62
     0
370
    13
100
AcDbTrace
 10
123.0690949555322
 20
86.22330528141331
 30
0.0
 11
123.0690949555322
 21
85.55663861474666
 31
0.0
 12
125.0690949555322
 22
85.88997194807999
 32
0.0
 13
125.0690949555322
 23
85.88997194807999
 33
0.0
  0
MTEXT
  5
245AF
330
24472
100
AcDbEntity
  8
10100_FRONT_DIM
  6
Continuous
 62
     0
370
    13
100
AcDbMText
 10
115.4690949555322
 20
85.88997194807999
 30
0.0
 40
2.5
 41
0.0
 71
     5
 72
     1
  1
\A1;18
 73
     1
 44
1.0
1001
ACAD
1000
MTEXTBEGIN
1070
    73
1070
     1
1070
    44
1040
1.0
1070
    74
1070
     0
1000
MTEXTEND
  0
POINT
  5
245B0
330
24472
100
AcDbEntity
  8
Defpoints
  6
Continuous
 62
     0
370
    13
100
AcDbPoint
 10
107.0690949555322
 20
108.2399719480797
 30
0.0
  0
POINT
  5
245B1
330
24472
100
AcDbEntity
  8
Defpoints
  6
Continuous
 62
     0
370
    13
100
AcDbPoint
 10
125.0690949555322
 20
109.48997194808
 30
0.0
  0
POINT
  5
245B2
330
24472
100
AcDbEntity
  8
Defpoints
  6
Continuous
 62
     0
370
    13
100
AcDbPoint
 10
125.0690949555322
 20
85.88997194807999
 30
0.0
  0
ENDBLK
  5
2447E
330
24472
100
AcDbEntity
  8
0
 62
     7
370
    13
100
AcDbBlockEnd
  0
BLOCK
  5
244B6
330
244A9
100
AcDbEntity
  8
0
 62
     7
370
    13
100
AcDbBlockBegin
  2
*D4
 70
     1
 10
0.0
 20
0.0
 30
0.0
  3
*D4
  1

  0
LINE
  5
24672
330
244A9
100
AcDbEntity
  8
11100_LEFT_DIM
  6
Continuous
 62
     0
370
    -2
100
AcDbLine
 10
233.2816001422209
 20
116.4235002041644
 30
0.0
 11
233.2816001422209
 21
94.88997194807998
 31
0.0
  0
LINE
  5
24673
330
244A9
100
AcDbEntity
  8
11100_LEFT_DIM
  6
Continuous
 62
     0
370
    -2
100
AcDbLine
 10
200.9062098681258
 20
108.1112612777934
 30
0.0
 11
200.9062098681258
 21
94.88997194807998
 31
0.0
  0
LINE
  5
24674
330
244A9
100
AcDbEntity
  8
11100_LEFT_DIM
  6
Continuous
 62
     0
370
    -2
100
AcDbLine
 10
231.2816001422209
 20
95.88997194807999
 30
0.0
 11
220.1772383385067
 21
95.88997194807999
 31
0.0
  0
LINE
  5
24675
330
244A9
100
AcDbEntity
  8
11100_LEFT_DIM
  6
Continuous
 62
     0
370
    -2
100
AcDbLine
 10
202.9062098681258
 20
95.88997194807999
 30
0.0
 11
214.01057167184
 21
95.88997194807999
 31
0.0
  0
SOLID
  5
24676
330
244A9
100
AcDbEntity
  8
11100_LEFT_DIM
  6
Continuous
 62
     0
370
    13
100
AcDbTrace
 10
231.2816001422209
 20
96.22330528141331
 30
0.0
 11
231.2816001422209
 21
95.55663861474664
 31
0.0
 12
233.2816001422209
 22
95.88997194807999
 32
0.0
 13
233.2816001422209
 23
95.88997194807999
 33
0.0
  0
SOLID
  5
24677
330
244A9
100
AcDbEntity
  8
11100_LEFT_DIM
  6
Continuous
 62
     0
370
    13
100
AcDbTrace
 10
202.9062098681258
 20
96.22330528141331
 30
0.0
 11
202.9062098681258
 21
95.55663861474664
 31
0.0
 12
200.9062098681258
 22
95.88997194807999
 32
0.0
 13
200.9062098681258
 23
95.88997194807999
 33
0.0
  0
MTEXT
  5
24678
330
244A9
100
AcDbEntity
  8
11100_LEFT_DIM
  6
Continuous
 62
     0
370
    13
100
AcDbMText
 10
217.0939050051733
 20
95.88997194807999
 30
0.0
 40
2.5
 41
0.0
 71
     5
 72
     1
  1
\A1;32
 73
     1
 44
1.0
1001
ACAD
1000
MTEXTBEGIN
1070
    73
1070
     1
1070
    44
1040
1.0
1070
    74
1070
     0
1000
MTEXTEND
  0
POINT
  5
24679
330
244A9
100
AcDbEntity
  8
Defpoints
  6
Continuous
 62
     0
370
    13
100
AcDbPoint
 10
233.2816001422209
 20
117.4235002041644
 30
0.0
  0
POINT
  5
2467A
330
244A9
100
AcDbEntity
  8
Defpoints
  6
Continuous
 62
     0
370
    13
100
AcDbPoint
 10
200.9062098681258
 20
109.1112612777934
 30
0.0
  0
POINT
  5
2467B
330
244A9
100
AcDbEntity
  8
Defpoints
  6
Continuous
 62
     0
370
    13
100
AcDbPoint
 10
200.9062098681258
 20
95.88997194807999
 30
0.0
  0
ENDBLK
  5
244B7
330
244A9
100
AcDbEntity
  8
0
 62
     7
370
    13
100
AcDbBlockEnd
  0
BLOCK
  5
244C5
330
244B8
100
AcDbEntity
  8
0
 62
     7
370
    13
100
AcDbBlockBegin
  2
*D5
 70
     1
 10
0.0
 20
0.0
 30
0.0
  3
*D5
  1

  0
LINE
  5
24760
330
244B8
100
AcDbEntity
  8
11100_LEFT_DIM
  6
Continuous
 62
     0
370
    -2
100
AcDbLine
 10
200.9062098681258
 20
108.1112612777934
 30
0.0
 11
200.9062098681258
 21
85.05663861474664
 31
0.0
  0
LINE
  5
24761
330
244B8
100
AcDbEntity
  8
11100_LEFT_DIM
  6
Continuous
 62
     0
370
    -2
100
AcDbLine
 10
268.2617397816843
 20
116.8254362070734
 30
0.0
 11
268.2617397816843
 21
85.05663861474664
 31
0.0
  0
LINE
  5
24762
330
244B8
100
AcDbEntity
  8
11100_LEFT_DIM
  6
Continuous
 62
     0
370
    -2
100
AcDbLine
 10
202.9062098681258
 20
86.05663861474665
 30
0.0
 11
231.5006414915717
 21
86.05663861474665
 31
0.0
  0
LINE
  5
24763
330
244B8
100
AcDbEntity
  8
11100_LEFT_DIM
  6
Continuous
 62
     0
370
    -2
100
AcDbLine
 10
266.2617397816843
 20
86.05663861474665
 30
0.0
 11
237.6673081582384
 21
86.05663861474665
 31
0.0
  0
SOLID
  5
24764
330
244B8
100
AcDbEntity
  8
11100_LEFT_DIM
  6
Continuous
 62
     0
370
    13
100
AcDbTrace
 10
202.9062098681258
 20
86.38997194807997
 30
0.0
 11
202.9062098681258
 21
85.72330528141332
 31
0.0
 12
200.9062098681258
 22
86.05663861474665
 32
0.0
 13
200.9062098681258
 23
86.05663861474665
 33
0.0
  0
SOLID
  5
24765
330
244B8
100
AcDbEntity
  8
11100_LEFT_DIM
  6
Continuous
 62
     0
370
    13
100
AcDbTrace
 10
266.2617397816843
 20
86.38997194807997
 30
0.0
 11
266.2617397816843
 21
85.72330528141332
 31
0.0
 12
268.2617397816843
 22
86.05663861474665
 32
0.0
 13
268.2617397816843
 23
86.05663861474665
 33
0.0
  0
MTEXT
  5
24766
330
244B8
100
AcDbEntity
  8
11100_LEFT_DIM
  6
Continuous
 62
     0
370
    13
100
AcDbMText
 10
234.583974824905
 20
86.05663861474665
 30
0.0
 40
2.5
 41
0.0
 71
     5
 72
     1
  1
\A1;67
 73
     1
 44
1.0
1001
ACAD
1000
MTEXTBEGIN
1070
    73
1070
     1
1070
    44
1040
1.0
1070
    74
1070
     0
1000
MTEXTEND
  0
POINT
  5
24767
330
244B8
100
AcDbEntity
  8
Defpoints
  6
Continuous
 62
     0
370
    13
100
AcDbPoint
 10
200.9062098681258
 20
109.1112612777934
 30
0.0
  0
POINT
  5
24768
330
244B8
100
AcDbEntity
  8
Defpoints
  6
Continuous
 62
     0
370
    13
100
AcDbPoint
 10
268.2617397816843
 20
117.8254362070734
 30
0.0
  0
POINT
  5
24769
330
244B8
100
AcDbEntity
  8
Defpoints
  6
Continuous
 62
     0
370
    13
100
AcDbPoint
 10
268.2617397816843
 20
86.05663861474665
 30
0.0
  0
ENDBLK
  5
244C6
330
244B8
100
AcDbEntity
  8
0
 62
     7
370
    13
100
AcDbBlockEnd
  0
BLOCK
  5
24566
330
2455B
100
AcDbEntity
  8
0
 62
     7
370
    13
100
AcDbBlockBegin
  2
*D6
 70
     1
 10
0.0
 20
0.0
 30
0.0
  3
*D6
  1

  0
LINE
  5
246CD
330
2455B
100
AcDbEntity
  8
11100_LEFT_DIM
  6
Continuous
 62
     0
370
    -2
100
AcDbLine
 10
267.5150755147038
 20
176.2739324080587
 30
0.0
 11
282.2617397816804
 21
176.2739324080587
 31
0.0
  0
LINE
  5
246CE
330
2455B
100
AcDbEntity
  8
11100_LEFT_DIM
  6
Continuous
 62
     0
370
    -2
100
AcDbLine
 10
267.5151397817614
 20
131.2735124184267
 30
0.0
 11
282.2617397816804
 21
131.2735124184267
 31
0.0
  0
LINE
  5
246CF
330
2455B
100
AcDbEntity
  8
11100_LEFT_DIM
  6
Continuous
 62
     0
370
    -2
100
AcDbLine
 10
281.2617397816804
 20
174.2739324080587
 30
0.0
 11
281.2617397816804
 21
156.8570723114867
 31
0.0
  0
LINE
  5
246D0
330
2455B
100
AcDbEntity
  8
11100_LEFT_DIM
  6
Continuous
 62
     0
370
    -2
100
AcDbLine
 10
281.2617397816804
 20
133.2735124184267
 30
0.0
 11
281.2617397816804
 21
150.6904056448201
 31
0.0
  0
SOLID
  5
246D1
330
2455B
100
AcDbEntity
  8
11100_LEFT_DIM
  6
Continuous
 62
     0
370
    13
100
AcDbTrace
 10
280.928406448347
 20
174.2739324080587
 30
0.0
 11
281.5950731150137
 21
174.2739324080587
 31
0.0
 12
281.2617397816804
 22
176.2739324080587
 32
0.0
 13
281.2617397816804
 23
176.2739324080587
 33
0.0
  0
SOLID
  5
246D2
330
2455B
100
AcDbEntity
  8
11100_LEFT_DIM
  6
Continuous
 62
     0
370
    13
100
AcDbTrace
 10
280.928406448347
 20
133.2735124184267
 30
0.0
 11
281.5950731150137
 21
133.2735124184267
 31
0.0
 12
281.2617397816804
 22
131.2735124184267
 32
0.0
 13
281.2617397816804
 23
131.2735124184267
 33
0.0
  0
MTEXT
  5
246D3
330
2455B
100
AcDbEntity
  8
11100_LEFT_DIM
  6
Continuous
 62
     0
370
    13
100
AcDbMText
 10
281.2617397816803
 20
153.7737389781534
 30
0.0
 40
2.5
 41
0.0
 71
     5
 72
     1
  1
\A1;45
 11
0.0000000000000001
 21
1.0
 31
0.0
 73
     1
 44
1.0
1001
ACAD
1000
MTEXTBEGIN
1070
    73
1070
     1
1070
    44
1040
1.0
1070
    74
1070
     0
1000
MTEXTEND
  0
POINT
  5
246D4
330
2455B
100
AcDbEntity
  8
Defpoints
  6
Continuous
 62
     0
370
    13
100
AcDbPoint
 10
266.5150755147038
 20
176.2739324080587
 30
0.0
  0
POINT
  5
246D5
330
2455B
100
AcDbEntity
  8
Defpoints
  6
Continuous
 62
     0
370
    13
100
AcDbPoint
 10
266.5151397817614
 20
131.2735124184267
 30
0.0
  0
POINT
  5
246D6
330
2455B
100
AcDbEntity
  8
Defpoints
  6
Continuous
 62
     0
370
    13
100
AcDbPoint
 10
281.2617397816804
 20
131.2735124184267
 30
0.0
  0
ENDBLK
  5
24567
330
2455B
100
AcDbEntity
  8
0
 62
     7
370
    13
100
AcDbBlockEnd
  0
BLOCK
  5
24573
330
24568
100
AcDbEntity
  8
0
 62
     7
370
    13
100
AcDbBlockBegin
  2
*D7
 70
     1
 10
0.0
 20
0.0
 30
0.0
  3
*D7
  1

  0
LINE
  5
246F6
330
24568
100
AcDbEntity
  8
11100_LEFT_DIM
  6
Continuous
 62
     0
370
    -2
100
AcDbLine
 10
245.3068997817614
 20
117.8254362070734
 30
0.0
 11
292.2617397816773
 21
117.8254362070734
 31
0.0
  0
LINE
  5
246F7
330
24568
100
AcDbEntity
  8
11100_LEFT_DIM
  6
Continuous
 62
     0
370
    -2
100
AcDbLine
 10
243.8068997817615
 20
190.1235124184267
 30
0.0
 11
292.2617397816773
 21
190.1235124184267
 31
0.0
  0
LINE
  5
246F8
330
24568
100
AcDbEntity
  8
11100_LEFT_DIM
  6
Continuous
 62
     0
370
    -2
100
AcDbLine
 10
291.2617397816772
 20
119.8254362070734
 30
0.0
 11
291.2617397816773
 21
150.6904134988021
 31
0.0
  0
LINE
  5
246F9
330
24568
100
AcDbEntity
  8
11100_LEFT_DIM
  6
Continuous
 62
     0
370
    -2
100
AcDbLine
 10
291.2617397816773
 20
188.1235124184266
 30
0.0
 11
291.2617397816773
 21
156.8570801654687
 31
0.0
  0
SOLID
  5
246FA
330
24568
100
AcDbEntity
  8
11100_LEFT_DIM
  6
Continuous
 62
     0
370
    13
100
AcDbTrace
 10
290.9284064483439
 20
119.8254362070734
 30
0.0
 11
291.5950731150106
 21
119.8254362070734
 31
0.0
 12
291.2617397816772
 22
117.8254362070734
 32
0.0
 13
291.2617397816772
 23
117.8254362070734
 33
0.0
  0
SOLID
  5
246FB
330
24568
100
AcDbEntity
  8
11100_LEFT_DIM
  6
Continuous
 62
     0
370
    13
100
AcDbTrace
 10
290.928406448344
 20
188.1235124184266
 30
0.0
 11
291.5950731150106
 21
188.1235124184266
 31
0.0
 12
291.2617397816773
 22
190.1235124184267
 32
0.0
 13
291.2617397816773
 23
190.1235124184267
 33
0.0
  0
MTEXT
  5
246FC
330
24568
100
AcDbEntity
  8
11100_LEFT_DIM
  6
Continuous
 62
     0
370
    13
100
AcDbMText
 10
291.2617397816772
 20
153.7737468321354
 30
0.0
 40
2.5
 41
0.0
 71
     5
 72
     1
  1
\A1;72
 11
0.0000000000000001
 21
1.0
 31
0.0
 73
     1
 44
1.0
1001
ACAD
1000
MTEXTBEGIN
1070
    73
1070
     1
1070
    44
1040
1.0
1070
    74
1070
     0
1000
MTEXTEND
  0
POINT
  5
246FD
330
24568
100
AcDbEntity
  8
Defpoints
  6
Continuous
 62
     0
370
    13
100
AcDbPoint
 10
244.3068997817614
 20
117.8254362070734
 30
0.0
  0
POINT
  5
246FE
330
24568
100
AcDbEntity
  8
Defpoints
  6
Continuous
 62
     0
370
    13
100
AcDbPoint
 10
242.8068997817614
 20
190.1235124184267
 30
0.0
  0
POINT
  5
246FF
330
24568
100
AcDbEntity
  8
Defpoints
  6
Continuous
 62
     0
370
    13
100
AcDbPoint
 10
291.2617397816773
 20
190.1235124184267
 30
0.0
  0
ENDBLK
  5
24574
330
24568
100
AcDbEntity
  8
0
 62
     7
370
    13
100
AcDbBlockEnd
  0
BLOCK
  5
245BF
330
245B4
100
AcDbEntity
  8
0
 62
     7
370
    13
100
AcDbBlockBegin
  2
*D8
 70
     1
 10
0.0
 20
0.0
 30
0.0
  3
*D8
  1

  0
LINE
  5
246EC
330
245B4
100
AcDbEntity
  8
10100_FRONT_DIM
  6
Continuous
 62
     0
370
    -2
100
AcDbLine
 10
111.5785919011477
 20
107.8899719480799
 30
0.0
 11
111.5785919011477
 21
94.88997194807998
 31
0.0
  0
LINE
  5
246ED
330
245B4
100
AcDbEntity
  8
10100_FRONT_DIM
  6
Continuous
 62
     0
370
    -2
100
AcDbLine
 10
120.5992219025989
 20
107.88997194808
 30
0.0
 11
120.5992219025989
 21
94.88997194807998
 31
0.0
  0
LINE
  5
246EE
330
245B4
100
AcDbEntity
  8
10100_FRONT_DIM
  6
Continuous
 62
     0
370
    -2
100
AcDbLine
 10
113.5785919011477
 20
95.88997194807999
 30
0.0
 11
114.2555735685399
 21
95.88997194807999
 31
0.0
  0
LINE
  5
246EF
330
245B4
100
AcDbEntity
  8
10100_FRONT_DIM
  6
Continuous
 62
     0
370
    -2
100
AcDbLine
 10
118.5992219025989
 20
95.88997194807999
 30
0.0
 11
117.9222402352066
 21
95.88997194807999
 31
0.0
  0
SOLID
  5
246F0
330
245B4
100
AcDbEntity
  8
10100_FRONT_DIM
  6
Continuous
 62
     0
370
    13
100
AcDbTrace
 10
113.5785919011477
 20
96.22330528141331
 30
0.0
 11
113.5785919011477
 21
95.55663861474664
 31
0.0
 12
111.5785919011477
 22
95.88997194807999
 32
0.0
 13
111.5785919011477
 23
95.88997194807999
 33
0.0
  0
SOLID
  5
246F1
330
245B4
100
AcDbEntity
  8
10100_FRONT_DIM
  6
Continuous
 62
     0
370
    13
100
AcDbTrace
 10
118.5992219025989
 20
96.22330528141331
 30
0.0
 11
118.5992219025989
 21
95.55663861474664
 31
0.0
 12
120.5992219025989
 22
95.88997194807999
 32
0.0
 13
120.5992219025989
 23
95.88997194807999
 33
0.0
  0
MTEXT
  5
246F2
330
245B4
100
AcDbEntity
  8
10100_FRONT_DIM
  6
Continuous
 62
     0
370
    13
100
AcDbMText
 10
116.0889069018733
 20
95.88997194807999
 30
0.0
 40
2.5
 41
0.0
 71
     5
 72
     1
  1
\A1;9
 73
     1
 44
1.0
1001
ACAD
1000
MTEXTBEGIN
1070
    73
1070
     1
1070
    44
1040
1.0
1070
    74
1070
     0
1000
MTEXTEND
  0
POINT
  5
246F3
330
245B4
100
AcDbEntity
  8
Defpoints
  6
Continuous
 62
     0
370
    13
100
AcDbPoint
 10
111.5785919011477
 20
108.8899719480799
 30
0.0
  0
POINT
  5
246F4
330
245B4
100
AcDbEntity
  8
Defpoints
  6
Continuous
 62
     0
370
    13
100
AcDbPoint
 10
120.5992219025989
 20
108.88997194808
 30
0.0
  0
POINT
  5
246F5
330
245B4
100
AcDbEntity
  8
Defpoints
  6
Continuous
 62
     0
370
    13
100
AcDbPoint
 10
120.5992219025989
 20
95.88997194807999
 30
0.0
  0
ENDBLK
  5
245C0
330
245B4
100
AcDbEntity
  8
0
 62
     7
370
    13
100
AcDbBlockEnd
  0
BLOCK
  5
2460C
330
24601
100
AcDbEntity
  8
0
 62
     7
370
    13
100
AcDbBlockBegin
  2
*D9
 70
     1
 10
0.0
 20
0.0
 30
0.0
  3
*D9
  1

  0
LINE
  5
2460E
330
24601
100
AcDbEntity
  8
10100_FRONT_DIM
  6
Continuous
 62
     0
370
    -2
100
AcDbLine
 10
126.0690949555322
 20
189.0928339287761
 30
0.0
 11
148.8380915024115
 21
189.0928339287761
 31
0.0
  0
LINE
  5
2460F
330
24601
100
AcDbEntity
  8
10100_FRONT_DIM
  6
Continuous
 62
     0
370
    -2
100
AcDbLine
 10
126.0690949555322
 20
118.0871099673838
 30
0.0
 11
148.8380915024115
 21
118.0871099673838
 31
0.0
  0
LINE
  5
24610
330
24601
100
AcDbEntity
  8
10100_FRONT_DIM
  6
Continuous
 62
     0
370
    -2
100
AcDbLine
 10
147.8380915024115
 20
187.0928339287761
 30
0.0
 11
147.8380915024115
 21
156.2566386147466
 31
0.0
  0
LINE
  5
24611
330
24601
100
AcDbEntity
  8
10100_FRONT_DIM
  6
Continuous
 62
     0
370
    -2
100
AcDbLine
 10
147.8380915024115
 20
120.0871099673838
 30
0.0
 11
147.8380915024115
 21
150.9233052814133
 31
0.0
  0
SOLID
  5
24612
330
24601
100
AcDbEntity
  8
10100_FRONT_DIM
  6
Continuous
 62
     0
370
    13
100
AcDbTrace
 10
147.5047581690781
 20
187.0928339287761
 30
0.0
 11
148.1714248357449
 21
187.0928339287761
 31
0.0
 12
147.8380915024115
 22
189.0928339287761
 32
0.0
 13
147.8380915024115
 23
189.0928339287761
 33
0.0
  0
SOLID
  5
24613
330
24601
100
AcDbEntity
  8
10100_FRONT_DIM
  6
Continuous
 62
     0
370
    13
100
AcDbTrace
 10
147.5047581690781
 20
120.0871099673838
 30
0.0
 11
148.1714248357449
 21
120.0871099673838
 31
0.0
 12
147.8380915024115
 22
118.0871099673838
 32
0.0
 13
147.8380915024115
 23
118.0871099673838
 33
0.0
  0
MTEXT
  5
24614
330
24601
100
AcDbEntity
  8
10100_FRONT_DIM
  6
Continuous
 62
     0
370
    13
100
AcDbMText
 10
147.8380915024115
 20
153.5899719480799
 30
0.0
 40
2.5
 41
0.0
 71
     5
 72
     1
  1
\A1;71
 11
0.0000000000000001
 21
1.0
 31
0.0
 73
     1
 44
1.0
1001
ACAD
1000
MTEXTBEGIN
1070
    73
1070
     1
1070
    44
1040
1.0
1070
    74
1070
     0
1000
MTEXTEND
  0
POINT
  5
24615
330
24601
100
AcDbEntity
  8
Defpoints
  6
Continuous
 62
     0
370
    13
100
AcDbPoint
 10
125.0690949555322
 20
189.0928339287761
 30
0.0
  0
POINT
  5
24616
330
24601
100
AcDbEntity
  8
Defpoints
  6
Continuous
 62
     0
370
    13
100
AcDbPoint
 10
125.0690949555322
 20
118.0871099673838
 30
0.0
  0
POINT
  5
24617
330
24601
100
AcDbEntity
  8
Defpoints
  6
Continuous
 62
     0
370
    13
100
AcDbPoint
 10
147.8380915024115
 20
118.0871099673838
 30
0.0
  0
ENDBLK
  5
2460D
330
24601
100
AcDbEntity
  8
0
 62
     7
370
    13
100
AcDbBlockEnd
  0
ENDSEC
  0
SECTION
  2
ENTITIES
  0
INSERT
  5
AA
330
20
100
AcDbEntity
  8
90000_FRAME
  6
Continuous
 62
     7
100
AcDbBlockReference
  2
SIEMENS_OUTLINE_BL0
 10
0.0
 20
0.0
 30
0.0
  0
LINE
  5
AB
330
20
100
AcDbEntity
  8
90000_FRAME
  6
Continuous
 62
     7
100
AcDbLine
 10
275.0
 20
10.0
 30
0.0
 11
410.0
 21
10.0
 31
0.0
  0
LINE
  5
AC
330
20
100
AcDbEntity
  8
90000_FRAME
  6
Continuous
 62
     7
100
AcDbLine
 10
275.0
 20
10.0
 30
0.0
 11
275.0
 21
28.0
 31
0.0
  0
LINE
  5
AD
330
20
100
AcDbEntity
  8
90000_FRAME
  6
Continuous
 62
     7
100
AcDbLine
 10
325.0
 20
16.0
 30
0.0
 11
410.0
 21
16.0
 31
0.0
  0
LINE
  5
AE
330
20
100
AcDbEntity
  8
90000_FRAME
  6
Continuous
 62
     7
100
AcDbLine
 10
275.0
 20
28.0
 30
0.0
 11
410.0
 21
28.0
 31
0.0
  0
LINE
  5
AF
330
20
100
AcDbEntity
  8
90000_FRAME
  6
Continuous
 62
     7
100
AcDbLine
 10
325.0
 20
10.0
 30
0.0
 11
325.0
 21
28.0
 31
0.0
  0
LINE
  5
B0
330
20
100
AcDbEntity
  8
90000_FRAME
  6
Continuous
 62
     7
100
AcDbLine
 10
367.5
 20
10.0
 30
0.0
 11
367.5
 21
16.0
 31
0.0
  0
LINE
  5
B1
330
20
100
AcDbEntity
  8
90000_FRAME
  6
Continuous
 62
     7
100
AcDbLine
 10
410.0
 20
10.0
 30
0.0
 11
410.0
 21
28.0
 31
0.0
  0
TEXT
  5
B2
330
20
100
AcDbEntity
  8
90000_FRAME
  6
Continuous
 62
     7
100
AcDbText
 10
325.66
 20
11.9
 30
0.0
 40
2.2
  1
Format / Size: DIN A3
 41
0.7994987468660284
 72
     5
 11
359.079047619
 21
11.9
 31
0.0
100
AcDbText
  0
TEXT
  5
B3
330
20
100
AcDbEntity
  8
90000_FRAME
  6
Continuous
 62
     7
100
AcDbText
 10
368.16
 20
11.9
 30
0.0
 40
2.2
  1
Massstab / Scale: 1:1
 41
0.7732634338148471
 72
     5
 11
399.0647619048001
 21
11.9
 31
0.0
100
AcDbText
  0
LINE
  5
B7
330
20
100
AcDbEntity
  8
90000_FRAME
  6
Continuous
 62
     7
100
AcDbLine
 10
10.0
 20
0.0
 30
0.0
 11
420.0
 21
0.0
 31
0.0
  0
LINE
  5
B9
330
20
100
AcDbEntity
  8
90000_FRAME
  6
Continuous
 62
     7
100
AcDbLine
 10
420.0
 20
0.0
 30
0.0
 11
420.0
 21
270.0
 31
0.0
  0
LINE
  5
20F5
330
20
100
AcDbEntity
  8
91000_TIP
  6
Continuous
 62
     7
100
AcDbLine
 10
249.8146701040259
 20
21.32373752237061
 30
0.0
 11
259.814669899826
 21
23.82373747137058
 31
0.0
  0
LINE
  5
20F6
330
20
100
AcDbEntity
  8
91000_TIP
  6
CENTER
 62
     7
100
AcDbLine
 10
248.5351596320249
 20
18.82373757347062
 30
0.0
 11
272.1371488961249
 21
18.82373757347062
 31
0.0
  0
LINE
  5
20F7
330
20
100
AcDbEntity
  8
91000_TIP
  6
Continuous
 62
     7
100
AcDbLine
 10
249.8146701040259
 20
16.32373762457058
 30
0.0
 11
259.814669899826
 21
13.8237376755705
 31
0.0
  0
LINE
  5
20F8
330
20
100
AcDbEntity
  8
91000_TIP
  6
Continuous
 62
     7
100
AcDbLine
 10
249.8146701040259
 20
21.32373752237061
 30
0.0
 11
249.8146701040259
 21
16.32373762457058
 31
0.0
  0
LINE
  5
20F9
330
20
100
AcDbEntity
  8
91000_TIP
  6
Continuous
 62
     7
100
AcDbLine
 10
259.814669899826
 20
23.82373747137058
 30
0.0
 11
259.814669899826
 21
13.8237376755705
 31
0.0
  0
LINE
  5
20FA
330
20
100
AcDbEntity
  8
91000_TIP
  6
CENTER
 62
     7
100
AcDbLine
 10
266.3146697670259
 20
13.10225636707057
 30
0.0
 11
266.3146697670259
 21
24.38564236707057
 31
0.0
  0
CIRCLE
  5
20FB
330
20
100
AcDbEntity
  8
91000_TIP
  6
Continuous
 62
     7
100
AcDbCircle
 10
266.3146697670259
 20
18.82373757347062
 30
0.0
 40
4.9999998979
  0
CIRCLE
  5
20FC
330
20
100
AcDbEntity
  8
91000_TIP
  6
Continuous
 62
     7
100
AcDbCircle
 10
266.3146697670259
 20
18.82373757347062
 30
0.0
 40
2.499999948899997
  0
TEXT
  5
2196
330
20
100
AcDbEntity
  8
90000_FRAME
  6
Continuous
 62
     7
100
AcDbText
 10
338.3059245239508
 20
22.7657967850281
 30
0.0
 40
3.5
  1
3RV1921_00001763_000_ALL
 41
0.731675115627259
 72
     5
 11
394.2180979431339
 21
22.7657967850281
 31
0.0
100
AcDbText
  0
TEXT
  5
2FDF
330
20
100
AcDbEntity
  8
91000_TIP
  6
Continuous
 62
     7
100
AcDbText
 10
21.2756234532
 20
15.1898618139
 30
0.0
 40
3.5
  1
Alle Bemassungswerte sind in Millimeter (mm) angegeben.
 41
0.7901174168295486
 72
     5
 11
155.8589567865
 21
15.1898618139
 31
0.0
100
AcDbText
  0
TEXT
  5
2FE0
330
20
100
AcDbEntity
  8
91000_TIP
  6
Continuous
 62
     7
100
AcDbText
 10
21.2756234532
 20
9.9398618139
 30
0.0
 40
3.5
  1
All dimensions are in millimeters (mm).
 41
0.831845238095536
 72
     5
 11
114.4422901199
 21
9.9398618139
 31
0.0
100
AcDbText
  0
LINE
  5
3B25
330
20
100
AcDbEntity
  8
90000_FRAME
  6
Continuous
 62
     7
100
AcDbLine
 10
10.0
 20
0.0
 30
0.0
 11
10.0
 21
270.0
 31
0.0
  0
LINE
  5
3B26
330
20
100
AcDbEntity
  8
90000_FRAME
  6
Continuous
 62
     7
100
AcDbLine
 10
10.0
 20
270.0
 30
0.0
 11
420.0
 21
270.0
 31
0.0
  0
TEXT
  5
1B76D
330
20
100
AcDbEntity
  8
90000_FRAME
  6
Continuous
 62
     7
100
AcDbText
 10
338.3059245239508
 20
17.45467059029965
 30
0.0
 40
3.5
  1
Meldeschalter 1M
 41
1.114528373804313
 72
     5
 11
394.2180979431339
 21
17.45467059029965
 31
0.0
100
AcDbText
  0
LINE
  5
21B9A
330
20
100
AcDbEntity
  8
10000_FRONT
  6
Continuous
 62
     7
370
    13
100
AcDbLine
 10
125.0690949555322
 20
173.2899719480799
 30
0.0
 11
127.8690949555322
 21
173.3863219480799
 31
0.0
  0
LINE
  5
21B9B
330
20
100
AcDbEntity
  8
10000_FRONT
  6
Continuous
 62
     7
370
    13
100
AcDbLine
 10
127.8690949555322
 20
133.7936219480799
 30
0.0
 11
125.0690949555322
 21
133.8899719480799
 31
0.0
  0
LINE
  5
21BA0
330
20
100
AcDbEntity
  8
10000_FRONT
  6
Continuous
 62
     7
370
    13
100
AcDbLine
 10
125.0690949555322
 20
176.08997194808
 30
0.0
 11
125.0690949555322
 21
175.9399719480799
 31
0.0
  0
LINE
  5
21BA3
330
20
100
AcDbEntity
  8
10000_FRONT
  6
Continuous
370
    50
100
AcDbLine
 39
0.5
 10
125.0690949555322
 20
197.6899719480799
 30
0.0
 11
125.0690949555322
 21
109.48997194808
 31
0.0
  0
LINE
  5
21BA9
330
20
100
AcDbEntity
  8
10000_FRONT
  6
Continuous
 62
     7
370
    13
100
AcDbLine
 10
117.2690949555322
 20
157.3538719480799
 30
0.0
 11
117.2690949555322
 21
157.3538619480799
 31
0.0
  0
LINE
  5
21BB0
330
20
100
AcDbEntity
  8
10000_FRONT
  6
Continuous
 62
     7
370
    13
100
AcDbLine
 10
125.0690949555322
 20
132.9899719480799
 30
0.0
 11
126.3690949555322
 21
132.9899719480799
 31
0.0
  0
LINE
  5
21BB1
330
20
100
AcDbEntity
  8
10000_FRONT
  6
Continuous
 62
     7
370
    13
100
AcDbLine
 10
126.3690949555322
 20
132.9899719480799
 30
0.0
 11
126.3690949555322
 21
132.1399719480799
 31
0.0
  0
LINE
  5
21BB2
330
20
100
AcDbEntity
  8
10000_FRONT
  6
Continuous
 62
     7
370
    13
100
AcDbLine
 10
126.3690949555322
 20
132.1399719480799
 30
0.0
 11
126.5690949555322
 21
132.1399719480799
 31
0.0
  0
LINE
  5
21BB3
330
20
100
AcDbEntity
  8
10000_FRONT
  6
Continuous
 62
     7
370
    13
100
AcDbLine
 10
126.5690949555322
 20
132.1399719480799
 30
0.0
 11
127.8690949555322
 21
133.4399719480799
 31
0.0
  0
LINE
  5
21BB4
330
20
100
AcDbEntity
  8
10000_FRONT
  6
Continuous
 62
     7
370
    13
100
AcDbLine
 10
127.8690949555322
 20
133.4399719480799
 30
0.0
 11
127.8690949555322
 21
133.7936219480799
 31
0.0
  0
LINE
  5
21BB5
330
20
100
AcDbEntity
  8
10000_FRONT
  6
Continuous
370
    50
100
AcDbLine
 39
0.5
 10
124.4690949555322
 20
131.08997194808
 30
0.0
 11
107.8253617058511
 21
131.0887133432429
 31
0.0
  0
LINE
  5
21BB7
330
20
100
AcDbEntity
  8
10000_FRONT
  6
Continuous
 62
     7
370
    13
100
AcDbLine
 10
126.3690949555322
 20
174.1899719480799
 30
0.0
 11
125.0690949555322
 21
174.1899719480799
 31
0.0
  0
LINE
  5
21BBA
330
20
100
AcDbEntity
  8
10000_FRONT
  6
Continuous
 62
     7
370
    13
100
AcDbLine
 10
125.0690949555322
 20
111.2399614274105
 30
0.0
 11
127.8690949555322
 21
111.7336819480799
 31
0.0
  0
LINE
  5
21BBB
330
20
100
AcDbEntity
  8
10000_FRONT
  6
Continuous
 62
     7
370
    13
100
AcDbLine
 10
127.8690949555322
 20
115.9462519480799
 30
0.0
 11
125.0690949555322
 21
116.4399724687495
 31
0.0
  0
LINE
  5
21BBD
330
20
100
AcDbEntity
  8
10000_FRONT
  6
Continuous
 62
     7
370
    13
100
AcDbLine
 10
125.0690949555322
 20
190.73997194808
 30
0.0
 11
126.0690949555322
 21
190.91630194808
 31
0.0
  0
LINE
  5
21BBE
330
20
100
AcDbEntity
  8
10000_FRONT
  6
Continuous
 62
     7
370
    13
100
AcDbLine
 10
126.0690949555322
 20
190.91630194808
 30
0.0
 11
127.8690949555322
 21
191.2336819480799
 31
0.0
  0
LINE
  5
21BBF
330
20
100
AcDbEntity
  8
10000_FRONT
  6
Continuous
 62
     7
370
    13
100
AcDbLine
 10
127.8690949555322
 20
193.94625194808
 30
0.0
 11
126.0690949555322
 21
194.2636419480799
 31
0.0
  0
LINE
  5
21BC0
330
20
100
AcDbEntity
  8
10000_FRONT
  6
Continuous
 62
     7
370
    13
100
AcDbLine
 10
126.0690949555322
 20
194.2636419480799
 30
0.0
 11
125.0690949555322
 21
194.4399719480799
 31
0.0
  0
LINE
  5
21BC7
330
20
100
AcDbEntity
  8
10000_FRONT
  6
Continuous
 62
     7
370
    13
100
AcDbLine
 10
125.0690949555322
 20
175.9399719480799
 30
0.0
 11
125.0690949555322
 21
175.48997194808
 31
0.0
  0
LINE
  5
21BC8
330
20
100
AcDbEntity
  8
10000_FRONT
  6
Continuous
 62
     7
370
    13
100
AcDbLine
 10
127.8690949555322
 20
173.3863219480799
 30
0.0
 11
127.8690949555322
 21
173.73997194808
 31
0.0
  0
LINE
  5
21BC9
330
20
100
AcDbEntity
  8
10000_FRONT
  6
Continuous
 62
     7
370
    13
100
AcDbLine
 10
127.8690949555322
 20
173.73997194808
 30
0.0
 11
126.5690949555322
 21
175.0399719480799
 31
0.0
  0
LINE
  5
21BCA
330
20
100
AcDbEntity
  8
10000_FRONT
  6
Continuous
 62
     7
370
    13
100
AcDbLine
 10
126.5690949555322
 20
175.0399719480799
 30
0.0
 11
126.3690949555322
 21
175.0399719480799
 31
0.0
  0
LINE
  5
21BCB
330
20
100
AcDbEntity
  8
10000_FRONT
  6
Continuous
 62
     7
370
    13
100
AcDbLine
 10
126.3690949555322
 20
175.0399719480799
 30
0.0
 11
126.3690949555322
 21
174.1899719480799
 31
0.0
  0
LINE
  5
21BCC
330
20
100
AcDbEntity
  8
10000_FRONT
  6
Continuous
 62
     7
370
    13
100
AcDbLine
 10
126.5690949555322
 20
183.08997194808
 30
0.0
 11
126.5690949555322
 21
180.0899719480799
 31
0.0
  0
ARC
  5
21BD3
330
20
100
AcDbEntity
  8
10000_FRONT
  6
Continuous
370
    50
100
AcDbCircle
 39
0.5
 10
124.4690949555322
 20
109.48997194808
 30
0.0
 40
0.6
100
AcDbArc
 50
270.0
 51
0.0
  0
ARC
  5
21BD4
330
20
100
AcDbEntity
  8
10000_FRONT
  6
Continuous
370
    50
100
AcDbCircle
 39
0.5
 10
124.4690949555322
 20
197.6899719480799
 30
0.0
 40
0.6
100
AcDbArc
 50
0.0
 51
90.0
  0
LINE
  5
21BD9
330
20
100
AcDbEntity
  8
10000_FRONT
  6
Continuous
370
    50
100
AcDbLine
 39
0.5
 10
124.4690949555322
 20
198.2899719480799
 30
0.0
 11
107.6690949555322
 21
198.2899719480799
 31
0.0
  0
LINE
  5
21BDC
330
20
100
AcDbEntity
  8
10000_FRONT
  6
Continuous
 62
     7
370
    13
100
AcDbLine
 10
124.4690949555322
 20
121.08997194808
 30
0.0
 11
107.8691049555321
 21
121.0899819480799
 31
0.0
  0
POLYLINE
  5
21E52
330
20
100
AcDbEntity
  8
10000_FRONT
  6
Continuous
 62
     7
370
    13
100
AcDb2dPolyline
 66
     1
 10
0.0
 20
0.0
 30
0.0
 70
     2
  0
VERTEX
  5
21E53
330
21E52
100
AcDbEntity
  8
10000_FRONT
  6
Continuous
 62
     7
370
    13
100
AcDbVertex
100
AcDb2dVertex
 10
124.1201049555322
 20
131.0891919480799
 30
0.0
  0
VERTEX
  5
21E54
330
21E52
100
AcDbEntity
  8
10000_FRONT
  6
Continuous
 62
     7
370
    13
100
AcDbVertex
100
AcDb2dVertex
 10
124.1201049555322
 20
131.0891919480799
 30
0.0
 42
-0.17413434
 70
     1
  0
VERTEX
  5
21E55
330
21E52
100
AcDbEntity
  8
10000_FRONT
  6
Continuous
 62
     7
370
    13
100
AcDbVertex
100
AcDb2dVertex
 10
124.1201049555322
 20
131.0892019480799
 30
0.0
 42
-0.036578694
  0
VERTEX
  5
21E56
330
21E52
100
AcDbEntity
  8
10000_FRONT
  6
Continuous
 62
     7
370
    13
100
AcDbVertex
100
AcDb2dVertex
 10
124.1201049555322
 20
131.0892019480799
 30
0.0
 42
-0.01444505
 70
     1
  0
VERTEX
  5
21E57
330
21E52
100
AcDbEntity
  8
10000_FRONT
  6
Continuous
 62
     7
370
    13
100
AcDbVertex
100
AcDb2dVertex
 10
124.1201049555322
 20
131.08921194808
 30
0.0
 42
-0.0078118817
  0
VERTEX
  5
21E58
330
21E52
100
AcDbEntity
  8
10000_FRONT
  6
Continuous
 62
     7
370
    13
100
AcDbVertex
100
AcDb2dVertex
 10
124.1201049555322
 20
131.08921194808
 30
0.0
 42
-0.0047964031
 70
     1
  0
VERTEX
  5
21E59
330
21E52
100
AcDbEntity
  8
10000_FRONT
  6
Continuous
 62
     7
370
    13
100
AcDbVertex
100
AcDb2dVertex
 10
124.1201049555322
 20
131.0892219480799
 30
0.0
 42
-0.0032866006
  0
VERTEX
  5
21E5A
330
21E52
100
AcDbEntity
  8
10000_FRONT
  6
Continuous
 62
     7
370
    13
100
AcDbVertex
100
AcDb2dVertex
 10
124.1201049555322
 20
131.0892419480799
 30
0.0
 42
-0.0023624783
 70
     1
  0
VERTEX
  5
21E5B
330
21E52
100
AcDbEntity
  8
10000_FRONT
  6
Continuous
 62
     7
370
    13
100
AcDbVertex
100
AcDb2dVertex
 10
124.1201049555322
 20
131.08925194808
 30
0.0
 42
-0.0017981383
  0
VERTEX
  5
21E5C
330
21E52
100
AcDbEntity
  8
10000_FRONT
  6
Continuous
 62
     7
370
    13
100
AcDbVertex
100
AcDb2dVertex
 10
124.1201049555322
 20
131.0892619480799
 30
0.0
 42
-0.0014012368
 70
     1
  0
VERTEX
  5
21E5D
330
21E52
100
AcDbEntity
  8
10000_FRONT
  6
Continuous
 62
     7
370
    13
100
AcDbVertex
100
AcDb2dVertex
 10
124.1201049555322
 20
131.0892819480799
 30
0.0
 42
-0.0011320057
  0
VERTEX
  5
21E5E
330
21E52
100
AcDbEntity
  8
10000_FRONT
  6
Continuous
 62
     7
370
    13
100
AcDbVertex
100
AcDb2dVertex
 10
124.1201049555322
 20
131.08930194808
 30
0.0
 42
-0.0009261888
 70
     1
  0
VERTEX
  5
21E5F
330
21E52
100
AcDbEntity
  8
10000_FRONT
  6
Continuous
 62
     7
370
    13
100
AcDbVertex
100
AcDb2dVertex
 10
124.1201049555322
 20
131.0893219480799
 30
0.0
 42
-0.0007768911
  0
VERTEX
  5
21E60
330
21E52
100
AcDbEntity
  8
10000_FRONT
  6
Continuous
 62
     7
370
    13
100
AcDbVertex
100
AcDb2dVertex
 10
124.1201049555322
 20
131.08934194808
 30
0.0
 42
-0.0006575618
 70
     1
  0
VERTEX
  5
21E61
330
21E52
100
AcDbEntity
  8
10000_FRONT
  6
Continuous
 62
     7
370
    13
100
AcDbVertex
100
AcDb2dVertex
 10
124.1201049555322
 20
131.0893719480799
 30
0.0
 42
-0.0005676088
  0
VERTEX
  5
21E62
330
21E52
100
AcDbEntity
  8
10000_FRONT
  6
Continuous
 62
     7
370
    13
100
AcDbVertex
100
AcDb2dVertex
 10
124.1201049555322
 20
131.08939194808
 30
0.0
 42
-0.00049023
 70
     1
  0
VERTEX
  5
21E63
330
21E52
100
AcDbEntity
  8
10000_FRONT
  6
Continuous
 62
     7
370
    13
100
AcDbVertex
100
AcDb2dVertex
 10
124.1201049555322
 20
131.0894219480799
 30
0.0
 42
-0.000428424
  0
VERTEX
  5
21E64
330
21E52
100
AcDbEntity
  8
10000_FRONT
  6
Continuous
 62
     7
370
    13
100
AcDbVertex
100
AcDb2dVertex
 10
124.1201049555322
 20
131.0894519480799
 30
0.0
 42
-0.000381138
 70
     1
  0
VERTEX
  5
21E65
330
21E52
100
AcDbEntity
  8
10000_FRONT
  6
Continuous
 62
     7
370
    13
100
AcDbVertex
100
AcDb2dVertex
 10
124.1201049555322
 20
131.08948194808
 30
0.0
 42
-0.0003464172
  0
VERTEX
  5
21E66
330
21E52
100
AcDbEntity
  8
10000_FRONT
  6
Continuous
 62
     7
370
    13
100
AcDbVertex
100
AcDb2dVertex
 10
124.1201049555322
 20
131.0895119480799
 30
0.0
 42
-0.0003003877
 70
     1
  0
VERTEX
  5
21E67
330
21E52
100
AcDbEntity
  8
10000_FRONT
  6
Continuous
 62
     7
370
    13
100
AcDbVertex
100
AcDb2dVertex
 10
124.1201049555322
 20
131.0895419480799
 30
0.0
 42
-0.0002543333
  0
VERTEX
  5
21E68
330
21E52
100
AcDbEntity
  8
10000_FRONT
  6
Continuous
 62
     7
370
    13
100
AcDbVertex
100
AcDb2dVertex
 10
124.1201049555322
 20
131.08958194808
 30
0.0
 42
-0.0002548478
 70
     1
  0
VERTEX
  5
21E69
330
21E52
100
AcDbEntity
  8
10000_FRONT
  6
Continuous
 62
     7
370
    13
100
AcDbVertex
100
AcDb2dVertex
 10
124.1201049555322
 20
131.08962194808
 30
0.0
 42
-0.00027358
  0
VERTEX
  5
21E6A
330
21E52
100
AcDbEntity
  8
10000_FRONT
  6
Continuous
 62
     7
370
    13
100
AcDbVertex
100
AcDb2dVertex
 10
124.1201049555322
 20
131.08966194808
 30
0.0
 42
-0.0001872266
 70
     1
  0
VERTEX
  5
21E6B
330
21E52
100
AcDbEntity
  8
10000_FRONT
  6
Continuous
 62
     7
370
    13
100
AcDbVertex
100
AcDb2dVertex
 10
124.1201049555322
 20
131.08970194808
 30
0.0
 42
-0.0000612168
  0
VERTEX
  5
21E6C
330
21E52
100
AcDbEntity
  8
10000_FRONT
  6
Continuous
 62
     7
370
    13
100
AcDbVertex
100
AcDb2dVertex
 10
124.1201049555322
 20
131.0897319480799
 30
0.0
 42
-0.0002390246
 70
     1
  0
VERTEX
  5
21E6D
330
21E52
100
AcDbEntity
  8
10000_FRONT
  6
Continuous
 62
     7
370
    13
100
AcDbVertex
100
AcDb2dVertex
 10
124.1201049555322
 20
131.0897819480799
 30
0.0
 42
-0.000352059
  0
VERTEX
  5
21E6E
330
21E52
100
AcDbEntity
  8
10000_FRONT
  6
Continuous
 62
     7
370
    13
100
AcDbVertex
100
AcDb2dVertex
 10
124.1201049555322
 20
131.0898719480799
 30
0.0
 42
-0.0001515224
 70
     1
  0
VERTEX
  5
21E6F
330
21E52
100
AcDbEntity
  8
10000_FRONT
  6
Continuous
 62
     7
370
    13
100
AcDbVertex
100
AcDb2dVertex
 10
124.1201049555322
 20
131.08998194808
 30
0.0
 42
-0.0000759593
  0
SEQEND
  5
21E70
330
21E52
100
AcDbEntity
  8
10000_FRONT
  6
Continuous
 62
     7
370
    13
  0
LINE
  5
21FA8
330
20
100
AcDbEntity
  8
10000_FRONT
  6
Continuous
 62
     7
370
    13
100
AcDbLine
 10
126.0690949555322
 20
113.8346419480799
 30
0.0
 11
125.0690949555322
 21
113.8346419480799
 31
0.0
  0
LINE
  5
21FAA
330
20
100
AcDbEntity
  8
10000_FRONT
  6
Continuous
 62
     7
370
    13
100
AcDbLine
 10
125.0690949555322
 20
115.04530194808
 30
0.0
 11
126.0690949555322
 21
115.04530194808
 31
0.0
  0
LINE
  5
21FAD
330
20
100
AcDbEntity
  8
10000_FRONT
  6
Continuous
 62
     7
370
    13
100
AcDbLine
 10
127.3931449555322
 20
115.2008719480799
 30
0.0
 11
127.3931449555322
 21
113.6790719480799
 31
0.0
  0
LINE
  5
21FCD
330
20
100
AcDbEntity
  8
10000_FRONT
  6
Continuous
 62
     7
370
    13
100
AcDbLine
 10
127.8690949555322
 20
111.7336819480799
 30
0.0
 11
127.8690949555322
 21
115.9462519480799
 31
0.0
  0
LINE
  5
21FED
330
20
100
AcDbEntity
  8
10000_FRONT
  6
Continuous
 62
     7
370
    13
100
AcDbLine
 10
127.8690949555322
 20
191.2336819480799
 30
0.0
 11
127.8690949555322
 21
193.9462619480799
 31
0.0
  0
LINE
  5
21FEE
330
20
100
AcDbEntity
  8
10000_FRONT
  6
Continuous
 62
     7
370
    13
100
AcDbLine
 10
125.7738749555321
 20
114.7297519480799
 30
0.0
 11
127.3931449555322
 21
115.2008719480799
 31
0.0
  0
LINE
  5
22038
330
20
100
AcDbEntity
  8
10000_FRONT
  6
Continuous
 62
     7
370
    13
100
AcDbLine
 10
127.3931449555322
 20
113.6790719480799
 30
0.0
 11
125.7738749555321
 21
114.1501919480799
 31
0.0
  0
LINE
  5
22228
330
20
100
AcDbEntity
  8
10000_FRONT
  6
Continuous
 62
     7
370
    13
100
AcDbLine
 10
126.0691049555322
 20
183.5899719480799
 30
0.0
 11
125.0690949555322
 21
183.5899719480799
 31
0.0
  0
LINE
  5
22229
330
20
100
AcDbEntity
  8
10000_FRONT
  6
Continuous
 62
     7
370
    13
100
AcDbLine
 10
126.0691049555322
 20
179.5899719480799
 30
0.0
 11
125.0690949555322
 21
179.5899719480799
 31
0.0
  0
LINE
  5
2222A
330
20
100
AcDbEntity
  8
10000_FRONT
  6
Continuous
 62
     7
370
    13
100
AcDbLine
 10
126.5690949555322
 20
183.08997194808
 30
0.0
 11
126.0690949555322
 21
183.5899719480799
 31
0.0
  0
LINE
  5
2222B
330
20
100
AcDbEntity
  8
10000_FRONT
  6
Continuous
 62
     7
370
    13
100
AcDbLine
 10
126.0690949555322
 20
179.5899719480799
 30
0.0
 11
126.5690949555322
 21
180.0899719480799
 31
0.0
  0
LINE
  5
2262A
330
20
100
AcDbEntity
  8
10000_FRONT
  6
Continuous
 62
     7
370
    13
100
AcDbLine
 10
129.8204249555322
 20
157.58997194808
 30
0.0
 11
125.0690949555322
 21
157.58997194808
 31
0.0
  0
LINE
  5
2262B
330
20
100
AcDbEntity
  8
10000_FRONT
  6
Continuous
 62
     7
370
    13
100
AcDbLine
 10
125.0690949555322
 20
156.08997194808
 30
0.0
 11
129.8204249555322
 21
156.08997194808
 31
0.0
  0
LINE
  5
2262C
330
20
100
AcDbEntity
  8
10000_FRONT
  6
Continuous
 62
     7
370
    13
100
AcDbLine
 10
129.8204249555322
 20
157.58997194808
 30
0.0
 11
129.8204249555322
 21
156.08997194808
 31
0.0
  0
LINE
  5
2262D
330
20
100
AcDbEntity
  8
10000_FRONT
  6
Continuous
 62
     7
370
    13
100
AcDbLine
 10
134.6822749555322
 20
169.4899719480799
 30
0.0
 11
134.6822749555322
 21
170.98997194808
 31
0.0
  0
LINE
  5
2262E
330
20
100
AcDbEntity
  8
10000_FRONT
  6
Continuous
 62
     7
370
    13
100
AcDbLine
 10
134.6822749555322
 20
169.4899719480799
 30
0.0
 11
125.0690949555322
 21
169.4899719480799
 31
0.0
  0
LINE
  5
2262F
330
20
100
AcDbEntity
  8
10000_FRONT
  6
Continuous
 62
     7
370
    13
100
AcDbLine
 10
125.0690949555322
 20
170.98997194808
 30
0.0
 11
134.6822749555322
 21
170.98997194808
 31
0.0
  0
LINE
  5
22632
330
20
100
AcDbEntity
  8
10000_FRONT
  6
Continuous
 62
     7
370
    13
100
AcDbLine
 10
130.0690949555322
 20
150.4471619480799
 30
0.0
 11
130.0690949555322
 21
150.22956194808
 31
0.0
  0
LINE
  5
22633
330
20
100
AcDbEntity
  8
10000_FRONT
  6
Continuous
 62
     7
370
    13
100
AcDbLine
 10
130.0690949555322
 20
150.1001219480799
 30
0.0
 11
130.0690949555322
 21
150.22956194808
 31
0.0
  0
LINE
  5
22634
330
20
100
AcDbEntity
  8
10000_FRONT
  6
Continuous
 62
     7
370
    13
100
AcDbLine
 10
130.0690949555322
 20
152.0826519480799
 30
0.0
 11
130.0690949555322
 21
152.41242194808
 31
0.0
  0
LINE
  5
22635
330
20
100
AcDbEntity
  8
10000_FRONT
  6
Continuous
 62
     7
370
    13
100
AcDbLine
 10
130.0690949555322
 20
151.9532119480799
 30
0.0
 11
130.0690949555322
 21
152.0826519480799
 31
0.0
  0
LINE
  5
22636
330
20
100
AcDbEntity
  8
10000_FRONT
  6
Continuous
 62
     7
370
    13
100
AcDbLine
 10
130.0690949555322
 20
151.9532119480799
 30
0.0
 11
130.0690949555322
 21
151.7797019480799
 31
0.0
  0
LINE
  5
22637
330
20
100
AcDbEntity
  8
10000_FRONT
  6
Continuous
 62
     7
370
    13
100
AcDbLine
 10
130.0690949555322
 20
151.7652919480799
 30
0.0
 11
130.0690949555322
 21
150.5757719480799
 31
0.0
  0
LINE
  5
22638
330
20
100
AcDbEntity
  8
10000_FRONT
  6
Continuous
 62
     7
370
    13
100
AcDbLine
 10
130.0690949555322
 20
150.5757719480799
 30
0.0
 11
130.0690949555322
 21
150.4471619480799
 31
0.0
  0
LINE
  5
22639
330
20
100
AcDbEntity
  8
10000_FRONT
  6
Continuous
 62
     7
370
    13
100
AcDbLine
 10
125.0690949555322
 20
150.1001219480799
 30
0.0
 11
130.0690949555322
 21
150.1001219480799
 31
0.0
  0
LINE
  5
2263C
330
20
100
AcDbEntity
  8
10000_FRONT
  6
Continuous
 62
     7
370
    13
100
AcDbLine
 10
125.0690949555322
 20
152.41242194808
 30
0.0
 11
130.0690949555322
 21
152.41242194808
 31
0.0
  0
POLYLINE
  5
22641
330
20
100
AcDbEntity
  8
10000_FRONT
  6
Continuous
 62
     7
370
    13
100
AcDb2dPolyline
 66
     1
 10
0.0
 20
0.0
 30
0.0
 70
     2
  0
VERTEX
  5
22642
330
22641
100
AcDbEntity
  8
10000_FRONT
  6
Continuous
 62
     7
370
    13
100
AcDbVertex
100
AcDb2dVertex
 10
130.3691049555322
 20
172.4210419480799
 30
0.0
  0
VERTEX
  5
22643
330
22641
100
AcDbEntity
  8
10000_FRONT
  6
Continuous
 62
     7
370
    13
100
AcDbVertex
100
AcDb2dVertex
 10
130.3690149555322
 20
172.42202194808
 30
0.0
 42
0.041016568
 70
     1
  0
VERTEX
  5
22644
330
22641
100
AcDbEntity
  8
10000_FRONT
  6
Continuous
 62
     7
370
    13
100
AcDbVertex
100
AcDb2dVertex
 10
130.3687649555322
 20
172.42300194808
 30
0.0
 42
0.039285594
  0
VERTEX
  5
22645
330
22641
100
AcDbEntity
  8
10000_FRONT
  6
Continuous
 62
     7
370
    13
100
AcDbVertex
100
AcDb2dVertex
 10
130.3683449555322
 20
172.4239919480799
 30
0.0
 42
0.035215644
 70
     1
  0
VERTEX
  5
22646
330
22641
100
AcDbEntity
  8
10000_FRONT
  6
Continuous
 62
     7
370
    13
100
AcDbVertex
100
AcDb2dVertex
 10
130.3677749555322
 20
172.4249719480799
 30
0.0
 42
0.030315656
  0
VERTEX
  5
22647
330
22641
100
AcDbEntity
  8
10000_FRONT
  6
Continuous
 62
     7
370
    13
100
AcDbVertex
100
AcDb2dVertex
 10
130.3670349555321
 20
172.42594194808
 30
0.0
 42
0.02578081
 70
     1
  0
VERTEX
  5
22648
330
22641
100
AcDbEntity
  8
10000_FRONT
  6
Continuous
 62
     7
370
    13
100
AcDbVertex
100
AcDb2dVertex
 10
130.3661549555322
 20
172.4269119480799
 30
0.0
 42
0.021979461
  0
VERTEX
  5
22649
330
22641
100
AcDbEntity
  8
10000_FRONT
  6
Continuous
 62
     7
370
    13
100
AcDbVertex
100
AcDb2dVertex
 10
130.3651149555322
 20
172.42787194808
 30
0.0
 42
0.018660803
 70
     1
  0
VERTEX
  5
2264A
330
22641
100
AcDbEntity
  8
10000_FRONT
  6
Continuous
 62
     7
370
    13
100
AcDbVertex
100
AcDb2dVertex
 10
130.3639349555321
 20
172.4288319480799
 30
0.0
 42
0.015986817
  0
VERTEX
  5
2264B
330
22641
100
AcDbEntity
  8
10000_FRONT
  6
Continuous
 62
     7
370
    13
100
AcDbVertex
100
AcDb2dVertex
 10
130.3626049555322
 20
172.4297819480799
 30
0.0
 42
0.013743812
 70
     1
  0
VERTEX
  5
2264C
330
22641
100
AcDbEntity
  8
10000_FRONT
  6
Continuous
 62
     7
370
    13
100
AcDbVertex
100
AcDb2dVertex
 10
130.3611449555321
 20
172.43071194808
 30
0.0
 42
0.011969041
  0
VERTEX
  5
2264D
330
22641
100
AcDbEntity
  8
10000_FRONT
  6
Continuous
 62
     7
370
    13
100
AcDbVertex
100
AcDb2dVertex
 10
130.3595349555322
 20
172.4316419480799
 30
0.0
 42
0.010473341
 70
     1
  0
VERTEX
  5
2264E
330
22641
100
AcDbEntity
  8
10000_FRONT
  6
Continuous
 62
     7
370
    13
100
AcDbVertex
100
AcDb2dVertex
 10
130.3578049555321
 20
172.43255194808
 30
0.0
 42
0.009282811
  0
VERTEX
  5
2264F
330
22641
100
AcDbEntity
  8
10000_FRONT
  6
Continuous
 62
     7
370
    13
100
AcDbVertex
100
AcDb2dVertex
 10
130.3559349555322
 20
172.4334419480799
 30
0.0
 42
0.0082675554
 70
     1
  0
VERTEX
  5
22650
330
22641
100
AcDbEntity
  8
10000_FRONT
  6
Continuous
 62
     7
370
    13
100
AcDbVertex
100
AcDb2dVertex
 10
130.3539449555322
 20
172.4343319480799
 30
0.0
 42
0.0074524886
  0
VERTEX
  5
22651
330
22641
100
AcDbEntity
  8
10000_FRONT
  6
Continuous
 62
     7
370
    13
100
AcDbVertex
100
AcDb2dVertex
 10
130.3518349555322
 20
172.4351919480799
 30
0.0
 42
0.0067466329
 70
     1
  0
VERTEX
  5
22652
330
22641
100
AcDbEntity
  8
10000_FRONT
  6
Continuous
 62
     7
370
    13
100
AcDbVertex
100
AcDb2dVertex
 10
130.3496049555322
 20
172.4360419480799
 30
0.0
 42
0.006175618
  0
VERTEX
  5
22653
330
22641
100
AcDbEntity
  8
10000_FRONT
  6
Continuous
 62
     7
370
    13
100
AcDbVertex
100
AcDb2dVertex
 10
130.3472549555322
 20
172.4368619480799
 30
0.0
 42
0.0056730822
 70
     1
  0
VERTEX
  5
22654
330
22641
100
AcDbEntity
  8
10000_FRONT
  6
Continuous
 62
     7
370
    13
100
AcDbVertex
100
AcDb2dVertex
 10
130.3447949555323
 20
172.4376719480799
 30
0.0
 42
0.0052646237
  0
VERTEX
  5
22655
330
22641
100
AcDbEntity
  8
10000_FRONT
  6
Continuous
 62
     7
370
    13
100
AcDbVertex
100
AcDb2dVertex
 10
130.3422249555322
 20
172.43845194808
 30
0.0
 42
0.0049001608
 70
     1
  0
VERTEX
  5
22656
330
22641
100
AcDbEntity
  8
10000_FRONT
  6
Continuous
 62
     7
370
    13
100
AcDbVertex
100
AcDb2dVertex
 10
130.3395449555322
 20
172.43922194808
 30
0.0
 42
0.0046045497
  0
VERTEX
  5
22657
330
22641
100
AcDbEntity
  8
10000_FRONT
  6
Continuous
 62
     7
370
    13
100
AcDbVertex
100
AcDb2dVertex
 10
130.3367649555322
 20
172.4399519480799
 30
0.0
 42
0.0043347702
 70
     1
  0
VERTEX
  5
22658
330
22641
100
AcDbEntity
  8
10000_FRONT
  6
Continuous
 62
     7
370
    13
100
AcDbVertex
100
AcDb2dVertex
 10
130.3338949555322
 20
172.44066194808
 30
0.0
 42
0.0041155792
  0
VERTEX
  5
22659
330
22641
100
AcDbEntity
  8
10000_FRONT
  6
Continuous
 62
     7
370
    13
100
AcDbVertex
100
AcDb2dVertex
 10
130.3309149555322
 20
172.4413519480799
 30
0.0
 42
0.0039188914
 70
     1
  0
VERTEX
  5
2265A
330
22641
100
AcDbEntity
  8
10000_FRONT
  6
Continuous
 62
     7
370
    13
100
AcDbVertex
100
AcDb2dVertex
 10
130.3278549555322
 20
172.4420019480799
 30
0.0
 42
0.0037668702
  0
VERTEX
  5
2265B
330
22641
100
AcDbEntity
  8
10000_FRONT
  6
Continuous
 62
     7
370
    13
100
AcDbVertex
100
AcDb2dVertex
 10
130.3246949555322
 20
172.4426319480799
 30
0.0
 42
0.0036075886
 70
     1
  0
VERTEX
  5
2265C
330
22641
100
AcDbEntity
  8
10000_FRONT
  6
Continuous
 62
     7
370
    13
100
AcDbVertex
100
AcDb2dVertex
 10
130.3214649555322
 20
172.44322194808
 30
0.0
 42
0.0034690428
  0
VERTEX
  5
2265D
330
22641
100
AcDbEntity
  8
10000_FRONT
  6
Continuous
 62
     7
370
    13
100
AcDbVertex
100
AcDb2dVertex
 10
130.3181449555322
 20
172.4437819480799
 30
0.0
 42
0.003391948
 70
     1
  0
VERTEX
  5
2265E
330
22641
100
AcDbEntity
  8
10000_FRONT
  6
Continuous
 62
     7
370
    13
100
AcDbVertex
100
AcDb2dVertex
 10
130.3147449555322
 20
172.44431194808
 30
0.0
 42
0.0033816971
  0
VERTEX
  5
2265F
330
22641
100
AcDbEntity
  8
10000_FRONT
  6
Continuous
 62
     7
370
    13
100
AcDbVertex
100
AcDb2dVertex
 10
130.3112649555322
 20
172.44480194808
 30
0.0
 42
0.003195995
 70
     1
  0
VERTEX
  5
22660
330
22641
100
AcDbEntity
  8
10000_FRONT
  6
Continuous
 62
     7
370
    13
100
AcDbVertex
100
AcDb2dVertex
 10
130.3077249555322
 20
172.44526194808
 30
0.0
 42
0.002917025
  0
VERTEX
  5
22661
330
22641
100
AcDbEntity
  8
10000_FRONT
  6
Continuous
 62
     7
370
    13
100
AcDbVertex
100
AcDb2dVertex
 10
130.3041449555322
 20
172.4456819480799
 30
0.0
 42
0.003194374
 70
     1
  0
VERTEX
  5
22662
330
22641
100
AcDbEntity
  8
10000_FRONT
  6
Continuous
 62
     7
370
    13
100
AcDbVertex
100
AcDb2dVertex
 10
130.3004349555322
 20
172.44606194808
 30
0.0
 42
0.0038018771
  0
VERTEX
  5
22663
330
22641
100
AcDbEntity
  8
10000_FRONT
  6
Continuous
 62
     7
370
    13
100
AcDbVertex
100
AcDb2dVertex
 10
130.2965749555321
 20
172.4464019480799
 30
0.0
 42
0.0027907936
 70
     1
  0
VERTEX
  5
22664
330
22641
100
AcDbEntity
  8
10000_FRONT
  6
Continuous
 62
     7
370
    13
100
AcDbVertex
100
AcDb2dVertex
 10
130.2929049555322
 20
172.44670194808
 30
0.0
 42
0.0008299806
  0
VERTEX
  5
22665
330
22641
100
AcDbEntity
  8
10000_FRONT
  6
Continuous
 62
     7
370
    13
100
AcDbVertex
100
AcDb2dVertex
 10
130.2895549555322
 20
172.4469519480799
 30
0.0
 42
0.0040152828
 70
     1
  0
VERTEX
  5
22666
330
22641
100
AcDbEntity
  8
10000_FRONT
  6
Continuous
 62
     7
370
    13
100
AcDbVertex
100
AcDb2dVertex
 10
130.2851549555322
 20
172.4471719480799
 30
0.0
 42
0.0068962003
  0
VERTEX
  5
22667
330
22641
100
AcDbEntity
  8
10000_FRONT
  6
Continuous
 62
     7
370
    13
100
AcDbVertex
100
AcDb2dVertex
 10
130.2782349555322
 20
172.44737194808
 30
0.0
 42
0.0032681427
 70
     1
  0
VERTEX
  5
22668
330
22641
100
AcDbEntity
  8
10000_FRONT
  6
Continuous
 62
     7
370
    13
100
AcDbVertex
100
AcDb2dVertex
 10
130.2691049555321
 20
172.4475619480799
 30
0.0
 42
0.0016851917
  0
SEQEND
  5
22669
330
22641
100
AcDbEntity
  8
10000_FRONT
  6
Continuous
 62
     7
370
    13
  0
LINE
  5
2266A
330
20
100
AcDbEntity
  8
10000_FRONT
  6
Continuous
 62
     7
370
    13
100
AcDbLine
 10
130.2690949555322
 20
172.4475719480799
 30
0.0
 11
125.0690949555322
 21
172.4475719480799
 31
0.0
  0
LINE
  5
2266C
330
20
100
AcDbEntity
  8
10000_FRONT
  6
Continuous
 62
     7
370
    13
100
AcDbLine
 10
130.3690949555322
 20
171.8709419480799
 30
0.0
 11
130.3690949555322
 21
172.4210419480799
 31
0.0
  0
LINE
  5
2266E
330
20
100
AcDbEntity
  8
10000_FRONT
  6
Continuous
 62
     7
370
    13
100
AcDbLine
 10
130.3690949555322
 20
170.98997194808
 30
0.0
 11
130.3690949555322
 21
171.8709419480799
 31
0.0
  0
ARC
  5
2266F
330
20
100
AcDbEntity
  8
10000_FRONT
  6
Continuous
 62
     7
370
    13
100
AcDbCircle
 10
115.3690249555322
 20
162.4520719480799
 30
0.0
 40
0.3999322
100
AcDbArc
 50
89.99028599999979
 51
179.9902799999978
  0
ARC
  5
22670
330
20
100
AcDbEntity
  8
10000_FRONT
  6
Continuous
 62
     7
370
    13
100
AcDbCircle
 10
118.6691649555322
 20
162.4494719480799
 30
0.0
 40
0.3999322
100
AcDbArc
 50
0.0097200058971765
 51
90.00971400000022
  0
ARC
  5
22671
330
20
100
AcDbEntity
  8
10000_FRONT
  6
Continuous
 62
     7
370
    13
100
AcDbCircle
 10
118.6691649555322
 20
157.7538019480799
 30
0.0
 40
0.3999322
100
AcDbArc
 50
269.9902899999989
 51
359.9902799999977
  0
ARC
  5
22672
330
20
100
AcDbEntity
  8
10000_FRONT
  6
Continuous
 62
     7
370
    13
100
AcDbCircle
 10
115.3690249555322
 20
157.7512019480799
 30
0.0
 40
0.3999322
100
AcDbArc
 50
180.0097200000021
 51
270.0097099999978
  0
LINE
  5
22673
330
20
100
AcDbEntity
  8
10000_FRONT
  6
Continuous
 62
     7
370
    13
100
AcDbLine
 10
119.0690949555322
 20
162.45214194808
 30
0.0
 11
119.0690949555322
 21
157.75374194808
 31
0.0
  0
LINE
  5
22674
330
20
100
AcDbEntity
  8
10000_FRONT
  6
Continuous
 62
     7
370
    13
100
AcDbLine
 10
114.9690949555322
 20
157.75374194808
 30
0.0
 11
114.9690949555322
 21
162.45214194808
 31
0.0
  0
LINE
  5
22675
330
20
100
AcDbEntity
  8
10000_FRONT
  6
Continuous
 62
     7
370
    13
100
AcDbLine
 10
118.6690949555323
 20
157.3538719480799
 30
0.0
 11
115.3690949555322
 21
157.3538719480799
 31
0.0
  0
LINE
  5
22676
330
20
100
AcDbEntity
  8
10000_FRONT
  6
Continuous
 62
     7
370
    13
100
AcDbLine
 10
115.3690949555322
 20
162.8520119480799
 30
0.0
 11
118.6690949555323
 21
162.8520119480799
 31
0.0
  0
POLYLINE
  5
22696
330
20
100
AcDbEntity
  8
10000_FRONT
  6
Continuous
 62
     7
370
    13
100
AcDb2dPolyline
 66
     1
 10
0.0
 20
0.0
 30
0.0
 70
     2
  0
VERTEX
  5
22697
330
22696
100
AcDbEntity
  8
10000_FRONT
  6
Continuous
 62
     7
370
    13
100
AcDbVertex
100
AcDb2dVertex
 10
115.3691049555322
 20
162.8521419480799
 30
0.0
  0
VERTEX
  5
22698
330
22696
100
AcDbEntity
  8
10000_FRONT
  6
Continuous
 62
     7
370
    13
100
AcDbVertex
100
AcDb2dVertex
 10
115.3634049555322
 20
162.85210194808
 30
0.0
 42
0.0035540179
 70
     1
  0
VERTEX
  5
22699
330
22696
100
AcDbEntity
  8
10000_FRONT
  6
Continuous
 62
     7
370
    13
100
AcDbVertex
100
AcDb2dVertex
 10
115.3577049555322
 20
162.8519819480799
 30
0.0
 42
0.0035559574
  0
VERTEX
  5
2269A
330
22696
100
AcDbEntity
  8
10000_FRONT
  6
Continuous
 62
     7
370
    13
100
AcDbVertex
100
AcDb2dVertex
 10
115.3520049555322
 20
162.85177194808
 30
0.0
 42
0.0035526226
 70
     1
  0
VERTEX
  5
2269B
330
22696
100
AcDbEntity
  8
10000_FRONT
  6
Continuous
 62
     7
370
    13
100
AcDbVertex
100
AcDb2dVertex
 10
115.3463049555322
 20
162.8514919480799
 30
0.0
 42
0.0035470588
  0
VERTEX
  5
2269C
330
22696
100
AcDbEntity
  8
10000_FRONT
  6
Continuous
 62
     7
370
    13
100
AcDbVertex
100
AcDb2dVertex
 10
115.3406149555321
 20
162.8511219480799
 30
0.0
 42
0.0035440437
 70
     1
  0
VERTEX
  5
2269D
330
22696
100
AcDbEntity
  8
10000_FRONT
  6
Continuous
 62
     7
370
    13
100
AcDbVertex
100
AcDb2dVertex
 10
115.3349249555322
 20
162.8506819480799
 30
0.0
 42
0.0035422454
  0
VERTEX
  5
2269E
330
22696
100
AcDbEntity
  8
10000_FRONT
  6
Continuous
 62
     7
370
    13
100
AcDbVertex
100
AcDb2dVertex
 10
115.3292449555322
 20
162.85015194808
 30
0.0
 42
0.0035413537
 70
     1
  0
VERTEX
  5
2269F
330
22696
100
AcDbEntity
  8
10000_FRONT
  6
Continuous
 62
     7
370
    13
100
AcDbVertex
100
AcDb2dVertex
 10
115.3235749555322
 20
162.8495419480799
 30
0.0
 42
0.0035415371
  0
VERTEX
  5
226A0
330
22696
100
AcDbEntity
  8
10000_FRONT
  6
Continuous
 62
     7
370
    13
100
AcDbVertex
100
AcDb2dVertex
 10
115.3179049555322
 20
162.84885194808
 30
0.0
 42
0.0035425434
 70
     1
  0
VERTEX
  5
226A1
330
22696
100
AcDbEntity
  8
10000_FRONT
  6
Continuous
 62
     7
370
    13
100
AcDbVertex
100
AcDb2dVertex
 10
115.3122549555322
 20
162.84808194808
 30
0.0
 42
0.0035445913
  0
VERTEX
  5
226A2
330
22696
100
AcDbEntity
  8
10000_FRONT
  6
Continuous
 62
     7
370
    13
100
AcDbVertex
100
AcDb2dVertex
 10
115.3066049555321
 20
162.8472319480799
 30
0.0
 42
0.0035478704
 70
     1
  0
VERTEX
  5
226A3
330
22696
100
AcDbEntity
  8
10000_FRONT
  6
Continuous
 62
     7
370
    13
100
AcDbVertex
100
AcDb2dVertex
 10
115.3009849555321
 20
162.8463019480799
 30
0.0
 42
0.0035531812
  0
VERTEX
  5
226A4
330
22696
100
AcDbEntity
  8
10000_FRONT
  6
Continuous
 62
     7
370
    13
100
AcDbVertex
100
AcDb2dVertex
 10
115.2953649555322
 20
162.84529194808
 30
0.0
 42
0.0035557388
 70
     1
  0
VERTEX
  5
226A5
330
22696
100
AcDbEntity
  8
10000_FRONT
  6
Continuous
 62
     7
370
    13
100
AcDbVertex
100
AcDb2dVertex
 10
115.2897649555322
 20
162.84420194808
 30
0.0
 42
0.0035556204
  0
VERTEX
  5
226A6
330
22696
100
AcDbEntity
  8
10000_FRONT
  6
Continuous
 62
     7
370
    13
100
AcDbVertex
100
AcDb2dVertex
 10
115.2841849555322
 20
162.84303194808
 30
0.0
 42
0.0035544897
 70
     1
  0
VERTEX
  5
226A7
330
22696
100
AcDbEntity
  8
10000_FRONT
  6
Continuous
 62
     7
370
    13
100
AcDbVertex
100
AcDb2dVertex
 10
115.2786149555322
 20
162.84178194808
 30
0.0
 42
0.003551697
  0
VERTEX
  5
226A8
330
22696
100
AcDbEntity
  8
10000_FRONT
  6
Continuous
 62
     7
370
    13
100
AcDbVertex
100
AcDb2dVertex
 10
115.2730749555322
 20
162.8404519480799
 30
0.0
 42
0.0035500461
 70
     1
  0
VERTEX
  5
226A9
330
22696
100
AcDbEntity
  8
10000_FRONT
  6
Continuous
 62
     7
370
    13
100
AcDbVertex
100
AcDb2dVertex
 10
115.2675449555322
 20
162.8390419480799
 30
0.0
 42
0.003549089
  0
VERTEX
  5
226AA
330
22696
100
AcDbEntity
  8
10000_FRONT
  6
Continuous
 62
     7
370
    13
100
AcDbVertex
100
AcDb2dVertex
 10
115.2620449555322
 20
162.83755194808
 30
0.0
 42
0.0035485763
 70
     1
  0
VERTEX
  5
226AB
330
22696
100
AcDbEntity
  8
10000_FRONT
  6
Continuous
 62
     7
370
    13
100
AcDbVertex
100
AcDb2dVertex
 10
115.2565549555322
 20
162.8359919480799
 30
0.0
 42
0.003548424
  0
VERTEX
  5
226AC
330
22696
100
AcDbEntity
  8
10000_FRONT
  6
Continuous
 62
     7
370
    13
100
AcDbVertex
100
AcDb2dVertex
 10
115.2510949555321
 20
162.83434194808
 30
0.0
 42
0.0035485968
 70
     1
  0
VERTEX
  5
226AD
330
22696
100
AcDbEntity
  8
10000_FRONT
  6
Continuous
 62
     7
370
    13
100
AcDbVertex
100
AcDb2dVertex
 10
115.2456549555322
 20
162.8326219480799
 30
0.0
 42
0.003549324
  0
VERTEX
  5
226AE
330
22696
100
AcDbEntity
  8
10000_FRONT
  6
Continuous
 62
     7
370
    13
100
AcDbVertex
100
AcDb2dVertex
 10
115.2402449555322
 20
162.8308219480799
 30
0.0
 42
0.0035505594
 70
     1
  0
VERTEX
  5
226AF
330
22696
100
AcDbEntity
  8
10000_FRONT
  6
Continuous
 62
     7
370
    13
100
AcDbVertex
100
AcDb2dVertex
 10
115.2348549555322
 20
162.82894194808
 30
0.0
 42
0.0035528997
  0
VERTEX
  5
226B0
330
22696
100
AcDbEntity
  8
10000_FRONT
  6
Continuous
 62
     7
370
    13
100
AcDbVertex
100
AcDb2dVertex
 10
115.2294949555322
 20
162.8269919480799
 30
0.0
 42
0.0035526321
 70
     1
  0
VERTEX
  5
226B1
330
22696
100
AcDbEntity
  8
10000_FRONT
  6
Continuous
 62
     7
370
    13
100
AcDbVertex
100
AcDb2dVertex
 10
115.2241549555322
 20
162.8249619480799
 30
0.0
 42
0.003550283
  0
VERTEX
  5
226B2
330
22696
100
AcDbEntity
  8
10000_FRONT
  6
Continuous
 62
     7
370
    13
100
AcDbVertex
100
AcDb2dVertex
 10
115.2188449555322
 20
162.8228519480799
 30
0.0
 42
0.0035479621
 70
     1
  0
VERTEX
  5
226B3
330
22696
100
AcDbEntity
  8
10000_FRONT
  6
Continuous
 62
     7
370
    13
100
AcDbVertex
100
AcDb2dVertex
 10
115.2135749555322
 20
162.8206719480799
 30
0.0
 42
0.0035455917
  0
VERTEX
  5
226B4
330
22696
100
AcDbEntity
  8
10000_FRONT
  6
Continuous
 62
     7
370
    13
100
AcDbVertex
100
AcDb2dVertex
 10
115.2083249555322
 20
162.8184119480799
 30
0.0
 42
0.0035440968
 70
     1
  0
VERTEX
  5
226B5
330
22696
100
AcDbEntity
  8
10000_FRONT
  6
Continuous
 62
     7
370
    13
100
AcDbVertex
100
AcDb2dVertex
 10
115.2031149555322
 20
162.81607194808
 30
0.0
 42
0.0035435626
  0
VERTEX
  5
226B6
330
22696
100
AcDbEntity
  8
10000_FRONT
  6
Continuous
 62
     7
370
    13
100
AcDbVertex
100
AcDb2dVertex
 10
115.1979249555322
 20
162.8136619480799
 30
0.0
 42
0.0035434876
 70
     1
  0
VERTEX
  5
226B7
330
22696
100
AcDbEntity
  8
10000_FRONT
  6
Continuous
 62
     7
370
    13
100
AcDbVertex
100
AcDb2dVertex
 10
115.1927849555322
 20
162.8111819480799
 30
0.0
 42
0.0035443418
  0
VERTEX
  5
226B8
330
22696
100
AcDbEntity
  8
10000_FRONT
  6
Continuous
 62
     7
370
    13
100
AcDbVertex
100
AcDb2dVertex
 10
115.1876649555322
 20
162.8086219480799
 30
0.0
 42
0.0035455453
 70
     1
  0
VERTEX
  5
226B9
330
22696
100
AcDbEntity
  8
10000_FRONT
  6
Continuous
 62
     7
370
    13
100
AcDbVertex
100
AcDb2dVertex
 10
115.1825949555322
 20
162.8060019480799
 30
0.0
 42
0.0035479007
  0
VERTEX
  5
226BA
330
22696
100
AcDbEntity
  8
10000_FRONT
  6
Continuous
 62
     7
370
    13
100
AcDbVertex
100
AcDb2dVertex
 10
115.1775549555321
 20
162.8032919480799
 30
0.0
 42
0.0035503837
 70
     1
  0
VERTEX
  5
226BB
330
22696
100
AcDbEntity
  8
10000_FRONT
  6
Continuous
 62
     7
370
    13
100
AcDbVertex
100
AcDb2dVertex
 10
115.1725449555322
 20
162.8005219480799
 30
0.0
 42
0.0035541386
  0
VERTEX
  5
226BC
330
22696
100
AcDbEntity
  8
10000_FRONT
  6
Continuous
 62
     7
370
    13
100
AcDbVertex
100
AcDb2dVertex
 10
115.1675849555322
 20
162.7976719480799
 30
0.0
 42
0.003557947
 70
     1
  0
VERTEX
  5
226BD
330
22696
100
AcDbEntity
  8
10000_FRONT
  6
Continuous
 62
     7
370
    13
100
AcDbVertex
100
AcDb2dVertex
 10
115.1626649555322
 20
162.79476194808
 30
0.0
 42
0.0035633076
  0
VERTEX
  5
226BE
330
22696
100
AcDbEntity
  8
10000_FRONT
  6
Continuous
 62
     7
370
    13
100
AcDbVertex
100
AcDb2dVertex
 10
115.1577849555321
 20
162.7917719480799
 30
0.0
 42
0.0035681199
 70
     1
  0
VERTEX
  5
226BF
330
22696
100
AcDbEntity
  8
10000_FRONT
  6
Continuous
 62
     7
370
    13
100
AcDbVertex
100
AcDb2dVertex
 10
115.1529449555322
 20
162.7887119480799
 30
0.0
 42
0.0035741816
  0
VERTEX
  5
226C0
330
22696
100
AcDbEntity
  8
10000_FRONT
  6
Continuous
 62
     7
370
    13
100
AcDbVertex
100
AcDb2dVertex
 10
115.1481449555322
 20
162.78558194808
 30
0.0
 42
0.0035811083
 70
     1
  0
VERTEX
  5
226C1
330
22696
100
AcDbEntity
  8
10000_FRONT
  6
Continuous
 62
     7
370
    13
100
AcDbVertex
100
AcDb2dVertex
 10
115.1433949555322
 20
162.78238194808
 30
0.0
 42
0.0035912194
  0
VERTEX
  5
226C2
330
22696
100
AcDbEntity
  8
10000_FRONT
  6
Continuous
 62
     7
370
    13
100
AcDbVertex
100
AcDb2dVertex
 10
115.1386849555322
 20
162.7791119480799
 30
0.0
 42
0.0035937046
 70
     1
  0
VERTEX
  5
226C3
330
22696
100
AcDbEntity
  8
10000_FRONT
  6
Continuous
 62
     7
370
    13
100
AcDbVertex
100
AcDb2dVertex
 10
115.1340249555322
 20
162.7757819480799
 30
0.0
 42
0.003590125
  0
VERTEX
  5
226C4
330
22696
100
AcDbEntity
  8
10000_FRONT
  6
Continuous
 62
     7
370
    13
100
AcDbVertex
100
AcDb2dVertex
 10
115.1294149555322
 20
162.7723719480799
 30
0.0
 42
0.0035830841
 70
     1
  0
VERTEX
  5
226C5
330
22696
100
AcDbEntity
  8
10000_FRONT
  6
Continuous
 62
     7
370
    13
100
AcDbVertex
100
AcDb2dVertex
 10
115.1248449555322
 20
162.7689019480799
 30
0.0
 42
0.003571573
  0
VERTEX
  5
226C6
330
22696
100
AcDbEntity
  8
10000_FRONT
  6
Continuous
 62
     7
370
    13
100
AcDbVertex
100
AcDb2dVertex
 10
115.1203349555322
 20
162.76536194808
 30
0.0
 42
0.0035632157
 70
     1
  0
VERTEX
  5
226C7
330
22696
100
AcDbEntity
  8
10000_FRONT
  6
Continuous
 62
     7
370
    13
100
AcDbVertex
100
AcDb2dVertex
 10
115.1158749555322
 20
162.76176194808
 30
0.0
 42
0.0035562541
  0
VERTEX
  5
226C8
330
22696
100
AcDbEntity
  8
10000_FRONT
  6
Continuous
 62
     7
370
    13
100
AcDbVertex
100
AcDb2dVertex
 10
115.1114549555322
 20
162.7581019480799
 30
0.0
 42
0.0035507936
 70
     1
  0
VERTEX
  5
226C9
330
22696
100
AcDbEntity
  8
10000_FRONT
  6
Continuous
 62
     7
370
    13
100
AcDbVertex
100
AcDb2dVertex
 10
115.1070949555321
 20
162.75437194808
 30
0.0
 42
0.0035456791
  0
VERTEX
  5
226CA
330
22696
100
AcDbEntity
  8
10000_FRONT
  6
Continuous
 62
     7
370
    13
100
AcDbVertex
100
AcDb2dVertex
 10
115.1027949555322
 20
162.7505819480799
 30
0.0
 42
0.00354226
 70
     1
  0
VERTEX
  5
226CB
330
22696
100
AcDbEntity
  8
10000_FRONT
  6
Continuous
 62
     7
370
    13
100
AcDbVertex
100
AcDb2dVertex
 10
115.0985349555321
 20
162.74673194808
 30
0.0
 42
0.0035396907
  0
VERTEX
  5
226CC
330
22696
100
AcDbEntity
  8
10000_FRONT
  6
Continuous
 62
     7
370
    13
100
AcDbVertex
100
AcDb2dVertex
 10
115.0943449555323
 20
162.7428219480799
 30
0.0
 42
0.0035385392
 70
     1
  0
VERTEX
  5
226CD
330
22696
100
AcDbEntity
  8
10000_FRONT
  6
Continuous
 62
     7
370
    13
100
AcDbVertex
100
AcDb2dVertex
 10
115.0902049555323
 20
162.7388519480799
 30
0.0
 42
0.0035383391
  0
VERTEX
  5
226CE
330
22696
100
AcDbEntity
  8
10000_FRONT
  6
Continuous
 62
     7
370
    13
100
AcDbVertex
100
AcDb2dVertex
 10
115.0861249555322
 20
162.7348219480799
 30
0.0
 42
0.0035394323
 70
     1
  0
VERTEX
  5
226CF
330
22696
100
AcDbEntity
  8
10000_FRONT
  6
Continuous
 62
     7
370
    13
100
AcDbVertex
100
AcDb2dVertex
 10
115.0820949555322
 20
162.73074194808
 30
0.0
 42
0.0035417223
  0
VERTEX
  5
226D0
330
22696
100
AcDbEntity
  8
10000_FRONT
  6
Continuous
 62
     7
370
    13
100
AcDbVertex
100
AcDb2dVertex
 10
115.0781349555322
 20
162.7266019480799
 30
0.0
 42
0.0035449813
 70
     1
  0
VERTEX
  5
226D1
330
22696
100
AcDbEntity
  8
10000_FRONT
  6
Continuous
 62
     7
370
    13
100
AcDbVertex
100
AcDb2dVertex
 10
115.0742249555321
 20
162.72240194808
 30
0.0
 42
0.0035494467
  0
VERTEX
  5
226D2
330
22696
100
AcDbEntity
  8
10000_FRONT
  6
Continuous
 62
     7
370
    13
100
AcDbVertex
100
AcDb2dVertex
 10
115.0703849555322
 20
162.7181519480799
 30
0.0
 42
0.003555254
 70
     1
  0
VERTEX
  5
226D3
330
22696
100
AcDbEntity
  8
10000_FRONT
  6
Continuous
 62
     7
370
    13
100
AcDbVertex
100
AcDb2dVertex
 10
115.0666049555323
 20
162.71385194808
 30
0.0
 42
0.0035631411
  0
VERTEX
  5
226D4
330
22696
100
AcDbEntity
  8
10000_FRONT
  6
Continuous
 62
     7
370
    13
100
AcDbVertex
100
AcDb2dVertex
 10
115.0628949555322
 20
162.7095019480799
 30
0.0
 42
0.0035697722
 70
     1
  0
VERTEX
  5
226D5
330
22696
100
AcDbEntity
  8
10000_FRONT
  6
Continuous
 62
     7
370
    13
100
AcDbVertex
100
AcDb2dVertex
 10
115.0592349555322
 20
162.7050919480799
 30
0.0
 42
0.0035756799
  0
VERTEX
  5
226D6
330
22696
100
AcDbEntity
  8
10000_FRONT
  6
Continuous
 62
     7
370
    13
100
AcDbVertex
100
AcDb2dVertex
 10
115.0556549555322
 20
162.7006419480799
 30
0.0
 42
0.0035762463
 70
     1
  0
VERTEX
  5
226D7
330
22696
100
AcDbEntity
  8
10000_FRONT
  6
Continuous
 62
     7
370
    13
100
AcDbVertex
100
AcDb2dVertex
 10
115.0521349555322
 20
162.6961419480799
 30
0.0
 42
0.0035700336
  0
VERTEX
  5
226D8
330
22696
100
AcDbEntity
  8
10000_FRONT
  6
Continuous
 62
     7
370
    13
100
AcDbVertex
100
AcDb2dVertex
 10
115.0486749555322
 20
162.6915819480799
 30
0.0
 42
0.0035660318
 70
     1
  0
VERTEX
  5
226D9
330
22696
100
AcDbEntity
  8
10000_FRONT
  6
Continuous
 62
     7
370
    13
100
AcDbVertex
100
AcDb2dVertex
 10
115.0452949555322
 20
162.6869819480799
 30
0.0
 42
0.0035623817
  0
VERTEX
  5
226DA
330
22696
100
AcDbEntity
  8
10000_FRONT
  6
Continuous
 62
     7
370
    13
100
AcDbVertex
100
AcDb2dVertex
 10
115.0419749555321
 20
162.68234194808
 30
0.0
 42
0.0035596702
 70
     1
  0
VERTEX
  5
226DB
330
22696
100
AcDbEntity
  8
10000_FRONT
  6
Continuous
 62
     7
370
    13
100
AcDbVertex
100
AcDb2dVertex
 10
115.0387149555322
 20
162.67764194808
 30
0.0
 42
0.00355644
  0
VERTEX
  5
226DC
330
22696
100
AcDbEntity
  8
10000_FRONT
  6
Continuous
 62
     7
370
    13
100
AcDbVertex
100
AcDb2dVertex
 10
115.0355349555323
 20
162.67291194808
 30
0.0
 42
0.0035542828
 70
     1
  0
VERTEX
  5
226DD
330
22696
100
AcDbEntity
  8
10000_FRONT
  6
Continuous
 62
     7
370
    13
100
AcDbVertex
100
AcDb2dVertex
 10
115.0324149555322
 20
162.6681319480799
 30
0.0
 42
0.003552051
  0
VERTEX
  5
226DE
330
22696
100
AcDbEntity
  8
10000_FRONT
  6
Continuous
 62
     7
370
    13
100
AcDbVertex
100
AcDb2dVertex
 10
115.0293749555321
 20
162.6633019480799
 30
0.0
 42
0.0035506884
 70
     1
  0
VERTEX
  5
226DF
330
22696
100
AcDbEntity
  8
10000_FRONT
  6
Continuous
 62
     7
370
    13
100
AcDbVertex
100
AcDb2dVertex
 10
115.0263949555321
 20
162.6584419480799
 30
0.0
 42
0.0035493852
  0
VERTEX
  5
226E0
330
22696
100
AcDbEntity
  8
10000_FRONT
  6
Continuous
 62
     7
370
    13
100
AcDbVertex
100
AcDb2dVertex
 10
115.0234849555322
 20
162.6535319480799
 30
0.0
 42
0.0035486987
 70
     1
  0
VERTEX
  5
226E1
330
22696
100
AcDbEntity
  8
10000_FRONT
  6
Continuous
 62
     7
370
    13
100
AcDbVertex
100
AcDb2dVertex
 10
115.0206549555322
 20
162.6485819480799
 30
0.0
 42
0.0035481391
  0
VERTEX
  5
226E2
330
22696
100
AcDbEntity
  8
10000_FRONT
  6
Continuous
 62
     7
370
    13
100
AcDbVertex
100
AcDb2dVertex
 10
115.0178849555323
 20
162.6435919480799
 30
0.0
 42
0.0035484624
 70
     1
  0
VERTEX
  5
226E3
330
22696
100
AcDbEntity
  8
10000_FRONT
  6
Continuous
 62
     7
370
    13
100
AcDbVertex
100
AcDb2dVertex
 10
115.0151949555322
 20
162.63857194808
 30
0.0
 42
0.0035495373
  0
VERTEX
  5
226E4
330
22696
100
AcDbEntity
  8
10000_FRONT
  6
Continuous
 62
     7
370
    13
100
AcDbVertex
100
AcDb2dVertex
 10
115.0125749555322
 20
162.6335019480799
 30
0.0
 42
0.003549344
 70
     1
  0
VERTEX
  5
226E5
330
22696
100
AcDbEntity
  8
10000_FRONT
  6
Continuous
 62
     7
370
    13
100
AcDbVertex
100
AcDb2dVertex
 10
115.0100249555322
 20
162.6284019480799
 30
0.0
 42
0.0035479248
  0
VERTEX
  5
226E6
330
22696
100
AcDbEntity
  8
10000_FRONT
  6
Continuous
 62
     7
370
    13
100
AcDbVertex
100
AcDb2dVertex
 10
115.0075449555322
 20
162.6232619480799
 30
0.0
 42
0.0035456938
 70
     1
  0
VERTEX
  5
226E7
330
22696
100
AcDbEntity
  8
10000_FRONT
  6
Continuous
 62
     7
370
    13
100
AcDbVertex
100
AcDb2dVertex
 10
115.0051449555321
 20
162.6180919480799
 30
0.0
 42
0.0035422461
  0
VERTEX
  5
226E8
330
22696
100
AcDbEntity
  8
10000_FRONT
  6
Continuous
 62
     7
370
    13
100
AcDbVertex
100
AcDb2dVertex
 10
115.0028149555322
 20
162.61289194808
 30
0.0
 42
0.0035402066
 70
     1
  0
VERTEX
  5
226E9
330
22696
100
AcDbEntity
  8
10000_FRONT
  6
Continuous
 62
     7
370
    13
100
AcDbVertex
100
AcDb2dVertex
 10
115.0005649555322
 20
162.6076519480799
 30
0.0
 42
0.0035390334
  0
VERTEX
  5
226EA
330
22696
100
AcDbEntity
  8
10000_FRONT
  6
Continuous
 62
     7
370
    13
100
AcDbVertex
100
AcDb2dVertex
 10
114.9983849555322
 20
162.6023819480799
 30
0.0
 42
0.003538591
 70
     1
  0
VERTEX
  5
226EB
330
22696
100
AcDbEntity
  8
10000_FRONT
  6
Continuous
 62
     7
370
    13
100
AcDbVertex
100
AcDb2dVertex
 10
114.9962749555323
 20
162.5970819480799
 30
0.0
 42
0.0035387654
  0
VERTEX
  5
226EC
330
22696
100
AcDbEntity
  8
10000_FRONT
  6
Continuous
 62
     7
370
    13
100
AcDbVertex
100
AcDb2dVertex
 10
114.9942549555322
 20
162.5917519480799
 30
0.0
 42
0.0035397732
 70
     1
  0
VERTEX
  5
226ED
330
22696
100
AcDbEntity
  8
10000_FRONT
  6
Continuous
 62
     7
370
    13
100
AcDbVertex
100
AcDb2dVertex
 10
114.9922949555322
 20
162.5863919480799
 30
0.0
 42
0.0035418527
  0
VERTEX
  5
226EE
330
22696
100
AcDbEntity
  8
10000_FRONT
  6
Continuous
 62
     7
370
    13
100
AcDbVertex
100
AcDb2dVertex
 10
114.9904249555322
 20
162.58101194808
 30
0.0
 42
0.003543895
 70
     1
  0
VERTEX
  5
226EF
330
22696
100
AcDbEntity
  8
10000_FRONT
  6
Continuous
 62
     7
370
    13
100
AcDbVertex
100
AcDb2dVertex
 10
114.9886249555322
 20
162.5756019480799
 30
0.0
 42
0.003546358
  0
VERTEX
  5
226F0
330
22696
100
AcDbEntity
  8
10000_FRONT
  6
Continuous
 62
     7
370
    13
100
AcDbVertex
100
AcDb2dVertex
 10
114.9869049555322
 20
162.57016194808
 30
0.0
 42
0.003547737
 70
     1
  0
VERTEX
  5
226F1
330
22696
100
AcDbEntity
  8
10000_FRONT
  6
Continuous
 62
     7
370
    13
100
AcDbVertex
100
AcDb2dVertex
 10
114.9852549555322
 20
162.5647019480799
 30
0.0
 42
0.0035481274
  0
VERTEX
  5
226F2
330
22696
100
AcDbEntity
  8
10000_FRONT
  6
Continuous
 62
     7
370
    13
100
AcDbVertex
100
AcDb2dVertex
 10
114.9836949555322
 20
162.55922194808
 30
0.0
 42
0.003547967
 70
     1
  0
VERTEX
  5
226F3
330
22696
100
AcDbEntity
  8
10000_FRONT
  6
Continuous
 62
     7
370
    13
100
AcDbVertex
100
AcDb2dVertex
 10
114.9822049555322
 20
162.5537119480799
 30
0.0
 42
0.0035476021
  0
VERTEX
  5
226F4
330
22696
100
AcDbEntity
  8
10000_FRONT
  6
Continuous
 62
     7
370
    13
100
AcDbVertex
100
AcDb2dVertex
 10
114.9807949555322
 20
162.54819194808
 30
0.0
 42
0.0035516213
 70
     1
  0
VERTEX
  5
226F5
330
22696
100
AcDbEntity
  8
10000_FRONT
  6
Continuous
 62
     7
370
    13
100
AcDbVertex
100
AcDb2dVertex
 10
114.9794649555322
 20
162.5426419480799
 30
0.0
 42
0.0035600884
  0
VERTEX
  5
226F6
330
22696
100
AcDbEntity
  8
10000_FRONT
  6
Continuous
 62
     7
370
    13
100
AcDbVertex
100
AcDb2dVertex
 10
114.9782149555321
 20
162.5370819480799
 30
0.0
 42
0.0035539487
 70
     1
  0
VERTEX
  5
226F7
330
22696
100
AcDbEntity
  8
10000_FRONT
  6
Continuous
 62
     7
370
    13
100
AcDbVertex
100
AcDb2dVertex
 10
114.9770449555321
 20
162.53149194808
 30
0.0
 42
0.0035364641
  0
VERTEX
  5
226F8
330
22696
100
AcDbEntity
  8
10000_FRONT
  6
Continuous
 62
     7
370
    13
100
AcDbVertex
100
AcDb2dVertex
 10
114.9759549555322
 20
162.52589194808
 30
0.0
 42
0.0035654908
 70
     1
  0
VERTEX
  5
226F9
330
22696
100
AcDbEntity
  8
10000_FRONT
  6
Continuous
 62
     7
370
    13
100
AcDbVertex
100
AcDb2dVertex
 10
114.9749449555322
 20
162.5202819480799
 30
0.0
 42
0.0036310674
  0
VERTEX
  5
226FA
330
22696
100
AcDbEntity
  8
10000_FRONT
  6
Continuous
 62
     7
370
    13
100
AcDbVertex
100
AcDb2dVertex
 10
114.9740149555322
 20
162.5146319480799
 30
0.0
 42
0.0035238677
 70
     1
  0
VERTEX
  5
226FB
330
22696
100
AcDbEntity
  8
10000_FRONT
  6
Continuous
 62
     7
370
    13
100
AcDbVertex
100
AcDb2dVertex
 10
114.9731549555322
 20
162.5090019480799
 30
0.0
 42
0.003286909
  0
VERTEX
  5
226FC
330
22696
100
AcDbEntity
  8
10000_FRONT
  6
Continuous
 62
     7
370
    13
100
AcDbVertex
100
AcDb2dVertex
 10
114.9723949555322
 20
162.50339194808
 30
0.0
 42
0.0036226986
 70
     1
  0
VERTEX
  5
226FD
330
22696
100
AcDbEntity
  8
10000_FRONT
  6
Continuous
 62
     7
370
    13
100
AcDbVertex
100
AcDb2dVertex
 10
114.9716949555322
 20
162.4976819480799
 30
0.0
 42
0.0043148173
  0
VERTEX
  5
226FE
330
22696
100
AcDbEntity
  8
10000_FRONT
  6
Continuous
 62
     7
370
    13
100
AcDbVertex
100
AcDb2dVertex
 10
114.9710849555322
 20
162.49182194808
 30
0.0
 42
0.0032764544
 70
     1
  0
VERTEX
  5
226FF
330
22696
100
AcDbEntity
  8
10000_FRONT
  6
Continuous
 62
     7
370
    13
100
AcDbVertex
100
AcDb2dVertex
 10
114.9705649555321
 20
162.48632194808
 30
0.0
 42
0.0011252674
  0
VERTEX
  5
22700
330
22696
100
AcDbEntity
  8
10000_FRONT
  6
Continuous
 62
     7
370
    13
100
AcDbVertex
100
AcDb2dVertex
 10
114.9701249555322
 20
162.4813419480799
 30
0.0
 42
0.0046192704
 70
     1
  0
VERTEX
  5
22701
330
22696
100
AcDbEntity
  8
10000_FRONT
  6
Continuous
 62
     7
370
    13
100
AcDbVertex
100
AcDb2dVertex
 10
114.9697449555322
 20
162.4749419480799
 30
0.0
 42
0.0079677561
  0
VERTEX
  5
22702
330
22696
100
AcDbEntity
  8
10000_FRONT
  6
Continuous
 62
     7
370
    13
100
AcDbVertex
100
AcDb2dVertex
 10
114.9694049555322
 20
162.4650819480799
 30
0.0
 42
0.0039011676
 70
     1
  0
VERTEX
  5
22703
330
22696
100
AcDbEntity
  8
10000_FRONT
  6
Continuous
 62
     7
370
    13
100
AcDbVertex
100
AcDb2dVertex
 10
114.9690949555322
 20
162.45215194808
 30
0.0
 42
0.002066717
  0
SEQEND
  5
22704
330
22696
100
AcDbEntity
  8
10000_FRONT
  6
Continuous
 62
     7
370
    13
  0
LINE
  5
2276A
330
20
100
AcDbEntity
  8
10000_FRONT
  6
Continuous
370
    50
100
AcDbLine
 39
0.5
 10
107.0690949555322
 20
109.48997194808
 30
0.0
 11
107.0690949555322
 21
109.67923194808
 31
0.0
  0
LINE
  5
2276B
330
20
100
AcDbEntity
  8
10000_FRONT
  6
Continuous
370
    50
100
AcDbLine
 39
0.5
 10
107.0690949555322
 20
109.67922194808
 30
0.0
 11
107.0690949555322
 21
197.5007119480799
 31
0.0
  0
LINE
  5
22776
330
20
100
AcDbEntity
  8
10000_FRONT
  6
Continuous
370
    50
100
AcDbLine
 39
0.5
 10
107.0690949555322
 20
197.5007119480799
 30
0.0
 11
107.0690949555322
 21
197.6899719480799
 31
0.0
  0
LINE
  5
227E2
330
20
100
AcDbEntity
  8
10000_FRONT
  6
Continuous
370
    50
100
AcDbLine
 39
0.5
 10
124.4690949555322
 20
108.88997194808
 30
0.0
 11
107.6690949555322
 21
108.8899719480799
 31
0.0
  0
ARC
  5
227E3
330
20
100
AcDbEntity
  8
10000_FRONT
  6
Continuous
370
    50
100
AcDbCircle
 39
0.5
 10
107.6690949555322
 20
109.48997194808
 30
0.0
 40
0.6
100
AcDbArc
 50
180.0
 51
270.0
  0
ARC
  5
227F4
330
20
100
AcDbEntity
  8
10000_FRONT
  6
Continuous
370
    50
100
AcDbCircle
 39
0.5
 10
107.6690949555322
 20
197.6899719480799
 30
0.0
 40
0.6
100
AcDbArc
 50
90.0
 51
180.0
  0
ARC
  5
22FDC
330
20
100
AcDbEntity
  8
10000_FRONT
  6
Continuous
 62
     7
370
    13
100
AcDbCircle
 10
111.5690949555322
 20
153.58997194808
 30
0.0
 40
2.649999999999999
100
AcDbArc
 50
270.0
 51
90.0
  0
ARC
  5
22FDF
330
20
100
AcDbEntity
  8
10000_FRONT
  6
Continuous
 62
     7
370
    13
100
AcDbCircle
 10
115.6690949555323
 20
117.83997194808
 30
0.0
 40
0.6
100
AcDbArc
 50
180.0
 51
270.0
  0
LINE
  5
22FE0
330
20
100
AcDbEntity
  8
10000_FRONT
  6
Continuous
 62
     7
370
    13
100
AcDbLine
 10
116.4690949555322
 20
117.23997194808
 30
0.0
 11
115.6690949555323
 21
117.23997194808
 31
0.0
  0
ARC
  5
22FE1
330
20
100
AcDbEntity
  8
10000_FRONT
  6
Continuous
 62
     7
370
    13
100
AcDbCircle
 10
116.4690949555322
 20
117.83997194808
 30
0.0
 40
0.6
100
AcDbArc
 50
270.0
 51
0.0
  0
LINE
  5
22FE2
330
20
100
AcDbEntity
  8
10000_FRONT
  6
Continuous
 62
     7
370
    13
100
AcDbLine
 10
117.0690949555322
 20
121.08997194808
 30
0.0
 11
117.0690949555322
 21
119.0399719480799
 31
0.0
  0
LINE
  5
22FE3
330
20
100
AcDbEntity
  8
10000_FRONT
  6
Continuous
 62
     7
370
    13
100
AcDbLine
 10
117.0690949555322
 20
119.0399719480799
 30
0.0
 11
117.0690949555322
 21
117.83997194808
 31
0.0
  0
LINE
  5
23006
330
20
100
AcDbEntity
  8
10000_FRONT
  6
Continuous
 62
     7
370
    13
100
AcDbLine
 10
111.5690949555322
 20
175.36037194808
 30
0.0
 11
111.5690949555322
 21
175.3596319480799
 31
0.0
  0
LINE
  5
23018
330
20
100
AcDbEntity
  8
10000_FRONT
  6
Continuous
 62
     7
370
    13
100
AcDbLine
 10
126.7690949555322
 20
148.08997194808
 30
0.0
 11
126.7690949555322
 21
147.08997194808
 31
0.0
  0
LINE
  5
23019
330
20
100
AcDbEntity
  8
10000_FRONT
  6
Continuous
 62
     7
370
    13
100
AcDbLine
 10
115.0690949555322
 20
117.83997194808
 30
0.0
 11
115.0690949555322
 21
119.0399719480799
 31
0.0
  0
LINE
  5
2301A
330
20
100
AcDbEntity
  8
10000_FRONT
  6
Continuous
 62
     7
370
    13
100
AcDbLine
 10
115.0690949555322
 20
119.0399719480799
 30
0.0
 11
115.0690949555322
 21
121.08997194808
 31
0.0
  0
LINE
  5
2346D
330
20
100
AcDbEntity
  8
10000_FRONT
  6
Continuous
 62
     7
370
    13
100
AcDbLine
 10
124.2690849555321
 20
175.35962194808
 30
0.0
 11
107.8690949555322
 21
175.36006194808
 31
0.0
  0
LINE
  5
23A02
330
20
100
AcDbEntity
  8
10000_FRONT
  6
Continuous
 62
     7
370
    13
100
AcDbLine
 10
126.2690849555322
 20
148.58997194808
 30
0.0
 11
125.0690949555322
 21
148.58997194808
 31
0.0
  0
LINE
  5
23A03
330
20
100
AcDbEntity
  8
10000_FRONT
  6
Continuous
 62
     7
370
    13
100
AcDbLine
 10
126.2690849555322
 20
146.58997194808
 30
0.0
 11
125.0690949555322
 21
146.58997194808
 31
0.0
  0
ARC
  5
23A04
330
20
100
AcDbEntity
  8
10000_FRONT
  6
Continuous
 62
     7
370
    13
100
AcDbCircle
 10
126.2690949555322
 20
147.08997194808
 30
0.0
 40
0.5
100
AcDbArc
 50
270.0
 51
0.0
  0
POLYLINE
  5
23A05
330
20
100
AcDbEntity
  8
10000_FRONT
  6
Continuous
 62
     7
370
    13
100
AcDb2dPolyline
 66
     1
 10
0.0
 20
0.0
 30
0.0
 70
     2
  0
VERTEX
  5
23A06
330
23A05
100
AcDbEntity
  8
10000_FRONT
  6
Continuous
 62
     7
370
    13
100
AcDbVertex
100
AcDb2dVertex
 10
126.7690949555322
 20
148.08997194808
 30
0.0
  0
VERTEX
  5
23A07
330
23A05
100
AcDbEntity
  8
10000_FRONT
  6
Continuous
 62
     7
370
    13
100
AcDbVertex
100
AcDb2dVertex
 10
126.7685449555322
 20
148.11380194808
 30
0.0
 42
0.012803607
 70
     1
  0
VERTEX
  5
23A08
330
23A05
100
AcDbEntity
  8
10000_FRONT
  6
Continuous
 62
     7
370
    13
100
AcDbVertex
100
AcDb2dVertex
 10
126.7667849555322
 20
148.1379419480799
 30
0.0
 42
0.01215656
  0
VERTEX
  5
23A09
330
23A05
100
AcDbEntity
  8
10000_FRONT
  6
Continuous
 62
     7
370
    13
100
AcDbVertex
100
AcDb2dVertex
 10
126.7637949555321
 20
148.16243194808
 30
0.0
 42
0.011974597
 70
     1
  0
VERTEX
  5
23A0A
330
23A05
100
AcDbEntity
  8
10000_FRONT
  6
Continuous
 62
     7
370
    13
100
AcDbVertex
100
AcDb2dVertex
 10
126.7595649555322
 20
148.18715194808
 30
0.0
 42
0.012481266
  0
VERTEX
  5
23A0B
330
23A05
100
AcDbEntity
  8
10000_FRONT
  6
Continuous
 62
     7
370
    13
100
AcDbVertex
100
AcDb2dVertex
 10
126.7539649555322
 20
148.21200194808
 30
0.0
 42
0.012720279
 70
     1
  0
VERTEX
  5
23A0C
330
23A05
100
AcDbEntity
  8
10000_FRONT
  6
Continuous
 62
     7
370
    13
100
AcDbVertex
100
AcDb2dVertex
 10
126.7470249555322
 20
148.2368819480799
 30
0.0
 42
0.012875945
  0
VERTEX
  5
23A0D
330
23A05
100
AcDbEntity
  8
10000_FRONT
  6
Continuous
 62
     7
370
    13
100
AcDbVertex
100
AcDb2dVertex
 10
126.7386749555322
 20
148.2616819480799
 30
0.0
 42
0.012977487
 70
     1
  0
VERTEX
  5
23A0E
330
23A05
100
AcDbEntity
  8
10000_FRONT
  6
Continuous
 62
     7
370
    13
100
AcDbVertex
100
AcDb2dVertex
 10
126.7289349555321
 20
148.2862919480799
 30
0.0
 42
0.013184707
  0
VERTEX
  5
23A0F
330
23A05
100
AcDbEntity
  8
10000_FRONT
  6
Continuous
 62
     7
370
    13
100
AcDbVertex
100
AcDb2dVertex
 10
126.7177649555321
 20
148.3106019480799
 30
0.0
 42
0.013294468
 70
     1
  0
VERTEX
  5
23A10
330
23A05
100
AcDbEntity
  8
10000_FRONT
  6
Continuous
 62
     7
370
    13
100
AcDbVertex
100
AcDb2dVertex
 10
126.7052249555322
 20
148.3344919480799
 30
0.0
 42
0.013439017
  0
VERTEX
  5
23A11
330
23A05
100
AcDbEntity
  8
10000_FRONT
  6
Continuous
 62
     7
370
    13
100
AcDbVertex
100
AcDb2dVertex
 10
126.6912749555322
 20
148.3578319480799
 30
0.0
 42
0.01351123
 70
     1
  0
VERTEX
  5
23A12
330
23A05
100
AcDbEntity
  8
10000_FRONT
  6
Continuous
 62
     7
370
    13
100
AcDbVertex
100
AcDb2dVertex
 10
126.6760049555322
 20
148.3805219480799
 30
0.0
 42
0.013609112
  0
VERTEX
  5
23A13
330
23A05
100
AcDbEntity
  8
10000_FRONT
  6
Continuous
 62
     7
370
    13
100
AcDbVertex
100
AcDb2dVertex
 10
126.6594149555321
 20
148.40243194808
 30
0.0
 42
0.013663159
 70
     1
  0
VERTEX
  5
23A14
330
23A05
100
AcDbEntity
  8
10000_FRONT
  6
Continuous
 62
     7
370
    13
100
AcDbVertex
100
AcDb2dVertex
 10
126.6416149555322
 20
148.4234719480799
 30
0.0
 42
0.013732909
  0
VERTEX
  5
23A15
330
23A05
100
AcDbEntity
  8
10000_FRONT
  6
Continuous
 62
     7
370
    13
100
AcDbVertex
100
AcDb2dVertex
 10
126.6226349555322
 20
148.4435119480799
 30
0.0
 42
0.01372318
 70
     1
  0
VERTEX
  5
23A16
330
23A05
100
AcDbEntity
  8
10000_FRONT
  6
Continuous
 62
     7
370
    13
100
AcDbVertex
100
AcDb2dVertex
 10
126.6025949555322
 20
148.46249194808
 30
0.0
 42
0.013659447
  0
VERTEX
  5
23A17
330
23A05
100
AcDbEntity
  8
10000_FRONT
  6
Continuous
 62
     7
370
    13
100
AcDbVertex
100
AcDb2dVertex
 10
126.5815649555322
 20
148.48029194808
 30
0.0
 42
0.013732868
 70
     1
  0
VERTEX
  5
23A18
330
23A05
100
AcDbEntity
  8
10000_FRONT
  6
Continuous
 62
     7
370
    13
100
AcDbVertex
100
AcDb2dVertex
 10
126.5596449555322
 20
148.4968819480799
 30
0.0
 42
0.013897738
  0
VERTEX
  5
23A19
330
23A05
100
AcDbEntity
  8
10000_FRONT
  6
Continuous
 62
     7
370
    13
100
AcDbVertex
100
AcDb2dVertex
 10
126.5369049555322
 20
148.5121519480799
 30
0.0
 42
0.013543932
 70
     1
  0
VERTEX
  5
23A1A
330
23A05
100
AcDbEntity
  8
10000_FRONT
  6
Continuous
 62
     7
370
    13
100
AcDbVertex
100
AcDb2dVertex
 10
126.5136149555321
 20
148.52609194808
 30
0.0
 42
0.01272654
  0
VERTEX
  5
23A1B
330
23A05
100
AcDbEntity
  8
10000_FRONT
  6
Continuous
 62
     7
370
    13
100
AcDbVertex
100
AcDb2dVertex
 10
126.4899149555322
 20
148.5386319480799
 30
0.0
 42
0.01368641
 70
     1
  0
VERTEX
  5
23A1C
330
23A05
100
AcDbEntity
  8
10000_FRONT
  6
Continuous
 62
     7
370
    13
100
AcDbVertex
100
AcDb2dVertex
 10
126.4654149555322
 20
148.54981194808
 30
0.0
 42
0.015725613
  0
VERTEX
  5
23A1D
330
23A05
100
AcDbEntity
  8
10000_FRONT
  6
Continuous
 62
     7
370
    13
100
AcDbVertex
100
AcDb2dVertex
 10
126.4400449555322
 20
148.55958194808
 30
0.0
 42
0.012376021
 70
     1
  0
VERTEX
  5
23A1E
330
23A05
100
AcDbEntity
  8
10000_FRONT
  6
Continuous
 62
     7
370
    13
100
AcDbVertex
100
AcDb2dVertex
 10
126.4159949555322
 20
148.5678919480799
 30
0.0
 42
0.0053920353
  0
VERTEX
  5
23A1F
330
23A05
100
AcDbEntity
  8
10000_FRONT
  6
Continuous
 62
     7
370
    13
100
AcDbVertex
100
AcDb2dVertex
 10
126.3940949555321
 20
148.5746819480799
 30
0.0
 42
0.016185413
 70
     1
  0
VERTEX
  5
23A20
330
23A05
100
AcDbEntity
  8
10000_FRONT
  6
Continuous
 62
     7
370
    13
100
AcDbVertex
100
AcDb2dVertex
 10
126.3662649555322
 20
148.58043194808
 30
0.0
 42
0.027066442
  0
VERTEX
  5
23A21
330
23A05
100
AcDbEntity
  8
10000_FRONT
  6
Continuous
 62
     7
370
    13
100
AcDbVertex
100
AcDb2dVertex
 10
126.3240349555321
 20
148.5855319480799
 30
0.0
 42
0.013867911
 70
     1
  0
VERTEX
  5
23A22
330
23A05
100
AcDbEntity
  8
10000_FRONT
  6
Continuous
 62
     7
370
    13
100
AcDbVertex
100
AcDb2dVertex
 10
126.2690849555322
 20
148.5899619480799
 30
0.0
 42
0.0076243633
  0
SEQEND
  5
23A23
330
23A05
100
AcDbEntity
  8
10000_FRONT
  6
Continuous
 62
     7
370
    13
  0
ARC
  5
23A26
330
20
100
AcDbEntity
  8
11000_Left
  6
Continuous
 62
     7
370
    13
100
AcDbCircle
 10
259.6617497817614
 20
153.7735124184268
 30
0.0
 40
10.0
100
AcDbArc
 50
347.3643700000019
 51
0.0
  0
ARC
  5
23A28
330
20
100
AcDbEntity
  8
11000_Left
  6
Continuous
 62
     7
370
    13
100
AcDbCircle
 10
259.6617497817614
 20
153.7735124184268
 30
0.0
 40
10.0
100
AcDbArc
 50
0.0
 51
12.6356249999988
  0
ARC
  5
23A29
330
20
100
AcDbEntity
  8
11000_Left
  6
Continuous
 62
     7
370
    13
100
AcDbCircle
 10
269.0292497817615
 20
151.6735124184267
 30
0.0
 40
0.4
100
AcDbArc
 50
270.0
 51
347.3643700000019
  0
ARC
  5
23A2B
330
20
100
AcDbEntity
  8
11000_Left
  6
Continuous
 62
     7
370
    13
100
AcDbCircle
 10
269.0292497817615
 20
155.8735124184267
 30
0.0
 40
0.4
100
AcDbArc
 50
12.6356249999988
 51
90.0
  0
LINE
  5
23A2C
330
20
100
AcDbEntity
  8
11000_Left
  6
Continuous
 62
     7
370
    13
100
AcDbLine
 10
269.0292497817615
 20
151.2735124184267
 30
0.0
 11
268.2492397817614
 21
151.2735124184267
 31
0.0
  0
LINE
  5
23A2D
330
20
100
AcDbEntity
  8
11000_Left
  6
Continuous
 62
     7
370
    13
100
AcDbLine
 10
269.0292497817615
 20
156.2735124184268
 30
0.0
 11
268.2492397817614
 21
156.2735124184268
 31
0.0
  0
LINE
  5
23A3B
330
20
100
AcDbEntity
  8
11000_Left
  6
Continuous
 62
     7
370
    13
100
AcDbLine
 10
200.7617497817614
 20
109.2245324184267
 30
0.0
 11
200.7617497817614
 21
109.4735024184267
 31
0.0
  0
LINE
  5
23A46
330
20
100
AcDbEntity
  8
11000_Left
  6
Continuous
 62
     7
370
    13
100
AcDbLine
 10
201.1617397817614
 20
109.0735124184267
 30
0.0
 11
201.0858597817614
 21
109.0735124184267
 31
0.0
  0
LINE
  5
23AC2
330
20
100
AcDbEntity
  8
11000_Left
  6
Continuous
 62
     7
370
    13
100
AcDbLine
 10
212.7620197817614
 20
198.4735124184267
 30
0.0
 11
212.7620197817614
 21
198.4735124184267
 31
0.0
  0
ARC
  5
23AC3
330
20
100
AcDbEntity
  8
11000_Left
  6
Continuous
 62
     7
370
    50
100
AcDbCircle
 10
33.76173978176144
 20
176.2734724184267
 30
0.0
 40
200.0
100
AcDbArc
 50
3.97092230000002
 51
6.167187400002037
  0
POLYLINE
  5
23AC4
330
20
100
AcDbEntity
  8
11000_Left
  6
Continuous
 62
     7
370
    50
100
AcDb2dPolyline
 66
     1
 10
0.0
 20
0.0
 30
0.0
 70
     2
  0
VERTEX
  5
23AC5
330
23AC4
100
AcDbEntity
  8
11000_Left
  6
Continuous
 62
     7
370
    50
100
AcDbVertex
100
AcDb2dVertex
 10
267.3120597817614
 20
175.5437524184267
 30
0.0
  0
VERTEX
  5
23AC6
330
23AC4
100
AcDbEntity
  8
11000_Left
  6
Continuous
 62
     7
370
    50
100
AcDbVertex
100
AcDb2dVertex
 10
267.3120597817614
 20
175.5437524184267
 30
0.0
 70
     1
  0
VERTEX
  5
23AC7
330
23AC4
100
AcDbEntity
  8
11000_Left
  6
Continuous
 62
     7
370
    50
100
AcDbVertex
100
AcDb2dVertex
 10
267.3120597817614
 20
175.5437524184267
 30
0.0
  0
VERTEX
  5
23AC8
330
23AC4
100
AcDbEntity
  8
11000_Left
  6
Continuous
 62
     7
370
    50
100
AcDbVertex
100
AcDb2dVertex
 10
267.3120597817614
 20
175.5437524184267
 30
0.0
 70
     1
  0
VERTEX
  5
23AC9
330
23AC4
100
AcDbEntity
  8
11000_Left
  6
Continuous
 62
     7
370
    50
100
AcDbVertex
100
AcDb2dVertex
 10
267.3120597817614
 20
175.5437524184267
 30
0.0
  0
VERTEX
  5
23ACA
330
23AC4
100
AcDbEntity
  8
11000_Left
  6
Continuous
 62
     7
370
    50
100
AcDbVertex
100
AcDb2dVertex
 10
267.3120597817614
 20
175.5437524184267
 30
0.0
 70
     1
  0
VERTEX
  5
23ACB
330
23AC4
100
AcDbEntity
  8
11000_Left
  6
Continuous
 62
     7
370
    50
100
AcDbVertex
100
AcDb2dVertex
 10
267.3120597817614
 20
175.5437524184267
 30
0.0
  0
VERTEX
  5
23ACC
330
23AC4
100
AcDbEntity
  8
11000_Left
  6
Continuous
 62
     7
370
    50
100
AcDbVertex
100
AcDb2dVertex
 10
267.3120597817614
 20
175.5437524184267
 30
0.0
 70
     1
  0
VERTEX
  5
23ACD
330
23AC4
100
AcDbEntity
  8
11000_Left
  6
Continuous
 62
     7
370
    50
100
AcDbVertex
100
AcDb2dVertex
 10
267.3120597817614
 20
175.5437524184267
 30
0.0
  0
VERTEX
  5
23ACE
330
23AC4
100
AcDbEntity
  8
11000_Left
  6
Continuous
 62
     7
370
    50
100
AcDbVertex
100
AcDb2dVertex
 10
267.3120597817614
 20
175.5437524184267
 30
0.0
 70
     1
  0
VERTEX
  5
23ACF
330
23AC4
100
AcDbEntity
  8
11000_Left
  6
Continuous
 62
     7
370
    50
100
AcDbVertex
100
AcDb2dVertex
 10
267.3120597817614
 20
175.5437524184267
 30
0.0
  0
VERTEX
  5
23AD0
330
23AC4
100
AcDbEntity
  8
11000_Left
  6
Continuous
 62
     7
370
    50
100
AcDbVertex
100
AcDb2dVertex
 10
267.3120597817614
 20
175.5437524184267
 30
0.0
 70
     1
  0
VERTEX
  5
23AD1
330
23AC4
100
AcDbEntity
  8
11000_Left
  6
Continuous
 62
     7
370
    50
100
AcDbVertex
100
AcDb2dVertex
 10
267.3120597817614
 20
175.5437524184267
 30
0.0
  0
VERTEX
  5
23AD2
330
23AC4
100
AcDbEntity
  8
11000_Left
  6
Continuous
 62
     7
370
    50
100
AcDbVertex
100
AcDb2dVertex
 10
267.3120597817614
 20
175.5437524184267
 30
0.0
 70
     1
  0
VERTEX
  5
23AD3
330
23AC4
100
AcDbEntity
  8
11000_Left
  6
Continuous
 62
     7
370
    50
100
AcDbVertex
100
AcDb2dVertex
 10
267.3120597817614
 20
175.5437524184267
 30
0.0
  0
VERTEX
  5
23AD4
330
23AC4
100
AcDbEntity
  8
11000_Left
  6
Continuous
 62
     7
370
    50
100
AcDbVertex
100
AcDb2dVertex
 10
267.3120597817614
 20
175.5437524184267
 30
0.0
 70
     1
  0
VERTEX
  5
23AD5
330
23AC4
100
AcDbEntity
  8
11000_Left
  6
Continuous
 62
     7
370
    50
100
AcDbVertex
100
AcDb2dVertex
 10
267.3120597817614
 20
175.5437524184267
 30
0.0
  0
VERTEX
  5
23AD6
330
23AC4
100
AcDbEntity
  8
11000_Left
  6
Continuous
 62
     7
370
    50
100
AcDbVertex
100
AcDb2dVertex
 10
267.3120597817614
 20
175.5437524184267
 30
0.0
 70
     1
  0
VERTEX
  5
23AD7
330
23AC4
100
AcDbEntity
  8
11000_Left
  6
Continuous
 62
     7
370
    50
100
AcDbVertex
100
AcDb2dVertex
 10
267.3120597817614
 20
175.5437524184267
 30
0.0
  0
SEQEND
  5
23AD8
330
23AC4
100
AcDbEntity
  8
11000_Left
  6
Continuous
 62
     7
370
    50
  0
ARC
  5
23AD9
330
20
100
AcDbEntity
  8
11000_Left
  6
Continuous
 62
     7
370
    50
100
AcDbCircle
 10
18.26173978176143
 20
153.7735324184267
 30
0.0
 40
250.0
100
AcDbArc
 50
355.0044300000025
 51
4.995660000001785
  0
ARC
  5
23ADA
330
20
100
AcDbEntity
  8
11000_Left
  6
Continuous
 62
     7
370
    50
100
AcDbCircle
 10
266.5151397817614
 20
132.0735124184267
 30
0.0
 40
0.8
100
AcDbArc
 50
270.0
 51
355.0044300000025
  0
ARC
  5
23ADC
330
20
100
AcDbEntity
  8
11000_Left
  6
Continuous
 62
     7
370
    50
100
AcDbCircle
 10
33.76172978176136
 20
131.2736024184268
 30
0.0
 40
200.00001
100
AcDbArc
 50
353.832799999998
 51
356.0290600000028
  0
ARC
  5
23ADD
330
20
100
AcDbEntity
  8
11000_Left
  6
Continuous
 62
     7
370
    50
100
AcDbCircle
 10
231.8088897817614
 20
109.8735124184267
 30
0.0
 40
0.8
100
AcDbArc
 50
270.0
 51
353.832799999998
  0
LINE
  5
23ADE
330
20
100
AcDbEntity
  8
11000_Left
  6
Continuous
 62
     7
370
    50
100
AcDbLine
 10
231.8088897817614
 20
109.0735124184267
 30
0.0
 11
201.1617497817614
 21
109.0735124184267
 31
0.0
  0
LINE
  5
23AE0
330
20
100
AcDbEntity
  8
11000_Left
  6
Continuous
 62
     7
370
    50
100
AcDbLine
 10
205.7617397817614
 20
173.7735124184268
 30
0.0
 11
204.7617497817614
 21
173.7735124184268
 31
0.0
  0
LINE
  5
23AE1
330
20
100
AcDbEntity
  8
11000_Left
  6
Continuous
 62
     7
370
    50
100
AcDbLine
 10
200.7617497817614
 20
176.0829124184267
 30
0.0
 11
200.7617397817614
 21
198.3224824184267
 31
0.0
  0
LINE
  5
23AE3
330
20
100
AcDbEntity
  8
11000_Left
  6
Continuous
 62
     7
370
    50
100
AcDbLine
 10
204.7617497817614
 20
173.7735124184268
 30
0.0
 11
200.7617497817614
 21
176.0829124184267
 31
0.0
  0
LINE
  5
23AE4
330
20
100
AcDbEntity
  8
11000_Left
  6
Continuous
 62
     7
370
    50
100
AcDbLine
 10
242.8068997817614
 20
117.4235124184267
 30
0.0
 11
233.2815997817614
 21
117.4235124184267
 31
0.0
  0
ARC
  5
23AE5
330
20
100
AcDbEntity
  8
11000_Left
  6
Continuous
 62
     7
370
    50
100
AcDbCircle
 10
242.8068997817614
 20
120.4235124184267
 30
0.0
 40
3.0
100
AcDbArc
 50
270.0
 51
329.9999999999987
  0
LINE
  5
23AE6
330
20
100
AcDbEntity
  8
11000_Left
  6
Continuous
 62
     7
370
    50
100
AcDbLine
 10
246.7617497817614
 20
121.2735124184268
 30
0.0
 11
245.4049697817613
 21
118.9235124184267
 31
0.0
  0
LINE
  5
23AE7
330
20
100
AcDbEntity
  8
11000_Left
  6
Continuous
 62
     7
370
    50
100
AcDbLine
 10
249.7491697817614
 20
121.2735124184268
 30
0.0
 11
246.7617497817614
 21
121.2735124184268
 31
0.0
  0
ARC
  5
23AE8
330
20
100
AcDbEntity
  8
11000_Left
  6
Continuous
 62
     7
370
    50
100
AcDbCircle
 10
249.7491697817614
 20
122.0735124184267
 30
0.0
 40
0.8
100
AcDbArc
 50
270.0
 51
357.3528899999983
  0
ARC
  5
23AE9
330
20
100
AcDbEntity
  8
11000_Left
  6
Continuous
 62
     7
370
    50
100
AcDbCircle
 10
50.76173978176143
 20
131.2734224184268
 30
0.0
 40
200.0
100
AcDbArc
 50
357.3528899999983
 51
0.0000300000030193
  0
LINE
  5
23AEA
330
20
100
AcDbEntity
  8
11000_Left
  6
Continuous
 62
     7
370
    50
100
AcDbLine
 10
233.2816097817614
 20
190.1235124184267
 30
0.0
 11
242.8068997817614
 21
190.1235124184267
 31
0.0
  0
ARC
  5
23AEB
330
20
100
AcDbEntity
  8
11000_Left
  6
Continuous
 62
     7
370
    50
100
AcDbCircle
 10
50.76173978176143
 20
176.2736424184266
 30
0.0
 40
200.0
100
AcDbArc
 50
359.9999600000026
 51
2.647099999999759
  0
ARC
  5
23AED
330
20
100
AcDbEntity
  8
11000_Left
  6
Continuous
 62
     7
370
    50
100
AcDbCircle
 10
266.5150997817613
 20
175.4739324184268
 30
0.0
 40
0.79999999
100
AcDbArc
 50
4.995658599999542
 51
90.00173799999997
  0
ARC
  5
23AEE
330
20
100
AcDbEntity
  8
11000_Left
  6
Continuous
 62
     7
370
    50
100
AcDbCircle
 10
249.7491797817614
 20
185.4735124184267
 30
0.0
 40
0.8
100
AcDbArc
 50
2.647094299997899
 51
90.0
  0
LINE
  5
23AEF
330
20
100
AcDbEntity
  8
11000_Left
  6
Continuous
 62
     7
370
    50
100
AcDbLine
 10
246.7617497817614
 20
186.2735124184268
 30
0.0
 11
249.7491797817614
 21
186.2735124184268
 31
0.0
  0
LINE
  5
23AF0
330
20
100
AcDbEntity
  8
11000_Left
  6
Continuous
 62
     7
370
    50
100
AcDbLine
 10
245.4049697817613
 20
188.6235124184267
 30
0.0
 11
246.7617497817614
 21
186.2735124184268
 31
0.0
  0
ARC
  5
23AF1
330
20
100
AcDbEntity
  8
11000_Left
  6
Continuous
 62
     7
370
    50
100
AcDbCircle
 10
242.8068997817614
 20
187.1235124184267
 30
0.0
 40
3.0
100
AcDbArc
 50
30.00000000000125
 51
90.0
  0
ARC
  5
23AF2
330
20
100
AcDbEntity
  8
11000_Left
  6
Continuous
 62
     7
370
    50
100
AcDbCircle
 10
231.8089097817614
 20
197.6735124184267
 30
0.0
 40
0.8
100
AcDbArc
 50
6.167182799999567
 51
90.0
  0
LINE
  5
23AF3
330
20
100
AcDbEntity
  8
11000_Left
  6
Continuous
 62
     7
370
    50
100
AcDbLine
 10
201.0858597817614
 20
198.4735124184267
 30
0.0
 11
231.8089097817614
 21
198.4735124184267
 31
0.0
  0
LINE
  5
23AF6
330
20
100
AcDbEntity
  8
11000_Left
  6
Continuous
 62
     7
370
    13
100
AcDbLine
 10
200.7617497817614
 20
109.4735124184267
 30
0.0
 11
200.7617497817614
 21
109.6735124184267
 31
0.0
  0
LINE
  5
23AF7
330
20
100
AcDbEntity
  8
11000_Left
  6
Continuous
 62
     7
370
    50
100
AcDbLine
 10
200.7617497817614
 20
109.6735124184267
 30
0.0
 11
200.7617497817614
 21
133.4641124184267
 31
0.0
  0
LINE
  5
23AF8
330
20
100
AcDbEntity
  8
11000_Left
  6
Continuous
 62
     7
370
    50
100
AcDbLine
 10
200.7617497817614
 20
133.4641124184267
 30
0.0
 11
204.7617497817614
 21
135.7735124184268
 31
0.0
  0
LINE
  5
23AF9
330
20
100
AcDbEntity
  8
11000_Left
  6
Continuous
 62
     7
370
    50
100
AcDbLine
 10
204.7617497817614
 20
135.7735124184268
 30
0.0
 11
205.7617397817614
 21
135.7735124184268
 31
0.0
  0
LINE
  5
23AFA
330
20
100
AcDbEntity
  8
11000_Left
  6
Continuous
 62
     7
370
    50
100
AcDbLine
 10
205.7617397817614
 20
135.7735124184268
 30
0.0
 11
205.7617397817614
 21
173.7735124184268
 31
0.0
  0
ARC
  5
23B1B
330
20
100
AcDbEntity
  8
11000_Left
  6
Continuous
 62
     7
370
    13
100
AcDbCircle
 10
234.1617497817614
 20
173.2735124184268
 30
0.0
 40
0.7
100
AcDbArc
 50
0.0
 51
90.0
  0
LINE
  5
23B1E
330
20
100
AcDbEntity
  8
11000_Left
  6
Continuous
 62
     7
370
    13
100
AcDbLine
 10
234.8617497817614
 20
173.2735124184268
 30
0.0
 11
234.8617497817614
 21
169.5735124184267
 31
0.0
  0
ARC
  5
23B20
330
20
100
AcDbEntity
  8
11000_Left
  6
Continuous
 62
     7
370
    13
100
AcDbCircle
 10
234.1617497817614
 20
169.5735124184267
 30
0.0
 40
0.7
100
AcDbArc
 50
270.0
 51
0.0
  0
LINE
  5
23B22
330
20
100
AcDbEntity
  8
11000_Left
  6
Continuous
 62
     7
370
    13
100
AcDbLine
 10
234.1617497817614
 20
168.8735124184267
 30
0.0
 11
228.4617497817613
 21
168.8735124184267
 31
0.0
  0
ARC
  5
23B24
330
20
100
AcDbEntity
  8
11000_Left
  6
Continuous
 62
     7
370
    13
100
AcDbCircle
 10
228.4617497817613
 20
169.5735124184267
 30
0.0
 40
0.7
100
AcDbArc
 50
180.0
 51
270.0
  0
LINE
  5
23B26
330
20
100
AcDbEntity
  8
11000_Left
  6
Continuous
 62
     7
370
    13
100
AcDbLine
 10
227.7617497817614
 20
169.5735124184267
 30
0.0
 11
227.7617497817614
 21
173.2735124184268
 31
0.0
  0
ARC
  5
23B28
330
20
100
AcDbEntity
  8
11000_Left
  6
Continuous
 62
     7
370
    13
100
AcDbCircle
 10
228.4617497817613
 20
173.2735124184268
 30
0.0
 40
0.7
100
AcDbArc
 50
90.0
 51
180.0
  0
LINE
  5
23B2A
330
20
100
AcDbEntity
  8
11000_Left
  6
Continuous
 62
     7
370
    13
100
AcDbLine
 10
228.4617497817613
 20
173.9735124184267
 30
0.0
 11
234.1617497817614
 21
173.9735124184267
 31
0.0
  0
CIRCLE
  5
23BBF
330
20
100
AcDbEntity
  8
11000_Left
  6
Continuous
 62
     7
370
    13
100
AcDbCircle
 10
228.9617497817614
 20
181.7735124184268
 30
0.0
 40
2.399999999999999
  0
LINE
  5
23BC0
330
20
100
AcDbEntity
  8
11000_Left
  6
Continuous
 62
     7
370
    13
100
AcDbLine
 10
205.3617497817614
 20
190.1735124184267
 30
0.0
 11
202.3617497817614
 21
190.1735124184267
 31
0.0
  0
LINE
  5
23BC1
330
20
100
AcDbEntity
  8
11000_Left
  6
Continuous
 62
     7
370
    13
100
AcDbLine
 10
202.3617497817614
 20
190.1735124184267
 30
0.0
 11
202.3617497817614
 21
195.1735124184267
 31
0.0
  0
LINE
  5
23BC2
330
20
100
AcDbEntity
  8
11000_Left
  6
Continuous
 62
     7
370
    13
100
AcDbLine
 10
202.3617497817614
 20
195.1735124184267
 30
0.0
 11
205.3617497817614
 21
195.1735124184267
 31
0.0
  0
ARC
  5
23BC3
330
20
100
AcDbEntity
  8
11000_Left
  6
Continuous
 62
     7
370
    13
100
AcDbCircle
 10
205.3617497817614
 20
194.3735124184266
 30
0.0
 40
0.8
100
AcDbArc
 50
0.0
 51
90.0
  0
LINE
  5
23BC4
330
20
100
AcDbEntity
  8
11000_Left
  6
Continuous
 62
     7
370
    13
100
AcDbLine
 10
206.1617497817614
 20
194.3735124184266
 30
0.0
 11
206.1617497817614
 21
190.9735124184267
 31
0.0
  0
ARC
  5
23BC5
330
20
100
AcDbEntity
  8
11000_Left
  6
Continuous
 62
     7
370
    13
100
AcDbCircle
 10
205.3617497817614
 20
190.9735124184267
 30
0.0
 40
0.8
100
AcDbArc
 50
270.0
 51
0.0
  0
LINE
  5
23BC6
330
20
100
AcDbEntity
  8
11000_Left
  6
Continuous
 62
     7
370
    13
100
AcDbLine
 10
202.3617497817614
 20
117.3735124184267
 30
0.0
 11
205.3617497817614
 21
117.3735124184267
 31
0.0
  0
ARC
  5
23BC7
330
20
100
AcDbEntity
  8
11000_Left
  6
Continuous
 62
     7
370
    13
100
AcDbCircle
 10
205.3617497817614
 20
116.5735124184267
 30
0.0
 40
0.8
100
AcDbArc
 50
0.0
 51
90.0
  0
LINE
  5
23BC8
330
20
100
AcDbEntity
  8
11000_Left
  6
Continuous
 62
     7
370
    13
100
AcDbLine
 10
206.1617497817614
 20
116.5735124184267
 30
0.0
 11
206.1617497817614
 21
111.6735124184267
 31
0.0
  0
ARC
  5
23BC9
330
20
100
AcDbEntity
  8
11000_Left
  6
Continuous
 62
     7
370
    13
100
AcDbCircle
 10
205.3617497817614
 20
111.6735124184267
 30
0.0
 40
0.8
100
AcDbArc
 50
270.0
 51
0.0
  0
LINE
  5
23BCA
330
20
100
AcDbEntity
  8
11000_Left
  6
Continuous
 62
     7
370
    13
100
AcDbLine
 10
205.3617497817614
 20
110.8735124184267
 30
0.0
 11
202.3617497817614
 21
110.8735124184267
 31
0.0
  0
LINE
  5
23BCB
330
20
100
AcDbEntity
  8
11000_Left
  6
Continuous
 62
     7
370
    13
100
AcDbLine
 10
202.3617497817614
 20
110.8735124184267
 30
0.0
 11
202.3617497817614
 21
117.3735124184267
 31
0.0
  0
LINE
  5
23BCC
330
20
100
AcDbEntity
  8
11000_Left
  6
Continuous
 62
     7
370
    13
100
AcDbLine
 10
256.3617497817614
 20
171.7735124184267
 30
0.0
 11
252.1617497817614
 21
171.7735124184267
 31
0.0
  0
ARC
  5
23BCD
330
20
100
AcDbEntity
  8
11000_Left
  6
Continuous
 62
     7
370
    13
100
AcDbCircle
 10
252.1617497817614
 20
172.5735124184267
 30
0.0
 40
0.8
100
AcDbArc
 50
180.0
 51
270.0
  0
LINE
  5
23BCE
330
20
100
AcDbEntity
  8
11000_Left
  6
Continuous
 62
     7
370
    13
100
AcDbLine
 10
251.3617497817614
 20
172.5735124184267
 30
0.0
 11
251.3617497817614
 21
173.7735124184268
 31
0.0
  0
ARC
  5
23BCF
330
20
100
AcDbEntity
  8
11000_Left
  6
Continuous
 62
     7
370
    13
100
AcDbCircle
 10
252.1617497817614
 20
173.7735124184268
 30
0.0
 40
0.8
100
AcDbArc
 50
90.0
 51
180.0
  0
LINE
  5
23BD0
330
20
100
AcDbEntity
  8
11000_Left
  6
Continuous
 62
     7
370
    13
100
AcDbLine
 10
252.1617497817614
 20
174.5735124184267
 30
0.0
 11
256.3617497817614
 21
174.5735124184267
 31
0.0
  0
ARC
  5
23BD1
330
20
100
AcDbEntity
  8
11000_Left
  6
Continuous
 62
     7
370
    13
100
AcDbCircle
 10
256.3617497817614
 20
173.7735124184268
 30
0.0
 40
0.8
100
AcDbArc
 50
0.0
 51
90.0
  0
LINE
  5
23BD2
330
20
100
AcDbEntity
  8
11000_Left
  6
Continuous
 62
     7
370
    13
100
AcDbLine
 10
257.1617497817614
 20
173.7735124184268
 30
0.0
 11
257.1617497817614
 21
172.5735124184267
 31
0.0
  0
ARC
  5
23BD3
330
20
100
AcDbEntity
  8
11000_Left
  6
Continuous
 62
     7
370
    13
100
AcDbCircle
 10
256.3617497817614
 20
172.5735124184267
 30
0.0
 40
0.8
100
AcDbArc
 50
270.0
 51
0.0
  0
LINE
  5
23BD4
330
20
100
AcDbEntity
  8
11000_Left
  6
Continuous
 62
     7
370
    13
100
AcDbLine
 10
252.1617497817614
 20
135.7735124184268
 30
0.0
 11
256.3617497817614
 21
135.7735124184268
 31
0.0
  0
ARC
  5
23BD5
330
20
100
AcDbEntity
  8
11000_Left
  6
Continuous
 62
     7
370
    13
100
AcDbCircle
 10
256.3617497817614
 20
134.9735124184267
 30
0.0
 40
0.8
100
AcDbArc
 50
0.0
 51
90.0
  0
LINE
  5
23BD6
330
20
100
AcDbEntity
  8
11000_Left
  6
Continuous
 62
     7
370
    13
100
AcDbLine
 10
257.1617497817614
 20
134.9735124184267
 30
0.0
 11
257.1617497817614
 21
133.7735124184268
 31
0.0
  0
ARC
  5
23BD7
330
20
100
AcDbEntity
  8
11000_Left
  6
Continuous
 62
     7
370
    13
100
AcDbCircle
 10
256.3617497817614
 20
133.7735124184268
 30
0.0
 40
0.8
100
AcDbArc
 50
270.0
 51
0.0
  0
LINE
  5
23BD8
330
20
100
AcDbEntity
  8
11000_Left
  6
Continuous
 62
     7
370
    13
100
AcDbLine
 10
256.3617497817614
 20
132.9735124184267
 30
0.0
 11
252.1617497817614
 21
132.9735124184267
 31
0.0
  0
ARC
  5
23BD9
330
20
100
AcDbEntity
  8
11000_Left
  6
Continuous
 62
     7
370
    13
100
AcDbCircle
 10
252.1617497817614
 20
133.7735124184268
 30
0.0
 40
0.8
100
AcDbArc
 50
180.0
 51
270.0
  0
LINE
  5
23BDA
330
20
100
AcDbEntity
  8
11000_Left
  6
Continuous
 62
     7
370
    13
100
AcDbLine
 10
251.3617497817614
 20
133.7735124184268
 30
0.0
 11
251.3617497817614
 21
134.9735124184267
 31
0.0
  0
ARC
  5
23BDB
330
20
100
AcDbEntity
  8
11000_Left
  6
Continuous
 62
     7
370
    13
100
AcDbCircle
 10
252.1617497817614
 20
134.9735124184267
 30
0.0
 40
0.8
100
AcDbArc
 50
90.0
 51
180.0
  0
LINE
  5
23FDC
330
20
100
AcDbEntity
  8
11000_Left
  6
Continuous
 62
     7
370
    50
100
AcDbLine
 10
231.8089197817613
 20
109.0735124184267
 30
0.0
 11
231.8088897817614
 21
109.0735124184267
 31
0.0
  0
POLYLINE
  5
24002
330
20
100
AcDbEntity
  8
11000_Left
  6
Continuous
 62
     7
370
    13
100
AcDb2dPolyline
 66
     1
 10
0.0
 20
0.0
 30
0.0
 70
     2
  0
VERTEX
  5
24003
330
24002
100
AcDbEntity
  8
11000_Left
  6
Continuous
 62
     7
370
    13
100
AcDbVertex
100
AcDb2dVertex
 10
268.2476897817614
 20
151.1235124184267
 30
0.0
  0
VERTEX
  5
24004
330
24002
100
AcDbEntity
  8
11000_Left
  6
Continuous
 62
     7
370
    13
100
AcDbVertex
100
AcDb2dVertex
 10
268.2476897817614
 20
151.1235124184267
 30
0.0
 70
     1
  0
VERTEX
  5
24005
330
24002
100
AcDbEntity
  8
11000_Left
  6
Continuous
 62
     7
370
    13
100
AcDbVertex
100
AcDb2dVertex
 10
268.2476997817614
 20
151.1235124184267
 30
0.0
 42
0.00000002
  0
VERTEX
  5
24006
330
24002
100
AcDbEntity
  8
11000_Left
  6
Continuous
 62
     7
370
    13
100
AcDbVertex
100
AcDb2dVertex
 10
268.2476997817614
 20
151.1235124184267
 30
0.0
 70
     1
  0
VERTEX
  5
24007
330
24002
100
AcDbEntity
  8
11000_Left
  6
Continuous
 62
     7
370
    13
100
AcDbVertex
100
AcDb2dVertex
 10
268.2476997817614
 20
151.1235124184267
 30
0.0
 42
0.0000000651
  0
VERTEX
  5
24008
330
24002
100
AcDbEntity
  8
11000_Left
  6
Continuous
 62
     7
370
    13
100
AcDbVertex
100
AcDb2dVertex
 10
268.2476997817614
 20
151.1235124184267
 30
0.0
 42
0.0000000116
 70
     1
  0
VERTEX
  5
24009
330
24002
100
AcDbEntity
  8
11000_Left
  6
Continuous
 62
     7
370
    13
100
AcDbVertex
100
AcDb2dVertex
 10
268.2476997817614
 20
151.1235124184267
 30
0.0
  0
VERTEX
  5
2400A
330
24002
100
AcDbEntity
  8
11000_Left
  6
Continuous
 62
     7
370
    13
100
AcDbVertex
100
AcDb2dVertex
 10
268.2476997817614
 20
151.1235124184267
 30
0.0
 70
     1
  0
VERTEX
  5
2400B
330
24002
100
AcDbEntity
  8
11000_Left
  6
Continuous
 62
     7
370
    13
100
AcDbVertex
100
AcDb2dVertex
 10
268.2476997817614
 20
151.1235124184267
 30
0.0
 42
-0.0000000287
  0
VERTEX
  5
2400C
330
24002
100
AcDbEntity
  8
11000_Left
  6
Continuous
 62
     7
370
    13
100
AcDbVertex
100
AcDb2dVertex
 10
268.2476997817614
 20
151.1235124184267
 30
0.0
 70
     1
  0
VERTEX
  5
2400D
330
24002
100
AcDbEntity
  8
11000_Left
  6
Continuous
 62
     7
370
    13
100
AcDbVertex
100
AcDb2dVertex
 10
268.2476997817614
 20
151.1235024184267
 30
0.0
 42
0.0000000396
  0
VERTEX
  5
2400E
330
24002
100
AcDbEntity
  8
11000_Left
  6
Continuous
 62
     7
370
    13
100
AcDbVertex
100
AcDb2dVertex
 10
268.2476997817614
 20
151.1235024184267
 30
0.0
 42
0.0000000206
 70
     1
  0
VERTEX
  5
2400F
330
24002
100
AcDbEntity
  8
11000_Left
  6
Continuous
 62
     7
370
    13
100
AcDbVertex
100
AcDb2dVertex
 10
268.2476997817614
 20
151.1235024184267
 30
0.0
  0
VERTEX
  5
24010
330
24002
100
AcDbEntity
  8
11000_Left
  6
Continuous
 62
     7
370
    13
100
AcDbVertex
100
AcDb2dVertex
 10
268.2476997817614
 20
151.1235024184267
 30
0.0
 42
0.0000000213
 70
     1
  0
VERTEX
  5
24011
330
24002
100
AcDbEntity
  8
11000_Left
  6
Continuous
 62
     7
370
    13
100
AcDbVertex
100
AcDb2dVertex
 10
268.2476997817614
 20
151.1235024184267
 30
0.0
 42
0.0000000107
  0
VERTEX
  5
24012
330
24002
100
AcDbEntity
  8
11000_Left
  6
Continuous
 62
     7
370
    13
100
AcDbVertex
100
AcDb2dVertex
 10
268.2476997817614
 20
151.1235024184267
 30
0.0
 42
-0.0000000343
 70
     1
  0
VERTEX
  5
24013
330
24002
100
AcDbEntity
  8
11000_Left
  6
Continuous
 62
     7
370
    13
100
AcDbVertex
100
AcDb2dVertex
 10
268.2476997817614
 20
151.1235024184267
 30
0.0
  0
VERTEX
  5
24014
330
24002
100
AcDbEntity
  8
11000_Left
  6
Continuous
 62
     7
370
    13
100
AcDbVertex
100
AcDb2dVertex
 10
268.2476997817614
 20
151.1235024184267
 30
0.0
 70
     1
  0
VERTEX
  5
24015
330
24002
100
AcDbEntity
  8
11000_Left
  6
Continuous
 62
     7
370
    13
100
AcDbVertex
100
AcDb2dVertex
 10
268.2476997817614
 20
151.1235024184267
 30
0.0
  0
SEQEND
  5
24016
330
24002
100
AcDbEntity
  8
11000_Left
  6
Continuous
 62
     7
370
    13
  0
POLYLINE
  5
24017
330
20
100
AcDbEntity
  8
11000_Left
  6
Continuous
 62
     7
370
    13
100
AcDb2dPolyline
 66
     1
 10
0.0
 20
0.0
 30
0.0
 70
     2
  0
VERTEX
  5
24018
330
24017
100
AcDbEntity
  8
11000_Left
  6
Continuous
 62
     7
370
    13
100
AcDbVertex
100
AcDb2dVertex
 10
268.2476997817614
 20
156.4235124184267
 30
0.0
  0
VERTEX
  5
24019
330
24017
100
AcDbEntity
  8
11000_Left
  6
Continuous
 62
     7
370
    13
100
AcDbVertex
100
AcDb2dVertex
 10
268.2476997817614
 20
156.4235124184267
 30
0.0
 42
0.0000000381
 70
     1
  0
VERTEX
  5
2401A
330
24017
100
AcDbEntity
  8
11000_Left
  6
Continuous
 62
     7
370
    13
100
AcDbVertex
100
AcDb2dVertex
 10
268.2476997817614
 20
156.4235124184267
 30
0.0
 42
-0.0000000264
  0
VERTEX
  5
2401B
330
24017
100
AcDbEntity
  8
11000_Left
  6
Continuous
 62
     7
370
    13
100
AcDbVertex
100
AcDb2dVertex
 10
268.2476997817614
 20
156.4235124184267
 30
0.0
 70
     1
  0
VERTEX
  5
2401C
330
24017
100
AcDbEntity
  8
11000_Left
  6
Continuous
 62
     7
370
    13
100
AcDbVertex
100
AcDb2dVertex
 10
268.2476997817614
 20
156.4235124184267
 30
0.0
 42
0.0000000273
  0
VERTEX
  5
2401D
330
24017
100
AcDbEntity
  8
11000_Left
  6
Continuous
 62
     7
370
    13
100
AcDbVertex
100
AcDb2dVertex
 10
268.2476997817614
 20
156.4235124184267
 30
0.0
 70
     1
  0
VERTEX
  5
2401E
330
24017
100
AcDbEntity
  8
11000_Left
  6
Continuous
 62
     7
370
    13
100
AcDbVertex
100
AcDb2dVertex
 10
268.2476997817614
 20
156.4235124184267
 30
0.0
 42
0.0000000594
  0
VERTEX
  5
2401F
330
24017
100
AcDbEntity
  8
11000_Left
  6
Continuous
 62
     7
370
    13
100
AcDbVertex
100
AcDb2dVertex
 10
268.2476997817614
 20
156.4235124184267
 30
0.0
 70
     1
  0
VERTEX
  5
24020
330
24017
100
AcDbEntity
  8
11000_Left
  6
Continuous
 62
     7
370
    13
100
AcDbVertex
100
AcDb2dVertex
 10
268.2476997817614
 20
156.4235124184267
 30
0.0
 42
0.0000000118
  0
VERTEX
  5
24021
330
24017
100
AcDbEntity
  8
11000_Left
  6
Continuous
 62
     7
370
    13
100
AcDbVertex
100
AcDb2dVertex
 10
268.2476997817614
 20
156.4235124184267
 30
0.0
 70
     1
  0
VERTEX
  5
24022
330
24017
100
AcDbEntity
  8
11000_Left
  6
Continuous
 62
     7
370
    13
100
AcDbVertex
100
AcDb2dVertex
 10
268.2476997817614
 20
156.4235124184267
 30
0.0
 42
-0.0000000256
  0
VERTEX
  5
24023
330
24017
100
AcDbEntity
  8
11000_Left
  6
Continuous
 62
     7
370
    13
100
AcDbVertex
100
AcDb2dVertex
 10
268.2476997817614
 20
156.4235124184267
 30
0.0
 42
0.0000000422
 70
     1
  0
VERTEX
  5
24024
330
24017
100
AcDbEntity
  8
11000_Left
  6
Continuous
 62
     7
370
    13
100
AcDbVertex
100
AcDb2dVertex
 10
268.2476997817614
 20
156.4235124184267
 30
0.0
  0
VERTEX
  5
24025
330
24017
100
AcDbEntity
  8
11000_Left
  6
Continuous
 62
     7
370
    13
100
AcDbVertex
100
AcDb2dVertex
 10
268.2476997817614
 20
156.4235124184267
 30
0.0
 70
     1
  0
VERTEX
  5
24026
330
24017
100
AcDbEntity
  8
11000_Left
  6
Continuous
 62
     7
370
    13
100
AcDbVertex
100
AcDb2dVertex
 10
268.2476997817614
 20
156.4235124184267
 30
0.0
  0
VERTEX
  5
24027
330
24017
100
AcDbEntity
  8
11000_Left
  6
Continuous
 62
     7
370
    13
100
AcDbVertex
100
AcDb2dVertex
 10
268.2476997817614
 20
156.4235124184267
 30
0.0
 42
0.000000066
 70
     1
  0
VERTEX
  5
24028
330
24017
100
AcDbEntity
  8
11000_Left
  6
Continuous
 62
     7
370
    13
100
AcDbVertex
100
AcDb2dVertex
 10
268.2476997817614
 20
156.4235124184267
 30
0.0
  0
VERTEX
  5
24029
330
24017
100
AcDbEntity
  8
11000_Left
  6
Continuous
 62
     7
370
    13
100
AcDbVertex
100
AcDb2dVertex
 10
268.2476997817614
 20
156.4235124184267
 30
0.0
 70
     1
  0
VERTEX
  5
2402A
330
24017
100
AcDbEntity
  8
11000_Left
  6
Continuous
 62
     7
370
    13
100
AcDbVertex
100
AcDb2dVertex
 10
268.2476997817614
 20
156.4235124184267
 30
0.0
  0
SEQEND
  5
2402B
330
24017
100
AcDbEntity
  8
11000_Left
  6
Continuous
 62
     7
370
    13
  0
ARC
  5
24343
330
20
100
AcDbEntity
  8
10000_FRONT
  6
Continuous
 62
     7
370
    13
100
AcDbCircle
 10
107.8253617058511
 20
131.843511525828
 30
0.0
 40
0.7547981825850706
100
AcDbArc
 50
179.888382027972
 51
273.3223565231523
  0
ARC
  5
24344
330
20
100
AcDbEntity
  8
10000_FRONT
  6
Continuous
 62
     7
370
    13
100
AcDbCircle
 10
124.4322456762673
 20
131.7268212273449
 30
0.0
 40
0.637914472231671
100
AcDbArc
 50
273.3115475745918
 51
356.6884524253953
  0
ARC
  5
24345
330
20
100
AcDbEntity
  8
10000_FRONT
  6
Continuous
 62
     7
370
    13
100
AcDbCircle
 10
107.8253617058511
 20
121.8435115258279
 30
0.0
 40
0.7547981825850706
100
AcDbArc
 50
179.888382027972
 51
273.3223565231523
  0
ARC
  5
24346
330
20
100
AcDbEntity
  8
10000_FRONT
  6
Continuous
 62
     7
370
    13
100
AcDbCircle
 10
124.4322456762673
 20
121.7268212273449
 30
0.0
 40
0.637914472231671
100
AcDbArc
 50
273.3115475745918
 51
356.6884524253952
  0
ARC
  5
2434B
330
20
100
AcDbEntity
  8
10000_FRONT
  6
Continuous
 62
     7
370
    13
100
AcDbCircle
 10
111.5785919011477
 20
118.0959677887471
 30
0.0
 40
2.850490999999998
100
AcDbArc
 50
167.7603999999987
 51
192.2396000000013
1001
AUSTER_ANSICHT
1002
{
1000
Det03
1002
}
1001
AUSTER_FOLIE
1002
{
1000
NSB00752A
1002
}
  0
ARC
  5
2434C
330
20
100
AcDbEntity
  8
10000_FRONT
  6
Continuous
 62
     7
370
    13
100
AcDbCircle
 10
111.5785919011477
 20
118.0959677887471
 30
0.0
 40
2.850490999999998
100
AcDbArc
 50
347.7603999999987
 51
12.2396000000013
1001
AUSTER_ANSICHT
1002
{
1000
Det03
1002
}
1001
AUSTER_FOLIE
1002
{
1000
NSB00752A
1002
}
  0
ARC
  5
2434D
330
20
100
AcDbEntity
  8
10000_FRONT
  6
Continuous
 62
     7
370
    13
100
AcDbCircle
 10
111.5785919011477
 20
118.0959677887471
 30
0.0
 40
1.85
100
AcDbArc
 50
253.8366000000001
 51
286.1633999999999
1001
AUSTER_ANSICHT
1002
{
1000
Det03
1002
}
1001
AUSTER_FOLIE
1002
{
1000
NSB00752A
1002
}
  0
ARC
  5
2434E
330
20
100
AcDbEntity
  8
10000_FRONT
  6
Continuous
 62
     7
370
    13
100
AcDbCircle
 10
111.5785919011477
 20
118.0959677887471
 30
0.0
 40
1.85
100
AcDbArc
 50
73.83654999999679
 51
106.1633999999998
1001
AUSTER_ANSICHT
1002
{
1000
Det03
1002
}
1001
AUSTER_FOLIE
1002
{
1000
NSB00752A
1002
}
  0
LINE
  5
2434F
330
20
100
AcDbEntity
  8
10000_FRONT
  6
Continuous
 62
     7
370
    13
100
AcDbLine
 10
111.0635919011478
 20
117.3114677887472
 30
0.0
 11
111.0635919011478
 21
117.491667788747
 31
0.0
1001
AUSTER_ANSICHT
1002
{
1000
Det03
1002
}
1001
AUSTER_FOLIE
1002
{
1000
NSB00752A
1002
}
  0
LINE
  5
24350
330
20
100
AcDbEntity
  8
10000_FRONT
  6
Continuous
 62
     7
370
    13
100
AcDbLine
 10
111.0635919011478
 20
118.8805677887471
 30
0.0
 11
111.0635919011478
 21
118.7002677887472
 31
0.0
1001
AUSTER_ANSICHT
1002
{
1000
Det03
1002
}
1001
AUSTER_FOLIE
1002
{
1000
NSB00752A
1002
}
  0
LINE
  5
24351
330
20
100
AcDbEntity
  8
10000_FRONT
  6
Continuous
 62
     7
370
    13
100
AcDbLine
 10
112.0935919011478
 20
117.3114677887472
 30
0.0
 11
112.0935919011478
 21
117.491667788747
 31
0.0
1001
AUSTER_ANSICHT
1002
{
1000
Det03
1002
}
1001
AUSTER_FOLIE
1002
{
1000
NSB00752A
1002
}
  0
LINE
  5
24352
330
20
100
AcDbEntity
  8
10000_FRONT
  6
Continuous
 62
     7
370
    13
100
AcDbLine
 10
112.0935919011478
 20
118.8805677887471
 30
0.0
 11
112.0935919011478
 21
118.7002677887472
 31
0.0
1001
AUSTER_ANSICHT
1002
{
1000
Det03
1002
}
1001
AUSTER_FOLIE
1002
{
1000
NSB00752A
1002
}
  0
LINE
  5
24353
330
20
100
AcDbEntity
  8
10000_FRONT
  6
Continuous
 62
     7
370
    13
100
AcDbLine
 10
111.0635919011478
 20
117.3114677887472
 30
0.0
 11
111.0635919011478
 21
116.3191677887472
 31
0.0
1001
AUSTER_ANSICHT
1002
{
1000
Det03
1002
}
1001
AUSTER_FOLIE
1002
{
1000
NSB00752A
1002
}
  0
LINE
  5
24354
330
20
100
AcDbEntity
  8
10000_FRONT
  6
Continuous
 62
     7
370
    13
100
AcDbLine
 10
112.0935919011478
 20
116.3191677887472
 30
0.0
 11
112.0935919011478
 21
117.3114677887472
 31
0.0
1001
AUSTER_ANSICHT
1002
{
1000
Det03
1002
}
1001
AUSTER_FOLIE
1002
{
1000
NSB00752A
1002
}
  0
LINE
  5
24355
330
20
100
AcDbEntity
  8
10000_FRONT
  6
Continuous
 62
     7
370
    13
100
AcDbLine
 10
112.0935919011478
 20
118.8805677887471
 30
0.0
 11
112.0935919011478
 21
119.8728677887471
 31
0.0
1001
AUSTER_ANSICHT
1002
{
1000
Det03
1002
}
1001
AUSTER_FOLIE
1002
{
1000
NSB00752A
1002
}
  0
LINE
  5
24356
330
20
100
AcDbEntity
  8
10000_FRONT
  6
Continuous
 62
     7
370
    13
100
AcDbLine
 10
111.0635919011478
 20
119.8728677887471
 30
0.0
 11
111.0635919011478
 21
118.8805677887471
 31
0.0
1001
AUSTER_ANSICHT
1002
{
1000
Det03
1002
}
1001
AUSTER_FOLIE
1002
{
1000
NSB00752A
1002
}
  0
LINE
  5
24357
330
20
100
AcDbEntity
  8
10000_FRONT
  6
Continuous
 62
     7
370
    13
100
AcDbLine
 10
111.0635919011478
 20
118.7002677887472
 30
0.0
 11
108.7928919011478
 21
118.7002677887472
 31
0.0
1001
AUSTER_ANSICHT
1002
{
1000
Det03
1002
}
1001
AUSTER_FOLIE
1002
{
1000
NSB00752A
1002
}
  0
LINE
  5
24358
330
20
100
AcDbEntity
  8
10000_FRONT
  6
Continuous
 62
     7
370
    13
100
AcDbLine
 10
114.3642919011478
 20
118.7002677887472
 30
0.0
 11
112.0935919011478
 21
118.7002677887472
 31
0.0
1001
AUSTER_ANSICHT
1002
{
1000
Det03
1002
}
1001
AUSTER_FOLIE
1002
{
1000
NSB00752A
1002
}
  0
LINE
  5
24359
330
20
100
AcDbEntity
  8
10000_FRONT
  6
Continuous
 62
     7
370
    13
100
AcDbLine
 10
112.0935919011478
 20
117.491667788747
 30
0.0
 11
114.3642919011478
 21
117.491667788747
 31
0.0
1001
AUSTER_ANSICHT
1002
{
1000
Det03
1002
}
1001
AUSTER_FOLIE
1002
{
1000
NSB00752A
1002
}
  0
LINE
  5
2435A
330
20
100
AcDbEntity
  8
10000_FRONT
  6
Continuous
 62
     7
370
    13
100
AcDbLine
 10
108.7928919011478
 20
117.491667788747
 30
0.0
 11
111.0635919011478
 21
117.491667788747
 31
0.0
1001
AUSTER_ANSICHT
1002
{
1000
Det03
1002
}
1001
AUSTER_FOLIE
1002
{
1000
NSB00752A
1002
}
  0
ARC
  5
2435C
330
20
100
AcDbEntity
  8
10000_FRONT
  6
Continuous
 62
     7
370
    13
100
AcDbCircle
 10
120.5992219025989
 20
118.0871099673838
 30
0.0
 40
2.850490999999998
100
AcDbArc
 50
167.7603999999987
 51
192.2396000000013
1001
AUSTER_ANSICHT
1002
{
1000
Det03
1002
}
1001
AUSTER_FOLIE
1002
{
1000
NSB00752A
1002
}
  0
ARC
  5
2435D
330
20
100
AcDbEntity
  8
10000_FRONT
  6
Continuous
 62
     7
370
    13
100
AcDbCircle
 10
120.5992219025989
 20
118.0871099673838
 30
0.0
 40
2.850490999999998
100
AcDbArc
 50
347.7603999999987
 51
12.2396000000013
1001
AUSTER_ANSICHT
1002
{
1000
Det03
1002
}
1001
AUSTER_FOLIE
1002
{
1000
NSB00752A
1002
}
  0
ARC
  5
2435E
330
20
100
AcDbEntity
  8
10000_FRONT
  6
Continuous
 62
     7
370
    13
100
AcDbCircle
 10
120.5992219025989
 20
118.0871099673838
 30
0.0
 40
1.85
100
AcDbArc
 50
253.8366000000001
 51
286.1633999999999
1001
AUSTER_ANSICHT
1002
{
1000
Det03
1002
}
1001
AUSTER_FOLIE
1002
{
1000
NSB00752A
1002
}
  0
ARC
  5
2435F
330
20
100
AcDbEntity
  8
10000_FRONT
  6
Continuous
 62
     7
370
    13
100
AcDbCircle
 10
120.5992219025989
 20
118.0871099673838
 30
0.0
 40
1.85
100
AcDbArc
 50
73.83654999999682
 51
106.1633999999999
1001
AUSTER_ANSICHT
1002
{
1000
Det03
1002
}
1001
AUSTER_FOLIE
1002
{
1000
NSB00752A
1002
}
  0
LINE
  5
24360
330
20
100
AcDbEntity
  8
10000_FRONT
  6
Continuous
 62
     7
370
    13
100
AcDbLine
 10
120.084221902599
 20
117.3026099673839
 30
0.0
 11
120.084221902599
 21
117.4828099673837
 31
0.0
1001
AUSTER_ANSICHT
1002
{
1000
Det03
1002
}
1001
AUSTER_FOLIE
1002
{
1000
NSB00752A
1002
}
  0
LINE
  5
24361
330
20
100
AcDbEntity
  8
10000_FRONT
  6
Continuous
 62
     7
370
    13
100
AcDbLine
 10
120.084221902599
 20
118.8717099673838
 30
0.0
 11
120.084221902599
 21
118.6914099673838
 31
0.0
1001
AUSTER_ANSICHT
1002
{
1000
Det03
1002
}
1001
AUSTER_FOLIE
1002
{
1000
NSB00752A
1002
}
  0
LINE
  5
24362
330
20
100
AcDbEntity
  8
10000_FRONT
  6
Continuous
 62
     7
370
    13
100
AcDbLine
 10
121.114221902599
 20
117.3026099673839
 30
0.0
 11
121.114221902599
 21
117.4828099673837
 31
0.0
1001
AUSTER_ANSICHT
1002
{
1000
Det03
1002
}
1001
AUSTER_FOLIE
1002
{
1000
NSB00752A
1002
}
  0
LINE
  5
24363
330
20
100
AcDbEntity
  8
10000_FRONT
  6
Continuous
 62
     7
370
    13
100
AcDbLine
 10
121.114221902599
 20
118.8717099673838
 30
0.0
 11
121.114221902599
 21
118.6914099673838
 31
0.0
1001
AUSTER_ANSICHT
1002
{
1000
Det03
1002
}
1001
AUSTER_FOLIE
1002
{
1000
NSB00752A
1002
}
  0
LINE
  5
24364
330
20
100
AcDbEntity
  8
10000_FRONT
  6
Continuous
 62
     7
370
    13
100
AcDbLine
 10
120.084221902599
 20
117.3026099673839
 30
0.0
 11
120.084221902599
 21
116.3103099673839
 31
0.0
1001
AUSTER_ANSICHT
1002
{
1000
Det03
1002
}
1001
AUSTER_FOLIE
1002
{
1000
NSB00752A
1002
}
  0
LINE
  5
24365
330
20
100
AcDbEntity
  8
10000_FRONT
  6
Continuous
 62
     7
370
    13
100
AcDbLine
 10
121.114221902599
 20
116.3103099673839
 30
0.0
 11
121.114221902599
 21
117.3026099673839
 31
0.0
1001
AUSTER_ANSICHT
1002
{
1000
Det03
1002
}
1001
AUSTER_FOLIE
1002
{
1000
NSB00752A
1002
}
  0
LINE
  5
24366
330
20
100
AcDbEntity
  8
10000_FRONT
  6
Continuous
 62
     7
370
    13
100
AcDbLine
 10
121.114221902599
 20
118.8717099673838
 30
0.0
 11
121.114221902599
 21
119.8640099673838
 31
0.0
1001
AUSTER_ANSICHT
1002
{
1000
Det03
1002
}
1001
AUSTER_FOLIE
1002
{
1000
NSB00752A
1002
}
  0
LINE
  5
24367
330
20
100
AcDbEntity
  8
10000_FRONT
  6
Continuous
 62
     7
370
    13
100
AcDbLine
 10
120.084221902599
 20
119.8640099673838
 30
0.0
 11
120.084221902599
 21
118.8717099673838
 31
0.0
1001
AUSTER_ANSICHT
1002
{
1000
Det03
1002
}
1001
AUSTER_FOLIE
1002
{
1000
NSB00752A
1002
}
  0
LINE
  5
24368
330
20
100
AcDbEntity
  8
10000_FRONT
  6
Continuous
 62
     7
370
    13
100
AcDbLine
 10
120.084221902599
 20
118.6914099673838
 30
0.0
 11
117.813521902599
 21
118.6914099673838
 31
0.0
1001
AUSTER_ANSICHT
1002
{
1000
Det03
1002
}
1001
AUSTER_FOLIE
1002
{
1000
NSB00752A
1002
}
  0
LINE
  5
24369
330
20
100
AcDbEntity
  8
10000_FRONT
  6
Continuous
 62
     7
370
    13
100
AcDbLine
 10
123.384921902599
 20
118.6914099673838
 30
0.0
 11
121.114221902599
 21
118.6914099673838
 31
0.0
1001
AUSTER_ANSICHT
1002
{
1000
Det03
1002
}
1001
AUSTER_FOLIE
1002
{
1000
NSB00752A
1002
}
  0
LINE
  5
2436A
330
20
100
AcDbEntity
  8
10000_FRONT
  6
Continuous
 62
     7
370
    13
100
AcDbLine
 10
121.114221902599
 20
117.4828099673837
 30
0.0
 11
123.384921902599
 21
117.4828099673837
 31
0.0
1001
AUSTER_ANSICHT
1002
{
1000
Det03
1002
}
1001
AUSTER_FOLIE
1002
{
1000
NSB00752A
1002
}
  0
LINE
  5
2436B
330
20
100
AcDbEntity
  8
10000_FRONT
  6
Continuous
 62
     7
370
    13
100
AcDbLine
 10
117.813521902599
 20
117.4828099673837
 30
0.0
 11
120.084221902599
 21
117.4828099673837
 31
0.0
1001
AUSTER_ANSICHT
1002
{
1000
Det03
1002
}
1001
AUSTER_FOLIE
1002
{
1000
NSB00752A
1002
}
  0
ARC
  5
2436D
330
20
100
AcDbEntity
  8
10000_FRONT
  6
Continuous
 62
     7
370
    13
100
AcDbCircle
 10
120.5992219025989
 20
118.0871099673838
 30
0.0
 40
3.559205227572689
100
AcDbArc
 50
122.4682655938011
 51
57.53173440619921
  0
ARC
  5
2436E
330
20
100
AcDbEntity
  8
10000_FRONT
  6
Continuous
 62
     7
370
    13
100
AcDbCircle
 10
111.5785919011477
 20
118.0959677887471
 30
0.0
 40
3.559205227572689
100
AcDbArc
 50
122.732769986545
 51
57.26707592405123
  0
ARC
  5
24377
330
20
100
AcDbEntity
  8
10000_FRONT
  6
Continuous
 62
     7
370
    13
100
AcDbCircle
 10
111.5837283236188
 20
127.8339197694446
 30
0.0
 40
2.850490999999998
100
AcDbArc
 50
167.7603999999987
 51
192.2396000000013
1001
AUSTER_ANSICHT
1002
{
1000
Det03
1002
}
1001
AUSTER_FOLIE
1002
{
1000
NSB00752A
1002
}
  0
ARC
  5
24378
330
20
100
AcDbEntity
  8
10000_FRONT
  6
Continuous
 62
     7
370
    13
100
AcDbCircle
 10
111.5837283236188
 20
127.8339197694446
 30
0.0
 40
2.850490999999998
100
AcDbArc
 50
347.7603999999987
 51
12.23960000000129
1001
AUSTER_ANSICHT
1002
{
1000
Det03
1002
}
1001
AUSTER_FOLIE
1002
{
1000
NSB00752A
1002
}
  0
ARC
  5
24379
330
20
100
AcDbEntity
  8
10000_FRONT
  6
Continuous
 62
     7
370
    13
100
AcDbCircle
 10
111.5837283236188
 20
127.8339197694446
 30
0.0
 40
1.85
100
AcDbArc
 50
253.8366000000001
 51
286.1633999999999
1001
AUSTER_ANSICHT
1002
{
1000
Det03
1002
}
1001
AUSTER_FOLIE
1002
{
1000
NSB00752A
1002
}
  0
ARC
  5
2437A
330
20
100
AcDbEntity
  8
10000_FRONT
  6
Continuous
 62
     7
370
    13
100
AcDbCircle
 10
111.5837283236188
 20
127.8339197694446
 30
0.0
 40
1.85
100
AcDbArc
 50
73.83654999999676
 51
106.1633999999998
1001
AUSTER_ANSICHT
1002
{
1000
Det03
1002
}
1001
AUSTER_FOLIE
1002
{
1000
NSB00752A
1002
}
  0
LINE
  5
2437B
330
20
100
AcDbEntity
  8
10000_FRONT
  6
Continuous
 62
     7
370
    13
100
AcDbLine
 10
111.068728323619
 20
127.0494197694447
 30
0.0
 11
111.068728323619
 21
127.2296197694445
 31
0.0
1001
AUSTER_ANSICHT
1002
{
1000
Det03
1002
}
1001
AUSTER_FOLIE
1002
{
1000
NSB00752A
1002
}
  0
LINE
  5
2437C
330
20
100
AcDbEntity
  8
10000_FRONT
  6
Continuous
 62
     7
370
    13
100
AcDbLine
 10
111.068728323619
 20
128.6185197694446
 30
0.0
 11
111.068728323619
 21
128.4382197694447
 31
0.0
1001
AUSTER_ANSICHT
1002
{
1000
Det03
1002
}
1001
AUSTER_FOLIE
1002
{
1000
NSB00752A
1002
}
  0
LINE
  5
2437D
330
20
100
AcDbEntity
  8
10000_FRONT
  6
Continuous
 62
     7
370
    13
100
AcDbLine
 10
112.098728323619
 20
127.0494197694447
 30
0.0
 11
112.098728323619
 21
127.2296197694445
 31
0.0
1001
AUSTER_ANSICHT
1002
{
1000
Det03
1002
}
1001
AUSTER_FOLIE
1002
{
1000
NSB00752A
1002
}
  0
LINE
  5
2437E
330
20
100
AcDbEntity
  8
10000_FRONT
  6
Continuous
 62
     7
370
    13
100
AcDbLine
 10
112.098728323619
 20
128.6185197694446
 30
0.0
 11
112.098728323619
 21
128.4382197694447
 31
0.0
1001
AUSTER_ANSICHT
1002
{
1000
Det03
1002
}
1001
AUSTER_FOLIE
1002
{
1000
NSB00752A
1002
}
  0
LINE
  5
2437F
330
20
100
AcDbEntity
  8
10000_FRONT
  6
Continuous
 62
     7
370
    13
100
AcDbLine
 10
111.068728323619
 20
127.0494197694447
 30
0.0
 11
111.068728323619
 21
126.0571197694447
 31
0.0
1001
AUSTER_ANSICHT
1002
{
1000
Det03
1002
}
1001
AUSTER_FOLIE
1002
{
1000
NSB00752A
1002
}
  0
LINE
  5
24380
330
20
100
AcDbEntity
  8
10000_FRONT
  6
Continuous
 62
     7
370
    13
100
AcDbLine
 10
112.098728323619
 20
126.0571197694447
 30
0.0
 11
112.098728323619
 21
127.0494197694447
 31
0.0
1001
AUSTER_ANSICHT
1002
{
1000
Det03
1002
}
1001
AUSTER_FOLIE
1002
{
1000
NSB00752A
1002
}
  0
LINE
  5
24381
330
20
100
AcDbEntity
  8
10000_FRONT
  6
Continuous
 62
     7
370
    13
100
AcDbLine
 10
112.098728323619
 20
128.6185197694446
 30
0.0
 11
112.098728323619
 21
129.6108197694447
 31
0.0
1001
AUSTER_ANSICHT
1002
{
1000
Det03
1002
}
1001
AUSTER_FOLIE
1002
{
1000
NSB00752A
1002
}
  0
LINE
  5
24382
330
20
100
AcDbEntity
  8
10000_FRONT
  6
Continuous
 62
     7
370
    13
100
AcDbLine
 10
111.068728323619
 20
129.6108197694447
 30
0.0
 11
111.068728323619
 21
128.6185197694446
 31
0.0
1001
AUSTER_ANSICHT
1002
{
1000
Det03
1002
}
1001
AUSTER_FOLIE
1002
{
1000
NSB00752A
1002
}
  0
LINE
  5
24383
330
20
100
AcDbEntity
  8
10000_FRONT
  6
Continuous
 62
     7
370
    13
100
AcDbLine
 10
111.068728323619
 20
128.4382197694447
 30
0.0
 11
108.7980283236189
 21
128.4382197694447
 31
0.0
1001
AUSTER_ANSICHT
1002
{
1000
Det03
1002
}
1001
AUSTER_FOLIE
1002
{
1000
NSB00752A
1002
}
  0
LINE
  5
24384
330
20
100
AcDbEntity
  8
10000_FRONT
  6
Continuous
 62
     7
370
    13
100
AcDbLine
 10
114.369428323619
 20
128.4382197694447
 30
0.0
 11
112.098728323619
 21
128.4382197694447
 31
0.0
1001
AUSTER_ANSICHT
1002
{
1000
Det03
1002
}
1001
AUSTER_FOLIE
1002
{
1000
NSB00752A
1002
}
  0
LINE
  5
24385
330
20
100
AcDbEntity
  8
10000_FRONT
  6
Continuous
 62
     7
370
    13
100
AcDbLine
 10
112.098728323619
 20
127.2296197694445
 30
0.0
 11
114.369428323619
 21
127.2296197694445
 31
0.0
1001
AUSTER_ANSICHT
1002
{
1000
Det03
1002
}
1001
AUSTER_FOLIE
1002
{
1000
NSB00752A
1002
}
  0
LINE
  5
24386
330
20
100
AcDbEntity
  8
10000_FRONT
  6
Continuous
 62
     7
370
    13
100
AcDbLine
 10
108.7980283236189
 20
127.2296197694445
 30
0.0
 11
111.068728323619
 21
127.2296197694445
 31
0.0
1001
AUSTER_ANSICHT
1002
{
1000
Det03
1002
}
1001
AUSTER_FOLIE
1002
{
1000
NSB00752A
1002
}
  0
ARC
  5
24388
330
20
100
AcDbEntity
  8
10000_FRONT
  6
Continuous
 62
     7
370
    13
100
AcDbCircle
 10
120.60435832507
 20
127.8250619480813
 30
0.0
 40
2.850490999999998
100
AcDbArc
 50
167.7603999999987
 51
192.2396000000013
1001
AUSTER_ANSICHT
1002
{
1000
Det03
1002
}
1001
AUSTER_FOLIE
1002
{
1000
NSB00752A
1002
}
  0
ARC
  5
24389
330
20
100
AcDbEntity
  8
10000_FRONT
  6
Continuous
 62
     7
370
    13
100
AcDbCircle
 10
120.60435832507
 20
127.8250619480813
 30
0.0
 40
2.850490999999998
100
AcDbArc
 50
347.7603999999987
 51
12.23960000000129
1001
AUSTER_ANSICHT
1002
{
1000
Det03
1002
}
1001
AUSTER_FOLIE
1002
{
1000
NSB00752A
1002
}
  0
ARC
  5
2438A
330
20
100
AcDbEntity
  8
10000_FRONT
  6
Continuous
 62
     7
370
    13
100
AcDbCircle
 10
120.60435832507
 20
127.8250619480813
 30
0.0
 40
1.85
100
AcDbArc
 50
253.8366000000001
 51
286.1633999999999
1001
AUSTER_ANSICHT
1002
{
1000
Det03
1002
}
1001
AUSTER_FOLIE
1002
{
1000
NSB00752A
1002
}
  0
ARC
  5
2438B
330
20
100
AcDbEntity
  8
10000_FRONT
  6
Continuous
 62
     7
370
    13
100
AcDbCircle
 10
120.60435832507
 20
127.8250619480813
 30
0.0
 40
1.85
100
AcDbArc
 50
73.83654999999684
 51
106.1633999999998
1001
AUSTER_ANSICHT
1002
{
1000
Det03
1002
}
1001
AUSTER_FOLIE
1002
{
1000
NSB00752A
1002
}
  0
LINE
  5
2438C
330
20
100
AcDbEntity
  8
10000_FRONT
  6
Continuous
 62
     7
370
    13
100
AcDbLine
 10
120.0893583250702
 20
127.0405619480814
 30
0.0
 11
120.0893583250702
 21
127.2207619480812
 31
0.0
1001
AUSTER_ANSICHT
1002
{
1000
Det03
1002
}
1001
AUSTER_FOLIE
1002
{
1000
NSB00752A
1002
}
  0
LINE
  5
2438D
330
20
100
AcDbEntity
  8
10000_FRONT
  6
Continuous
 62
     7
370
    13
100
AcDbLine
 10
120.0893583250702
 20
128.6096619480813
 30
0.0
 11
120.0893583250702
 21
128.4293619480814
 31
0.0
1001
AUSTER_ANSICHT
1002
{
1000
Det03
1002
}
1001
AUSTER_FOLIE
1002
{
1000
NSB00752A
1002
}
  0
LINE
  5
2438E
330
20
100
AcDbEntity
  8
10000_FRONT
  6
Continuous
 62
     7
370
    13
100
AcDbLine
 10
121.1193583250702
 20
127.0405619480814
 30
0.0
 11
121.1193583250702
 21
127.2207619480812
 31
0.0
1001
AUSTER_ANSICHT
1002
{
1000
Det03
1002
}
1001
AUSTER_FOLIE
1002
{
1000
NSB00752A
1002
}
  0
LINE
  5
2438F
330
20
100
AcDbEntity
  8
10000_FRONT
  6
Continuous
 62
     7
370
    13
100
AcDbLine
 10
121.1193583250702
 20
128.6096619480813
 30
0.0
 11
121.1193583250702
 21
128.4293619480814
 31
0.0
1001
AUSTER_ANSICHT
1002
{
1000
Det03
1002
}
1001
AUSTER_FOLIE
1002
{
1000
NSB00752A
1002
}
  0
LINE
  5
24390
330
20
100
AcDbEntity
  8
10000_FRONT
  6
Continuous
 62
     7
370
    13
100
AcDbLine
 10
120.0893583250702
 20
127.0405619480814
 30
0.0
 11
120.0893583250702
 21
126.0482619480814
 31
0.0
1001
AUSTER_ANSICHT
1002
{
1000
Det03
1002
}
1001
AUSTER_FOLIE
1002
{
1000
NSB00752A
1002
}
  0
LINE
  5
24391
330
20
100
AcDbEntity
  8
10000_FRONT
  6
Continuous
 62
     7
370
    13
100
AcDbLine
 10
121.1193583250702
 20
126.0482619480814
 30
0.0
 11
121.1193583250702
 21
127.0405619480814
 31
0.0
1001
AUSTER_ANSICHT
1002
{
1000
Det03
1002
}
1001
AUSTER_FOLIE
1002
{
1000
NSB00752A
1002
}
  0
LINE
  5
24392
330
20
100
AcDbEntity
  8
10000_FRONT
  6
Continuous
 62
     7
370
    13
100
AcDbLine
 10
121.1193583250702
 20
128.6096619480813
 30
0.0
 11
121.1193583250702
 21
129.6019619480814
 31
0.0
1001
AUSTER_ANSICHT
1002
{
1000
Det03
1002
}
1001
AUSTER_FOLIE
1002
{
1000
NSB00752A
1002
}
  0
LINE
  5
24393
330
20
100
AcDbEntity
  8
10000_FRONT
  6
Continuous
 62
     7
370
    13
100
AcDbLine
 10
120.0893583250702
 20
129.6019619480814
 30
0.0
 11
120.0893583250702
 21
128.6096619480813
 31
0.0
1001
AUSTER_ANSICHT
1002
{
1000
Det03
1002
}
1001
AUSTER_FOLIE
1002
{
1000
NSB00752A
1002
}
  0
LINE
  5
24394
330
20
100
AcDbEntity
  8
10000_FRONT
  6
Continuous
 62
     7
370
    13
100
AcDbLine
 10
120.0893583250702
 20
128.4293619480814
 30
0.0
 11
117.8186583250701
 21
128.4293619480814
 31
0.0
1001
AUSTER_ANSICHT
1002
{
1000
Det03
1002
}
1001
AUSTER_FOLIE
1002
{
1000
NSB00752A
1002
}
  0
LINE
  5
24395
330
20
100
AcDbEntity
  8
10000_FRONT
  6
Continuous
 62
     7
370
    13
100
AcDbLine
 10
123.3900583250702
 20
128.4293619480814
 30
0.0
 11
121.1193583250702
 21
128.4293619480814
 31
0.0
1001
AUSTER_ANSICHT
1002
{
1000
Det03
1002
}
1001
AUSTER_FOLIE
1002
{
1000
NSB00752A
1002
}
  0
LINE
  5
24396
330
20
100
AcDbEntity
  8
10000_FRONT
  6
Continuous
 62
     7
370
    13
100
AcDbLine
 10
121.1193583250702
 20
127.2207619480812
 30
0.0
 11
123.3900583250702
 21
127.2207619480812
 31
0.0
1001
AUSTER_ANSICHT
1002
{
1000
Det03
1002
}
1001
AUSTER_FOLIE
1002
{
1000
NSB00752A
1002
}
  0
LINE
  5
24397
330
20
100
AcDbEntity
  8
10000_FRONT
  6
Continuous
 62
     7
370
    13
100
AcDbLine
 10
117.8186583250701
 20
127.2207619480812
 30
0.0
 11
120.0893583250702
 21
127.2207619480812
 31
0.0
1001
AUSTER_ANSICHT
1002
{
1000
Det03
1002
}
1001
AUSTER_FOLIE
1002
{
1000
NSB00752A
1002
}
  0
ARC
  5
24398
330
20
100
AcDbEntity
  8
10000_FRONT
  6
Continuous
 62
     7
370
    13
100
AcDbCircle
 10
120.60435832507
 20
127.8250619480813
 30
0.0
 40
3.559205227572689
100
AcDbArc
 50
113.4634378125076
 51
66.53656218749239
  0
ARC
  5
24399
330
20
100
AcDbEntity
  8
10000_FRONT
  6
Continuous
 62
     7
370
    13
100
AcDbCircle
 10
111.5837283236188
 20
127.8339197694446
 30
0.0
 40
3.559205227572689
100
AcDbArc
 50
113.819023113752
 51
66.18097688624843
  0
CIRCLE
  5
2439D
330
20
100
AcDbEntity
  8
10000_FRONT
  6
Continuous
 62
     7
370
    13
100
AcDbCircle
 10
111.5690949555322
 20
153.58997194808
 30
0.0
 40
2.649999999999977
  0
LINE
  5
243D1
330
20
100
AcDbEntity
  8
10000_FRONT
  6
Continuous
 62
     7
370
    13
100
AcDbLine
 10
124.4690949555322
 20
186.0899719480798
 30
0.0
 11
107.8691049555322
 21
186.0899619480799
 31
0.0
  0
ARC
  5
243D5
330
20
100
AcDbEntity
  8
10000_FRONT
  6
Continuous
 62
     7
370
    13
100
AcDbCircle
 10
115.6690949555323
 20
189.3399719480799
 30
0.0
 40
0.6
100
AcDbArc
 50
90.00000000000005
 51
180.0
  0
LINE
  5
243D6
330
20
100
AcDbEntity
  8
10000_FRONT
  6
Continuous
 62
     7
370
    13
100
AcDbLine
 10
116.4690949555322
 20
189.9399719480799
 30
0.0
 11
115.6690949555323
 21
189.9399719480799
 31
0.0
  0
ARC
  5
243D7
330
20
100
AcDbEntity
  8
10000_FRONT
  6
Continuous
 62
     7
370
    13
100
AcDbCircle
 10
116.4690949555322
 20
189.3399719480799
 30
0.0
 40
0.6
100
AcDbArc
 50
0.0
 51
90.00000000000005
  0
LINE
  5
243D8
330
20
100
AcDbEntity
  8
10000_FRONT
  6
Continuous
 62
     7
370
    13
100
AcDbLine
 10
117.0690949555322
 20
186.0899719480799
 30
0.0
 11
117.0690949555322
 21
188.1399719480799
 31
0.0
  0
LINE
  5
243D9
330
20
100
AcDbEntity
  8
10000_FRONT
  6
Continuous
 62
     7
370
    13
100
AcDbLine
 10
117.0690949555322
 20
188.1399719480799
 30
0.0
 11
117.0690949555322
 21
189.3399719480799
 31
0.0
  0
LINE
  5
243E2
330
20
100
AcDbEntity
  8
10000_FRONT
  6
Continuous
 62
     7
370
    13
100
AcDbLine
 10
115.0690949555322
 20
189.3399719480799
 30
0.0
 11
115.0690949555322
 21
188.1399719480799
 31
0.0
  0
LINE
  5
243E3
330
20
100
AcDbEntity
  8
10000_FRONT
  6
Continuous
 62
     7
370
    13
100
AcDbLine
 10
115.0690949555322
 20
188.1399719480799
 30
0.0
 11
115.0690949555322
 21
186.0899719480799
 31
0.0
  0
ARC
  5
243E6
330
20
100
AcDbEntity
  8
10000_FRONT
  6
Continuous
 62
     7
370
    13
100
AcDbCircle
 10
107.8253617058511
 20
185.3364323703319
 30
0.0
 40
0.7547981825850706
100
AcDbArc
 50
86.67764347684775
 51
180.1116179720284
  0
ARC
  5
243E7
330
20
100
AcDbEntity
  8
10000_FRONT
  6
Continuous
 62
     7
370
    13
100
AcDbCircle
 10
124.4322456762673
 20
185.4531226688149
 30
0.0
 40
0.637914472231671
100
AcDbArc
 50
3.311547574603768
 51
86.68845242540824
  0
ARC
  5
243E9
330
20
100
AcDbEntity
  8
10000_FRONT
  6
Continuous
 62
     7
370
    13
100
AcDbCircle
 10
111.5785919011477
 20
189.0839761074128
 30
0.0
 40
2.850490999999998
100
AcDbArc
 50
167.7603999999987
 51
192.2396000000013
1001
AUSTER_ANSICHT
1002
{
1000
Det03
1002
}
1001
AUSTER_FOLIE
1002
{
1000
NSB00752A
1002
}
  0
ARC
  5
243EA
330
20
100
AcDbEntity
  8
10000_FRONT
  6
Continuous
 62
     7
370
    13
100
AcDbCircle
 10
111.5785919011477
 20
189.0839761074128
 30
0.0
 40
2.850490999999998
100
AcDbArc
 50
347.7603999999987
 51
12.23960000000128
1001
AUSTER_ANSICHT
1002
{
1000
Det03
1002
}
1001
AUSTER_FOLIE
1002
{
1000
NSB00752A
1002
}
  0
ARC
  5
243EB
330
20
100
AcDbEntity
  8
10000_FRONT
  6
Continuous
 62
     7
370
    13
100
AcDbCircle
 10
111.5785919011477
 20
189.0839761074128
 30
0.0
 40
1.85
100
AcDbArc
 50
73.83659999999972
 51
106.1634000000003
1001
AUSTER_ANSICHT
1002
{
1000
Det03
1002
}
1001
AUSTER_FOLIE
1002
{
1000
NSB00752A
1002
}
  0
ARC
  5
243EC
330
20
100
AcDbEntity
  8
10000_FRONT
  6
Continuous
 62
     7
370
    13
100
AcDbCircle
 10
111.5785919011477
 20
189.0839761074128
 30
0.0
 40
1.85
100
AcDbArc
 50
253.8365999999997
 51
286.1634500000029
1001
AUSTER_ANSICHT
1002
{
1000
Det03
1002
}
1001
AUSTER_FOLIE
1002
{
1000
NSB00752A
1002
}
  0
LINE
  5
243ED
330
20
100
AcDbEntity
  8
10000_FRONT
  6
Continuous
 62
     7
370
    13
100
AcDbLine
 10
111.0635919011478
 20
189.8684761074127
 30
0.0
 11
111.0635919011478
 21
189.6882761074129
 31
0.0
1001
AUSTER_ANSICHT
1002
{
1000
Det03
1002
}
1001
AUSTER_FOLIE
1002
{
1000
NSB00752A
1002
}
  0
LINE
  5
243EE
330
20
100
AcDbEntity
  8
10000_FRONT
  6
Continuous
 62
     7
370
    13
100
AcDbLine
 10
111.0635919011478
 20
188.2993761074127
 30
0.0
 11
111.0635919011478
 21
188.4796761074126
 31
0.0
1001
AUSTER_ANSICHT
1002
{
1000
Det03
1002
}
1001
AUSTER_FOLIE
1002
{
1000
NSB00752A
1002
}
  0
LINE
  5
243EF
330
20
100
AcDbEntity
  8
10000_FRONT
  6
Continuous
 62
     7
370
    13
100
AcDbLine
 10
112.0935919011478
 20
189.8684761074127
 30
0.0
 11
112.0935919011478
 21
189.6882761074129
 31
0.0
1001
AUSTER_ANSICHT
1002
{
1000
Det03
1002
}
1001
AUSTER_FOLIE
1002
{
1000
NSB00752A
1002
}
  0
LINE
  5
243F0
330
20
100
AcDbEntity
  8
10000_FRONT
  6
Continuous
 62
     7
370
    13
100
AcDbLine
 10
112.0935919011478
 20
188.2993761074127
 30
0.0
 11
112.0935919011478
 21
188.4796761074126
 31
0.0
1001
AUSTER_ANSICHT
1002
{
1000
Det03
1002
}
1001
AUSTER_FOLIE
1002
{
1000
NSB00752A
1002
}
  0
LINE
  5
243F1
330
20
100
AcDbEntity
  8
10000_FRONT
  6
Continuous
 62
     7
370
    13
100
AcDbLine
 10
111.0635919011478
 20
189.8684761074127
 30
0.0
 11
111.0635919011478
 21
190.8607761074127
 31
0.0
1001
AUSTER_ANSICHT
1002
{
1000
Det03
1002
}
1001
AUSTER_FOLIE
1002
{
1000
NSB00752A
1002
}
  0
LINE
  5
243F2
330
20
100
AcDbEntity
  8
10000_FRONT
  6
Continuous
 62
     7
370
    13
100
AcDbLine
 10
112.0935919011478
 20
190.8607761074127
 30
0.0
 11
112.0935919011478
 21
189.8684761074127
 31
0.0
1001
AUSTER_ANSICHT
1002
{
1000
Det03
1002
}
1001
AUSTER_FOLIE
1002
{
1000
NSB00752A
1002
}
  0
LINE
  5
243F3
330
20
100
AcDbEntity
  8
10000_FRONT
  6
Continuous
 62
     7
370
    13
100
AcDbLine
 10
112.0935919011478
 20
188.2993761074127
 30
0.0
 11
112.0935919011478
 21
187.3070761074126
 31
0.0
1001
AUSTER_ANSICHT
1002
{
1000
Det03
1002
}
1001
AUSTER_FOLIE
1002
{
1000
NSB00752A
1002
}
  0
LINE
  5
243F4
330
20
100
AcDbEntity
  8
10000_FRONT
  6
Continuous
 62
     7
370
    13
100
AcDbLine
 10
111.0635919011478
 20
187.3070761074126
 30
0.0
 11
111.0635919011478
 21
188.2993761074127
 31
0.0
1001
AUSTER_ANSICHT
1002
{
1000
Det03
1002
}
1001
AUSTER_FOLIE
1002
{
1000
NSB00752A
1002
}
  0
LINE
  5
243F5
330
20
100
AcDbEntity
  8
10000_FRONT
  6
Continuous
 62
     7
370
    13
100
AcDbLine
 10
111.0635919011478
 20
188.4796761074126
 30
0.0
 11
108.7928919011478
 21
188.4796761074126
 31
0.0
1001
AUSTER_ANSICHT
1002
{
1000
Det03
1002
}
1001
AUSTER_FOLIE
1002
{
1000
NSB00752A
1002
}
  0
LINE
  5
243F6
330
20
100
AcDbEntity
  8
10000_FRONT
  6
Continuous
 62
     7
370
    13
100
AcDbLine
 10
114.3642919011478
 20
188.4796761074126
 30
0.0
 11
112.0935919011478
 21
188.4796761074126
 31
0.0
1001
AUSTER_ANSICHT
1002
{
1000
Det03
1002
}
1001
AUSTER_FOLIE
1002
{
1000
NSB00752A
1002
}
  0
LINE
  5
243F7
330
20
100
AcDbEntity
  8
10000_FRONT
  6
Continuous
 62
     7
370
    13
100
AcDbLine
 10
112.0935919011478
 20
189.6882761074129
 30
0.0
 11
114.3642919011478
 21
189.6882761074129
 31
0.0
1001
AUSTER_ANSICHT
1002
{
1000
Det03
1002
}
1001
AUSTER_FOLIE
1002
{
1000
NSB00752A
1002
}
  0
LINE
  5
243F8
330
20
100
AcDbEntity
  8
10000_FRONT
  6
Continuous
 62
     7
370
    13
100
AcDbLine
 10
108.7928919011478
 20
189.6882761074129
 30
0.0
 11
111.0635919011478
 21
189.6882761074129
 31
0.0
1001
AUSTER_ANSICHT
1002
{
1000
Det03
1002
}
1001
AUSTER_FOLIE
1002
{
1000
NSB00752A
1002
}
  0
ARC
  5
243F9
330
20
100
AcDbEntity
  8
10000_FRONT
  6
Continuous
 62
     7
370
    13
100
AcDbCircle
 10
120.5992219025989
 20
189.0928339287761
 30
0.0
 40
2.850490999999998
100
AcDbArc
 50
167.7603999999987
 51
192.2396000000013
1001
AUSTER_ANSICHT
1002
{
1000
Det03
1002
}
1001
AUSTER_FOLIE
1002
{
1000
NSB00752A
1002
}
  0
ARC
  5
243FA
330
20
100
AcDbEntity
  8
10000_FRONT
  6
Continuous
 62
     7
370
    13
100
AcDbCircle
 10
120.5992219025989
 20
189.0928339287761
 30
0.0
 40
2.850490999999998
100
AcDbArc
 50
347.7603999999987
 51
12.23960000000128
1001
AUSTER_ANSICHT
1002
{
1000
Det03
1002
}
1001
AUSTER_FOLIE
1002
{
1000
NSB00752A
1002
}
  0
ARC
  5
243FB
330
20
100
AcDbEntity
  8
10000_FRONT
  6
Continuous
 62
     7
370
    13
100
AcDbCircle
 10
120.5992219025989
 20
189.0928339287761
 30
0.0
 40
1.85
100
AcDbArc
 50
73.83659999999967
 51
106.1634000000003
1001
AUSTER_ANSICHT
1002
{
1000
Det03
1002
}
1001
AUSTER_FOLIE
1002
{
1000
NSB00752A
1002
}
  0
ARC
  5
243FC
330
20
100
AcDbEntity
  8
10000_FRONT
  6
Continuous
 62
     7
370
    13
100
AcDbCircle
 10
120.5992219025989
 20
189.0928339287761
 30
0.0
 40
1.85
100
AcDbArc
 50
253.8365999999997
 51
286.1634500000029
1001
AUSTER_ANSICHT
1002
{
1000
Det03
1002
}
1001
AUSTER_FOLIE
1002
{
1000
NSB00752A
1002
}
  0
LINE
  5
243FD
330
20
100
AcDbEntity
  8
10000_FRONT
  6
Continuous
 62
     7
370
    13
100
AcDbLine
 10
120.084221902599
 20
189.8773339287759
 30
0.0
 11
120.084221902599
 21
189.6971339287761
 31
0.0
1001
AUSTER_ANSICHT
1002
{
1000
Det03
1002
}
1001
AUSTER_FOLIE
1002
{
1000
NSB00752A
1002
}
  0
LINE
  5
243FE
330
20
100
AcDbEntity
  8
10000_FRONT
  6
Continuous
 62
     7
370
    13
100
AcDbLine
 10
120.084221902599
 20
188.308233928776
 30
0.0
 11
120.084221902599
 21
188.488533928776
 31
0.0
1001
AUSTER_ANSICHT
1002
{
1000
Det03
1002
}
1001
AUSTER_FOLIE
1002
{
1000
NSB00752A
1002
}
  0
LINE
  5
243FF
330
20
100
AcDbEntity
  8
10000_FRONT
  6
Continuous
 62
     7
370
    13
100
AcDbLine
 10
121.114221902599
 20
189.8773339287759
 30
0.0
 11
121.114221902599
 21
189.6971339287761
 31
0.0
1001
AUSTER_ANSICHT
1002
{
1000
Det03
1002
}
1001
AUSTER_FOLIE
1002
{
1000
NSB00752A
1002
}
  0
LINE
  5
24400
330
20
100
AcDbEntity
  8
10000_FRONT
  6
Continuous
 62
     7
370
    13
100
AcDbLine
 10
121.114221902599
 20
188.308233928776
 30
0.0
 11
121.114221902599
 21
188.488533928776
 31
0.0
1001
AUSTER_ANSICHT
1002
{
1000
Det03
1002
}
1001
AUSTER_FOLIE
1002
{
1000
NSB00752A
1002
}
  0
LINE
  5
24401
330
20
100
AcDbEntity
  8
10000_FRONT
  6
Continuous
 62
     7
370
    13
100
AcDbLine
 10
120.084221902599
 20
189.8773339287759
 30
0.0
 11
120.084221902599
 21
190.8696339287759
 31
0.0
1001
AUSTER_ANSICHT
1002
{
1000
Det03
1002
}
1001
AUSTER_FOLIE
1002
{
1000
NSB00752A
1002
}
  0
LINE
  5
24402
330
20
100
AcDbEntity
  8
10000_FRONT
  6
Continuous
 62
     7
370
    13
100
AcDbLine
 10
121.114221902599
 20
190.8696339287759
 30
0.0
 11
121.114221902599
 21
189.8773339287759
 31
0.0
1001
AUSTER_ANSICHT
1002
{
1000
Det03
1002
}
1001
AUSTER_FOLIE
1002
{
1000
NSB00752A
1002
}
  0
LINE
  5
24403
330
20
100
AcDbEntity
  8
10000_FRONT
  6
Continuous
 62
     7
370
    13
100
AcDbLine
 10
121.114221902599
 20
188.308233928776
 30
0.0
 11
121.114221902599
 21
187.315933928776
 31
0.0
1001
AUSTER_ANSICHT
1002
{
1000
Det03
1002
}
1001
AUSTER_FOLIE
1002
{
1000
NSB00752A
1002
}
  0
LINE
  5
24404
330
20
100
AcDbEntity
  8
10000_FRONT
  6
Continuous
 62
     7
370
    13
100
AcDbLine
 10
120.084221902599
 20
187.315933928776
 30
0.0
 11
120.084221902599
 21
188.308233928776
 31
0.0
1001
AUSTER_ANSICHT
1002
{
1000
Det03
1002
}
1001
AUSTER_FOLIE
1002
{
1000
NSB00752A
1002
}
  0
LINE
  5
24405
330
20
100
AcDbEntity
  8
10000_FRONT
  6
Continuous
 62
     7
370
    13
100
AcDbLine
 10
120.084221902599
 20
188.488533928776
 30
0.0
 11
117.813521902599
 21
188.488533928776
 31
0.0
1001
AUSTER_ANSICHT
1002
{
1000
Det03
1002
}
1001
AUSTER_FOLIE
1002
{
1000
NSB00752A
1002
}
  0
LINE
  5
24406
330
20
100
AcDbEntity
  8
10000_FRONT
  6
Continuous
 62
     7
370
    13
100
AcDbLine
 10
123.384921902599
 20
188.488533928776
 30
0.0
 11
121.114221902599
 21
188.488533928776
 31
0.0
1001
AUSTER_ANSICHT
1002
{
1000
Det03
1002
}
1001
AUSTER_FOLIE
1002
{
1000
NSB00752A
1002
}
  0
LINE
  5
24407
330
20
100
AcDbEntity
  8
10000_FRONT
  6
Continuous
 62
     7
370
    13
100
AcDbLine
 10
121.114221902599
 20
189.6971339287761
 30
0.0
 11
123.384921902599
 21
189.6971339287761
 31
0.0
1001
AUSTER_ANSICHT
1002
{
1000
Det03
1002
}
1001
AUSTER_FOLIE
1002
{
1000
NSB00752A
1002
}
  0
LINE
  5
24408
330
20
100
AcDbEntity
  8
10000_FRONT
  6
Continuous
 62
     7
370
    13
100
AcDbLine
 10
117.813521902599
 20
189.6971339287761
 30
0.0
 11
120.084221902599
 21
189.6971339287761
 31
0.0
1001
AUSTER_ANSICHT
1002
{
1000
Det03
1002
}
1001
AUSTER_FOLIE
1002
{
1000
NSB00752A
1002
}
  0
ARC
  5
24409
330
20
100
AcDbEntity
  8
10000_FRONT
  6
Continuous
 62
     7
370
    13
100
AcDbCircle
 10
120.5992219025989
 20
189.0928339287761
 30
0.0
 40
3.559205227572689
100
AcDbArc
 50
302.4682655938011
 51
237.5317344061987
  0
ARC
  5
2440A
330
20
100
AcDbEntity
  8
10000_FRONT
  6
Continuous
 62
     7
370
    13
100
AcDbCircle
 10
111.5785919011477
 20
189.0839761074128
 30
0.0
 40
3.559205227572689
100
AcDbArc
 50
302.7329240759495
 51
237.2672300134548
  0
ARC
  5
2440C
330
20
100
AcDbEntity
  8
10000_FRONT
  6
Continuous
 62
     7
370
    13
100
AcDbCircle
 10
111.5837283236188
 20
179.3460241267153
 30
0.0
 40
2.850490999999998
100
AcDbArc
 50
167.7603999999987
 51
192.2396000000013
1001
AUSTER_ANSICHT
1002
{
1000
Det03
1002
}
1001
AUSTER_FOLIE
1002
{
1000
NSB00752A
1002
}
  0
ARC
  5
2440D
330
20
100
AcDbEntity
  8
10000_FRONT
  6
Continuous
 62
     7
370
    13
100
AcDbCircle
 10
111.5837283236188
 20
179.3460241267153
 30
0.0
 40
2.850490999999998
100
AcDbArc
 50
347.7603999999987
 51
12.23960000000128
1001
AUSTER_ANSICHT
1002
{
1000
Det03
1002
}
1001
AUSTER_FOLIE
1002
{
1000
NSB00752A
1002
}
  0
ARC
  5
2440E
330
20
100
AcDbEntity
  8
10000_FRONT
  6
Continuous
 62
     7
370
    13
100
AcDbCircle
 10
111.5837283236188
 20
179.3460241267153
 30
0.0
 40
1.85
100
AcDbArc
 50
73.83659999999972
 51
106.1634000000003
1001
AUSTER_ANSICHT
1002
{
1000
Det03
1002
}
1001
AUSTER_FOLIE
1002
{
1000
NSB00752A
1002
}
  0
ARC
  5
2440F
330
20
100
AcDbEntity
  8
10000_FRONT
  6
Continuous
 62
     7
370
    13
100
AcDbCircle
 10
111.5837283236188
 20
179.3460241267153
 30
0.0
 40
1.85
100
AcDbArc
 50
253.8365999999997
 51
286.1634500000029
1001
AUSTER_ANSICHT
1002
{
1000
Det03
1002
}
1001
AUSTER_FOLIE
1002
{
1000
NSB00752A
1002
}
  0
LINE
  5
24410
330
20
100
AcDbEntity
  8
10000_FRONT
  6
Continuous
 62
     7
370
    13
100
AcDbLine
 10
111.068728323619
 20
180.1305241267151
 30
0.0
 11
111.068728323619
 21
179.9503241267153
 31
0.0
1001
AUSTER_ANSICHT
1002
{
1000
Det03
1002
}
1001
AUSTER_FOLIE
1002
{
1000
NSB00752A
1002
}
  0
LINE
  5
24411
330
20
100
AcDbEntity
  8
10000_FRONT
  6
Continuous
 62
     7
370
    13
100
AcDbLine
 10
111.068728323619
 20
178.5614241267152
 30
0.0
 11
111.068728323619
 21
178.7417241267152
 31
0.0
1001
AUSTER_ANSICHT
1002
{
1000
Det03
1002
}
1001
AUSTER_FOLIE
1002
{
1000
NSB00752A
1002
}
  0
LINE
  5
24412
330
20
100
AcDbEntity
  8
10000_FRONT
  6
Continuous
 62
     7
370
    13
100
AcDbLine
 10
112.098728323619
 20
180.1305241267151
 30
0.0
 11
112.098728323619
 21
179.9503241267153
 31
0.0
1001
AUSTER_ANSICHT
1002
{
1000
Det03
1002
}
1001
AUSTER_FOLIE
1002
{
1000
NSB00752A
1002
}
  0
LINE
  5
24413
330
20
100
AcDbEntity
  8
10000_FRONT
  6
Continuous
 62
     7
370
    13
100
AcDbLine
 10
112.098728323619
 20
178.5614241267152
 30
0.0
 11
112.098728323619
 21
178.7417241267152
 31
0.0
1001
AUSTER_ANSICHT
1002
{
1000
Det03
1002
}
1001
AUSTER_FOLIE
1002
{
1000
NSB00752A
1002
}
  0
LINE
  5
24414
330
20
100
AcDbEntity
  8
10000_FRONT
  6
Continuous
 62
     7
370
    13
100
AcDbLine
 10
111.068728323619
 20
180.1305241267151
 30
0.0
 11
111.068728323619
 21
181.1228241267151
 31
0.0
1001
AUSTER_ANSICHT
1002
{
1000
Det03
1002
}
1001
AUSTER_FOLIE
1002
{
1000
NSB00752A
1002
}
  0
LINE
  5
24415
330
20
100
AcDbEntity
  8
10000_FRONT
  6
Continuous
 62
     7
370
    13
100
AcDbLine
 10
112.098728323619
 20
181.1228241267151
 30
0.0
 11
112.098728323619
 21
180.1305241267151
 31
0.0
1001
AUSTER_ANSICHT
1002
{
1000
Det03
1002
}
1001
AUSTER_FOLIE
1002
{
1000
NSB00752A
1002
}
  0
LINE
  5
24416
330
20
100
AcDbEntity
  8
10000_FRONT
  6
Continuous
 62
     7
370
    13
100
AcDbLine
 10
112.098728323619
 20
178.5614241267152
 30
0.0
 11
112.098728323619
 21
177.5691241267152
 31
0.0
1001
AUSTER_ANSICHT
1002
{
1000
Det03
1002
}
1001
AUSTER_FOLIE
1002
{
1000
NSB00752A
1002
}
  0
LINE
  5
24417
330
20
100
AcDbEntity
  8
10000_FRONT
  6
Continuous
 62
     7
370
    13
100
AcDbLine
 10
111.068728323619
 20
177.5691241267152
 30
0.0
 11
111.068728323619
 21
178.5614241267152
 31
0.0
1001
AUSTER_ANSICHT
1002
{
1000
Det03
1002
}
1001
AUSTER_FOLIE
1002
{
1000
NSB00752A
1002
}
  0
LINE
  5
24418
330
20
100
AcDbEntity
  8
10000_FRONT
  6
Continuous
 62
     7
370
    13
100
AcDbLine
 10
111.068728323619
 20
178.7417241267152
 30
0.0
 11
108.7980283236189
 21
178.7417241267152
 31
0.0
1001
AUSTER_ANSICHT
1002
{
1000
Det03
1002
}
1001
AUSTER_FOLIE
1002
{
1000
NSB00752A
1002
}
  0
LINE
  5
24419
330
20
100
AcDbEntity
  8
10000_FRONT
  6
Continuous
 62
     7
370
    13
100
AcDbLine
 10
114.369428323619
 20
178.7417241267152
 30
0.0
 11
112.098728323619
 21
178.7417241267152
 31
0.0
1001
AUSTER_ANSICHT
1002
{
1000
Det03
1002
}
1001
AUSTER_FOLIE
1002
{
1000
NSB00752A
1002
}
  0
LINE
  5
2441A
330
20
100
AcDbEntity
  8
10000_FRONT
  6
Continuous
 62
     7
370
    13
100
AcDbLine
 10
112.098728323619
 20
179.9503241267153
 30
0.0
 11
114.369428323619
 21
179.9503241267153
 31
0.0
1001
AUSTER_ANSICHT
1002
{
1000
Det03
1002
}
1001
AUSTER_FOLIE
1002
{
1000
NSB00752A
1002
}
  0
LINE
  5
2441B
330
20
100
AcDbEntity
  8
10000_FRONT
  6
Continuous
 62
     7
370
    13
100
AcDbLine
 10
108.7980283236189
 20
179.9503241267153
 30
0.0
 11
111.068728323619
 21
179.9503241267153
 31
0.0
1001
AUSTER_ANSICHT
1002
{
1000
Det03
1002
}
1001
AUSTER_FOLIE
1002
{
1000
NSB00752A
1002
}
  0
ARC
  5
2441C
330
20
100
AcDbEntity
  8
10000_FRONT
  6
Continuous
 62
     7
370
    13
100
AcDbCircle
 10
120.60435832507
 20
179.3548819480785
 30
0.0
 40
2.850490999999998
100
AcDbArc
 50
167.7603999999987
 51
192.2396000000013
1001
AUSTER_ANSICHT
1002
{
1000
Det03
1002
}
1001
AUSTER_FOLIE
1002
{
1000
NSB00752A
1002
}
  0
ARC
  5
2441D
330
20
100
AcDbEntity
  8
10000_FRONT
  6
Continuous
 62
     7
370
    13
100
AcDbCircle
 10
120.60435832507
 20
179.3548819480785
 30
0.0
 40
2.850490999999998
100
AcDbArc
 50
347.7603999999987
 51
12.23960000000128
1001
AUSTER_ANSICHT
1002
{
1000
Det03
1002
}
1001
AUSTER_FOLIE
1002
{
1000
NSB00752A
1002
}
  0
ARC
  5
2441E
330
20
100
AcDbEntity
  8
10000_FRONT
  6
Continuous
 62
     7
370
    13
100
AcDbCircle
 10
120.60435832507
 20
179.3548819480785
 30
0.0
 40
1.85
100
AcDbArc
 50
73.83659999999967
 51
106.1634000000003
1001
AUSTER_ANSICHT
1002
{
1000
Det03
1002
}
1001
AUSTER_FOLIE
1002
{
1000
NSB00752A
1002
}
  0
ARC
  5
2441F
330
20
100
AcDbEntity
  8
10000_FRONT
  6
Continuous
 62
     7
370
    13
100
AcDbCircle
 10
120.60435832507
 20
179.3548819480785
 30
0.0
 40
1.85
100
AcDbArc
 50
253.8365999999997
 51
286.1634500000028
1001
AUSTER_ANSICHT
1002
{
1000
Det03
1002
}
1001
AUSTER_FOLIE
1002
{
1000
NSB00752A
1002
}
  0
LINE
  5
24420
330
20
100
AcDbEntity
  8
10000_FRONT
  6
Continuous
 62
     7
370
    13
100
AcDbLine
 10
120.0893583250702
 20
180.1393819480784
 30
0.0
 11
120.0893583250702
 21
179.9591819480785
 31
0.0
1001
AUSTER_ANSICHT
1002
{
1000
Det03
1002
}
1001
AUSTER_FOLIE
1002
{
1000
NSB00752A
1002
}
  0
LINE
  5
24421
330
20
100
AcDbEntity
  8
10000_FRONT
  6
Continuous
 62
     7
370
    13
100
AcDbLine
 10
120.0893583250702
 20
178.5702819480785
 30
0.0
 11
120.0893583250702
 21
178.7505819480785
 31
0.0
1001
AUSTER_ANSICHT
1002
{
1000
Det03
1002
}
1001
AUSTER_FOLIE
1002
{
1000
NSB00752A
1002
}
  0
LINE
  5
24422
330
20
100
AcDbEntity
  8
10000_FRONT
  6
Continuous
 62
     7
370
    13
100
AcDbLine
 10
121.1193583250702
 20
180.1393819480784
 30
0.0
 11
121.1193583250702
 21
179.9591819480785
 31
0.0
1001
AUSTER_ANSICHT
1002
{
1000
Det03
1002
}
1001
AUSTER_FOLIE
1002
{
1000
NSB00752A
1002
}
  0
LINE
  5
24423
330
20
100
AcDbEntity
  8
10000_FRONT
  6
Continuous
 62
     7
370
    13
100
AcDbLine
 10
121.1193583250702
 20
178.5702819480785
 30
0.0
 11
121.1193583250702
 21
178.7505819480785
 31
0.0
1001
AUSTER_ANSICHT
1002
{
1000
Det03
1002
}
1001
AUSTER_FOLIE
1002
{
1000
NSB00752A
1002
}
  0
LINE
  5
24424
330
20
100
AcDbEntity
  8
10000_FRONT
  6
Continuous
 62
     7
370
    13
100
AcDbLine
 10
120.0893583250702
 20
180.1393819480784
 30
0.0
 11
120.0893583250702
 21
181.1316819480784
 31
0.0
1001
AUSTER_ANSICHT
1002
{
1000
Det03
1002
}
1001
AUSTER_FOLIE
1002
{
1000
NSB00752A
1002
}
  0
LINE
  5
24425
330
20
100
AcDbEntity
  8
10000_FRONT
  6
Continuous
 62
     7
370
    13
100
AcDbLine
 10
121.1193583250702
 20
181.1316819480784
 30
0.0
 11
121.1193583250702
 21
180.1393819480784
 31
0.0
1001
AUSTER_ANSICHT
1002
{
1000
Det03
1002
}
1001
AUSTER_FOLIE
1002
{
1000
NSB00752A
1002
}
  0
LINE
  5
24426
330
20
100
AcDbEntity
  8
10000_FRONT
  6
Continuous
 62
     7
370
    13
100
AcDbLine
 10
121.1193583250702
 20
178.5702819480785
 30
0.0
 11
121.1193583250702
 21
177.5779819480785
 31
0.0
1001
AUSTER_ANSICHT
1002
{
1000
Det03
1002
}
1001
AUSTER_FOLIE
1002
{
1000
NSB00752A
1002
}
  0
LINE
  5
24427
330
20
100
AcDbEntity
  8
10000_FRONT
  6
Continuous
 62
     7
370
    13
100
AcDbLine
 10
120.0893583250702
 20
177.5779819480785
 30
0.0
 11
120.0893583250702
 21
178.5702819480785
 31
0.0
1001
AUSTER_ANSICHT
1002
{
1000
Det03
1002
}
1001
AUSTER_FOLIE
1002
{
1000
NSB00752A
1002
}
  0
LINE
  5
24428
330
20
100
AcDbEntity
  8
10000_FRONT
  6
Continuous
 62
     7
370
    13
100
AcDbLine
 10
120.0893583250702
 20
178.7505819480785
 30
0.0
 11
117.8186583250701
 21
178.7505819480785
 31
0.0
1001
AUSTER_ANSICHT
1002
{
1000
Det03
1002
}
1001
AUSTER_FOLIE
1002
{
1000
NSB00752A
1002
}
  0
LINE
  5
24429
330
20
100
AcDbEntity
  8
10000_FRONT
  6
Continuous
 62
     7
370
    13
100
AcDbLine
 10
123.3900583250702
 20
178.7505819480785
 30
0.0
 11
121.1193583250702
 21
178.7505819480785
 31
0.0
1001
AUSTER_ANSICHT
1002
{
1000
Det03
1002
}
1001
AUSTER_FOLIE
1002
{
1000
NSB00752A
1002
}
  0
LINE
  5
2442A
330
20
100
AcDbEntity
  8
10000_FRONT
  6
Continuous
 62
     7
370
    13
100
AcDbLine
 10
121.1193583250702
 20
179.9591819480785
 30
0.0
 11
123.3900583250702
 21
179.9591819480785
 31
0.0
1001
AUSTER_ANSICHT
1002
{
1000
Det03
1002
}
1001
AUSTER_FOLIE
1002
{
1000
NSB00752A
1002
}
  0
LINE
  5
2442B
330
20
100
AcDbEntity
  8
10000_FRONT
  6
Continuous
 62
     7
370
    13
100
AcDbLine
 10
117.8186583250701
 20
179.9591819480785
 30
0.0
 11
120.0893583250702
 21
179.9591819480785
 31
0.0
1001
AUSTER_ANSICHT
1002
{
1000
Det03
1002
}
1001
AUSTER_FOLIE
1002
{
1000
NSB00752A
1002
}
  0
CIRCLE
  5
2442F
330
20
100
AcDbEntity
  8
10000_FRONT
  6
Continuous
 62
     7
370
    13
100
AcDbCircle
 10
120.537101059394
 20
179.3460241267153
 30
0.0
 40
3.559205227572697
  0
CIRCLE
  5
24430
330
20
100
AcDbEntity
  8
10000_FRONT
  6
Continuous
 62
     7
370
    13
100
AcDbCircle
 10
111.537101059394
 20
179.3460241267153
 30
0.0
 40
3.559205227572697
  0
ARC
  5
24432
330
20
100
AcDbEntity
  8
11000_Left
  6
Continuous
 62
     7
370
    50
100
AcDbCircle
 10
201.0770359719172
 20
109.4778779411481
 30
0.0
 40
0.4044617850748688
100
AcDbArc
 50
218.7833204200208
 51
271.2500740348856
  0
ARC
  5
24444
330
20
100
AcDbEntity
  8
10000_FRONT
  6
Continuous
 62
     7
370
    13
100
AcDbCircle
 10
124.3996859340598
 20
177.0782370034548
 30
0.0
 40
1.723570226057946
100
AcDbArc
 50
265.6543319351466
 51
292.8540538340495
  0
DIMENSION
  5
24455
330
20
100
AcDbEntity
  8
10100_FRONT_DIM
  6
Continuous
 62
     7
370
    13
100
AcDbDimension
  2
*D1
 10
157.8907902158196
 20
108.9343315635104
 30
0.0
 11
158.2723861635502
 21
154.8274933426271
 31
0.0
 70
   160
 71
     5
 42
89.35564038456957
  3
DSTYLE1
100
AcDbAlignedDimension
 13
124.4690949555322
 23
198.2899719480799
 33
0.0
 14
124.4409462957074
 24
108.9343315635104
 34
0.0
 50
90.0
100
AcDbRotatedDimension
1001
AUSTER_FOLIE
1002
{
1000
NSB00752A
1002
}
1001
AUSTER_ANSICHT
1002
{
1000
Det03
1002
}
1001
ACAD
1000
DSTYLE
1002
{
1070
    41
1040
2.0
1070
    42
1040
1.0
1070
    43
1040
1.0
1070
    47
1040
0.005
1070
    48
1040
-0.005
1070
    77
1070
     0
1070
    78
1070
     0
1070
   143
1040
25.4
1070
   171
1070
     0
1070
   172
1070
     1
1070
   271
1070
     1
1070
   272
1070
     1
1070
   277
1070
     6
1002
}
  0
DIMENSION
  5
24456
330
20
100
AcDbEntity
  8
10100_FRONT_DIM
  6
Continuous
 62
     7
370
    13
100
AcDbDimension
  2
*D2
 10
138.0690949555323
 20
179.5899719480799
 30
0.0
 11
138.0690949555323
 21
153.786546960066
 31
0.0
 70
   160
 71
     5
 42
51.7649099999987
  3
DSTYLE1
100
AcDbAlignedDimension
 13
124.1635635526427
 23
127.8250619480813
 33
0.0
 14
125.0690949555322
 24
179.5899719480799
 34
0.0
 50
90.0
100
AcDbRotatedDimension
1001
ACAD
1000
DSTYLE
1002
{
1070
    41
1040
2.0
1070
    42
1040
1.0
1070
    43
1040
1.0
1070
    47
1040
0.005
1070
    48
1040
-0.005
1070
    77
1070
     0
1070
    78
1070
     0
1070
   143
1040
25.4
1070
   171
1070
     0
1070
   172
1070
     1
1070
   271
1070
     0
1070
   272
1070
     1
1070
   277
1070
     6
1070
   279
1070
     0
1002
}
  0
DIMENSION
  5
24457
330
20
100
AcDbEntity
  8
10100_FRONT_DIM
  6
Continuous
 62
     7
370
    13
100
AcDbDimension
  2
*D3
 10
125.0690949555322
 20
85.88997194807999
 30
0.0
 11
115.4690949555322
 21
85.88997194807999
 31
0.0
 70
   160
 71
     5
 42
18.00000000000003
  3
DSTYLE1
100
AcDbAlignedDimension
 13
107.0690949555322
 23
108.2399719480797
 33
0.0
 14
125.0690949555322
 24
109.48997194808
 34
0.0
100
AcDbRotatedDimension
1001
ACAD
1000
DSTYLE
1002
{
1070
    41
1040
2.0
1070
    42
1040
1.0
1070
    43
1040
1.0
1070
    47
1040
0.005
1070
    48
1040
-0.005
1070
    77
1070
     0
1070
    78
1070
     0
1070
   143
1040
25.4
1070
   171
1070
     0
1070
   172
1070
     1
1070
   271
1070
     0
1070
   272
1070
     1
1070
   277
1070
     6
1070
   279
1070
     0
1002
}
  0
DIMENSION
  5
244A7
330
20
100
AcDbEntity
  8
11100_LEFT_DIM
  6
Continuous
 62
     7
370
    13
100
AcDbDimension
  2
*D4
 10
200.9062098681258
 20
95.88997194807999
 30
0.0
 11
217.0939050051733
 21
95.88997194807999
 31
0.0
 70
    32
 71
     5
 42
32.37539027409511
  3
DSTYLE1
100
AcDbAlignedDimension
 13
233.2816001422209
 23
117.4235002041644
 33
0.0
 14
200.9062098681258
 24
109.1112612777934
 34
0.0
100
AcDbRotatedDimension
1001
ACAD
1000
DSTYLE
1002
{
1070
    41
1040
2.0
1070
    42
1040
1.0
1070
    43
1040
1.0
1070
    47
1040
0.005
1070
    48
1040
-0.005
1070
    77
1070
     0
1070
    78
1070
     0
1070
   143
1040
25.4
1070
   171
1070
     0
1070
   172
1070
     1
1070
   271
1070
     0
1070
   272
1070
     1
1070
   277
1070
     6
1070
   279
1070
     0
1002
}
  0
DIMENSION
  5
244A8
330
20
100
AcDbEntity
  8
11100_LEFT_DIM
  6
Continuous
 62
     7
370
    13
100
AcDbDimension
  2
*D5
 10
268.2617397816843
 20
86.05663861474665
 30
0.0
 11
234.583974824905
 21
86.05663861474665
 31
0.0
 70
    32
 71
     5
 42
67.3555299135585
  3
DSTYLE1
100
AcDbAlignedDimension
 13
200.9062098681258
 23
109.1112612777934
 33
0.0
 14
268.2617397816843
 24
117.8254362070734
 34
0.0
100
AcDbRotatedDimension
1001
ACAD
1000
DSTYLE
1002
{
1070
    41
1040
2.0
1070
    42
1040
1.0
1070
    43
1040
1.0
1070
    47
1040
0.005
1070
    48
1040
-0.005
1070
    77
1070
     0
1070
    78
1070
     0
1070
   143
1040
25.4
1070
   171
1070
     0
1070
   172
1070
     1
1070
   271
1070
     0
1070
   272
1070
     1
1070
   277
1070
     6
1070
   279
1070
     0
1002
}
  0
DIMENSION
  5
24559
330
20
100
AcDbEntity
  8
11100_LEFT_DIM
  6
Continuous
 62
     7
370
    13
100
AcDbDimension
  2
*D6
 10
281.2617397816804
 20
131.2735124184267
 30
0.0
 11
281.2617397816803
 21
153.7737389781534
 31
0.0
 70
   160
 71
     5
 42
45.00041998963195
  3
DSTYLE1
100
AcDbAlignedDimension
 13
266.5150755147038
 23
176.2739324080587
 33
0.0
 14
266.5151397817614
 24
131.2735124184267
 34
0.0
 50
90.0
100
AcDbRotatedDimension
1001
ACAD
1000
DSTYLE
1002
{
1070
    41
1040
2.0
1070
    42
1040
1.0
1070
    43
1040
1.0
1070
    47
1040
0.005
1070
    48
1040
-0.005
1070
    77
1070
     0
1070
    78
1070
     0
1070
   143
1040
25.4
1070
   171
1070
     0
1070
   172
1070
     1
1070
   271
1070
     0
1070
   272
1070
     1
1070
   277
1070
     6
1070
   279
1070
     0
1002
}
  0
DIMENSION
  5
2455A
330
20
100
AcDbEntity
  8
11100_LEFT_DIM
  6
Continuous
 62
     7
370
    13
100
AcDbDimension
  2
*D7
 10
291.2617397816773
 20
190.1235124184267
 30
0.0
 11
291.2617397816772
 21
153.7737468321354
 31
0.0
 70
   160
 71
     5
 42
72.29807621135326
  3
DSTYLE1
100
AcDbAlignedDimension
 13
244.3068997817614
 23
117.8254362070734
 33
0.0
 14
242.8068997817614
 24
190.1235124184267
 34
0.0
 50
90.0
100
AcDbRotatedDimension
1001
ACAD
1000
DSTYLE
1002
{
1070
    41
1040
2.0
1070
    42
1040
1.0
1070
    43
1040
1.0
1070
    47
1040
0.005
1070
    48
1040
-0.005
1070
    77
1070
     0
1070
    78
1070
     0
1070
   143
1040
25.4
1070
   171
1070
     0
1070
   172
1070
     1
1070
   271
1070
     0
1070
   272
1070
     1
1070
   277
1070
     6
1070
   279
1070
     0
1002
}
  0
DIMENSION
  5
245B3
330
20
100
AcDbEntity
  8
10100_FRONT_DIM
  6
Continuous
 62
     7
370
    13
100
AcDbDimension
  2
*D8
 10
120.5992219025989
 20
95.88997194807999
 30
0.0
 11
116.0889069018733
 21
95.88997194807999
 31
0.0
 70
   160
 71
     5
 42
9.020630001451207
  3
DSTYLE1
100
AcDbAlignedDimension
 13
111.5785919011477
 23
108.8899719480799
 33
0.0
 14
120.5992219025989
 24
108.88997194808
 34
0.0
100
AcDbRotatedDimension
1001
ACAD
1000
DSTYLE
1002
{
1070
    41
1040
2.0
1070
    42
1040
1.0
1070
    43
1040
1.0
1070
    47
1040
0.005
1070
    48
1040
-0.005
1070
    77
1070
     0
1070
    78
1070
     0
1070
   143
1040
25.4
1070
   171
1070
     0
1070
   172
1070
     1
1070
   271
1070
     0
1070
   272
1070
     1
1070
   277
1070
     6
1070
   279
1070
     0
1002
}
  0
DIMENSION
  5
24600
330
20
100
AcDbEntity
  8
10100_FRONT_DIM
  6
Continuous
 62
     7
370
    13
100
AcDbDimension
  2
*D9
 10
147.8380915024115
 20
118.0871099673838
 30
0.0
 11
147.8380915024115
 21
153.5899719480799
 31
0.0
 70
    32
 71
     5
 42
71.00572396139229
  3
DSTYLE1
100
AcDbAlignedDimension
 13
125.0690949555322
 23
189.0928339287761
 33
0.0
 14
125.0690949555322
 24
118.0871099673838
 34
0.0
 50
90.0
100
AcDbRotatedDimension
1001
ACAD
1000
DSTYLE
1002
{
1070
    41
1040
2.0
1070
    42
1040
1.0
1070
    43
1040
1.0
1070
    47
1040
0.005
1070
    48
1040
-0.005
1070
    77
1070
     0
1070
    78
1070
     0
1070
   143
1040
25.4
1070
   171
1070
     0
1070
   172
1070
     1
1070
   271
1070
     0
1070
   272
1070
     1
1070
   277
1070
     6
1070
   279
1070
     0
1002
}
  0
ARC
  5
24770
330
20
100
AcDbEntity
  8
10000_FRONT
  6
Continuous
 62
     7
370
    13
100
AcDbCircle
 10
201.0816556666681
 20
198.0592286346357
 30
0.0
 40
0.4143051147353983
100
AcDbArc
 50
89.41858746873251
 51
140.5495693664411
  0
LINE
  5
24771
330
20
100
AcDbEntity
  8
11000_Left
  6
Continuous
 62
     7
370
    50
100
AcDbLine
 10
250.7617397817127
 20
176.2735027920951
 30
0.0
 11
266.5150997817613
 21
176.2739324084268
 31
0.0
  0
LINE
  5
24772
330
20
100
AcDbEntity
  8
11000_Left
  6
Continuous
 62
     7
370
    50
100
AcDbLine
 10
250.7617397817615
 20
131.2734224184268
 30
0.0
 11
266.51509978181
 21
131.2738520347583
 31
0.0
  0
ARC
  5
24773
330
20
100
AcDbEntity
  8
10000_FRONT
  6
Continuous
 62
     7
370
    13
100
AcDbCircle
 10
125.8796348185672
 20
114.4399669480799
 30
0.0
 40
0.3084809473114558
100
AcDbArc
 50
110.0500474106899
 51
249.9499525893104
  0
ARC
  5
24774
330
20
100
AcDbEntity
  8
10000_FRONT
  6
Continuous
 62
     7
370
    13
100
AcDbCircle
 10
126.1738359501102
 20
119.8664329725639
 30
0.0
 40
4.822268660204074
100
AcDbArc
 50
268.7554221217439
 51
284.641725280546
  0
ARC
  5
24775
330
20
100
AcDbEntity
  8
10000_FRONT
  6
Continuous
 62
     7
370
    13
100
AcDbCircle
 10
126.1738359501102
 20
109.0135109235959
 30
0.0
 40
4.822268660204074
100
AcDbArc
 50
75.35827471945393
 51
91.24457787825605
  0
ARC
  5
24776
330
20
100
AcDbEntity
  8
10000_FRONT
  6
Continuous
 62
     7
370
    13
100
AcDbCircle
 10
107.6961834517458
 20
172.9017157485072
 30
0.0
 40
2.464419693375166
100
AcDbArc
 50
85.97664064907117
 51
104.6970740903354
  0
ENDSEC
  0
SECTION
  2
OBJECTS
  0
DICTIONARY
  5
C
330
0
100
AcDbDictionary
281
     1
  3
ACAD_COLOR
350
1B
  3
ACAD_GROUP
350
D
  3
ACAD_LAYOUT
350
19
  3
ACAD_MATERIAL
350
1A
  3
ACAD_MLINESTYLE
350
16
  3
ACAD_PLOTSETTINGS
350
18
  3
ACAD_PLOTSTYLENAME
350
E
  3
ACAD_TABLESTYLE
350
3C60
  3
ACAD_VISUALSTYLE
350
3C4F
  3
AcDbVariableDictionary
350
3C30
  3
DWGPROPS
350
24789
  0
DICTIONARY
  5
2439F
330
8
100
AcDbDictionary
280
     1
281
     1
  0
DICTIONARY
  5
3E7E
330
2
100
AcDbDictionary
280
     1
281
     1
  3
ACAD_LAYERFILTERS
360
1BD2D
  3
ACLYDICTIONARY
360
1BD2C
  0
DICTIONARY
  5
3C6A
330
20
100
AcDbDictionary
280
     1
281
     1
  3
ACAD_SORTENTS
360
3C6B
  0
DICTIONARY
  5
1B
102
{ACAD_REACTORS
330
C
102
}
330
C
100
AcDbDictionary
281
     1
  0
DICTIONARY
  5
D
102
{ACAD_REACTORS
330
C
102
}
330
C
100
AcDbDictionary
281
     1
  0
DICTIONARY
  5
19
102
{ACAD_REACTORS
330
C
102
}
330
C
100
AcDbDictionary
281
     1
  3
Layout1
350
1F
  3
Model
350
23
  0
DICTIONARY
  5
1A
102
{ACAD_REACTORS
330
C
102
}
330
C
100
AcDbDictionary
281
     1
  3
ByBlock
350
3C4D
  3
ByLayer
350
3C4C
  3
Global
350
3C4E
  0
DICTIONARY
  5
16
102
{ACAD_REACTORS
330
C
102
}
330
C
100
AcDbDictionary
281
     1
  3
Standard
350
17
  0
DICTIONARY
  5
18
102
{ACAD_REACTORS
330
C
102
}
330
C
100
AcDbDictionary
281
     1
  0
ACDBDICTIONARYWDFLT
  5
E
102
{ACAD_REACTORS
330
C
102
}
330
C
100
AcDbDictionary
281
     1
  3
Normal
350
F
100
AcDbDictionaryWithDefault
340
F
  0
DICTIONARY
  5
3C60
102
{ACAD_REACTORS
330
C
102
}
330
C
100
AcDbDictionary
281
     1
  3
Standard
350
3C61
  0
DICTIONARY
  5
3C4F
102
{ACAD_REACTORS
330
C
102
}
330
C
100
AcDbDictionary
281
     1
  3
2dWireframe
350
3C55
  3
3D Hidden
350
24752
  3
3dWireframe
350
24751
  3
Basic
350
3C54
  3
Brighten
350
3C5B
  3
ColorChange
350
3C5F
  3
Conceptual
350
24753
  3
Dim
350
3C5A
  3
Facepattern
350
3C5E
  3
Flat
350
3C50
  3
FlatWithEdges
350
3C51
  3
Gouraud
350
3C52
  3
GouraudWithEdges
350
3C53
  3
Linepattern
350
3C5D
  3
Realistic
350
24754
  3
Thicken
350
3C5C
  0
DICTIONARY
  5
3C30
102
{ACAD_REACTORS
330
C
102
}
330
C
100
AcDbDictionary
281
     1
  3
CTABLESTYLE
350
3C79
  3
DIMASSOC
350
3C31
  3
INDEXCTL
350
3C7B
  3
PROJECTNAME
350
3C32
  3
SORTENTS
350
3C7A
  0
XRECORD
  5
24789
102
{ACAD_REACTORS
330
C
102
}
330
C
100
AcDbXrecord
280
     1
  1
DWGPROPS COOKIE
  2

  3

  4

  6

  7

  8
adfize1
  9

300
=
301
=
302
=
303
=
304
=
305
=
306
=
307
=
308
=
309
=
 40
1.735725150462962
 41
2452829.417613079
 42
2454082.521074132
  1

 90
        0
  0
DICTIONARY
  5
1BD2D
102
{ACAD_REACTORS
330
3E7E
102
}
330
3E7E
100
AcDbDictionary
281
     1
  0
DICTIONARY
  5
1BD2C
102
{ACAD_REACTORS
330
3E7E
102
}
330
3E7E
100
AcDbDictionary
281
     1
1001
ACAD
1000
<All
  0
SORTENTSTABLE
  5
3C6B
102
{ACAD_REACTORS
330
3C6A
102
}
330
3C6A
100
AcDbSortentsTable
330
20
331
2276B
  5
22771
331
23AF0
  5
23AF9
331
23AF8
  5
23B24
331
23A02
  5
23A28
331
23BCF
  5
23BD6
331
23BD7
  5
24017
331
227E3
  5
22CC9
331
24346
  5
24351
331
23B20
  5
23BC0
331
2434E
  5
24355
331
2436D
  5
2437C
331
21B9B
  5
21B9B
331
2441B
  5
24422
331
24423
  5
2442A
331
21BA3
  5
21BA3
331
21E52
  5
21FAA
331
2FDF
  5
34CE
331
243EC
  5
243F3
331
2442B
  5
24457
331
2437D
  5
24384
331
243F4
  5
243FB
331
243FC
  5
24403
331
24385
  5
2438D
331
24399
  5
243D8
331
24559
  5
245EB
331
23B28
  5
23BC4
331
23AD9
  5
23ADE
331
24356
  5
2435E
331
22FE3
  5
2346D
331
2435E
  5
24365
331
23AE1
  5
23AE8
331
23BC0
  5
23BC7
331
24017
  5
2434D
331
23AE9
  5
23AF0
331
24366
  5
2436E
331
22229
  5
2262A
331
21BB3
  5
21BB7
331
2438D
  5
24394
331
24404
  5
2440C
331
21BBB
  5
21BBE
331
22670
  5
22673
331
24395
  5
243D1
331
2440C
  5
24413
331
243D5
  5
243E6
331
24414
  5
2441B
331
21BCB
  5
21BD4
331
22639
  5
2266A
331
AA
  5
AA
331
23BC8
  5
23BCF
331
23AF1
  5
23AFA
331
22696
  5
2276F
331
23BD0
  5
23BD7
331
23A03
  5
23A29
331
23AF9
  5
23B26
331
23BD8
  5
24343
331
23AC2
  5
23ADB
331
227F4
  5
22FE0
331
2434F
  5
24356
331
20F8
  5
20FC
331
22641
  5
2266E
331
21BD3
  5
21BDC
331
21FAA
  5
21FCD
331
2441C
  5
24423
331
2436E
  5
2437D
331
2FE0
  5
34CF
331
243ED
  5
243F4
331
24424
  5
2442B
331
2437E
  5
24385
331
243F5
  5
243FC
331
24386
  5
2438E
331
243FD
  5
24404
331
2455A
  5
24600
331
22FDC
  5
22FE3
331
23ADA
  5
23AE2
331
24357
  5
2435F
331
23BC1
  5
23BC8
331
23A2B
  5
23A31
331
2435F
  5
24366
331
23AEA
  5
23AF1
331
24367
  5
24377
331
21BB4
  5
21BB9
331
2222A
  5
2262B
331
24444
  5
2455A
331
2438E
  5
24395
331
24405
  5
2440D
331
2262A
  5
2262D
331
2440D
  5
24414
331
22632
  5
22635
331
22671
  5
22674
331
24396
  5
243D5
331
243D6
  5
243E7
331
24415
  5
2441C
331
21BCC
  5
21BD9
331
AB
  5
AB
331
20F5
  5
20F9
331
23AF2
  5
23B1B
331
23BC9
  5
23BD0
331
23A3B
  5
23A40
331
23AFA
  5
23B28
331
23A04
  5
23A2B
331
23BD1
  5
23BD8
331
23BD9
  5
24344
331
23AC3
  5
23ADC
331
23B22
  5
23BC1
331
20F9
  5
2196
331
1B76D
  5
1B76D
331
21BD4
  5
21E52
331
21BDC
  5
21FA8
331
243E6
  5
243EE
331
2441D
  5
24424
331
24425
  5
2442F
331
24377
  5
2437E
331
243EE
  5
243F5
331
2437F
  5
24386
331
243F6
  5
243FD
331
243FE
  5
24405
331
23B2A
  5
23BC5
331
24350
  5
24357
331
24358
  5
24360
331
24360
  5
24367
331
23AE3
  5
23AEA
331
23BC2
  5
23BC9
331
23A2C
  5
23A32
331
23AEB
  5
23AF2
331
2222B
  5
2262C
331
21BB5
  5
21BBA
331
2438F
  5
24396
331
24406
  5
2440E
331
2262B
  5
2262E
331
21BBD
  5
21BC0
331
2266A
  5
2266F
331
22672
  5
22675
331
24397
  5
243D6
331
2440E
  5
24415
331
22633
  5
22636
331
243D7
  5
243E9
331
24416
  5
2441D
331
245B3
  5
246CC
331
AC
  5
AC
331
20F6
  5
20FA
331
23BCA
  5
23BD1
331
2346D
  5
23A26
331
23AF3
  5
23B1E
331
23A05
  5
23A2C
331
23BD2
  5
23BD9
331
22776
  5
227F3
331
23B1B
  5
23B2A
331
23BDA
  5
24345
331
23AC4
  5
23ADD
331
20FA
  5
21D7
331
24368
  5
24378
331
243E7
  5
243EF
331
2441E
  5
24425
331
243EF
  5
243F6
331
24426
  5
24430
331
24378
  5
2437F
331
24380
  5
24388
331
243F7
  5
243FE
331
243FF
  5
24406
331
24002
  5
2434C
331
24351
  5
24358
331
23ADC
  5
23AE4
331
24359
  5
24361
331
23BC3
  5
23BCA
331
23006
  5
23A02
331
23A2D
  5
23A33
331
23AE4
  5
23AEB
331
24361
  5
24368
331
24388
  5
2438F
331
2262C
  5
2262F
331
21BBE
  5
21BC7
331
24390
  5
24397
331
24407
  5
2440F
331
2440F
  5
24416
331
22634
  5
22637
331
22673
  5
22676
331
243D8
  5
243EA
331
24417
  5
2441E
331
2263C
  5
2266C
331
AD
  5
AD
331
B7
  5
B7
331
20F7
  5
20FB
331
23BCB
  5
23BD2
331
23BD3
  5
23BDA
331
23BDB
  5
24346
331
23B24
  5
23BC2
331
20FB
  5
21D8
331
21FAD
  5
21FCE
331
24369
  5
24379
331
21FCD
  5
21FEE
331
2441F
  5
24426
331
24427
  5
24432
331
24379
  5
24380
331
243F0
  5
243F7
331
21FED
  5
22038
331
243F8
  5
243FF
331
2442F
  5
244A7
331
24381
  5
24389
331
2439D
  5
243D9
331
22FDF
  5
23006
331
24352
  5
24359
331
23ADD
  5
23AE5
331
2435A
  5
24362
331
23A26
  5
23A2D
331
24362
  5
24369
331
23AE5
  5
23AEC
331
23BC4
  5
23BCB
331
23AED
  5
23AF6
331
24400
  5
24407
331
21BB7
  5
21BBB
331
24389
  5
24390
331
24391
  5
24398
331
24408
  5
24410
331
2262D
  5
22632
331
21BBF
  5
21BC8
331
2266C
  5
22670
331
22674
  5
22696
331
243D1
  5
243E3
331
24410
  5
24417
331
21BC7
  5
21BCA
331
22635
  5
22638
331
243D9
  5
243EB
331
24455
  5
245A7
331
AE
  5
AE
331
B0
  5
B0
331
23BCC
  5
23BD3
331
23BD4
  5
23BDB
331
23A46
  5
23AC4
331
24343
  5
2434E
331
2434B
  5
24352
331
23FDC
  5
2434B
331
20FC
  5
21E9
331
24418
  5
2441F
331
2436A
  5
2437A
331
243E9
  5
243F0
331
21BA0
  5
21BA0
331
24420
  5
24427
331
243F1
  5
243F8
331
24428
  5
24444
331
21FEE
  5
22228
331
2437A
  5
24381
331
24382
  5
2438A
331
243F9
  5
24400
331
24430
  5
244A8
331
24353
  5
2435A
331
22FE0
  5
23018
331
23ADE
  5
23AE6
331
23BC5
  5
23BCC
331
23018
  5
23A03
331
23AE6
  5
23AED
331
24363
  5
2436A
331
23AEE
  5
23AF7
331
21BB0
  5
21BB3
331
2438A
  5
24391
331
24401
  5
24408
331
24409
  5
24411
331
2262E
  5
22633
331
21BC0
  5
21BC9
331
24392
  5
24399
331
24411
  5
24418
331
22636
  5
22639
331
21BC8
  5
21BCB
331
22675
  5
2276A
331
24456
  5
245A8
331
AF
  5
AF
331
B1
  5
B1
331
23AF6
  5
23B20
331
23BCD
  5
23BD4
331
23BD5
  5
23FDC
331
24344
  5
2434F
331
23B1E
  5
23BBF
331
23B26
  5
23BC3
331
2434C
  5
24353
331
2436B
  5
2437B
331
243E2
  5
243EC
331
24419
  5
24420
331
243EA
  5
243F1
331
24421
  5
24428
331
24429
  5
24455
331
21BA9
  5
21BB1
331
2437B
  5
24382
331
243F2
  5
243F9
331
243FA
  5
24401
331
24383
  5
2438B
331
244A7
  5
245D5
331
24354
  5
2435C
331
22FE1
  5
23019
331
2435C
  5
24363
331
23A28
  5
23A2F
331
24364
  5
2436B
331
23AE7
  5
23AEE
331
23019
  5
23A04
331
23BC6
  5
23BCD
331
23AEF
  5
23AF8
331
3B25
  5
3DC7
331
21BB1
  5
21BB4
331
24402
  5
24409
331
2438B
  5
24392
331
24393
  5
2439D
331
2440A
  5
24412
331
2262F
  5
22634
331
2266E
  5
22671
331
22676
  5
2276B
331
24412
  5
24419
331
21BC9
  5
21BCC
331
22637
  5
2263C
331
24457
  5
245B3
331
B2
  5
B2
331
2276A
  5
22770
331
23BCE
  5
23BD5
331
23AF7
  5
23B22
331
227E2
  5
228A4
331
23BD6
  5
24002
331
24345
  5
24350
331
2434D
  5
24354
331
21FA8
  5
21FAE
331
2441A
  5
24421
331
21B9A
  5
21B9A
331
21BD9
  5
21E91
331
2196
  5
221C
331
243E3
  5
243ED
331
243EB
  5
243F2
331
24422
  5
24429
331
2437C
  5
24383
331
243F3
  5
243FA
331
22038
  5
2222A
331
2442A
  5
24456
331
24384
  5
2438C
331
243FB
  5
24402
331
24432
  5
24559
331
24398
  5
243D7
331
B9
  5
B9
331
244A8
  5
245EA
331
24355
  5
2435D
331
22FE2
  5
2301A
331
23BBF
  5
23BC6
331
23A29
  5
23A30
331
23AE0
  5
23AE7
331
2435D
  5
24364
331
24365
  5
2436D
331
23BC7
  5
23BCE
331
2301A
  5
23A05
331
23AE8
  5
23AEF
331
22228
  5
2222B
331
3B26
  5
3DC8
331
21BB2
  5
21BB5
331
21BBA
  5
21BBD
331
2438C
  5
24393
331
24403
  5
2440A
331
2266F
  5
22672
331
24394
  5
243CE
331
24413
  5
2441A
331
22638
  5
22641
331
21BCA
  5
21BD3
331
B3
  5
B3
331
24600
  5
246D7
  0
LAYOUT
  5
1F
102
{ACAD_XDICTIONARY
360
2478A
102
}
102
{ACAD_REACTORS
330
19
102
}
330
19
100
AcDbPlotSettings
  1

  2
HP LaserJet 5000 Series PS
  4

  6

 40
0.0
 41
0.0
 42
0.0
 43
0.0
 44
0.0
 45
0.0
 46
0.0
 47
0.0
 48
0.0
 49
0.0
140
0.0
141
0.0
142
1.0
143
1.0
 70
   688
 72
     0
 73
     0
 74
     5
  7
monochrome.ctb
 75
    16
147
1.0
148
0.0
149
0.0
100
AcDbLayout
  1
Layout1
 70
     1
 71
     1
 10
0.0
 20
0.0
 11
12.0
 21
9.0
 12
0.0
 22
0.0
 32
0.0
 14
1.000000000000000E+20
 24
1.000000000000000E+20
 34
1.000000000000000E+20
 15
-1.000000000000000E+20
 25
-1.000000000000000E+20
 35
-1.000000000000000E+20
146
0.0
 13
0.0
 23
0.0
 33
0.0
 16
1.0
 26
0.0
 36
0.0
 17
0.0
 27
1.0
 37
0.0
 76
     0
330
1C
  0
LAYOUT
  5
23
102
{ACAD_XDICTIONARY
360
2478C
102
}
102
{ACAD_REACTORS
330
19
102
}
330
19
100
AcDbPlotSettings
  1

  2
\\AMBW779A\A_P00873 (Canon iR2200-3300 PCL6)
  4
A3
  6

 40
4.815417
 41
4.815412
 42
4.815399
 43
4.81543
 44
296.925995
 45
419.9466549999998
 46
0.0
 47
0.0
 48
0.0
 49
0.0
140
0.0
141
0.0
142
1.0
143
1.0
 70
 11952
 72
     1
 73
     1
 74
     1
  7
monochrome.ctb
 75
    16
147
1.0
148
-9.98474220045
149
0.0090630292066862
100
AcDbLayout
  1
Model
 70
     1
 71
     0
 10
0.0
 20
0.0
 11
12.0
 21
9.0
 12
0.0
 22
0.0
 32
0.0
 14
0.0
 24
0.0
 34
0.0
 15
0.0
 25
0.0
 35
0.0
146
0.0
 13
0.0
 23
0.0
 33
0.0
 16
1.0
 26
0.0
 36
0.0
 17
0.0
 27
1.0
 37
0.0
 76
     0
330
20
331
3C40
  0
MATERIAL
  5
3C4D
102
{ACAD_XDICTIONARY
360
24748
102
}
102
{ACAD_REACTORS
330
1A
102
}
330
1A
100
AcDbMaterial
  1
ByBlock
  0
MATERIAL
  5
3C4C
102
{ACAD_XDICTIONARY
360
24746
102
}
102
{ACAD_REACTORS
330
1A
102
}
330
1A
100
AcDbMaterial
  1
ByLayer
  0
MATERIAL
  5
3C4E
102
{ACAD_XDICTIONARY
360
2474A
102
}
102
{ACAD_REACTORS
330
1A
102
}
330
1A
100
AcDbMaterial
  1
Global
  0
MLINESTYLE
  5
17
102
{ACAD_REACTORS
330
16
102
}
330
16
100
AcDbMlineStyle
  2
STANDARD
 70
     0
  3

 62
   256
 51
90.0
 52
90.0
 71
     2
 49
0.5
 62
   256
  6
BYLAYER
 49
-0.5
 62
   256
  6
BYLAYER
  0
ACDBPLACEHOLDER
  5
F
102
{ACAD_REACTORS
330
E
102
}
330
E
  0
TABLESTYLE
  5
3C61
102
{ACAD_XDICTIONARY
360
2478E
102
}
102
{ACAD_REACTORS
330
3C60
102
}
330
3C60
100
AcDbTableStyle
  3
Standard
 70
     0
 71
     0
 40
0.06
 41
0.06
280
     0
281
     0
  7
Standard
140
0.18
170
     2
 62
     0
 63
     7
283
     0
274
    -2
284
     1
 64
     0
275
    -2
285
     1
 65
     0
276
    -2
286
     1
 66
     0
277
    -2
287
     1
 67
     0
278
    -2
288
     1
 68
     0
279
    -2
289
     1
 69
     0
  7
Standard
140
0.25
170
     5
 62
     0
 63
     7
283
     0
274
    -2
284
     1
 64
     0
275
    -2
285
     1
 65
     0
276
    -2
286
     1
 66
     0
277
    -2
287
     1
 67
     0
278
    -2
288
     1
 68
     0
279
    -2
289
     1
 69
     0
  7
Standard
140
0.18
170
     5
 62
     0
 63
     7
283
     0
274
    -2
284
     1
 64
     0
275
    -2
285
     1
 65
     0
276
    -2
286
     1
 66
     0
277
    -2
287
     1
 67
     0
278
    -2
288
     1
 68
     0
279
    -2
289
     1
 69
     0
  0
VISUALSTYLE
  5
3C55
102
{ACAD_REACTORS
330
3C4F
102
}
330
3C4F
100
AcDbVisualStyle
  2
2dWireframe
 70
     4
 71
     0
 72
     2
 73
     0
 90
        0
 40
-0.6
 41
-30.0
 62
     5
 63
     7
 74
     1
 91
        4
 64
     7
 65
   257
 75
     1
175
     1
 42
1.0
 92
        0
 66
   257
 43
1.0
 76
     1
 77
     6
 78
     2
 67
     7
 79
     5
170
     0
171
     0
290
     0
174
     0
 93
        1
 44
0.0
173
     0
291
     0
 45
0.0
1001
ACAD
1000
AcDbSavedByObjectVersion
1070
     0
1000
AcDbSavedByObjectVersion
1070
     0
1000
AcDbSavedByObjectVersion
1070
     0
1000
AcDbSavedByObjectVersion
1070
     0
1000
AcDbSavedByObjectVersion
1070
     0
1000
AcDbSavedByObjectVersion
1070
     0
  0
VISUALSTYLE
  5
24752
102
{ACAD_REACTORS
330
3C4F
102
}
330
3C4F
100
AcDbVisualStyle
  2
3D Hidden
 70
     6
 71
     1
 72
     2
 73
     2
 90
        0
 40
-0.6
 41
-30.0
 62
     5
 63
     7
 74
     2
 91
        2
 64
     7
 65
   257
 75
     2
175
     1
 42
40.0
 92
        0
 66
   257
 43
1.0
 76
     1
 77
     6
 78
     2
 67
     7
 79
     3
170
     0
171
     0
290
     0
174
     0
 93
        1
 44
0.0
173
     0
291
     0
 45
0.0
1001
ACAD
1000
AcDbSavedByObjectVersion
1070
     0
1000
AcDbSavedByObjectVersion
1070
     0
  0
VISUALSTYLE
  5
24751
102
{ACAD_REACTORS
330
3C4F
102
}
330
3C4F
100
AcDbVisualStyle
  2
3dWireframe
 70
     5
 71
     0
 72
     2
 73
     0
 90
        0
 40
-0.6
 41
-30.0
 62
     5
 63
     7
 74
     1
 91
        4
 64
     7
 65
   257
 75
     1
175
     1
 42
1.0
 92
        0
 66
   257
 43
1.0
 76
     1
 77
     6
 78
     2
 67
     7
 79
     5
170
     0
171
     0
290
     0
174
     0
 93
        1
 44
0.0
173
     0
291
     0
 45
0.0
1001
ACAD
1000
AcDbSavedByObjectVersion
1070
     0
1000
AcDbSavedByObjectVersion
1070
     0
  0
VISUALSTYLE
  5
3C54
102
{ACAD_REACTORS
330
3C4F
102
}
330
3C4F
100
AcDbVisualStyle
  2
Basic
 70
     7
 71
     1
 72
     0
 73
     1
 90
        0
 40
-0.6
 41
-30.0
 62
     5
 63
     7
 74
     0
 91
        4
 64
     7
 65
   257
 75
     1
175
     1
 42
1.0
 92
        8
 66
     7
 43
1.0
 76
     1
 77
     6
 78
     2
 67
     7
 79
     5
170
     0
171
     0
290
     0
174
     0
 93
        1
 44
0.0
173
     0
291
     1
 45
0.0
1001
ACAD
1000
AcDbSavedByObjectVersion
1070
     0
1000
AcDbSavedByObjectVersion
1070
     0
1000
AcDbSavedByObjectVersion
1070
     0
1000
AcDbSavedByObjectVersion
1070
     0
1000
AcDbSavedByObjectVersion
1070
     0
1000
AcDbSavedByObjectVersion
1070
     0
  0
VISUALSTYLE
  5
3C5B
102
{ACAD_REACTORS
330
3C4F
102
}
330
3C4F
100
AcDbVisualStyle
  2
Brighten
 70
    12
 71
     2
 72
     2
 73
     0
 90
        0
 40
-0.6
 41
-30.0
 62
     5
 63
     7
 74
     1
 91
        4
 64
     7
 65
   257
 75
     1
175
     1
 42
1.0
 92
        8
 66
     7
 43
1.0
 76
     1
 77
     6
 78
     2
 67
     7
 79
     5
170
     0
171
     0
290
     0
174
     0
 93
        1
 44
50.0
173
     0
291
     1
 45
0.0
1001
ACAD
1000
AcDbSavedByObjectVersion
1070
     0
1000
AcDbSavedByObjectVersion
1070
     0
1000
AcDbSavedByObjectVersion
1070
     0
1000
AcDbSavedByObjectVersion
1070
     0
1000
AcDbSavedByObjectVersion
1070
     0
1000
AcDbSavedByObjectVersion
1070
     0
  0
VISUALSTYLE
  5
3C5F
102
{ACAD_REACTORS
330
3C4F
102
}
330
3C4F
100
AcDbVisualStyle
  2
ColorChange
 70
    16
 71
     2
 72
     2
 73
     3
 90
        0
 40
-0.6
 41
-30.0
 62
     5
 63
     8
 74
     1
 91
        4
 64
     7
 65
   257
 75
     1
175
     1
 42
1.0
 92
        8
 66
     8
 43
1.0
 76
     1
 77
     6
 78
     2
 67
     7
 79
     5
170
     0
171
     0
290
     0
174
     0
 93
        1
 44
0.0
173
     0
291
     1
 45
0.0
1001
ACAD
1000
AcDbSavedByObjectVersion
1070
     0
1000
AcDbSavedByObjectVersion
1070
     0
1000
AcDbSavedByObjectVersion
1070
     0
1000
AcDbSavedByObjectVersion
1070
     0
1000
AcDbSavedByObjectVersion
1070
     0
1000
AcDbSavedByObjectVersion
1070
     0
  0
VISUALSTYLE
  5
24753
102
{ACAD_REACTORS
330
3C4F
102
}
330
3C4F
100
AcDbVisualStyle
  2
Conceptual
 70
     9
 71
     3
 72
     2
 73
     0
 90
        0
 40
-0.6
 41
-30.0
 62
     5
 63
     7
 74
     2
 91
        2
 64
     7
 65
   257
 75
     1
175
     1
 42
40.0
 92
        8
 66
     7
 43
1.0
 76
     1
 77
     6
 78
     2
 67
     7
 79
     3
170
     0
171
     0
290
     0
174
     0
 93
        1
 44
0.0
173
     0
291
     0
 45
0.0
1001
ACAD
1000
AcDbSavedByObjectVersion
1070
     0
1000
AcDbSavedByObjectVersion
1070
     0
  0
VISUALSTYLE
  5
3C5A
102
{ACAD_REACTORS
330
3C4F
102
}
330
3C4F
100
AcDbVisualStyle
  2
Dim
 70
    11
 71
     2
 72
     2
 73
     0
 90
        0
 40
-0.6
 41
-30.0
 62
     5
 63
     7
 74
     1
 91
        4
 64
     7
 65
   257
 75
     1
175
     1
 42
1.0
 92
        8
 66
     7
 43
1.0
 76
     1
 77
     6
 78
     2
 67
     7
 79
     5
170
     0
171
     0
290
     0
174
     0
 93
        1
 44
-50.0
173
     0
291
     1
 45
0.0
1001
ACAD
1000
AcDbSavedByObjectVersion
1070
     0
1000
AcDbSavedByObjectVersion
1070
     0
1000
AcDbSavedByObjectVersion
1070
     0
1000
AcDbSavedByObjectVersion
1070
     0
1000
AcDbSavedByObjectVersion
1070
     0
1000
AcDbSavedByObjectVersion
1070
     0
  0
VISUALSTYLE
  5
3C5E
102
{ACAD_REACTORS
330
3C4F
102
}
330
3C4F
100
AcDbVisualStyle
  2
Facepattern
 70
    15
 71
     2
 72
     2
 73
     0
 90
        0
 40
-0.6
 41
-30.0
 62
     5
 63
     7
 74
     1
 91
        4
 64
     7
 65
   257
 75
     1
175
     1
 42
1.0
 92
        8
 66
     7
 43
1.0
 76
     1
 77
     6
 78
     2
 67
     7
 79
     5
170
     0
171
     0
290
     0
174
     0
 93
        1
 44
0.0
173
     0
291
     1
 45
0.0
1001
ACAD
1000
AcDbSavedByObjectVersion
1070
     0
1000
AcDbSavedByObjectVersion
1070
     0
1000
AcDbSavedByObjectVersion
1070
     0
1000
AcDbSavedByObjectVersion
1070
     0
1000
AcDbSavedByObjectVersion
1070
     0
1000
AcDbSavedByObjectVersion
1070
     0
  0
VISUALSTYLE
  5
3C50
102
{ACAD_REACTORS
330
3C4F
102
}
330
3C4F
100
AcDbVisualStyle
  2
Flat
 70
     0
 71
     2
 72
     1
 73
     1
 90
        2
 40
-0.6
 41
30.0
 62
     5
 63
     7
 74
     0
 91
        4
 64
     7
 65
   257
 75
     1
175
     1
 42
1.0
 92
        8
 66
     7
 43
1.0
 76
     1
 77
     6
 78
     2
 67
     7
 79
     5
170
     0
171
     0
290
     0
174
     0
 93
       13
 44
0.0
173
     0
291
     1
 45
0.0
1001
ACAD
1000
AcDbSavedByObjectVersion
1070
     0
1000
AcDbSavedByObjectVersion
1070
     0
1000
AcDbSavedByObjectVersion
1070
     0
1000
AcDbSavedByObjectVersion
1070
     0
1000
AcDbSavedByObjectVersion
1070
     0
1000
AcDbSavedByObjectVersion
1070
     0
  0
VISUALSTYLE
  5
3C51
102
{ACAD_REACTORS
330
3C4F
102
}
330
3C4F
100
AcDbVisualStyle
  2
FlatWithEdges
 70
     1
 71
     2
 72
     1
 73
     1
 90
        2
 40
-0.6
 41
30.0
 62
     5
 63
     7
 74
     1
 91
        4
 64
     7
 65
   257
 75
     1
175
     1
 42
1.0
 92
        0
 66
   257
 43
1.0
 76
     1
 77
     6
 78
     2
 67
     7
 79
     5
170
     0
171
     0
290
     0
174
     0
 93
       13
 44
0.0
173
     0
291
     1
 45
0.0
1001
ACAD
1000
AcDbSavedByObjectVersion
1070
     0
1000
AcDbSavedByObjectVersion
1070
     0
1000
AcDbSavedByObjectVersion
1070
     0
1000
AcDbSavedByObjectVersion
1070
     0
1000
AcDbSavedByObjectVersion
1070
     0
1000
AcDbSavedByObjectVersion
1070
     0
  0
VISUALSTYLE
  5
3C52
102
{ACAD_REACTORS
330
3C4F
102
}
330
3C4F
100
AcDbVisualStyle
  2
Gouraud
 70
     2
 71
     2
 72
     2
 73
     1
 90
        2
 40
-0.6
 41
30.0
 62
     5
 63
     7
 74
     0
 91
        4
 64
     7
 65
   257
 75
     1
175
     1
 42
1.0
 92
        0
 66
     7
 43
1.0
 76
     1
 77
     6
 78
     2
 67
     7
 79
     5
170
     0
171
     0
290
     0
174
     0
 93
       13
 44
0.0
173
     0
291
     1
 45
0.0
1001
ACAD
1000
AcDbSavedByObjectVersion
1070
     0
1000
AcDbSavedByObjectVersion
1070
     0
1000
AcDbSavedByObjectVersion
1070
     0
1000
AcDbSavedByObjectVersion
1070
     0
1000
AcDbSavedByObjectVersion
1070
     0
1000
AcDbSavedByObjectVersion
1070
     0
  0
VISUALSTYLE
  5
3C53
102
{ACAD_REACTORS
330
3C4F
102
}
330
3C4F
100
AcDbVisualStyle
  2
GouraudWithEdges
 70
     3
 71
     2
 72
     2
 73
     1
 90
        2
 40
-0.6
 41
30.0
 62
     5
 63
     7
 74
     1
 91
        4
 64
     7
 65
   257
 75
     1
175
     1
 42
1.0
 92
        0
 66
   257
 43
1.0
 76
     1
 77
     6
 78
     2
 67
     7
 79
     5
170
     0
171
     0
290
     0
174
     0
 93
       13
 44
0.0
173
     0
291
     1
 45
0.0
1001
ACAD
1000
AcDbSavedByObjectVersion
1070
     0
1000
AcDbSavedByObjectVersion
1070
     0
1000
AcDbSavedByObjectVersion
1070
     0
1000
AcDbSavedByObjectVersion
1070
     0
1000
AcDbSavedByObjectVersion
1070
     0
1000
AcDbSavedByObjectVersion
1070
     0
  0
VISUALSTYLE
  5
3C5D
102
{ACAD_REACTORS
330
3C4F
102
}
330
3C4F
100
AcDbVisualStyle
  2
Linepattern
 70
    14
 71
     2
 72
     2
 73
     0
 90
        0
 40
-0.6
 41
-30.0
 62
     5
 63
     7
 74
     1
 91
        4
 64
     7
 65
   257
 75
     7
175
     7
 42
1.0
 92
        8
 66
     7
 43
1.0
 76
     1
 77
     6
 78
     2
 67
     7
 79
     5
170
     0
171
     0
290
     0
174
     0
 93
        1
 44
0.0
173
     0
291
     1
 45
0.0
1001
ACAD
1000
AcDbSavedByObjectVersion
1070
     0
1000
AcDbSavedByObjectVersion
1070
     0
1000
AcDbSavedByObjectVersion
1070
     0
1000
AcDbSavedByObjectVersion
1070
     0
1000
AcDbSavedByObjectVersion
1070
     0
1000
AcDbSavedByObjectVersion
1070
     0
  0
VISUALSTYLE
  5
24754
102
{ACAD_REACTORS
330
3C4F
102
}
330
3C4F
100
AcDbVisualStyle
  2
Realistic
 70
     8
 71
     2
 72
     2
 73
     0
 90
        0
 40
-0.6
 41
-30.0
 62
     5
 63
     7
 74
     1
 91
        0
 64
     7
 65
   257
 75
     1
175
     1
 42
1.0
 92
        8
 66
     8
 43
1.0
 76
     1
 77
     6
 78
     2
 67
     7
 79
     5
170
     0
171
     0
290
     0
174
     0
 93
       13
 44
0.0
173
     0
291
     0
 45
0.0
1001
ACAD
1000
AcDbSavedByObjectVersion
1070
     0
1000
AcDbSavedByObjectVersion
1070
     0
  0
VISUALSTYLE
  5
3C5C
102
{ACAD_REACTORS
330
3C4F
102
}
330
3C4F
100
AcDbVisualStyle
  2
Thicken
 70
    13
 71
     2
 72
     2
 73
     0
 90
        0
 40
-0.6
 41
-30.0
 62
     5
 63
     7
 74
     1
 91
        4
 64
     7
 65
   257
 75
     1
175
     1
 42
1.0
 92
       12
 66
     7
 43
1.0
 76
     1
 77
     6
 78
     2
 67
     7
 79
     5
170
     0
171
     0
290
     0
174
     0
 93
        1
 44
0.0
173
     0
291
     1
 45
0.0
1001
ACAD
1000
AcDbSavedByObjectVersion
1070
     0
1000
AcDbSavedByObjectVersion
1070
     0
1000
AcDbSavedByObjectVersion
1070
     0
1000
AcDbSavedByObjectVersion
1070
     0
1000
AcDbSavedByObjectVersion
1070
     0
1000
AcDbSavedByObjectVersion
1070
     0
  0
DICTIONARYVAR
  5
3C79
102
{ACAD_REACTORS
330
3C30
102
}
330
3C30
100
DictionaryVariables
280
     0
  1
STANDARD
  0
DICTIONARYVAR
  5
3C31
102
{ACAD_REACTORS
330
3C30
102
}
330
3C30
100
DictionaryVariables
280
     0
  1
1
  0
DICTIONARYVAR
  5
3C7B
102
{ACAD_REACTORS
330
3C30
102
}
330
3C30
100
DictionaryVariables
280
     0
  1
0
  0
DICTIONARYVAR
  5
3C32
102
{ACAD_REACTORS
330
3C30
102
}
330
3C30
100
DictionaryVariables
280
     0
  1

  0
DICTIONARYVAR
  5
3C7A
102
{ACAD_REACTORS
330
3C30
102
}
330
3C30
100
DictionaryVariables
280
     0
  1
127
  0
DICTIONARY
  5
2478A
330
1F
100
AcDbDictionary
280
     1
281
     1
  3
ACAD_XREC_ROUNDTRIP
360
2478B
  0
DICTIONARY
  5
2478C
330
23
100
AcDbDictionary
280
     1
281
     1
  3
ACAD_XREC_ROUNDTRIP
360
2478D
  0
DICTIONARY
  5
24748
330
3C4D
100
AcDbDictionary
280
     1
281
     1
  3
ACAD_XREC_ROUNDTRIP
360
24749
  0
DICTIONARY
  5
24746
330
3C4C
100
AcDbDictionary
280
     1
281
     1
  3
ACAD_XREC_ROUNDTRIP
360
24747
  0
DICTIONARY
  5
2474A
330
3C4E
100
AcDbDictionary
280
     1
281
     1
  3
ACAD_XREC_ROUNDTRIP
360
2474B
  0
DICTIONARY
  5
2478E
330
3C61
100
AcDbDictionary
280
     1
281
     1
  3
ACAD_XREC_ROUNDTRIP
360
2478F
  0
XRECORD
  5
2478B
102
{ACAD_REACTORS
330
2478A
102
}
330
2478A
100
AcDbXrecord
280
     1
102
SHADEPLOT
 70
     0
102
SHADEPLOTRESLEVEL
 70
     2
102
SHADEPLOTCUSTOMDPI
 70
   300
  0
XRECORD
  5
2478D
102
{ACAD_REACTORS
330
2478C
102
}
330
2478C
100
AcDbXrecord
280
     1
102
SHADEPLOT
 70
     1
102
SHADEPLOTRESLEVEL
 70
     2
102
SHADEPLOTCUSTOMDPI
 70
   300
  0
XRECORD
  5
24749
102
{ACAD_REACTORS
330
24748
102
}
330
24748
100
AcDbXrecord
280
     1
102
MATERIAL
148
0.0
149
0.0
149
0.0
 93
        0
 94
       63
282
     0
 72
     1
 77
     1
171
     1
175
     1
179
     1
273
     0
  0
XRECORD
  5
24747
102
{ACAD_REACTORS
330
24746
102
}
330
24746
100
AcDbXrecord
280
     1
102
MATERIAL
148
0.0
149
0.0
149
0.0
 93
        0
 94
       63
282
     0
 72
     1
 77
     1
171
     1
175
     1
179
     1
273
     0
  0
XRECORD
  5
2474B
102
{ACAD_REACTORS
330
2474A
102
}
330
2474A
100
AcDbXrecord
280
     1
102
MATERIAL
148
0.0
149
0.0
149
0.0
 93
        0
 94
       63
282
     0
 72
     1
 77
     1
171
     1
175
     1
179
     1
273
     0
  0
XRECORD
  5
2478F
102
{ACAD_REACTORS
330
2478E
102
}
330
2478E
100
AcDbXrecord
280
     1
102
ACAD_ROUNDTRIP_PRE2007_TABLESTYLE
 90
      512
 91
        0
  1

 92
      512
 93
        0
  2

 94
      512
 95
        0
  3

  0
ENDSEC
  0
EOF
