  0
SECTION
  2
HEADER
  9
$ACADVER
  1
AC1015
  9
$ACADMAINTVER
 70
    20
  9
$DWGCODEPAGE
  3
ANSI_1252
  9
$INSBASE
 10
0.0
 20
0.0
 30
0.0
  9
$EXTMIN
 10
10.00000000000085
 20
0.0
 30
0.0
  9
$EXTMAX
 10
420.0000000000008
 20
270.0
 30
1.0
  9
$LIMMIN
 10
0.0
 20
0.0
  9
$LIMMAX
 10
420.0
 20
297.0
  9
$ORTHOMODE
 70
     1
  9
$REGENMODE
 70
     1
  9
$FILLMODE
 70
     1
  9
$QTEXTMODE
 70
     0
  9
$MIRRTEXT
 70
     0
  9
$LTSCALE
 40
23.1
  9
$ATTMODE
 70
     1
  9
$TEXTSIZE
 40
0.2
  9
$TRACEWID
 40
0.05
  9
$TEXTSTYLE
  7
Standard
  9
$CLAYER
  8
0
  9
$CELTYPE
  6
ByLayer
  9
$CECOLOR
 62
   256
  9
$CELTSCALE
 40
1.0
  9
$DISPSILH
 70
     0
  9
$DIMSCALE
 40
0.0
  9
$DIMASZ
 40
3.5
  9
$DIMEXO
 40
0.0
  9
$DIMDLI
 40
3.75
  9
$DIMRND
 40
0.0
  9
$DIMDLE
 40
0.0
  9
$DIMEXE
 40
2.0
  9
$DIMTP
 40
0.0
  9
$DIMTM
 40
0.0
  9
$DIMTXT
 40
3.5
  9
$DIMCEN
 40
2.5
  9
$DIMTSZ
 40
0.0
  9
$DIMTOL
 70
     0
  9
$DIMLIM
 70
     0
  9
$DIMTIH
 70
     0
  9
$DIMTOH
 70
     0
  9
$DIMSE1
 70
     0
  9
$DIMSE2
 70
     0
  9
$DIMTAD
 70
     1
  9
$DIMZIN
 70
     8
  9
$DIMBLK
  1

  9
$DIMASO
 70
     1
  9
$DIMSHO
 70
     1
  9
$DIMPOST
  1

  9
$DIMAPOST
  1

  9
$DIMALT
 70
     0
  9
$DIMALTD
 70
     4
  9
$DIMALTF
 40
0.039
  9
$DIMLFAC
 40
1.0
  9
$DIMTOFL
 70
     1
  9
$DIMTVP
 40
0.0
  9
$DIMTIX
 70
     0
  9
$DIMSOXD
 70
     0
  9
$DIMSAH
 70
     0
  9
$DIMBLK1
  1

  9
$DIMBLK2
  1

  9
$DIMSTYLE
  2
H035
  9
$DIMCLRD
 70
   256
  9
$DIMCLRE
 70
     7
  9
$DIMCLRT
 70
     7
  9
$DIMTFAC
 40
1.0
  9
$DIMGAP
 40
0.5
  9
$DIMJUST
 70
     0
  9
$DIMSD1
 70
     0
  9
$DIMSD2
 70
     0
  9
$DIMTOLJ
 70
     1
  9
$DIMTZIN
 70
     0
  9
$DIMALTZ
 70
     0
  9
$DIMALTTZ
 70
     0
  9
$DIMUPT
 70
     0
  9
$DIMDEC
 70
     0
  9
$DIMTDEC
 70
     2
  9
$DIMALTU
 70
     8
  9
$DIMALTTD
 70
     4
  9
$DIMTXSTY
  7
Standard
  9
$DIMAUNIT
 70
     0
  9
$DIMADEC
 70
     0
  9
$DIMALTRND
 40
0.0
  9
$DIMAZIN
 70
     0
  9
$DIMDSEP
 70
    46
  9
$DIMATFIT
 70
     3
  9
$DIMFRAC
 70
     0
  9
$DIMLDRBLK
  1

  9
$DIMLUNIT
 70
     2
  9
$DIMLWD
 70
    -2
  9
$DIMLWE
 70
    -2
  9
$DIMTMOVE
 70
     0
  9
$LUNITS
 70
     2
  9
$LUPREC
 70
     4
  9
$SKETCHINC
 40
0.1
  9
$FILLETRAD
 40
0.5
  9
$AUNITS
 70
     0
  9
$AUPREC
 70
     0
  9
$MENU
  1
.
  9
$ELEVATION
 40
0.0
  9
$PELEVATION
 40
0.0
  9
$THICKNESS
 40
0.0
  9
$LIMCHECK
 70
     0
  9
$CHAMFERA
 40
0.0
  9
$CHAMFERB
 40
0.0
  9
$CHAMFERC
 40
0.0
  9
$CHAMFERD
 40
0.0
  9
$SKPOLY
 70
     0
  9
$TDCREATE
 40
2452829.417613079
  9
$TDUCREATE
 40
2452829.375946412
  9
$TDUPDATE
 40
2453424.604627095
  9
$TDUUPDATE
 40
2453424.562960428
  9
$TDINDWG
 40
2.5046471759
  9
$TDUSRTIMER
 40
2.5046366898
  9
$USRTIMER
 70
     1
  9
$ANGBASE
 50
0.0
  9
$ANGDIR
 70
     0
  9
$PDMODE
 70
     0
  9
$PDSIZE
 40
0.0
  9
$PLINEWID
 40
0.0
  9
$SPLFRAME
 70
     0
  9
$SPLINETYPE
 70
     6
  9
$SPLINESEGS
 70
     8
  9
$HANDSEED
  5
B3ED
  9
$SURFTAB1
 70
     6
  9
$SURFTAB2
 70
     6
  9
$SURFTYPE
 70
     6
  9
$SURFU
 70
     6
  9
$SURFV
 70
     6
  9
$UCSBASE
  2

  9
$UCSNAME
  2

  9
$UCSORG
 10
0.0
 20
0.0
 30
0.0
  9
$UCSXDIR
 10
1.0
 20
0.0
 30
0.0
  9
$UCSYDIR
 10
0.0
 20
1.0
 30
0.0
  9
$UCSORTHOREF
  2

  9
$UCSORTHOVIEW
 70
     0
  9
$UCSORGTOP
 10
0.0
 20
0.0
 30
0.0
  9
$UCSORGBOTTOM
 10
0.0
 20
0.0
 30
0.0
  9
$UCSORGLEFT
 10
0.0
 20
0.0
 30
0.0
  9
$UCSORGRIGHT
 10
0.0
 20
0.0
 30
0.0
  9
$UCSORGFRONT
 10
0.0
 20
0.0
 30
0.0
  9
$UCSORGBACK
 10
0.0
 20
0.0
 30
0.0
  9
$PUCSBASE
  2

  9
$PUCSNAME
  2

  9
$PUCSORG
 10
0.0
 20
0.0
 30
0.0
  9
$PUCSXDIR
 10
1.0
 20
0.0
 30
0.0
  9
$PUCSYDIR
 10
0.0
 20
1.0
 30
0.0
  9
$PUCSORTHOREF
  2

  9
$PUCSORTHOVIEW
 70
     0
  9
$PUCSORGTOP
 10
0.0
 20
0.0
 30
0.0
  9
$PUCSORGBOTTOM
 10
0.0
 20
0.0
 30
0.0
  9
$PUCSORGLEFT
 10
0.0
 20
0.0
 30
0.0
  9
$PUCSORGRIGHT
 10
0.0
 20
0.0
 30
0.0
  9
$PUCSORGFRONT
 10
0.0
 20
0.0
 30
0.0
  9
$PUCSORGBACK
 10
0.0
 20
0.0
 30
0.0
  9
$USERI1
 70
     0
  9
$USERI2
 70
     0
  9
$USERI3
 70
     0
  9
$USERI4
 70
     0
  9
$USERI5
 70
     0
  9
$USERR1
 40
0.0
  9
$USERR2
 40
0.0
  9
$USERR3
 40
0.0
  9
$USERR4
 40
0.0
  9
$USERR5
 40
0.0
  9
$WORLDVIEW
 70
     1
  9
$SHADEDGE
 70
     3
  9
$SHADEDIF
 70
    70
  9
$TILEMODE
 70
     1
  9
$MAXACTVP
 70
    64
  9
$PINSBASE
 10
0.0
 20
0.0
 30
0.0
  9
$PLIMCHECK
 70
     0
  9
$PEXTMIN
 10
1.000000000000000E+20
 20
1.000000000000000E+20
 30
1.000000000000000E+20
  9
$PEXTMAX
 10
-1.000000000000000E+20
 20
-1.000000000000000E+20
 30
-1.000000000000000E+20
  9
$PLIMMIN
 10
0.0
 20
0.0
  9
$PLIMMAX
 10
12.0
 20
9.0
  9
$UNITMODE
 70
     0
  9
$VISRETAIN
 70
     1
  9
$PLINEGEN
 70
     0
  9
$PSLTSCALE
 70
     1
  9
$TREEDEPTH
 70
  3020
  9
$CMLSTYLE
  2
Standard
  9
$CMLJUST
 70
     0
  9
$CMLSCALE
 40
1.0
  9
$PROXYGRAPHICS
 70
     1
  9
$MEASUREMENT
 70
     0
  9
$CELWEIGHT
370
    -1
  9
$ENDCAPS
280
     0
  9
$JOINSTYLE
280
     0
  9
$LWDISPLAY
290
     0
  9
$INSUNITS
 70
     0
  9
$HYPERLINKBASE
  1

  9
$STYLESHEET
  1
MONOCHROME.CTB
  9
$XEDIT
290
     1
  9
$CEPSNTYPE
380
     0
  9
$PSTYLEMODE
290
     1
  9
$FINGERPRINTGUID
  2
{D88032C4-1185-41D3-97DD-7638FCF99E3F}
  9
$VERSIONGUID
  2
{74E4D292-7EFB-4757-B915-07BD922C6E7B}
  9
$EXTNAMES
290
     1
  9
$PSVPSCALE
 40
0.0
  9
$OLESTARTUP
290
     0
  0
ENDSEC
  0
SECTION
  2
CLASSES
  0
CLASS
  1
ACDBDICTIONARYWDFLT
  2
AcDbDictionaryWithDefault
  3
ObjectDBX Classes
 90
        0
280
     0
281
     0
  0
CLASS
  1
DICTIONARYVAR
  2
AcDbDictionaryVar
  3
ObjectDBX Classes
 90
        0
280
     0
281
     0
  0
CLASS
  1
ACDBPLACEHOLDER
  2
AcDbPlaceHolder
  3
ObjectDBX Classes
 90
        0
280
     0
281
     0
  0
CLASS
  1
LAYOUT
  2
AcDbLayout
  3
ObjectDBX Classes
 90
        0
280
     0
281
     0
  0
ENDSEC
  0
SECTION
  2
TABLES
  0
TABLE
  2
VPORT
  5
8
330
0
100
AcDbSymbolTable
 70
     2
  0
VPORT
  5
B3E4
330
8
100
AcDbSymbolTableRecord
100
AcDbViewportTableRecord
  2
*Active
 70
     0
 10
0.0
 20
0.0
 11
1.0
 21
1.0
 12
214.9974247293997
 22
138.360282303388
 13
0.0
 23
0.0
 14
1.0
 24
1.0
 15
0.0
 25
0.0
 16
0.0
 26
0.0
 36
1.0
 17
0.0
 27
0.0
 37
0.0
 40
278.9118782092717
 41
1.571994715984147
 42
50.0
 43
0.0
 44
0.0
 50
0.0
 51
0.0
 71
     0
 72
   100
 73
     1
 74
     1
 75
     0
 76
     0
 77
     0
 78
     0
281
     0
 65
     1
110
0.0
120
0.0
130
0.0
111
1.0
121
0.0
131
0.0
112
0.0
122
1.0
132
0.0
 79
     0
146
0.0
  0
ENDTAB
  0
TABLE
  2
LTYPE
  5
5
330
0
100
AcDbSymbolTable
 70
     3
  0
LTYPE
  5
13
330
5
100
AcDbSymbolTableRecord
100
AcDbLinetypeTableRecord
  2
ByBlock
 70
     0
  3

 72
    65
 73
     0
 40
0.0
  0
LTYPE
  5
14
330
5
100
AcDbSymbolTableRecord
100
AcDbLinetypeTableRecord
  2
ByLayer
 70
     0
  3

 72
    65
 73
     0
 40
0.0
  0
LTYPE
  5
15
330
5
100
AcDbSymbolTableRecord
100
AcDbLinetypeTableRecord
  2
CONTINUOUS
 70
     0
  3
Solid line
 72
    65
 73
     0
 40
0.0
  0
LTYPE
  5
26
330
5
100
AcDbSymbolTableRecord
100
AcDbLinetypeTableRecord
  2
CENTER
 70
     0
  3
____ _ ____ _ ____ _ ____ _ ____ _ ____ _ ____
 72
    65
 73
     4
 40
0.6
 49
0.375
 74
     0
 49
-0.075
 74
     0
 49
0.075
 74
     0
 49
-0.075
 74
     0
  0
LTYPE
  5
4F7A
330
5
100
AcDbSymbolTableRecord
100
AcDbLinetypeTableRecord
  2
DASHED
 70
     0
  3
_ _ _ _ _ _ _ _ _ _ _ _ _ _ _ _ _ _ _ _ _ _ _ _
 72
    65
 73
     2
 40
0.375
 49
0.25
 74
     0
 49
-0.125
 74
     0
  0
ENDTAB
  0
TABLE
  2
LAYER
  5
2
330
0
100
AcDbSymbolTable
 70
    10
  0
LAYER
  5
10
330
2
100
AcDbSymbolTableRecord
100
AcDbLayerTableRecord
  2
0
 70
     0
 62
     7
  6
CONTINUOUS
370
    -3
390
F
  0
LAYER
  5
1D8
330
2
100
AcDbSymbolTableRecord
100
AcDbLayerTableRecord
  2
Defpoints
 70
     0
 62
     7
  6
CONTINUOUS
290
     0
370
    -3
390
F
  0
LAYER
  5
1D9
330
2
100
AcDbSymbolTableRecord
100
AcDbLayerTableRecord
  2
91000_TIP
 70
     0
 62
     7
  6
CONTINUOUS
370
    -3
390
F
  0
LAYER
  5
1DA
330
2
100
AcDbSymbolTableRecord
100
AcDbLayerTableRecord
  2
11000_Left
 70
     0
 62
     7
  6
CONTINUOUS
370
    -3
390
F
  0
LAYER
  5
1DB
330
2
100
AcDbSymbolTableRecord
100
AcDbLayerTableRecord
  2
10000_FRONT
 70
     0
 62
     7
  6
CONTINUOUS
370
    -3
390
F
  0
LAYER
  5
1DC
330
2
100
AcDbSymbolTableRecord
100
AcDbLayerTableRecord
  2
10100_FRONT_DIM
 70
     0
 62
     7
  6
CONTINUOUS
370
    -3
390
F
  0
LAYER
  5
1DD
330
2
100
AcDbSymbolTableRecord
100
AcDbLayerTableRecord
  2
90000_FRAME
 70
     0
 62
     7
  6
CONTINUOUS
370
    -3
390
F
  0
LAYER
  5
1DE
330
2
100
AcDbSymbolTableRecord
100
AcDbLayerTableRecord
  2
11100_LEFT_DIM
 70
     0
 62
     7
  6
CONTINUOUS
370
    -3
390
F
  0
LAYER
  5
A816
330
2
100
AcDbSymbolTableRecord
100
AcDbLayerTableRecord
  2
30000_Drilling
 70
     0
 62
     7
  6
CONTINUOUS
370
    -3
390
F
  0
LAYER
  5
A817
330
2
100
AcDbSymbolTableRecord
100
AcDbLayerTableRecord
  2
30100_Drilling_DIM
 70
     0
 62
     7
  6
CONTINUOUS
370
    -3
390
F
  0
ENDTAB
  0
TABLE
  2
STYLE
  5
3
330
0
100
AcDbSymbolTable
 70
     1
  0
STYLE
  5
11
330
3
100
AcDbSymbolTableRecord
100
AcDbTextStyleTableRecord
  2
Standard
 70
     0
 40
0.0
 41
1.0
 50
0.0
 71
     0
 42
0.2
  3
txt
  4

  0
ENDTAB
  0
TABLE
  2
VIEW
  5
6
330
0
100
AcDbSymbolTable
 70
     0
  0
ENDTAB
  0
TABLE
  2
UCS
  5
7
330
0
100
AcDbSymbolTable
 70
     0
  0
ENDTAB
  0
TABLE
  2
APPID
  5
9
330
0
100
AcDbSymbolTable
 70
     3
  0
APPID
  5
12
330
9
100
AcDbSymbolTableRecord
100
AcDbRegAppTableRecord
  2
ACAD
 70
     0
  0
APPID
  5
1E8
330
9
100
AcDbSymbolTableRecord
100
AcDbRegAppTableRecord
  2
AUSTER_ANSICHT
 70
     0
  0
APPID
  5
1E9
330
9
100
AcDbSymbolTableRecord
100
AcDbRegAppTableRecord
  2
AUSTER_FOLIE
 70
     0
  0
ENDTAB
  0
TABLE
  2
DIMSTYLE
  5
A
330
0
100
AcDbSymbolTable
 70
     3
100
AcDbDimStyleTable
 71
     3
340
1E7
340
3A1A
340
BA
  0
DIMSTYLE
105
BA
330
A
100
AcDbSymbolTableRecord
100
AcDbDimStyleTableRecord
  2
Standard
 70
     0
340
11
  0
DIMSTYLE
105
1E7
102
{ACAD_REACTORS
330
A7A4
330
A751
330
A752
330
A753
330
A900
330
A935
330
A942
330
A995
330
A9E6
330
B082
102
}
330
A
100
AcDbSymbolTableRecord
100
AcDbDimStyleTableRecord
  2
DSTYLE1
 70
     0
 41
3.0
 42
0.0
 44
1.0
 73
     0
 74
     0
 77
     1
 78
     3
140
2.5
143
0.039370079
147
1.0
271
     3
272
     3
274
     0
279
     2
340
11
  0
DIMSTYLE
105
3A1A
330
A
100
AcDbSymbolTableRecord
100
AcDbDimStyleTableRecord
  2
H035
 70
     0
 40
0.0
 41
3.5
 42
0.0
 43
3.75
 44
2.0
 73
     0
 74
     0
 77
     1
 78
     8
140
3.5
141
2.5
143
0.039
147
0.5
171
     4
172
     1
176
   256
177
     7
178
     7
271
     0
272
     2
273
     8
274
     4
340
11
  0
ENDTAB
  0
TABLE
  2
BLOCK_RECORD
  5
1
330
0
100
AcDbSymbolTable
 70
    11
  0
BLOCK_RECORD
  5
20
330
1
100
AcDbSymbolTableRecord
100
AcDbBlockTableRecord
  2
*Model_Space
340
23
  0
BLOCK_RECORD
  5
1C
330
1
100
AcDbSymbolTableRecord
100
AcDbBlockTableRecord
  2
*Paper_Space
340
1F
  0
BLOCK_RECORD
  5
3A
330
1
100
AcDbSymbolTableRecord
100
AcDbBlockTableRecord
  2
SIEMENS_OUTLINE_BL0
340
0
102
{BLKREFS
331
AA
102
}
  0
BLOCK_RECORD
  5
A7A5
330
1
100
AcDbSymbolTableRecord
100
AcDbBlockTableRecord
  2
*D1
340
0
  0
BLOCK_RECORD
  5
A7B1
330
1
100
AcDbSymbolTableRecord
100
AcDbBlockTableRecord
  2
*D2
340
0
  0
BLOCK_RECORD
  5
A7BD
330
1
100
AcDbSymbolTableRecord
100
AcDbBlockTableRecord
  2
*D3
340
0
  0
BLOCK_RECORD
  5
A7C5
330
1
100
AcDbSymbolTableRecord
100
AcDbBlockTableRecord
  2
*D4
340
0
  0
BLOCK_RECORD
  5
A901
330
1
100
AcDbSymbolTableRecord
100
AcDbBlockTableRecord
  2
*D5
340
0
  0
BLOCK_RECORD
  5
A936
330
1
100
AcDbSymbolTableRecord
100
AcDbBlockTableRecord
  2
*D6
340
0
  0
BLOCK_RECORD
  5
A943
330
1
100
AcDbSymbolTableRecord
100
AcDbBlockTableRecord
  2
*D7
340
0
  0
BLOCK_RECORD
  5
A996
330
1
100
AcDbSymbolTableRecord
100
AcDbBlockTableRecord
  2
*D8
340
0
  0
BLOCK_RECORD
  5
A9E7
330
1
100
AcDbSymbolTableRecord
100
AcDbBlockTableRecord
  2
*D9
340
0
  0
BLOCK_RECORD
  5
B083
330
1
100
AcDbSymbolTableRecord
100
AcDbBlockTableRecord
  2
*D10
340
0
  0
ENDTAB
  0
ENDSEC
  0
SECTION
  2
BLOCKS
  0
BLOCK
  5
21
330
20
100
AcDbEntity
  8
0
100
AcDbBlockBegin
  2
*Model_Space
 70
     0
 10
0.0
 20
0.0
 30
0.0
  3
*Model_Space
  1

  0
ENDBLK
  5
22
330
20
100
AcDbEntity
  8
0
100
AcDbBlockEnd
  0
BLOCK
  5
1D
330
1C
100
AcDbEntity
 67
     1
  8
0
100
AcDbBlockBegin
  2
*Paper_Space
 70
     0
 10
0.0
 20
0.0
 30
0.0
  3
*Paper_Space
  1

  0
ENDBLK
  5
1E
330
1C
100
AcDbEntity
 67
     1
  8
0
100
AcDbBlockEnd
  0
BLOCK
  5
3B
330
3A
100
AcDbEntity
  8
0
  6
Continuous
 62
     7
100
AcDbBlockBegin
  2
SIEMENS_OUTLINE_BL0
 70
     0
 10
0.0
 20
0.0
 30
0.0
  3
SIEMENS_OUTLINE_BL0
  1

  0
LINE
  5
3C
330
3A
100
AcDbEntity
  8
0
  6
Continuous
 62
     7
100
AcDbLine
 10
289.1235341257
 20
21.4969115175
 30
0.0
 11
289.1235341257
 21
16.7436424342
 31
0.0
  0
LINE
  5
3D
330
3A
100
AcDbEntity
  8
0
  6
Continuous
 62
     7
100
AcDbLine
 10
290.5495148507
 20
21.4969115175
 30
0.0
 11
290.5495148507
 21
16.7436424342
 31
0.0
  0
LINE
  5
3E
330
3A
100
AcDbEntity
  8
0
  6
Continuous
 62
     7
100
AcDbLine
 10
289.1235341257
 20
16.7436424342
 30
0.0
 11
290.5495148507
 21
16.7436424342
 31
0.0
  0
LINE
  5
3F
330
3A
100
AcDbEntity
  8
0
  6
Continuous
 62
     7
100
AcDbLine
 10
289.1235341257
 20
21.4969115175
 30
0.0
 11
290.5495148507
 21
21.4969115175
 31
0.0
  0
LINE
  5
40
330
3A
100
AcDbEntity
  8
0
  6
Continuous
 62
     7
100
AcDbLine
 10
291.6427667399
 20
21.4969115175
 30
0.0
 11
291.6427667399
 21
16.7436424342
 31
0.0
  0
LINE
  5
41
330
3A
100
AcDbEntity
  8
0
  6
Continuous
 62
     7
100
AcDbLine
 10
291.6427667399
 20
16.7436424342
 30
0.0
 11
295.2077185523
 21
16.7436424342
 31
0.0
  0
LINE
  5
42
330
3A
100
AcDbEntity
  8
0
  6
Continuous
 62
     7
100
AcDbLine
 10
295.2077185523
 20
17.64676356
 30
0.0
 11
293.021214774
 21
17.64676356
 31
0.0
  0
LINE
  5
43
330
3A
100
AcDbEntity
  8
0
  6
Continuous
 62
     7
100
AcDbLine
 10
295.2077185523
 20
17.64676356
 30
0.0
 11
295.2077185523
 21
16.7436424342
 31
0.0
  0
LINE
  5
44
330
3A
100
AcDbEntity
  8
0
  6
Continuous
 62
     7
100
AcDbLine
 10
295.1601858615
 20
21.4969115175
 30
0.0
 11
291.6427667399
 21
21.4969115175
 31
0.0
  0
LINE
  5
45
330
3A
100
AcDbEntity
  8
0
  6
Continuous
 62
     7
100
AcDbLine
 10
295.1601858615
 20
20.6175567371
 30
0.0
 11
293.021214774
 21
20.6175567371
 31
0.0
  0
LINE
  5
46
330
3A
100
AcDbEntity
  8
0
  6
Continuous
 62
     7
100
AcDbLine
 10
295.1601858615
 20
21.4969115175
 30
0.0
 11
295.1601858615
 21
20.6175567371
 31
0.0
  0
LINE
  5
47
330
3A
100
AcDbEntity
  8
0
  6
Continuous
 62
     7
100
AcDbLine
 10
294.8749897165
 20
18.7637817946
 30
0.0
 11
293.021214774
 21
18.7637817946
 31
0.0
  0
LINE
  5
48
330
3A
100
AcDbEntity
  8
0
  6
Continuous
 62
     7
100
AcDbLine
 10
294.8749897165
 20
19.5480711933
 30
0.0
 11
294.8749897165
 21
18.7637817946
 31
0.0
  0
LINE
  5
49
330
3A
100
AcDbEntity
  8
0
  6
Continuous
 62
     7
100
AcDbLine
 10
294.8749897165
 20
19.5480711933
 30
0.0
 11
293.021214774
 21
19.5480711933
 31
0.0
  0
LINE
  5
4A
330
3A
100
AcDbEntity
  8
0
  6
Continuous
 62
     7
100
AcDbLine
 10
293.021214774
 20
20.6175567371
 30
0.0
 11
293.021214774
 21
19.5480711933
 31
0.0
  0
LINE
  5
4B
330
3A
100
AcDbEntity
  8
0
  6
Continuous
 62
     7
100
AcDbLine
 10
293.021214774
 20
18.7637817946
 30
0.0
 11
293.021214774
 21
17.64676356
 31
0.0
  0
LINE
  5
4C
330
3A
100
AcDbEntity
  8
0
  6
Continuous
 62
     7
100
AcDbLine
 10
296.0157742965
 20
16.7436424342
 30
0.0
 11
296.0157742965
 21
21.4969115175
 31
0.0
  0
LINE
  5
4D
330
3A
100
AcDbEntity
  8
0
  6
Continuous
 62
     7
100
AcDbLine
 10
296.0157742965
 20
16.7436424342
 30
0.0
 11
296.9664281131
 21
16.7436424342
 31
0.0
  0
LINE
  5
4E
330
3A
100
AcDbEntity
  8
0
  6
Continuous
 62
     7
100
AcDbLine
 10
301.8622952689
 20
21.4969115175
 30
0.0
 11
301.8622952689
 21
16.7436424342
 31
0.0
  0
LINE
  5
4F
330
3A
100
AcDbEntity
  8
0
  6
Continuous
 62
     7
100
AcDbLine
 10
301.8622952689
 20
16.7436424342
 30
0.0
 11
300.4838472348
 21
16.7436424342
 31
0.0
  0
LINE
  5
50
330
3A
100
AcDbEntity
  8
0
  6
Continuous
 62
     7
100
AcDbLine
 10
298.2973434565
 20
16.6961097434
 30
0.0
 11
299.1529318914
 21
16.6961097434
 31
0.0
  0
LINE
  5
51
330
3A
100
AcDbEntity
  8
0
  6
Continuous
 62
     7
100
AcDbLine
 10
298.2973434565
 20
16.6961097434
 30
0.0
 11
296.9664281131
 21
19.7857346475
 31
0.0
  0
LINE
  5
52
330
3A
100
AcDbEntity
  8
0
  6
Continuous
 62
     7
100
AcDbLine
 10
296.9664281131
 20
16.7436424342
 30
0.0
 11
296.9664281131
 21
19.7857346475
 31
0.0
  0
LINE
  5
53
330
3A
100
AcDbEntity
  8
0
  6
Continuous
 62
     7
100
AcDbLine
 10
300.4838472348
 20
19.8332673383
 30
0.0
 11
299.1529318914
 21
16.6961097434
 31
0.0
  0
LINE
  5
54
330
3A
100
AcDbEntity
  8
0
  6
Continuous
 62
     7
100
AcDbLine
 10
297.7269511665
 20
21.4969115175
 30
0.0
 11
296.0157742965
 21
21.4969115175
 31
0.0
  0
LINE
  5
55
330
3A
100
AcDbEntity
  8
0
  6
Continuous
 62
     7
100
AcDbLine
 10
301.8622952689
 20
21.4969115175
 30
0.0
 11
300.1511183989
 21
21.4969115175
 31
0.0
  0
LINE
  5
56
330
3A
100
AcDbEntity
  8
0
  6
Continuous
 62
     7
100
AcDbLine
 10
297.7269511665
 20
21.4969115175
 30
0.0
 11
298.9628011281
 21
18.5974173767
 31
0.0
  0
LINE
  5
57
330
3A
100
AcDbEntity
  8
0
  6
Continuous
 62
     7
100
AcDbLine
 10
300.1511183989
 20
21.4969115175
 30
0.0
 11
298.9628011281
 21
18.5974173767
 31
0.0
  0
LINE
  5
58
330
3A
100
AcDbEntity
  8
0
  6
Continuous
 62
     7
100
AcDbLine
 10
300.4838472348
 20
19.8332673383
 30
0.0
 11
300.4838472348
 21
16.7436424342
 31
0.0
  0
LINE
  5
59
330
3A
100
AcDbEntity
  8
0
  6
Continuous
 62
     7
100
AcDbLine
 10
302.9555471581
 20
21.4969115175
 30
0.0
 11
302.9555471581
 21
16.7436424342
 31
0.0
  0
LINE
  5
5A
330
3A
100
AcDbEntity
  8
0
  6
Continuous
 62
     7
100
AcDbLine
 10
302.9555471581
 20
16.7436424342
 30
0.0
 11
306.5204989705
 21
16.7436424342
 31
0.0
  0
LINE
  5
5B
330
3A
100
AcDbEntity
  8
0
  6
Continuous
 62
     7
100
AcDbLine
 10
306.5204989705
 20
17.64676356
 30
0.0
 11
304.3339951922
 21
17.64676356
 31
0.0
  0
LINE
  5
5C
330
3A
100
AcDbEntity
  8
0
  6
Continuous
 62
     7
100
AcDbLine
 10
306.5204989705
 20
17.64676356
 30
0.0
 11
306.5204989705
 21
16.7436424342
 31
0.0
  0
LINE
  5
5D
330
3A
100
AcDbEntity
  8
0
  6
Continuous
 62
     7
100
AcDbLine
 10
306.4729662797
 20
21.4969115175
 30
0.0
 11
302.9555471581
 21
21.4969115175
 31
0.0
  0
LINE
  5
5E
330
3A
100
AcDbEntity
  8
0
  6
Continuous
 62
     7
100
AcDbLine
 10
306.4729662797
 20
20.6175567371
 30
0.0
 11
304.3339951922
 21
20.6175567371
 31
0.0
  0
LINE
  5
5F
330
3A
100
AcDbEntity
  8
0
  6
Continuous
 62
     7
100
AcDbLine
 10
306.4729662797
 20
21.4969115175
 30
0.0
 11
306.4729662797
 21
20.6175567371
 31
0.0
  0
LINE
  5
60
330
3A
100
AcDbEntity
  8
0
  6
Continuous
 62
     7
100
AcDbLine
 10
306.1877701347
 20
18.7637817946
 30
0.0
 11
304.3339951922
 21
18.7637817946
 31
0.0
  0
LINE
  5
61
330
3A
100
AcDbEntity
  8
0
  6
Continuous
 62
     7
100
AcDbLine
 10
306.1877701347
 20
19.5480711933
 30
0.0
 11
306.1877701347
 21
18.7637817946
 31
0.0
  0
LINE
  5
62
330
3A
100
AcDbEntity
  8
0
  6
Continuous
 62
     7
100
AcDbLine
 10
306.1877701347
 20
19.5480711933
 30
0.0
 11
304.3339951922
 21
19.5480711933
 31
0.0
  0
LINE
  5
63
330
3A
100
AcDbEntity
  8
0
  6
Continuous
 62
     7
100
AcDbLine
 10
304.3339951922
 20
20.6175567371
 30
0.0
 11
304.3339951922
 21
19.5480711933
 31
0.0
  0
LINE
  5
64
330
3A
100
AcDbEntity
  8
0
  6
Continuous
 62
     7
100
AcDbLine
 10
304.3339951922
 20
18.7637817946
 30
0.0
 11
304.3339951922
 21
17.64676356
 31
0.0
  0
LINE
  5
65
330
3A
100
AcDbEntity
  8
0
  6
Continuous
 62
     7
100
AcDbLine
 10
307.3047883693
 20
16.7436424342
 30
0.0
 11
307.3047883693
 21
21.4969115175
 31
0.0
  0
LINE
  5
66
330
3A
100
AcDbEntity
  8
0
  6
Continuous
 62
     7
100
AcDbLine
 10
311.4876651625
 20
21.4969115175
 30
0.0
 11
311.4876651625
 21
16.7436424342
 31
0.0
  0
LINE
  5
67
330
3A
100
AcDbEntity
  8
0
  6
Continuous
 62
     7
100
AcDbLine
 10
307.3047883693
 20
16.7436424342
 30
0.0
 11
308.2554421859
 21
16.7436424342
 31
0.0
  0
LINE
  5
68
330
3A
100
AcDbEntity
  8
0
  6
Continuous
 62
     7
100
AcDbLine
 10
311.4876651625
 20
21.4969115175
 30
0.0
 11
310.5370113459
 21
21.4969115175
 31
0.0
  0
LINE
  5
69
330
3A
100
AcDbEntity
  8
0
  6
Continuous
 62
     7
100
AcDbLine
 10
308.8496008213
 20
21.4969115175
 30
0.0
 11
307.3047883693
 21
21.4969115175
 31
0.0
  0
LINE
  5
6A
330
3A
100
AcDbEntity
  8
0
  6
Continuous
 62
     7
100
AcDbLine
 10
311.4876651625
 20
16.7436424342
 30
0.0
 11
309.9666190559
 21
16.7436424342
 31
0.0
  0
LINE
  5
6B
330
3A
100
AcDbEntity
  8
0
  6
Continuous
 62
     7
100
AcDbLine
 10
309.9666190559
 20
16.7436424342
 30
0.0
 11
308.2554421859
 21
19.7857346475
 31
0.0
  0
LINE
  5
6C
330
3A
100
AcDbEntity
  8
0
  6
Continuous
 62
     7
100
AcDbLine
 10
308.8496008213
 20
21.4969115175
 30
0.0
 11
310.5370113459
 21
18.5498846858
 31
0.0
  0
LINE
  5
6D
330
3A
100
AcDbEntity
  8
0
  6
Continuous
 62
     7
100
AcDbLine
 10
310.5370113459
 20
21.4969115175
 30
0.0
 11
310.5370113459
 21
18.5498846858
 31
0.0
  0
LINE
  5
6E
330
3A
100
AcDbEntity
  8
0
  6
Continuous
 62
     7
100
AcDbLine
 10
308.2554421859
 20
16.7436424342
 30
0.0
 11
308.2554421859
 21
19.7857346475
 31
0.0
  0
LINE
  5
6F
330
3A
100
AcDbEntity
  8
0
  6
Continuous
 62
     7
100
AcDbLine
 10
312.2957209067
 20
16.8387078159
 30
0.0
 11
312.2957209067
 21
17.7893616325
 31
0.0
  0
LINE
  5
70
330
3A
100
AcDbEntity
  8
0
  6
Continuous
 62
     7
100
AcDbLine
 10
315.623009265
 20
20.49872501
 30
0.0
 11
315.623009265
 21
21.4493788266
 31
0.0
  0
ARC
  5
71
330
3A
100
AcDbEntity
  8
0
  6
Continuous
 62
     7
100
AcDbCircle
 10
314.0003620317
 20
18.7008009792
 30
0.0
 40
1.111619360599997
100
AcDbArc
 50
277.7099956934
 51
295.6884927746
  0
ARC
  5
72
330
3A
100
AcDbEntity
  8
0
  6
Continuous
 62
     7
100
AcDbCircle
 10
314.2846720145
 20
17.9759752156
 30
0.0
 40
0.3401689265
100
AcDbArc
 50
305.503221255
 51
72.46528985229999
  0
ARC
  5
73
330
3A
100
AcDbEntity
  8
0
  6
Continuous
 62
     7
100
AcDbCircle
 10
313.7186782063
 20
21.3776821252
 30
0.0
 40
4.756794641099999
100
AcDbArc
 50
252.5939200548001
 51
280.9816604256
  0
ARC
  5
74
330
3A
100
AcDbEntity
  8
0
  6
Continuous
 62
     7
100
AcDbCircle
 10
314.1735135694
 20
18.7596683887
 30
0.0
 40
2.100726595299998
100
AcDbArc
 50
282.405835852
 51
311.8644433928
  0
ARC
  5
75
330
3A
100
AcDbEntity
  8
0
  6
Continuous
 62
     7
100
AcDbCircle
 10
313.8999492223
 20
20.3680101102
 30
0.0
 40
0.3029626476
100
AcDbArc
 50
154.4400348282
 51
221.8201698801
  0
ARC
  5
76
330
3A
100
AcDbEntity
  8
0
  6
Continuous
 62
     7
100
AcDbCircle
 10
313.9791703737
 20
20.2887889588
 30
0.0
 40
0.4103089737
100
AcDbArc
 50
102.8287828681
 51
149.2259639003
  0
ARC
  5
77
330
3A
100
AcDbEntity
  8
0
  6
Continuous
 62
     7
100
AcDbCircle
 10
314.3961972093
 20
18.546453629
 30
0.0
 40
2.201836557
100
AcDbArc
 50
84.0400061857
 51
103.3427657870999
  0
ARC
  5
78
330
3A
100
AcDbEntity
  8
0
  6
Continuous
 62
     7
100
AcDbCircle
 10
314.0552333846
 20
16.1290897051
 30
0.0
 40
4.642373736499997
100
AcDbArc
 50
70.2625858546
 51
82.95241863799999
  0
ARC
  5
79
330
3A
100
AcDbEntity
  8
0
  6
Continuous
 62
     7
100
AcDbCircle
 10
313.5412151824001
 20
20.8007125947
 30
0.0
 40
3.258755990899997
100
AcDbArc
 50
247.5300206145
 51
280.7579522143
  0
ARC
  5
7A
330
3A
100
AcDbEntity
  8
0
  6
Continuous
 62
     7
100
AcDbCircle
 10
307.1562487104
 20
2.5491926343
 30
0.0
 40
17.3316084133
100
AcDbArc
 50
65.34146746500001
 51
67.39977707359999
  0
ARC
  5
7B
330
3A
100
AcDbEntity
  8
0
  6
Continuous
 62
     7
100
AcDbCircle
 10
317.9521111158
 20
28.3416189974
 30
0.0
 40
10.6291642039
100
AcDbArc
 50
242.8620101252001
 51
247.1042029186
  0
ARC
  5
7C
330
3A
100
AcDbEntity
  8
0
  6
Continuous
 62
     7
100
AcDbCircle
 10
314.0972098893
 20
20.8076875004
 30
0.0
 40
2.166291629199998
100
AcDbArc
 50
227.3119280794
 51
242.7040315235
  0
ARC
  5
7D
330
3A
100
AcDbEntity
  8
0
  6
Continuous
 62
     7
100
AcDbCircle
 10
313.4931790796
 20
20.1020098596
 30
0.0
 40
1.238521734
100
AcDbArc
 50
194.7952194236
 51
225.7176549047
  0
ARC
  5
7E
330
3A
100
AcDbEntity
  8
0
  6
Continuous
 62
     7
100
AcDbCircle
 10
313.5553372138
 20
20.1422298287
 30
0.0
 40
1.309092072899999
100
AcDbArc
 50
164.1974860461
 51
195.8025139539
  0
ARC
  5
7F
330
3A
100
AcDbEntity
  8
0
  6
Continuous
 62
     7
100
AcDbCircle
 10
314.1123609345001
 20
19.2539626688
 30
0.0
 40
2.366924815299999
100
AcDbArc
 50
86.22180229280001
 51
120.4272602309
  0
ARC
  5
80
330
3A
100
AcDbEntity
  8
0
  6
Continuous
 62
     7
100
AcDbCircle
 10
313.8435041519
 20
12.5577948477
 30
0.0
 40
9.0679051661
100
AcDbArc
 50
78.68270492259998
 51
87.3147599624
  0
ARC
  5
81
330
3A
100
AcDbEntity
  8
0
  6
Continuous
 62
     7
100
AcDbCircle
 10
313.3874349735
 20
20.2497375912
 30
0.0
 40
1.119747444
100
AcDbArc
 50
142.813917903
 51
167.1522951417
  0
ARC
  5
82
330
3A
100
AcDbEntity
  8
0
  6
Continuous
 62
     7
100
AcDbCircle
 10
313.7327443151
 20
19.9431558946
 30
0.0
 40
1.580546684499998
100
AcDbArc
 50
121.2140948535
 51
141.5254768286
  0
ARC
  5
83
330
3A
100
AcDbEntity
  8
0
  6
Continuous
 62
     7
100
AcDbCircle
 10
314.3099186807
 20
20.7542132232
 30
0.0
 40
0.8661276051999998
100
AcDbArc
 50
222.7760387596
 51
239.0362434679
  0
ARC
  5
84
330
3A
100
AcDbEntity
  8
0
  6
Continuous
 62
     7
100
AcDbCircle
 10
311.8032091024
 20
13.4239410246
 30
0.0
 40
6.858773576299999
100
AcDbArc
 50
59.90202725600001
 51
68.2036481279
  0
ARC
  5
85
330
3A
100
AcDbEntity
  8
0
  6
Continuous
 62
     7
100
AcDbCircle
 10
315.2117035963
 20
22.3498275319
 30
0.0
 40
2.698741017099999
100
AcDbArc
 50
240.0481997804
 51
251.3779673736999
  0
ARC
  5
86
330
3A
100
AcDbEntity
  8
0
  6
Continuous
 62
     7
100
AcDbCircle
 10
314.5462464295
 20
18.1929289165
 30
0.0
 40
1.4334474881
100
AcDbArc
 50
315.8904553224
 51
333.5229264373
  0
ARC
  5
87
330
3A
100
AcDbEntity
  8
0
  6
Continuous
 62
     7
100
AcDbCircle
 10
314.5508846732
 20
18.1395217664
 30
0.0
 40
1.406228711899998
100
AcDbArc
 50
335.3867972702
 51
24.3915119402
  0
ARC
  5
88
330
3A
100
AcDbEntity
  8
0
  6
Continuous
 62
     7
100
AcDbCircle
 10
314.4786797697
 20
18.0616650746
 30
0.0
 40
1.504702514799999
100
AcDbArc
 50
25.95629166050001
 51
59.4834829668
  0
LINE
  5
89
330
3A
100
AcDbEntity
  8
0
  6
Continuous
 62
     7
100
AcDbLine
 10
284.7029938783
 20
16.8387078159
 30
0.0
 11
284.7029938783
 21
17.7893616325
 31
0.0
  0
LINE
  5
8A
330
3A
100
AcDbEntity
  8
0
  6
Continuous
 62
     7
100
AcDbLine
 10
288.0302822366
 20
20.49872501
 30
0.0
 11
288.0302822366
 21
21.4493788266
 31
0.0
  0
ARC
  5
8B
330
3A
100
AcDbEntity
  8
0
  6
Continuous
 62
     7
100
AcDbCircle
 10
286.4076350033
 20
18.7008009792
 30
0.0
 40
1.111619360599997
100
AcDbArc
 50
277.7099956934
 51
295.6884927746
  0
ARC
  5
8C
330
3A
100
AcDbEntity
  8
0
  6
Continuous
 62
     7
100
AcDbCircle
 10
286.691944986
 20
17.9759752156
 30
0.0
 40
0.3401689265
100
AcDbArc
 50
305.5032212556
 51
72.4652898515
  0
ARC
  5
8D
330
3A
100
AcDbEntity
  8
0
  6
Continuous
 62
     7
100
AcDbCircle
 10
286.1259511779
 20
21.3776821252
 30
0.0
 40
4.756794641099999
100
AcDbArc
 50
252.5939200545
 51
280.9816604253
  0
ARC
  5
8E
330
3A
100
AcDbEntity
  8
0
  6
Continuous
 62
     7
100
AcDbCircle
 10
286.580786541
 20
18.7596683887
 30
0.0
 40
2.100726595299998
100
AcDbArc
 50
282.4058358513
 51
311.8644433923
  0
ARC
  5
8F
330
3A
100
AcDbEntity
  8
0
  6
Continuous
 62
     7
100
AcDbCircle
 10
286.3072221939
 20
20.3680101102
 30
0.0
 40
0.3029626476
100
AcDbArc
 50
154.4400348282
 51
221.8201698801
  0
ARC
  5
90
330
3A
100
AcDbEntity
  8
0
  6
Continuous
 62
     7
100
AcDbCircle
 10
286.3864433453
 20
20.2887889588
 30
0.0
 40
0.4103089737
100
AcDbArc
 50
102.8287828727
 51
149.2259639027
  0
ARC
  5
91
330
3A
100
AcDbEntity
  8
0
  6
Continuous
 62
     7
100
AcDbCircle
 10
286.8034701809
 20
18.546453629
 30
0.0
 40
2.201836557
100
AcDbArc
 50
84.0400061859
 51
103.3427657872
  0
ARC
  5
92
330
3A
100
AcDbEntity
  8
0
  6
Continuous
 62
     7
100
AcDbCircle
 10
286.4625063562
 20
16.1290897051
 30
0.0
 40
4.642373736499997
100
AcDbArc
 50
70.2625858546
 51
82.9524186379
  0
ARC
  5
93
330
3A
100
AcDbEntity
  8
0
  6
Continuous
 62
     7
100
AcDbCircle
 10
285.948488154
 20
20.8007125947
 30
0.0
 40
3.258755990899997
100
AcDbArc
 50
247.5300206148
 51
280.7579522145
  0
ARC
  5
94
330
3A
100
AcDbEntity
  8
0
  6
Continuous
 62
     7
100
AcDbCircle
 10
279.563521682
 20
2.5491926343
 30
0.0
 40
17.3316084133
100
AcDbArc
 50
65.34146746500001
 51
67.39977707359999
  0
ARC
  5
95
330
3A
100
AcDbEntity
  8
0
  6
Continuous
 62
     7
100
AcDbCircle
 10
290.3593840874
 20
28.3416189974
 30
0.0
 40
10.6291642039
100
AcDbArc
 50
242.8620101252001
 51
247.1042029185
  0
ARC
  5
96
330
3A
100
AcDbEntity
  8
0
  6
Continuous
 62
     7
100
AcDbCircle
 10
286.5044828608
 20
20.8076875004
 30
0.0
 40
2.166291629199998
100
AcDbArc
 50
227.3119280794
 51
242.7040315235
  0
ARC
  5
97
330
3A
100
AcDbEntity
  8
0
  6
Continuous
 62
     7
100
AcDbCircle
 10
285.9004520512
 20
20.1020098596
 30
0.0
 40
1.238521734
100
AcDbArc
 50
194.7952194234
 51
225.7176549042
  0
ARC
  5
98
330
3A
100
AcDbEntity
  8
0
  6
Continuous
 62
     7
100
AcDbCircle
 10
286.519633906
 20
19.2539626688
 30
0.0
 40
2.366924815299999
100
AcDbArc
 50
86.22180229280001
 51
120.4272602309
  0
ARC
  5
99
330
3A
100
AcDbEntity
  8
0
  6
Continuous
 62
     7
100
AcDbCircle
 10
286.2507771235
 20
12.5577948477
 30
0.0
 40
9.0679051661
100
AcDbArc
 50
78.68270492259998
 51
87.3147599624
  0
ARC
  5
9A
330
3A
100
AcDbEntity
  8
0
  6
Continuous
 62
     7
100
AcDbCircle
 10
286.1400172867
 20
19.9431558946
 30
0.0
 40
1.580546684599998
100
AcDbArc
 50
121.2140948541
 51
141.525476829
  0
ARC
  5
9B
330
3A
100
AcDbEntity
  8
0
  6
Continuous
 62
     7
100
AcDbCircle
 10
286.7171916523
 20
20.7542132232
 30
0.0
 40
0.8661276051999998
100
AcDbArc
 50
222.7760387596
 51
239.0362434679
  0
ARC
  5
9C
330
3A
100
AcDbEntity
  8
0
  6
Continuous
 62
     7
100
AcDbCircle
 10
284.210482074
 20
13.4239410246
 30
0.0
 40
6.858773576299999
100
AcDbArc
 50
59.90202725620001
 51
68.20364812820002
  0
ARC
  5
9D
330
3A
100
AcDbEntity
  8
0
  6
Continuous
 62
     7
100
AcDbCircle
 10
287.6189765678
 20
22.3498275319
 30
0.0
 40
2.698741017099999
100
AcDbArc
 50
240.0481997804
 51
251.3779673734
  0
ARC
  5
9E
330
3A
100
AcDbEntity
  8
0
  6
Continuous
 62
     7
100
AcDbCircle
 10
286.953519401
 20
18.1929289165
 30
0.0
 40
1.4334474881
100
AcDbArc
 50
315.8904553226
 51
333.5229264375
  0
ARC
  5
9F
330
3A
100
AcDbEntity
  8
0
  6
Continuous
 62
     7
100
AcDbCircle
 10
286.9581576447
 20
18.1395217664
 30
0.0
 40
1.406228711899998
100
AcDbArc
 50
335.3867972703
 51
24.3915119403
  0
ARC
  5
A0
330
3A
100
AcDbEntity
  8
0
  6
Continuous
 62
     7
100
AcDbCircle
 10
286.8859527412
 20
18.0616650746
 30
0.0
 40
1.504702514699999
100
AcDbArc
 50
25.9562916611
 51
59.4834829676
  0
LINE
  5
A1
330
3A
100
AcDbEntity
  8
0
  6
Continuous
 62
     7
100
AcDbLine
 10
284.8948224676
 20
20.9161059766
 30
0.0
 11
285.1688882922
 21
21.1901790542
 31
0.0
  0
ARC
  5
A2
330
3A
100
AcDbEntity
  8
0
  6
Continuous
 62
     7
100
AcDbCircle
 10
285.9626101853
 20
20.1422298287
 30
0.0
 40
1.309092072899999
100
AcDbArc
 50
164.1974860461
 51
195.8025139539
  0
ARC
  5
A3
330
3A
100
AcDbEntity
  8
0
  6
Continuous
 62
     7
100
AcDbCircle
 10
285.7947079451
 20
20.2497375912
 30
0.0
 40
1.119747444
100
AcDbArc
 50
142.813917903
 51
167.1522951417
  0
ENDBLK
  5
A4
330
3A
100
AcDbEntity
  8
0
100
AcDbBlockEnd
  0
BLOCK
  5
A7AF
330
A7A5
100
AcDbEntity
  8
0
100
AcDbBlockBegin
  2
*D1
 70
     1
 10
0.0
 20
0.0
 30
0.0
  3
*D1
  1

  0
LINE
  5
B3CC
330
A7A5
100
AcDbEntity
  8
30100_Drilling_DIM
  6
Continuous
 62
     0
370
    -2
100
AcDbLine
 10
317.1337484345447
 20
70.80445541430655
 30
0.0
 11
317.1337484345447
 21
53.6184554143066
 31
0.0
  0
LINE
  5
B3CD
330
A7A5
100
AcDbEntity
  8
30100_Drilling_DIM
  6
Continuous
 62
     0
370
    -2
100
AcDbLine
 10
404.1337484345445
 20
70.80445541430655
 30
0.0
 11
404.1337484345445
 21
53.6184554143066
 31
0.0
  0
LINE
  5
B3CE
330
A7A5
100
AcDbEntity
  8
30100_Drilling_DIM
  6
Continuous
 62
     0
370
    -2
100
AcDbLine
 10
320.1337484345446
 20
54.61845541430659
 30
0.0
 11
355.467081767878
 21
54.61845541430659
 31
0.0
  0
LINE
  5
B3CF
330
A7A5
100
AcDbEntity
  8
30100_Drilling_DIM
  6
Continuous
 62
     0
370
    -2
100
AcDbLine
 10
401.1337484345445
 20
54.61845541430659
 30
0.0
 11
365.8004151012114
 21
54.61845541430659
 31
0.0
  0
SOLID
  5
B3D0
330
A7A5
100
AcDbEntity
  8
30100_Drilling_DIM
  6
Continuous
 62
     0
100
AcDbTrace
 10
320.1337484345446
 20
55.11845541430659
 30
0.0
 11
320.1337484345446
 21
54.11845541430659
 31
0.0
 12
317.1337484345447
 22
54.61845541430659
 32
0.0
 13
317.1337484345447
 23
54.61845541430659
 33
0.0
  0
SOLID
  5
B3D1
330
A7A5
100
AcDbEntity
  8
30100_Drilling_DIM
  6
Continuous
 62
     0
100
AcDbTrace
 10
401.1337484345445
 20
55.11845541430659
 30
0.0
 11
401.1337484345445
 21
54.11845541430659
 31
0.0
 12
404.1337484345445
 22
54.61845541430659
 32
0.0
 13
404.1337484345445
 23
54.61845541430659
 33
0.0
  0
MTEXT
  5
B3D2
330
A7A5
100
AcDbEntity
  8
30100_Drilling_DIM
  6
Continuous
 62
     0
370
    13
100
AcDbMText
 10
360.6337484345447
 20
54.61845541430659
 30
0.0
 40
5.0
 41
0.0
 71
     5
 72
     1
  1
\A1;87
 73
     1
 44
1.0
1001
ACAD
1000
MTEXTBEGIN
1070
    73
1070
     1
1070
    44
1040
1.0
1070
    74
1070
     0
1000
MTEXTEND
  0
POINT
  5
B3D3
330
A7A5
100
AcDbEntity
  8
Defpoints
  6
Continuous
 62
     0
100
AcDbPoint
 10
317.1337484345447
 20
71.80445541430656
 30
0.0
  0
POINT
  5
B3D4
330
A7A5
100
AcDbEntity
  8
Defpoints
  6
Continuous
 62
     0
100
AcDbPoint
 10
404.1337484345445
 20
71.80445541430656
 30
0.0
  0
POINT
  5
B3D5
330
A7A5
100
AcDbEntity
  8
Defpoints
  6
Continuous
 62
     0
100
AcDbPoint
 10
404.1337484345445
 20
54.61845541430659
 30
0.0
  0
ENDBLK
  5
A7B0
330
A7A5
100
AcDbEntity
  8
0
100
AcDbBlockEnd
  0
BLOCK
  5
A7BB
330
A7B1
100
AcDbEntity
  8
0
100
AcDbBlockBegin
  2
*D2
 70
     1
 10
0.0
 20
0.0
 30
0.0
  3
*D2
  1

  0
LINE
  5
B3BD
330
A7B1
100
AcDbEntity
  8
30100_Drilling_DIM
  6
Continuous
 62
     0
370
    -2
100
AcDbLine
 10
319.1337484345447
 20
225.8044554143066
 30
0.0
 11
306.3677484345447
 21
225.8044554143066
 31
0.0
  0
LINE
  5
B3BE
330
A7B1
100
AcDbEntity
  8
30100_Drilling_DIM
  6
Continuous
 62
     0
370
    -2
100
AcDbLine
 10
319.1337484345447
 20
68.80445541430657
 30
0.0
 11
306.3677484345447
 21
68.80445541430657
 31
0.0
  0
LINE
  5
B3BF
330
A7B1
100
AcDbEntity
  8
30100_Drilling_DIM
  6
Continuous
 62
     0
370
    -2
100
AcDbLine
 10
307.3677484345448
 20
222.8044554143066
 30
0.0
 11
307.3677484345448
 21
154.1377887476399
 31
0.0
  0
LINE
  5
B3C0
330
A7B1
100
AcDbEntity
  8
30100_Drilling_DIM
  6
Continuous
 62
     0
370
    -2
100
AcDbLine
 10
307.3677484345447
 20
71.80445541430656
 30
0.0
 11
307.3677484345448
 21
140.4711220809732
 31
0.0
  0
SOLID
  5
B3C1
330
A7B1
100
AcDbEntity
  8
30100_Drilling_DIM
  6
Continuous
 62
     0
100
AcDbTrace
 10
306.8677484345447
 20
222.8044554143066
 30
0.0
 11
307.8677484345448
 21
222.8044554143066
 31
0.0
 12
307.3677484345448
 22
225.8044554143066
 32
0.0
 13
307.3677484345448
 23
225.8044554143066
 33
0.0
  0
SOLID
  5
B3C2
330
A7B1
100
AcDbEntity
  8
30100_Drilling_DIM
  6
Continuous
 62
     0
100
AcDbTrace
 10
306.8677484345447
 20
71.80445541430656
 30
0.0
 11
307.8677484345447
 21
71.80445541430656
 31
0.0
 12
307.3677484345447
 22
68.80445541430657
 32
0.0
 13
307.3677484345447
 23
68.80445541430657
 33
0.0
  0
MTEXT
  5
B3C3
330
A7B1
100
AcDbEntity
  8
30100_Drilling_DIM
  6
Continuous
 62
     0
370
    13
100
AcDbMText
 10
307.3677484345447
 20
147.3044554143066
 30
0.0
 40
5.0
 41
0.0
 71
     5
 72
     1
  1
\A1;157
 11
0.0000000000000001
 21
1.0
 31
0.0
 73
     1
 44
1.0
1001
ACAD
1000
MTEXTBEGIN
1070
    73
1070
     1
1070
    44
1040
1.0
1070
    74
1070
     0
1000
MTEXTEND
  0
POINT
  5
B3C4
330
A7B1
100
AcDbEntity
  8
Defpoints
  6
Continuous
 62
     0
100
AcDbPoint
 10
320.1337484345446
 20
225.8044554143066
 30
0.0
  0
POINT
  5
B3C5
330
A7B1
100
AcDbEntity
  8
Defpoints
  6
Continuous
 62
     0
100
AcDbPoint
 10
320.1337484345446
 20
68.80445541430657
 30
0.0
  0
POINT
  5
B3C6
330
A7B1
100
AcDbEntity
  8
Defpoints
  6
Continuous
 62
     0
100
AcDbPoint
 10
307.3677484345447
 20
68.80445541430657
 30
0.0
  0
ENDBLK
  5
A7BC
330
A7B1
100
AcDbEntity
  8
0
100
AcDbBlockEnd
  0
BLOCK
  5
A7C3
330
A7BD
100
AcDbEntity
  8
0
100
AcDbBlockBegin
  2
*D3
 70
     1
 10
0.0
 20
0.0
 30
0.0
  3
*D3
  1

  0
LINE
  5
B3C7
330
A7BD
100
AcDbEntity
  8
30100_Drilling_DIM
  6
Continuous
 62
     0
370
    -2
100
AcDbLine
 10
321.7659818355771
 20
220.2870954446988
 30
0.0
 11
320.1338651350609
 21
222.8042754295024
 31
0.0
  0
MTEXT
  5
B3C8
330
A7BD
100
AcDbEntity
  8
30100_Drilling_DIM
  6
Continuous
 62
     0
370
    13
100
AcDbMText
 10
330.4706042383305
 20
206.8621355257463
 30
0.0
 40
5.0
 41
0.0
 71
     5
 72
     1
  1
\A1;R3 max.
 11
0.544038900172085
 21
-0.8390599949345387
 31
0.0
 73
     1
 44
1.0
1001
ACAD
1000
MTEXTBEGIN
1070
    73
1070
     1
1070
    44
1040
1.0
1070
    74
1070
     0
1000
MTEXTEND
  0
SOLID
  5
B3C9
330
A7BD
100
AcDbEntity
  8
30100_Drilling_DIM
  6
Continuous
 62
     0
100
AcDbTrace
 10
320.5533951325281
 20
223.0762948795885
 30
0.0
 11
319.7143351375936
 21
222.5322559794165
 31
0.0
 12
318.5017484345447
 22
225.3214554143061
 32
0.0
 13
318.5017484345447
 23
225.3214554143061
 33
0.0
  0
POINT
  5
B3CA
330
A7BD
100
AcDbEntity
  8
Defpoints
  6
Continuous
 62
     0
100
AcDbPoint
 10
318.5017484345447
 20
225.3214554143061
 30
0.0
  0
POINT
  5
B3CB
330
A7BD
100
AcDbEntity
  8
Defpoints
  6
Continuous
 62
     0
100
AcDbPoint
 10
320.1337484345444
 20
222.8044554143064
 30
0.0
  0
ENDBLK
  5
A7C4
330
A7BD
100
AcDbEntity
  8
0
100
AcDbBlockEnd
  0
BLOCK
  5
A7D1
330
A7C5
100
AcDbEntity
  8
0
100
AcDbBlockBegin
  2
*D4
 70
     1
 10
0.0
 20
0.0
 30
0.0
  3
*D4
  1

  0
LINE
  5
B3B2
330
A7C5
100
AcDbEntity
  8
11100_LEFT_DIM
  6
Continuous
 62
     0
370
    -2
100
AcDbLine
 10
262.2784845659466
 20
48.71819028705395
 30
0.0
 11
262.2784845659466
 21
37.71919028705396
 31
0.0
  0
LINE
  5
B3B3
330
A7C5
100
AcDbEntity
  8
11100_LEFT_DIM
  6
Continuous
 62
     0
370
    -2
100
AcDbLine
 10
265.2774845659465
 20
47.111190287054
 30
0.0
 11
265.2774845659465
 21
37.71919028705396
 31
0.0
  0
LINE
  5
B3B4
330
A7C5
100
AcDbEntity
  8
11100_LEFT_DIM
  6
Continuous
 62
     0
370
    -2
100
AcDbLine
 10
259.2784845659466
 20
38.71919028705395
 30
0.0
 11
256.2784845659466
 21
38.71919028705395
 31
0.0
  0
LINE
  5
B3B5
330
A7C5
100
AcDbEntity
  8
11100_LEFT_DIM
  6
Continuous
 62
     0
370
    -2
100
AcDbLine
 10
268.2774845659466
 20
38.71919028705395
 30
0.0
 11
271.2774845659466
 21
38.71919028705395
 31
0.0
  0
LINE
  5
B3B6
330
A7C5
100
AcDbEntity
  8
11100_LEFT_DIM
  6
Continuous
 62
     0
370
    -2
100
AcDbLine
 10
262.2784845659466
 20
38.71919028705395
 30
0.0
 11
265.2774845659465
 21
38.71919028705395
 31
0.0
  0
SOLID
  5
B3B7
330
A7C5
100
AcDbEntity
  8
11100_LEFT_DIM
  6
Continuous
 62
     0
100
AcDbTrace
 10
259.2784845659466
 20
39.21919028705396
 30
0.0
 11
259.2784845659466
 21
38.21919028705396
 31
0.0
 12
262.2784845659466
 22
38.71919028705395
 32
0.0
 13
262.2784845659466
 23
38.71919028705395
 33
0.0
  0
SOLID
  5
B3B8
330
A7C5
100
AcDbEntity
  8
11100_LEFT_DIM
  6
Continuous
 62
     0
100
AcDbTrace
 10
268.2774845659466
 20
39.21919028705396
 30
0.0
 11
268.2774845659466
 21
38.21919028705396
 31
0.0
 12
265.2774845659465
 22
38.71919028705395
 32
0.0
 13
265.2774845659465
 23
38.71919028705395
 33
0.0
  0
MTEXT
  5
B3B9
330
A7C5
100
AcDbEntity
  8
11100_LEFT_DIM
  6
Continuous
 62
     0
370
    13
100
AcDbMText
 10
284.7774845659466
 20
38.71919028705395
 30
0.0
 40
5.0
 41
0.0
 71
     5
 72
     1
  1
\A1;max. 6
 73
     1
 44
1.0
1001
ACAD
1000
MTEXTBEGIN
1070
    73
1070
     1
1070
    44
1040
1.0
1070
    74
1070
     0
1000
MTEXTEND
  0
POINT
  5
B3BA
330
A7C5
100
AcDbEntity
  8
Defpoints
  6
Continuous
 62
     0
100
AcDbPoint
 10
262.2784845659466
 20
49.71819028705397
 30
0.0
  0
POINT
  5
B3BB
330
A7C5
100
AcDbEntity
  8
Defpoints
  6
Continuous
 62
     0
100
AcDbPoint
 10
265.2774845659465
 20
48.11119028705401
 30
0.0
  0
POINT
  5
B3BC
330
A7C5
100
AcDbEntity
  8
Defpoints
  6
Continuous
 62
     0
100
AcDbPoint
 10
265.2774845659465
 20
38.71919028705395
 30
0.0
  0
ENDBLK
  5
A7D2
330
A7C5
100
AcDbEntity
  8
0
100
AcDbBlockEnd
  0
BLOCK
  5
A90B
330
A901
100
AcDbEntity
  8
0
100
AcDbBlockBegin
  2
*D5
 70
     1
 10
0.0
 20
0.0
 30
0.0
  3
*D5
  1

  0
LINE
  5
B389
330
A901
100
AcDbEntity
  8
11100_LEFT_DIM
  6
Continuous
 62
     0
370
    -2
100
AcDbLine
 10
170.7784845659466
 20
228.126190287054
 30
0.0
 11
154.1040560520134
 21
228.126190287054
 31
0.0
  0
LINE
  5
B38A
330
A901
100
AcDbEntity
  8
11100_LEFT_DIM
  6
Continuous
 62
     0
370
    -2
100
AcDbLine
 10
170.7774845659466
 20
73.12619028705398
 30
0.0
 11
154.1040560520134
 21
73.126190287054
 31
0.0
  0
LINE
  5
B38B
330
A901
100
AcDbEntity
  8
11100_LEFT_DIM
  6
Continuous
 62
     0
370
    -2
100
AcDbLine
 10
155.1040560520134
 20
225.126190287054
 30
0.0
 11
155.1040560520134
 21
164.9595236203873
 31
0.0
  0
LINE
  5
B38C
330
A901
100
AcDbEntity
  8
11100_LEFT_DIM
  6
Continuous
 62
     0
370
    -2
100
AcDbLine
 10
155.1040560520134
 20
76.126190287054
 30
0.0
 11
155.1040560520134
 21
136.2928569537206
 31
0.0
  0
SOLID
  5
B38D
330
A901
100
AcDbEntity
  8
11100_LEFT_DIM
  6
Continuous
 62
     0
100
AcDbTrace
 10
154.6040560520134
 20
225.126190287054
 30
0.0
 11
155.6040560520134
 21
225.126190287054
 31
0.0
 12
155.1040560520134
 22
228.126190287054
 32
0.0
 13
155.1040560520134
 23
228.126190287054
 33
0.0
  0
SOLID
  5
B38E
330
A901
100
AcDbEntity
  8
11100_LEFT_DIM
  6
Continuous
 62
     0
100
AcDbTrace
 10
154.6040560520134
 20
76.126190287054
 30
0.0
 11
155.6040560520134
 21
76.126190287054
 31
0.0
 12
155.1040560520134
 22
73.126190287054
 32
0.0
 13
155.1040560520134
 23
73.126190287054
 33
0.0
  0
MTEXT
  5
B38F
330
A901
100
AcDbEntity
  8
11100_LEFT_DIM
  6
Continuous
 62
     0
370
    13
100
AcDbMText
 10
155.1040560520134
 20
150.626190287054
 30
0.0
 40
5.0
 41
0.0
 71
     5
 72
     1
  1
\A1;85x155
 11
0.0000000000000001
 21
1.0
 31
0.0
 73
     1
 44
1.0
1001
ACAD
1000
MTEXTBEGIN
1070
    73
1070
     1
1070
    44
1040
1.0
1070
    74
1070
     0
1000
MTEXTEND
  0
POINT
  5
B390
330
A901
100
AcDbEntity
  8
Defpoints
  6
Continuous
 62
     0
100
AcDbPoint
 10
171.7784845659466
 20
228.126190287054
 30
0.0
  0
POINT
  5
B391
330
A901
100
AcDbEntity
  8
Defpoints
  6
Continuous
 62
     0
100
AcDbPoint
 10
171.7774845659466
 20
73.12619028705398
 30
0.0
  0
POINT
  5
B392
330
A901
100
AcDbEntity
  8
Defpoints
  6
Continuous
 62
     0
100
AcDbPoint
 10
155.1040560520134
 20
73.126190287054
 30
0.0
  0
ENDBLK
  5
A90C
330
A901
100
AcDbEntity
  8
0
100
AcDbBlockEnd
  0
BLOCK
  5
A940
330
A936
100
AcDbEntity
  8
0
100
AcDbBlockBegin
  2
*D6
 70
     1
 10
0.0
 20
0.0
 30
0.0
  3
*D6
  1

  0
LINE
  5
B393
330
A936
100
AcDbEntity
  8
11100_LEFT_DIM
  6
Continuous
 62
     0
370
    -2
100
AcDbLine
 10
169.2784845659466
 20
226.626190287054
 30
0.0
 11
169.2784845659466
 21
255.7379337658866
 31
0.0
  0
LINE
  5
B394
330
A936
100
AcDbEntity
  8
11100_LEFT_DIM
  6
Continuous
 62
     0
370
    -2
100
AcDbLine
 10
265.2774845659465
 20
249.303190287054
 30
0.0
 11
265.2774845659465
 21
255.7379337658866
 31
0.0
  0
LINE
  5
B395
330
A936
100
AcDbEntity
  8
11100_LEFT_DIM
  6
Continuous
 62
     0
370
    -2
100
AcDbLine
 10
172.2784845659465
 20
254.7379337658866
 30
0.0
 11
212.1113178992799
 21
254.7379337658866
 31
0.0
  0
LINE
  5
B396
330
A936
100
AcDbEntity
  8
11100_LEFT_DIM
  6
Continuous
 62
     0
370
    -2
100
AcDbLine
 10
262.2774845659466
 20
254.7379337658866
 30
0.0
 11
222.4446512326132
 21
254.7379337658866
 31
0.0
  0
SOLID
  5
B397
330
A936
100
AcDbEntity
  8
11100_LEFT_DIM
  6
Continuous
 62
     0
100
AcDbTrace
 10
172.2784845659465
 20
255.2379337658866
 30
0.0
 11
172.2784845659465
 21
254.2379337658866
 31
0.0
 12
169.2784845659466
 22
254.7379337658866
 32
0.0
 13
169.2784845659466
 23
254.7379337658866
 33
0.0
  0
SOLID
  5
B398
330
A936
100
AcDbEntity
  8
11100_LEFT_DIM
  6
Continuous
 62
     0
100
AcDbTrace
 10
262.2774845659466
 20
255.2379337658866
 30
0.0
 11
262.2774845659466
 21
254.2379337658866
 31
0.0
 12
265.2774845659465
 22
254.7379337658866
 32
0.0
 13
265.2774845659465
 23
254.7379337658866
 33
0.0
  0
MTEXT
  5
B399
330
A936
100
AcDbEntity
  8
11100_LEFT_DIM
  6
Continuous
 62
     0
370
    13
100
AcDbMText
 10
217.2779845659466
 20
254.7379337658866
 30
0.0
 40
5.0
 41
0.0
 71
     5
 72
     1
  1
\A1;96
 73
     1
 44
1.0
1001
ACAD
1000
MTEXTBEGIN
1070
    73
1070
     1
1070
    44
1040
1.0
1070
    74
1070
     0
1000
MTEXTEND
  0
POINT
  5
B39A
330
A936
100
AcDbEntity
  8
Defpoints
  6
Continuous
 62
     0
100
AcDbPoint
 10
169.2784845659466
 20
225.626190287054
 30
0.0
  0
POINT
  5
B39B
330
A936
100
AcDbEntity
  8
Defpoints
  6
Continuous
 62
     0
100
AcDbPoint
 10
265.2774845659465
 20
248.303190287054
 30
0.0
  0
POINT
  5
B39C
330
A936
100
AcDbEntity
  8
Defpoints
  6
Continuous
 62
     0
100
AcDbPoint
 10
265.2774845659465
 20
254.7379337658866
 30
0.0
  0
ENDBLK
  5
A941
330
A936
100
AcDbEntity
  8
0
100
AcDbBlockEnd
  0
BLOCK
  5
A94D
330
A943
100
AcDbEntity
  8
0
100
AcDbBlockBegin
  2
*D7
 70
     1
 10
0.0
 20
0.0
 30
0.0
  3
*D7
  1

  0
LINE
  5
B39D
330
A943
100
AcDbEntity
  8
11100_LEFT_DIM
  6
Continuous
 62
     0
370
    -2
100
AcDbLine
 10
277.2784845659466
 20
234.411190287054
 30
0.0
 11
277.2784845659466
 21
255.7379337658866
 31
0.0
  0
LINE
  5
B39E
330
A943
100
AcDbEntity
  8
11100_LEFT_DIM
  6
Continuous
 62
     0
370
    -2
100
AcDbLine
 10
262.2774845659466
 20
254.7379337658866
 30
0.0
 11
259.2774845659466
 21
254.7379337658866
 31
0.0
  0
LINE
  5
B39F
330
A943
100
AcDbEntity
  8
11100_LEFT_DIM
  6
Continuous
 62
     0
370
    -2
100
AcDbLine
 10
280.2784845659466
 20
254.7379337658866
 30
0.0
 11
283.2784845659466
 21
254.7379337658866
 31
0.0
  0
LINE
  5
B3A0
330
A943
100
AcDbEntity
  8
11100_LEFT_DIM
  6
Continuous
 62
     0
370
    -2
100
AcDbLine
 10
265.2774845659465
 20
254.7379337658866
 30
0.0
 11
266.9446512326133
 21
254.7379337658866
 31
0.0
  0
LINE
  5
B3A1
330
A943
100
AcDbEntity
  8
11100_LEFT_DIM
  6
Continuous
 62
     0
370
    -2
100
AcDbLine
 10
277.2784845659466
 20
254.7379337658866
 30
0.0
 11
275.6113178992799
 21
254.7379337658866
 31
0.0
  0
SOLID
  5
B3A2
330
A943
100
AcDbEntity
  8
11100_LEFT_DIM
  6
Continuous
 62
     0
100
AcDbTrace
 10
262.2774845659466
 20
255.2379337658866
 30
0.0
 11
262.2774845659466
 21
254.2379337658866
 31
0.0
 12
265.2774845659465
 22
254.7379337658866
 32
0.0
 13
265.2774845659465
 23
254.7379337658866
 33
0.0
  0
SOLID
  5
B3A3
330
A943
100
AcDbEntity
  8
11100_LEFT_DIM
  6
Continuous
 62
     0
100
AcDbTrace
 10
280.2784845659466
 20
255.2379337658866
 30
0.0
 11
280.2784845659466
 21
254.2379337658866
 31
0.0
 12
277.2784845659466
 22
254.7379337658866
 32
0.0
 13
277.2784845659466
 23
254.7379337658866
 33
0.0
  0
MTEXT
  5
B3A4
330
A943
100
AcDbEntity
  8
11100_LEFT_DIM
  6
Continuous
 62
     0
370
    13
100
AcDbMText
 10
271.2779845659465
 20
254.7379337658866
 30
0.0
 40
5.0
 41
0.0
 71
     5
 72
     1
  1
\A1;12
 73
     1
 44
1.0
1001
ACAD
1000
MTEXTBEGIN
1070
    73
1070
     1
1070
    44
1040
1.0
1070
    74
1070
     0
1000
MTEXTEND
  0
POINT
  5
B3A5
330
A943
100
AcDbEntity
  8
Defpoints
  6
Continuous
 62
     0
100
AcDbPoint
 10
265.2774845659465
 20
254.7379337658866
 30
0.0
  0
POINT
  5
B3A6
330
A943
100
AcDbEntity
  8
Defpoints
  6
Continuous
 62
     0
100
AcDbPoint
 10
277.2784845659466
 20
233.411190287054
 30
0.0
  0
POINT
  5
B3A7
330
A943
100
AcDbEntity
  8
Defpoints
  6
Continuous
 62
     0
100
AcDbPoint
 10
277.2784845659466
 20
254.7379337658866
 30
0.0
  0
ENDBLK
  5
A94E
330
A943
100
AcDbEntity
  8
0
100
AcDbBlockEnd
  0
BLOCK
  5
A9A0
330
A996
100
AcDbEntity
  8
0
100
AcDbBlockBegin
  2
*D8
 70
     1
 10
0.0
 20
0.0
 30
0.0
  3
*D8
  1

  0
LINE
  5
B375
330
A996
100
AcDbEntity
  8
10100_FRONT_DIM
  6
Continuous
 62
     0
370
    -2
100
AcDbLine
 10
37.19883440812998
 20
234.8341902870539
 30
0.0
 11
37.19883440812998
 21
249.7225489388996
 31
0.0
  0
LINE
  5
B376
330
A996
100
AcDbEntity
  8
10100_FRONT_DIM
  6
Continuous
 62
     0
370
    -2
100
AcDbLine
 10
142.19883440813
 20
234.8341902870539
 30
0.0
 11
142.19883440813
 21
249.7225489388996
 31
0.0
  0
LINE
  5
B377
330
A996
100
AcDbEntity
  8
10100_FRONT_DIM
  6
Continuous
 62
     0
370
    -2
100
AcDbLine
 10
40.19883440812996
 20
248.7225489388996
 30
0.0
 11
83.28216774146332
 21
248.7225489388996
 31
0.0
  0
LINE
  5
B378
330
A996
100
AcDbEntity
  8
10100_FRONT_DIM
  6
Continuous
 62
     0
370
    -2
100
AcDbLine
 10
139.19883440813
 20
248.7225489388996
 30
0.0
 11
96.1155010747967
 21
248.7225489388996
 31
0.0
  0
SOLID
  5
B379
330
A996
100
AcDbEntity
  8
10100_FRONT_DIM
  6
Continuous
 62
     0
100
AcDbTrace
 10
40.19883440812996
 20
249.2225489388996
 30
0.0
 11
40.19883440812996
 21
248.2225489388996
 31
0.0
 12
37.19883440812998
 22
248.7225489388996
 32
0.0
 13
37.19883440812998
 23
248.7225489388996
 33
0.0
  0
SOLID
  5
B37A
330
A996
100
AcDbEntity
  8
10100_FRONT_DIM
  6
Continuous
 62
     0
100
AcDbTrace
 10
139.19883440813
 20
249.2225489388996
 30
0.0
 11
139.19883440813
 21
248.2225489388996
 31
0.0
 12
142.19883440813
 22
248.7225489388996
 32
0.0
 13
142.19883440813
 23
248.7225489388996
 33
0.0
  0
MTEXT
  5
B37B
330
A996
100
AcDbEntity
  8
10100_FRONT_DIM
  6
Continuous
 62
     0
370
    13
100
AcDbMText
 10
89.69883440812997
 20
248.7225489388996
 30
0.0
 40
5.0
 41
0.0
 71
     5
 72
     1
  1
\A1;105
 73
     1
 44
1.0
1001
ACAD
1000
MTEXTBEGIN
1070
    73
1070
     1
1070
    44
1040
1.0
1070
    74
1070
     0
1000
MTEXTEND
  0
POINT
  5
B37C
330
A996
100
AcDbEntity
  8
Defpoints
  6
Continuous
 62
     0
100
AcDbPoint
 10
37.19883440812998
 20
233.8341902870539
 30
0.0
  0
POINT
  5
B37D
330
A996
100
AcDbEntity
  8
Defpoints
  6
Continuous
 62
     0
100
AcDbPoint
 10
142.19883440813
 20
233.8341902870539
 30
0.0
  0
POINT
  5
B37E
330
A996
100
AcDbEntity
  8
Defpoints
  6
Continuous
 62
     0
100
AcDbPoint
 10
142.19883440813
 20
248.7225489388996
 30
0.0
  0
ENDBLK
  5
A9A1
330
A996
100
AcDbEntity
  8
0
100
AcDbBlockEnd
  0
BLOCK
  5
A9F1
330
A9E7
100
AcDbEntity
  8
0
100
AcDbBlockBegin
  2
*D9
 70
     1
 10
0.0
 20
0.0
 30
0.0
  3
*D9
  1

  0
LINE
  5
B37F
330
A9E7
100
AcDbEntity
  8
10100_FRONT_DIM
  6
Continuous
 62
     0
370
    -2
100
AcDbLine
 10
40.19883440812996
 20
237.8341902870539
 30
0.0
 11
24.81749642815741
 21
237.8341902870539
 31
0.0
  0
LINE
  5
B380
330
A9E7
100
AcDbEntity
  8
10100_FRONT_DIM
  6
Continuous
 62
     0
370
    -2
100
AcDbLine
 10
40.19883440812999
 20
62.83419028705395
 30
0.0
 11
24.81749642815737
 21
62.83419028705395
 31
0.0
  0
LINE
  5
B381
330
A9E7
100
AcDbEntity
  8
10100_FRONT_DIM
  6
Continuous
 62
     0
370
    -2
100
AcDbLine
 10
25.81749642815741
 20
234.8341902870539
 30
0.0
 11
25.8174964281574
 21
157.1675236203873
 31
0.0
  0
LINE
  5
B382
330
A9E7
100
AcDbEntity
  8
10100_FRONT_DIM
  6
Continuous
 62
     0
370
    -2
100
AcDbLine
 10
25.81749642815737
 20
65.83419028705396
 30
0.0
 11
25.81749642815739
 21
143.5008569537206
 31
0.0
  0
SOLID
  5
B383
330
A9E7
100
AcDbEntity
  8
10100_FRONT_DIM
  6
Continuous
 62
     0
100
AcDbTrace
 10
25.31749642815741
 20
234.8341902870539
 30
0.0
 11
26.31749642815741
 21
234.8341902870539
 31
0.0
 12
25.81749642815741
 22
237.8341902870539
 32
0.0
 13
25.81749642815741
 23
237.8341902870539
 33
0.0
  0
SOLID
  5
B384
330
A9E7
100
AcDbEntity
  8
10100_FRONT_DIM
  6
Continuous
 62
     0
100
AcDbTrace
 10
25.31749642815737
 20
65.83419028705396
 30
0.0
 11
26.31749642815738
 21
65.83419028705396
 31
0.0
 12
25.81749642815737
 22
62.83419028705395
 32
0.0
 13
25.81749642815737
 23
62.83419028705395
 33
0.0
  0
MTEXT
  5
B385
330
A9E7
100
AcDbEntity
  8
10100_FRONT_DIM
  6
Continuous
 62
     0
370
    13
100
AcDbMText
 10
25.81749642815737
 20
150.3341902870539
 30
0.0
 40
5.0
 41
0.0
 71
     5
 72
     1
  1
\A1;175
 11
0.0000000000000001
 21
1.0
 31
0.0
 73
     1
 44
1.0
1001
ACAD
1000
MTEXTBEGIN
1070
    73
1070
     1
1070
    44
1040
1.0
1070
    74
1070
     0
1000
MTEXTEND
  0
POINT
  5
B386
330
A9E7
100
AcDbEntity
  8
Defpoints
  6
Continuous
 62
     0
100
AcDbPoint
 10
41.19883440812997
 20
237.8341902870539
 30
0.0
  0
POINT
  5
B387
330
A9E7
100
AcDbEntity
  8
Defpoints
  6
Continuous
 62
     0
100
AcDbPoint
 10
41.19883440812999
 20
62.83419028705395
 30
0.0
  0
POINT
  5
B388
330
A9E7
100
AcDbEntity
  8
Defpoints
  6
Continuous
 62
     0
100
AcDbPoint
 10
25.81749642815737
 20
62.83419028705395
 30
0.0
  0
ENDBLK
  5
A9F2
330
A9E7
100
AcDbEntity
  8
0
100
AcDbBlockEnd
  0
BLOCK
  5
B08D
330
B083
100
AcDbEntity
  8
0
100
AcDbBlockBegin
  2
*D10
 70
     1
 10
0.0
 20
0.0
 30
0.0
  3
*D10
  1

  0
LINE
  5
B3A8
330
B083
100
AcDbEntity
  8
11100_LEFT_DIM
  6
Continuous
 62
     0
370
    -2
100
AcDbLine
 10
277.2784845659466
 20
234.411190287054
 30
0.0
 11
277.2784845659466
 21
255.7379337658866
 31
0.0
  0
LINE
  5
B3A9
330
B083
100
AcDbEntity
  8
11100_LEFT_DIM
  6
Continuous
 62
     0
370
    -2
100
AcDbLine
 10
296.577267047842
 20
141.9466987606772
 30
0.0
 11
296.577267047842
 21
255.7379337658866
 31
0.0
  0
LINE
  5
B3AA
330
B083
100
AcDbEntity
  8
11100_LEFT_DIM
  6
Continuous
 62
     0
370
    -2
100
AcDbLine
 10
280.2784845659466
 20
254.7379337658866
 30
0.0
 11
282.594542473561
 21
254.7379337658866
 31
0.0
  0
LINE
  5
B3AB
330
B083
100
AcDbEntity
  8
11100_LEFT_DIM
  6
Continuous
 62
     0
370
    -2
100
AcDbLine
 10
293.577267047842
 20
254.7379337658866
 30
0.0
 11
291.2612091402276
 21
254.7379337658866
 31
0.0
  0
SOLID
  5
B3AC
330
B083
100
AcDbEntity
  8
11100_LEFT_DIM
  6
Continuous
 62
     0
100
AcDbTrace
 10
280.2784845659466
 20
255.2379337658866
 30
0.0
 11
280.2784845659466
 21
254.2379337658866
 31
0.0
 12
277.2784845659466
 22
254.7379337658866
 32
0.0
 13
277.2784845659466
 23
254.7379337658866
 33
0.0
  0
SOLID
  5
B3AD
330
B083
100
AcDbEntity
  8
11100_LEFT_DIM
  6
Continuous
 62
     0
100
AcDbTrace
 10
293.577267047842
 20
255.2379337658866
 30
0.0
 11
293.577267047842
 21
254.2379337658866
 31
0.0
 12
296.577267047842
 22
254.7379337658866
 32
0.0
 13
296.577267047842
 23
254.7379337658866
 33
0.0
  0
MTEXT
  5
B3AE
330
B083
100
AcDbEntity
  8
11100_LEFT_DIM
  6
Continuous
 62
     0
370
    13
100
AcDbMText
 10
286.9278758068943
 20
254.7379337658866
 30
0.0
 40
5.0
 41
0.0
 71
     5
 72
     1
  1
\A1;19
 73
     1
 44
1.0
1001
ACAD
1000
MTEXTBEGIN
1070
    73
1070
     1
1070
    44
1040
1.0
1070
    74
1070
     0
1000
MTEXTEND
  0
POINT
  5
B3AF
330
B083
100
AcDbEntity
  8
Defpoints
  6
Continuous
 62
     0
100
AcDbPoint
 10
277.2784845659466
 20
233.411190287054
 30
0.0
  0
POINT
  5
B3B0
330
B083
100
AcDbEntity
  8
Defpoints
  6
Continuous
 62
     0
100
AcDbPoint
 10
296.577267047842
 20
140.9466987606772
 30
0.0
  0
POINT
  5
B3B1
330
B083
100
AcDbEntity
  8
Defpoints
  6
Continuous
 62
     0
100
AcDbPoint
 10
296.577267047842
 20
254.7379337658866
 30
0.0
  0
ENDBLK
  5
B08E
330
B083
100
AcDbEntity
  8
0
100
AcDbBlockEnd
  0
ENDSEC
  0
SECTION
  2
ENTITIES
  0
INSERT
  5
AA
330
20
100
AcDbEntity
  8
90000_FRAME
  6
Continuous
 62
     7
100
AcDbBlockReference
  2
SIEMENS_OUTLINE_BL0
 10
0.0
 20
0.0
 30
0.0
  0
LINE
  5
AB
330
20
100
AcDbEntity
  8
90000_FRAME
  6
Continuous
 62
     7
100
AcDbLine
 10
275.0
 20
10.0
 30
0.0
 11
410.0
 21
10.0
 31
0.0
  0
LINE
  5
AC
330
20
100
AcDbEntity
  8
90000_FRAME
  6
Continuous
 62
     7
100
AcDbLine
 10
275.0
 20
10.0
 30
0.0
 11
275.0
 21
28.0
 31
0.0
  0
LINE
  5
AD
330
20
100
AcDbEntity
  8
90000_FRAME
  6
Continuous
 62
     7
100
AcDbLine
 10
325.0
 20
16.0
 30
0.0
 11
410.0
 21
16.0
 31
0.0
  0
LINE
  5
AE
330
20
100
AcDbEntity
  8
90000_FRAME
  6
Continuous
 62
     7
100
AcDbLine
 10
275.0
 20
28.0
 30
0.0
 11
410.0
 21
28.0
 31
0.0
  0
LINE
  5
AF
330
20
100
AcDbEntity
  8
90000_FRAME
  6
Continuous
 62
     7
100
AcDbLine
 10
325.0
 20
10.0
 30
0.0
 11
325.0
 21
28.0
 31
0.0
  0
LINE
  5
B0
330
20
100
AcDbEntity
  8
90000_FRAME
  6
Continuous
 62
     7
100
AcDbLine
 10
367.5
 20
10.0
 30
0.0
 11
367.5
 21
16.0
 31
0.0
  0
LINE
  5
B1
330
20
100
AcDbEntity
  8
90000_FRAME
  6
Continuous
 62
     7
100
AcDbLine
 10
410.0
 20
10.0
 30
0.0
 11
410.0
 21
28.0
 31
0.0
  0
TEXT
  5
B2
330
20
100
AcDbEntity
  8
90000_FRAME
  6
Continuous
 62
     7
100
AcDbText
 10
325.66
 20
11.9
 30
0.0
 40
2.2
  1
Format / Size: DIN A3
 41
0.7994987468660281
 72
     5
 11
359.079047619
 21
11.9
 31
0.0
100
AcDbText
  0
TEXT
  5
B3
330
20
100
AcDbEntity
  8
90000_FRAME
  6
Continuous
 62
     7
100
AcDbText
 10
368.16
 20
11.9
 30
0.0
 40
2.2
  1
Massstab / Scale: 1:1
 41
0.7732634338148471
 72
     5
 11
399.0647619048001
 21
11.9
 31
0.0
100
AcDbText
  0
LINE
  5
20F5
330
20
100
AcDbEntity
  8
91000_TIP
  6
Continuous
 62
     7
100
AcDbLine
 10
249.8146701040259
 20
21.32373752237061
 30
0.0
 11
259.814669899826
 21
23.82373747137058
 31
0.0
  0
LINE
  5
20F6
330
20
100
AcDbEntity
  8
91000_TIP
  6
CENTER
 62
     7
100
AcDbLine
 10
248.5351596320249
 20
18.82373757347062
 30
0.0
 11
272.1371488961249
 21
18.82373757347062
 31
0.0
  0
LINE
  5
20F7
330
20
100
AcDbEntity
  8
91000_TIP
  6
Continuous
 62
     7
100
AcDbLine
 10
249.8146701040259
 20
16.32373762457058
 30
0.0
 11
259.814669899826
 21
13.8237376755705
 31
0.0
  0
LINE
  5
20F8
330
20
100
AcDbEntity
  8
91000_TIP
  6
Continuous
 62
     7
100
AcDbLine
 10
249.8146701040259
 20
21.32373752237061
 30
0.0
 11
249.8146701040259
 21
16.32373762457058
 31
0.0
  0
LINE
  5
20F9
330
20
100
AcDbEntity
  8
91000_TIP
  6
Continuous
 62
     7
100
AcDbLine
 10
259.814669899826
 20
23.82373747137058
 30
0.0
 11
259.814669899826
 21
13.8237376755705
 31
0.0
  0
LINE
  5
20FA
330
20
100
AcDbEntity
  8
91000_TIP
  6
CENTER
 62
     7
100
AcDbLine
 10
266.3146697670259
 20
13.10225636707057
 30
0.0
 11
266.3146697670259
 21
24.38564236707057
 31
0.0
  0
CIRCLE
  5
20FB
330
20
100
AcDbEntity
  8
91000_TIP
  6
Continuous
 62
     7
100
AcDbCircle
 10
266.3146697670259
 20
18.82373757347062
 30
0.0
 40
4.9999998979
  0
CIRCLE
  5
20FC
330
20
100
AcDbEntity
  8
91000_TIP
  6
Continuous
 62
     7
100
AcDbCircle
 10
266.3146697670259
 20
18.82373757347062
 30
0.0
 40
2.499999948899997
  0
TEXT
  5
2196
330
20
100
AcDbEntity
  8
90000_FRAME
  6
Continuous
 62
     7
100
AcDbText
 10
338.3059245239508
 20
20.25
 30
0.0
 40
3.5
  1
3RV192__00000189_000_ALL
 41
0.7261321223270524
 72
     5
 11
394.2180979431339
 21
20.25
 31
0.0
100
AcDbText
  0
LINE
  5
633F
330
20
100
AcDbEntity
  8
90000_FRAME
  6
Continuous
 62
     7
100
AcDbLine
 10
420.0000000000008
 20
0.0
 30
0.0
 11
420.0000000000008
 21
270.0
 31
0.0
  0
LINE
  5
6340
330
20
100
AcDbEntity
  8
90000_FRAME
  6
Continuous
 62
     7
100
AcDbLine
 10
10.00000000000085
 20
0.0
 30
0.0
 11
420.0000000000008
 21
0.0
 31
0.0
  0
LINE
  5
6343
330
20
100
AcDbEntity
  8
90000_FRAME
  6
Continuous
 62
     7
100
AcDbLine
 10
410.0
 20
10.0
 30
0.0
 11
410.0
 21
28.0
 31
0.0
  0
TEXT
  5
634B
330
20
100
AcDbEntity
  8
91000_TIP
  6
Continuous
 62
     7
100
AcDbText
 10
14.05334978266475
 20
3.482236621676662
 30
0.0
 40
2.5
  1
All dimensions are in millimeters (mm).
 41
0.7513350295680246
 72
     5
 11
74.16015214810676
 21
3.482236621676662
 31
0.0
100
AcDbText
  0
TEXT
  5
634C
330
20
100
AcDbEntity
  8
91000_TIP
  6
Continuous
 62
     7
100
AcDbText
 10
14.05334978266475
 20
8.732236621676605
 30
0.0
 40
2.5
  1
Alle Bemassungswerte sind in Millimeter (mm) angegeben.
 41
0.6056311217924569
 72
     5
 11
87.73846960074704
 21
8.732236621676605
 31
0.0
100
AcDbText
  0
LINE
  5
7BAE
330
20
100
AcDbEntity
  8
90000_FRAME
  6
Continuous
 62
     7
100
AcDbLine
 10
10.00000000000085
 20
0.0
 30
0.0
 11
10.00000000000085
 21
270.0
 31
0.0
  0
LINE
  5
7BAF
330
20
100
AcDbEntity
  8
90000_FRAME
  6
Continuous
 62
     7
100
AcDbLine
 10
10.00000000000085
 20
270.0
 30
0.0
 11
420.0000000000008
 21
270.0
 31
0.0
  0
LINE
  5
A5E0
330
20
100
AcDbEntity
  8
10000_FRONT
  6
Continuous
370
    50
100
AcDbLine
 39
0.5
 10
37.19883440812998
 20
233.8341902870539
 30
0.0
 11
37.19883440812998
 21
66.83419028705396
 31
0.0
1001
AUSTER_ANSICHT
1002
{
1000
Det03
1002
}
1001
AUSTER_FOLIE
1002
{
1000
NSB00038_ISO_EINBAUGEH_S00
1002
}
  0
LINE
  5
A5E1
330
20
100
AcDbEntity
  8
10000_FRONT
  6
Continuous
370
    50
100
AcDbLine
 39
0.5
 10
142.19883440813
 20
66.83419028705396
 30
0.0
 11
142.19883440813
 21
233.8341902870539
 31
0.0
1001
AUSTER_ANSICHT
1002
{
1000
Det03
1002
}
1001
AUSTER_FOLIE
1002
{
1000
NSB00038_ISO_EINBAUGEH_S00
1002
}
  0
LINE
  5
A5E2
330
20
100
AcDbEntity
  8
11000_Left
  6
Continuous
370
    20
100
AcDbLine
 39
0.25
 10
270.7784845659466
 20
67.126190287054
 30
0.0
 11
270.7784845659466
 21
234.126190287054
 31
0.0
1001
AUSTER_ANSICHT
1002
{
1000
Det03
1002
}
1001
AUSTER_FOLIE
1002
{
1000
NSB00038_ISO_EINBAUGEH_S00
1002
}
  0
LINE
  5
A5E3
330
20
100
AcDbEntity
  8
11000_Left
  6
Continuous
370
    50
100
AcDbLine
 39
0.5
 10
265.2784845659466
 20
63.12619028705396
 30
0.0
 11
265.2784845659466
 21
238.126190287054
 31
0.0
1001
AUSTER_ANSICHT
1002
{
1000
Det03
1002
}
1001
AUSTER_FOLIE
1002
{
1000
NSB00040_ISO_EINBAU_S0
1000
NSB00038_ISO_EINBAUGEH_S00
1002
}
  0
LINE
  5
A5E4
330
20
100
AcDbEntity
  8
11000_Left
  6
Continuous
370
    50
100
AcDbLine
 39
0.5
 10
277.2784845659466
 20
67.84119028705402
 30
0.0
 11
277.2784845659466
 21
135.9261902870539
 31
0.0
1001
AUSTER_ANSICHT
1002
{
1000
Det03
1002
}
1001
AUSTER_FOLIE
1002
{
1000
NSB00038_ISO_EINBAUGEH_S00
1002
}
  0
LINE
  5
A5E5
330
20
100
AcDbEntity
  8
11000_Left
  6
Continuous
370
    50
100
AcDbLine
 39
0.5
 10
169.2784845659466
 20
225.626190287054
 30
0.0
 11
169.2784845659466
 21
75.62619028705398
 31
0.0
1001
AUSTER_ANSICHT
1002
{
1000
Det03
1002
}
1001
AUSTER_FOLIE
1002
{
1000
NSB00038_ISO_EINBAUGEH_S00
1002
}
  0
LINE
  5
A5E8
330
20
100
AcDbEntity
  8
11000_Left
  6
Continuous
370
    50
100
AcDbLine
 39
0.5
 10
265.2784845659466
 20
63.12619028705396
 30
0.0
 11
265.2784845659466
 21
238.126190287054
 31
0.0
1001
AUSTER_ANSICHT
1002
{
1000
Det03
1002
}
1001
AUSTER_FOLIE
1002
{
1000
NSB00040_ISO_EINBAU_S0
1000
NSB00038_ISO_EINBAUGEH_S00
1002
}
  0
LINE
  5
A5E9
330
20
100
AcDbEntity
  8
10000_FRONT
  6
Continuous
370
    50
100
AcDbLine
 39
0.5
 10
41.19883440812997
 20
62.83419028705395
 30
0.0
 11
138.19883440813
 21
62.83419028705395
 31
0.0
1001
AUSTER_ANSICHT
1002
{
1000
Det03
1002
}
1001
AUSTER_FOLIE
1002
{
1000
NSB00038_ISO_EINBAUGEH_S00
1002
}
  0
LINE
  5
A5EA
330
20
100
AcDbEntity
  8
10000_FRONT
  6
Continuous
370
    50
100
AcDbLine
 39
0.25
 10
125.06383440813
 20
98.54519028705393
 30
0.0
 11
130.62783440813
 21
92.90719028705401
 31
0.0
1001
AUSTER_ANSICHT
1002
{
1000
Det03
1002
}
1001
AUSTER_FOLIE
1002
{
1000
NSB00038_ISO_EINBAUGEH_S00
1002
}
  0
LINE
  5
A5EB
330
20
100
AcDbEntity
  8
10000_FRONT
  6
Continuous
370
    50
100
AcDbLine
 39
0.25
 10
124.2158344081299
 20
97.69019028705395
 30
0.0
 11
129.83083440813
 21
92.121190287054
 31
0.0
1001
AUSTER_ANSICHT
1002
{
1000
Det03
1002
}
1001
AUSTER_FOLIE
1002
{
1000
NSB00038_ISO_EINBAUGEH_S00
1002
}
  0
LINE
  5
A5EC
330
20
100
AcDbEntity
  8
10000_FRONT
  6
Continuous
370
    50
100
AcDbLine
 39
0.25
 10
48.71583440813004
 20
97.69019028705395
 30
0.0
 11
54.33083440813003
 21
92.121190287054
 31
0.0
1001
AUSTER_ANSICHT
1002
{
1000
Det03
1002
}
1001
AUSTER_FOLIE
1002
{
1000
NSB00038_ISO_EINBAUGEH_S00
1002
}
  0
LINE
  5
A5ED
330
20
100
AcDbEntity
  8
10000_FRONT
  6
Continuous
370
    50
100
AcDbLine
 39
0.25
 10
49.56383440812999
 20
98.54519028705393
 30
0.0
 11
55.12783440812995
 21
92.90719028705401
 31
0.0
1001
AUSTER_ANSICHT
1002
{
1000
Det03
1002
}
1001
AUSTER_FOLIE
1002
{
1000
NSB00038_ISO_EINBAUGEH_S00
1002
}
  0
LINE
  5
A5EE
330
20
100
AcDbEntity
  8
10000_FRONT
  6
Continuous
370
    13
100
AcDbLine
 39
0.25
 10
97.27683440813002
 20
93.89419028705395
 30
0.0
 11
97.27683440813002
 21
94.49419028705392
 31
0.0
1001
AUSTER_ANSICHT
1002
{
1000
Det03
1002
}
1001
AUSTER_FOLIE
1002
{
1000
NSB00038_ISO_EINBAUGEH_S00
1002
}
  0
LINE
  5
A5EF
330
20
100
AcDbEntity
  8
10000_FRONT
  6
Continuous
370
    13
100
AcDbLine
 39
0.25
 10
82.65183440813002
 20
96.83419028705394
 30
0.0
 11
82.65183440813002
 21
93.83419028705395
 31
0.0
1001
AUSTER_ANSICHT
1002
{
1000
Det03
1002
}
1001
AUSTER_FOLIE
1002
{
1000
NSB00038_ISO_EINBAUGEH_S00
1002
}
  0
LINE
  5
A5F0
330
20
100
AcDbEntity
  8
10000_FRONT
  6
Continuous
370
    13
100
AcDbLine
 39
0.25
 10
83.55183440812998
 20
96.83419028705394
 30
0.0
 11
83.55183440812998
 21
93.83419028705395
 31
0.0
1001
AUSTER_ANSICHT
1002
{
1000
Det03
1002
}
1001
AUSTER_FOLIE
1002
{
1000
NSB00038_ISO_EINBAUGEH_S00
1002
}
  0
LINE
  5
A5F1
330
20
100
AcDbEntity
  8
10000_FRONT
  6
Continuous
370
    13
100
AcDbLine
 39
0.25
 10
82.65183440813002
 20
93.83419028705395
 30
0.0
 11
83.55183440812998
 21
93.83419028705395
 31
0.0
1001
AUSTER_ANSICHT
1002
{
1000
Det03
1002
}
1001
AUSTER_FOLIE
1002
{
1000
NSB00038_ISO_EINBAUGEH_S00
1002
}
  0
LINE
  5
A5F2
330
20
100
AcDbEntity
  8
10000_FRONT
  6
Continuous
370
    13
100
AcDbLine
 39
0.25
 10
82.65183440813002
 20
96.83419028705394
 30
0.0
 11
83.55183440812998
 21
96.83419028705394
 31
0.0
1001
AUSTER_ANSICHT
1002
{
1000
Det03
1002
}
1001
AUSTER_FOLIE
1002
{
1000
NSB00038_ISO_EINBAUGEH_S00
1002
}
  0
LINE
  5
A5F3
330
20
100
AcDbEntity
  8
10000_FRONT
  6
Continuous
370
    13
100
AcDbLine
 39
0.25
 10
84.24183440812999
 20
96.83419028705394
 30
0.0
 11
84.24183440812999
 21
93.83419028705395
 31
0.0
1001
AUSTER_ANSICHT
1002
{
1000
Det03
1002
}
1001
AUSTER_FOLIE
1002
{
1000
NSB00038_ISO_EINBAUGEH_S00
1002
}
  0
LINE
  5
A5F4
330
20
100
AcDbEntity
  8
10000_FRONT
  6
Continuous
370
    13
100
AcDbLine
 39
0.25
 10
84.24183440812999
 20
93.83419028705395
 30
0.0
 11
86.49183440812997
 21
93.83419028705395
 31
0.0
1001
AUSTER_ANSICHT
1002
{
1000
Det03
1002
}
1001
AUSTER_FOLIE
1002
{
1000
NSB00038_ISO_EINBAUGEH_S00
1002
}
  0
LINE
  5
A5F5
330
20
100
AcDbEntity
  8
10000_FRONT
  6
Continuous
370
    13
100
AcDbLine
 39
0.25
 10
86.49183440812997
 20
94.40419028705395
 30
0.0
 11
85.11183440812999
 21
94.40419028705395
 31
0.0
1001
AUSTER_ANSICHT
1002
{
1000
Det03
1002
}
1001
AUSTER_FOLIE
1002
{
1000
NSB00038_ISO_EINBAUGEH_S00
1002
}
  0
LINE
  5
A5F6
330
20
100
AcDbEntity
  8
10000_FRONT
  6
Continuous
370
    13
100
AcDbLine
 39
0.25
 10
86.49183440812997
 20
94.40419028705395
 30
0.0
 11
86.49183440812997
 21
93.83419028705395
 31
0.0
1001
AUSTER_ANSICHT
1002
{
1000
Det03
1002
}
1001
AUSTER_FOLIE
1002
{
1000
NSB00038_ISO_EINBAUGEH_S00
1002
}
  0
LINE
  5
A5F7
330
20
100
AcDbEntity
  8
10000_FRONT
  6
Continuous
370
    13
100
AcDbLine
 39
0.25
 10
86.46183440813002
 20
96.83419028705394
 30
0.0
 11
84.24183440812999
 21
96.83419028705394
 31
0.0
1001
AUSTER_ANSICHT
1002
{
1000
Det03
1002
}
1001
AUSTER_FOLIE
1002
{
1000
NSB00038_ISO_EINBAUGEH_S00
1002
}
  0
LINE
  5
A5F8
330
20
100
AcDbEntity
  8
10000_FRONT
  6
Continuous
370
    13
100
AcDbLine
 39
0.25
 10
86.46183440813002
 20
96.27919028705395
 30
0.0
 11
85.11183440812999
 21
96.27919028705395
 31
0.0
1001
AUSTER_ANSICHT
1002
{
1000
Det03
1002
}
1001
AUSTER_FOLIE
1002
{
1000
NSB00038_ISO_EINBAUGEH_S00
1002
}
  0
LINE
  5
A5F9
330
20
100
AcDbEntity
  8
10000_FRONT
  6
Continuous
370
    13
100
AcDbLine
 39
0.25
 10
86.46183440813002
 20
96.83419028705394
 30
0.0
 11
86.46183440813002
 21
96.27919028705395
 31
0.0
1001
AUSTER_ANSICHT
1002
{
1000
Det03
1002
}
1001
AUSTER_FOLIE
1002
{
1000
NSB00038_ISO_EINBAUGEH_S00
1002
}
  0
LINE
  5
A5FA
330
20
100
AcDbEntity
  8
10000_FRONT
  6
Continuous
370
    13
100
AcDbLine
 39
0.25
 10
86.28183440813002
 20
95.10919028705393
 30
0.0
 11
85.11183440812999
 21
95.10919028705393
 31
0.0
1001
AUSTER_ANSICHT
1002
{
1000
Det03
1002
}
1001
AUSTER_FOLIE
1002
{
1000
NSB00038_ISO_EINBAUGEH_S00
1002
}
  0
LINE
  5
A5FB
330
20
100
AcDbEntity
  8
10000_FRONT
  6
Continuous
370
    13
100
AcDbLine
 39
0.25
 10
86.28183440813002
 20
95.60419028705393
 30
0.0
 11
86.28183440813002
 21
95.10919028705393
 31
0.0
1001
AUSTER_ANSICHT
1002
{
1000
Det03
1002
}
1001
AUSTER_FOLIE
1002
{
1000
NSB00038_ISO_EINBAUGEH_S00
1002
}
  0
LINE
  5
A5FC
330
20
100
AcDbEntity
  8
10000_FRONT
  6
Continuous
370
    13
100
AcDbLine
 39
0.25
 10
86.28183440813002
 20
95.60419028705393
 30
0.0
 11
85.11183440812999
 21
95.60419028705393
 31
0.0
1001
AUSTER_ANSICHT
1002
{
1000
Det03
1002
}
1001
AUSTER_FOLIE
1002
{
1000
NSB00038_ISO_EINBAUGEH_S00
1002
}
  0
LINE
  5
A5FD
330
20
100
AcDbEntity
  8
10000_FRONT
  6
Continuous
370
    13
100
AcDbLine
 39
0.25
 10
85.11183440812999
 20
96.27919028705395
 30
0.0
 11
85.11183440812999
 21
95.60419028705393
 31
0.0
1001
AUSTER_ANSICHT
1002
{
1000
Det03
1002
}
1001
AUSTER_FOLIE
1002
{
1000
NSB00038_ISO_EINBAUGEH_S00
1002
}
  0
LINE
  5
A5FE
330
20
100
AcDbEntity
  8
10000_FRONT
  6
Continuous
370
    13
100
AcDbLine
 39
0.25
 10
85.11183440812999
 20
95.10919028705393
 30
0.0
 11
85.11183440812999
 21
94.40419028705395
 31
0.0
1001
AUSTER_ANSICHT
1002
{
1000
Det03
1002
}
1001
AUSTER_FOLIE
1002
{
1000
NSB00038_ISO_EINBAUGEH_S00
1002
}
  0
LINE
  5
A5FF
330
20
100
AcDbEntity
  8
10000_FRONT
  6
Continuous
370
    13
100
AcDbLine
 39
0.25
 10
87.00183440812997
 20
93.83419028705395
 30
0.0
 11
87.00183440812997
 21
96.83419028705394
 31
0.0
1001
AUSTER_ANSICHT
1002
{
1000
Det03
1002
}
1001
AUSTER_FOLIE
1002
{
1000
NSB00038_ISO_EINBAUGEH_S00
1002
}
  0
LINE
  5
A600
330
20
100
AcDbEntity
  8
10000_FRONT
  6
Continuous
370
    13
100
AcDbLine
 39
0.25
 10
87.00183440812997
 20
93.83419028705395
 30
0.0
 11
87.60183440812998
 21
93.83419028705395
 31
0.0
1001
AUSTER_ANSICHT
1002
{
1000
Det03
1002
}
1001
AUSTER_FOLIE
1002
{
1000
NSB00038_ISO_EINBAUGEH_S00
1002
}
  0
LINE
  5
A601
330
20
100
AcDbEntity
  8
10000_FRONT
  6
Continuous
370
    13
100
AcDbLine
 39
0.25
 10
90.69183440813004
 20
96.83419028705394
 30
0.0
 11
90.69183440813004
 21
93.83419028705395
 31
0.0
1001
AUSTER_ANSICHT
1002
{
1000
Det03
1002
}
1001
AUSTER_FOLIE
1002
{
1000
NSB00038_ISO_EINBAUGEH_S00
1002
}
  0
LINE
  5
A602
330
20
100
AcDbEntity
  8
10000_FRONT
  6
Continuous
370
    13
100
AcDbLine
 39
0.25
 10
90.69183440813004
 20
93.83419028705395
 30
0.0
 11
89.82183440813003
 21
93.83419028705395
 31
0.0
1001
AUSTER_ANSICHT
1002
{
1000
Det03
1002
}
1001
AUSTER_FOLIE
1002
{
1000
NSB00038_ISO_EINBAUGEH_S00
1002
}
  0
LINE
  5
A603
330
20
100
AcDbEntity
  8
10000_FRONT
  6
Continuous
370
    13
100
AcDbLine
 39
0.25
 10
88.44183440813003
 20
93.80419028705393
 30
0.0
 11
88.98183440812998
 21
93.80419028705393
 31
0.0
1001
AUSTER_ANSICHT
1002
{
1000
Det03
1002
}
1001
AUSTER_FOLIE
1002
{
1000
NSB00038_ISO_EINBAUGEH_S00
1002
}
  0
LINE
  5
A604
330
20
100
AcDbEntity
  8
10000_FRONT
  6
Continuous
370
    13
100
AcDbLine
 39
0.25
 10
88.44183440813003
 20
93.80419028705393
 30
0.0
 11
87.60183440812998
 21
95.75419028705395
 31
0.0
1001
AUSTER_ANSICHT
1002
{
1000
Det03
1002
}
1001
AUSTER_FOLIE
1002
{
1000
NSB00038_ISO_EINBAUGEH_S00
1002
}
  0
LINE
  5
A605
330
20
100
AcDbEntity
  8
10000_FRONT
  6
Continuous
370
    13
100
AcDbLine
 39
0.25
 10
87.60183440812998
 20
93.83419028705395
 30
0.0
 11
87.60183440812998
 21
95.75419028705395
 31
0.0
1001
AUSTER_ANSICHT
1002
{
1000
Det03
1002
}
1001
AUSTER_FOLIE
1002
{
1000
NSB00038_ISO_EINBAUGEH_S00
1002
}
  0
LINE
  5
A606
330
20
100
AcDbEntity
  8
10000_FRONT
  6
Continuous
370
    13
100
AcDbLine
 39
0.25
 10
89.82183440813003
 20
95.78419028705395
 30
0.0
 11
88.98183440812998
 21
93.80419028705393
 31
0.0
1001
AUSTER_ANSICHT
1002
{
1000
Det03
1002
}
1001
AUSTER_FOLIE
1002
{
1000
NSB00038_ISO_EINBAUGEH_S00
1002
}
  0
LINE
  5
A607
330
20
100
AcDbEntity
  8
10000_FRONT
  6
Continuous
370
    13
100
AcDbLine
 39
0.25
 10
88.08183440813001
 20
96.83419028705394
 30
0.0
 11
87.00183440812997
 21
96.83419028705394
 31
0.0
1001
AUSTER_ANSICHT
1002
{
1000
Det03
1002
}
1001
AUSTER_FOLIE
1002
{
1000
NSB00038_ISO_EINBAUGEH_S00
1002
}
  0
LINE
  5
A608
330
20
100
AcDbEntity
  8
10000_FRONT
  6
Continuous
370
    13
100
AcDbLine
 39
0.25
 10
90.69183440813004
 20
96.83419028705394
 30
0.0
 11
89.61183440813
 21
96.83419028705394
 31
0.0
1001
AUSTER_ANSICHT
1002
{
1000
Det03
1002
}
1001
AUSTER_FOLIE
1002
{
1000
NSB00038_ISO_EINBAUGEH_S00
1002
}
  0
LINE
  5
A609
330
20
100
AcDbEntity
  8
10000_FRONT
  6
Continuous
370
    13
100
AcDbLine
 39
0.25
 10
88.08183440813001
 20
96.83419028705394
 30
0.0
 11
88.86183440812997
 21
95.00419028705399
 31
0.0
1001
AUSTER_ANSICHT
1002
{
1000
Det03
1002
}
1001
AUSTER_FOLIE
1002
{
1000
NSB00038_ISO_EINBAUGEH_S00
1002
}
  0
LINE
  5
A60A
330
20
100
AcDbEntity
  8
10000_FRONT
  6
Continuous
370
    13
100
AcDbLine
 39
0.25
 10
89.61183440813
 20
96.83419028705394
 30
0.0
 11
88.86183440812997
 21
95.00419028705399
 31
0.0
1001
AUSTER_ANSICHT
1002
{
1000
Det03
1002
}
1001
AUSTER_FOLIE
1002
{
1000
NSB00038_ISO_EINBAUGEH_S00
1002
}
  0
LINE
  5
A60B
330
20
100
AcDbEntity
  8
10000_FRONT
  6
Continuous
370
    13
100
AcDbLine
 39
0.25
 10
89.82183440813003
 20
95.78419028705395
 30
0.0
 11
89.82183440813003
 21
93.83419028705395
 31
0.0
1001
AUSTER_ANSICHT
1002
{
1000
Det03
1002
}
1001
AUSTER_FOLIE
1002
{
1000
NSB00038_ISO_EINBAUGEH_S00
1002
}
  0
LINE
  5
A60C
330
20
100
AcDbEntity
  8
10000_FRONT
  6
Continuous
370
    13
100
AcDbLine
 39
0.25
 10
91.38183440812998
 20
96.83419028705394
 30
0.0
 11
91.38183440812998
 21
93.83419028705395
 31
0.0
1001
AUSTER_ANSICHT
1002
{
1000
Det03
1002
}
1001
AUSTER_FOLIE
1002
{
1000
NSB00038_ISO_EINBAUGEH_S00
1002
}
  0
LINE
  5
A60D
330
20
100
AcDbEntity
  8
10000_FRONT
  6
Continuous
370
    13
100
AcDbLine
 39
0.25
 10
91.38183440812998
 20
93.83419028705395
 30
0.0
 11
93.63183440812996
 21
93.83419028705395
 31
0.0
1001
AUSTER_ANSICHT
1002
{
1000
Det03
1002
}
1001
AUSTER_FOLIE
1002
{
1000
NSB00038_ISO_EINBAUGEH_S00
1002
}
  0
LINE
  5
A60E
330
20
100
AcDbEntity
  8
10000_FRONT
  6
Continuous
370
    13
100
AcDbLine
 39
0.25
 10
93.63183440812996
 20
94.40419028705395
 30
0.0
 11
92.25183440812998
 21
94.40419028705395
 31
0.0
1001
AUSTER_ANSICHT
1002
{
1000
Det03
1002
}
1001
AUSTER_FOLIE
1002
{
1000
NSB00038_ISO_EINBAUGEH_S00
1002
}
  0
LINE
  5
A60F
330
20
100
AcDbEntity
  8
10000_FRONT
  6
Continuous
370
    13
100
AcDbLine
 39
0.25
 10
93.63183440812996
 20
94.40419028705395
 30
0.0
 11
93.63183440812996
 21
93.83419028705395
 31
0.0
1001
AUSTER_ANSICHT
1002
{
1000
Det03
1002
}
1001
AUSTER_FOLIE
1002
{
1000
NSB00038_ISO_EINBAUGEH_S00
1002
}
  0
LINE
  5
A610
330
20
100
AcDbEntity
  8
10000_FRONT
  6
Continuous
370
    13
100
AcDbLine
 39
0.25
 10
93.60183440813001
 20
96.83419028705394
 30
0.0
 11
91.38183440812998
 21
96.83419028705394
 31
0.0
1001
AUSTER_ANSICHT
1002
{
1000
Det03
1002
}
1001
AUSTER_FOLIE
1002
{
1000
NSB00038_ISO_EINBAUGEH_S00
1002
}
  0
LINE
  5
A611
330
20
100
AcDbEntity
  8
10000_FRONT
  6
Continuous
370
    13
100
AcDbLine
 39
0.25
 10
93.60183440813001
 20
96.27919028705395
 30
0.0
 11
92.25183440812998
 21
96.27919028705395
 31
0.0
1001
AUSTER_ANSICHT
1002
{
1000
Det03
1002
}
1001
AUSTER_FOLIE
1002
{
1000
NSB00038_ISO_EINBAUGEH_S00
1002
}
  0
LINE
  5
A612
330
20
100
AcDbEntity
  8
10000_FRONT
  6
Continuous
370
    13
100
AcDbLine
 39
0.25
 10
93.60183440813001
 20
96.83419028705394
 30
0.0
 11
93.60183440813001
 21
96.27919028705395
 31
0.0
1001
AUSTER_ANSICHT
1002
{
1000
Det03
1002
}
1001
AUSTER_FOLIE
1002
{
1000
NSB00038_ISO_EINBAUGEH_S00
1002
}
  0
LINE
  5
A613
330
20
100
AcDbEntity
  8
10000_FRONT
  6
Continuous
370
    13
100
AcDbLine
 39
0.25
 10
93.42183440813
 20
95.10919028705393
 30
0.0
 11
92.25183440812998
 21
95.10919028705393
 31
0.0
1001
AUSTER_ANSICHT
1002
{
1000
Det03
1002
}
1001
AUSTER_FOLIE
1002
{
1000
NSB00038_ISO_EINBAUGEH_S00
1002
}
  0
LINE
  5
A614
330
20
100
AcDbEntity
  8
10000_FRONT
  6
Continuous
370
    13
100
AcDbLine
 39
0.25
 10
93.42183440813
 20
95.60419028705393
 30
0.0
 11
93.42183440813
 21
95.10919028705393
 31
0.0
1001
AUSTER_ANSICHT
1002
{
1000
Det03
1002
}
1001
AUSTER_FOLIE
1002
{
1000
NSB00038_ISO_EINBAUGEH_S00
1002
}
  0
LINE
  5
A615
330
20
100
AcDbEntity
  8
10000_FRONT
  6
Continuous
370
    13
100
AcDbLine
 39
0.25
 10
93.42183440813
 20
95.60419028705393
 30
0.0
 11
92.25183440812998
 21
95.60419028705393
 31
0.0
1001
AUSTER_ANSICHT
1002
{
1000
Det03
1002
}
1001
AUSTER_FOLIE
1002
{
1000
NSB00038_ISO_EINBAUGEH_S00
1002
}
  0
LINE
  5
A616
330
20
100
AcDbEntity
  8
10000_FRONT
  6
Continuous
370
    13
100
AcDbLine
 39
0.25
 10
92.25183440812998
 20
96.27919028705395
 30
0.0
 11
92.25183440812998
 21
95.60419028705393
 31
0.0
1001
AUSTER_ANSICHT
1002
{
1000
Det03
1002
}
1001
AUSTER_FOLIE
1002
{
1000
NSB00038_ISO_EINBAUGEH_S00
1002
}
  0
LINE
  5
A617
330
20
100
AcDbEntity
  8
10000_FRONT
  6
Continuous
370
    13
100
AcDbLine
 39
0.25
 10
92.25183440812998
 20
95.10919028705393
 30
0.0
 11
92.25183440812998
 21
94.40419028705395
 31
0.0
1001
AUSTER_ANSICHT
1002
{
1000
Det03
1002
}
1001
AUSTER_FOLIE
1002
{
1000
NSB00038_ISO_EINBAUGEH_S00
1002
}
  0
LINE
  5
A618
330
20
100
AcDbEntity
  8
10000_FRONT
  6
Continuous
370
    13
100
AcDbLine
 39
0.25
 10
94.12683440812998
 20
93.83419028705395
 30
0.0
 11
94.12683440812998
 21
96.83419028705394
 31
0.0
1001
AUSTER_ANSICHT
1002
{
1000
Det03
1002
}
1001
AUSTER_FOLIE
1002
{
1000
NSB00038_ISO_EINBAUGEH_S00
1002
}
  0
LINE
  5
A619
330
20
100
AcDbEntity
  8
10000_FRONT
  6
Continuous
370
    13
100
AcDbLine
 39
0.25
 10
96.76683440812995
 20
96.83419028705394
 30
0.0
 11
96.76683440812995
 21
93.83419028705395
 31
0.0
1001
AUSTER_ANSICHT
1002
{
1000
Det03
1002
}
1001
AUSTER_FOLIE
1002
{
1000
NSB00038_ISO_EINBAUGEH_S00
1002
}
  0
LINE
  5
A61A
330
20
100
AcDbEntity
  8
10000_FRONT
  6
Continuous
370
    13
100
AcDbLine
 39
0.25
 10
94.12683440812998
 20
93.83419028705395
 30
0.0
 11
94.72683440813
 21
93.83419028705395
 31
0.0
1001
AUSTER_ANSICHT
1002
{
1000
Det03
1002
}
1001
AUSTER_FOLIE
1002
{
1000
NSB00038_ISO_EINBAUGEH_S00
1002
}
  0
LINE
  5
A61B
330
20
100
AcDbEntity
  8
10000_FRONT
  6
Continuous
370
    13
100
AcDbLine
 39
0.25
 10
96.76683440812995
 20
96.83419028705394
 30
0.0
 11
96.16683440813
 21
96.83419028705394
 31
0.0
1001
AUSTER_ANSICHT
1002
{
1000
Det03
1002
}
1001
AUSTER_FOLIE
1002
{
1000
NSB00038_ISO_EINBAUGEH_S00
1002
}
  0
LINE
  5
A61C
330
20
100
AcDbEntity
  8
10000_FRONT
  6
Continuous
370
    13
100
AcDbLine
 39
0.25
 10
95.10183440812999
 20
96.83419028705394
 30
0.0
 11
94.12683440812998
 21
96.83419028705394
 31
0.0
1001
AUSTER_ANSICHT
1002
{
1000
Det03
1002
}
1001
AUSTER_FOLIE
1002
{
1000
NSB00038_ISO_EINBAUGEH_S00
1002
}
  0
LINE
  5
A61D
330
20
100
AcDbEntity
  8
10000_FRONT
  6
Continuous
370
    13
100
AcDbLine
 39
0.25
 10
96.76683440812995
 20
93.83419028705395
 30
0.0
 11
95.80683440813
 21
93.83419028705395
 31
0.0
1001
AUSTER_ANSICHT
1002
{
1000
Det03
1002
}
1001
AUSTER_FOLIE
1002
{
1000
NSB00038_ISO_EINBAUGEH_S00
1002
}
  0
LINE
  5
A61E
330
20
100
AcDbEntity
  8
10000_FRONT
  6
Continuous
370
    13
100
AcDbLine
 39
0.25
 10
95.80683440813
 20
93.83419028705395
 30
0.0
 11
94.72683440813
 21
95.75419028705395
 31
0.0
1001
AUSTER_ANSICHT
1002
{
1000
Det03
1002
}
1001
AUSTER_FOLIE
1002
{
1000
NSB00038_ISO_EINBAUGEH_S00
1002
}
  0
LINE
  5
A61F
330
20
100
AcDbEntity
  8
10000_FRONT
  6
Continuous
370
    13
100
AcDbLine
 39
0.25
 10
95.10183440812999
 20
96.83419028705394
 30
0.0
 11
96.16683440813
 21
94.97419028705392
 31
0.0
1001
AUSTER_ANSICHT
1002
{
1000
Det03
1002
}
1001
AUSTER_FOLIE
1002
{
1000
NSB00038_ISO_EINBAUGEH_S00
1002
}
  0
LINE
  5
A620
330
20
100
AcDbEntity
  8
10000_FRONT
  6
Continuous
370
    13
100
AcDbLine
 39
0.25
 10
96.16683440813
 20
96.83419028705394
 30
0.0
 11
96.16683440813
 21
94.97419028705392
 31
0.0
1001
AUSTER_ANSICHT
1002
{
1000
Det03
1002
}
1001
AUSTER_FOLIE
1002
{
1000
NSB00038_ISO_EINBAUGEH_S00
1002
}
  0
LINE
  5
A621
330
20
100
AcDbEntity
  8
10000_FRONT
  6
Continuous
370
    13
100
AcDbLine
 39
0.25
 10
94.72683440813
 20
93.83419028705395
 30
0.0
 11
94.72683440813
 21
95.75419028705395
 31
0.0
1001
AUSTER_ANSICHT
1002
{
1000
Det03
1002
}
1001
AUSTER_FOLIE
1002
{
1000
NSB00038_ISO_EINBAUGEH_S00
1002
}
  0
LINE
  5
A622
330
20
100
AcDbEntity
  8
10000_FRONT
  6
Continuous
370
    13
100
AcDbLine
 39
0.25
 10
99.37683440812998
 20
96.20419028705395
 30
0.0
 11
99.37683440812998
 21
96.80419028705394
 31
0.0
1001
AUSTER_ANSICHT
1002
{
1000
Det03
1002
}
1001
AUSTER_FOLIE
1002
{
1000
NSB00038_ISO_EINBAUGEH_S00
1002
}
  0
LINE
  5
A623
330
20
100
AcDbEntity
  8
10000_FRONT
  6
Continuous
370
    13
100
AcDbLine
 39
0.25
 10
79.86183440812999
 20
93.89419028705395
 30
0.0
 11
79.86183440812999
 21
94.49419028705392
 31
0.0
1001
AUSTER_ANSICHT
1002
{
1000
Det03
1002
}
1001
AUSTER_FOLIE
1002
{
1000
NSB00038_ISO_EINBAUGEH_S00
1002
}
  0
LINE
  5
A624
330
20
100
AcDbEntity
  8
10000_FRONT
  6
Continuous
370
    13
100
AcDbLine
 39
0.25
 10
81.96183440813001
 20
96.20419028705395
 30
0.0
 11
81.96183440813001
 21
96.80419028705394
 31
0.0
1001
AUSTER_ANSICHT
1002
{
1000
Det03
1002
}
1001
AUSTER_FOLIE
1002
{
1000
NSB00038_ISO_EINBAUGEH_S00
1002
}
  0
LINE
  5
A625
330
20
100
AcDbEntity
  8
11000_Left
  6
Continuous
370
    50
100
AcDbLine
 39
0.5
 10
171.7784845659466
 20
73.12619028705398
 30
0.0
 11
265.2784845659466
 21
73.12619028705398
 31
0.0
1001
AUSTER_ANSICHT
1002
{
1000
Det03
1002
}
1001
AUSTER_FOLIE
1002
{
1000
NSB00038_ISO_EINBAUGEH_S00
1002
}
  0
LINE
  5
A626
330
20
100
AcDbEntity
  8
11000_Left
  6
Continuous
370
    20
100
AcDbLine
 39
0.25
 10
265.2784845659466
 20
68.12619028705397
 30
0.0
 11
266.7784845659466
 21
68.12619028705397
 31
0.0
1001
AUSTER_ANSICHT
1002
{
1000
Det03
1002
}
1001
AUSTER_FOLIE
1002
{
1000
NSB00038_ISO_EINBAUGEH_S00
1002
}
  0
LINE
  5
A627
330
20
100
AcDbEntity
  8
11000_Left
  6
Continuous
370
    20
100
AcDbLine
 39
0.25
 10
266.7784845659466
 20
68.12619028705397
 30
0.0
 11
267.7784845659466
 21
67.126190287054
 31
0.0
1001
AUSTER_ANSICHT
1002
{
1000
Det03
1002
}
1001
AUSTER_FOLIE
1002
{
1000
NSB00038_ISO_EINBAUGEH_S00
1002
}
  0
LINE
  5
A628
330
20
100
AcDbEntity
  8
11000_Left
  6
Continuous
370
    20
100
AcDbLine
 39
0.25
 10
270.7784845659466
 20
67.126190287054
 30
0.0
 11
267.7784845659466
 21
67.126190287054
 31
0.0
1001
AUSTER_ANSICHT
1002
{
1000
Det03
1002
}
1001
AUSTER_FOLIE
1002
{
1000
NSB00038_ISO_EINBAUGEH_S00
1002
}
  0
LINE
  5
A629
330
20
100
AcDbEntity
  8
11000_Left
  6
Continuous
370
    50
100
AcDbLine
 39
0.5
 10
265.2784845659466
 20
63.12619028705396
 30
0.0
 11
273.6264845659466
 21
63.85719028705397
 31
0.0
1001
AUSTER_ANSICHT
1002
{
1000
Det03
1002
}
1001
AUSTER_FOLIE
1002
{
1000
NSB00038_ISO_EINBAUGEH_S00
1002
}
  0
LINE
  5
A62A
330
20
100
AcDbEntity
  8
11000_Left
  6
Continuous
370
    20
100
AcDbLine
 39
0.25
 10
171.7784845659466
 20
83.62619028705399
 30
0.0
 11
265.2784845659466
 21
83.62619028705399
 31
0.0
1001
AUSTER_ANSICHT
1002
{
1000
Det03
1002
}
1001
AUSTER_FOLIE
1002
{
1000
NSB00038_ISO_EINBAUGEH_S00
1002
}
  0
LINE
  5
A62B
330
20
100
AcDbEntity
  8
11000_Left
  6
Continuous
370
    20
100
AcDbLine
 39
0.25
 10
255.2784845659466
 20
81.12619028705399
 30
0.0
 11
265.2784845659466
 21
81.12619028705399
 31
0.0
1001
AUSTER_ANSICHT
1002
{
1000
Det03
1002
}
1001
AUSTER_FOLIE
1002
{
1000
NSB00038_ISO_EINBAUGEH_S00
1002
}
  0
LINE
  5
A62C
330
20
100
AcDbEntity
  8
11000_Left
  6
Continuous
370
    20
100
AcDbLine
 39
0.25
 10
255.2784845659466
 20
81.12619028705399
 30
0.0
 11
255.2784845659466
 21
79.32619028705396
 31
0.0
1001
AUSTER_ANSICHT
1002
{
1000
Det03
1002
}
1001
AUSTER_FOLIE
1002
{
1000
NSB00038_ISO_EINBAUGEH_S00
1002
}
  0
LINE
  5
A62D
330
20
100
AcDbEntity
  8
11000_Left
  6
Continuous
370
    20
100
AcDbLine
 39
0.25
 10
250.2784845659466
 20
79.32619028705396
 30
0.0
 11
255.2784845659466
 21
79.32619028705396
 31
0.0
1001
AUSTER_ANSICHT
1002
{
1000
Det03
1002
}
1001
AUSTER_FOLIE
1002
{
1000
NSB00038_ISO_EINBAUGEH_S00
1002
}
  0
LINE
  5
A62E
330
20
100
AcDbEntity
  8
11000_Left
  6
Continuous
370
    20
100
AcDbLine
 39
0.25
 10
250.2784845659466
 20
76.52619028705402
 30
0.0
 11
255.2784845659466
 21
76.52619028705402
 31
0.0
1001
AUSTER_ANSICHT
1002
{
1000
Det03
1002
}
1001
AUSTER_FOLIE
1002
{
1000
NSB00038_ISO_EINBAUGEH_S00
1002
}
  0
LINE
  5
A62F
330
20
100
AcDbEntity
  8
11000_Left
  6
Continuous
370
    20
100
AcDbLine
 39
0.25
 10
250.2784845659466
 20
79.32619028705396
 30
0.0
 11
250.2784845659466
 21
76.52619028705402
 31
0.0
1001
AUSTER_ANSICHT
1002
{
1000
Det03
1002
}
1001
AUSTER_FOLIE
1002
{
1000
NSB00038_ISO_EINBAUGEH_S00
1002
}
  0
LINE
  5
A630
330
20
100
AcDbEntity
  8
11000_Left
  6
Continuous
370
    20
100
AcDbLine
 39
0.25
 10
255.2784845659466
 20
76.52619028705402
 30
0.0
 11
255.2784845659466
 21
73.12619028705398
 31
0.0
1001
AUSTER_ANSICHT
1002
{
1000
Det03
1002
}
1001
AUSTER_FOLIE
1002
{
1000
NSB00038_ISO_EINBAUGEH_S00
1002
}
  0
ARC
  5
A631
330
20
100
AcDbEntity
  8
11000_Left
  6
Continuous
370
    50
100
AcDbCircle
 39
0.5
 10
171.7784845659466
 20
75.62619028705398
 30
0.0
 40
2.5
100
AcDbArc
 50
180.0
 51
270.0
1001
AUSTER_ANSICHT
1002
{
1000
Det03
1002
}
1001
AUSTER_FOLIE
1002
{
1000
NSB00038_ISO_EINBAUGEH_S00
1002
}
  0
ARC
  5
A632
330
20
100
AcDbEntity
  8
11000_Left
  6
Continuous
370
    50
100
AcDbCircle
 39
0.5
 10
273.2784845659466
 20
67.84119028705402
 30
0.0
 40
4.0
100
AcDbArc
 50
275.0
 51
0.0
1001
AUSTER_ANSICHT
1002
{
1000
Det03
1002
}
1001
AUSTER_FOLIE
1002
{
1000
NSB00038_ISO_EINBAUGEH_S00
1002
}
  0
ARC
  5
A633
330
20
100
AcDbEntity
  8
11000_Left
  6
Continuous
370
    20
100
AcDbCircle
 39
0.25
 10
171.7784845659466
 20
86.12619028705399
 30
0.0
 40
2.5
100
AcDbArc
 50
180.0
 51
270.0
1001
AUSTER_ANSICHT
1002
{
1000
Det03
1002
}
1001
AUSTER_FOLIE
1002
{
1000
NSB00038_ISO_EINBAUGEH_S00
1002
}
  0
ARC
  5
A634
330
20
100
AcDbEntity
  8
10000_FRONT
  6
Continuous
370
    50
100
AcDbCircle
 39
0.25
 10
51.94883440812997
 20
95.33419028705393
 30
0.0
 40
4.0
100
AcDbArc
 50
270.0
 51
90.0
1001
AUSTER_ANSICHT
1002
{
1000
Det03
1002
}
1001
AUSTER_FOLIE
1002
{
1000
NSB00038_ISO_EINBAUGEH_S00
1002
}
  0
ARC
  5
A635
330
20
100
AcDbEntity
  8
10000_FRONT
  6
Continuous
370
    50
100
AcDbCircle
 39
0.25
 10
51.94883440812997
 20
95.33419028705393
 30
0.0
 40
4.0
100
AcDbArc
 50
90.0
 51
270.0
1001
AUSTER_ANSICHT
1002
{
1000
Det03
1002
}
1001
AUSTER_FOLIE
1002
{
1000
NSB00038_ISO_EINBAUGEH_S00
1002
}
  0
ARC
  5
A636
330
20
100
AcDbEntity
  8
10000_FRONT
  6
Continuous
370
    50
100
AcDbCircle
 39
0.25
 10
127.44883440813
 20
95.33419028705393
 30
0.0
 40
4.0
100
AcDbArc
 50
270.0
 51
90.0
1001
AUSTER_ANSICHT
1002
{
1000
Det03
1002
}
1001
AUSTER_FOLIE
1002
{
1000
NSB00038_ISO_EINBAUGEH_S00
1002
}
  0
ARC
  5
A637
330
20
100
AcDbEntity
  8
10000_FRONT
  6
Continuous
370
    50
100
AcDbCircle
 39
0.25
 10
127.44883440813
 20
95.33419028705393
 30
0.0
 40
4.0
100
AcDbArc
 50
90.0
 51
270.0
1001
AUSTER_ANSICHT
1002
{
1000
Det03
1002
}
1001
AUSTER_FOLIE
1002
{
1000
NSB00038_ISO_EINBAUGEH_S00
1002
}
  0
ARC
  5
A638
330
20
100
AcDbEntity
  8
10000_FRONT
  6
Continuous
370
    13
100
AcDbCircle
 39
0.25
 10
80.93783440813002
 20
95.06919028705395
 30
0.0
 40
0.7020000000000001
100
AcDbArc
 50
277.7099999999997
 51
295.6889999999989
1001
AUSTER_ANSICHT
1002
{
1000
Det03
1002
}
1001
AUSTER_FOLIE
1002
{
1000
NSB00038_ISO_EINBAUGEH_S00
1002
}
  0
ARC
  5
A639
330
20
100
AcDbEntity
  8
10000_FRONT
  6
Continuous
370
    13
100
AcDbCircle
 39
0.25
 10
81.11683440812999
 20
94.611190287054
 30
0.0
 40
0.215
100
AcDbArc
 50
305.503000000001
 51
72.46500000000046
1001
AUSTER_ANSICHT
1002
{
1000
Det03
1002
}
1001
AUSTER_FOLIE
1002
{
1000
NSB00038_ISO_EINBAUGEH_S00
1002
}
  0
ARC
  5
A63A
330
20
100
AcDbEntity
  8
10000_FRONT
  6
Continuous
370
    13
100
AcDbCircle
 39
0.25
 10
80.75983440813002
 20
96.75819028705401
 30
0.0
 40
3.001999999999998
100
AcDbArc
 50
252.5940000000009
 51
280.9819999999997
1001
AUSTER_ANSICHT
1002
{
1000
Det03
1002
}
1001
AUSTER_FOLIE
1002
{
1000
NSB00038_ISO_EINBAUGEH_S00
1002
}
  0
ARC
  5
A63B
330
20
100
AcDbEntity
  8
10000_FRONT
  6
Continuous
370
    13
100
AcDbCircle
 39
0.25
 10
81.04683440812998
 20
95.106190287054
 30
0.0
 40
1.325999999999998
100
AcDbArc
 50
282.4059999999993
 51
311.8639999999989
1001
AUSTER_ANSICHT
1002
{
1000
Det03
1002
}
1001
AUSTER_FOLIE
1002
{
1000
NSB00038_ISO_EINBAUGEH_S00
1002
}
  0
ARC
  5
A63C
330
20
100
AcDbEntity
  8
10000_FRONT
  6
Continuous
370
    13
100
AcDbCircle
 39
0.25
 10
80.87483440813
 20
96.121190287054
 30
0.0
 40
0.191
100
AcDbArc
 50
154.4400000000017
 51
221.8200000000014
1001
AUSTER_ANSICHT
1002
{
1000
Det03
1002
}
1001
AUSTER_FOLIE
1002
{
1000
NSB00038_ISO_EINBAUGEH_S00
1002
}
  0
ARC
  5
A63D
330
20
100
AcDbEntity
  8
10000_FRONT
  6
Continuous
370
    13
100
AcDbCircle
 39
0.25
 10
80.92483440812998
 20
96.07119028705398
 30
0.0
 40
0.259
100
AcDbArc
 50
102.829
 51
149.2259999999998
1001
AUSTER_ANSICHT
1002
{
1000
Det03
1002
}
1001
AUSTER_FOLIE
1002
{
1000
NSB00038_ISO_EINBAUGEH_S00
1002
}
  0
ARC
  5
A63E
330
20
100
AcDbEntity
  8
10000_FRONT
  6
Continuous
370
    13
100
AcDbCircle
 39
0.25
 10
81.18783440813002
 20
94.97119028705403
 30
0.0
 40
1.389999999999999
100
AcDbArc
 50
84.03999999999994
 51
103.3430000000004
1001
AUSTER_ANSICHT
1002
{
1000
Det03
1002
}
1001
AUSTER_FOLIE
1002
{
1000
NSB00038_ISO_EINBAUGEH_S00
1002
}
  0
ARC
  5
A63F
330
20
100
AcDbEntity
  8
10000_FRONT
  6
Continuous
370
    13
100
AcDbCircle
 39
0.25
 10
80.97283440812999
 20
93.44619028705398
 30
0.0
 40
2.93
100
AcDbArc
 50
70.26300000000017
 51
82.95199999999985
1001
AUSTER_ANSICHT
1002
{
1000
Det03
1002
}
1001
AUSTER_FOLIE
1002
{
1000
NSB00038_ISO_EINBAUGEH_S00
1002
}
  0
ARC
  5
A640
330
20
100
AcDbEntity
  8
10000_FRONT
  6
Continuous
370
    13
100
AcDbCircle
 39
0.25
 10
80.64783440813
 20
96.39419028705395
 30
0.0
 40
2.056999999999999
100
AcDbArc
 50
247.529999999999
 51
280.7579999999997
1001
AUSTER_ANSICHT
1002
{
1000
Det03
1002
}
1001
AUSTER_FOLIE
1002
{
1000
NSB00038_ISO_EINBAUGEH_S00
1002
}
  0
ARC
  5
A641
330
20
100
AcDbEntity
  8
10000_FRONT
  6
Continuous
370
    13
100
AcDbCircle
 39
0.25
 10
80.99883440813
 20
96.39919028705392
 30
0.0
 40
1.366999999999999
100
AcDbArc
 50
227.3120000000006
 51
242.704
1001
AUSTER_ANSICHT
1002
{
1000
Det03
1002
}
1001
AUSTER_FOLIE
1002
{
1000
NSB00038_ISO_EINBAUGEH_S00
1002
}
  0
ARC
  5
A642
330
20
100
AcDbEntity
  8
10000_FRONT
  6
Continuous
370
    13
100
AcDbCircle
 39
0.25
 10
80.61783440812995
 20
95.95319028705398
 30
0.0
 40
0.7820000000000002
100
AcDbArc
 50
194.7949999999984
 51
225.7179999999989
1001
AUSTER_ANSICHT
1002
{
1000
Det03
1002
}
1001
AUSTER_FOLIE
1002
{
1000
NSB00038_ISO_EINBAUGEH_S00
1002
}
  0
ARC
  5
A643
330
20
100
AcDbEntity
  8
10000_FRONT
  6
Continuous
370
    13
100
AcDbCircle
 39
0.25
 10
80.65683440813002
 20
95.97919028705392
 30
0.0
 40
0.8259999999999998
100
AcDbArc
 50
164.1980000000001
 51
195.8030000000015
1001
AUSTER_ANSICHT
1002
{
1000
Det03
1002
}
1001
AUSTER_FOLIE
1002
{
1000
NSB00038_ISO_EINBAUGEH_S00
1002
}
  0
ARC
  5
A644
330
20
100
AcDbEntity
  8
10000_FRONT
  6
Continuous
370
    13
100
AcDbCircle
 39
0.25
 10
81.00883440812998
 20
95.41819028705395
 30
0.0
 40
1.493999999999999
100
AcDbArc
 50
86.22200000000004
 51
120.4270000000013
1001
AUSTER_ANSICHT
1002
{
1000
Det03
1002
}
1001
AUSTER_FOLIE
1002
{
1000
NSB00038_ISO_EINBAUGEH_S00
1002
}
  0
ARC
  5
A645
330
20
100
AcDbEntity
  8
10000_FRONT
  6
Continuous
370
    13
100
AcDbCircle
 39
0.25
 10
80.55083440812994
 20
96.046190287054
 30
0.0
 40
0.7070000000000001
100
AcDbArc
 50
142.8140000000009
 51
167.1519999999988
1001
AUSTER_ANSICHT
1002
{
1000
Det03
1002
}
1001
AUSTER_FOLIE
1002
{
1000
NSB00038_ISO_EINBAUGEH_S00
1002
}
  0
ARC
  5
A646
330
20
100
AcDbEntity
  8
10000_FRONT
  6
Continuous
370
    13
100
AcDbCircle
 39
0.25
 10
80.76883440813004
 20
95.85319028705395
 30
0.0
 40
0.998
100
AcDbArc
 50
121.2139999999986
 51
141.526000000001
1001
AUSTER_ANSICHT
1002
{
1000
Det03
1002
}
1001
AUSTER_FOLIE
1002
{
1000
NSB00038_ISO_EINBAUGEH_S00
1002
}
  0
ARC
  5
A647
330
20
100
AcDbEntity
  8
10000_FRONT
  6
Continuous
370
    13
100
AcDbCircle
 39
0.25
 10
81.13283440813004
 20
96.36519028705395
 30
0.0
 40
0.5470000000000002
100
AcDbArc
 50
222.7760000000001
 51
239.0359999999986
1001
AUSTER_ANSICHT
1002
{
1000
Det03
1002
}
1001
AUSTER_FOLIE
1002
{
1000
NSB00038_ISO_EINBAUGEH_S00
1002
}
  0
ARC
  5
A648
330
20
100
AcDbEntity
  8
10000_FRONT
  6
Continuous
370
    13
100
AcDbCircle
 39
0.25
 10
81.70283440812999
 20
97.37219028705396
 30
0.0
 40
1.703
100
AcDbArc
 50
240.0480000000008
 51
251.3779999999994
1001
AUSTER_ANSICHT
1002
{
1000
Det03
1002
}
1001
AUSTER_FOLIE
1002
{
1000
NSB00038_ISO_EINBAUGEH_S00
1002
}
  0
ARC
  5
A649
330
20
100
AcDbEntity
  8
10000_FRONT
  6
Continuous
370
    13
100
AcDbCircle
 39
0.25
 10
81.28283440812998
 20
94.74819028705395
 30
0.0
 40
0.905
100
AcDbArc
 50
315.8909999999992
 51
333.5229999999983
1001
AUSTER_ANSICHT
1002
{
1000
Det03
1002
}
1001
AUSTER_FOLIE
1002
{
1000
NSB00038_ISO_EINBAUGEH_S00
1002
}
  0
ARC
  5
A64A
330
20
100
AcDbEntity
  8
10000_FRONT
  6
Continuous
370
    13
100
AcDbCircle
 39
0.25
 10
81.28483440812997
 20
94.71519028705392
 30
0.0
 40
0.888
100
AcDbArc
 50
335.3869999999994
 51
24.39200000000097
1001
AUSTER_ANSICHT
1002
{
1000
Det03
1002
}
1001
AUSTER_FOLIE
1002
{
1000
NSB00038_ISO_EINBAUGEH_S00
1002
}
  0
ARC
  5
A64B
330
20
100
AcDbEntity
  8
10000_FRONT
  6
Continuous
370
    13
100
AcDbCircle
 39
0.25
 10
81.23983440812997
 20
94.66519028705393
 30
0.0
 40
0.95
100
AcDbArc
 50
25.95600000000094
 51
59.48299999999993
1001
AUSTER_ANSICHT
1002
{
1000
Det03
1002
}
1001
AUSTER_FOLIE
1002
{
1000
NSB00038_ISO_EINBAUGEH_S00
1002
}
  0
ARC
  5
A64C
330
20
100
AcDbEntity
  8
10000_FRONT
  6
Continuous
370
    13
100
AcDbCircle
 39
0.25
 10
98.35283440812998
 20
95.06919028705395
 30
0.0
 40
0.7020000000000001
100
AcDbArc
 50
277.7099999999997
 51
295.6889999999989
1001
AUSTER_ANSICHT
1002
{
1000
Det03
1002
}
1001
AUSTER_FOLIE
1002
{
1000
NSB00038_ISO_EINBAUGEH_S00
1002
}
  0
ARC
  5
A64D
330
20
100
AcDbEntity
  8
10000_FRONT
  6
Continuous
370
    13
100
AcDbCircle
 39
0.25
 10
98.53183440812999
 20
94.611190287054
 30
0.0
 40
0.215
100
AcDbArc
 50
305.503000000001
 51
72.46500000000046
1001
AUSTER_ANSICHT
1002
{
1000
Det03
1002
}
1001
AUSTER_FOLIE
1002
{
1000
NSB00038_ISO_EINBAUGEH_S00
1002
}
  0
ARC
  5
A64E
330
20
100
AcDbEntity
  8
10000_FRONT
  6
Continuous
370
    13
100
AcDbCircle
 39
0.25
 10
98.17483440812999
 20
96.75819028705401
 30
0.0
 40
3.001999999999998
100
AcDbArc
 50
252.5940000000009
 51
280.9819999999997
1001
AUSTER_ANSICHT
1002
{
1000
Det03
1002
}
1001
AUSTER_FOLIE
1002
{
1000
NSB00038_ISO_EINBAUGEH_S00
1002
}
  0
ARC
  5
A64F
330
20
100
AcDbEntity
  8
10000_FRONT
  6
Continuous
370
    13
100
AcDbCircle
 39
0.25
 10
98.46183440813002
 20
95.106190287054
 30
0.0
 40
1.325999999999998
100
AcDbArc
 50
282.4059999999993
 51
311.8639999999989
1001
AUSTER_ANSICHT
1002
{
1000
Det03
1002
}
1001
AUSTER_FOLIE
1002
{
1000
NSB00038_ISO_EINBAUGEH_S00
1002
}
  0
ARC
  5
A650
330
20
100
AcDbEntity
  8
10000_FRONT
  6
Continuous
370
    13
100
AcDbCircle
 39
0.25
 10
98.28983440812999
 20
96.121190287054
 30
0.0
 40
0.191
100
AcDbArc
 50
154.4400000000017
 51
221.8200000000014
1001
AUSTER_ANSICHT
1002
{
1000
Det03
1002
}
1001
AUSTER_FOLIE
1002
{
1000
NSB00038_ISO_EINBAUGEH_S00
1002
}
  0
ARC
  5
A651
330
20
100
AcDbEntity
  8
10000_FRONT
  6
Continuous
370
    13
100
AcDbCircle
 39
0.25
 10
98.33983440813
 20
96.07119028705398
 30
0.0
 40
0.259
100
AcDbArc
 50
102.829
 51
149.2259999999998
1001
AUSTER_ANSICHT
1002
{
1000
Det03
1002
}
1001
AUSTER_FOLIE
1002
{
1000
NSB00038_ISO_EINBAUGEH_S00
1002
}
  0
ARC
  5
A652
330
20
100
AcDbEntity
  8
10000_FRONT
  6
Continuous
370
    13
100
AcDbCircle
 39
0.25
 10
98.60283440812999
 20
94.97119028705403
 30
0.0
 40
1.389999999999999
100
AcDbArc
 50
84.03999999999994
 51
103.3430000000004
1001
AUSTER_ANSICHT
1002
{
1000
Det03
1002
}
1001
AUSTER_FOLIE
1002
{
1000
NSB00038_ISO_EINBAUGEH_S00
1002
}
  0
ARC
  5
A653
330
20
100
AcDbEntity
  8
10000_FRONT
  6
Continuous
370
    13
100
AcDbCircle
 39
0.25
 10
98.38783440813001
 20
93.44619028705398
 30
0.0
 40
2.93
100
AcDbArc
 50
70.26300000000017
 51
82.95199999999985
1001
AUSTER_ANSICHT
1002
{
1000
Det03
1002
}
1001
AUSTER_FOLIE
1002
{
1000
NSB00038_ISO_EINBAUGEH_S00
1002
}
  0
ARC
  5
A654
330
20
100
AcDbEntity
  8
10000_FRONT
  6
Continuous
370
    13
100
AcDbCircle
 39
0.25
 10
98.06283440813002
 20
96.39419028705395
 30
0.0
 40
2.056999999999999
100
AcDbArc
 50
247.529999999999
 51
280.7579999999997
1001
AUSTER_ANSICHT
1002
{
1000
Det03
1002
}
1001
AUSTER_FOLIE
1002
{
1000
NSB00038_ISO_EINBAUGEH_S00
1002
}
  0
ARC
  5
A655
330
20
100
AcDbEntity
  8
10000_FRONT
  6
Continuous
370
    13
100
AcDbCircle
 39
0.25
 10
98.41383440813002
 20
96.39919028705392
 30
0.0
 40
1.366999999999999
100
AcDbArc
 50
227.3120000000006
 51
242.704
1001
AUSTER_ANSICHT
1002
{
1000
Det03
1002
}
1001
AUSTER_FOLIE
1002
{
1000
NSB00038_ISO_EINBAUGEH_S00
1002
}
  0
ARC
  5
A656
330
20
100
AcDbEntity
  8
10000_FRONT
  6
Continuous
370
    13
100
AcDbCircle
 39
0.25
 10
98.03283440812997
 20
95.95319028705398
 30
0.0
 40
0.7820000000000002
100
AcDbArc
 50
194.7949999999984
 51
225.7179999999989
1001
AUSTER_ANSICHT
1002
{
1000
Det03
1002
}
1001
AUSTER_FOLIE
1002
{
1000
NSB00038_ISO_EINBAUGEH_S00
1002
}
  0
ARC
  5
A657
330
20
100
AcDbEntity
  8
10000_FRONT
  6
Continuous
370
    13
100
AcDbCircle
 39
0.25
 10
98.07183440813005
 20
95.97919028705392
 30
0.0
 40
0.8259999999999998
100
AcDbArc
 50
164.1980000000001
 51
195.8030000000015
1001
AUSTER_ANSICHT
1002
{
1000
Det03
1002
}
1001
AUSTER_FOLIE
1002
{
1000
NSB00038_ISO_EINBAUGEH_S00
1002
}
  0
ARC
  5
A658
330
20
100
AcDbEntity
  8
10000_FRONT
  6
Continuous
370
    13
100
AcDbCircle
 39
0.25
 10
98.42383440813
 20
95.41819028705395
 30
0.0
 40
1.493999999999999
100
AcDbArc
 50
86.22200000000004
 51
120.4270000000013
1001
AUSTER_ANSICHT
1002
{
1000
Det03
1002
}
1001
AUSTER_FOLIE
1002
{
1000
NSB00038_ISO_EINBAUGEH_S00
1002
}
  0
ARC
  5
A659
330
20
100
AcDbEntity
  8
10000_FRONT
  6
Continuous
370
    13
100
AcDbCircle
 39
0.25
 10
97.96583440812998
 20
96.046190287054
 30
0.0
 40
0.7070000000000001
100
AcDbArc
 50
142.8140000000009
 51
167.1519999999988
1001
AUSTER_ANSICHT
1002
{
1000
Det03
1002
}
1001
AUSTER_FOLIE
1002
{
1000
NSB00038_ISO_EINBAUGEH_S00
1002
}
  0
ARC
  5
A65A
330
20
100
AcDbEntity
  8
10000_FRONT
  6
Continuous
370
    13
100
AcDbCircle
 39
0.25
 10
98.18383440813001
 20
95.85319028705395
 30
0.0
 40
0.998
100
AcDbArc
 50
121.2139999999986
 51
141.526000000001
1001
AUSTER_ANSICHT
1002
{
1000
Det03
1002
}
1001
AUSTER_FOLIE
1002
{
1000
NSB00038_ISO_EINBAUGEH_S00
1002
}
  0
ARC
  5
A65B
330
20
100
AcDbEntity
  8
10000_FRONT
  6
Continuous
370
    13
100
AcDbCircle
 39
0.25
 10
98.54783440813006
 20
96.36519028705395
 30
0.0
 40
0.5470000000000002
100
AcDbArc
 50
222.7760000000001
 51
239.0359999999986
1001
AUSTER_ANSICHT
1002
{
1000
Det03
1002
}
1001
AUSTER_FOLIE
1002
{
1000
NSB00038_ISO_EINBAUGEH_S00
1002
}
  0
ARC
  5
A65C
330
20
100
AcDbEntity
  8
10000_FRONT
  6
Continuous
370
    13
100
AcDbCircle
 39
0.25
 10
99.11783440812996
 20
97.37219028705396
 30
0.0
 40
1.703
100
AcDbArc
 50
240.0480000000008
 51
251.3779999999994
1001
AUSTER_ANSICHT
1002
{
1000
Det03
1002
}
1001
AUSTER_FOLIE
1002
{
1000
NSB00038_ISO_EINBAUGEH_S00
1002
}
  0
ARC
  5
A65D
330
20
100
AcDbEntity
  8
10000_FRONT
  6
Continuous
370
    13
100
AcDbCircle
 39
0.25
 10
98.69783440813002
 20
94.74819028705395
 30
0.0
 40
0.905
100
AcDbArc
 50
315.8909999999992
 51
333.5229999999983
1001
AUSTER_ANSICHT
1002
{
1000
Det03
1002
}
1001
AUSTER_FOLIE
1002
{
1000
NSB00038_ISO_EINBAUGEH_S00
1002
}
  0
ARC
  5
A65E
330
20
100
AcDbEntity
  8
10000_FRONT
  6
Continuous
370
    13
100
AcDbCircle
 39
0.25
 10
98.69983440813001
 20
94.71519028705392
 30
0.0
 40
0.888
100
AcDbArc
 50
335.3869999999994
 51
24.39200000000097
1001
AUSTER_ANSICHT
1002
{
1000
Det03
1002
}
1001
AUSTER_FOLIE
1002
{
1000
NSB00038_ISO_EINBAUGEH_S00
1002
}
  0
ARC
  5
A65F
330
20
100
AcDbEntity
  8
10000_FRONT
  6
Continuous
370
    13
100
AcDbCircle
 39
0.25
 10
98.65483440813001
 20
94.66519028705393
 30
0.0
 40
0.95
100
AcDbArc
 50
25.95600000000094
 51
59.48299999999993
1001
AUSTER_ANSICHT
1002
{
1000
Det03
1002
}
1001
AUSTER_FOLIE
1002
{
1000
NSB00038_ISO_EINBAUGEH_S00
1002
}
  0
ARC
  5
A660
330
20
100
AcDbEntity
  8
10000_FRONT
  6
Continuous
370
    50
100
AcDbCircle
 39
0.5
 10
41.19883440812997
 20
66.83419028705396
 30
0.0
 40
4.0
100
AcDbArc
 50
180.0
 51
270.0
1001
AUSTER_ANSICHT
1002
{
1000
Det03
1002
}
1001
AUSTER_FOLIE
1002
{
1000
NSB00038_ISO_EINBAUGEH_S00
1002
}
  0
ARC
  5
A661
330
20
100
AcDbEntity
  8
10000_FRONT
  6
Continuous
370
    50
100
AcDbCircle
 39
0.5
 10
138.19883440813
 20
66.83419028705396
 30
0.0
 40
4.0
100
AcDbArc
 50
270.0
 51
0.0
1001
AUSTER_ANSICHT
1002
{
1000
Det03
1002
}
1001
AUSTER_FOLIE
1002
{
1000
NSB00038_ISO_EINBAUGEH_S00
1002
}
  0
ARC
  5
A662
330
20
100
AcDbEntity
  8
10000_FRONT
  6
Continuous
370
    13
100
AcDbCircle
 39
0.25
 10
76.61783440812995
 20
84.87519028705396
 30
0.0
 40
10.939
100
AcDbArc
 50
65.34100000000086
 51
67.39999999999946
1001
AUSTER_ANSICHT
1002
{
1000
Det03
1002
}
1001
AUSTER_FOLIE
1002
{
1000
NSB00038_ISO_EINBAUGEH_S00
1002
}
  0
ARC
  5
A663
330
20
100
AcDbEntity
  8
10000_FRONT
  6
Continuous
370
    13
100
AcDbCircle
 39
0.25
 10
83.43183440812998
 20
101.1541902870539
 30
0.0
 40
6.708999999999997
100
AcDbArc
 50
242.8619999999992
 51
247.1039999999994
1001
AUSTER_ANSICHT
1002
{
1000
Det03
1002
}
1001
AUSTER_FOLIE
1002
{
1000
NSB00038_ISO_EINBAUGEH_S00
1002
}
  0
ARC
  5
A664
330
20
100
AcDbEntity
  8
10000_FRONT
  6
Continuous
370
    13
100
AcDbCircle
 39
0.25
 10
80.83883440812995
 20
91.19219028705392
 30
0.0
 40
5.722999999999997
100
AcDbArc
 50
78.68300000000044
 51
87.31500000000011
1001
AUSTER_ANSICHT
1002
{
1000
Det03
1002
}
1001
AUSTER_FOLIE
1002
{
1000
NSB00038_ISO_EINBAUGEH_S00
1002
}
  0
ARC
  5
A665
330
20
100
AcDbEntity
  8
10000_FRONT
  6
Continuous
370
    13
100
AcDbCircle
 39
0.25
 10
79.55083440812995
 20
91.73819028705395
 30
0.0
 40
4.328999999999997
100
AcDbArc
 50
59.9020000000006
 51
68.20400000000077
1001
AUSTER_ANSICHT
1002
{
1000
Det03
1002
}
1001
AUSTER_FOLIE
1002
{
1000
NSB00038_ISO_EINBAUGEH_S00
1002
}
  0
ARC
  5
A666
330
20
100
AcDbEntity
  8
10000_FRONT
  6
Continuous
370
    13
100
AcDbCircle
 39
0.25
 10
94.03283440812996
 20
84.87519028705396
 30
0.0
 40
10.939
100
AcDbArc
 50
65.34100000000086
 51
67.39999999999946
1001
AUSTER_ANSICHT
1002
{
1000
Det03
1002
}
1001
AUSTER_FOLIE
1002
{
1000
NSB00038_ISO_EINBAUGEH_S00
1002
}
  0
ARC
  5
A667
330
20
100
AcDbEntity
  8
10000_FRONT
  6
Continuous
370
    13
100
AcDbCircle
 39
0.25
 10
100.84683440813
 20
101.1541902870539
 30
0.0
 40
6.708999999999997
100
AcDbArc
 50
242.8619999999992
 51
247.1039999999994
1001
AUSTER_ANSICHT
1002
{
1000
Det03
1002
}
1001
AUSTER_FOLIE
1002
{
1000
NSB00038_ISO_EINBAUGEH_S00
1002
}
  0
ARC
  5
A668
330
20
100
AcDbEntity
  8
10000_FRONT
  6
Continuous
370
    13
100
AcDbCircle
 39
0.25
 10
98.25383440812998
 20
91.19219028705392
 30
0.0
 40
5.722999999999997
100
AcDbArc
 50
78.68300000000044
 51
87.31500000000011
1001
AUSTER_ANSICHT
1002
{
1000
Det03
1002
}
1001
AUSTER_FOLIE
1002
{
1000
NSB00038_ISO_EINBAUGEH_S00
1002
}
  0
ARC
  5
A669
330
20
100
AcDbEntity
  8
10000_FRONT
  6
Continuous
370
    13
100
AcDbCircle
 39
0.25
 10
96.96583440812998
 20
91.73819028705395
 30
0.0
 40
4.328999999999997
100
AcDbArc
 50
59.9020000000006
 51
68.20400000000077
1001
AUSTER_ANSICHT
1002
{
1000
Det03
1002
}
1001
AUSTER_FOLIE
1002
{
1000
NSB00038_ISO_EINBAUGEH_S00
1002
}
  0
LINE
  5
A6E5
330
20
100
AcDbEntity
  8
10000_FRONT
  6
Continuous
370
    50
100
AcDbLine
 39
0.5
 10
138.19883440813
 20
237.8341902870539
 30
0.0
 11
41.19883440812997
 21
237.8341902870539
 31
0.0
1001
AUSTER_ANSICHT
1002
{
1000
Det03
1002
}
1001
AUSTER_FOLIE
1002
{
1000
NSB00038_ISO_EINBAUGEH_S00
1002
}
  0
LINE
  5
A6E6
330
20
100
AcDbEntity
  8
10000_FRONT
  6
Continuous
370
    50
100
AcDbLine
 39
0.25
 10
48.71583440813004
 20
207.6901902870539
 30
0.0
 11
54.33083440813003
 21
202.121190287054
 31
0.0
1001
AUSTER_ANSICHT
1002
{
1000
Det03
1002
}
1001
AUSTER_FOLIE
1002
{
1000
NSB00038_ISO_EINBAUGEH_S00
1002
}
  0
LINE
  5
A6E7
330
20
100
AcDbEntity
  8
10000_FRONT
  6
Continuous
370
    50
100
AcDbLine
 39
0.25
 10
49.56383440812999
 20
208.545190287054
 30
0.0
 11
55.12783440812995
 21
202.9071902870539
 31
0.0
1001
AUSTER_ANSICHT
1002
{
1000
Det03
1002
}
1001
AUSTER_FOLIE
1002
{
1000
NSB00038_ISO_EINBAUGEH_S00
1002
}
  0
LINE
  5
A6E8
330
20
100
AcDbEntity
  8
10000_FRONT
  6
Continuous
370
    50
100
AcDbLine
 39
0.25
 10
124.2158344081299
 20
207.6901902870539
 30
0.0
 11
129.83083440813
 21
202.121190287054
 31
0.0
1001
AUSTER_ANSICHT
1002
{
1000
Det03
1002
}
1001
AUSTER_FOLIE
1002
{
1000
NSB00038_ISO_EINBAUGEH_S00
1002
}
  0
LINE
  5
A6E9
330
20
100
AcDbEntity
  8
10000_FRONT
  6
Continuous
370
    50
100
AcDbLine
 39
0.25
 10
125.06383440813
 20
208.545190287054
 30
0.0
 11
130.62783440813
 21
202.9071902870539
 31
0.0
1001
AUSTER_ANSICHT
1002
{
1000
Det03
1002
}
1001
AUSTER_FOLIE
1002
{
1000
NSB00038_ISO_EINBAUGEH_S00
1002
}
  0
LINE
  5
A6EA
330
20
100
AcDbEntity
  8
11000_Left
  6
Continuous
370
    50
100
AcDbLine
 39
0.25
 10
167.2784845659466
 20
185.876190287054
 30
0.0
 11
167.2784845659466
 21
114.876190287054
 31
0.0
1001
AUSTER_ANSICHT
1002
{
1000
Det03
1002
}
1001
AUSTER_FOLIE
1002
{
1000
NSB00038_ISO_EINBAUGEH_S00
1002
}
  0
LINE
  5
A6EB
330
20
100
AcDbEntity
  8
11000_Left
  6
Continuous
370
    50
100
AcDbLine
 39
0.5
 10
265.2784845659466
 20
228.126190287054
 30
0.0
 11
171.7784845659466
 21
228.126190287054
 31
0.0
1001
AUSTER_ANSICHT
1002
{
1000
Det03
1002
}
1001
AUSTER_FOLIE
1002
{
1000
NSB00038_ISO_EINBAUGEH_S00
1002
}
  0
LINE
  5
A6EC
330
20
100
AcDbEntity
  8
11000_Left
  6
Continuous
370
    20
100
AcDbLine
 39
0.25
 10
265.2784845659466
 20
233.126190287054
 30
0.0
 11
266.7784845659466
 21
233.126190287054
 31
0.0
1001
AUSTER_ANSICHT
1002
{
1000
Det03
1002
}
1001
AUSTER_FOLIE
1002
{
1000
NSB00038_ISO_EINBAUGEH_S00
1002
}
  0
LINE
  5
A6ED
330
20
100
AcDbEntity
  8
11000_Left
  6
Continuous
370
    20
100
AcDbLine
 39
0.25
 10
266.7784845659466
 20
233.126190287054
 30
0.0
 11
267.7784845659466
 21
234.126190287054
 31
0.0
1001
AUSTER_ANSICHT
1002
{
1000
Det03
1002
}
1001
AUSTER_FOLIE
1002
{
1000
NSB00038_ISO_EINBAUGEH_S00
1002
}
  0
LINE
  5
A6EE
330
20
100
AcDbEntity
  8
11000_Left
  6
Continuous
370
    20
100
AcDbLine
 39
0.25
 10
270.7784845659466
 20
234.126190287054
 30
0.0
 11
267.7784845659466
 21
234.126190287054
 31
0.0
1001
AUSTER_ANSICHT
1002
{
1000
Det03
1002
}
1001
AUSTER_FOLIE
1002
{
1000
NSB00038_ISO_EINBAUGEH_S00
1002
}
  0
LINE
  5
A6EF
330
20
100
AcDbEntity
  8
11000_Left
  6
Continuous
370
    50
100
AcDbLine
 39
0.5
 10
265.2784845659466
 20
238.126190287054
 30
0.0
 11
273.6264845659466
 21
237.396190287054
 31
0.0
1001
AUSTER_ANSICHT
1002
{
1000
Det03
1002
}
1001
AUSTER_FOLIE
1002
{
1000
NSB00038_ISO_EINBAUGEH_S00
1002
}
  0
LINE
  5
A6F0
330
20
100
AcDbEntity
  8
11000_Left
  6
Continuous
370
    20
100
AcDbLine
 39
0.25
 10
255.2784845659466
 20
217.626190287054
 30
0.0
 11
171.7784845659466
 21
217.626190287054
 31
0.0
1001
AUSTER_ANSICHT
1002
{
1000
Det03
1002
}
1001
AUSTER_FOLIE
1002
{
1000
NSB00038_ISO_EINBAUGEH_S00
1002
}
  0
LINE
  5
A6F1
330
20
100
AcDbEntity
  8
11000_Left
  6
Continuous
370
    50
100
AcDbLine
 39
0.5
 10
277.2784845659466
 20
135.9261902870539
 30
0.0
 11
277.2784845659466
 21
233.411190287054
 31
0.0
1001
AUSTER_ANSICHT
1002
{
1000
Det03
1002
}
1001
AUSTER_FOLIE
1002
{
1000
NSB00038_ISO_EINBAUGEH_S00
1002
}
  0
LINE
  5
A6F2
330
20
100
AcDbEntity
  8
11000_Left
  6
DASHED
 62
     7
370
    15
100
AcDbLine
 39
1.0
 10
171.2784845659466
 20
162.352190287054
 30
0.0
 11
171.2784845659466
 21
137.376190287054
 31
0.0
1001
AUSTER_ANSICHT
1002
{
1000
Det03
1002
}
1001
AUSTER_FOLIE
1002
{
1000
NSB00038_ISO_EINBAUGEH_S00
1002
}
  0
LINE
  5
A6F3
330
20
100
AcDbEntity
  8
11000_Left
  6
Continuous
370
    20
100
AcDbLine
 39
0.25
 10
255.2784845659466
 20
212.626190287054
 30
0.0
 11
265.2784845659466
 21
212.626190287054
 31
0.0
1001
AUSTER_ANSICHT
1002
{
1000
Det03
1002
}
1001
AUSTER_FOLIE
1002
{
1000
NSB00038_ISO_EINBAUGEH_S00
1002
}
  0
LINE
  5
A6F4
330
20
100
AcDbEntity
  8
11000_Left
  6
Continuous
370
    20
100
AcDbLine
 39
0.25
 10
255.2784845659466
 20
225.626190287054
 30
0.0
 11
265.2784845659466
 21
225.626190287054
 31
0.0
1001
AUSTER_ANSICHT
1002
{
1000
Det03
1002
}
1001
AUSTER_FOLIE
1002
{
1000
NSB00038_ISO_EINBAUGEH_S00
1002
}
  0
LINE
  5
A6F5
330
20
100
AcDbEntity
  8
11000_Left
  6
Continuous
370
    20
100
AcDbLine
 39
0.25
 10
250.2784845659466
 20
223.626190287054
 30
0.0
 11
255.2784845659466
 21
223.626190287054
 31
0.0
1001
AUSTER_ANSICHT
1002
{
1000
Det03
1002
}
1001
AUSTER_FOLIE
1002
{
1000
NSB00038_ISO_EINBAUGEH_S00
1002
}
  0
LINE
  5
A6F6
330
20
100
AcDbEntity
  8
11000_Left
  6
Continuous
370
    20
100
AcDbLine
 39
0.25
 10
250.2784845659466
 20
220.826190287054
 30
0.0
 11
255.2784845659466
 21
220.826190287054
 31
0.0
1001
AUSTER_ANSICHT
1002
{
1000
Det03
1002
}
1001
AUSTER_FOLIE
1002
{
1000
NSB00038_ISO_EINBAUGEH_S00
1002
}
  0
LINE
  5
A6F7
330
20
100
AcDbEntity
  8
11000_Left
  6
Continuous
370
    20
100
AcDbLine
 39
0.25
 10
250.2784845659466
 20
223.626190287054
 30
0.0
 11
250.2784845659466
 21
220.826190287054
 31
0.0
1001
AUSTER_ANSICHT
1002
{
1000
Det03
1002
}
1001
AUSTER_FOLIE
1002
{
1000
NSB00038_ISO_EINBAUGEH_S00
1002
}
  0
LINE
  5
A6F8
330
20
100
AcDbEntity
  8
11000_Left
  6
Continuous
370
    20
100
AcDbLine
 39
0.25
 10
255.2784845659466
 20
220.826190287054
 30
0.0
 11
255.2784845659466
 21
212.626190287054
 31
0.0
1001
AUSTER_ANSICHT
1002
{
1000
Det03
1002
}
1001
AUSTER_FOLIE
1002
{
1000
NSB00038_ISO_EINBAUGEH_S00
1002
}
  0
LINE
  5
A6F9
330
20
100
AcDbEntity
  8
11000_Left
  6
Continuous
370
    20
100
AcDbLine
 39
0.25
 10
255.2784845659466
 20
223.626190287054
 30
0.0
 11
255.2784845659466
 21
225.626190287054
 31
0.0
1001
AUSTER_ANSICHT
1002
{
1000
Det03
1002
}
1001
AUSTER_FOLIE
1002
{
1000
NSB00038_ISO_EINBAUGEH_S00
1002
}
  0
LINE
  5
A6FA
330
20
100
AcDbEntity
  8
11000_Left
  6
Continuous
370
    50
100
AcDbLine
 39
0.25
 10
169.2784845659466
 20
169.376190287054
 30
0.0
 11
169.2784845659466
 21
143.376190287054
 31
0.0
1001
AUSTER_ANSICHT
1002
{
1000
Det03
1002
}
1001
AUSTER_FOLIE
1002
{
1000
NSB00038_ISO_EINBAUGEH_S00
1002
}
  0
ARC
  5
A70A
330
20
100
AcDbEntity
  8
11000_Left
  6
Continuous
370
    50
100
AcDbCircle
 39
0.5
 10
171.7784845659466
 20
225.626190287054
 30
0.0
 40
2.5
100
AcDbArc
 50
90.0
 51
180.0
1001
AUSTER_ANSICHT
1002
{
1000
Det03
1002
}
1001
AUSTER_FOLIE
1002
{
1000
NSB00038_ISO_EINBAUGEH_S00
1002
}
  0
ARC
  5
A70B
330
20
100
AcDbEntity
  8
11000_Left
  6
Continuous
370
    50
100
AcDbCircle
 39
0.5
 10
273.2784845659466
 20
233.411190287054
 30
0.0
 40
4.0
100
AcDbArc
 50
0.0
 51
85.00000000000012
1001
AUSTER_ANSICHT
1002
{
1000
Det03
1002
}
1001
AUSTER_FOLIE
1002
{
1000
NSB00038_ISO_EINBAUGEH_S00
1002
}
  0
ARC
  5
A70C
330
20
100
AcDbEntity
  8
11000_Left
  6
DASHED
 62
     7
370
    15
100
AcDbCircle
 39
1.0
 10
171.2784845659466
 20
162.376190287054
 30
0.0
 40
2.0
100
AcDbArc
 50
90.0
 51
180.0
1001
AUSTER_ANSICHT
1002
{
1000
Det03
1002
}
1001
AUSTER_FOLIE
1002
{
1000
NSB00038_ISO_EINBAUGEH_S00
1002
}
  0
ARC
  5
A70D
330
20
100
AcDbEntity
  8
11000_Left
  6
DASHED
 62
     7
370
    15
100
AcDbCircle
 39
1.0
 10
171.2784845659466
 20
137.376190287054
 30
0.0
 40
2.0
100
AcDbArc
 50
180.0
 51
270.0
1001
AUSTER_ANSICHT
1002
{
1000
Det03
1002
}
1001
AUSTER_FOLIE
1002
{
1000
NSB00038_ISO_EINBAUGEH_S00
1002
}
  0
ARC
  5
A70E
330
20
100
AcDbEntity
  8
11000_Left
  6
Continuous
370
    20
100
AcDbCircle
 39
0.25
 10
171.7784845659466
 20
215.126190287054
 30
0.0
 40
2.5
100
AcDbArc
 50
90.0
 51
180.0
1001
AUSTER_ANSICHT
1002
{
1000
Det03
1002
}
1001
AUSTER_FOLIE
1002
{
1000
NSB00038_ISO_EINBAUGEH_S00
1002
}
  0
ARC
  5
A735
330
20
100
AcDbEntity
  8
10000_FRONT
  6
Continuous
370
    50
100
AcDbCircle
 39
0.25
 10
51.94883440812997
 20
205.334190287054
 30
0.0
 40
4.0
100
AcDbArc
 50
270.0
 51
90.0
1001
AUSTER_ANSICHT
1002
{
1000
Det03
1002
}
1001
AUSTER_FOLIE
1002
{
1000
NSB00038_ISO_EINBAUGEH_S00
1002
}
  0
ARC
  5
A736
330
20
100
AcDbEntity
  8
10000_FRONT
  6
Continuous
370
    50
100
AcDbCircle
 39
0.25
 10
51.94883440812997
 20
205.334190287054
 30
0.0
 40
4.0
100
AcDbArc
 50
90.0
 51
270.0
1001
AUSTER_ANSICHT
1002
{
1000
Det03
1002
}
1001
AUSTER_FOLIE
1002
{
1000
NSB00038_ISO_EINBAUGEH_S00
1002
}
  0
ARC
  5
A737
330
20
100
AcDbEntity
  8
10000_FRONT
  6
Continuous
370
    50
100
AcDbCircle
 39
0.25
 10
127.44883440813
 20
205.334190287054
 30
0.0
 40
4.0
100
AcDbArc
 50
270.0
 51
90.0
1001
AUSTER_ANSICHT
1002
{
1000
Det03
1002
}
1001
AUSTER_FOLIE
1002
{
1000
NSB00038_ISO_EINBAUGEH_S00
1002
}
  0
ARC
  5
A738
330
20
100
AcDbEntity
  8
10000_FRONT
  6
Continuous
370
    50
100
AcDbCircle
 39
0.25
 10
127.44883440813
 20
205.334190287054
 30
0.0
 40
4.0
100
AcDbArc
 50
90.0
 51
270.0
1001
AUSTER_ANSICHT
1002
{
1000
Det03
1002
}
1001
AUSTER_FOLIE
1002
{
1000
NSB00038_ISO_EINBAUGEH_S00
1002
}
  0
ARC
  5
A739
330
20
100
AcDbEntity
  8
10000_FRONT
  6
Continuous
370
    50
100
AcDbCircle
 39
0.5
 10
41.19883440812997
 20
233.8341902870539
 30
0.0
 40
4.0
100
AcDbArc
 50
90.0
 51
180.0
1001
AUSTER_ANSICHT
1002
{
1000
Det03
1002
}
1001
AUSTER_FOLIE
1002
{
1000
NSB00038_ISO_EINBAUGEH_S00
1002
}
  0
ARC
  5
A73A
330
20
100
AcDbEntity
  8
10000_FRONT
  6
Continuous
370
    50
100
AcDbCircle
 39
0.5
 10
138.19883440813
 20
233.8341902870539
 30
0.0
 40
4.0
100
AcDbArc
 50
0.0
 51
90.0
1001
AUSTER_ANSICHT
1002
{
1000
Det03
1002
}
1001
AUSTER_FOLIE
1002
{
1000
NSB00038_ISO_EINBAUGEH_S00
1002
}
  0
CIRCLE
  5
A73B
330
20
100
AcDbEntity
  8
10000_FRONT
  6
DASHED
 62
     7
370
    15
100
AcDbCircle
 39
1.0
 10
89.69883440812997
 20
205.334190287054
 30
0.0
 40
11.0
1001
AUSTER_ANSICHT
1002
{
1000
Det03
1002
}
1001
AUSTER_FOLIE
1002
{
1000
NSB00038_ISO_EINBAUGEH_S00
1002
}
  0
ARC
  5
A73C
330
20
100
AcDbEntity
  8
11000_Left
  6
Continuous
370
    50
100
AcDbCircle
 39
0.25
 10
171.7784845659466
 20
114.876190287054
 30
0.0
 40
4.5
100
AcDbArc
 50
180.0
 51
236.2509999999999
1001
AUSTER_ANSICHT
1002
{
1000
Det03
1002
}
1001
AUSTER_FOLIE
1002
{
1000
NSB00038_ISO_EINBAUGEH_S00
1002
}
  0
ARC
  5
A73D
330
20
100
AcDbEntity
  8
11000_Left
  6
Continuous
370
    50
100
AcDbCircle
 39
0.25
 10
171.7784845659466
 20
185.876190287054
 30
0.0
 40
4.5
100
AcDbArc
 50
123.749
 51
180.0
1001
AUSTER_ANSICHT
1002
{
1000
Det03
1002
}
1001
AUSTER_FOLIE
1002
{
1000
NSB00038_ISO_EINBAUGEH_S00
1002
}
  0
LINE
  5
A749
330
20
100
AcDbEntity
  8
30000_Drilling
  6
Continuous
370
    50
100
AcDbLine
 39
0.5
 10
317.1337484345447
 20
71.80445541430656
 30
0.0
 11
317.1337484345447
 21
222.8044554143066
 31
0.0
1001
AUSTER_ANSICHT
1002
{
1000
Det03
1002
}
1001
AUSTER_FOLIE
1002
{
1000
NSB00040_ISO_EINBAU_S0
1000
NSB00038_ISO_EINBAUGEH_S00
1002
}
  0
LINE
  5
A74A
330
20
100
AcDbEntity
  8
30000_Drilling
  6
Continuous
370
    50
100
AcDbLine
 39
0.5
 10
401.1337484345445
 20
225.8044554143066
 30
0.0
 11
320.1337484345446
 21
225.8044554143066
 31
0.0
1001
AUSTER_ANSICHT
1002
{
1000
Det03
1002
}
1001
AUSTER_FOLIE
1002
{
1000
NSB00040_ISO_EINBAU_S0
1000
NSB00038_ISO_EINBAUGEH_S00
1002
}
  0
LINE
  5
A74B
330
20
100
AcDbEntity
  8
30000_Drilling
  6
Continuous
370
    50
100
AcDbLine
 39
0.5
 10
320.1337484345446
 20
68.80445541430657
 30
0.0
 11
401.1337484345445
 21
68.80445541430657
 31
0.0
1001
AUSTER_ANSICHT
1002
{
1000
Det03
1002
}
1001
AUSTER_FOLIE
1002
{
1000
NSB00040_ISO_EINBAU_S0
1000
NSB00038_ISO_EINBAUGEH_S00
1002
}
  0
LINE
  5
A74C
330
20
100
AcDbEntity
  8
30000_Drilling
  6
Continuous
370
    50
100
AcDbLine
 39
0.5
 10
404.1337484345445
 20
71.80445541430656
 30
0.0
 11
404.1337484345445
 21
222.8044554143066
 31
0.0
1001
AUSTER_ANSICHT
1002
{
1000
Det03
1002
}
1001
AUSTER_FOLIE
1002
{
1000
NSB00040_ISO_EINBAU_S0
1000
NSB00038_ISO_EINBAUGEH_S00
1002
}
  0
ARC
  5
A74D
330
20
100
AcDbEntity
  8
30000_Drilling
  6
Continuous
370
    50
100
AcDbCircle
 39
0.5
 10
320.1337484345446
 20
222.8044554143066
 30
0.0
 40
3.0
100
AcDbArc
 50
90.0
 51
180.0
1001
AUSTER_ANSICHT
1002
{
1000
Det03
1002
}
1001
AUSTER_FOLIE
1002
{
1000
NSB00040_ISO_EINBAU_S0
1000
NSB00038_ISO_EINBAUGEH_S00
1002
}
  0
ARC
  5
A74E
330
20
100
AcDbEntity
  8
30000_Drilling
  6
Continuous
370
    50
100
AcDbCircle
 39
0.5
 10
401.1337484345445
 20
222.8044554143066
 30
0.0
 40
3.0
100
AcDbArc
 50
0.0
 51
90.0
1001
AUSTER_ANSICHT
1002
{
1000
Det03
1002
}
1001
AUSTER_FOLIE
1002
{
1000
NSB00040_ISO_EINBAU_S0
1000
NSB00038_ISO_EINBAUGEH_S00
1002
}
  0
ARC
  5
A74F
330
20
100
AcDbEntity
  8
30000_Drilling
  6
Continuous
370
    50
100
AcDbCircle
 39
0.5
 10
401.1337484345445
 20
71.80445541430656
 30
0.0
 40
3.0
100
AcDbArc
 50
270.0
 51
0.0
1001
AUSTER_ANSICHT
1002
{
1000
Det03
1002
}
1001
AUSTER_FOLIE
1002
{
1000
NSB00040_ISO_EINBAU_S0
1000
NSB00038_ISO_EINBAUGEH_S00
1002
}
  0
ARC
  5
A750
330
20
100
AcDbEntity
  8
30000_Drilling
  6
Continuous
370
    50
100
AcDbCircle
 39
0.5
 10
320.1337484345446
 20
71.80445541430656
 30
0.0
 40
3.0
100
AcDbArc
 50
180.0
 51
270.0
1001
AUSTER_ANSICHT
1002
{
1000
Det03
1002
}
1001
AUSTER_FOLIE
1002
{
1000
NSB00040_ISO_EINBAU_S0
1000
NSB00038_ISO_EINBAUGEH_S00
1002
}
  0
DIMENSION
  5
A751
330
20
100
AcDbEntity
  8
30100_Drilling_DIM
  6
Continuous
 62
     7
370
    13
100
AcDbDimension
  2
*D1
 10
404.1337484345445
 20
54.61845541430659
 30
0.0
 11
360.6337484345447
 21
54.61845541430659
 31
0.0
 70
    32
 71
     5
 42
86.99999999999993
  3
DSTYLE1
100
AcDbAlignedDimension
 13
317.1337484345447
 23
71.80445541430656
 33
0.0
 14
404.1337484345445
 24
71.80445541430656
 34
0.0
100
AcDbRotatedDimension
1001
AUSTER_FOLIE
1002
{
1000
NSB00040_ISO_EINBAU_S0
1000
NSB00038_ISO_EINBAUGEH_S00
1002
}
1001
AUSTER_ANSICHT
1002
{
1000
Det03
1002
}
1001
ACAD
1000
DSTYLE
1002
{
1070
    41
1040
3.0
1070
    42
1040
1.0
1070
    43
1040
1.0
1070
    47
1040
0.005
1070
    48
1040
-0.005
1070
    77
1070
     0
1070
    78
1070
     0
1070
   140
1040
5.0
1070
   143
1040
25.4
1070
   171
1070
     0
1070
   172
1070
     1
1070
   271
1070
     0
1070
   272
1070
     1
1070
   277
1070
     6
1070
   279
1070
     0
1002
}
  0
DIMENSION
  5
A752
330
20
100
AcDbEntity
  8
30100_Drilling_DIM
  6
Continuous
 62
     7
370
    13
100
AcDbDimension
  2
*D2
 10
307.3677484345447
 20
68.80445541430657
 30
0.0
 11
307.3677484345447
 21
147.3044554143066
 31
0.0
 70
    32
 71
     5
 42
157.0
  3
DSTYLE1
100
AcDbAlignedDimension
 13
320.1337484345446
 23
225.8044554143066
 33
0.0
 14
320.1337484345446
 24
68.80445541430657
 34
0.0
 50
90.0
100
AcDbRotatedDimension
1001
AUSTER_FOLIE
1002
{
1000
NSB00040_ISO_EINBAU_S0
1000
NSB00038_ISO_EINBAUGEH_S00
1002
}
1001
AUSTER_ANSICHT
1002
{
1000
Det03
1002
}
1001
ACAD
1000
DSTYLE
1002
{
1070
    41
1040
3.0
1070
    42
1040
1.0
1070
    43
1040
1.0
1070
    47
1040
0.005
1070
    48
1040
-0.005
1070
    77
1070
     0
1070
    78
1070
     0
1070
   140
1040
5.0
1070
   143
1040
25.4
1070
   171
1070
     0
1070
   172
1070
     1
1070
   271
1070
     0
1070
   272
1070
     1
1070
   277
1070
     6
1070
   279
1070
     0
1002
}
  0
DIMENSION
  5
A753
330
20
100
AcDbEntity
  8
30100_Drilling_DIM
  6
Continuous
 62
     7
370
    13
100
AcDbDimension
  2
*D3
 10
320.1337484345444
 20
222.8044554143064
 30
0.0
 11
330.4706042383305
 21
206.8621355257463
 31
0.0
 70
   164
  1
<> max.
 71
     5
 42
2.999785492330715
  3
DSTYLE1
100
AcDbRadialDimension
 15
318.5017484345447
 25
225.3214554143061
 35
0.0
 40
0.0
1001
AUSTER_FOLIE
1002
{
1000
NSB00040_ISO_EINBAU_S0
1000
NSB00038_ISO_EINBAUGEH_S00
1002
}
1001
AUSTER_ANSICHT
1002
{
1000
Det03
1002
}
1001
ACAD
1000
DSTYLE
1002
{
1070
    41
1040
3.0
1070
    42
1040
1.0
1070
    43
1040
1.0
1070
    47
1040
0.005
1070
    48
1040
-0.005
1070
    77
1070
     0
1070
    78
1070
     0
1070
   140
1040
5.0
1070
   143
1040
25.4
1070
   171
1070
     0
1070
   172
1070
     1
1070
   271
1070
     0
1070
   272
1070
     1
1070
   277
1070
     6
1070
   279
1070
     0
1002
}
  0
LINE
  5
A755
330
20
100
AcDbEntity
  8
11000_Left
  6
Continuous
370
    20
100
AcDbLine
 39
0.5
 10
262.2784845659466
 20
49.71819028705397
 30
0.0
 11
262.2784845659466
 21
249.117190287054
 31
0.0
1001
AUSTER_ANSICHT
1002
{
1000
Det03
1002
}
1001
AUSTER_FOLIE
1002
{
1000
NSB00040_ISO_EINBAU_S0
1000
NSB00038_ISO_EINBAUGEH_S00
1002
}
  0
LINE
  5
A756
330
20
100
AcDbEntity
  8
11000_Left
  6
Continuous
370
    20
100
AcDbLine
 39
0.5
 10
265.2784845659466
 20
49.71819028705397
 30
0.0
 11
265.2774845659465
 21
248.303190287054
 31
0.0
1001
AUSTER_ANSICHT
1002
{
1000
Det03
1002
}
1001
AUSTER_FOLIE
1002
{
1000
NSB00040_ISO_EINBAU_S0
1000
NSB00038_ISO_EINBAUGEH_S00
1002
}
  0
LINE
  5
A757
330
20
100
AcDbEntity
  8
11000_Left
370
    13
100
AcDbLine
 10
262.2784845659466
 20
246.288190287054
 30
0.0
 11
265.2774845659465
 21
243.288190287054
 31
0.0
1001
AUSTER_FOLIE
1002
{
1000
NSB00040_ISO_EINBAU_S0
1000
NSB00038_ISO_EINBAUGEH_S00
1002
}
1001
AUSTER_ANSICHT
1002
{
1000
Det03
1002
}
  0
LINE
  5
A758
330
20
100
AcDbEntity
  8
11000_Left
370
    13
100
AcDbLine
 10
262.2784845659466
 20
243.459190287054
 30
0.0
 11
265.2774845659465
 21
240.459190287054
 31
0.0
1001
AUSTER_FOLIE
1002
{
1000
NSB00040_ISO_EINBAU_S0
1000
NSB00038_ISO_EINBAUGEH_S00
1002
}
1001
AUSTER_ANSICHT
1002
{
1000
Det03
1002
}
  0
LINE
  5
A759
330
20
100
AcDbEntity
  8
11000_Left
370
    13
100
AcDbLine
 10
262.2784845659466
 20
240.631190287054
 30
0.0
 11
265.2774845659465
 21
237.631190287054
 31
0.0
1001
AUSTER_FOLIE
1002
{
1000
NSB00040_ISO_EINBAU_S0
1000
NSB00038_ISO_EINBAUGEH_S00
1002
}
1001
AUSTER_ANSICHT
1002
{
1000
Det03
1002
}
  0
LINE
  5
A75A
330
20
100
AcDbEntity
  8
11000_Left
370
    13
100
AcDbLine
 10
262.2784845659466
 20
237.802190287054
 30
0.0
 11
265.2774845659465
 21
234.802190287054
 31
0.0
1001
AUSTER_FOLIE
1002
{
1000
NSB00040_ISO_EINBAU_S0
1000
NSB00038_ISO_EINBAUGEH_S00
1002
}
1001
AUSTER_ANSICHT
1002
{
1000
Det03
1002
}
  0
LINE
  5
A75B
330
20
100
AcDbEntity
  8
11000_Left
370
    13
100
AcDbLine
 10
262.2784845659466
 20
234.973190287054
 30
0.0
 11
265.2774845659465
 21
231.973190287054
 31
0.0
1001
AUSTER_FOLIE
1002
{
1000
NSB00040_ISO_EINBAU_S0
1000
NSB00038_ISO_EINBAUGEH_S00
1002
}
1001
AUSTER_ANSICHT
1002
{
1000
Det03
1002
}
  0
LINE
  5
A75C
330
20
100
AcDbEntity
  8
11000_Left
370
    13
100
AcDbLine
 10
262.2784845659466
 20
232.145190287054
 30
0.0
 11
265.2774845659465
 21
229.145190287054
 31
0.0
1001
AUSTER_FOLIE
1002
{
1000
NSB00040_ISO_EINBAU_S0
1000
NSB00038_ISO_EINBAUGEH_S00
1002
}
1001
AUSTER_ANSICHT
1002
{
1000
Det03
1002
}
  0
LINE
  5
A75D
330
20
100
AcDbEntity
  8
11000_Left
370
    13
100
AcDbLine
 10
262.2784845659466
 20
229.3161902870541
 30
0.0
 11
265.2774845659465
 21
226.316190287054
 31
0.0
1001
AUSTER_FOLIE
1002
{
1000
NSB00040_ISO_EINBAU_S0
1000
NSB00038_ISO_EINBAUGEH_S00
1002
}
1001
AUSTER_ANSICHT
1002
{
1000
Det03
1002
}
  0
LINE
  5
A75F
330
20
100
AcDbEntity
  8
11000_Left
370
    13
100
AcDbLine
 10
262.2784845659466
 20
215.173190287054
 30
0.0
 11
265.2774845659465
 21
212.173190287054
 31
0.0
1001
AUSTER_FOLIE
1002
{
1000
NSB00040_ISO_EINBAU_S0
1000
NSB00038_ISO_EINBAUGEH_S00
1002
}
1001
AUSTER_ANSICHT
1002
{
1000
Det03
1002
}
  0
LINE
  5
A760
330
20
100
AcDbEntity
  8
11000_Left
370
    13
100
AcDbLine
 10
262.2784845659466
 20
212.3441902870539
 30
0.0
 11
265.2774845659465
 21
209.3441902870539
 31
0.0
1001
AUSTER_FOLIE
1002
{
1000
NSB00040_ISO_EINBAU_S0
1000
NSB00038_ISO_EINBAUGEH_S00
1002
}
1001
AUSTER_ANSICHT
1002
{
1000
Det03
1002
}
  0
LINE
  5
A761
330
20
100
AcDbEntity
  8
11000_Left
370
    13
100
AcDbLine
 10
262.2784845659466
 20
209.5151902870539
 30
0.0
 11
265.2774845659465
 21
206.5151902870539
 31
0.0
1001
AUSTER_FOLIE
1002
{
1000
NSB00040_ISO_EINBAU_S0
1000
NSB00038_ISO_EINBAUGEH_S00
1002
}
1001
AUSTER_ANSICHT
1002
{
1000
Det03
1002
}
  0
LINE
  5
A762
330
20
100
AcDbEntity
  8
11000_Left
370
    13
100
AcDbLine
 10
262.2784845659466
 20
226.487190287054
 30
0.0
 11
265.2774845659465
 21
223.487190287054
 31
0.0
1001
AUSTER_FOLIE
1002
{
1000
NSB00040_ISO_EINBAU_S0
1000
NSB00038_ISO_EINBAUGEH_S00
1002
}
1001
AUSTER_ANSICHT
1002
{
1000
Det03
1002
}
  0
LINE
  5
A763
330
20
100
AcDbEntity
  8
11000_Left
370
    13
100
AcDbLine
 10
262.2784845659466
 20
223.659190287054
 30
0.0
 11
265.2774845659465
 21
220.659190287054
 31
0.0
1001
AUSTER_FOLIE
1002
{
1000
NSB00040_ISO_EINBAU_S0
1000
NSB00038_ISO_EINBAUGEH_S00
1002
}
1001
AUSTER_ANSICHT
1002
{
1000
Det03
1002
}
  0
LINE
  5
A764
330
20
100
AcDbEntity
  8
11000_Left
370
    13
100
AcDbLine
 10
262.2784845659466
 20
220.8301902870539
 30
0.0
 11
265.2774845659465
 21
217.8301902870539
 31
0.0
1001
AUSTER_FOLIE
1002
{
1000
NSB00040_ISO_EINBAU_S0
1000
NSB00038_ISO_EINBAUGEH_S00
1002
}
1001
AUSTER_ANSICHT
1002
{
1000
Det03
1002
}
  0
LINE
  5
A765
330
20
100
AcDbEntity
  8
11000_Left
370
    13
100
AcDbLine
 10
262.2784845659466
 20
218.001190287054
 30
0.0
 11
265.2774845659465
 21
215.001190287054
 31
0.0
1001
AUSTER_FOLIE
1002
{
1000
NSB00040_ISO_EINBAU_S0
1000
NSB00038_ISO_EINBAUGEH_S00
1002
}
1001
AUSTER_ANSICHT
1002
{
1000
Det03
1002
}
  0
LINE
  5
A766
330
20
100
AcDbEntity
  8
11000_Left
370
    13
100
AcDbLine
 10
262.2784845659466
 20
195.3721902870539
 30
0.0
 11
265.2774845659465
 21
192.3721902870539
 31
0.0
1001
AUSTER_FOLIE
1002
{
1000
NSB00040_ISO_EINBAU_S0
1000
NSB00038_ISO_EINBAUGEH_S00
1002
}
1001
AUSTER_ANSICHT
1002
{
1000
Det03
1002
}
  0
LINE
  5
A767
330
20
100
AcDbEntity
  8
11000_Left
370
    13
100
AcDbLine
 10
262.2784845659466
 20
189.7151902870539
 30
0.0
 11
265.2774845659465
 21
186.7151902870539
 31
0.0
1001
AUSTER_FOLIE
1002
{
1000
NSB00040_ISO_EINBAU_S0
1000
NSB00038_ISO_EINBAUGEH_S00
1002
}
1001
AUSTER_ANSICHT
1002
{
1000
Det03
1002
}
  0
LINE
  5
A768
330
20
100
AcDbEntity
  8
11000_Left
370
    13
100
AcDbLine
 10
262.2784845659466
 20
192.543190287054
 30
0.0
 11
265.2774845659465
 21
189.543190287054
 31
0.0
1001
AUSTER_FOLIE
1002
{
1000
NSB00040_ISO_EINBAU_S0
1000
NSB00038_ISO_EINBAUGEH_S00
1002
}
1001
AUSTER_ANSICHT
1002
{
1000
Det03
1002
}
  0
LINE
  5
A769
330
20
100
AcDbEntity
  8
11000_Left
370
    13
100
AcDbLine
 10
262.2784845659466
 20
189.7151902870539
 30
0.0
 11
265.2774845659465
 21
186.7151902870539
 31
0.0
1001
AUSTER_FOLIE
1002
{
1000
NSB00040_ISO_EINBAU_S0
1000
NSB00038_ISO_EINBAUGEH_S00
1002
}
1001
AUSTER_ANSICHT
1002
{
1000
Det03
1002
}
  0
LINE
  5
A76A
330
20
100
AcDbEntity
  8
11000_Left
370
    13
100
AcDbLine
 10
262.2784845659466
 20
206.687190287054
 30
0.0
 11
265.2774845659465
 21
203.687190287054
 31
0.0
1001
AUSTER_FOLIE
1002
{
1000
NSB00040_ISO_EINBAU_S0
1000
NSB00038_ISO_EINBAUGEH_S00
1002
}
1001
AUSTER_ANSICHT
1002
{
1000
Det03
1002
}
  0
LINE
  5
A76B
330
20
100
AcDbEntity
  8
11000_Left
370
    13
100
AcDbLine
 10
262.2784845659466
 20
203.8581902870539
 30
0.0
 11
265.2774845659465
 21
200.858190287054
 31
0.0
1001
AUSTER_FOLIE
1002
{
1000
NSB00040_ISO_EINBAU_S0
1000
NSB00038_ISO_EINBAUGEH_S00
1002
}
1001
AUSTER_ANSICHT
1002
{
1000
Det03
1002
}
  0
LINE
  5
A76C
330
20
100
AcDbEntity
  8
11000_Left
370
    13
100
AcDbLine
 10
262.2784845659466
 20
201.029190287054
 30
0.0
 11
265.2774845659465
 21
198.029190287054
 31
0.0
1001
AUSTER_FOLIE
1002
{
1000
NSB00040_ISO_EINBAU_S0
1000
NSB00038_ISO_EINBAUGEH_S00
1002
}
1001
AUSTER_ANSICHT
1002
{
1000
Det03
1002
}
  0
LINE
  5
A76D
330
20
100
AcDbEntity
  8
11000_Left
370
    13
100
AcDbLine
 10
262.2784845659466
 20
198.201190287054
 30
0.0
 11
265.2774845659465
 21
195.201190287054
 31
0.0
1001
AUSTER_FOLIE
1002
{
1000
NSB00040_ISO_EINBAU_S0
1000
NSB00038_ISO_EINBAUGEH_S00
1002
}
1001
AUSTER_ANSICHT
1002
{
1000
Det03
1002
}
  0
LINE
  5
A76E
330
20
100
AcDbEntity
  8
11000_Left
370
    13
100
AcDbLine
 10
262.2784845659466
 20
209.5151902870539
 30
0.0
 11
265.2774845659465
 21
206.5151902870539
 31
0.0
1001
AUSTER_FOLIE
1002
{
1000
NSB00040_ISO_EINBAU_S0
1000
NSB00038_ISO_EINBAUGEH_S00
1002
}
1001
AUSTER_ANSICHT
1002
{
1000
Det03
1002
}
  0
LINE
  5
A76F
330
20
100
AcDbEntity
  8
11000_Left
370
    13
100
AcDbLine
 10
262.2784845659466
 20
186.8861902870539
 30
0.0
 11
265.2774845659465
 21
183.8861902870539
 31
0.0
1001
AUSTER_FOLIE
1002
{
1000
NSB00040_ISO_EINBAU_S0
1000
NSB00038_ISO_EINBAUGEH_S00
1002
}
1001
AUSTER_ANSICHT
1002
{
1000
Det03
1002
}
  0
LINE
  5
A770
330
20
100
AcDbEntity
  8
11000_Left
370
    13
100
AcDbLine
 10
262.2784845659466
 20
178.400190287054
 30
0.0
 11
265.2774845659465
 21
175.4001902870539
 31
0.0
1001
AUSTER_FOLIE
1002
{
1000
NSB00040_ISO_EINBAU_S0
1000
NSB00038_ISO_EINBAUGEH_S00
1002
}
1001
AUSTER_ANSICHT
1002
{
1000
Det03
1002
}
  0
LINE
  5
A771
330
20
100
AcDbEntity
  8
11000_Left
370
    13
100
AcDbLine
 10
262.2784845659466
 20
181.2291902870539
 30
0.0
 11
265.2774845659465
 21
178.2291902870539
 31
0.0
1001
AUSTER_FOLIE
1002
{
1000
NSB00040_ISO_EINBAU_S0
1000
NSB00038_ISO_EINBAUGEH_S00
1002
}
1001
AUSTER_ANSICHT
1002
{
1000
Det03
1002
}
  0
LINE
  5
A772
330
20
100
AcDbEntity
  8
11000_Left
370
    13
100
AcDbLine
 10
262.2784845659466
 20
184.057190287054
 30
0.0
 11
265.2774845659465
 21
181.057190287054
 31
0.0
1001
AUSTER_FOLIE
1002
{
1000
NSB00040_ISO_EINBAU_S0
1000
NSB00038_ISO_EINBAUGEH_S00
1002
}
1001
AUSTER_ANSICHT
1002
{
1000
Det03
1002
}
  0
LINE
  5
A773
330
20
100
AcDbEntity
  8
11000_Left
370
    13
100
AcDbLine
 10
262.2784845659466
 20
175.571190287054
 30
0.0
 11
265.2774845659465
 21
172.571190287054
 31
0.0
1001
AUSTER_FOLIE
1002
{
1000
NSB00040_ISO_EINBAU_S0
1000
NSB00038_ISO_EINBAUGEH_S00
1002
}
1001
AUSTER_ANSICHT
1002
{
1000
Det03
1002
}
  0
LINE
  5
A774
330
20
100
AcDbEntity
  8
11000_Left
370
    13
100
AcDbLine
 10
262.2784845659466
 20
169.914190287054
 30
0.0
 11
265.2774845659465
 21
166.914190287054
 31
0.0
1001
AUSTER_FOLIE
1002
{
1000
NSB00040_ISO_EINBAU_S0
1000
NSB00038_ISO_EINBAUGEH_S00
1002
}
1001
AUSTER_ANSICHT
1002
{
1000
Det03
1002
}
  0
LINE
  5
A775
330
20
100
AcDbEntity
  8
11000_Left
370
    13
100
AcDbLine
 10
262.2784845659466
 20
172.7431902870539
 30
0.0
 11
265.2774845659465
 21
169.7431902870539
 31
0.0
1001
AUSTER_FOLIE
1002
{
1000
NSB00040_ISO_EINBAU_S0
1000
NSB00038_ISO_EINBAUGEH_S00
1002
}
1001
AUSTER_ANSICHT
1002
{
1000
Det03
1002
}
  0
LINE
  5
A776
330
20
100
AcDbEntity
  8
11000_Left
370
    13
100
AcDbLine
 10
262.2784845659466
 20
155.7711902870539
 30
0.0
 11
265.2774845659465
 21
152.7711902870539
 31
0.0
1001
AUSTER_FOLIE
1002
{
1000
NSB00040_ISO_EINBAU_S0
1000
NSB00038_ISO_EINBAUGEH_S00
1002
}
1001
AUSTER_ANSICHT
1002
{
1000
Det03
1002
}
  0
LINE
  5
A777
330
20
100
AcDbEntity
  8
11000_Left
370
    13
100
AcDbLine
 10
262.2784845659466
 20
152.942190287054
 30
0.0
 11
265.2774845659465
 21
149.942190287054
 31
0.0
1001
AUSTER_FOLIE
1002
{
1000
NSB00040_ISO_EINBAU_S0
1000
NSB00038_ISO_EINBAUGEH_S00
1002
}
1001
AUSTER_ANSICHT
1002
{
1000
Det03
1002
}
  0
LINE
  5
A778
330
20
100
AcDbEntity
  8
11000_Left
370
    13
100
AcDbLine
 10
262.2784845659466
 20
167.0851902870539
 30
0.0
 11
265.2774845659465
 21
164.0851902870539
 31
0.0
1001
AUSTER_FOLIE
1002
{
1000
NSB00040_ISO_EINBAU_S0
1000
NSB00038_ISO_EINBAUGEH_S00
1002
}
1001
AUSTER_ANSICHT
1002
{
1000
Det03
1002
}
  0
LINE
  5
A779
330
20
100
AcDbEntity
  8
11000_Left
370
    13
100
AcDbLine
 10
262.2784845659466
 20
164.2571902870539
 30
0.0
 11
265.2774845659465
 21
161.2571902870539
 31
0.0
1001
AUSTER_FOLIE
1002
{
1000
NSB00040_ISO_EINBAU_S0
1000
NSB00038_ISO_EINBAUGEH_S00
1002
}
1001
AUSTER_ANSICHT
1002
{
1000
Det03
1002
}
  0
LINE
  5
A77A
330
20
100
AcDbEntity
  8
11000_Left
370
    13
100
AcDbLine
 10
262.2784845659466
 20
161.428190287054
 30
0.0
 11
265.2774845659465
 21
158.428190287054
 31
0.0
1001
AUSTER_FOLIE
1002
{
1000
NSB00040_ISO_EINBAU_S0
1000
NSB00038_ISO_EINBAUGEH_S00
1002
}
1001
AUSTER_ANSICHT
1002
{
1000
Det03
1002
}
  0
LINE
  5
A77B
330
20
100
AcDbEntity
  8
11000_Left
370
    13
100
AcDbLine
 10
262.2784845659466
 20
158.6001902870539
 30
0.0
 11
265.2774845659465
 21
155.5991902870539
 31
0.0
1001
AUSTER_FOLIE
1002
{
1000
NSB00040_ISO_EINBAU_S0
1000
NSB00038_ISO_EINBAUGEH_S00
1002
}
1001
AUSTER_ANSICHT
1002
{
1000
Det03
1002
}
  0
LINE
  5
A77C
330
20
100
AcDbEntity
  8
11000_Left
370
    13
100
AcDbLine
 10
262.2784845659466
 20
150.1141902870539
 30
0.0
 11
265.2774845659465
 21
147.1141902870539
 31
0.0
1001
AUSTER_FOLIE
1002
{
1000
NSB00040_ISO_EINBAU_S0
1000
NSB00038_ISO_EINBAUGEH_S00
1002
}
1001
AUSTER_ANSICHT
1002
{
1000
Det03
1002
}
  0
LINE
  5
A77D
330
20
100
AcDbEntity
  8
11000_Left
370
    13
100
AcDbLine
 10
262.2784845659466
 20
147.285190287054
 30
0.0
 11
265.2774845659465
 21
144.285190287054
 31
0.0
1001
AUSTER_FOLIE
1002
{
1000
NSB00040_ISO_EINBAU_S0
1000
NSB00038_ISO_EINBAUGEH_S00
1002
}
1001
AUSTER_ANSICHT
1002
{
1000
Det03
1002
}
  0
LINE
  5
A77E
330
20
100
AcDbEntity
  8
11000_Left
370
    13
100
AcDbLine
 10
262.2784845659466
 20
138.799190287054
 30
0.0
 11
265.2774845659465
 21
135.799190287054
 31
0.0
1001
AUSTER_FOLIE
1002
{
1000
NSB00040_ISO_EINBAU_S0
1000
NSB00038_ISO_EINBAUGEH_S00
1002
}
1001
AUSTER_ANSICHT
1002
{
1000
Det03
1002
}
  0
LINE
  5
A77F
330
20
100
AcDbEntity
  8
11000_Left
370
    13
100
AcDbLine
 10
262.2784845659466
 20
141.6281902870539
 30
0.0
 11
265.2774845659465
 21
138.6281902870539
 31
0.0
1001
AUSTER_FOLIE
1002
{
1000
NSB00040_ISO_EINBAU_S0
1000
NSB00038_ISO_EINBAUGEH_S00
1002
}
1001
AUSTER_ANSICHT
1002
{
1000
Det03
1002
}
  0
LINE
  5
A780
330
20
100
AcDbEntity
  8
11000_Left
370
    13
100
AcDbLine
 10
262.2784845659466
 20
144.456190287054
 30
0.0
 11
265.2774845659465
 21
141.456190287054
 31
0.0
1001
AUSTER_FOLIE
1002
{
1000
NSB00040_ISO_EINBAU_S0
1000
NSB00038_ISO_EINBAUGEH_S00
1002
}
1001
AUSTER_ANSICHT
1002
{
1000
Det03
1002
}
  0
LINE
  5
A781
330
20
100
AcDbEntity
  8
11000_Left
370
    13
100
AcDbLine
 10
262.2784845659466
 20
135.9701902870539
 30
0.0
 11
265.2774845659465
 21
132.9701902870539
 31
0.0
1001
AUSTER_FOLIE
1002
{
1000
NSB00040_ISO_EINBAU_S0
1000
NSB00038_ISO_EINBAUGEH_S00
1002
}
1001
AUSTER_ANSICHT
1002
{
1000
Det03
1002
}
  0
LINE
  5
A782
330
20
100
AcDbEntity
  8
11000_Left
370
    13
100
AcDbLine
 10
262.2784845659466
 20
118.9981902870539
 30
0.0
 11
265.2774845659465
 21
115.9981902870539
 31
0.0
1001
AUSTER_FOLIE
1002
{
1000
NSB00040_ISO_EINBAU_S0
1000
NSB00038_ISO_EINBAUGEH_S00
1002
}
1001
AUSTER_ANSICHT
1002
{
1000
Det03
1002
}
  0
LINE
  5
A783
330
20
100
AcDbEntity
  8
11000_Left
370
    13
100
AcDbLine
 10
262.2784845659466
 20
93.54019028705392
 30
0.0
 11
265.2774845659465
 21
90.54019028705393
 31
0.0
1001
AUSTER_FOLIE
1002
{
1000
NSB00040_ISO_EINBAU_S0
1000
NSB00038_ISO_EINBAUGEH_S00
1002
}
1001
AUSTER_ANSICHT
1002
{
1000
Det03
1002
}
  0
LINE
  5
A784
330
20
100
AcDbEntity
  8
11000_Left
370
    13
100
AcDbLine
 10
262.2784845659466
 20
90.71219028705399
 30
0.0
 11
265.2774845659465
 21
87.71219028705402
 31
0.0
1001
AUSTER_FOLIE
1002
{
1000
NSB00040_ISO_EINBAU_S0
1000
NSB00038_ISO_EINBAUGEH_S00
1002
}
1001
AUSTER_ANSICHT
1002
{
1000
Det03
1002
}
  0
LINE
  5
A785
330
20
100
AcDbEntity
  8
11000_Left
370
    13
100
AcDbLine
 10
262.2784845659466
 20
96.36919028705392
 30
0.0
 11
265.2774845659465
 21
93.36919028705393
 31
0.0
1001
AUSTER_FOLIE
1002
{
1000
NSB00040_ISO_EINBAU_S0
1000
NSB00038_ISO_EINBAUGEH_S00
1002
}
1001
AUSTER_ANSICHT
1002
{
1000
Det03
1002
}
  0
LINE
  5
A786
330
20
100
AcDbEntity
  8
11000_Left
370
    13
100
AcDbLine
 10
262.2784845659466
 20
104.8551902870539
 30
0.0
 11
265.2774845659465
 21
101.8551902870539
 31
0.0
1001
AUSTER_FOLIE
1002
{
1000
NSB00040_ISO_EINBAU_S0
1000
NSB00038_ISO_EINBAUGEH_S00
1002
}
1001
AUSTER_ANSICHT
1002
{
1000
Det03
1002
}
  0
LINE
  5
A787
330
20
100
AcDbEntity
  8
11000_Left
370
    13
100
AcDbLine
 10
262.2784845659466
 20
102.026190287054
 30
0.0
 11
265.2774845659465
 21
99.02619028705402
 31
0.0
1001
AUSTER_FOLIE
1002
{
1000
NSB00040_ISO_EINBAU_S0
1000
NSB00038_ISO_EINBAUGEH_S00
1002
}
1001
AUSTER_ANSICHT
1002
{
1000
Det03
1002
}
  0
LINE
  5
A788
330
20
100
AcDbEntity
  8
11000_Left
370
    13
100
AcDbLine
 10
262.2784845659466
 20
99.19819028705401
 30
0.0
 11
265.2774845659465
 21
96.198190287054
 31
0.0
1001
AUSTER_FOLIE
1002
{
1000
NSB00040_ISO_EINBAU_S0
1000
NSB00038_ISO_EINBAUGEH_S00
1002
}
1001
AUSTER_ANSICHT
1002
{
1000
Det03
1002
}
  0
LINE
  5
A789
330
20
100
AcDbEntity
  8
11000_Left
370
    13
100
AcDbLine
 10
262.2784845659466
 20
107.684190287054
 30
0.0
 11
265.2774845659465
 21
104.684190287054
 31
0.0
1001
AUSTER_FOLIE
1002
{
1000
NSB00040_ISO_EINBAU_S0
1000
NSB00038_ISO_EINBAUGEH_S00
1002
}
1001
AUSTER_ANSICHT
1002
{
1000
Det03
1002
}
  0
LINE
  5
A78A
330
20
100
AcDbEntity
  8
11000_Left
370
    13
100
AcDbLine
 10
262.2784845659466
 20
110.5121902870539
 30
0.0
 11
265.2774845659465
 21
107.5121902870539
 31
0.0
1001
AUSTER_FOLIE
1002
{
1000
NSB00040_ISO_EINBAU_S0
1000
NSB00038_ISO_EINBAUGEH_S00
1002
}
1001
AUSTER_ANSICHT
1002
{
1000
Det03
1002
}
  0
LINE
  5
A78B
330
20
100
AcDbEntity
  8
11000_Left
370
    13
100
AcDbLine
 10
262.2784845659466
 20
113.341190287054
 30
0.0
 11
265.2774845659465
 21
110.341190287054
 31
0.0
1001
AUSTER_FOLIE
1002
{
1000
NSB00040_ISO_EINBAU_S0
1000
NSB00038_ISO_EINBAUGEH_S00
1002
}
1001
AUSTER_ANSICHT
1002
{
1000
Det03
1002
}
  0
LINE
  5
A78C
330
20
100
AcDbEntity
  8
11000_Left
370
    13
100
AcDbLine
 10
262.2784845659466
 20
110.5121902870539
 30
0.0
 11
265.2774845659465
 21
107.5121902870539
 31
0.0
1001
AUSTER_FOLIE
1002
{
1000
NSB00040_ISO_EINBAU_S0
1000
NSB00038_ISO_EINBAUGEH_S00
1002
}
1001
AUSTER_ANSICHT
1002
{
1000
Det03
1002
}
  0
LINE
  5
A78D
330
20
100
AcDbEntity
  8
11000_Left
370
    13
100
AcDbLine
 10
262.2784845659466
 20
116.1701902870539
 30
0.0
 11
265.2774845659465
 21
113.1701902870539
 31
0.0
1001
AUSTER_FOLIE
1002
{
1000
NSB00040_ISO_EINBAU_S0
1000
NSB00038_ISO_EINBAUGEH_S00
1002
}
1001
AUSTER_ANSICHT
1002
{
1000
Det03
1002
}
  0
LINE
  5
A78E
330
20
100
AcDbEntity
  8
11000_Left
370
    13
100
AcDbLine
 10
262.2784845659466
 20
121.827190287054
 30
0.0
 11
265.2774845659465
 21
118.827190287054
 31
0.0
1001
AUSTER_FOLIE
1002
{
1000
NSB00040_ISO_EINBAU_S0
1000
NSB00038_ISO_EINBAUGEH_S00
1002
}
1001
AUSTER_ANSICHT
1002
{
1000
Det03
1002
}
  0
LINE
  5
A78F
330
20
100
AcDbEntity
  8
11000_Left
370
    13
100
AcDbLine
 10
262.2784845659466
 20
124.6561902870539
 30
0.0
 11
265.2774845659465
 21
121.6561902870539
 31
0.0
1001
AUSTER_FOLIE
1002
{
1000
NSB00040_ISO_EINBAU_S0
1000
NSB00038_ISO_EINBAUGEH_S00
1002
}
1001
AUSTER_ANSICHT
1002
{
1000
Det03
1002
}
  0
LINE
  5
A790
330
20
100
AcDbEntity
  8
11000_Left
370
    13
100
AcDbLine
 10
262.2784845659466
 20
127.4841902870539
 30
0.0
 11
265.2774845659465
 21
124.4841902870539
 31
0.0
1001
AUSTER_FOLIE
1002
{
1000
NSB00040_ISO_EINBAU_S0
1000
NSB00038_ISO_EINBAUGEH_S00
1002
}
1001
AUSTER_ANSICHT
1002
{
1000
Det03
1002
}
  0
LINE
  5
A791
330
20
100
AcDbEntity
  8
11000_Left
370
    13
100
AcDbLine
 10
262.2784845659466
 20
130.313190287054
 30
0.0
 11
265.2774845659465
 21
127.313190287054
 31
0.0
1001
AUSTER_FOLIE
1002
{
1000
NSB00040_ISO_EINBAU_S0
1000
NSB00038_ISO_EINBAUGEH_S00
1002
}
1001
AUSTER_ANSICHT
1002
{
1000
Det03
1002
}
  0
LINE
  5
A792
330
20
100
AcDbEntity
  8
11000_Left
370
    13
100
AcDbLine
 10
262.2784845659466
 20
133.1421902870539
 30
0.0
 11
265.2774845659465
 21
130.1421902870539
 31
0.0
1001
AUSTER_FOLIE
1002
{
1000
NSB00040_ISO_EINBAU_S0
1000
NSB00038_ISO_EINBAUGEH_S00
1002
}
1001
AUSTER_ANSICHT
1002
{
1000
Det03
1002
}
  0
LINE
  5
A793
330
20
100
AcDbEntity
  8
11000_Left
370
    13
100
AcDbLine
 10
262.2784845659466
 20
59.597190287054
 30
0.0
 11
265.2774845659465
 21
56.596190287054
 31
0.0
1001
AUSTER_FOLIE
1002
{
1000
NSB00040_ISO_EINBAU_S0
1000
NSB00038_ISO_EINBAUGEH_S00
1002
}
1001
AUSTER_ANSICHT
1002
{
1000
Det03
1002
}
  0
LINE
  5
A794
330
20
100
AcDbEntity
  8
11000_Left
370
    13
100
AcDbLine
 10
262.2784845659466
 20
62.42519028705395
 30
0.0
 11
265.2774845659465
 21
59.42519028705397
 31
0.0
1001
AUSTER_FOLIE
1002
{
1000
NSB00040_ISO_EINBAU_S0
1000
NSB00038_ISO_EINBAUGEH_S00
1002
}
1001
AUSTER_ANSICHT
1002
{
1000
Det03
1002
}
  0
LINE
  5
A795
330
20
100
AcDbEntity
  8
11000_Left
370
    13
100
AcDbLine
 10
262.2784845659466
 20
90.71219028705399
 30
0.0
 11
265.2774845659465
 21
87.71219028705402
 31
0.0
1001
AUSTER_FOLIE
1002
{
1000
NSB00040_ISO_EINBAU_S0
1000
NSB00038_ISO_EINBAUGEH_S00
1002
}
1001
AUSTER_ANSICHT
1002
{
1000
Det03
1002
}
  0
LINE
  5
A796
330
20
100
AcDbEntity
  8
11000_Left
370
    13
100
AcDbLine
 10
262.2784845659466
 20
85.05419028705395
 30
0.0
 11
265.2774845659465
 21
82.0541902870539
 31
0.0
1001
AUSTER_FOLIE
1002
{
1000
NSB00040_ISO_EINBAU_S0
1000
NSB00038_ISO_EINBAUGEH_S00
1002
}
1001
AUSTER_ANSICHT
1002
{
1000
Det03
1002
}
  0
LINE
  5
A797
330
20
100
AcDbEntity
  8
11000_Left
370
    13
100
AcDbLine
 10
262.2784845659466
 20
79.397190287054
 30
0.0
 11
265.2774845659465
 21
76.397190287054
 31
0.0
1001
AUSTER_FOLIE
1002
{
1000
NSB00040_ISO_EINBAU_S0
1000
NSB00038_ISO_EINBAUGEH_S00
1002
}
1001
AUSTER_ANSICHT
1002
{
1000
Det03
1002
}
  0
LINE
  5
A798
330
20
100
AcDbEntity
  8
11000_Left
370
    13
100
AcDbLine
 10
262.2784845659466
 20
82.226190287054
 30
0.0
 11
265.2774845659465
 21
79.22619028705401
 31
0.0
1001
AUSTER_FOLIE
1002
{
1000
NSB00040_ISO_EINBAU_S0
1000
NSB00038_ISO_EINBAUGEH_S00
1002
}
1001
AUSTER_ANSICHT
1002
{
1000
Det03
1002
}
  0
LINE
  5
A79A
330
20
100
AcDbEntity
  8
11000_Left
370
    13
100
AcDbLine
 10
262.2784845659466
 20
76.56819028705398
 30
0.0
 11
265.2774845659465
 21
73.56819028705398
 31
0.0
1001
AUSTER_FOLIE
1002
{
1000
NSB00040_ISO_EINBAU_S0
1000
NSB00038_ISO_EINBAUGEH_S00
1002
}
1001
AUSTER_ANSICHT
1002
{
1000
Det03
1002
}
  0
LINE
  5
A79B
330
20
100
AcDbEntity
  8
11000_Left
370
    13
100
AcDbLine
 10
262.2784845659466
 20
68.08319028705398
 30
0.0
 11
265.2774845659465
 21
65.08219028705401
 31
0.0
1001
AUSTER_FOLIE
1002
{
1000
NSB00040_ISO_EINBAU_S0
1000
NSB00038_ISO_EINBAUGEH_S00
1002
}
1001
AUSTER_ANSICHT
1002
{
1000
Det03
1002
}
  0
LINE
  5
A79C
330
20
100
AcDbEntity
  8
11000_Left
370
    13
100
AcDbLine
 10
262.2784845659466
 20
70.91119028705401
 30
0.0
 11
265.2774845659465
 21
67.91119028705399
 31
0.0
1001
AUSTER_FOLIE
1002
{
1000
NSB00040_ISO_EINBAU_S0
1000
NSB00038_ISO_EINBAUGEH_S00
1002
}
1001
AUSTER_ANSICHT
1002
{
1000
Det03
1002
}
  0
LINE
  5
A79D
330
20
100
AcDbEntity
  8
11000_Left
370
    13
100
AcDbLine
 10
262.2784845659466
 20
73.74019028705396
 30
0.0
 11
265.2774845659465
 21
70.74019028705397
 31
0.0
1001
AUSTER_FOLIE
1002
{
1000
NSB00040_ISO_EINBAU_S0
1000
NSB00038_ISO_EINBAUGEH_S00
1002
}
1001
AUSTER_ANSICHT
1002
{
1000
Det03
1002
}
  0
LINE
  5
A79E
330
20
100
AcDbEntity
  8
11000_Left
370
    13
100
AcDbLine
 10
262.2784845659466
 20
65.25419028705397
 30
0.0
 11
265.2774845659465
 21
62.25419028705395
 31
0.0
1001
AUSTER_FOLIE
1002
{
1000
NSB00040_ISO_EINBAU_S0
1000
NSB00038_ISO_EINBAUGEH_S00
1002
}
1001
AUSTER_ANSICHT
1002
{
1000
Det03
1002
}
  0
LINE
  5
A79F
330
20
100
AcDbEntity
  8
11000_Left
370
    13
100
AcDbLine
 10
262.2784845659466
 20
87.883190287054
 30
0.0
 11
265.2774845659465
 21
84.88319028705399
 31
0.0
1001
AUSTER_FOLIE
1002
{
1000
NSB00040_ISO_EINBAU_S0
1000
NSB00038_ISO_EINBAUGEH_S00
1002
}
1001
AUSTER_ANSICHT
1002
{
1000
Det03
1002
}
  0
LINE
  5
A7A0
330
20
100
AcDbEntity
  8
11000_Left
370
    13
100
AcDbLine
 10
262.2784845659466
 20
53.93919028705397
 30
0.0
 11
265.2774845659465
 21
50.93919028705395
 31
0.0
1001
AUSTER_FOLIE
1002
{
1000
NSB00040_ISO_EINBAU_S0
1000
NSB00038_ISO_EINBAUGEH_S00
1002
}
1001
AUSTER_ANSICHT
1002
{
1000
Det03
1002
}
  0
LINE
  5
A7A1
330
20
100
AcDbEntity
  8
11000_Left
370
    13
100
AcDbLine
 10
262.2784845659466
 20
59.597190287054
 30
0.0
 11
265.2774845659465
 21
56.59719028705399
 31
0.0
1001
AUSTER_FOLIE
1002
{
1000
NSB00040_ISO_EINBAU_S0
1000
NSB00038_ISO_EINBAUGEH_S00
1002
}
1001
AUSTER_ANSICHT
1002
{
1000
Det03
1002
}
  0
LINE
  5
A7A2
330
20
100
AcDbEntity
  8
11000_Left
370
    13
100
AcDbLine
 10
262.2784845659466
 20
56.76819028705399
 30
0.0
 11
265.2774845659465
 21
53.76819028705398
 31
0.0
1001
AUSTER_FOLIE
1002
{
1000
NSB00040_ISO_EINBAU_S0
1000
NSB00038_ISO_EINBAUGEH_S00
1002
}
1001
AUSTER_ANSICHT
1002
{
1000
Det03
1002
}
  0
DIMENSION
  5
A7A4
330
20
100
AcDbEntity
  8
11100_LEFT_DIM
  6
Continuous
 62
     7
370
    13
100
AcDbDimension
  2
*D4
 10
265.2774845659465
 20
38.71919028705395
 30
0.0
 11
284.7774845659466
 21
38.71919028705395
 31
0.0
 70
    32
  1
max. 6
 71
     5
 42
2.999000000000023
  3
DSTYLE1
100
AcDbAlignedDimension
 13
262.2784845659466
 23
49.71819028705397
 33
0.0
 14
265.2774845659465
 24
48.11119028705401
 34
0.0
100
AcDbRotatedDimension
1001
AUSTER_FOLIE
1002
{
1000
NSB00040_ISO_EINBAU_S0
1000
NSB00038_ISO_EINBAUGEH_S00
1002
}
1001
AUSTER_ANSICHT
1002
{
1000
Det03
1002
}
1001
ACAD
1000
DSTYLE
1002
{
1070
    41
1040
3.0
1070
    42
1040
1.0
1070
    43
1040
1.0
1070
    47
1040
0.005
1070
    48
1040
-0.005
1070
    77
1070
     0
1070
    78
1070
     0
1070
   140
1040
5.0
1070
   143
1040
25.4
1070
   171
1070
     0
1070
   172
1070
     1
1070
   271
1070
     0
1070
   272
1070
     1
1070
   277
1070
     6
1070
   279
1070
     0
1002
}
  0
DIMENSION
  5
A900
330
20
100
AcDbEntity
  8
11100_LEFT_DIM
  6
Continuous
 62
     7
370
    13
100
AcDbDimension
  2
*D5
 10
155.1040560520134
 20
73.126190287054
 30
0.0
 11
155.1040560520134
 21
150.626190287054
 31
0.0
 70
    32
  1
85x155
 71
     5
 42
155.0
  3
DSTYLE1
100
AcDbAlignedDimension
 13
171.7784845659466
 23
228.126190287054
 33
0.0
 14
171.7774845659466
 24
73.12619028705398
 34
0.0
 50
90.0
100
AcDbRotatedDimension
1001
ACAD
1000
DSTYLE
1002
{
1070
    41
1040
3.0
1070
    42
1040
1.0
1070
    43
1040
1.0
1070
    47
1040
0.005
1070
    48
1040
-0.005
1070
    77
1070
     0
1070
    78
1070
     0
1070
   140
1040
5.0
1070
   143
1040
25.4
1070
   171
1070
     0
1070
   172
1070
     1
1070
   271
1070
     0
1070
   272
1070
     1
1070
   277
1070
     6
1070
   279
1070
     0
1002
}
  0
DIMENSION
  5
A935
330
20
100
AcDbEntity
  8
11100_LEFT_DIM
  6
Continuous
 62
     7
370
    13
100
AcDbDimension
  2
*D6
 10
265.2774845659465
 20
254.7379337658866
 30
0.0
 11
217.2779845659466
 21
254.7379337658866
 31
0.0
 70
    32
 71
     5
 42
95.99900000000003
  3
DSTYLE1
100
AcDbAlignedDimension
 13
169.2784845659466
 23
225.626190287054
 33
0.0
 14
265.2774845659465
 24
248.303190287054
 34
0.0
100
AcDbRotatedDimension
1001
ACAD
1000
DSTYLE
1002
{
1070
    41
1040
3.0
1070
    42
1040
1.0
1070
    43
1040
1.0
1070
    47
1040
0.005
1070
    48
1040
-0.005
1070
    77
1070
     0
1070
    78
1070
     0
1070
   140
1040
5.0
1070
   143
1040
25.4
1070
   171
1070
     0
1070
   172
1070
     1
1070
   271
1070
     0
1070
   272
1070
     1
1070
   277
1070
     6
1070
   279
1070
     0
1002
}
  0
DIMENSION
  5
A942
330
20
100
AcDbEntity
  8
11100_LEFT_DIM
  6
Continuous
 62
     7
370
    13
100
AcDbDimension
  2
*D7
 10
277.2784845659466
 20
254.7379337658866
 30
0.0
 11
271.2779845659465
 21
254.7379337658866
 31
0.0
 70
    32
 71
     5
 42
12.00099999999997
  3
DSTYLE1
100
AcDbAlignedDimension
 13
265.2774845659465
 23
254.7379337658866
 33
0.0
 14
277.2784845659466
 24
233.411190287054
 34
0.0
100
AcDbRotatedDimension
1001
ACAD
1000
DSTYLE
1002
{
1070
    41
1040
3.0
1070
    42
1040
1.0
1070
    43
1040
1.0
1070
    47
1040
0.005
1070
    48
1040
-0.005
1070
    77
1070
     0
1070
    78
1070
     0
1070
   140
1040
5.0
1070
   143
1040
25.4
1070
   171
1070
     0
1070
   172
1070
     1
1070
   271
1070
     0
1070
   272
1070
     1
1070
   277
1070
     6
1070
   279
1070
     0
1002
}
  0
DIMENSION
  5
A995
330
20
100
AcDbEntity
  8
10100_FRONT_DIM
  6
Continuous
 62
     7
370
    13
100
AcDbDimension
  2
*D8
 10
142.19883440813
 20
248.7225489388996
 30
0.0
 11
89.69883440812997
 21
248.7225489388996
 31
0.0
 70
    32
 71
     5
 42
105.0
  3
DSTYLE1
100
AcDbAlignedDimension
 13
37.19883440812998
 23
233.8341902870539
 33
0.0
 14
142.19883440813
 24
233.8341902870539
 34
0.0
100
AcDbRotatedDimension
1001
ACAD
1000
DSTYLE
1002
{
1070
    41
1040
3.0
1070
    42
1040
1.0
1070
    43
1040
1.0
1070
    47
1040
0.005
1070
    48
1040
-0.005
1070
    77
1070
     0
1070
    78
1070
     0
1070
   140
1040
5.0
1070
   143
1040
25.4
1070
   171
1070
     0
1070
   172
1070
     1
1070
   271
1070
     0
1070
   272
1070
     1
1070
   277
1070
     6
1070
   279
1070
     0
1002
}
  0
DIMENSION
  5
A9E6
330
20
100
AcDbEntity
  8
10100_FRONT_DIM
  6
Continuous
 62
     7
370
    13
100
AcDbDimension
  2
*D9
 10
25.81749642815737
 20
62.83419028705395
 30
0.0
 11
25.81749642815737
 21
150.3341902870539
 31
0.0
 70
    32
 71
     5
 42
174.9999999999999
  3
DSTYLE1
100
AcDbAlignedDimension
 13
41.19883440812997
 23
237.8341902870539
 33
0.0
 14
41.19883440812999
 24
62.83419028705395
 34
0.0
 50
90.0
100
AcDbRotatedDimension
1001
ACAD
1000
DSTYLE
1002
{
1070
    41
1040
3.0
1070
    42
1040
1.0
1070
    43
1040
1.0
1070
    47
1040
0.005
1070
    48
1040
-0.005
1070
    77
1070
     0
1070
    78
1070
     0
1070
   140
1040
5.0
1070
   143
1040
25.4
1070
   171
1070
     0
1070
   172
1070
     1
1070
   271
1070
     0
1070
   272
1070
     1
1070
   277
1070
     6
1070
   279
1070
     0
1002
}
  0
TEXT
  5
AF9C
330
20
100
AcDbEntity
  8
10000_FRONT
  6
Continuous
370
    20
100
AcDbText
 39
0.25
 10
110.55183440813
 20
151.550190287054
 30
0.0
 40
2.5
  1
ON
 50
270.0
 41
0.6600000000000003
100
AcDbText
1001
AUSTER_ANSICHT
1002
{
1000
Det03
1002
}
1001
AUSTER_FOLIE
1002
{
1000
NSB00040_ISO_EINBAU_S0
1002
}
  0
ARC
  5
AF9D
330
20
100
AcDbEntity
  8
10000_FRONT
  6
Continuous
370
    50
100
AcDbCircle
 39
0.25
 10
91.69883440813006
 20
150.334190287054
 30
0.0
 40
26.5
100
AcDbArc
 50
270.0
 51
90.0
1001
AUSTER_ANSICHT
1002
{
1000
Det03
1002
}
1001
AUSTER_FOLIE
1002
{
1000
NSB00040_ISO_EINBAU_S0
1002
}
  0
ARC
  5
AF9E
330
20
100
AcDbEntity
  8
10000_FRONT
  6
Continuous
370
    50
100
AcDbCircle
 39
0.25
 10
91.69883440813006
 20
150.334190287054
 30
0.0
 40
31.0
100
AcDbArc
 50
270.0
 51
90.0
1001
AUSTER_ANSICHT
1002
{
1000
Det03
1002
}
1001
AUSTER_FOLIE
1002
{
1000
NSB00040_ISO_EINBAU_S0
1002
}
  0
ARC
  5
AF9F
330
20
100
AcDbEntity
  8
10000_FRONT
  6
Continuous
370
    50
100
AcDbCircle
 39
0.25
 10
120.94883440813
 20
179.5841902870541
 30
0.0
 40
3.0
100
AcDbArc
 50
0.0
 51
90.0
1001
AUSTER_ANSICHT
1002
{
1000
Det03
1002
}
1001
AUSTER_FOLIE
1002
{
1000
NSB00040_ISO_EINBAU_S0
1002
}
  0
ARC
  5
AFA0
330
20
100
AcDbEntity
  8
10000_FRONT
  6
Continuous
370
    50
100
AcDbCircle
 39
0.25
 10
120.94883440813
 20
121.0841902870541
 30
0.0
 40
3.0
100
AcDbArc
 50
270.0
 51
0.0
1001
AUSTER_ANSICHT
1002
{
1000
Det03
1002
}
1001
AUSTER_FOLIE
1002
{
1000
NSB00040_ISO_EINBAU_S0
1002
}
  0
LINE
  5
AFA1
330
20
100
AcDbEntity
  8
10000_FRONT
  6
Continuous
370
    50
100
AcDbLine
 39
0.25
 10
107.77883440813
 20
168.1861902870541
 30
0.0
 11
109.04283440813
 21
170.369190287054
 31
0.0
1001
AUSTER_ANSICHT
1002
{
1000
Det03
1002
}
1001
AUSTER_FOLIE
1002
{
1000
NSB00040_ISO_EINBAU_S0
1002
}
  0
LINE
  5
AFA2
330
20
100
AcDbEntity
  8
10000_FRONT
  6
Continuous
370
    20
100
AcDbLine
 39
0.25
 10
113.44883440813
 20
154.334190287054
 30
0.0
 11
113.44883440813
 21
153.3341902870541
 31
0.0
1001
AUSTER_ANSICHT
1002
{
1000
Det03
1002
}
1001
AUSTER_FOLIE
1002
{
1000
NSB00040_ISO_EINBAU_S0
1002
}
  0
LINE
  5
AFA3
330
20
100
AcDbEntity
  8
10000_FRONT
  6
Continuous
370
    20
100
AcDbLine
 39
0.25
 10
109.94883440813
 20
153.3341902870541
 30
0.0
 11
109.94883440813
 21
154.334190287054
 31
0.0
1001
AUSTER_ANSICHT
1002
{
1000
Det03
1002
}
1001
AUSTER_FOLIE
1002
{
1000
NSB00040_ISO_EINBAU_S0
1002
}
  0
LINE
  5
AFA4
330
20
100
AcDbEntity
  8
10000_FRONT
  6
Continuous
370
    20
100
AcDbLine
 39
0.25
 10
109.94883440813
 20
154.334190287054
 30
0.0
 11
113.44883440813
 21
154.334190287054
 31
0.0
1001
AUSTER_ANSICHT
1002
{
1000
Det03
1002
}
1001
AUSTER_FOLIE
1002
{
1000
NSB00040_ISO_EINBAU_S0
1002
}
  0
LINE
  5
AFA5
330
20
100
AcDbEntity
  8
10000_FRONT
  6
Continuous
370
    20
100
AcDbLine
 39
0.25
 10
109.94883440813
 20
153.3341902870541
 30
0.0
 11
113.44883440813
 21
153.3341902870541
 31
0.0
1001
AUSTER_ANSICHT
1002
{
1000
Det03
1002
}
1001
AUSTER_FOLIE
1002
{
1000
NSB00040_ISO_EINBAU_S0
1002
}
  0
LINE
  5
AFA6
330
20
100
AcDbEntity
  8
10000_FRONT
  6
Continuous
370
    50
100
AcDbLine
 39
0.25
 10
99.11883440813006
 20
173.1861902870541
 30
0.0
 11
107.77883440813
 21
168.1861902870541
 31
0.0
1001
AUSTER_ANSICHT
1002
{
1000
Det03
1002
}
1001
AUSTER_FOLIE
1002
{
1000
NSB00040_ISO_EINBAU_S0
1002
}
  0
LINE
  5
AFA7
330
20
100
AcDbEntity
  8
10000_FRONT
  6
Continuous
370
    50
100
AcDbLine
 39
0.25
 10
107.77883440813
 20
132.4821902870541
 30
0.0
 11
109.04083440813
 21
130.2971902870541
 31
0.0
1001
AUSTER_ANSICHT
1002
{
1000
Det03
1002
}
1001
AUSTER_FOLIE
1002
{
1000
NSB00040_ISO_EINBAU_S0
1002
}
  0
LINE
  5
AFA8
330
20
100
AcDbEntity
  8
10000_FRONT
  6
Continuous
370
    50
100
AcDbLine
 39
0.25
 10
107.77883440813
 20
132.4821902870541
 30
0.0
 11
99.11883440813006
 21
127.4821902870541
 31
0.0
1001
AUSTER_ANSICHT
1002
{
1000
Det03
1002
}
1001
AUSTER_FOLIE
1002
{
1000
NSB00040_ISO_EINBAU_S0
1002
}
  0
LINE
  5
AFA9
330
20
100
AcDbEntity
  8
10000_FRONT
  6
Continuous
370
    50
100
AcDbLine
 39
0.25
 10
120.94883440813
 20
182.584190287054
 30
0.0
 11
62.44883440813005
 21
182.584190287054
 31
0.0
1001
AUSTER_ANSICHT
1002
{
1000
Det03
1002
}
1001
AUSTER_FOLIE
1002
{
1000
NSB00040_ISO_EINBAU_S0
1002
}
  0
LINE
  5
AFAA
330
20
100
AcDbEntity
  8
10000_FRONT
  6
Continuous
370
    50
100
AcDbLine
 39
0.25
 10
123.94883440813
 20
121.0841902870541
 30
0.0
 11
123.94883440813
 21
179.5841902870541
 31
0.0
1001
AUSTER_ANSICHT
1002
{
1000
Det03
1002
}
1001
AUSTER_FOLIE
1002
{
1000
NSB00040_ISO_EINBAU_S0
1002
}
  0
LINE
  5
AFAB
330
20
100
AcDbEntity
  8
10000_FRONT
  6
Continuous
370
    50
100
AcDbLine
 39
0.25
 10
62.44883440813005
 20
118.0841902870541
 30
0.0
 11
120.94883440813
 21
118.0841902870541
 31
0.0
1001
AUSTER_ANSICHT
1002
{
1000
Det03
1002
}
1001
AUSTER_FOLIE
1002
{
1000
NSB00040_ISO_EINBAU_S0
1002
}
  0
TEXT
  5
AFAC
330
20
100
AcDbEntity
  8
10000_FRONT
  6
Continuous
370
    20
100
AcDbText
 39
0.25
 10
68.33183440813005
 20
147.858190287054
 30
0.0
 40
2.5
  1
OFF
 41
0.6600000000000003
100
AcDbText
1001
AUSTER_ANSICHT
1002
{
1000
Det03
1002
}
1001
AUSTER_FOLIE
1002
{
1000
NSB00040_ISO_EINBAU_S0
1002
}
  0
ARC
  5
AFAD
330
20
100
AcDbEntity
  8
10000_FRONT
  6
Continuous
370
    50
100
AcDbCircle
 39
0.25
 10
1.698834408130053
 20
140.334190287054
 30
0.0
 40
96.0
100
AcDbArc
 50
350.351
 51
12.52900000000017
1001
AUSTER_ANSICHT
1002
{
1000
Det03
1002
}
1001
AUSTER_FOLIE
1002
{
1000
NSB00040_ISO_EINBAU_S0
1002
}
  0
ARC
  5
AFAE
330
20
100
AcDbEntity
  8
10000_FRONT
  6
Continuous
370
    50
100
AcDbCircle
 39
0.25
 10
181.69883440813
 20
140.334190287054
 30
0.0
 40
96.0
100
AcDbArc
 50
167.4709999999998
 51
189.6829999999996
1001
AUSTER_ANSICHT
1002
{
1000
Det03
1002
}
1001
AUSTER_FOLIE
1002
{
1000
NSB00040_ISO_EINBAU_S0
1002
}
  0
ARC
  5
AFAF
330
20
100
AcDbEntity
  8
10000_FRONT
  6
Continuous
370
    20
100
AcDbCircle
 39
0.25
 10
71.69883440813006
 20
153.834190287054
 30
0.0
 40
1.75
100
AcDbArc
 50
90.0
 51
270.0
1001
AUSTER_ANSICHT
1002
{
1000
Det03
1002
}
1001
AUSTER_FOLIE
1002
{
1000
NSB00040_ISO_EINBAU_S0
1002
}
  0
ARC
  5
AFB0
330
20
100
AcDbEntity
  8
10000_FRONT
  6
Continuous
370
    20
100
AcDbCircle
 39
0.25
 10
71.69883440813006
 20
153.834190287054
 30
0.0
 40
1.75
100
AcDbArc
 50
270.0
 51
90.0
1001
AUSTER_ANSICHT
1002
{
1000
Det03
1002
}
1001
AUSTER_FOLIE
1002
{
1000
NSB00040_ISO_EINBAU_S0
1002
}
  0
ARC
  5
AFB1
330
20
100
AcDbEntity
  8
10000_FRONT
  6
Continuous
370
    50
100
AcDbCircle
 39
0.25
 10
91.69883440813006
 20
170.334190287054
 30
0.0
 40
5.0
100
AcDbArc
 50
131.410000000001
 51
228.5899999999989
1001
AUSTER_ANSICHT
1002
{
1000
Det03
1002
}
1001
AUSTER_FOLIE
1002
{
1000
NSB00040_ISO_EINBAU_S0
1002
}
  0
ARC
  5
AFB2
330
20
100
AcDbEntity
  8
10000_FRONT
  6
Continuous
370
    50
100
AcDbCircle
 39
0.25
 10
91.69883440813006
 20
170.334190287054
 30
0.0
 40
5.0
100
AcDbArc
 50
311.4100000000011
 51
48.58999999999895
1001
AUSTER_ANSICHT
1002
{
1000
Det03
1002
}
1001
AUSTER_FOLIE
1002
{
1000
NSB00040_ISO_EINBAU_S0
1002
}
  0
ARC
  5
AFB3
330
20
100
AcDbEntity
  8
10000_FRONT
  6
Continuous
370
    50
100
AcDbCircle
 39
0.25
 10
89.44883440813006
 20
160.8341902870541
 30
0.0
 40
1.5
100
AcDbArc
 50
90.0
 51
167.4709999999998
1001
AUSTER_ANSICHT
1002
{
1000
Det03
1002
}
1001
AUSTER_FOLIE
1002
{
1000
NSB00040_ISO_EINBAU_S0
1002
}
  0
ARC
  5
AFB4
330
20
100
AcDbEntity
  8
10000_FRONT
  6
Continuous
370
    50
100
AcDbCircle
 39
0.25
 10
93.94783440813005
 20
160.8341902870541
 30
0.0
 40
1.5
100
AcDbArc
 50
12.52900000000017
 51
90.0
1001
AUSTER_ANSICHT
1002
{
1000
Det03
1002
}
1001
AUSTER_FOLIE
1002
{
1000
NSB00040_ISO_EINBAU_S0
1002
}
  0
ARC
  5
AFB5
330
20
100
AcDbEntity
  8
10000_FRONT
  6
Continuous
370
    50
100
AcDbCircle
 39
0.25
 10
91.69883440813006
 20
150.334190287054
 30
0.0
 40
3.0
100
AcDbArc
 50
90.0
 51
270.0
1001
AUSTER_ANSICHT
1002
{
1000
Det03
1002
}
1001
AUSTER_FOLIE
1002
{
1000
NSB00040_ISO_EINBAU_S0
1002
}
  0
ARC
  5
AFB6
330
20
100
AcDbEntity
  8
10000_FRONT
  6
Continuous
370
    50
100
AcDbCircle
 39
0.25
 10
91.69883440813006
 20
150.334190287054
 30
0.0
 40
3.0
100
AcDbArc
 50
270.0
 51
90.0
1001
AUSTER_ANSICHT
1002
{
1000
Det03
1002
}
1001
AUSTER_FOLIE
1002
{
1000
NSB00040_ISO_EINBAU_S0
1002
}
  0
ARC
  5
AFB7
330
20
100
AcDbEntity
  8
10000_FRONT
  6
Continuous
370
    50
100
AcDbCircle
 39
0.25
 10
91.69883440813006
 20
150.334190287054
 30
0.0
 40
26.5
100
AcDbArc
 50
90.0
 51
270.0
1001
AUSTER_ANSICHT
1002
{
1000
Det03
1002
}
1001
AUSTER_FOLIE
1002
{
1000
NSB00040_ISO_EINBAU_S0
1002
}
  0
ARC
  5
AFB8
330
20
100
AcDbEntity
  8
10000_FRONT
  6
Continuous
370
    50
100
AcDbCircle
 39
0.25
 10
91.69883440813006
 20
150.334190287054
 30
0.0
 40
31.0
100
AcDbArc
 50
90.0
 51
270.0
1001
AUSTER_ANSICHT
1002
{
1000
Det03
1002
}
1001
AUSTER_FOLIE
1002
{
1000
NSB00040_ISO_EINBAU_S0
1002
}
  0
ARC
  5
AFB9
330
20
100
AcDbEntity
  8
10000_FRONT
  6
Continuous
370
    50
100
AcDbCircle
 39
0.25
 10
62.44883440813005
 20
121.0841902870541
 30
0.0
 40
3.0
100
AcDbArc
 50
180.0
 51
270.0
1001
AUSTER_ANSICHT
1002
{
1000
Det03
1002
}
1001
AUSTER_FOLIE
1002
{
1000
NSB00040_ISO_EINBAU_S0
1002
}
  0
LINE
  5
AFBA
330
20
100
AcDbEntity
  8
10000_FRONT
  6
Continuous
370
    50
100
AcDbLine
 39
0.25
 10
99.11883440813006
 20
173.1861902870541
 30
0.0
 11
100.30783440813
 21
175.397190287054
 31
0.0
1001
AUSTER_ANSICHT
1002
{
1000
Det03
1002
}
1001
AUSTER_FOLIE
1002
{
1000
NSB00040_ISO_EINBAU_S0
1002
}
  0
LINE
  5
AFBB
330
20
100
AcDbEntity
  8
10000_FRONT
  6
Continuous
370
    50
100
AcDbLine
 39
0.25
 10
68.19883440813004
 20
155.334190287054
 30
0.0
 11
65.67483440813004
 21
155.334190287054
 31
0.0
1001
AUSTER_ANSICHT
1002
{
1000
Det03
1002
}
1001
AUSTER_FOLIE
1002
{
1000
NSB00040_ISO_EINBAU_S0
1002
}
  0
LINE
  5
AFBC
330
20
100
AcDbEntity
  8
10000_FRONT
  6
Continuous
370
    50
100
AcDbLine
 39
0.25
 10
68.19883440813004
 20
145.334190287054
 30
0.0
 11
68.19883440813004
 21
155.334190287054
 31
0.0
1001
AUSTER_ANSICHT
1002
{
1000
Det03
1002
}
1001
AUSTER_FOLIE
1002
{
1000
NSB00040_ISO_EINBAU_S0
1002
}
  0
LINE
  5
AFBD
330
20
100
AcDbEntity
  8
10000_FRONT
  6
Continuous
370
    50
100
AcDbLine
 39
0.25
 10
68.19883440813004
 20
145.334190287054
 30
0.0
 11
65.67483440813004
 21
145.334190287054
 31
0.0
1001
AUSTER_ANSICHT
1002
{
1000
Det03
1002
}
1001
AUSTER_FOLIE
1002
{
1000
NSB00040_ISO_EINBAU_S0
1002
}
  0
LINE
  5
AFBE
330
20
100
AcDbEntity
  8
10000_FRONT
  6
Continuous
370
    50
100
AcDbLine
 39
0.25
 10
99.11883440813006
 20
127.4821902870541
 30
0.0
 11
100.3808344081301
 21
125.2971902870541
 31
0.0
1001
AUSTER_ANSICHT
1002
{
1000
Det03
1002
}
1001
AUSTER_FOLIE
1002
{
1000
NSB00040_ISO_EINBAU_S0
1002
}
  0
LINE
  5
AFBF
330
20
100
AcDbEntity
  8
10000_FRONT
  6
Continuous
370
    50
100
AcDbLine
 39
0.25
 10
88.39183440813005
 20
174.084190287054
 30
0.0
 11
95.00583440813006
 21
174.084190287054
 31
0.0
1001
AUSTER_ANSICHT
1002
{
1000
Det03
1002
}
1001
AUSTER_FOLIE
1002
{
1000
NSB00040_ISO_EINBAU_S0
1002
}
  0
LINE
  5
AFC0
330
20
100
AcDbEntity
  8
10000_FRONT
  6
Continuous
370
    50
100
AcDbLine
 39
0.25
 10
88.39183440813005
 20
166.584190287054
 30
0.0
 11
95.00583440813006
 21
166.584190287054
 31
0.0
1001
AUSTER_ANSICHT
1002
{
1000
Det03
1002
}
1001
AUSTER_FOLIE
1002
{
1000
NSB00040_ISO_EINBAU_S0
1002
}
  0
LINE
  5
AFC1
330
20
100
AcDbEntity
  8
10000_FRONT
  6
Continuous
370
    50
100
AcDbLine
 39
0.25
 10
89.44883440813006
 20
162.334190287054
 30
0.0
 11
93.94783440813005
 21
162.334190287054
 31
0.0
1001
AUSTER_ANSICHT
1002
{
1000
Det03
1002
}
1001
AUSTER_FOLIE
1002
{
1000
NSB00040_ISO_EINBAU_S0
1002
}
  0
ARC
  5
AFC2
330
20
100
AcDbEntity
  8
10000_FRONT
  6
Continuous
370
    50
100
AcDbCircle
 39
0.25
 10
62.44883440813005
 20
179.5841902870541
 30
0.0
 40
3.0
100
AcDbArc
 50
90.0
 51
180.0
1001
AUSTER_ANSICHT
1002
{
1000
Det03
1002
}
1001
AUSTER_FOLIE
1002
{
1000
NSB00040_ISO_EINBAU_S0
1002
}
  0
LINE
  5
AFC3
330
20
100
AcDbEntity
  8
10000_FRONT
  6
Continuous
370
    50
100
AcDbLine
 39
0.25
 10
59.44883440813003
 20
179.5841902870541
 30
0.0
 11
59.44883440813003
 21
121.0841902870541
 31
0.0
1001
AUSTER_ANSICHT
1002
{
1000
Det03
1002
}
1001
AUSTER_FOLIE
1002
{
1000
NSB00040_ISO_EINBAU_S0
1002
}
  0
ARC
  5
AFC7
330
20
100
AcDbEntity
  8
11000_Left
  6
DASHED
 62
     7
370
    15
100
AcDbCircle
 39
1.0
 10
176.7784845659465
 20
168.6999093322554
 30
0.0
 40
0.5
100
AcDbArc
 50
180.0
 51
270.0
1001
AUSTER_ANSICHT
1002
{
1000
Det03
1002
}
1001
AUSTER_FOLIE
1002
{
1000
NSB00040_ISO_EINBAU_S0
1002
}
  0
ARC
  5
AFC8
330
20
100
AcDbEntity
  8
11000_Left
  6
DASHED
 62
     7
370
    15
100
AcDbCircle
 39
1.0
 10
175.2784845659465
 20
168.6999093322554
 30
0.0
 40
1.0
100
AcDbArc
 50
0.0
 51
90.0
1001
AUSTER_ANSICHT
1002
{
1000
Det03
1002
}
1001
AUSTER_FOLIE
1002
{
1000
NSB00040_ISO_EINBAU_S0
1002
}
  0
ARC
  5
AFC9
330
20
100
AcDbEntity
  8
11000_Left
  6
DASHED
 62
     7
370
    15
100
AcDbCircle
 39
1.0
 10
176.2784845659465
 20
165.1999093322554
 30
0.0
 40
2.5
100
AcDbArc
 50
270.0
 51
0.0
1001
AUSTER_ANSICHT
1002
{
1000
Det03
1002
}
1001
AUSTER_FOLIE
1002
{
1000
NSB00040_ISO_EINBAU_S0
1002
}
  0
ARC
  5
AFCA
330
20
100
AcDbEntity
  8
11000_Left
  6
DASHED
 62
     7
370
    15
100
AcDbCircle
 39
1.0
 10
176.2784845659465
 20
135.1999093322554
 30
0.0
 40
2.5
100
AcDbArc
 50
0.0
 51
90.0
1001
AUSTER_ANSICHT
1002
{
1000
Det03
1002
}
1001
AUSTER_FOLIE
1002
{
1000
NSB00040_ISO_EINBAU_S0
1002
}
  0
ARC
  5
AFCB
330
20
100
AcDbEntity
  8
11000_Left
  6
DASHED
 62
     7
370
    15
100
AcDbCircle
 39
1.0
 10
176.2784845659465
 20
166.1999093322554
 30
0.0
 40
1.5
100
AcDbArc
 50
270.0
 51
0.0
1001
AUSTER_ANSICHT
1002
{
1000
Det03
1002
}
1001
AUSTER_FOLIE
1002
{
1000
NSB00040_ISO_EINBAU_S0
1002
}
  0
ARC
  5
AFCC
330
20
100
AcDbEntity
  8
11000_Left
  6
DASHED
 62
     7
370
    15
100
AcDbCircle
 39
1.0
 10
176.2784845659465
 20
134.1999093322553
 30
0.0
 40
1.5
100
AcDbArc
 50
0.0
 51
90.0
1001
AUSTER_ANSICHT
1002
{
1000
Det03
1002
}
1001
AUSTER_FOLIE
1002
{
1000
NSB00040_ISO_EINBAU_S0
1002
}
  0
ARC
  5
AFCD
330
20
100
AcDbEntity
  8
11000_Left
  6
DASHED
 62
     7
370
    15
100
AcDbCircle
 39
1.0
 10
256.4964845659466
 20
172.3019093322553
 30
0.0
 40
0.8
100
AcDbArc
 50
4.996000000001058
 51
90.0
1001
AUSTER_ANSICHT
1002
{
1000
Det03
1002
}
1001
AUSTER_FOLIE
1002
{
1000
NSB00040_ISO_EINBAU_S0
1002
}
  0
ARC
  5
AFCE
330
20
100
AcDbEntity
  8
11000_Left
  6
DASHED
 62
     7
370
    15
100
AcDbCircle
 39
1.0
 10
232.2674845659467
 20
194.6019093322553
 30
0.0
 40
0.8
100
AcDbArc
 50
6.196000000000782
 51
90.0
1001
AUSTER_ANSICHT
1002
{
1000
Det03
1002
}
1001
AUSTER_FOLIE
1002
{
1000
NSB00040_ISO_EINBAU_S0
1002
}
  0
ARC
  5
AFCF
330
20
100
AcDbEntity
  8
11000_Left
  6
DASHED
 62
     7
370
    15
100
AcDbCircle
 39
1.0
 10
34.23048456594668
 20
173.1019093322553
 30
0.0
 40
200.0
100
AcDbArc
 50
3.1390000000008
 51
6.196000000000782
1001
AUSTER_ANSICHT
1002
{
1000
Det03
1002
}
1001
AUSTER_FOLIE
1002
{
1000
NSB00040_ISO_EINBAU_S0
1002
}
  0
ARC
  5
AFD0
330
20
100
AcDbEntity
  8
11000_Left
  6
DASHED
 62
     7
370
    15
100
AcDbCircle
 39
1.0
 10
202.0304845659467
 20
103.7019093322554
 30
0.0
 40
1.5
100
AcDbArc
 50
180.0
 51
270.0
1001
AUSTER_ANSICHT
1002
{
1000
Det03
1002
}
1001
AUSTER_FOLIE
1002
{
1000
NSB00040_ISO_EINBAU_S0
1002
}
  0
ARC
  5
AFD1
330
20
100
AcDbEntity
  8
11000_Left
  6
DASHED
 62
     7
370
    15
100
AcDbCircle
 39
1.0
 10
223.5304845659466
 20
103.7019093322554
 30
0.0
 40
1.5
100
AcDbArc
 50
270.0
 51
0.0
1001
AUSTER_ANSICHT
1002
{
1000
Det03
1002
}
1001
AUSTER_FOLIE
1002
{
1000
NSB00040_ISO_EINBAU_S0
1002
}
  0
ARC
  5
AFD2
330
20
100
AcDbEntity
  8
11000_Left
  6
DASHED
 62
     7
370
    15
100
AcDbCircle
 39
1.0
 10
34.23048456594668
 20
128.1019093322553
 30
0.0
 40
200.0
100
AcDbArc
 50
353.8039999999992
 51
359.9140000000013
1001
AUSTER_ANSICHT
1002
{
1000
Det03
1002
}
1001
AUSTER_FOLIE
1002
{
1000
NSB00040_ISO_EINBAU_S0
1002
}
  0
ARC
  5
AFD3
330
20
100
AcDbEntity
  8
11000_Left
  6
DASHED
 62
     7
370
    15
100
AcDbCircle
 39
1.0
 10
232.2674845659467
 20
106.6019093322554
 30
0.0
 40
0.8
100
AcDbArc
 50
270.0009999999999
 51
353.8039999999992
1001
AUSTER_ANSICHT
1002
{
1000
Det03
1002
}
1001
AUSTER_FOLIE
1002
{
1000
NSB00040_ISO_EINBAU_S0
1002
}
  0
ARC
  5
AFD4
330
20
100
AcDbEntity
  8
11000_Left
  6
DASHED
 62
     7
370
    15
100
AcDbCircle
 39
1.0
 10
234.5304845659467
 20
127.8019093322553
 30
0.0
 40
0.3
100
AcDbArc
 50
90.0
 51
179.9110000000015
1001
AUSTER_ANSICHT
1002
{
1000
Det03
1002
}
1001
AUSTER_FOLIE
1002
{
1000
NSB00040_ISO_EINBAU_S0
1002
}
  0
ARC
  5
AFD5
330
20
100
AcDbEntity
  8
11000_Left
  6
DASHED
 62
     7
370
    15
100
AcDbCircle
 39
1.0
 10
8.243484565946687
 20
150.6019093322553
 30
0.0
 40
250.0
100
AcDbArc
 50
0.5729999999996958
 51
4.996000000001058
1001
AUSTER_ANSICHT
1002
{
1000
Det03
1002
}
1001
AUSTER_FOLIE
1002
{
1000
NSB00040_ISO_EINBAU_S0
1002
}
  0
ARC
  5
AFD6
330
20
100
AcDbEntity
  8
11000_Left
  6
DASHED
 62
     7
370
    15
100
AcDbCircle
 39
1.0
 10
8.243484565946687
 20
150.6019093322553
 30
0.0
 40
250.0
100
AcDbArc
 50
355.0039999999989
 51
359.4270000000004
1001
AUSTER_ANSICHT
1002
{
1000
Det03
1002
}
1001
AUSTER_FOLIE
1002
{
1000
NSB00040_ISO_EINBAU_S0
1002
}
  0
ARC
  5
AFD7
330
20
100
AcDbEntity
  8
11000_Left
  6
DASHED
 62
     7
370
    15
100
AcDbCircle
 39
1.0
 10
256.4964845659466
 20
128.9019093322554
 30
0.0
 40
0.8
100
AcDbArc
 50
270.0009999999999
 51
355.006
1001
AUSTER_ANSICHT
1002
{
1000
Det03
1002
}
1001
AUSTER_FOLIE
1002
{
1000
NSB00040_ISO_EINBAU_S0
1002
}
  0
ARC
  5
AFD8
330
20
100
AcDbEntity
  8
11000_Left
  6
DASHED
 62
     7
370
    15
100
AcDbCircle
 39
1.0
 10
227.6114845659466
 20
152.3679093322553
 30
0.0
 40
32.5
100
AcDbArc
 50
345.749999999999
 51
354.7540000000002
1001
AUSTER_ANSICHT
1002
{
1000
Det03
1002
}
1001
AUSTER_FOLIE
1002
{
1000
NSB00040_ISO_EINBAU_S0
1002
}
  0
ARC
  5
AFD9
330
20
100
AcDbEntity
  8
11000_Left
  6
DASHED
 62
     7
370
    15
100
AcDbCircle
 39
1.0
 10
227.6114845659466
 20
152.3679093322553
 30
0.0
 40
32.5
100
AcDbArc
 50
5.245999999999715
 51
14.25000000000102
1001
AUSTER_ANSICHT
1002
{
1000
Det03
1002
}
1001
AUSTER_FOLIE
1002
{
1000
NSB00040_ISO_EINBAU_S0
1002
}
  0
LINE
  5
AFDA
330
20
100
AcDbEntity
  8
11000_Left
  6
DASHED
 62
     7
370
    15
100
AcDbLine
 39
1.0
 10
177.7784845659466
 20
168.1999093322554
 30
0.0
 11
177.7784845659466
 21
166.1999093322554
 31
0.0
1001
AUSTER_ANSICHT
1002
{
1000
Det03
1002
}
1001
AUSTER_FOLIE
1002
{
1000
NSB00040_ISO_EINBAU_S0
1002
}
  0
LINE
  5
AFDB
330
20
100
AcDbEntity
  8
11000_Left
  6
DASHED
 62
     7
370
    15
100
AcDbLine
 39
1.0
 10
177.7784845659466
 20
133.1999093322554
 30
0.0
 11
178.7784845659466
 21
133.1999093322554
 31
0.0
1001
AUSTER_ANSICHT
1002
{
1000
Det03
1002
}
1001
AUSTER_FOLIE
1002
{
1000
NSB00040_ISO_EINBAU_S0
1002
}
  0
LINE
  5
AFDC
330
20
100
AcDbEntity
  8
11000_Left
  6
DASHED
 62
     7
370
    15
100
AcDbLine
 39
1.0
 10
169.2784845659466
 20
169.6999093322554
 30
0.0
 11
174.8904845659465
 21
169.6999093322554
 31
0.0
1001
AUSTER_ANSICHT
1002
{
1000
Det03
1002
}
1001
AUSTER_FOLIE
1002
{
1000
NSB00040_ISO_EINBAU_S0
1002
}
  0
LINE
  5
AFDD
330
20
100
AcDbEntity
  8
11000_Left
  6
DASHED
 62
     7
370
    15
100
AcDbLine
 39
1.0
 10
178.2784845659465
 20
163.6999093322553
 30
0.0
 11
178.2784845659465
 21
136.6999093322554
 31
0.0
1001
AUSTER_ANSICHT
1002
{
1000
Det03
1002
}
1001
AUSTER_FOLIE
1002
{
1000
NSB00040_ISO_EINBAU_S0
1002
}
  0
LINE
  5
AFDE
330
20
100
AcDbEntity
  8
11000_Left
  6
DASHED
 62
     7
370
    15
100
AcDbLine
 39
1.0
 10
178.7784845659466
 20
168.1999093322554
 30
0.0
 11
178.7784845659466
 21
165.1999093322554
 31
0.0
1001
AUSTER_ANSICHT
1002
{
1000
Det03
1002
}
1001
AUSTER_FOLIE
1002
{
1000
NSB00040_ISO_EINBAU_S0
1002
}
  0
LINE
  5
AFDF
330
20
100
AcDbEntity
  8
11000_Left
  6
DASHED
 62
     7
370
    15
100
AcDbLine
 39
1.0
 10
171.2784845659466
 20
162.6999093322553
 30
0.0
 11
176.2784845659465
 21
162.6999093322553
 31
0.0
1001
AUSTER_ANSICHT
1002
{
1000
Det03
1002
}
1001
AUSTER_FOLIE
1002
{
1000
NSB00040_ISO_EINBAU_S0
1002
}
  0
LINE
  5
AFE0
330
20
100
AcDbEntity
  8
11000_Left
  6
DASHED
 62
     7
370
    15
100
AcDbLine
 39
1.0
 10
171.2784845659466
 20
137.6999093322553
 30
0.0
 11
176.2784845659465
 21
137.6999093322553
 31
0.0
1001
AUSTER_ANSICHT
1002
{
1000
Det03
1002
}
1001
AUSTER_FOLIE
1002
{
1000
NSB00040_ISO_EINBAU_S0
1002
}
  0
LINE
  5
AFE1
330
20
100
AcDbEntity
  8
11000_Left
  6
DASHED
 62
     7
370
    15
100
AcDbLine
 39
1.0
 10
178.7784845659466
 20
135.1999093322554
 30
0.0
 11
178.7784845659466
 21
133.1999093322554
 31
0.0
1001
AUSTER_ANSICHT
1002
{
1000
Det03
1002
}
1001
AUSTER_FOLIE
1002
{
1000
NSB00040_ISO_EINBAU_S0
1002
}
  0
LINE
  5
AFE2
330
20
100
AcDbEntity
  8
11000_Left
  6
DASHED
 62
     7
370
    15
100
AcDbLine
 39
1.0
 10
176.7784845659465
 20
168.1999093322554
 30
0.0
 11
178.7784845659466
 21
168.1999093322554
 31
0.0
1001
AUSTER_ANSICHT
1002
{
1000
Det03
1002
}
1001
AUSTER_FOLIE
1002
{
1000
NSB00040_ISO_EINBAU_S0
1002
}
  0
LINE
  5
AFE3
330
20
100
AcDbEntity
  8
11000_Left
  6
DASHED
 62
     7
370
    15
100
AcDbLine
 39
1.0
 10
171.2784845659466
 20
135.6999093322554
 30
0.0
 11
176.2784845659465
 21
135.6999093322554
 31
0.0
1001
AUSTER_ANSICHT
1002
{
1000
Det03
1002
}
1001
AUSTER_FOLIE
1002
{
1000
NSB00040_ISO_EINBAU_S0
1002
}
  0
LINE
  5
AFE4
330
20
100
AcDbEntity
  8
11000_Left
  6
DASHED
 62
     7
370
    15
100
AcDbLine
 39
1.0
 10
171.2784845659466
 20
164.6999093322554
 30
0.0
 11
176.2784845659465
 21
164.6999093322554
 31
0.0
1001
AUSTER_ANSICHT
1002
{
1000
Det03
1002
}
1001
AUSTER_FOLIE
1002
{
1000
NSB00040_ISO_EINBAU_S0
1002
}
  0
LINE
  5
AFE5
330
20
100
AcDbEntity
  8
11000_Left
  6
DASHED
 62
     7
370
    15
100
AcDbLine
 39
1.0
 10
233.9304845659466
 20
180.9019093322554
 30
0.0
 11
233.9304845659466
 21
184.0519093322553
 31
0.0
1001
AUSTER_ANSICHT
1002
{
1000
Det03
1002
}
1001
AUSTER_FOLIE
1002
{
1000
NSB00040_ISO_EINBAU_S0
1002
}
  0
LINE
  5
AFE6
330
20
100
AcDbEntity
  8
11000_Left
  6
DASHED
 62
     7
370
    15
100
AcDbLine
 39
1.0
 10
233.9354845659466
 20
173.0879093322553
 30
0.0
 11
233.9304845659466
 21
180.9019093322554
 31
0.0
1001
AUSTER_ANSICHT
1002
{
1000
Det03
1002
}
1001
AUSTER_FOLIE
1002
{
1000
NSB00040_ISO_EINBAU_S0
1002
}
  0
LINE
  5
AFE7
330
20
100
AcDbEntity
  8
11000_Left
  6
DASHED
 62
     7
370
    15
100
AcDbLine
 39
1.0
 10
233.9304845659466
 20
173.0879093322553
 30
0.0
 11
256.4964845659466
 21
173.1019093322553
 31
0.0
1001
AUSTER_ANSICHT
1002
{
1000
Det03
1002
}
1001
AUSTER_FOLIE
1002
{
1000
NSB00040_ISO_EINBAU_S0
1002
}
  0
LINE
  5
AFE8
330
20
100
AcDbEntity
  8
11000_Left
  6
DASHED
 62
     7
370
    15
100
AcDbLine
 39
1.0
 10
177.3804845659467
 20
171.7019093322553
 30
0.0
 11
177.3804845659467
 21
167.4019093322553
 31
0.0
1001
AUSTER_ANSICHT
1002
{
1000
Det03
1002
}
1001
AUSTER_FOLIE
1002
{
1000
NSB00040_ISO_EINBAU_S0
1002
}
  0
LINE
  5
AFE9
330
20
100
AcDbEntity
  8
11000_Left
  6
DASHED
 62
     7
370
    15
100
AcDbLine
 39
1.0
 10
178.7804845659465
 20
133.2019093322553
 30
0.0
 11
177.7804845659465
 21
133.2019093322553
 31
0.0
1001
AUSTER_ANSICHT
1002
{
1000
Det03
1002
}
1001
AUSTER_FOLIE
1002
{
1000
NSB00040_ISO_EINBAU_S0
1002
}
  0
LINE
  5
AFEA
330
20
100
AcDbEntity
  8
11000_Left
  6
DASHED
 62
     7
370
    15
100
AcDbLine
 39
1.0
 10
177.5124845659466
 20
134.2019093322553
 30
0.0
 11
177.7804845659465
 21
133.2019093322553
 31
0.0
1001
AUSTER_ANSICHT
1002
{
1000
Det03
1002
}
1001
AUSTER_FOLIE
1002
{
1000
NSB00040_ISO_EINBAU_S0
1002
}
  0
LINE
  5
AFEB
330
20
100
AcDbEntity
  8
11000_Left
  6
DASHED
 62
     7
370
    15
100
AcDbLine
 39
1.0
 10
177.5124845659466
 20
134.2019093322553
 30
0.0
 11
177.0124845659466
 21
134.2019093322553
 31
0.0
1001
AUSTER_ANSICHT
1002
{
1000
Det03
1002
}
1001
AUSTER_FOLIE
1002
{
1000
NSB00040_ISO_EINBAU_S0
1002
}
  0
LINE
  5
AFEC
330
20
100
AcDbEntity
  8
11000_Left
  6
DASHED
 62
     7
370
    15
100
AcDbLine
 39
1.0
 10
178.7804845659465
 20
171.7019093322553
 30
0.0
 11
178.7804845659465
 21
131.2019093322553
 31
0.0
1001
AUSTER_ANSICHT
1002
{
1000
Det03
1002
}
1001
AUSTER_FOLIE
1002
{
1000
NSB00040_ISO_EINBAU_S0
1002
}
  0
LINE
  5
AFED
330
20
100
AcDbEntity
  8
11000_Left
  6
DASHED
 62
     7
370
    15
100
AcDbLine
 39
1.0
 10
173.7804845659466
 20
105.9019093322554
 30
0.0
 11
200.5304845659466
 21
105.9019093322554
 31
0.0
1001
AUSTER_ANSICHT
1002
{
1000
Det03
1002
}
1001
AUSTER_FOLIE
1002
{
1000
NSB00040_ISO_EINBAU_S0
1002
}
  0
LINE
  5
AFEE
330
20
100
AcDbEntity
  8
11000_Left
  6
DASHED
 62
     7
370
    15
100
AcDbLine
 39
1.0
 10
174.6624845659466
 20
195.5019093322554
 30
0.0
 11
200.5304845659466
 21
195.5019093322554
 31
0.0
1001
AUSTER_ANSICHT
1002
{
1000
Det03
1002
}
1001
AUSTER_FOLIE
1002
{
1000
NSB00040_ISO_EINBAU_S0
1002
}
  0
LINE
  5
AFEF
330
20
100
AcDbEntity
  8
11000_Left
  6
DASHED
 62
     7
370
    15
100
AcDbLine
 39
1.0
 10
200.5304845659466
 20
105.9019093322554
 30
0.0
 11
200.5304845659466
 21
103.7019093322554
 31
0.0
1001
AUSTER_ANSICHT
1002
{
1000
Det03
1002
}
1001
AUSTER_FOLIE
1002
{
1000
NSB00040_ISO_EINBAU_S0
1002
}
  0
LINE
  5
AFF0
330
20
100
AcDbEntity
  8
11000_Left
  6
DASHED
 62
     7
370
    15
100
AcDbLine
 39
1.0
 10
232.2434845659467
 20
105.8019093322553
 30
0.0
 11
225.0304845659466
 21
105.8019093322553
 31
0.0
1001
AUSTER_ANSICHT
1002
{
1000
Det03
1002
}
1001
AUSTER_FOLIE
1002
{
1000
NSB00040_ISO_EINBAU_S0
1002
}
  0
LINE
  5
AFF1
330
20
100
AcDbEntity
  8
11000_Left
  6
DASHED
 62
     7
370
    15
100
AcDbLine
 39
1.0
 10
256.4964845659466
 20
128.1019093322553
 30
0.0
 11
234.5304845659467
 21
128.1019093322553
 31
0.0
1001
AUSTER_ANSICHT
1002
{
1000
Det03
1002
}
1001
AUSTER_FOLIE
1002
{
1000
NSB00040_ISO_EINBAU_S0
1002
}
  0
LINE
  5
AFF2
330
20
100
AcDbEntity
  8
11000_Left
  6
DASHED
 62
     7
370
    15
100
AcDbLine
 39
1.0
 10
259.8114845659466
 20
154.8679093322554
 30
0.0
 11
259.8114845659466
 21
149.8679093322554
 31
0.0
1001
AUSTER_ANSICHT
1002
{
1000
Det03
1002
}
1001
AUSTER_FOLIE
1002
{
1000
NSB00040_ISO_EINBAU_S0
1002
}
  0
LINE
  5
AFF3
330
20
100
AcDbEntity
  8
11000_Left
  6
DASHED
 62
     7
370
    15
100
AcDbLine
 39
1.0
 10
258.1114845659467
 20
144.3679093322553
 30
0.0
 11
259.1114845659467
 21
144.3679093322553
 31
0.0
1001
AUSTER_ANSICHT
1002
{
1000
Det03
1002
}
1001
AUSTER_FOLIE
1002
{
1000
NSB00040_ISO_EINBAU_S0
1002
}
  0
LINE
  5
AFF4
330
20
100
AcDbEntity
  8
11000_Left
  6
DASHED
 62
     7
370
    15
100
AcDbLine
 39
1.0
 10
258.1114845659467
 20
160.3679093322553
 30
0.0
 11
259.1114845659467
 21
160.3679093322553
 31
0.0
1001
AUSTER_ANSICHT
1002
{
1000
Det03
1002
}
1001
AUSTER_FOLIE
1002
{
1000
NSB00040_ISO_EINBAU_S0
1002
}
  0
LINE
  5
AFF5
330
20
100
AcDbEntity
  8
11000_Left
  6
DASHED
 62
     7
370
    15
100
AcDbLine
 39
1.0
 10
173.7804845659466
 20
130.8019093322553
 30
0.0
 11
173.7804845659466
 21
106.9019093322554
 31
0.0
1001
AUSTER_ANSICHT
1002
{
1000
Det03
1002
}
1001
AUSTER_FOLIE
1002
{
1000
NSB00040_ISO_EINBAU_S0
1002
}
  0
LINE
  5
AFF6
330
20
100
AcDbEntity
  8
11000_Left
  6
DASHED
 62
     7
370
    15
100
AcDbLine
 39
1.0
 10
173.7804845659466
 20
190.5019093322554
 30
0.0
 11
173.7804845659466
 21
172.1019093322553
 31
0.0
1001
AUSTER_ANSICHT
1002
{
1000
Det03
1002
}
1001
AUSTER_FOLIE
1002
{
1000
NSB00040_ISO_EINBAU_S0
1002
}
  0
LINE
  5
AFF7
330
20
100
AcDbEntity
  8
11000_Left
  6
DASHED
 62
     7
370
    15
100
AcDbLine
 39
1.0
 10
174.4864845659465
 20
194.5019093322554
 30
0.0
 11
173.7804845659466
 21
190.5019093322554
 31
0.0
1001
AUSTER_ANSICHT
1002
{
1000
Det03
1002
}
1001
AUSTER_FOLIE
1002
{
1000
NSB00040_ISO_EINBAU_S0
1002
}
  0
LINE
  5
AFF8
330
20
100
AcDbEntity
  8
11000_Left
  6
DASHED
 62
     7
370
    15
100
AcDbLine
 39
1.0
 10
174.6624845659466
 20
195.5019093322554
 30
0.0
 11
174.4864845659465
 21
194.5019093322554
 31
0.0
1001
AUSTER_ANSICHT
1002
{
1000
Det03
1002
}
1001
AUSTER_FOLIE
1002
{
1000
NSB00040_ISO_EINBAU_S0
1002
}
  0
LINE
  5
AFF9
330
20
100
AcDbEntity
  8
11000_Left
  6
DASHED
 62
     7
370
    15
100
AcDbLine
 39
1.0
 10
173.9714845659466
 20
191.5859093322553
 30
0.0
 11
173.9694845659466
 21
191.5729093322553
 31
0.0
1001
AUSTER_ANSICHT
1002
{
1000
Det03
1002
}
1001
AUSTER_FOLIE
1002
{
1000
NSB00040_ISO_EINBAU_S0
1002
}
  0
LINE
  5
AFFA
330
20
100
AcDbEntity
  8
11000_Left
  6
DASHED
 62
     7
370
    15
100
AcDbLine
 39
1.0
 10
173.7804845659466
 20
106.9019093322554
 30
0.0
 11
173.7804845659466
 21
105.9019093322554
 31
0.0
1001
AUSTER_ANSICHT
1002
{
1000
Det03
1002
}
1001
AUSTER_FOLIE
1002
{
1000
NSB00040_ISO_EINBAU_S0
1002
}
  0
LINE
  5
AFFB
330
20
100
AcDbEntity
  8
11000_Left
  6
DASHED
 62
     7
370
    15
100
AcDbLine
 39
1.0
 10
173.7804845659466
 20
171.7019093322553
 30
0.0
 11
173.7804845659466
 21
172.1019093322553
 31
0.0
1001
AUSTER_ANSICHT
1002
{
1000
Det03
1002
}
1001
AUSTER_FOLIE
1002
{
1000
NSB00040_ISO_EINBAU_S0
1002
}
  0
LINE
  5
AFFC
330
20
100
AcDbEntity
  8
11000_Left
  6
DASHED
 62
     7
370
    15
100
AcDbLine
 39
1.0
 10
178.7804845659465
 20
171.7019093322553
 30
0.0
 11
173.7804845659466
 21
171.7019093322553
 31
0.0
1001
AUSTER_ANSICHT
1002
{
1000
Det03
1002
}
1001
AUSTER_FOLIE
1002
{
1000
NSB00040_ISO_EINBAU_S0
1002
}
  0
LINE
  5
AFFD
330
20
100
AcDbEntity
  8
11000_Left
  6
DASHED
 62
     7
370
    15
100
AcDbLine
 39
1.0
 10
176.3804845659467
 20
166.4019093322554
 30
0.0
 11
177.3804845659467
 21
167.4019093322553
 31
0.0
1001
AUSTER_ANSICHT
1002
{
1000
Det03
1002
}
1001
AUSTER_FOLIE
1002
{
1000
NSB00040_ISO_EINBAU_S0
1002
}
  0
LINE
  5
AFFE
330
20
100
AcDbEntity
  8
11000_Left
  6
DASHED
 62
     7
370
    15
100
AcDbLine
 39
1.0
 10
175.6804845659465
 20
166.4019093322554
 30
0.0
 11
176.3804845659467
 21
166.4019093322554
 31
0.0
1001
AUSTER_ANSICHT
1002
{
1000
Det03
1002
}
1001
AUSTER_FOLIE
1002
{
1000
NSB00040_ISO_EINBAU_S0
1002
}
  0
LINE
  5
AFFF
330
20
100
AcDbEntity
  8
11000_Left
  6
DASHED
 62
     7
370
    15
100
AcDbLine
 39
1.0
 10
174.2804845659466
 20
171.7019093322553
 30
0.0
 11
175.6804845659465
 21
166.4019093322554
 31
0.0
1001
AUSTER_ANSICHT
1002
{
1000
Det03
1002
}
1001
AUSTER_FOLIE
1002
{
1000
NSB00040_ISO_EINBAU_S0
1002
}
  0
LINE
  5
B000
330
20
100
AcDbEntity
  8
11000_Left
  6
DASHED
 62
     7
370
    15
100
AcDbLine
 39
1.0
 10
173.7804845659466
 20
130.8019093322553
 30
0.0
 11
173.7804845659466
 21
131.2019093322553
 31
0.0
1001
AUSTER_ANSICHT
1002
{
1000
Det03
1002
}
1001
AUSTER_FOLIE
1002
{
1000
NSB00040_ISO_EINBAU_S0
1002
}
  0
LINE
  5
B001
330
20
100
AcDbEntity
  8
11000_Left
  6
DASHED
 62
     7
370
    15
100
AcDbLine
 39
1.0
 10
173.7804845659466
 20
131.2019093322553
 30
0.0
 11
178.7804845659465
 21
131.2019093322553
 31
0.0
1001
AUSTER_ANSICHT
1002
{
1000
Det03
1002
}
1001
AUSTER_FOLIE
1002
{
1000
NSB00040_ISO_EINBAU_S0
1002
}
  0
LINE
  5
B002
330
20
100
AcDbEntity
  8
11000_Left
  6
DASHED
 62
     7
370
    15
100
AcDbLine
 39
1.0
 10
177.0124845659466
 20
134.2019093322553
 30
0.0
 11
173.7804845659466
 21
131.2019093322553
 31
0.0
1001
AUSTER_ANSICHT
1002
{
1000
Det03
1002
}
1001
AUSTER_FOLIE
1002
{
1000
NSB00040_ISO_EINBAU_S0
1002
}
  0
LINE
  5
B003
330
20
100
AcDbEntity
  8
11000_Left
  6
DASHED
 62
     7
370
    15
100
AcDbLine
 39
1.0
 10
225.0314845659467
 20
195.4019093322554
 30
0.0
 11
232.2674845659467
 21
195.4019093322554
 31
0.0
1001
AUSTER_ANSICHT
1002
{
1000
Det03
1002
}
1001
AUSTER_FOLIE
1002
{
1000
NSB00040_ISO_EINBAU_S0
1002
}
  0
LINE
  5
B004
330
20
100
AcDbEntity
  8
11000_Left
  6
DASHED
 62
     7
370
    15
100
AcDbLine
 39
1.0
 10
200.5304845659466
 20
197.7019093322553
 30
0.0
 11
200.5304845659466
 21
195.5019093322554
 31
0.0
1001
AUSTER_ANSICHT
1002
{
1000
Det03
1002
}
1001
AUSTER_FOLIE
1002
{
1000
NSB00040_ISO_EINBAU_S0
1002
}
  0
LINE
  5
B005
330
20
100
AcDbEntity
  8
11000_Left
  6
DASHED
 62
     7
370
    15
100
AcDbLine
 39
1.0
 10
259.1114845659467
 20
140.9259093322553
 30
0.0
 11
259.1114845659467
 21
144.3679093322553
 31
0.0
1001
AUSTER_ANSICHT
1002
{
1000
Det03
1002
}
1001
AUSTER_FOLIE
1002
{
1000
NSB00040_ISO_EINBAU_S0
1002
}
  0
LINE
  5
B006
330
20
100
AcDbEntity
  8
11000_Left
  6
DASHED
 62
     7
370
    15
100
AcDbLine
 39
1.0
 10
269.6114845659467
 20
140.9259093322553
 30
0.0
 11
259.1114845659467
 21
140.9259093322553
 31
0.0
1001
AUSTER_ANSICHT
1002
{
1000
Det03
1002
}
1001
AUSTER_FOLIE
1002
{
1000
NSB00040_ISO_EINBAU_S0
1002
}
  0
LINE
  5
B007
330
20
100
AcDbEntity
  8
11000_Left
  6
DASHED
 62
     7
370
    15
100
AcDbLine
 39
1.0
 10
259.1114845659467
 20
168.9259093322554
 30
0.0
 11
269.6114845659467
 21
168.9259093322554
 31
0.0
1001
AUSTER_ANSICHT
1002
{
1000
Det03
1002
}
1001
AUSTER_FOLIE
1002
{
1000
NSB00040_ISO_EINBAU_S0
1002
}
  0
LINE
  5
B008
330
20
100
AcDbEntity
  8
11000_Left
  6
DASHED
 62
     7
370
    15
100
AcDbLine
 39
1.0
 10
259.1114845659467
 20
160.3679093322553
 30
0.0
 11
259.1114845659467
 21
168.9259093322554
 31
0.0
1001
AUSTER_ANSICHT
1002
{
1000
Det03
1002
}
1001
AUSTER_FOLIE
1002
{
1000
NSB00040_ISO_EINBAU_S0
1002
}
  0
LINE
  5
B009
330
20
100
AcDbEntity
  8
11000_Left
  6
DASHED
 62
     7
370
    15
100
AcDbLine
 39
1.0
 10
202.0304845659467
 20
102.2019093322554
 30
0.0
 11
223.5304845659466
 21
102.2019093322554
 31
0.0
1001
AUSTER_ANSICHT
1002
{
1000
Det03
1002
}
1001
AUSTER_FOLIE
1002
{
1000
NSB00040_ISO_EINBAU_S0
1002
}
  0
LINE
  5
B00A
330
20
100
AcDbEntity
  8
11000_Left
  6
DASHED
 62
     7
370
    15
100
AcDbLine
 39
1.0
 10
258.2304845659467
 20
153.1019093322553
 30
0.0
 11
258.2304845659467
 21
148.1019093322553
 31
0.0
1001
AUSTER_ANSICHT
1002
{
1000
Det03
1002
}
1001
AUSTER_FOLIE
1002
{
1000
NSB00040_ISO_EINBAU_S0
1002
}
  0
LINE
  5
B00B
330
20
100
AcDbEntity
  8
11000_Left
  6
DASHED
 62
     7
370
    15
100
AcDbLine
 39
1.0
 10
223.5304845659466
 20
199.2019093322553
 30
0.0
 11
202.0304845659467
 21
199.2019093322553
 31
0.0
1001
AUSTER_ANSICHT
1002
{
1000
Det03
1002
}
1001
AUSTER_FOLIE
1002
{
1000
NSB00040_ISO_EINBAU_S0
1002
}
  0
LINE
  5
B00C
330
20
100
AcDbEntity
  8
11000_Left
  6
DASHED
 62
     7
370
    15
100
AcDbLine
 39
1.0
 10
269.6114845659467
 20
168.9259093322554
 30
0.0
 11
269.6114845659467
 21
140.9259093322553
 31
0.0
1001
AUSTER_ANSICHT
1002
{
1000
Det03
1002
}
1001
AUSTER_FOLIE
1002
{
1000
NSB00040_ISO_EINBAU_S0
1002
}
  0
ARC
  5
B00D
330
20
100
AcDbEntity
  8
11000_Left
  6
Continuous
370
    50
100
AcDbCircle
 39
0.5
 10
156.5774845659466
 20
140.6999093322554
 30
0.0
 40
140.0
100
AcDbArc
 50
352.3880000000009
 51
7.814000000000903
1001
AUSTER_ANSICHT
1002
{
1000
Det03
1002
}
1001
AUSTER_FOLIE
1002
{
1000
NSB00040_ISO_EINBAU_S0
1002
}
  0
ARC
  5
B00E
330
20
100
AcDbEntity
  8
11000_Left
  6
Continuous
370
    50
100
AcDbCircle
 39
0.5
 10
294.2784845659466
 20
120.7429093322554
 30
0.0
 40
1.0
100
AcDbArc
 50
270.0
 51
0.0
1001
AUSTER_ANSICHT
1002
{
1000
Det03
1002
}
1001
AUSTER_FOLIE
1002
{
1000
NSB00040_ISO_EINBAU_S0
1002
}
  0
ARC
  5
B010
330
20
100
AcDbEntity
  8
11000_Left
  6
Continuous
370
    20
100
AcDbCircle
 39
0.25
 10
289.7784845659466
 20
147.6999093322554
 30
0.0
 40
2.0
100
AcDbArc
 50
270.0
 51
0.0
1001
AUSTER_ANSICHT
1002
{
1000
Det03
1002
}
1001
AUSTER_FOLIE
1002
{
1000
NSB00040_ISO_EINBAU_S0
1002
}
  0
ARC
  5
B011
330
20
100
AcDbEntity
  8
11000_Left
  6
Continuous
370
    20
100
AcDbCircle
 39
0.25
 10
284.7784845659467
 20
147.6999093322554
 30
0.0
 40
2.0
100
AcDbArc
 50
180.0
 51
270.0
1001
AUSTER_ANSICHT
1002
{
1000
Det03
1002
}
1001
AUSTER_FOLIE
1002
{
1000
NSB00040_ISO_EINBAU_S0
1002
}
  0
LINE
  5
B012
330
20
100
AcDbEntity
  8
11000_Left
  6
Continuous
370
    20
100
AcDbLine
 39
0.25
 10
295.2784845659466
 20
159.7349093322553
 30
0.0
 11
295.2784845659466
 21
120.7429093322554
 31
0.0
1001
AUSTER_ANSICHT
1002
{
1000
Det03
1002
}
1001
AUSTER_FOLIE
1002
{
1000
NSB00040_ISO_EINBAU_S0
1002
}
  0
LINE
  5
B013
330
20
100
AcDbEntity
  8
11000_Left
  6
Continuous
370
    50
100
AcDbLine
 39
0.5
 10
295.3444845659467
 20
122.1549093322555
 30
0.0
 11
295.2784845659466
 21
120.7429093322554
 31
0.0
1001
AUSTER_ANSICHT
1002
{
1000
Det03
1002
}
1001
AUSTER_FOLIE
1002
{
1000
NSB00040_ISO_EINBAU_S0
1002
}
  0
LINE
  5
B014
330
20
100
AcDbEntity
  8
11000_Left
  6
Continuous
370
    20
100
AcDbLine
 39
0.25
 10
291.7784845659466
 20
147.6999093322554
 30
0.0
 11
291.7784845659466
 21
153.6999093322554
 31
0.0
1001
AUSTER_ANSICHT
1002
{
1000
Det03
1002
}
1001
AUSTER_FOLIE
1002
{
1000
NSB00040_ISO_EINBAU_S0
1002
}
  0
LINE
  5
B015
330
20
100
AcDbEntity
  8
11000_Left
  6
Continuous
370
    20
100
AcDbLine
 39
0.25
 10
284.7784845659467
 20
145.6999093322554
 30
0.0
 11
289.7784845659466
 21
145.6999093322554
 31
0.0
1001
AUSTER_ANSICHT
1002
{
1000
Det03
1002
}
1001
AUSTER_FOLIE
1002
{
1000
NSB00040_ISO_EINBAU_S0
1002
}
  0
LINE
  5
B016
330
20
100
AcDbEntity
  8
11000_Left
  6
Continuous
370
    20
100
AcDbLine
 39
0.25
 10
282.7784845659466
 20
153.6999093322554
 30
0.0
 11
282.7784845659466
 21
147.6999093322554
 31
0.0
1001
AUSTER_ANSICHT
1002
{
1000
Det03
1002
}
1001
AUSTER_FOLIE
1002
{
1000
NSB00040_ISO_EINBAU_S0
1002
}
  0
LINE
  5
B017
330
20
100
AcDbEntity
  8
11000_Left
  6
Continuous
370
    20
100
AcDbLine
 39
0.25
 10
293.2784845659466
 20
119.6999093322554
 30
0.0
 11
293.2784845659466
 21
181.6999093322554
 31
0.0
1001
AUSTER_ANSICHT
1002
{
1000
Det03
1002
}
1001
AUSTER_FOLIE
1002
{
1000
NSB00040_ISO_EINBAU_S0
1002
}
  0
ARC
  5
B018
330
20
100
AcDbEntity
  8
11000_Left
  6
Continuous
370
    20
100
AcDbCircle
 39
0.25
 10
279.2784845659466
 20
120.0899093322554
 30
0.0
 40
1.0
100
AcDbArc
 50
272.5
 51
0.0
1001
AUSTER_ANSICHT
1002
{
1000
Det03
1002
}
1001
AUSTER_FOLIE
1002
{
1000
NSB00040_ISO_EINBAU_S0
1002
}
  0
LINE
  5
B019
330
20
100
AcDbEntity
  8
11000_Left
  6
Continuous
370
    20
100
AcDbLine
 39
0.25
 10
280.2784845659467
 20
120.0899093322554
 30
0.0
 11
280.2784845659467
 21
144.0849093322554
 31
0.0
1001
AUSTER_ANSICHT
1002
{
1000
Det03
1002
}
1001
AUSTER_FOLIE
1002
{
1000
NSB00040_ISO_EINBAU_S0
1002
}
  0
LINE
  5
B01A
330
20
100
AcDbEntity
  8
11000_Left
  6
Continuous
370
    50
100
AcDbLine
 39
0.5
 10
294.2344845659466
 20
119.7419093322553
 30
0.0
 11
277.2544845659467
 21
119.0009093322554
 31
0.0
1001
AUSTER_ANSICHT
1002
{
1000
Det03
1002
}
1001
AUSTER_FOLIE
1002
{
1000
NSB00040_ISO_EINBAU_S0
1002
}
  0
ARC
  5
B01B
330
20
100
AcDbEntity
  8
11000_Left
  6
Continuous
370
    20
100
AcDbCircle
 39
0.25
 10
289.7784845659466
 20
153.6999093322554
 30
0.0
 40
2.0
100
AcDbArc
 50
0.0
 51
90.0
1001
AUSTER_ANSICHT
1002
{
1000
Det03
1002
}
1001
AUSTER_FOLIE
1002
{
1000
NSB00040_ISO_EINBAU_S0
1002
}
  0
ARC
  5
B01C
330
20
100
AcDbEntity
  8
11000_Left
  6
Continuous
370
    20
100
AcDbCircle
 39
0.25
 10
284.7784845659467
 20
153.6999093322554
 30
0.0
 40
2.0
100
AcDbArc
 50
90.0
 51
180.0
1001
AUSTER_ANSICHT
1002
{
1000
Det03
1002
}
1001
AUSTER_FOLIE
1002
{
1000
NSB00040_ISO_EINBAU_S0
1002
}
  0
LINE
  5
B01D
330
20
100
AcDbEntity
  8
11000_Left
  6
Continuous
370
    20
100
AcDbLine
 39
0.25
 10
289.7784845659466
 20
155.6999093322554
 30
0.0
 11
284.7784845659467
 21
155.6999093322554
 31
0.0
1001
AUSTER_ANSICHT
1002
{
1000
Det03
1002
}
1001
AUSTER_FOLIE
1002
{
1000
NSB00040_ISO_EINBAU_S0
1002
}
  0
LINE
  5
B01E
330
20
100
AcDbEntity
  8
11000_Left
  6
Continuous
370
    20
100
AcDbLine
 39
0.25
 10
280.2784845659467
 20
156.9919093322553
 30
0.0
 11
280.2784845659467
 21
181.3109093322554
 31
0.0
1001
AUSTER_ANSICHT
1002
{
1000
Det03
1002
}
1001
AUSTER_FOLIE
1002
{
1000
NSB00040_ISO_EINBAU_S0
1002
}
  0
ARC
  5
B01F
330
20
100
AcDbEntity
  8
11000_Left
  6
Continuous
370
    50
100
AcDbCircle
 39
0.5
 10
294.2784845659466
 20
180.6559093322554
 30
0.0
 40
1.0
100
AcDbArc
 50
0.0
 51
87.50000000000001
1001
AUSTER_ANSICHT
1002
{
1000
Det03
1002
}
1001
AUSTER_FOLIE
1002
{
1000
NSB00040_ISO_EINBAU_S0
1002
}
  0
LINE
  5
B020
330
20
100
AcDbEntity
  8
11000_Left
  6
Continuous
370
    50
100
AcDbLine
 39
0.5
 10
295.2784845659466
 20
180.6559093322554
 30
0.0
 11
295.2784845659466
 21
159.7349093322553
 31
0.0
1001
AUSTER_ANSICHT
1002
{
1000
Det03
1002
}
1001
AUSTER_FOLIE
1002
{
1000
NSB00040_ISO_EINBAU_S0
1002
}
  0
ARC
  5
B021
330
20
100
AcDbEntity
  8
11000_Left
  6
Continuous
370
    20
100
AcDbCircle
 39
0.25
 10
279.2784845659466
 20
181.3109093322554
 30
0.0
 40
1.0
100
AcDbArc
 50
0.0
 51
87.50000000000001
1001
AUSTER_ANSICHT
1002
{
1000
Det03
1002
}
1001
AUSTER_FOLIE
1002
{
1000
NSB00040_ISO_EINBAU_S0
1002
}
  0
LINE
  5
B022
330
20
100
AcDbEntity
  8
11000_Left
  6
Continuous
370
    50
100
AcDbLine
 39
0.5
 10
294.3214845659466
 20
181.6549093322554
 30
0.0
 11
277.2544845659467
 21
182.3999093322554
 31
0.0
1001
AUSTER_ANSICHT
1002
{
1000
Det03
1002
}
1001
AUSTER_FOLIE
1002
{
1000
NSB00040_ISO_EINBAU_S0
1002
}
  0
LINE
  5
B023
330
20
100
AcDbEntity
  8
11000_Left
  6
DASHED
 62
     7
370
    15
100
AcDbLine
 39
1.0
 10
225.0314845659467
 20
197.6019093322553
 30
0.0
 11
225.0314845659467
 21
195.4019093322554
 31
0.0
1001
AUSTER_ANSICHT
1002
{
1000
Det03
1002
}
1001
AUSTER_FOLIE
1002
{
1000
NSB00040_ISO_EINBAU_S0
1002
}
  0
DIMENSION
  5
B082
330
20
100
AcDbEntity
  8
11100_LEFT_DIM
  6
Continuous
 62
     7
370
    13
100
AcDbDimension
  2
*D10
 10
296.577267047842
 20
254.7379337658866
 30
0.0
 11
286.9278758068943
 21
254.7379337658866
 31
0.0
 70
    32
 71
     5
 42
19.29878248189538
  3
DSTYLE1
100
AcDbAlignedDimension
 13
277.2784845659466
 23
233.411190287054
 33
0.0
 14
296.577267047842
 24
140.9466987606772
 34
0.0
100
AcDbRotatedDimension
1001
ACAD
1000
DSTYLE
1002
{
1070
    41
1040
3.0
1070
    42
1040
1.0
1070
    43
1040
1.0
1070
    47
1040
0.005
1070
    48
1040
-0.005
1070
    77
1070
     0
1070
    78
1070
     0
1070
   140
1040
5.0
1070
   143
1040
25.4
1070
   171
1070
     0
1070
   172
1070
     1
1070
   271
1070
     0
1070
   272
1070
     1
1070
   277
1070
     6
1070
   279
1070
     0
1002
}
  0
LINE
  5
B20A
330
20
100
AcDbEntity
  8
10000_FRONT
  6
DASHED
 62
     7
370
    15
100
AcDbLine
 39
1.0
 10
104.3988344081303
 20
100.1681902870541
 30
0.0
 11
105.8988344081303
 21
100.1681902870541
 31
0.0
1001
AUSTER_ANSICHT
1002
{
1000
V
1002
}
1001
AUSTER_FOLIE
1002
{
1000
S0_LS
1002
}
  0
LINE
  5
B20B
330
20
100
AcDbEntity
  8
10000_FRONT
  6
DASHED
 62
     7
370
    15
100
AcDbLine
 39
1.0
 10
105.8988344081303
 20
101.668190287054
 30
0.0
 11
105.8988344081303
 21
100.1681902870541
 31
0.0
1001
AUSTER_ANSICHT
1002
{
1000
V
1002
}
1001
AUSTER_FOLIE
1002
{
1000
S0_LS
1002
}
  0
LINE
  5
B20C
330
20
100
AcDbEntity
  8
10000_FRONT
  6
DASHED
 62
     7
370
    15
100
AcDbLine
 39
1.0
 10
104.3988344081303
 20
100.1681902870541
 30
0.0
 11
104.3988344081303
 21
101.668190287054
 31
0.0
1001
AUSTER_ANSICHT
1002
{
1000
V
1002
}
1001
AUSTER_FOLIE
1002
{
1000
S0_LS
1002
}
  0
LINE
  5
B20D
330
20
100
AcDbEntity
  8
10000_FRONT
  6
DASHED
 62
     7
370
    15
100
AcDbLine
 39
1.0
 10
104.3988344081303
 20
103.7684902870541
 30
0.0
 11
104.3988344081303
 21
101.668190287054
 31
0.0
1001
AUSTER_ANSICHT
1002
{
1000
V
1002
}
1001
AUSTER_FOLIE
1002
{
1000
S0_LS
1002
}
  0
LINE
  5
B20E
330
20
100
AcDbEntity
  8
10000_FRONT
  6
DASHED
 62
     7
370
    15
100
AcDbLine
 39
1.0
 10
105.8988344081303
 20
104.092990287054
 30
0.0
 11
105.8988344081303
 21
101.668190287054
 31
0.0
1001
AUSTER_ANSICHT
1002
{
1000
V
1002
}
1001
AUSTER_FOLIE
1002
{
1000
S0_LS
1002
}
  0
LINE
  5
B214
330
20
100
AcDbEntity
  8
10000_FRONT
  6
DASHED
 62
     7
370
    15
100
AcDbLine
 39
1.0
 10
105.8988344081303
 20
103.7681902870541
 30
0.0
 11
61.09885440813007
 21
103.7681902870541
 31
0.0
1001
AUSTER_ANSICHT
1002
{
1000
V
1002
}
1001
AUSTER_FOLIE
1002
{
1000
S0_LS
1002
}
  0
LINE
  5
B215
330
20
100
AcDbEntity
  8
10000_FRONT
  6
DASHED
 62
     7
370
    15
100
AcDbLine
 39
1.0
 10
62.59885440813008
 20
101.668190287054
 30
0.0
 11
62.59885440813008
 21
103.7684902870541
 31
0.0
1001
AUSTER_ANSICHT
1002
{
1000
V
1002
}
1001
AUSTER_FOLIE
1002
{
1000
S0_LS
1002
}
  0
LINE
  5
B216
330
20
100
AcDbEntity
  8
10000_FRONT
  6
DASHED
 62
     7
370
    15
100
AcDbLine
 39
1.0
 10
69.61385440812995
 20
108.9912902870541
 30
0.0
 11
69.61385440812995
 21
109.983590287054
 31
0.0
1001
AUSTER_ANSICHT
1002
{
1000
V
1002
}
1001
AUSTER_FOLIE
1002
{
1000
S0_LS
1002
}
  0
LINE
  5
B217
330
20
100
AcDbEntity
  8
10000_FRONT
  6
DASHED
 62
     7
370
    15
100
AcDbLine
 39
1.0
 10
68.5838544081302
 20
109.983590287054
 30
0.0
 11
68.5838544081302
 21
108.9912902870541
 31
0.0
1001
AUSTER_ANSICHT
1002
{
1000
V
1002
}
1001
AUSTER_FOLIE
1002
{
1000
S0_LS
1002
}
  0
LINE
  5
B218
330
20
100
AcDbEntity
  8
10000_FRONT
  6
DASHED
 62
     7
370
    15
100
AcDbLine
 39
1.0
 10
84.01385440813005
 20
108.9912902870541
 30
0.0
 11
84.01385440813005
 21
109.983590287054
 31
0.0
1001
AUSTER_ANSICHT
1002
{
1000
V
1002
}
1001
AUSTER_FOLIE
1002
{
1000
S0_LS
1002
}
  0
LINE
  5
B219
330
20
100
AcDbEntity
  8
10000_FRONT
  6
DASHED
 62
     7
370
    15
100
AcDbLine
 39
1.0
 10
82.9838544081303
 20
109.983590287054
 30
0.0
 11
82.9838544081303
 21
108.9912902870541
 31
0.0
1001
AUSTER_ANSICHT
1002
{
1000
V
1002
}
1001
AUSTER_FOLIE
1002
{
1000
S0_LS
1002
}
  0
LINE
  5
B21A
330
20
100
AcDbEntity
  8
10000_FRONT
  6
DASHED
 62
     7
370
    15
100
AcDbLine
 39
1.0
 10
98.41383440813018
 20
108.9912902870541
 30
0.0
 11
98.41383440813018
 21
109.983590287054
 31
0.0
1001
AUSTER_ANSICHT
1002
{
1000
V
1002
}
1001
AUSTER_FOLIE
1002
{
1000
S0_LS
1002
}
  0
LINE
  5
B21B
330
20
100
AcDbEntity
  8
10000_FRONT
  6
DASHED
 62
     7
370
    15
100
AcDbLine
 39
1.0
 10
97.38383440813001
 20
109.983590287054
 30
0.0
 11
97.38383440813001
 21
108.9912902870541
 31
0.0
1001
AUSTER_ANSICHT
1002
{
1000
V
1002
}
1001
AUSTER_FOLIE
1002
{
1000
S0_LS
1002
}
  0
LINE
  5
B21C
330
20
100
AcDbEntity
  8
10000_FRONT
  6
DASHED
 62
     7
370
    15
100
AcDbLine
 39
1.0
 10
89.99883440813022
 20
103.7684902870541
 30
0.0
 11
89.99883440813022
 21
101.668190287054
 31
0.0
1001
AUSTER_ANSICHT
1002
{
1000
V
1002
}
1001
AUSTER_FOLIE
1002
{
1000
S0_LS
1002
}
  0
LINE
  5
B21D
330
20
100
AcDbEntity
  8
10000_FRONT
  6
DASHED
 62
     7
370
    15
100
AcDbLine
 39
1.0
 10
91.39883440813033
 20
101.668190287054
 30
0.0
 11
91.39883440813033
 21
103.7684902870541
 31
0.0
1001
AUSTER_ANSICHT
1002
{
1000
V
1002
}
1001
AUSTER_FOLIE
1002
{
1000
S0_LS
1002
}
  0
LINE
  5
B21E
330
20
100
AcDbEntity
  8
10000_FRONT
  6
DASHED
 62
     7
370
    15
100
AcDbLine
 39
1.0
 10
76.99885440813017
 20
101.668190287054
 30
0.0
 11
76.99885440813017
 21
103.7684902870541
 31
0.0
1001
AUSTER_ANSICHT
1002
{
1000
V
1002
}
1001
AUSTER_FOLIE
1002
{
1000
S0_LS
1002
}
  0
LINE
  5
B21F
330
20
100
AcDbEntity
  8
10000_FRONT
  6
DASHED
 62
     7
370
    15
100
AcDbLine
 39
1.0
 10
75.59885440813008
 20
103.7684902870541
 30
0.0
 11
75.59885440813008
 21
101.668190287054
 31
0.0
1001
AUSTER_ANSICHT
1002
{
1000
V
1002
}
1001
AUSTER_FOLIE
1002
{
1000
S0_LS
1002
}
  0
CIRCLE
  5
B220
330
20
100
AcDbEntity
  8
10000_FRONT
  6
DASHED
 62
     7
370
    15
100
AcDbCircle
 39
1.0
 10
69.09885440813008
 20
110.7681902870541
 30
0.0
 40
3.1
1001
AUSTER_ANSICHT
1002
{
1000
V
1002
}
1001
AUSTER_FOLIE
1002
{
1000
S0_LS
1002
}
  0
ARC
  5
B221
330
20
100
AcDbEntity
  8
10000_FRONT
  6
DASHED
 62
     7
370
    15
100
AcDbCircle
 39
1.0
 10
69.09885440813008
 20
110.7681902870541
 30
0.0
 40
1.85
100
AcDbArc
 50
253.8365999999989
 51
286.1634000000003
1001
AUSTER_ANSICHT
1002
{
1000
V
1002
}
1001
AUSTER_FOLIE
1002
{
1000
S0_LS
1002
}
  0
CIRCLE
  5
B222
330
20
100
AcDbEntity
  8
10000_FRONT
  6
DASHED
 62
     7
370
    15
100
AcDbCircle
 39
1.0
 10
69.09885440813008
 20
110.7681902870541
 30
0.0
 40
3.1
1001
AUSTER_ANSICHT
1002
{
1000
V
1002
}
1001
AUSTER_FOLIE
1002
{
1000
S0_LS
1002
}
  0
CIRCLE
  5
B223
330
20
100
AcDbEntity
  8
10000_FRONT
  6
DASHED
 62
     7
370
    15
100
AcDbCircle
 39
1.0
 10
83.49885440813016
 20
110.7681902870541
 30
0.0
 40
3.1
1001
AUSTER_ANSICHT
1002
{
1000
V
1002
}
1001
AUSTER_FOLIE
1002
{
1000
S0_LS
1002
}
  0
ARC
  5
B224
330
20
100
AcDbEntity
  8
10000_FRONT
  6
DASHED
 62
     7
370
    15
100
AcDbCircle
 39
1.0
 10
83.49885440813016
 20
110.7681902870541
 30
0.0
 40
1.85
100
AcDbArc
 50
253.8365999999989
 51
286.1634000000003
1001
AUSTER_ANSICHT
1002
{
1000
V
1002
}
1001
AUSTER_FOLIE
1002
{
1000
S0_LS
1002
}
  0
CIRCLE
  5
B225
330
20
100
AcDbEntity
  8
10000_FRONT
  6
DASHED
 62
     7
370
    15
100
AcDbCircle
 39
1.0
 10
83.49885440813016
 20
110.7681902870541
 30
0.0
 40
3.1
1001
AUSTER_ANSICHT
1002
{
1000
V
1002
}
1001
AUSTER_FOLIE
1002
{
1000
S0_LS
1002
}
  0
CIRCLE
  5
B226
330
20
100
AcDbEntity
  8
10000_FRONT
  6
DASHED
 62
     7
370
    15
100
AcDbCircle
 39
1.0
 10
97.89883440813033
 20
110.7681902870541
 30
0.0
 40
3.1
1001
AUSTER_ANSICHT
1002
{
1000
V
1002
}
1001
AUSTER_FOLIE
1002
{
1000
S0_LS
1002
}
  0
ARC
  5
B227
330
20
100
AcDbEntity
  8
10000_FRONT
  6
DASHED
 62
     7
370
    15
100
AcDbCircle
 39
1.0
 10
97.89883440813033
 20
110.7681902870541
 30
0.0
 40
1.85
100
AcDbArc
 50
253.8365999999989
 51
286.1634000000003
1001
AUSTER_ANSICHT
1002
{
1000
V
1002
}
1001
AUSTER_FOLIE
1002
{
1000
S0_LS
1002
}
  0
CIRCLE
  5
B228
330
20
100
AcDbEntity
  8
10000_FRONT
  6
DASHED
 62
     7
370
    15
100
AcDbCircle
 39
1.0
 10
97.89883440813033
 20
110.7681902870541
 30
0.0
 40
3.1
1001
AUSTER_ANSICHT
1002
{
1000
V
1002
}
1001
AUSTER_FOLIE
1002
{
1000
S0_LS
1002
}
  0
LINE
  5
B238
330
20
100
AcDbEntity
  8
10000_FRONT
  6
DASHED
 62
     7
370
    15
100
AcDbLine
 39
1.0
 10
89.99883440813022
 20
100.1681902870541
 30
0.0
 11
89.99883440813022
 21
101.668190287054
 31
0.0
1001
AUSTER_ANSICHT
1002
{
1000
V
1002
}
1001
AUSTER_FOLIE
1002
{
1000
S0_LS
1002
}
  0
LINE
  5
B239
330
20
100
AcDbEntity
  8
10000_FRONT
  6
DASHED
 62
     7
370
    15
100
AcDbLine
 39
1.0
 10
89.99883440813022
 20
100.1681902870541
 30
0.0
 11
91.39883440813033
 21
100.1681902870541
 31
0.0
1001
AUSTER_ANSICHT
1002
{
1000
V
1002
}
1001
AUSTER_FOLIE
1002
{
1000
S0_LS
1002
}
  0
LINE
  5
B23A
330
20
100
AcDbEntity
  8
10000_FRONT
  6
DASHED
 62
     7
370
    15
100
AcDbLine
 39
1.0
 10
91.39883440813033
 20
101.668190287054
 30
0.0
 11
91.39883440813033
 21
100.1681902870541
 31
0.0
1001
AUSTER_ANSICHT
1002
{
1000
V
1002
}
1001
AUSTER_FOLIE
1002
{
1000
S0_LS
1002
}
  0
LINE
  5
B23E
330
20
100
AcDbEntity
  8
10000_FRONT
  6
DASHED
 62
     7
370
    15
100
AcDbLine
 39
1.0
 10
75.59885440813008
 20
100.1681902870541
 30
0.0
 11
75.59885440813008
 21
101.668190287054
 31
0.0
1001
AUSTER_ANSICHT
1002
{
1000
V
1002
}
1001
AUSTER_FOLIE
1002
{
1000
S0_LS
1002
}
  0
LINE
  5
B23F
330
20
100
AcDbEntity
  8
10000_FRONT
  6
DASHED
 62
     7
370
    15
100
AcDbLine
 39
1.0
 10
75.59885440813008
 20
100.1681902870541
 30
0.0
 11
76.99885440813017
 21
100.1681902870541
 31
0.0
1001
AUSTER_ANSICHT
1002
{
1000
V
1002
}
1001
AUSTER_FOLIE
1002
{
1000
S0_LS
1002
}
  0
LINE
  5
B240
330
20
100
AcDbEntity
  8
10000_FRONT
  6
DASHED
 62
     7
370
    15
100
AcDbLine
 39
1.0
 10
76.99885440813017
 20
101.668190287054
 30
0.0
 11
76.99885440813017
 21
100.1681902870541
 31
0.0
1001
AUSTER_ANSICHT
1002
{
1000
V
1002
}
1001
AUSTER_FOLIE
1002
{
1000
S0_LS
1002
}
  0
LINE
  5
B244
330
20
100
AcDbEntity
  8
10000_FRONT
  6
DASHED
 62
     7
370
    15
100
AcDbLine
 39
1.0
 10
61.09885440813007
 20
100.1681902870541
 30
0.0
 11
62.59885440813008
 21
100.1681902870541
 31
0.0
1001
AUSTER_ANSICHT
1002
{
1000
V
1002
}
1001
AUSTER_FOLIE
1002
{
1000
S0_LS
1002
}
  0
LINE
  5
B245
330
20
100
AcDbEntity
  8
10000_FRONT
  6
DASHED
 62
     7
370
    15
100
AcDbLine
 39
1.0
 10
61.09885440813007
 20
100.1681902870541
 30
0.0
 11
61.09885440813007
 21
101.668190287054
 31
0.0
1001
AUSTER_ANSICHT
1002
{
1000
V
1002
}
1001
AUSTER_FOLIE
1002
{
1000
S0_LS
1002
}
  0
LINE
  5
B246
330
20
100
AcDbEntity
  8
10000_FRONT
  6
DASHED
 62
     7
370
    15
100
AcDbLine
 39
1.0
 10
62.59885440813008
 20
101.668190287054
 30
0.0
 11
62.59885440813008
 21
100.1681902870541
 31
0.0
1001
AUSTER_ANSICHT
1002
{
1000
V
1002
}
1001
AUSTER_FOLIE
1002
{
1000
S0_LS
1002
}
  0
LINE
  5
B247
330
20
100
AcDbEntity
  8
10000_FRONT
  6
DASHED
 62
     7
370
    15
100
AcDbLine
 39
1.0
 10
61.09885440813007
 20
101.668190287054
 30
0.0
 11
61.09885440813007
 21
104.0453902870541
 31
0.0
1001
AUSTER_ANSICHT
1002
{
1000
V
1002
}
1001
AUSTER_FOLIE
1002
{
1000
S0_LS
1002
}
  0
LINE
  5
B24C
330
20
100
AcDbEntity
  8
10000_FRONT
  6
DASHED
 62
     7
370
    15
100
AcDbLine
 39
1.0
 10
61.09885440813007
 20
192.3681902870541
 30
0.0
 11
61.09885440813007
 21
103.7681902870541
 31
0.0
1001
AUSTER_ANSICHT
1002
{
1000
V
1002
}
1001
AUSTER_FOLIE
1002
{
1000
S0_LS
1002
}
  0
LINE
  5
B24D
330
20
100
AcDbEntity
  8
10000_FRONT
  6
DASHED
 62
     7
370
    15
100
AcDbLine
 39
1.0
 10
66.31315440813017
 20
110.163890287054
 30
0.0
 11
68.5838544081302
 21
110.163890287054
 31
0.0
1001
AUSTER_ANSICHT
1002
{
1000
V
1002
}
1001
AUSTER_FOLIE
1002
{
1000
S0_LS
1002
}
  0
LINE
  5
B24E
330
20
100
AcDbEntity
  8
10000_FRONT
  6
DASHED
 62
     7
370
    15
100
AcDbLine
 39
1.0
 10
69.61385440812995
 20
110.163890287054
 30
0.0
 11
71.88455440812998
 21
110.163890287054
 31
0.0
1001
AUSTER_ANSICHT
1002
{
1000
V
1002
}
1001
AUSTER_FOLIE
1002
{
1000
S0_LS
1002
}
  0
LINE
  5
B24F
330
20
100
AcDbEntity
  8
10000_FRONT
  6
DASHED
 62
     7
370
    15
100
AcDbLine
 39
1.0
 10
71.88455440812998
 20
111.372490287054
 30
0.0
 11
69.61385440812995
 21
111.372490287054
 31
0.0
1001
AUSTER_ANSICHT
1002
{
1000
V
1002
}
1001
AUSTER_FOLIE
1002
{
1000
S0_LS
1002
}
  0
LINE
  5
B250
330
20
100
AcDbEntity
  8
10000_FRONT
  6
DASHED
 62
     7
370
    15
100
AcDbLine
 39
1.0
 10
68.5838544081302
 20
111.372490287054
 30
0.0
 11
66.31315440813017
 21
111.372490287054
 31
0.0
1001
AUSTER_ANSICHT
1002
{
1000
V
1002
}
1001
AUSTER_FOLIE
1002
{
1000
S0_LS
1002
}
  0
LINE
  5
B251
330
20
100
AcDbEntity
  8
10000_FRONT
  6
DASHED
 62
     7
370
    15
100
AcDbLine
 39
1.0
 10
68.5838544081302
 20
112.545090287054
 30
0.0
 11
68.5838544081302
 21
111.552790287054
 31
0.0
1001
AUSTER_ANSICHT
1002
{
1000
V
1002
}
1001
AUSTER_FOLIE
1002
{
1000
S0_LS
1002
}
  0
LINE
  5
B252
330
20
100
AcDbEntity
  8
10000_FRONT
  6
DASHED
 62
     7
370
    15
100
AcDbLine
 39
1.0
 10
69.61385440812995
 20
111.552790287054
 30
0.0
 11
69.61385440812995
 21
112.545090287054
 31
0.0
1001
AUSTER_ANSICHT
1002
{
1000
V
1002
}
1001
AUSTER_FOLIE
1002
{
1000
S0_LS
1002
}
  0
LINE
  5
B253
330
20
100
AcDbEntity
  8
10000_FRONT
  6
DASHED
 62
     7
370
    15
100
AcDbLine
 39
1.0
 10
69.61385440812995
 20
111.552790287054
 30
0.0
 11
69.61385440812995
 21
111.372490287054
 31
0.0
1001
AUSTER_ANSICHT
1002
{
1000
V
1002
}
1001
AUSTER_FOLIE
1002
{
1000
S0_LS
1002
}
  0
LINE
  5
B254
330
20
100
AcDbEntity
  8
10000_FRONT
  6
DASHED
 62
     7
370
    15
100
AcDbLine
 39
1.0
 10
69.61385440812995
 20
109.983590287054
 30
0.0
 11
69.61385440812995
 21
110.163890287054
 31
0.0
1001
AUSTER_ANSICHT
1002
{
1000
V
1002
}
1001
AUSTER_FOLIE
1002
{
1000
S0_LS
1002
}
  0
LINE
  5
B255
330
20
100
AcDbEntity
  8
10000_FRONT
  6
DASHED
 62
     7
370
    15
100
AcDbLine
 39
1.0
 10
68.5838544081302
 20
111.552790287054
 30
0.0
 11
68.5838544081302
 21
111.372490287054
 31
0.0
1001
AUSTER_ANSICHT
1002
{
1000
V
1002
}
1001
AUSTER_FOLIE
1002
{
1000
S0_LS
1002
}
  0
LINE
  5
B256
330
20
100
AcDbEntity
  8
10000_FRONT
  6
DASHED
 62
     7
370
    15
100
AcDbLine
 39
1.0
 10
68.5838544081302
 20
109.983590287054
 30
0.0
 11
68.5838544081302
 21
110.163890287054
 31
0.0
1001
AUSTER_ANSICHT
1002
{
1000
V
1002
}
1001
AUSTER_FOLIE
1002
{
1000
S0_LS
1002
}
  0
LINE
  5
B257
330
20
100
AcDbEntity
  8
10000_FRONT
  6
DASHED
 62
     7
370
    15
100
AcDbLine
 39
1.0
 10
80.71315440813027
 20
110.163890287054
 30
0.0
 11
82.9838544081303
 21
110.163890287054
 31
0.0
1001
AUSTER_ANSICHT
1002
{
1000
V
1002
}
1001
AUSTER_FOLIE
1002
{
1000
S0_LS
1002
}
  0
LINE
  5
B258
330
20
100
AcDbEntity
  8
10000_FRONT
  6
DASHED
 62
     7
370
    15
100
AcDbLine
 39
1.0
 10
84.01385440813005
 20
110.163890287054
 30
0.0
 11
86.28455440813008
 21
110.163890287054
 31
0.0
1001
AUSTER_ANSICHT
1002
{
1000
V
1002
}
1001
AUSTER_FOLIE
1002
{
1000
S0_LS
1002
}
  0
LINE
  5
B259
330
20
100
AcDbEntity
  8
10000_FRONT
  6
DASHED
 62
     7
370
    15
100
AcDbLine
 39
1.0
 10
86.28455440813008
 20
111.372490287054
 30
0.0
 11
84.01385440813005
 21
111.372490287054
 31
0.0
1001
AUSTER_ANSICHT
1002
{
1000
V
1002
}
1001
AUSTER_FOLIE
1002
{
1000
S0_LS
1002
}
  0
LINE
  5
B25A
330
20
100
AcDbEntity
  8
10000_FRONT
  6
DASHED
 62
     7
370
    15
100
AcDbLine
 39
1.0
 10
82.9838544081303
 20
111.372490287054
 30
0.0
 11
80.71315440813027
 21
111.372490287054
 31
0.0
1001
AUSTER_ANSICHT
1002
{
1000
V
1002
}
1001
AUSTER_FOLIE
1002
{
1000
S0_LS
1002
}
  0
LINE
  5
B25B
330
20
100
AcDbEntity
  8
10000_FRONT
  6
DASHED
 62
     7
370
    15
100
AcDbLine
 39
1.0
 10
82.9838544081303
 20
112.545090287054
 30
0.0
 11
82.9838544081303
 21
111.552790287054
 31
0.0
1001
AUSTER_ANSICHT
1002
{
1000
V
1002
}
1001
AUSTER_FOLIE
1002
{
1000
S0_LS
1002
}
  0
LINE
  5
B25C
330
20
100
AcDbEntity
  8
10000_FRONT
  6
DASHED
 62
     7
370
    15
100
AcDbLine
 39
1.0
 10
84.01385440813005
 20
111.552790287054
 30
0.0
 11
84.01385440813005
 21
112.545090287054
 31
0.0
1001
AUSTER_ANSICHT
1002
{
1000
V
1002
}
1001
AUSTER_FOLIE
1002
{
1000
S0_LS
1002
}
  0
LINE
  5
B25D
330
20
100
AcDbEntity
  8
10000_FRONT
  6
DASHED
 62
     7
370
    15
100
AcDbLine
 39
1.0
 10
84.01385440813005
 20
111.552790287054
 30
0.0
 11
84.01385440813005
 21
111.372490287054
 31
0.0
1001
AUSTER_ANSICHT
1002
{
1000
V
1002
}
1001
AUSTER_FOLIE
1002
{
1000
S0_LS
1002
}
  0
LINE
  5
B25E
330
20
100
AcDbEntity
  8
10000_FRONT
  6
DASHED
 62
     7
370
    15
100
AcDbLine
 39
1.0
 10
84.01385440813005
 20
109.983590287054
 30
0.0
 11
84.01385440813005
 21
110.163890287054
 31
0.0
1001
AUSTER_ANSICHT
1002
{
1000
V
1002
}
1001
AUSTER_FOLIE
1002
{
1000
S0_LS
1002
}
  0
LINE
  5
B25F
330
20
100
AcDbEntity
  8
10000_FRONT
  6
DASHED
 62
     7
370
    15
100
AcDbLine
 39
1.0
 10
82.9838544081303
 20
111.552790287054
 30
0.0
 11
82.9838544081303
 21
111.372490287054
 31
0.0
1001
AUSTER_ANSICHT
1002
{
1000
V
1002
}
1001
AUSTER_FOLIE
1002
{
1000
S0_LS
1002
}
  0
LINE
  5
B260
330
20
100
AcDbEntity
  8
10000_FRONT
  6
DASHED
 62
     7
370
    15
100
AcDbLine
 39
1.0
 10
82.9838544081303
 20
109.983590287054
 30
0.0
 11
82.9838544081303
 21
110.163890287054
 31
0.0
1001
AUSTER_ANSICHT
1002
{
1000
V
1002
}
1001
AUSTER_FOLIE
1002
{
1000
S0_LS
1002
}
  0
LINE
  5
B261
330
20
100
AcDbEntity
  8
10000_FRONT
  6
DASHED
 62
     7
370
    15
100
AcDbLine
 39
1.0
 10
95.11313440812996
 20
110.163890287054
 30
0.0
 11
97.38383440813001
 21
110.163890287054
 31
0.0
1001
AUSTER_ANSICHT
1002
{
1000
V
1002
}
1001
AUSTER_FOLIE
1002
{
1000
S0_LS
1002
}
  0
LINE
  5
B262
330
20
100
AcDbEntity
  8
10000_FRONT
  6
DASHED
 62
     7
370
    15
100
AcDbLine
 39
1.0
 10
98.41383440813018
 20
110.163890287054
 30
0.0
 11
100.6845344081302
 21
110.163890287054
 31
0.0
1001
AUSTER_ANSICHT
1002
{
1000
V
1002
}
1001
AUSTER_FOLIE
1002
{
1000
S0_LS
1002
}
  0
LINE
  5
B263
330
20
100
AcDbEntity
  8
10000_FRONT
  6
DASHED
 62
     7
370
    15
100
AcDbLine
 39
1.0
 10
100.6845344081302
 20
111.372490287054
 30
0.0
 11
98.41383440813018
 21
111.372490287054
 31
0.0
1001
AUSTER_ANSICHT
1002
{
1000
V
1002
}
1001
AUSTER_FOLIE
1002
{
1000
S0_LS
1002
}
  0
LINE
  5
B264
330
20
100
AcDbEntity
  8
10000_FRONT
  6
DASHED
 62
     7
370
    15
100
AcDbLine
 39
1.0
 10
97.38383440813001
 20
111.372490287054
 30
0.0
 11
95.11313440812996
 21
111.372490287054
 31
0.0
1001
AUSTER_ANSICHT
1002
{
1000
V
1002
}
1001
AUSTER_FOLIE
1002
{
1000
S0_LS
1002
}
  0
LINE
  5
B265
330
20
100
AcDbEntity
  8
10000_FRONT
  6
DASHED
 62
     7
370
    15
100
AcDbLine
 39
1.0
 10
97.38383440813001
 20
112.545090287054
 30
0.0
 11
97.38383440813001
 21
111.552790287054
 31
0.0
1001
AUSTER_ANSICHT
1002
{
1000
V
1002
}
1001
AUSTER_FOLIE
1002
{
1000
S0_LS
1002
}
  0
LINE
  5
B266
330
20
100
AcDbEntity
  8
10000_FRONT
  6
DASHED
 62
     7
370
    15
100
AcDbLine
 39
1.0
 10
98.41383440813018
 20
111.552790287054
 30
0.0
 11
98.41383440813018
 21
112.545090287054
 31
0.0
1001
AUSTER_ANSICHT
1002
{
1000
V
1002
}
1001
AUSTER_FOLIE
1002
{
1000
S0_LS
1002
}
  0
LINE
  5
B267
330
20
100
AcDbEntity
  8
10000_FRONT
  6
DASHED
 62
     7
370
    15
100
AcDbLine
 39
1.0
 10
98.41383440813018
 20
111.552790287054
 30
0.0
 11
98.41383440813018
 21
111.372490287054
 31
0.0
1001
AUSTER_ANSICHT
1002
{
1000
V
1002
}
1001
AUSTER_FOLIE
1002
{
1000
S0_LS
1002
}
  0
LINE
  5
B268
330
20
100
AcDbEntity
  8
10000_FRONT
  6
DASHED
 62
     7
370
    15
100
AcDbLine
 39
1.0
 10
98.41383440813018
 20
109.983590287054
 30
0.0
 11
98.41383440813018
 21
110.163890287054
 31
0.0
1001
AUSTER_ANSICHT
1002
{
1000
V
1002
}
1001
AUSTER_FOLIE
1002
{
1000
S0_LS
1002
}
  0
LINE
  5
B269
330
20
100
AcDbEntity
  8
10000_FRONT
  6
DASHED
 62
     7
370
    15
100
AcDbLine
 39
1.0
 10
97.38383440813001
 20
111.552790287054
 30
0.0
 11
97.38383440813001
 21
111.372490287054
 31
0.0
1001
AUSTER_ANSICHT
1002
{
1000
V
1002
}
1001
AUSTER_FOLIE
1002
{
1000
S0_LS
1002
}
  0
LINE
  5
B26A
330
20
100
AcDbEntity
  8
10000_FRONT
  6
DASHED
 62
     7
370
    15
100
AcDbLine
 39
1.0
 10
97.38383440813001
 20
109.983590287054
 30
0.0
 11
97.38383440813001
 21
110.163890287054
 31
0.0
1001
AUSTER_ANSICHT
1002
{
1000
V
1002
}
1001
AUSTER_FOLIE
1002
{
1000
S0_LS
1002
}
  0
ARC
  5
B26B
330
20
100
AcDbEntity
  8
10000_FRONT
  6
DASHED
 62
     7
370
    15
100
AcDbCircle
 39
1.0
 10
69.09885440813008
 20
110.7681902870541
 30
0.0
 40
2.850490999999998
100
AcDbArc
 50
167.7603999999987
 51
192.2396000000013
1001
AUSTER_ANSICHT
1002
{
1000
V
1002
}
1001
AUSTER_FOLIE
1002
{
1000
S0_LS
1002
}
  0
ARC
  5
B26C
330
20
100
AcDbEntity
  8
10000_FRONT
  6
DASHED
 62
     7
370
    15
100
AcDbCircle
 39
1.0
 10
69.09885440813008
 20
110.7681902870541
 30
0.0
 40
1.85
100
AcDbArc
 50
73.83655000001086
 51
106.1634000000003
1001
AUSTER_ANSICHT
1002
{
1000
V
1002
}
1001
AUSTER_FOLIE
1002
{
1000
S0_LS
1002
}
  0
ARC
  5
B26D
330
20
100
AcDbEntity
  8
10000_FRONT
  6
DASHED
 62
     7
370
    15
100
AcDbCircle
 39
1.0
 10
69.09885440813008
 20
110.7681902870541
 30
0.0
 40
2.850490999999998
100
AcDbArc
 50
347.7603999999987
 51
12.23960000000126
1001
AUSTER_ANSICHT
1002
{
1000
V
1002
}
1001
AUSTER_FOLIE
1002
{
1000
S0_LS
1002
}
  0
ARC
  5
B26E
330
20
100
AcDbEntity
  8
10000_FRONT
  6
DASHED
 62
     7
370
    15
100
AcDbCircle
 39
1.0
 10
83.49885440813016
 20
110.7681902870541
 30
0.0
 40
2.850490999999998
100
AcDbArc
 50
167.7603999999987
 51
192.2396000000013
1001
AUSTER_ANSICHT
1002
{
1000
V
1002
}
1001
AUSTER_FOLIE
1002
{
1000
S0_LS
1002
}
  0
ARC
  5
B26F
330
20
100
AcDbEntity
  8
10000_FRONT
  6
DASHED
 62
     7
370
    15
100
AcDbCircle
 39
1.0
 10
83.49885440813016
 20
110.7681902870541
 30
0.0
 40
1.85
100
AcDbArc
 50
73.83655000001086
 51
106.1634000000003
1001
AUSTER_ANSICHT
1002
{
1000
V
1002
}
1001
AUSTER_FOLIE
1002
{
1000
S0_LS
1002
}
  0
ARC
  5
B270
330
20
100
AcDbEntity
  8
10000_FRONT
  6
DASHED
 62
     7
370
    15
100
AcDbCircle
 39
1.0
 10
83.49885440813016
 20
110.7681902870541
 30
0.0
 40
2.850490999999998
100
AcDbArc
 50
347.7603999999987
 51
12.23960000000126
1001
AUSTER_ANSICHT
1002
{
1000
V
1002
}
1001
AUSTER_FOLIE
1002
{
1000
S0_LS
1002
}
  0
ARC
  5
B271
330
20
100
AcDbEntity
  8
10000_FRONT
  6
DASHED
 62
     7
370
    15
100
AcDbCircle
 39
1.0
 10
97.89883440813033
 20
110.7681902870541
 30
0.0
 40
2.850490999999998
100
AcDbArc
 50
167.7603999999987
 51
192.2396000000013
1001
AUSTER_ANSICHT
1002
{
1000
V
1002
}
1001
AUSTER_FOLIE
1002
{
1000
S0_LS
1002
}
  0
ARC
  5
B272
330
20
100
AcDbEntity
  8
10000_FRONT
  6
DASHED
 62
     7
370
    15
100
AcDbCircle
 39
1.0
 10
97.89883440813033
 20
110.7681902870541
 30
0.0
 40
1.85
100
AcDbArc
 50
73.83655000001086
 51
106.1634000000003
1001
AUSTER_ANSICHT
1002
{
1000
V
1002
}
1001
AUSTER_FOLIE
1002
{
1000
S0_LS
1002
}
  0
ARC
  5
B273
330
20
100
AcDbEntity
  8
10000_FRONT
  6
DASHED
 62
     7
370
    15
100
AcDbCircle
 39
1.0
 10
97.89883440813033
 20
110.7681902870541
 30
0.0
 40
2.850490999999998
100
AcDbArc
 50
347.7603999999987
 51
12.23960000000126
1001
AUSTER_ANSICHT
1002
{
1000
V
1002
}
1001
AUSTER_FOLIE
1002
{
1000
S0_LS
1002
}
  0
LINE
  5
B29C
330
20
100
AcDbEntity
  8
10000_FRONT
  6
DASHED
 62
     7
370
    15
100
AcDbLine
 39
1.0
 10
105.8988344081303
 20
103.7681902870541
 30
0.0
 11
105.8988344081303
 21
192.3681902870541
 31
0.0
1001
AUSTER_ANSICHT
1002
{
1000
V
1002
}
1001
AUSTER_FOLIE
1002
{
1000
S0_LS
1002
}
  0
LINE
  5
B29E
330
20
100
AcDbEntity
  8
10000_FRONT
  6
DASHED
 62
     7
370
    15
100
AcDbLine
 39
1.0
 10
61.89885440813025
 20
126.0675902870541
 30
0.0
 11
105.0988344081301
 21
126.0675902870541
 31
0.0
1001
AUSTER_ANSICHT
1002
{
1000
V
1002
}
1001
AUSTER_FOLIE
1002
{
1000
S0_LS
1002
}
  0
ARC
  5
B2B2
330
20
100
AcDbEntity
  8
10000_FRONT
  6
DASHED
 62
     7
370
    15
100
AcDbCircle
 39
1.0
 10
91.69883440813006
 20
150.334190287054
 30
0.0
 40
8.0
100
AcDbArc
 50
196.7704000000011
 51
339.7404999999951
1001
AUSTER_ANSICHT
1002
{
1000
V
1002
}
1001
AUSTER_FOLIE
1002
{
1000
S0_LS
1002
}
  0
ARC
  5
B2B3
330
20
100
AcDbEntity
  8
10000_FRONT
  6
DASHED
 62
     7
370
    15
100
AcDbCircle
 39
1.0
 10
155.7195344081301
 20
148.3841902870537
 30
0.0
 40
67.02149
100
AcDbArc
 50
171.756399999999
 51
189.2645999999924
1001
AUSTER_ANSICHT
1002
{
1000
V
1002
}
1001
AUSTER_FOLIE
1002
{
1000
S0_LS
1002
}
  0
ARC
  5
B2B4
330
20
100
AcDbEntity
  8
10000_FRONT
  6
DASHED
 62
     7
370
    15
100
AcDbCircle
 39
1.0
 10
27.67813440813013
 20
148.3841902870537
 30
0.0
 40
67.02149
100
AcDbArc
 50
350.7353899999917
 51
8.243600000000821
1001
AUSTER_ANSICHT
1002
{
1000
V
1002
}
1001
AUSTER_FOLIE
1002
{
1000
S0_LS
1002
}
  0
ARC
  5
B2B5
330
20
100
AcDbEntity
  8
10000_FRONT
  6
DASHED
 62
     7
370
    15
100
AcDbCircle
 39
1.0
 10
91.69883440813006
 20
150.334190287054
 30
0.0
 40
8.0
100
AcDbArc
 50
20.25948999999881
 51
163.2295999999958
1001
AUSTER_ANSICHT
1002
{
1000
V
1002
}
1001
AUSTER_FOLIE
1002
{
1000
S0_LS
1002
}
  0
ARC
  5
B2B6
330
20
100
AcDbEntity
  8
10000_FRONT
  6
DASHED
 62
     7
370
    15
100
AcDbCircle
 39
1.0
 10
31.2362344081301
 20
148.991090287054
 30
0.0
 40
63.41319
100
AcDbArc
 50
8.161880000011111
 51
12.49570000000696
1001
AUSTER_ANSICHT
1002
{
1000
V
1002
}
1001
AUSTER_FOLIE
1002
{
1000
S0_LS
1002
}
  0
ARC
  5
B2B7
330
20
100
AcDbEntity
  8
10000_FRONT
  6
DASHED
 62
     7
370
    15
100
AcDbCircle
 39
1.0
 10
158.2389344081301
 20
147.9396902870536
 30
0.0
 40
69.57859
100
AcDbArc
 50
167.7425000000063
 51
171.6916000000028
1001
AUSTER_ANSICHT
1002
{
1000
V
1002
}
1001
AUSTER_FOLIE
1002
{
1000
S0_LS
1002
}
  0
ARC
  5
B2B8
330
20
100
AcDbEntity
  8
10000_FRONT
  6
DASHED
 62
     7
370
    15
100
AcDbCircle
 39
1.0
 10
91.69883440813006
 20
162.334170287054
 30
0.0
 40
1.496863999999999
100
AcDbArc
 50
14.60619999999807
 51
165.4313000000103
1001
AUSTER_ANSICHT
1002
{
1000
V
1002
}
1001
AUSTER_FOLIE
1002
{
1000
S0_LS
1002
}
  0
ARC
  5
B2BE
330
20
100
AcDbEntity
  8
10000_FRONT
  6
DASHED
 62
     7
370
    15
100
AcDbCircle
 39
1.0
 10
91.69883526879765
 20
162.7058469640892
 30
0.0
 40
2.5
100
AcDbArc
 50
293.5781800000071
 51
246.4218000000045
1001
AUSTER_ANSICHT
1002
{
1000
V
1002
}
1001
AUSTER_FOLIE
1002
{
1000
S0_LS
1002
}
  0
LINE
  5
B2EC
330
20
100
AcDbEntity
  8
10000_FRONT
  6
DASHED
 62
     7
370
    15
100
AcDbLine
 39
1.0
 10
61.89885440813025
 20
171.0681902870542
 30
0.0
 11
105.0988344081301
 21
171.0681902870542
 31
0.0
1001
AUSTER_ANSICHT
1002
{
1000
V
1002
}
1001
AUSTER_FOLIE
1002
{
1000
S0_LS
1002
}
  0
ARC
  5
B2ED
330
20
100
AcDbEntity
  8
10000_FRONT
  6
DASHED
 62
     7
370
    15
100
AcDbCircle
 39
1.0
 10
105.0988344081301
 20
170.2681902870541
 30
0.0
 40
0.8000041999999998
100
AcDbArc
 50
0.0003006209037801
 51
89.99969999999589
1001
AUSTER_ANSICHT
1002
{
1000
V
1002
}
1001
AUSTER_FOLIE
1002
{
1000
S0_LS
1002
}
  0
LINE
  5
B2EE
330
20
100
AcDbEntity
  8
10000_FRONT
  6
DASHED
 62
     7
370
    15
100
AcDbLine
 39
1.0
 10
90.3323344081302
 20
136.834190287054
 30
0.0
 11
93.06533440813012
 21
136.834190287054
 31
0.0
1001
AUSTER_ANSICHT
1002
{
1000
V
1002
}
1001
AUSTER_FOLIE
1002
{
1000
S0_LS
1002
}
  0
ARC
  5
B2EF
330
20
100
AcDbEntity
  8
10000_FRONT
  6
DASHED
 62
     7
370
    15
100
AcDbCircle
 39
1.0
 10
93.06533440813016
 20
137.5941902870537
 30
0.0
 40
0.76
100
AcDbArc
 50
270.0
 51
0.0
1001
AUSTER_ANSICHT
1002
{
1000
V
1002
}
1001
AUSTER_FOLIE
1002
{
1000
S0_LS
1002
}
  0
ARC
  5
B2F0
330
20
100
AcDbEntity
  8
10000_FRONT
  6
DASHED
 62
     7
370
    15
100
AcDbCircle
 39
1.0
 10
90.3323344081302
 20
137.5941902870537
 30
0.0
 40
0.76
100
AcDbArc
 50
180.0
 51
270.0
1001
AUSTER_ANSICHT
1002
{
1000
V
1002
}
1001
AUSTER_FOLIE
1002
{
1000
S0_LS
1002
}
  0
LINE
  5
B2F1
330
20
100
AcDbEntity
  8
10000_FRONT
  6
DASHED
 62
     7
370
    15
100
AcDbLine
 39
1.0
 10
61.09885440813007
 20
178.8681902870541
 30
0.0
 11
63.99885440813017
 21
178.8681902870541
 31
0.0
1001
AUSTER_ANSICHT
1002
{
1000
V
1002
}
1001
AUSTER_FOLIE
1002
{
1000
S0_LS
1002
}
  0
LINE
  5
B2F2
330
20
100
AcDbEntity
  8
10000_FRONT
  6
DASHED
 62
     7
370
    15
100
AcDbLine
 39
1.0
 10
63.99885440813017
 20
178.8681902870541
 30
0.0
 11
64.49885440813017
 21
179.3681902870541
 31
0.0
1001
AUSTER_ANSICHT
1002
{
1000
V
1002
}
1001
AUSTER_FOLIE
1002
{
1000
S0_LS
1002
}
  0
LINE
  5
B2F3
330
20
100
AcDbEntity
  8
10000_FRONT
  6
DASHED
 62
     7
370
    15
100
AcDbLine
 39
1.0
 10
64.49885440813017
 20
179.3681902870541
 30
0.0
 11
66.49885440813017
 21
179.3681902870541
 31
0.0
1001
AUSTER_ANSICHT
1002
{
1000
V
1002
}
1001
AUSTER_FOLIE
1002
{
1000
S0_LS
1002
}
  0
LINE
  5
B2F4
330
20
100
AcDbEntity
  8
10000_FRONT
  6
DASHED
 62
     7
370
    15
100
AcDbLine
 39
1.0
 10
66.49885440813017
 20
179.3681902870541
 30
0.0
 11
66.99885440813017
 21
178.8681902870541
 31
0.0
1001
AUSTER_ANSICHT
1002
{
1000
V
1002
}
1001
AUSTER_FOLIE
1002
{
1000
S0_LS
1002
}
  0
LINE
  5
B2F5
330
20
100
AcDbEntity
  8
10000_FRONT
  6
DASHED
 62
     7
370
    15
100
AcDbLine
 39
1.0
 10
66.99885440813017
 20
178.8681902870541
 30
0.0
 11
80.99885440813016
 21
178.8681902870541
 31
0.0
1001
AUSTER_ANSICHT
1002
{
1000
V
1002
}
1001
AUSTER_FOLIE
1002
{
1000
S0_LS
1002
}
  0
LINE
  5
B2F6
330
20
100
AcDbEntity
  8
10000_FRONT
  6
DASHED
 62
     7
370
    15
100
AcDbLine
 39
1.0
 10
80.99885440813016
 20
178.8681902870541
 30
0.0
 11
80.99885440813016
 21
179.468190287054
 31
0.0
1001
AUSTER_ANSICHT
1002
{
1000
V
1002
}
1001
AUSTER_FOLIE
1002
{
1000
S0_LS
1002
}
  0
LINE
  5
B2F7
330
20
100
AcDbEntity
  8
10000_FRONT
  6
DASHED
 62
     7
370
    15
100
AcDbLine
 39
1.0
 10
80.99885440813016
 20
179.468190287054
 30
0.0
 11
85.99885440813016
 21
179.468190287054
 31
0.0
1001
AUSTER_ANSICHT
1002
{
1000
V
1002
}
1001
AUSTER_FOLIE
1002
{
1000
S0_LS
1002
}
  0
LINE
  5
B2F8
330
20
100
AcDbEntity
  8
10000_FRONT
  6
DASHED
 62
     7
370
    15
100
AcDbLine
 39
1.0
 10
85.99885440813016
 20
179.468190287054
 30
0.0
 11
85.99885440813016
 21
178.8681902870541
 31
0.0
1001
AUSTER_ANSICHT
1002
{
1000
V
1002
}
1001
AUSTER_FOLIE
1002
{
1000
S0_LS
1002
}
  0
LINE
  5
B2F9
330
20
100
AcDbEntity
  8
10000_FRONT
  6
DASHED
 62
     7
370
    15
100
AcDbLine
 39
1.0
 10
85.99885440813016
 20
178.8681902870541
 30
0.0
 11
99.99883440813022
 21
178.8681902870541
 31
0.0
1001
AUSTER_ANSICHT
1002
{
1000
V
1002
}
1001
AUSTER_FOLIE
1002
{
1000
S0_LS
1002
}
  0
LINE
  5
B2FA
330
20
100
AcDbEntity
  8
10000_FRONT
  6
DASHED
 62
     7
370
    15
100
AcDbLine
 39
1.0
 10
99.99883440813022
 20
178.8681902870541
 30
0.0
 11
100.4988344081302
 21
179.3681902870541
 31
0.0
1001
AUSTER_ANSICHT
1002
{
1000
V
1002
}
1001
AUSTER_FOLIE
1002
{
1000
S0_LS
1002
}
  0
LINE
  5
B2FB
330
20
100
AcDbEntity
  8
10000_FRONT
  6
DASHED
 62
     7
370
    15
100
AcDbLine
 39
1.0
 10
100.4988344081302
 20
179.3681902870541
 30
0.0
 11
102.4988344081302
 21
179.3681902870541
 31
0.0
1001
AUSTER_ANSICHT
1002
{
1000
V
1002
}
1001
AUSTER_FOLIE
1002
{
1000
S0_LS
1002
}
  0
LINE
  5
B2FC
330
20
100
AcDbEntity
  8
10000_FRONT
  6
DASHED
 62
     7
370
    15
100
AcDbLine
 39
1.0
 10
102.9988344081302
 20
178.8681902870541
 30
0.0
 11
102.4988344081302
 21
179.3681902870541
 31
0.0
1001
AUSTER_ANSICHT
1002
{
1000
V
1002
}
1001
AUSTER_FOLIE
1002
{
1000
S0_LS
1002
}
  0
LINE
  5
B2FD
330
20
100
AcDbEntity
  8
10000_FRONT
  6
DASHED
 62
     7
370
    15
100
AcDbLine
 39
1.0
 10
102.9988344081302
 20
178.8681902870541
 30
0.0
 11
105.8988344081303
 21
178.8681902870541
 31
0.0
1001
AUSTER_ANSICHT
1002
{
1000
V
1002
}
1001
AUSTER_FOLIE
1002
{
1000
S0_LS
1002
}
  0
LINE
  5
B2FE
330
20
100
AcDbEntity
  8
10000_FRONT
  6
DASHED
 62
     7
370
    15
100
AcDbLine
 39
1.0
 10
66.31315440813017
 20
186.9724902870541
 30
0.0
 11
68.5838544081302
 21
186.9724902870541
 31
0.0
1001
AUSTER_ANSICHT
1002
{
1000
V
1002
}
1001
AUSTER_FOLIE
1002
{
1000
S0_LS
1002
}
  0
LINE
  5
B2FF
330
20
100
AcDbEntity
  8
10000_FRONT
  6
DASHED
 62
     7
370
    15
100
AcDbLine
 39
1.0
 10
69.61385440812995
 20
186.9724902870541
 30
0.0
 11
71.88455440812998
 21
186.9724902870541
 31
0.0
1001
AUSTER_ANSICHT
1002
{
1000
V
1002
}
1001
AUSTER_FOLIE
1002
{
1000
S0_LS
1002
}
  0
LINE
  5
B300
330
20
100
AcDbEntity
  8
10000_FRONT
  6
DASHED
 62
     7
370
    15
100
AcDbLine
 39
1.0
 10
71.88455440812998
 20
185.7638902870541
 30
0.0
 11
69.61385440812995
 21
185.7638902870541
 31
0.0
1001
AUSTER_ANSICHT
1002
{
1000
V
1002
}
1001
AUSTER_FOLIE
1002
{
1000
S0_LS
1002
}
  0
LINE
  5
B301
330
20
100
AcDbEntity
  8
10000_FRONT
  6
DASHED
 62
     7
370
    15
100
AcDbLine
 39
1.0
 10
68.5838544081302
 20
185.7638902870541
 30
0.0
 11
66.31315440813017
 21
185.7638902870541
 31
0.0
1001
AUSTER_ANSICHT
1002
{
1000
V
1002
}
1001
AUSTER_FOLIE
1002
{
1000
S0_LS
1002
}
  0
LINE
  5
B302
330
20
100
AcDbEntity
  8
10000_FRONT
  6
DASHED
 62
     7
370
    15
100
AcDbLine
 39
1.0
 10
68.5838544081302
 20
184.591290287054
 30
0.0
 11
68.5838544081302
 21
185.5835902870541
 31
0.0
1001
AUSTER_ANSICHT
1002
{
1000
V
1002
}
1001
AUSTER_FOLIE
1002
{
1000
S0_LS
1002
}
  0
LINE
  5
B303
330
20
100
AcDbEntity
  8
10000_FRONT
  6
DASHED
 62
     7
370
    15
100
AcDbLine
 39
1.0
 10
69.61385440812995
 20
185.5835902870541
 30
0.0
 11
69.61385440812995
 21
184.591290287054
 31
0.0
1001
AUSTER_ANSICHT
1002
{
1000
V
1002
}
1001
AUSTER_FOLIE
1002
{
1000
S0_LS
1002
}
  0
LINE
  5
B304
330
20
100
AcDbEntity
  8
10000_FRONT
  6
DASHED
 62
     7
370
    15
100
AcDbLine
 39
1.0
 10
69.61385440812995
 20
188.1450902870539
 30
0.0
 11
69.61385440812995
 21
187.1527902870541
 31
0.0
1001
AUSTER_ANSICHT
1002
{
1000
V
1002
}
1001
AUSTER_FOLIE
1002
{
1000
S0_LS
1002
}
  0
LINE
  5
B305
330
20
100
AcDbEntity
  8
10000_FRONT
  6
DASHED
 62
     7
370
    15
100
AcDbLine
 39
1.0
 10
68.5838544081302
 20
187.1527902870541
 30
0.0
 11
68.5838544081302
 21
188.1450902870539
 31
0.0
1001
AUSTER_ANSICHT
1002
{
1000
V
1002
}
1001
AUSTER_FOLIE
1002
{
1000
S0_LS
1002
}
  0
LINE
  5
B306
330
20
100
AcDbEntity
  8
10000_FRONT
  6
DASHED
 62
     7
370
    15
100
AcDbLine
 39
1.0
 10
69.61385440812995
 20
185.5835902870541
 30
0.0
 11
69.61385440812995
 21
185.7638902870541
 31
0.0
1001
AUSTER_ANSICHT
1002
{
1000
V
1002
}
1001
AUSTER_FOLIE
1002
{
1000
S0_LS
1002
}
  0
LINE
  5
B307
330
20
100
AcDbEntity
  8
10000_FRONT
  6
DASHED
 62
     7
370
    15
100
AcDbLine
 39
1.0
 10
69.61385440812995
 20
187.1527902870541
 30
0.0
 11
69.61385440812995
 21
186.9724902870541
 31
0.0
1001
AUSTER_ANSICHT
1002
{
1000
V
1002
}
1001
AUSTER_FOLIE
1002
{
1000
S0_LS
1002
}
  0
LINE
  5
B308
330
20
100
AcDbEntity
  8
10000_FRONT
  6
DASHED
 62
     7
370
    15
100
AcDbLine
 39
1.0
 10
68.5838544081302
 20
185.5835902870541
 30
0.0
 11
68.5838544081302
 21
185.7638902870541
 31
0.0
1001
AUSTER_ANSICHT
1002
{
1000
V
1002
}
1001
AUSTER_FOLIE
1002
{
1000
S0_LS
1002
}
  0
LINE
  5
B309
330
20
100
AcDbEntity
  8
10000_FRONT
  6
DASHED
 62
     7
370
    15
100
AcDbLine
 39
1.0
 10
68.5838544081302
 20
187.1527902870541
 30
0.0
 11
68.5838544081302
 21
186.9724902870541
 31
0.0
1001
AUSTER_ANSICHT
1002
{
1000
V
1002
}
1001
AUSTER_FOLIE
1002
{
1000
S0_LS
1002
}
  0
LINE
  5
B30A
330
20
100
AcDbEntity
  8
10000_FRONT
  6
DASHED
 62
     7
370
    15
100
AcDbLine
 39
1.0
 10
80.71315440813027
 20
186.9724902870541
 30
0.0
 11
82.9838544081303
 21
186.9724902870541
 31
0.0
1001
AUSTER_ANSICHT
1002
{
1000
V
1002
}
1001
AUSTER_FOLIE
1002
{
1000
S0_LS
1002
}
  0
LINE
  5
B30B
330
20
100
AcDbEntity
  8
10000_FRONT
  6
DASHED
 62
     7
370
    15
100
AcDbLine
 39
1.0
 10
84.01385440813005
 20
186.9724902870541
 30
0.0
 11
86.28455440813008
 21
186.9724902870541
 31
0.0
1001
AUSTER_ANSICHT
1002
{
1000
V
1002
}
1001
AUSTER_FOLIE
1002
{
1000
S0_LS
1002
}
  0
LINE
  5
B30C
330
20
100
AcDbEntity
  8
10000_FRONT
  6
DASHED
 62
     7
370
    15
100
AcDbLine
 39
1.0
 10
86.28455440813008
 20
185.7638902870541
 30
0.0
 11
84.01385440813005
 21
185.7638902870541
 31
0.0
1001
AUSTER_ANSICHT
1002
{
1000
V
1002
}
1001
AUSTER_FOLIE
1002
{
1000
S0_LS
1002
}
  0
LINE
  5
B30D
330
20
100
AcDbEntity
  8
10000_FRONT
  6
DASHED
 62
     7
370
    15
100
AcDbLine
 39
1.0
 10
82.9838544081303
 20
185.7638902870541
 30
0.0
 11
80.71315440813027
 21
185.7638902870541
 31
0.0
1001
AUSTER_ANSICHT
1002
{
1000
V
1002
}
1001
AUSTER_FOLIE
1002
{
1000
S0_LS
1002
}
  0
LINE
  5
B30E
330
20
100
AcDbEntity
  8
10000_FRONT
  6
DASHED
 62
     7
370
    15
100
AcDbLine
 39
1.0
 10
82.9838544081303
 20
184.591290287054
 30
0.0
 11
82.9838544081303
 21
185.5835902870541
 31
0.0
1001
AUSTER_ANSICHT
1002
{
1000
V
1002
}
1001
AUSTER_FOLIE
1002
{
1000
S0_LS
1002
}
  0
LINE
  5
B30F
330
20
100
AcDbEntity
  8
10000_FRONT
  6
DASHED
 62
     7
370
    15
100
AcDbLine
 39
1.0
 10
84.01385440813005
 20
185.5835902870541
 30
0.0
 11
84.01385440813005
 21
184.591290287054
 31
0.0
1001
AUSTER_ANSICHT
1002
{
1000
V
1002
}
1001
AUSTER_FOLIE
1002
{
1000
S0_LS
1002
}
  0
LINE
  5
B310
330
20
100
AcDbEntity
  8
10000_FRONT
  6
DASHED
 62
     7
370
    15
100
AcDbLine
 39
1.0
 10
84.01385440813005
 20
188.1450902870539
 30
0.0
 11
84.01385440813005
 21
187.1527902870541
 31
0.0
1001
AUSTER_ANSICHT
1002
{
1000
V
1002
}
1001
AUSTER_FOLIE
1002
{
1000
S0_LS
1002
}
  0
LINE
  5
B311
330
20
100
AcDbEntity
  8
10000_FRONT
  6
DASHED
 62
     7
370
    15
100
AcDbLine
 39
1.0
 10
82.9838544081303
 20
187.1527902870541
 30
0.0
 11
82.9838544081303
 21
188.1450902870539
 31
0.0
1001
AUSTER_ANSICHT
1002
{
1000
V
1002
}
1001
AUSTER_FOLIE
1002
{
1000
S0_LS
1002
}
  0
LINE
  5
B312
330
20
100
AcDbEntity
  8
10000_FRONT
  6
DASHED
 62
     7
370
    15
100
AcDbLine
 39
1.0
 10
84.01385440813005
 20
185.5835902870541
 30
0.0
 11
84.01385440813005
 21
185.7638902870541
 31
0.0
1001
AUSTER_ANSICHT
1002
{
1000
V
1002
}
1001
AUSTER_FOLIE
1002
{
1000
S0_LS
1002
}
  0
LINE
  5
B313
330
20
100
AcDbEntity
  8
10000_FRONT
  6
DASHED
 62
     7
370
    15
100
AcDbLine
 39
1.0
 10
84.01385440813005
 20
187.1527902870541
 30
0.0
 11
84.01385440813005
 21
186.9724902870541
 31
0.0
1001
AUSTER_ANSICHT
1002
{
1000
V
1002
}
1001
AUSTER_FOLIE
1002
{
1000
S0_LS
1002
}
  0
LINE
  5
B314
330
20
100
AcDbEntity
  8
10000_FRONT
  6
DASHED
 62
     7
370
    15
100
AcDbLine
 39
1.0
 10
82.9838544081303
 20
185.5835902870541
 30
0.0
 11
82.9838544081303
 21
185.7638902870541
 31
0.0
1001
AUSTER_ANSICHT
1002
{
1000
V
1002
}
1001
AUSTER_FOLIE
1002
{
1000
S0_LS
1002
}
  0
LINE
  5
B315
330
20
100
AcDbEntity
  8
10000_FRONT
  6
DASHED
 62
     7
370
    15
100
AcDbLine
 39
1.0
 10
82.9838544081303
 20
187.1527902870541
 30
0.0
 11
82.9838544081303
 21
186.9724902870541
 31
0.0
1001
AUSTER_ANSICHT
1002
{
1000
V
1002
}
1001
AUSTER_FOLIE
1002
{
1000
S0_LS
1002
}
  0
LINE
  5
B316
330
20
100
AcDbEntity
  8
10000_FRONT
  6
DASHED
 62
     7
370
    15
100
AcDbLine
 39
1.0
 10
95.11313440812996
 20
186.9724902870541
 30
0.0
 11
97.38383440813001
 21
186.9724902870541
 31
0.0
1001
AUSTER_ANSICHT
1002
{
1000
V
1002
}
1001
AUSTER_FOLIE
1002
{
1000
S0_LS
1002
}
  0
LINE
  5
B317
330
20
100
AcDbEntity
  8
10000_FRONT
  6
DASHED
 62
     7
370
    15
100
AcDbLine
 39
1.0
 10
98.41383440813018
 20
186.9724902870541
 30
0.0
 11
100.6845344081302
 21
186.9724902870541
 31
0.0
1001
AUSTER_ANSICHT
1002
{
1000
V
1002
}
1001
AUSTER_FOLIE
1002
{
1000
S0_LS
1002
}
  0
LINE
  5
B318
330
20
100
AcDbEntity
  8
10000_FRONT
  6
DASHED
 62
     7
370
    15
100
AcDbLine
 39
1.0
 10
100.6845344081302
 20
185.7638902870541
 30
0.0
 11
98.41383440813018
 21
185.7638902870541
 31
0.0
1001
AUSTER_ANSICHT
1002
{
1000
V
1002
}
1001
AUSTER_FOLIE
1002
{
1000
S0_LS
1002
}
  0
LINE
  5
B319
330
20
100
AcDbEntity
  8
10000_FRONT
  6
DASHED
 62
     7
370
    15
100
AcDbLine
 39
1.0
 10
97.38383440813001
 20
185.7638902870541
 30
0.0
 11
95.11313440812996
 21
185.7638902870541
 31
0.0
1001
AUSTER_ANSICHT
1002
{
1000
V
1002
}
1001
AUSTER_FOLIE
1002
{
1000
S0_LS
1002
}
  0
LINE
  5
B31A
330
20
100
AcDbEntity
  8
10000_FRONT
  6
DASHED
 62
     7
370
    15
100
AcDbLine
 39
1.0
 10
97.38383440813001
 20
184.591290287054
 30
0.0
 11
97.38383440813001
 21
185.5835902870541
 31
0.0
1001
AUSTER_ANSICHT
1002
{
1000
V
1002
}
1001
AUSTER_FOLIE
1002
{
1000
S0_LS
1002
}
  0
LINE
  5
B31B
330
20
100
AcDbEntity
  8
10000_FRONT
  6
DASHED
 62
     7
370
    15
100
AcDbLine
 39
1.0
 10
98.41383440813018
 20
185.5835902870541
 30
0.0
 11
98.41383440813018
 21
184.591290287054
 31
0.0
1001
AUSTER_ANSICHT
1002
{
1000
V
1002
}
1001
AUSTER_FOLIE
1002
{
1000
S0_LS
1002
}
  0
LINE
  5
B31C
330
20
100
AcDbEntity
  8
10000_FRONT
  6
DASHED
 62
     7
370
    15
100
AcDbLine
 39
1.0
 10
98.41383440813018
 20
188.1450902870539
 30
0.0
 11
98.41383440813018
 21
187.1527902870541
 31
0.0
1001
AUSTER_ANSICHT
1002
{
1000
V
1002
}
1001
AUSTER_FOLIE
1002
{
1000
S0_LS
1002
}
  0
LINE
  5
B31D
330
20
100
AcDbEntity
  8
10000_FRONT
  6
DASHED
 62
     7
370
    15
100
AcDbLine
 39
1.0
 10
97.38383440813001
 20
187.1527902870541
 30
0.0
 11
97.38383440813001
 21
188.1450902870539
 31
0.0
1001
AUSTER_ANSICHT
1002
{
1000
V
1002
}
1001
AUSTER_FOLIE
1002
{
1000
S0_LS
1002
}
  0
LINE
  5
B31E
330
20
100
AcDbEntity
  8
10000_FRONT
  6
DASHED
 62
     7
370
    15
100
AcDbLine
 39
1.0
 10
98.41383440813018
 20
185.5835902870541
 30
0.0
 11
98.41383440813018
 21
185.7638902870541
 31
0.0
1001
AUSTER_ANSICHT
1002
{
1000
V
1002
}
1001
AUSTER_FOLIE
1002
{
1000
S0_LS
1002
}
  0
LINE
  5
B31F
330
20
100
AcDbEntity
  8
10000_FRONT
  6
DASHED
 62
     7
370
    15
100
AcDbLine
 39
1.0
 10
98.41383440813018
 20
187.1527902870541
 30
0.0
 11
98.41383440813018
 21
186.9724902870541
 31
0.0
1001
AUSTER_ANSICHT
1002
{
1000
V
1002
}
1001
AUSTER_FOLIE
1002
{
1000
S0_LS
1002
}
  0
LINE
  5
B320
330
20
100
AcDbEntity
  8
10000_FRONT
  6
DASHED
 62
     7
370
    15
100
AcDbLine
 39
1.0
 10
97.38383440813001
 20
185.5835902870541
 30
0.0
 11
97.38383440813001
 21
185.7638902870541
 31
0.0
1001
AUSTER_ANSICHT
1002
{
1000
V
1002
}
1001
AUSTER_FOLIE
1002
{
1000
S0_LS
1002
}
  0
LINE
  5
B321
330
20
100
AcDbEntity
  8
10000_FRONT
  6
DASHED
 62
     7
370
    15
100
AcDbLine
 39
1.0
 10
97.38383440813001
 20
187.1527902870541
 30
0.0
 11
97.38383440813001
 21
186.9724902870541
 31
0.0
1001
AUSTER_ANSICHT
1002
{
1000
V
1002
}
1001
AUSTER_FOLIE
1002
{
1000
S0_LS
1002
}
  0
CIRCLE
  5
B322
330
20
100
AcDbEntity
  8
10000_FRONT
  6
DASHED
 62
     7
370
    15
100
AcDbCircle
 39
1.0
 10
69.09885440813008
 20
186.3681902870541
 30
0.0
 40
3.1
1001
AUSTER_ANSICHT
1002
{
1000
V
1002
}
1001
AUSTER_FOLIE
1002
{
1000
S0_LS
1002
}
  0
ARC
  5
B323
330
20
100
AcDbEntity
  8
10000_FRONT
  6
DASHED
 62
     7
370
    15
100
AcDbCircle
 39
1.0
 10
69.09885440813008
 20
186.3681902870541
 30
0.0
 40
2.850490999999998
100
AcDbArc
 50
167.7603999999987
 51
192.2396000000013
1001
AUSTER_ANSICHT
1002
{
1000
V
1002
}
1001
AUSTER_FOLIE
1002
{
1000
S0_LS
1002
}
  0
ARC
  5
B324
330
20
100
AcDbEntity
  8
10000_FRONT
  6
DASHED
 62
     7
370
    15
100
AcDbCircle
 39
1.0
 10
69.09885440813008
 20
186.3681902870541
 30
0.0
 40
1.85
100
AcDbArc
 50
253.8365999999989
 51
286.1634000000003
1001
AUSTER_ANSICHT
1002
{
1000
V
1002
}
1001
AUSTER_FOLIE
1002
{
1000
S0_LS
1002
}
  0
ARC
  5
B325
330
20
100
AcDbEntity
  8
10000_FRONT
  6
DASHED
 62
     7
370
    15
100
AcDbCircle
 39
1.0
 10
69.09885440813008
 20
186.3681902870541
 30
0.0
 40
1.85
100
AcDbArc
 50
73.83655000001086
 51
106.1634000000003
1001
AUSTER_ANSICHT
1002
{
1000
V
1002
}
1001
AUSTER_FOLIE
1002
{
1000
S0_LS
1002
}
  0
ARC
  5
B326
330
20
100
AcDbEntity
  8
10000_FRONT
  6
DASHED
 62
     7
370
    15
100
AcDbCircle
 39
1.0
 10
69.09885440813008
 20
186.3681902870541
 30
0.0
 40
2.850490999999998
100
AcDbArc
 50
347.7603999999987
 51
12.23960000000126
1001
AUSTER_ANSICHT
1002
{
1000
V
1002
}
1001
AUSTER_FOLIE
1002
{
1000
S0_LS
1002
}
  0
CIRCLE
  5
B327
330
20
100
AcDbEntity
  8
10000_FRONT
  6
DASHED
 62
     7
370
    15
100
AcDbCircle
 39
1.0
 10
69.09885440813008
 20
186.3681902870541
 30
0.0
 40
3.1
1001
AUSTER_ANSICHT
1002
{
1000
V
1002
}
1001
AUSTER_FOLIE
1002
{
1000
S0_LS
1002
}
  0
CIRCLE
  5
B328
330
20
100
AcDbEntity
  8
10000_FRONT
  6
DASHED
 62
     7
370
    15
100
AcDbCircle
 39
1.0
 10
83.49885440813016
 20
186.3681902870541
 30
0.0
 40
3.1
1001
AUSTER_ANSICHT
1002
{
1000
V
1002
}
1001
AUSTER_FOLIE
1002
{
1000
S0_LS
1002
}
  0
ARC
  5
B329
330
20
100
AcDbEntity
  8
10000_FRONT
  6
DASHED
 62
     7
370
    15
100
AcDbCircle
 39
1.0
 10
83.49885440813016
 20
186.3681902870541
 30
0.0
 40
2.850490999999998
100
AcDbArc
 50
167.7603999999987
 51
192.2396000000013
1001
AUSTER_ANSICHT
1002
{
1000
V
1002
}
1001
AUSTER_FOLIE
1002
{
1000
S0_LS
1002
}
  0
ARC
  5
B32A
330
20
100
AcDbEntity
  8
10000_FRONT
  6
DASHED
 62
     7
370
    15
100
AcDbCircle
 39
1.0
 10
83.49885440813016
 20
186.3681902870541
 30
0.0
 40
1.85
100
AcDbArc
 50
253.8365999999989
 51
286.1634000000003
1001
AUSTER_ANSICHT
1002
{
1000
V
1002
}
1001
AUSTER_FOLIE
1002
{
1000
S0_LS
1002
}
  0
ARC
  5
B32B
330
20
100
AcDbEntity
  8
10000_FRONT
  6
DASHED
 62
     7
370
    15
100
AcDbCircle
 39
1.0
 10
83.49885440813016
 20
186.3681902870541
 30
0.0
 40
1.85
100
AcDbArc
 50
73.83655000001086
 51
106.1634000000003
1001
AUSTER_ANSICHT
1002
{
1000
V
1002
}
1001
AUSTER_FOLIE
1002
{
1000
S0_LS
1002
}
  0
ARC
  5
B32C
330
20
100
AcDbEntity
  8
10000_FRONT
  6
DASHED
 62
     7
370
    15
100
AcDbCircle
 39
1.0
 10
83.49885440813016
 20
186.3681902870541
 30
0.0
 40
2.850490999999998
100
AcDbArc
 50
347.7603999999987
 51
12.23960000000126
1001
AUSTER_ANSICHT
1002
{
1000
V
1002
}
1001
AUSTER_FOLIE
1002
{
1000
S0_LS
1002
}
  0
CIRCLE
  5
B32D
330
20
100
AcDbEntity
  8
10000_FRONT
  6
DASHED
 62
     7
370
    15
100
AcDbCircle
 39
1.0
 10
83.49885440813016
 20
186.3681902870541
 30
0.0
 40
3.1
1001
AUSTER_ANSICHT
1002
{
1000
V
1002
}
1001
AUSTER_FOLIE
1002
{
1000
S0_LS
1002
}
  0
CIRCLE
  5
B32E
330
20
100
AcDbEntity
  8
10000_FRONT
  6
DASHED
 62
     7
370
    15
100
AcDbCircle
 39
1.0
 10
97.89883440813033
 20
186.3681902870541
 30
0.0
 40
3.1
1001
AUSTER_ANSICHT
1002
{
1000
V
1002
}
1001
AUSTER_FOLIE
1002
{
1000
S0_LS
1002
}
  0
ARC
  5
B32F
330
20
100
AcDbEntity
  8
10000_FRONT
  6
DASHED
 62
     7
370
    15
100
AcDbCircle
 39
1.0
 10
97.89883440813033
 20
186.3681902870541
 30
0.0
 40
2.850490999999998
100
AcDbArc
 50
167.7603999999987
 51
192.2396000000013
1001
AUSTER_ANSICHT
1002
{
1000
V
1002
}
1001
AUSTER_FOLIE
1002
{
1000
S0_LS
1002
}
  0
ARC
  5
B330
330
20
100
AcDbEntity
  8
10000_FRONT
  6
DASHED
 62
     7
370
    15
100
AcDbCircle
 39
1.0
 10
97.89883440813033
 20
186.3681902870541
 30
0.0
 40
1.85
100
AcDbArc
 50
253.8365999999989
 51
286.1634000000003
1001
AUSTER_ANSICHT
1002
{
1000
V
1002
}
1001
AUSTER_FOLIE
1002
{
1000
S0_LS
1002
}
  0
ARC
  5
B331
330
20
100
AcDbEntity
  8
10000_FRONT
  6
DASHED
 62
     7
370
    15
100
AcDbCircle
 39
1.0
 10
97.89883440813033
 20
186.3681902870541
 30
0.0
 40
1.85
100
AcDbArc
 50
73.83655000001086
 51
106.1634000000003
1001
AUSTER_ANSICHT
1002
{
1000
V
1002
}
1001
AUSTER_FOLIE
1002
{
1000
S0_LS
1002
}
  0
ARC
  5
B332
330
20
100
AcDbEntity
  8
10000_FRONT
  6
DASHED
 62
     7
370
    15
100
AcDbCircle
 39
1.0
 10
97.89883440813033
 20
186.3681902870541
 30
0.0
 40
2.850490999999998
100
AcDbArc
 50
347.7603999999987
 51
12.23960000000126
1001
AUSTER_ANSICHT
1002
{
1000
V
1002
}
1001
AUSTER_FOLIE
1002
{
1000
S0_LS
1002
}
  0
CIRCLE
  5
B333
330
20
100
AcDbEntity
  8
10000_FRONT
  6
DASHED
 62
     7
370
    15
100
AcDbCircle
 39
1.0
 10
97.89883440813033
 20
186.3681902870541
 30
0.0
 40
3.1
1001
AUSTER_ANSICHT
1002
{
1000
V
1002
}
1001
AUSTER_FOLIE
1002
{
1000
S0_LS
1002
}
  0
LINE
  5
B364
330
20
100
AcDbEntity
  8
10000_FRONT
  6
DASHED
 62
     7
370
    15
100
AcDbLine
 39
1.0
 10
61.09885440813007
 20
193.3681902870541
 30
0.0
 11
105.8988344081303
 21
193.3681902870541
 31
0.0
1001
AUSTER_ANSICHT
1002
{
1000
V
1002
}
1001
AUSTER_FOLIE
1002
{
1000
S0_LS
1002
}
  0
LINE
  5
B365
330
20
100
AcDbEntity
  8
10000_FRONT
  6
DASHED
 62
     7
370
    15
100
AcDbLine
 39
1.0
 10
105.8988344081303
 20
195.6681902870541
 30
0.0
 11
105.8988344081303
 21
192.3681902870541
 31
0.0
1001
AUSTER_ANSICHT
1002
{
1000
V
1002
}
1001
AUSTER_FOLIE
1002
{
1000
S0_LS
1002
}
  0
LINE
  5
B366
330
20
100
AcDbEntity
  8
10000_FRONT
  6
DASHED
 62
     7
370
    15
100
AcDbLine
 39
1.0
 10
105.8988344081303
 20
197.1681902870541
 30
0.0
 11
105.8988344081303
 21
195.6681902870541
 31
0.0
1001
AUSTER_ANSICHT
1002
{
1000
V
1002
}
1001
AUSTER_FOLIE
1002
{
1000
S0_LS
1002
}
  0
LINE
  5
B367
330
20
100
AcDbEntity
  8
10000_FRONT
  6
DASHED
 62
     7
370
    15
100
AcDbLine
 39
1.0
 10
104.1488344081303
 20
193.367290287054
 30
0.0
 11
104.1488344081312
 21
197.1681902870541
 31
0.0
1001
AUSTER_ANSICHT
1002
{
1000
V
1002
}
1001
AUSTER_FOLIE
1002
{
1000
S0_LS
1002
}
  0
LINE
  5
B368
330
20
100
AcDbEntity
  8
10000_FRONT
  6
DASHED
 62
     7
370
    15
100
AcDbLine
 39
1.0
 10
91.64883440813033
 20
193.367290287054
 30
0.0
 11
91.64883440813122
 21
197.1681902870541
 31
0.0
1001
AUSTER_ANSICHT
1002
{
1000
V
1002
}
1001
AUSTER_FOLIE
1002
{
1000
S0_LS
1002
}
  0
LINE
  5
B369
330
20
100
AcDbEntity
  8
10000_FRONT
  6
DASHED
 62
     7
370
    15
100
AcDbLine
 39
1.0
 10
89.74883440813021
 20
193.367290287054
 30
0.0
 11
89.74883440813021
 21
197.1681902870541
 31
0.0
1001
AUSTER_ANSICHT
1002
{
1000
V
1002
}
1001
AUSTER_FOLIE
1002
{
1000
S0_LS
1002
}
  0
LINE
  5
B36A
330
20
100
AcDbEntity
  8
10000_FRONT
  6
DASHED
 62
     7
370
    15
100
AcDbLine
 39
1.0
 10
77.24885440813017
 20
193.367290287054
 30
0.0
 11
77.24885440813017
 21
197.1681902870541
 31
0.0
1001
AUSTER_ANSICHT
1002
{
1000
V
1002
}
1001
AUSTER_FOLIE
1002
{
1000
S0_LS
1002
}
  0
LINE
  5
B36B
330
20
100
AcDbEntity
  8
10000_FRONT
  6
DASHED
 62
     7
370
    15
100
AcDbLine
 39
1.0
 10
75.34885440813008
 20
193.367290287054
 30
0.0
 11
75.3488544081301
 21
197.1681902870541
 31
0.0
1001
AUSTER_ANSICHT
1002
{
1000
V
1002
}
1001
AUSTER_FOLIE
1002
{
1000
S0_LS
1002
}
  0
LINE
  5
B36C
330
20
100
AcDbEntity
  8
10000_FRONT
  6
DASHED
 62
     7
370
    15
100
AcDbLine
 39
1.0
 10
62.84885440813096
 20
197.1681902870541
 30
0.0
 11
62.84885440813007
 21
193.367290287054
 31
0.0
1001
AUSTER_ANSICHT
1002
{
1000
V
1002
}
1001
AUSTER_FOLIE
1002
{
1000
S0_LS
1002
}
  0
LINE
  5
B36D
330
20
100
AcDbEntity
  8
10000_FRONT
  6
DASHED
 62
     7
370
    15
100
AcDbLine
 39
1.0
 10
61.09885440813007
 20
192.3681902870541
 30
0.0
 11
61.09885440813007
 21
195.6681902870541
 31
0.0
1001
AUSTER_ANSICHT
1002
{
1000
V
1002
}
1001
AUSTER_FOLIE
1002
{
1000
S0_LS
1002
}
  0
LINE
  5
B36E
330
20
100
AcDbEntity
  8
10000_FRONT
  6
DASHED
 62
     7
370
    15
100
AcDbLine
 39
1.0
 10
61.09885440813007
 20
195.6681902870541
 30
0.0
 11
61.09885440813007
 21
197.1681902870541
 31
0.0
1001
AUSTER_ANSICHT
1002
{
1000
V
1002
}
1001
AUSTER_FOLIE
1002
{
1000
S0_LS
1002
}
  0
LINE
  5
B370
330
20
100
AcDbEntity
  8
10000_FRONT
  6
DASHED
 62
     7
370
    15
100
AcDbLine
 39
1.0
 10
61.09885440813007
 20
197.1681902870541
 30
0.0
 11
62.84885440813096
 21
197.1681902870541
 31
0.0
  0
LINE
  5
B371
330
20
100
AcDbEntity
  8
10000_FRONT
  6
DASHED
 62
     7
370
    15
100
AcDbLine
 39
1.0
 10
75.3488544081301
 20
197.1681902870541
 30
0.0
 11
77.24885440813017
 21
197.1681902870541
 31
0.0
  0
LINE
  5
B372
330
20
100
AcDbEntity
  8
10000_FRONT
  6
DASHED
 62
     7
370
    15
100
AcDbLine
 39
1.0
 10
89.74883440813021
 20
197.1681902870541
 30
0.0
 11
91.64883440813119
 21
197.1681902870536
 31
0.0
  0
LINE
  5
B373
330
20
100
AcDbEntity
  8
10000_FRONT
  6
DASHED
 62
     7
370
    15
100
AcDbLine
 39
1.0
 10
104.1488344081312
 20
197.1681902870541
 30
0.0
 11
105.8988344081303
 21
197.1681902870541
 31
0.0
  0
ENDSEC
  0
SECTION
  2
OBJECTS
  0
DICTIONARY
  5
C
330
0
100
AcDbDictionary
281
     1
  3
ACAD_COLOR
350
1B
  3
ACAD_GROUP
350
D
  3
ACAD_LAYOUT
350
19
  3
ACAD_MATERIAL
350
1A
  3
ACAD_MLINESTYLE
350
16
  3
ACAD_PLOTSETTINGS
350
18
  3
ACAD_PLOTSTYLENAME
350
E
  3
ACDBHEADERROUNDTRIPXREC
350
B3E6
  3
AcDbVariableDictionary
350
687E
  3
DWGPROPS
350
B3E5
  0
DICTIONARY
  5
1B
102
{ACAD_REACTORS
330
C
102
}
330
C
100
AcDbDictionary
281
     1
  0
DICTIONARY
  5
D
102
{ACAD_REACTORS
330
C
102
}
330
C
100
AcDbDictionary
281
     1
  0
DICTIONARY
  5
19
102
{ACAD_REACTORS
330
C
102
}
330
C
100
AcDbDictionary
281
     1
  3
Layout1
350
1F
  3
Model
350
23
  0
DICTIONARY
  5
1A
102
{ACAD_REACTORS
330
C
102
}
330
C
100
AcDbDictionary
281
     1
  0
DICTIONARY
  5
16
102
{ACAD_REACTORS
330
C
102
}
330
C
100
AcDbDictionary
281
     1
  3
Standard
350
17
  0
DICTIONARY
  5
18
102
{ACAD_REACTORS
330
C
102
}
330
C
100
AcDbDictionary
281
     1
  0
ACDBDICTIONARYWDFLT
  5
E
102
{ACAD_REACTORS
330
C
102
}
330
C
100
AcDbDictionary
281
     1
  3
Normal
350
F
100
AcDbDictionaryWithDefault
340
F
  0
DICTIONARY
  5
B3E6
102
{ACAD_REACTORS
330
C
102
}
330
C
100
AcDbDictionary
281
     1
  3
COLORDICT
350
B3E8
  3
MATERIALDICT
350
B3E7
  0
DICTIONARY
  5
687E
102
{ACAD_REACTORS
330
C
102
}
330
C
100
AcDbDictionary
281
     1
  3
DIMASSOC
350
687F
  3
PROJECTNAME
350
6880
  0
XRECORD
  5
B3E5
102
{ACAD_REACTORS
330
C
102
}
330
C
100
AcDbXrecord
280
     1
  1
DWGPROPS COOKIE
  2

  3

  4

  6

  7

  8

  9

300
=
301
=
302
=
303
=
304
=
305
=
306
=
307
=
308
=
309
=
 40
2.50464699074074
 41
2452829.417613079
 42
2453424.604627095
  1

 90
        0
  0
LAYOUT
  5
1F
102
{ACAD_XDICTIONARY
360
B3E9
102
}
102
{ACAD_REACTORS
330
19
102
}
330
19
100
AcDbPlotSettings
  1

  2
HP LaserJet 5000 Series PS
  4

  6

 40
0.0
 41
0.0
 42
0.0
 43
0.0
 44
0.0
 45
0.0
 46
0.0
 47
0.0
 48
0.0
 49
0.0
140
0.0
141
0.0
142
1.0
143
1.0
 70
   688
 72
     0
 73
     0
 74
     5
  7
monochrome.ctb
 75
    16
147
1.0
148
0.0
149
0.0
100
AcDbLayout
  1
Layout1
 70
     1
 71
     1
 10
0.0
 20
0.0
 11
12.0
 21
9.0
 12
0.0
 22
0.0
 32
0.0
 14
1.000000000000000E+20
 24
1.000000000000000E+20
 34
1.000000000000000E+20
 15
-1.000000000000000E+20
 25
-1.000000000000000E+20
 35
-1.000000000000000E+20
146
0.0
 13
0.0
 23
0.0
 33
0.0
 16
1.0
 26
0.0
 36
0.0
 17
0.0
 27
1.0
 37
0.0
 76
     0
330
1C
  0
LAYOUT
  5
23
102
{ACAD_XDICTIONARY
360
B3EB
102
}
102
{ACAD_REACTORS
330
19
102
}
330
19
100
AcDbPlotSettings
  1

  2
\\AMBW779A\A_P00873 (Canon iR2200-3300 PCL6)
  4
A3
  6

 40
4.815416812896728
 41
4.815412044525146
 42
4.815399169921875
 43
4.8154296875
 44
296.9259948730469
 45
419.9466552734373
 46
0.0
 47
0.0
 48
0.0
 49
0.0
140
0.0
141
0.0
142
1.0
143
1.0
 70
 11952
 72
     1
 73
     1
 74
     1
  7
monochrome.ctb
 75
    16
147
1.0
148
-9.986570658415983
149
0.0282463435137288
100
AcDbLayout
  1
Model
 70
     1
 71
     0
 10
0.0
 20
0.0
 11
12.0
 21
9.0
 12
0.0
 22
0.0
 32
0.0
 14
0.0
 24
0.0
 34
0.0
 15
0.0
 25
0.0
 35
0.0
146
0.0
 13
0.0
 23
0.0
 33
0.0
 16
1.0
 26
0.0
 36
0.0
 17
0.0
 27
1.0
 37
0.0
 76
     0
330
20
  0
MLINESTYLE
  5
17
102
{ACAD_REACTORS
330
16
102
}
330
16
100
AcDbMlineStyle
  2
STANDARD
 70
     0
  3

 62
   256
 51
90.0
 52
90.0
 71
     2
 49
0.5
 62
   256
  6
BYLAYER
 49
-0.5
 62
   256
  6
BYLAYER
  0
ACDBPLACEHOLDER
  5
F
102
{ACAD_REACTORS
330
E
102
}
330
E
  0
XRECORD
  5
B3E8
102
{ACAD_REACTORS
330
B3E6
102
}
330
B3E6
100
AcDbXrecord
280
     1
340
1B
  0
XRECORD
  5
B3E7
102
{ACAD_REACTORS
330
B3E6
102
}
330
B3E6
100
AcDbXrecord
280
     1
340
1A
  0
DICTIONARYVAR
  5
687F
102
{ACAD_REACTORS
330
687E
102
}
330
687E
100
DictionaryVariables
280
     0
  1
1
  0
DICTIONARYVAR
  5
6880
102
{ACAD_REACTORS
330
687E
102
}
330
687E
100
DictionaryVariables
280
     0
  1

  0
DICTIONARY
  5
B3E9
330
1F
100
AcDbDictionary
280
     1
281
     1
  3
ACAD_XREC_ROUNDTRIP
360
B3EA
  0
DICTIONARY
  5
B3EB
330
23
100
AcDbDictionary
280
     1
281
     1
  3
ACAD_XREC_ROUNDTRIP
360
B3EC
  0
XRECORD
  5
B3EA
102
{ACAD_REACTORS
330
B3E9
102
}
330
B3E9
100
AcDbXrecord
280
     1
102
SHADEPLOT
 70
     0
102
SHADEPLOTRESLEVEL
 70
     2
102
SHADEPLOTCUSTOMDPI
 70
   300
  0
XRECORD
  5
B3EC
102
{ACAD_REACTORS
330
B3EB
102
}
330
B3EB
100
AcDbXrecord
280
     1
102
SHADEPLOT
 70
     1
102
SHADEPLOTRESLEVEL
 70
     2
102
SHADEPLOTCUSTOMDPI
 70
   300
  0
ENDSEC
  0
EOF
