  0
SECTION
  2
HEADER
  9
$ACADVER
  1
AC1015
  9
$ACADMAINTVER
 70
    20
  9
$DWGCODEPAGE
  3
ANSI_1252
  9
$INSBASE
 10
0.0
 20
0.0
 30
0.0
  9
$EXTMIN
 10
9.98474220045
 20
-0.0090630292066862
 30
-0.0000213606748976
  9
$EXTMAX
 10
420.0128183607161
 20
270.0218359872488
 30
0.700021363934527
  9
$LIMMIN
 10
0.0
 20
0.0
  9
$LIMMAX
 10
420.0
 20
297.0
  9
$ORTHOMODE
 70
     1
  9
$REGENMODE
 70
     1
  9
$FILLMODE
 70
     1
  9
$QTEXTMODE
 70
     0
  9
$MIRRTEXT
 70
     0
  9
$LTSCALE
 40
23.1
  9
$ATTMODE
 70
     1
  9
$TEXTSIZE
 40
0.2
  9
$TRACEWID
 40
0.05
  9
$TEXTSTYLE
  7
Standard
  9
$CLAYER
  8
0
  9
$CELTYPE
  6
ByLayer
  9
$CECOLOR
 62
   256
  9
$CELTSCALE
 40
1.0
  9
$DISPSILH
 70
     0
  9
$DIMSCALE
 40
0.0
  9
$DIMASZ
 40
3.5
  9
$DIMEXO
 40
0.0
  9
$DIMDLI
 40
3.75
  9
$DIMRND
 40
0.0
  9
$DIMDLE
 40
0.0
  9
$DIMEXE
 40
2.0
  9
$DIMTP
 40
0.0
  9
$DIMTM
 40
0.0
  9
$DIMTXT
 40
3.5
  9
$DIMCEN
 40
2.5
  9
$DIMTSZ
 40
0.0
  9
$DIMTOL
 70
     0
  9
$DIMLIM
 70
     0
  9
$DIMTIH
 70
     0
  9
$DIMTOH
 70
     0
  9
$DIMSE1
 70
     0
  9
$DIMSE2
 70
     0
  9
$DIMTAD
 70
     1
  9
$DIMZIN
 70
     8
  9
$DIMBLK
  1

  9
$DIMASO
 70
     1
  9
$DIMSHO
 70
     1
  9
$DIMPOST
  1

  9
$DIMAPOST
  1

  9
$DIMALT
 70
     0
  9
$DIMALTD
 70
     4
  9
$DIMALTF
 40
0.039
  9
$DIMLFAC
 40
1.0
  9
$DIMTOFL
 70
     1
  9
$DIMTVP
 40
0.0
  9
$DIMTIX
 70
     0
  9
$DIMSOXD
 70
     0
  9
$DIMSAH
 70
     0
  9
$DIMBLK1
  1

  9
$DIMBLK2
  1

  9
$DIMSTYLE
  2
H035
  9
$DIMCLRD
 70
   256
  9
$DIMCLRE
 70
     7
  9
$DIMCLRT
 70
     7
  9
$DIMTFAC
 40
1.0
  9
$DIMGAP
 40
0.5
  9
$DIMJUST
 70
     0
  9
$DIMSD1
 70
     0
  9
$DIMSD2
 70
     0
  9
$DIMTOLJ
 70
     1
  9
$DIMTZIN
 70
     0
  9
$DIMALTZ
 70
     0
  9
$DIMALTTZ
 70
     0
  9
$DIMUPT
 70
     0
  9
$DIMDEC
 70
     0
  9
$DIMTDEC
 70
     2
  9
$DIMALTU
 70
     8
  9
$DIMALTTD
 70
     4
  9
$DIMTXSTY
  7
Standard
  9
$DIMAUNIT
 70
     0
  9
$DIMADEC
 70
     0
  9
$DIMALTRND
 40
0.0
  9
$DIMAZIN
 70
     0
  9
$DIMDSEP
 70
    46
  9
$DIMATFIT
 70
     3
  9
$DIMFRAC
 70
     0
  9
$DIMLDRBLK
  1

  9
$DIMLUNIT
 70
     2
  9
$DIMLWD
 70
    -2
  9
$DIMLWE
 70
    -2
  9
$DIMTMOVE
 70
     0
  9
$LUNITS
 70
     2
  9
$LUPREC
 70
     4
  9
$SKETCHINC
 40
0.1
  9
$FILLETRAD
 40
0.5
  9
$AUNITS
 70
     0
  9
$AUPREC
 70
     0
  9
$MENU
  1
.
  9
$ELEVATION
 40
0.0
  9
$PELEVATION
 40
0.0
  9
$THICKNESS
 40
0.0
  9
$LIMCHECK
 70
     0
  9
$CHAMFERA
 40
0.0
  9
$CHAMFERB
 40
0.0
  9
$CHAMFERC
 40
0.0
  9
$CHAMFERD
 40
0.0
  9
$SKPOLY
 70
     0
  9
$TDCREATE
 40
2452829.417613079
  9
$TDUCREATE
 40
2452829.375946412
  9
$TDUPDATE
 40
2453406.482905324
  9
$TDUUPDATE
 40
2453406.441238658
  9
$TDINDWG
 40
0.8159987384
  9
$TDUSRTIMER
 40
0.8159949421
  9
$USRTIMER
 70
     1
  9
$ANGBASE
 50
0.0
  9
$ANGDIR
 70
     0
  9
$PDMODE
 70
     0
  9
$PDSIZE
 40
0.0
  9
$PLINEWID
 40
0.0
  9
$SPLFRAME
 70
     0
  9
$SPLINETYPE
 70
     6
  9
$SPLINESEGS
 70
     8
  9
$HANDSEED
  5
6BE8
  9
$SURFTAB1
 70
     6
  9
$SURFTAB2
 70
     6
  9
$SURFTYPE
 70
     6
  9
$SURFU
 70
     6
  9
$SURFV
 70
     6
  9
$UCSBASE
  2

  9
$UCSNAME
  2

  9
$UCSORG
 10
0.0
 20
0.0
 30
0.0
  9
$UCSXDIR
 10
1.0
 20
0.0
 30
0.0
  9
$UCSYDIR
 10
0.0
 20
1.0
 30
0.0
  9
$UCSORTHOREF
  2

  9
$UCSORTHOVIEW
 70
     0
  9
$UCSORGTOP
 10
0.0
 20
0.0
 30
0.0
  9
$UCSORGBOTTOM
 10
0.0
 20
0.0
 30
0.0
  9
$UCSORGLEFT
 10
0.0
 20
0.0
 30
0.0
  9
$UCSORGRIGHT
 10
0.0
 20
0.0
 30
0.0
  9
$UCSORGFRONT
 10
0.0
 20
0.0
 30
0.0
  9
$UCSORGBACK
 10
0.0
 20
0.0
 30
0.0
  9
$PUCSBASE
  2

  9
$PUCSNAME
  2

  9
$PUCSORG
 10
0.0
 20
0.0
 30
0.0
  9
$PUCSXDIR
 10
1.0
 20
0.0
 30
0.0
  9
$PUCSYDIR
 10
0.0
 20
1.0
 30
0.0
  9
$PUCSORTHOREF
  2

  9
$PUCSORTHOVIEW
 70
     0
  9
$PUCSORGTOP
 10
0.0
 20
0.0
 30
0.0
  9
$PUCSORGBOTTOM
 10
0.0
 20
0.0
 30
0.0
  9
$PUCSORGLEFT
 10
0.0
 20
0.0
 30
0.0
  9
$PUCSORGRIGHT
 10
0.0
 20
0.0
 30
0.0
  9
$PUCSORGFRONT
 10
0.0
 20
0.0
 30
0.0
  9
$PUCSORGBACK
 10
0.0
 20
0.0
 30
0.0
  9
$USERI1
 70
     0
  9
$USERI2
 70
     0
  9
$USERI3
 70
     0
  9
$USERI4
 70
     0
  9
$USERI5
 70
     0
  9
$USERR1
 40
0.0
  9
$USERR2
 40
0.0
  9
$USERR3
 40
0.0
  9
$USERR4
 40
0.0
  9
$USERR5
 40
0.0
  9
$WORLDVIEW
 70
     1
  9
$SHADEDGE
 70
     3
  9
$SHADEDIF
 70
    70
  9
$TILEMODE
 70
     1
  9
$MAXACTVP
 70
    64
  9
$PINSBASE
 10
0.0
 20
0.0
 30
0.0
  9
$PLIMCHECK
 70
     0
  9
$PEXTMIN
 10
1.000000000000000E+20
 20
1.000000000000000E+20
 30
1.000000000000000E+20
  9
$PEXTMAX
 10
-1.000000000000000E+20
 20
-1.000000000000000E+20
 30
-1.000000000000000E+20
  9
$PLIMMIN
 10
0.0
 20
0.0
  9
$PLIMMAX
 10
12.0
 20
9.0
  9
$UNITMODE
 70
     0
  9
$VISRETAIN
 70
     1
  9
$PLINEGEN
 70
     0
  9
$PSLTSCALE
 70
     1
  9
$TREEDEPTH
 70
  3020
  9
$CMLSTYLE
  2
Standard
  9
$CMLJUST
 70
     0
  9
$CMLSCALE
 40
1.0
  9
$PROXYGRAPHICS
 70
     1
  9
$MEASUREMENT
 70
     0
  9
$CELWEIGHT
370
    -1
  9
$ENDCAPS
280
     0
  9
$JOINSTYLE
280
     0
  9
$LWDISPLAY
290
     0
  9
$INSUNITS
 70
     0
  9
$HYPERLINKBASE
  1

  9
$STYLESHEET
  1
MONOCHROME.CTB
  9
$XEDIT
290
     1
  9
$CEPSNTYPE
380
     0
  9
$PSTYLEMODE
290
     1
  9
$FINGERPRINTGUID
  2
{D88032C4-1185-41D3-97DD-7638FCF99E3F}
  9
$VERSIONGUID
  2
{D8A93623-3231-4F88-8FF4-919BD9637399}
  9
$EXTNAMES
290
     1
  9
$PSVPSCALE
 40
0.0
  9
$OLESTARTUP
290
     0
  0
ENDSEC
  0
SECTION
  2
CLASSES
  0
CLASS
  1
ACDBDICTIONARYWDFLT
  2
AcDbDictionaryWithDefault
  3
ObjectDBX Classes
 90
        0
280
     0
281
     0
  0
CLASS
  1
DICTIONARYVAR
  2
AcDbDictionaryVar
  3
ObjectDBX Classes
 90
        0
280
     0
281
     0
  0
CLASS
  1
ACDBPLACEHOLDER
  2
AcDbPlaceHolder
  3
ObjectDBX Classes
 90
        0
280
     0
281
     0
  0
CLASS
  1
LAYOUT
  2
AcDbLayout
  3
ObjectDBX Classes
 90
        0
280
     0
281
     0
  0
ENDSEC
  0
SECTION
  2
TABLES
  0
TABLE
  2
VPORT
  5
8
330
0
100
AcDbSymbolTable
 70
     2
  0
VPORT
  5
6BDF
330
8
100
AcDbSymbolTableRecord
100
AcDbViewportTableRecord
  2
*Active
 70
     0
 10
0.0
 20
0.0
 11
1.0
 21
1.0
 12
214.9987802805831
 22
135.006386479021
 13
0.0
 23
0.0
 14
1.0
 24
1.0
 15
0.0
 25
0.0
 16
0.0
 26
0.0
 36
1.0
 17
0.0
 27
0.0
 37
0.0
 40
272.1133995230091
 41
1.571428571428571
 42
50.0
 43
0.0
 44
0.0
 50
0.0
 51
0.0
 71
     0
 72
   100
 73
     1
 74
     1
 75
     0
 76
     0
 77
     0
 78
     0
281
     0
 65
     1
110
0.0
120
0.0
130
0.0
111
1.0
121
0.0
131
0.0
112
0.0
122
1.0
132
0.0
 79
     0
146
0.0
  0
ENDTAB
  0
TABLE
  2
LTYPE
  5
5
330
0
100
AcDbSymbolTable
 70
     3
  0
LTYPE
  5
13
330
5
100
AcDbSymbolTableRecord
100
AcDbLinetypeTableRecord
  2
ByBlock
 70
     0
  3

 72
    65
 73
     0
 40
0.0
  0
LTYPE
  5
14
330
5
100
AcDbSymbolTableRecord
100
AcDbLinetypeTableRecord
  2
ByLayer
 70
     0
  3

 72
    65
 73
     0
 40
0.0
  0
LTYPE
  5
15
330
5
100
AcDbSymbolTableRecord
100
AcDbLinetypeTableRecord
  2
CONTINUOUS
 70
     0
  3
Solid line
 72
    65
 73
     0
 40
0.0
  0
LTYPE
  5
26
330
5
100
AcDbSymbolTableRecord
100
AcDbLinetypeTableRecord
  2
CENTER
 70
     0
  3
____ _ ____ _ ____ _ ____ _ ____ _ ____ _ ____
 72
    65
 73
     4
 40
0.6
 49
0.375
 74
     0
 49
-0.075
 74
     0
 49
0.075
 74
     0
 49
-0.075
 74
     0
  0
LTYPE
  5
4F7A
330
5
100
AcDbSymbolTableRecord
100
AcDbLinetypeTableRecord
  2
DASHED
 70
     0
  3
_ _ _ _ _ _ _ _ _ _ _ _ _ _ _ _ _ _ _ _ _ _ _ _
 72
    65
 73
     2
 40
0.375
 49
0.25
 74
     0
 49
-0.125
 74
     0
  0
ENDTAB
  0
TABLE
  2
LAYER
  5
2
330
0
100
AcDbSymbolTable
 70
     8
  0
LAYER
  5
10
330
2
100
AcDbSymbolTableRecord
100
AcDbLayerTableRecord
  2
0
 70
     0
 62
     7
  6
CONTINUOUS
370
    -3
390
F
  0
LAYER
  5
1D8
330
2
100
AcDbSymbolTableRecord
100
AcDbLayerTableRecord
  2
Defpoints
 70
     0
 62
     7
  6
CONTINUOUS
290
     0
370
    -3
390
F
  0
LAYER
  5
1D9
330
2
100
AcDbSymbolTableRecord
100
AcDbLayerTableRecord
  2
91000_TIP
 70
     0
 62
     7
  6
CONTINUOUS
370
    -3
390
F
  0
LAYER
  5
1DA
330
2
100
AcDbSymbolTableRecord
100
AcDbLayerTableRecord
  2
11000_Left
 70
     0
 62
     7
  6
CONTINUOUS
370
    -3
390
F
  0
LAYER
  5
1DB
330
2
100
AcDbSymbolTableRecord
100
AcDbLayerTableRecord
  2
10000_FRONT
 70
     0
 62
     7
  6
CONTINUOUS
370
    -3
390
F
  0
LAYER
  5
1DC
330
2
100
AcDbSymbolTableRecord
100
AcDbLayerTableRecord
  2
10100_FRONT_DIM
 70
     0
 62
     7
  6
CONTINUOUS
370
    -3
390
F
  0
LAYER
  5
1DD
330
2
100
AcDbSymbolTableRecord
100
AcDbLayerTableRecord
  2
90000_FRAME
 70
     0
 62
     7
  6
CONTINUOUS
370
    -3
390
F
  0
LAYER
  5
1DE
330
2
100
AcDbSymbolTableRecord
100
AcDbLayerTableRecord
  2
11100_LEFT_DIM
 70
     0
 62
     7
  6
CONTINUOUS
370
    -3
390
F
  0
ENDTAB
  0
TABLE
  2
STYLE
  5
3
330
0
100
AcDbSymbolTable
 70
     1
  0
STYLE
  5
11
330
3
100
AcDbSymbolTableRecord
100
AcDbTextStyleTableRecord
  2
Standard
 70
     0
 40
0.0
 41
1.0
 50
0.0
 71
     0
 42
0.2
  3
txt
  4

  0
ENDTAB
  0
TABLE
  2
VIEW
  5
6
330
0
100
AcDbSymbolTable
 70
     0
  0
ENDTAB
  0
TABLE
  2
UCS
  5
7
330
0
100
AcDbSymbolTable
 70
     0
  0
ENDTAB
  0
TABLE
  2
APPID
  5
9
330
0
100
AcDbSymbolTable
 70
     3
  0
APPID
  5
12
330
9
100
AcDbSymbolTableRecord
100
AcDbRegAppTableRecord
  2
ACAD
 70
     0
  0
APPID
  5
1E8
330
9
100
AcDbSymbolTableRecord
100
AcDbRegAppTableRecord
  2
AUSTER_ANSICHT
 70
     0
  0
APPID
  5
1E9
330
9
100
AcDbSymbolTableRecord
100
AcDbRegAppTableRecord
  2
AUSTER_FOLIE
 70
     0
  0
ENDTAB
  0
TABLE
  2
DIMSTYLE
  5
A
330
0
100
AcDbSymbolTable
 70
     3
100
AcDbDimStyleTable
 71
     3
340
1E7
340
3A1A
340
BA
  0
DIMSTYLE
105
BA
330
A
100
AcDbSymbolTableRecord
100
AcDbDimStyleTableRecord
  2
Standard
 70
     0
340
11
  0
DIMSTYLE
105
1E7
102
{ACAD_REACTORS
330
6825
330
6878
330
68FB
330
68FA
102
}
330
A
100
AcDbSymbolTableRecord
100
AcDbDimStyleTableRecord
  2
DSTYLE1
 70
     0
 41
3.0
 42
0.0
 44
1.0
 73
     0
 74
     0
 77
     1
 78
     3
140
2.5
143
0.039370079
147
1.0
271
     3
272
     3
274
     0
279
     2
340
11
  0
DIMSTYLE
105
3A1A
102
{ACAD_REACTORS
330
6891
330
688F
102
}
330
A
100
AcDbSymbolTableRecord
100
AcDbDimStyleTableRecord
  2
H035
 70
     0
 40
0.0
 41
3.5
 42
0.0
 43
3.75
 44
2.0
 73
     0
 74
     0
 77
     1
 78
     8
140
3.5
141
2.5
143
0.039
147
0.5
171
     4
172
     1
176
   256
177
     7
178
     7
271
     0
272
     2
273
     8
274
     4
340
11
  0
ENDTAB
  0
TABLE
  2
BLOCK_RECORD
  5
1
330
0
100
AcDbSymbolTable
 70
     7
  0
BLOCK_RECORD
  5
20
330
1
100
AcDbSymbolTableRecord
100
AcDbBlockTableRecord
  2
*Model_Space
340
23
  0
BLOCK_RECORD
  5
1C
330
1
100
AcDbSymbolTableRecord
100
AcDbBlockTableRecord
  2
*Paper_Space
340
1F
  0
BLOCK_RECORD
  5
3A
330
1
100
AcDbSymbolTableRecord
100
AcDbBlockTableRecord
  2
SIEMENS_OUTLINE_BL0
340
0
102
{BLKREFS
331
AA
102
}
  0
BLOCK_RECORD
  5
68FC
330
1
100
AcDbSymbolTableRecord
100
AcDbBlockTableRecord
  2
*D1
340
0
  0
BLOCK_RECORD
  5
6909
330
1
100
AcDbSymbolTableRecord
100
AcDbBlockTableRecord
  2
*D2
340
0
  0
BLOCK_RECORD
  5
6923
330
1
100
AcDbSymbolTableRecord
100
AcDbBlockTableRecord
  2
*D3
340
0
  0
BLOCK_RECORD
  5
693D
330
1
100
AcDbSymbolTableRecord
100
AcDbBlockTableRecord
  2
*D4
340
0
  0
BLOCK_RECORD
  5
694A
330
1
100
AcDbSymbolTableRecord
100
AcDbBlockTableRecord
  2
*D5
340
0
  0
BLOCK_RECORD
  5
6957
330
1
100
AcDbSymbolTableRecord
100
AcDbBlockTableRecord
  2
*D6
340
0
  0
ENDTAB
  0
ENDSEC
  0
SECTION
  2
BLOCKS
  0
BLOCK
  5
21
330
20
100
AcDbEntity
  8
0
100
AcDbBlockBegin
  2
*Model_Space
 70
     0
 10
0.0
 20
0.0
 30
0.0
  3
*Model_Space
  1

  0
ENDBLK
  5
22
330
20
100
AcDbEntity
  8
0
100
AcDbBlockEnd
  0
BLOCK
  5
1D
330
1C
100
AcDbEntity
 67
     1
  8
0
100
AcDbBlockBegin
  2
*Paper_Space
 70
     0
 10
0.0
 20
0.0
 30
0.0
  3
*Paper_Space
  1

  0
ENDBLK
  5
1E
330
1C
100
AcDbEntity
 67
     1
  8
0
100
AcDbBlockEnd
  0
BLOCK
  5
3B
330
3A
100
AcDbEntity
  8
0
  6
Continuous
 62
     7
100
AcDbBlockBegin
  2
SIEMENS_OUTLINE_BL0
 70
     0
 10
0.0
 20
0.0
 30
0.0
  3
SIEMENS_OUTLINE_BL0
  1

  0
LINE
  5
3C
330
3A
100
AcDbEntity
  8
0
  6
Continuous
 62
     7
100
AcDbLine
 10
289.1235341257
 20
21.4969115175
 30
0.0
 11
289.1235341257
 21
16.7436424342
 31
0.0
  0
LINE
  5
3D
330
3A
100
AcDbEntity
  8
0
  6
Continuous
 62
     7
100
AcDbLine
 10
290.5495148507
 20
21.4969115175
 30
0.0
 11
290.5495148507
 21
16.7436424342
 31
0.0
  0
LINE
  5
3E
330
3A
100
AcDbEntity
  8
0
  6
Continuous
 62
     7
100
AcDbLine
 10
289.1235341257
 20
16.7436424342
 30
0.0
 11
290.5495148507
 21
16.7436424342
 31
0.0
  0
LINE
  5
3F
330
3A
100
AcDbEntity
  8
0
  6
Continuous
 62
     7
100
AcDbLine
 10
289.1235341257
 20
21.4969115175
 30
0.0
 11
290.5495148507
 21
21.4969115175
 31
0.0
  0
LINE
  5
40
330
3A
100
AcDbEntity
  8
0
  6
Continuous
 62
     7
100
AcDbLine
 10
291.6427667399
 20
21.4969115175
 30
0.0
 11
291.6427667399
 21
16.7436424342
 31
0.0
  0
LINE
  5
41
330
3A
100
AcDbEntity
  8
0
  6
Continuous
 62
     7
100
AcDbLine
 10
291.6427667399
 20
16.7436424342
 30
0.0
 11
295.2077185523
 21
16.7436424342
 31
0.0
  0
LINE
  5
42
330
3A
100
AcDbEntity
  8
0
  6
Continuous
 62
     7
100
AcDbLine
 10
295.2077185523
 20
17.64676356
 30
0.0
 11
293.021214774
 21
17.64676356
 31
0.0
  0
LINE
  5
43
330
3A
100
AcDbEntity
  8
0
  6
Continuous
 62
     7
100
AcDbLine
 10
295.2077185523
 20
17.64676356
 30
0.0
 11
295.2077185523
 21
16.7436424342
 31
0.0
  0
LINE
  5
44
330
3A
100
AcDbEntity
  8
0
  6
Continuous
 62
     7
100
AcDbLine
 10
295.1601858615
 20
21.4969115175
 30
0.0
 11
291.6427667399
 21
21.4969115175
 31
0.0
  0
LINE
  5
45
330
3A
100
AcDbEntity
  8
0
  6
Continuous
 62
     7
100
AcDbLine
 10
295.1601858615
 20
20.6175567371
 30
0.0
 11
293.021214774
 21
20.6175567371
 31
0.0
  0
LINE
  5
46
330
3A
100
AcDbEntity
  8
0
  6
Continuous
 62
     7
100
AcDbLine
 10
295.1601858615
 20
21.4969115175
 30
0.0
 11
295.1601858615
 21
20.6175567371
 31
0.0
  0
LINE
  5
47
330
3A
100
AcDbEntity
  8
0
  6
Continuous
 62
     7
100
AcDbLine
 10
294.8749897165
 20
18.7637817946
 30
0.0
 11
293.021214774
 21
18.7637817946
 31
0.0
  0
LINE
  5
48
330
3A
100
AcDbEntity
  8
0
  6
Continuous
 62
     7
100
AcDbLine
 10
294.8749897165
 20
19.5480711933
 30
0.0
 11
294.8749897165
 21
18.7637817946
 31
0.0
  0
LINE
  5
49
330
3A
100
AcDbEntity
  8
0
  6
Continuous
 62
     7
100
AcDbLine
 10
294.8749897165
 20
19.5480711933
 30
0.0
 11
293.021214774
 21
19.5480711933
 31
0.0
  0
LINE
  5
4A
330
3A
100
AcDbEntity
  8
0
  6
Continuous
 62
     7
100
AcDbLine
 10
293.021214774
 20
20.6175567371
 30
0.0
 11
293.021214774
 21
19.5480711933
 31
0.0
  0
LINE
  5
4B
330
3A
100
AcDbEntity
  8
0
  6
Continuous
 62
     7
100
AcDbLine
 10
293.021214774
 20
18.7637817946
 30
0.0
 11
293.021214774
 21
17.64676356
 31
0.0
  0
LINE
  5
4C
330
3A
100
AcDbEntity
  8
0
  6
Continuous
 62
     7
100
AcDbLine
 10
296.0157742965
 20
16.7436424342
 30
0.0
 11
296.0157742965
 21
21.4969115175
 31
0.0
  0
LINE
  5
4D
330
3A
100
AcDbEntity
  8
0
  6
Continuous
 62
     7
100
AcDbLine
 10
296.0157742965
 20
16.7436424342
 30
0.0
 11
296.9664281131
 21
16.7436424342
 31
0.0
  0
LINE
  5
4E
330
3A
100
AcDbEntity
  8
0
  6
Continuous
 62
     7
100
AcDbLine
 10
301.8622952689
 20
21.4969115175
 30
0.0
 11
301.8622952689
 21
16.7436424342
 31
0.0
  0
LINE
  5
4F
330
3A
100
AcDbEntity
  8
0
  6
Continuous
 62
     7
100
AcDbLine
 10
301.8622952689
 20
16.7436424342
 30
0.0
 11
300.4838472348
 21
16.7436424342
 31
0.0
  0
LINE
  5
50
330
3A
100
AcDbEntity
  8
0
  6
Continuous
 62
     7
100
AcDbLine
 10
298.2973434565
 20
16.6961097434
 30
0.0
 11
299.1529318914
 21
16.6961097434
 31
0.0
  0
LINE
  5
51
330
3A
100
AcDbEntity
  8
0
  6
Continuous
 62
     7
100
AcDbLine
 10
298.2973434565
 20
16.6961097434
 30
0.0
 11
296.9664281131
 21
19.7857346475
 31
0.0
  0
LINE
  5
52
330
3A
100
AcDbEntity
  8
0
  6
Continuous
 62
     7
100
AcDbLine
 10
296.9664281131
 20
16.7436424342
 30
0.0
 11
296.9664281131
 21
19.7857346475
 31
0.0
  0
LINE
  5
53
330
3A
100
AcDbEntity
  8
0
  6
Continuous
 62
     7
100
AcDbLine
 10
300.4838472348
 20
19.8332673383
 30
0.0
 11
299.1529318914
 21
16.6961097434
 31
0.0
  0
LINE
  5
54
330
3A
100
AcDbEntity
  8
0
  6
Continuous
 62
     7
100
AcDbLine
 10
297.7269511665
 20
21.4969115175
 30
0.0
 11
296.0157742965
 21
21.4969115175
 31
0.0
  0
LINE
  5
55
330
3A
100
AcDbEntity
  8
0
  6
Continuous
 62
     7
100
AcDbLine
 10
301.8622952689
 20
21.4969115175
 30
0.0
 11
300.1511183989
 21
21.4969115175
 31
0.0
  0
LINE
  5
56
330
3A
100
AcDbEntity
  8
0
  6
Continuous
 62
     7
100
AcDbLine
 10
297.7269511665
 20
21.4969115175
 30
0.0
 11
298.9628011281
 21
18.5974173767
 31
0.0
  0
LINE
  5
57
330
3A
100
AcDbEntity
  8
0
  6
Continuous
 62
     7
100
AcDbLine
 10
300.1511183989
 20
21.4969115175
 30
0.0
 11
298.9628011281
 21
18.5974173767
 31
0.0
  0
LINE
  5
58
330
3A
100
AcDbEntity
  8
0
  6
Continuous
 62
     7
100
AcDbLine
 10
300.4838472348
 20
19.8332673383
 30
0.0
 11
300.4838472348
 21
16.7436424342
 31
0.0
  0
LINE
  5
59
330
3A
100
AcDbEntity
  8
0
  6
Continuous
 62
     7
100
AcDbLine
 10
302.9555471581
 20
21.4969115175
 30
0.0
 11
302.9555471581
 21
16.7436424342
 31
0.0
  0
LINE
  5
5A
330
3A
100
AcDbEntity
  8
0
  6
Continuous
 62
     7
100
AcDbLine
 10
302.9555471581
 20
16.7436424342
 30
0.0
 11
306.5204989705
 21
16.7436424342
 31
0.0
  0
LINE
  5
5B
330
3A
100
AcDbEntity
  8
0
  6
Continuous
 62
     7
100
AcDbLine
 10
306.5204989705
 20
17.64676356
 30
0.0
 11
304.3339951922
 21
17.64676356
 31
0.0
  0
LINE
  5
5C
330
3A
100
AcDbEntity
  8
0
  6
Continuous
 62
     7
100
AcDbLine
 10
306.5204989705
 20
17.64676356
 30
0.0
 11
306.5204989705
 21
16.7436424342
 31
0.0
  0
LINE
  5
5D
330
3A
100
AcDbEntity
  8
0
  6
Continuous
 62
     7
100
AcDbLine
 10
306.4729662797
 20
21.4969115175
 30
0.0
 11
302.9555471581
 21
21.4969115175
 31
0.0
  0
LINE
  5
5E
330
3A
100
AcDbEntity
  8
0
  6
Continuous
 62
     7
100
AcDbLine
 10
306.4729662797
 20
20.6175567371
 30
0.0
 11
304.3339951922
 21
20.6175567371
 31
0.0
  0
LINE
  5
5F
330
3A
100
AcDbEntity
  8
0
  6
Continuous
 62
     7
100
AcDbLine
 10
306.4729662797
 20
21.4969115175
 30
0.0
 11
306.4729662797
 21
20.6175567371
 31
0.0
  0
LINE
  5
60
330
3A
100
AcDbEntity
  8
0
  6
Continuous
 62
     7
100
AcDbLine
 10
306.1877701347
 20
18.7637817946
 30
0.0
 11
304.3339951922
 21
18.7637817946
 31
0.0
  0
LINE
  5
61
330
3A
100
AcDbEntity
  8
0
  6
Continuous
 62
     7
100
AcDbLine
 10
306.1877701347
 20
19.5480711933
 30
0.0
 11
306.1877701347
 21
18.7637817946
 31
0.0
  0
LINE
  5
62
330
3A
100
AcDbEntity
  8
0
  6
Continuous
 62
     7
100
AcDbLine
 10
306.1877701347
 20
19.5480711933
 30
0.0
 11
304.3339951922
 21
19.5480711933
 31
0.0
  0
LINE
  5
63
330
3A
100
AcDbEntity
  8
0
  6
Continuous
 62
     7
100
AcDbLine
 10
304.3339951922
 20
20.6175567371
 30
0.0
 11
304.3339951922
 21
19.5480711933
 31
0.0
  0
LINE
  5
64
330
3A
100
AcDbEntity
  8
0
  6
Continuous
 62
     7
100
AcDbLine
 10
304.3339951922
 20
18.7637817946
 30
0.0
 11
304.3339951922
 21
17.64676356
 31
0.0
  0
LINE
  5
65
330
3A
100
AcDbEntity
  8
0
  6
Continuous
 62
     7
100
AcDbLine
 10
307.3047883693
 20
16.7436424342
 30
0.0
 11
307.3047883693
 21
21.4969115175
 31
0.0
  0
LINE
  5
66
330
3A
100
AcDbEntity
  8
0
  6
Continuous
 62
     7
100
AcDbLine
 10
311.4876651625
 20
21.4969115175
 30
0.0
 11
311.4876651625
 21
16.7436424342
 31
0.0
  0
LINE
  5
67
330
3A
100
AcDbEntity
  8
0
  6
Continuous
 62
     7
100
AcDbLine
 10
307.3047883693
 20
16.7436424342
 30
0.0
 11
308.2554421859
 21
16.7436424342
 31
0.0
  0
LINE
  5
68
330
3A
100
AcDbEntity
  8
0
  6
Continuous
 62
     7
100
AcDbLine
 10
311.4876651625
 20
21.4969115175
 30
0.0
 11
310.5370113459
 21
21.4969115175
 31
0.0
  0
LINE
  5
69
330
3A
100
AcDbEntity
  8
0
  6
Continuous
 62
     7
100
AcDbLine
 10
308.8496008213
 20
21.4969115175
 30
0.0
 11
307.3047883693
 21
21.4969115175
 31
0.0
  0
LINE
  5
6A
330
3A
100
AcDbEntity
  8
0
  6
Continuous
 62
     7
100
AcDbLine
 10
311.4876651625
 20
16.7436424342
 30
0.0
 11
309.9666190559
 21
16.7436424342
 31
0.0
  0
LINE
  5
6B
330
3A
100
AcDbEntity
  8
0
  6
Continuous
 62
     7
100
AcDbLine
 10
309.9666190559
 20
16.7436424342
 30
0.0
 11
308.2554421859
 21
19.7857346475
 31
0.0
  0
LINE
  5
6C
330
3A
100
AcDbEntity
  8
0
  6
Continuous
 62
     7
100
AcDbLine
 10
308.8496008213
 20
21.4969115175
 30
0.0
 11
310.5370113459
 21
18.5498846858
 31
0.0
  0
LINE
  5
6D
330
3A
100
AcDbEntity
  8
0
  6
Continuous
 62
     7
100
AcDbLine
 10
310.5370113459
 20
21.4969115175
 30
0.0
 11
310.5370113459
 21
18.5498846858
 31
0.0
  0
LINE
  5
6E
330
3A
100
AcDbEntity
  8
0
  6
Continuous
 62
     7
100
AcDbLine
 10
308.2554421859
 20
16.7436424342
 30
0.0
 11
308.2554421859
 21
19.7857346475
 31
0.0
  0
LINE
  5
6F
330
3A
100
AcDbEntity
  8
0
  6
Continuous
 62
     7
100
AcDbLine
 10
312.2957209067
 20
16.8387078159
 30
0.0
 11
312.2957209067
 21
17.7893616325
 31
0.0
  0
LINE
  5
70
330
3A
100
AcDbEntity
  8
0
  6
Continuous
 62
     7
100
AcDbLine
 10
315.623009265
 20
20.49872501
 30
0.0
 11
315.623009265
 21
21.4493788266
 31
0.0
  0
ARC
  5
71
330
3A
100
AcDbEntity
  8
0
  6
Continuous
 62
     7
100
AcDbCircle
 10
314.0003620317
 20
18.7008009792
 30
0.0
 40
1.111619360599997
100
AcDbArc
 50
277.7099956934
 51
295.6884927746
  0
ARC
  5
72
330
3A
100
AcDbEntity
  8
0
  6
Continuous
 62
     7
100
AcDbCircle
 10
314.2846720145
 20
17.9759752156
 30
0.0
 40
0.3401689265
100
AcDbArc
 50
305.503221255
 51
72.46528985229999
  0
ARC
  5
73
330
3A
100
AcDbEntity
  8
0
  6
Continuous
 62
     7
100
AcDbCircle
 10
313.7186782063
 20
21.3776821252
 30
0.0
 40
4.756794641099999
100
AcDbArc
 50
252.5939200548001
 51
280.9816604256
  0
ARC
  5
74
330
3A
100
AcDbEntity
  8
0
  6
Continuous
 62
     7
100
AcDbCircle
 10
314.1735135694
 20
18.7596683887
 30
0.0
 40
2.100726595299998
100
AcDbArc
 50
282.405835852
 51
311.8644433928
  0
ARC
  5
75
330
3A
100
AcDbEntity
  8
0
  6
Continuous
 62
     7
100
AcDbCircle
 10
313.8999492223
 20
20.3680101102
 30
0.0
 40
0.3029626476
100
AcDbArc
 50
154.4400348282
 51
221.8201698801
  0
ARC
  5
76
330
3A
100
AcDbEntity
  8
0
  6
Continuous
 62
     7
100
AcDbCircle
 10
313.9791703737
 20
20.2887889588
 30
0.0
 40
0.4103089737
100
AcDbArc
 50
102.8287828681
 51
149.2259639003
  0
ARC
  5
77
330
3A
100
AcDbEntity
  8
0
  6
Continuous
 62
     7
100
AcDbCircle
 10
314.3961972093
 20
18.546453629
 30
0.0
 40
2.201836557
100
AcDbArc
 50
84.0400061857
 51
103.3427657870999
  0
ARC
  5
78
330
3A
100
AcDbEntity
  8
0
  6
Continuous
 62
     7
100
AcDbCircle
 10
314.0552333846
 20
16.1290897051
 30
0.0
 40
4.642373736499997
100
AcDbArc
 50
70.2625858546
 51
82.95241863799999
  0
ARC
  5
79
330
3A
100
AcDbEntity
  8
0
  6
Continuous
 62
     7
100
AcDbCircle
 10
313.5412151824001
 20
20.8007125947
 30
0.0
 40
3.258755990899997
100
AcDbArc
 50
247.5300206145
 51
280.7579522143
  0
ARC
  5
7A
330
3A
100
AcDbEntity
  8
0
  6
Continuous
 62
     7
100
AcDbCircle
 10
307.1562487104
 20
2.5491926343
 30
0.0
 40
17.3316084133
100
AcDbArc
 50
65.34146746500001
 51
67.39977707359999
  0
ARC
  5
7B
330
3A
100
AcDbEntity
  8
0
  6
Continuous
 62
     7
100
AcDbCircle
 10
317.9521111158
 20
28.3416189974
 30
0.0
 40
10.6291642039
100
AcDbArc
 50
242.8620101252001
 51
247.1042029186
  0
ARC
  5
7C
330
3A
100
AcDbEntity
  8
0
  6
Continuous
 62
     7
100
AcDbCircle
 10
314.0972098893
 20
20.8076875004
 30
0.0
 40
2.166291629199998
100
AcDbArc
 50
227.3119280794
 51
242.7040315235
  0
ARC
  5
7D
330
3A
100
AcDbEntity
  8
0
  6
Continuous
 62
     7
100
AcDbCircle
 10
313.4931790796
 20
20.1020098596
 30
0.0
 40
1.238521734
100
AcDbArc
 50
194.7952194236
 51
225.7176549047
  0
ARC
  5
7E
330
3A
100
AcDbEntity
  8
0
  6
Continuous
 62
     7
100
AcDbCircle
 10
313.5553372138
 20
20.1422298287
 30
0.0
 40
1.309092072899999
100
AcDbArc
 50
164.1974860461
 51
195.8025139539
  0
ARC
  5
7F
330
3A
100
AcDbEntity
  8
0
  6
Continuous
 62
     7
100
AcDbCircle
 10
314.1123609345001
 20
19.2539626688
 30
0.0
 40
2.366924815299999
100
AcDbArc
 50
86.22180229280001
 51
120.4272602309
  0
ARC
  5
80
330
3A
100
AcDbEntity
  8
0
  6
Continuous
 62
     7
100
AcDbCircle
 10
313.8435041519
 20
12.5577948477
 30
0.0
 40
9.0679051661
100
AcDbArc
 50
78.68270492259998
 51
87.3147599624
  0
ARC
  5
81
330
3A
100
AcDbEntity
  8
0
  6
Continuous
 62
     7
100
AcDbCircle
 10
313.3874349735
 20
20.2497375912
 30
0.0
 40
1.119747444
100
AcDbArc
 50
142.813917903
 51
167.1522951417
  0
ARC
  5
82
330
3A
100
AcDbEntity
  8
0
  6
Continuous
 62
     7
100
AcDbCircle
 10
313.7327443151
 20
19.9431558946
 30
0.0
 40
1.580546684499998
100
AcDbArc
 50
121.2140948535
 51
141.5254768286
  0
ARC
  5
83
330
3A
100
AcDbEntity
  8
0
  6
Continuous
 62
     7
100
AcDbCircle
 10
314.3099186807
 20
20.7542132232
 30
0.0
 40
0.8661276051999998
100
AcDbArc
 50
222.7760387596
 51
239.0362434679
  0
ARC
  5
84
330
3A
100
AcDbEntity
  8
0
  6
Continuous
 62
     7
100
AcDbCircle
 10
311.8032091024
 20
13.4239410246
 30
0.0
 40
6.858773576299999
100
AcDbArc
 50
59.90202725600001
 51
68.2036481279
  0
ARC
  5
85
330
3A
100
AcDbEntity
  8
0
  6
Continuous
 62
     7
100
AcDbCircle
 10
315.2117035963
 20
22.3498275319
 30
0.0
 40
2.698741017099999
100
AcDbArc
 50
240.0481997804
 51
251.3779673736999
  0
ARC
  5
86
330
3A
100
AcDbEntity
  8
0
  6
Continuous
 62
     7
100
AcDbCircle
 10
314.5462464295
 20
18.1929289165
 30
0.0
 40
1.4334474881
100
AcDbArc
 50
315.8904553224
 51
333.5229264373
  0
ARC
  5
87
330
3A
100
AcDbEntity
  8
0
  6
Continuous
 62
     7
100
AcDbCircle
 10
314.5508846732
 20
18.1395217664
 30
0.0
 40
1.406228711899998
100
AcDbArc
 50
335.3867972702
 51
24.3915119402
  0
ARC
  5
88
330
3A
100
AcDbEntity
  8
0
  6
Continuous
 62
     7
100
AcDbCircle
 10
314.4786797697
 20
18.0616650746
 30
0.0
 40
1.504702514799999
100
AcDbArc
 50
25.95629166050001
 51
59.4834829668
  0
LINE
  5
89
330
3A
100
AcDbEntity
  8
0
  6
Continuous
 62
     7
100
AcDbLine
 10
284.7029938783
 20
16.8387078159
 30
0.0
 11
284.7029938783
 21
17.7893616325
 31
0.0
  0
LINE
  5
8A
330
3A
100
AcDbEntity
  8
0
  6
Continuous
 62
     7
100
AcDbLine
 10
288.0302822366
 20
20.49872501
 30
0.0
 11
288.0302822366
 21
21.4493788266
 31
0.0
  0
ARC
  5
8B
330
3A
100
AcDbEntity
  8
0
  6
Continuous
 62
     7
100
AcDbCircle
 10
286.4076350033
 20
18.7008009792
 30
0.0
 40
1.111619360599997
100
AcDbArc
 50
277.7099956934
 51
295.6884927746
  0
ARC
  5
8C
330
3A
100
AcDbEntity
  8
0
  6
Continuous
 62
     7
100
AcDbCircle
 10
286.691944986
 20
17.9759752156
 30
0.0
 40
0.3401689265
100
AcDbArc
 50
305.5032212556
 51
72.4652898515
  0
ARC
  5
8D
330
3A
100
AcDbEntity
  8
0
  6
Continuous
 62
     7
100
AcDbCircle
 10
286.1259511779
 20
21.3776821252
 30
0.0
 40
4.756794641099999
100
AcDbArc
 50
252.5939200545
 51
280.9816604253
  0
ARC
  5
8E
330
3A
100
AcDbEntity
  8
0
  6
Continuous
 62
     7
100
AcDbCircle
 10
286.580786541
 20
18.7596683887
 30
0.0
 40
2.100726595299998
100
AcDbArc
 50
282.4058358513
 51
311.8644433923
  0
ARC
  5
8F
330
3A
100
AcDbEntity
  8
0
  6
Continuous
 62
     7
100
AcDbCircle
 10
286.3072221939
 20
20.3680101102
 30
0.0
 40
0.3029626476
100
AcDbArc
 50
154.4400348282
 51
221.8201698801
  0
ARC
  5
90
330
3A
100
AcDbEntity
  8
0
  6
Continuous
 62
     7
100
AcDbCircle
 10
286.3864433453
 20
20.2887889588
 30
0.0
 40
0.4103089737
100
AcDbArc
 50
102.8287828727
 51
149.2259639027
  0
ARC
  5
91
330
3A
100
AcDbEntity
  8
0
  6
Continuous
 62
     7
100
AcDbCircle
 10
286.8034701809
 20
18.546453629
 30
0.0
 40
2.201836557
100
AcDbArc
 50
84.0400061859
 51
103.3427657872
  0
ARC
  5
92
330
3A
100
AcDbEntity
  8
0
  6
Continuous
 62
     7
100
AcDbCircle
 10
286.4625063562
 20
16.1290897051
 30
0.0
 40
4.642373736499997
100
AcDbArc
 50
70.2625858546
 51
82.9524186379
  0
ARC
  5
93
330
3A
100
AcDbEntity
  8
0
  6
Continuous
 62
     7
100
AcDbCircle
 10
285.948488154
 20
20.8007125947
 30
0.0
 40
3.258755990899997
100
AcDbArc
 50
247.5300206148
 51
280.7579522145
  0
ARC
  5
94
330
3A
100
AcDbEntity
  8
0
  6
Continuous
 62
     7
100
AcDbCircle
 10
279.563521682
 20
2.5491926343
 30
0.0
 40
17.3316084133
100
AcDbArc
 50
65.34146746500001
 51
67.39977707359999
  0
ARC
  5
95
330
3A
100
AcDbEntity
  8
0
  6
Continuous
 62
     7
100
AcDbCircle
 10
290.3593840874
 20
28.3416189974
 30
0.0
 40
10.6291642039
100
AcDbArc
 50
242.8620101252001
 51
247.1042029185
  0
ARC
  5
96
330
3A
100
AcDbEntity
  8
0
  6
Continuous
 62
     7
100
AcDbCircle
 10
286.5044828608
 20
20.8076875004
 30
0.0
 40
2.166291629199998
100
AcDbArc
 50
227.3119280794
 51
242.7040315235
  0
ARC
  5
97
330
3A
100
AcDbEntity
  8
0
  6
Continuous
 62
     7
100
AcDbCircle
 10
285.9004520512
 20
20.1020098596
 30
0.0
 40
1.238521734
100
AcDbArc
 50
194.7952194234
 51
225.7176549042
  0
ARC
  5
98
330
3A
100
AcDbEntity
  8
0
  6
Continuous
 62
     7
100
AcDbCircle
 10
286.519633906
 20
19.2539626688
 30
0.0
 40
2.366924815299999
100
AcDbArc
 50
86.22180229280001
 51
120.4272602309
  0
ARC
  5
99
330
3A
100
AcDbEntity
  8
0
  6
Continuous
 62
     7
100
AcDbCircle
 10
286.2507771235
 20
12.5577948477
 30
0.0
 40
9.0679051661
100
AcDbArc
 50
78.68270492259998
 51
87.3147599624
  0
ARC
  5
9A
330
3A
100
AcDbEntity
  8
0
  6
Continuous
 62
     7
100
AcDbCircle
 10
286.1400172867
 20
19.9431558946
 30
0.0
 40
1.580546684599998
100
AcDbArc
 50
121.2140948541
 51
141.525476829
  0
ARC
  5
9B
330
3A
100
AcDbEntity
  8
0
  6
Continuous
 62
     7
100
AcDbCircle
 10
286.7171916523
 20
20.7542132232
 30
0.0
 40
0.8661276051999998
100
AcDbArc
 50
222.7760387596
 51
239.0362434679
  0
ARC
  5
9C
330
3A
100
AcDbEntity
  8
0
  6
Continuous
 62
     7
100
AcDbCircle
 10
284.210482074
 20
13.4239410246
 30
0.0
 40
6.858773576299999
100
AcDbArc
 50
59.90202725620001
 51
68.20364812820002
  0
ARC
  5
9D
330
3A
100
AcDbEntity
  8
0
  6
Continuous
 62
     7
100
AcDbCircle
 10
287.6189765678
 20
22.3498275319
 30
0.0
 40
2.698741017099999
100
AcDbArc
 50
240.0481997804
 51
251.3779673734
  0
ARC
  5
9E
330
3A
100
AcDbEntity
  8
0
  6
Continuous
 62
     7
100
AcDbCircle
 10
286.953519401
 20
18.1929289165
 30
0.0
 40
1.4334474881
100
AcDbArc
 50
315.8904553226
 51
333.5229264375
  0
ARC
  5
9F
330
3A
100
AcDbEntity
  8
0
  6
Continuous
 62
     7
100
AcDbCircle
 10
286.9581576447
 20
18.1395217664
 30
0.0
 40
1.406228711899998
100
AcDbArc
 50
335.3867972703
 51
24.3915119403
  0
ARC
  5
A0
330
3A
100
AcDbEntity
  8
0
  6
Continuous
 62
     7
100
AcDbCircle
 10
286.8859527412
 20
18.0616650746
 30
0.0
 40
1.504702514699999
100
AcDbArc
 50
25.9562916611
 51
59.4834829676
  0
LINE
  5
A1
330
3A
100
AcDbEntity
  8
0
  6
Continuous
 62
     7
100
AcDbLine
 10
284.8948224676
 20
20.9161059766
 30
0.0
 11
285.1688882922
 21
21.1901790542
 31
0.0
  0
ARC
  5
A2
330
3A
100
AcDbEntity
  8
0
  6
Continuous
 62
     7
100
AcDbCircle
 10
285.9626101853
 20
20.1422298287
 30
0.0
 40
1.309092072899999
100
AcDbArc
 50
164.1974860461
 51
195.8025139539
  0
ARC
  5
A3
330
3A
100
AcDbEntity
  8
0
  6
Continuous
 62
     7
100
AcDbCircle
 10
285.7947079451
 20
20.2497375912
 30
0.0
 40
1.119747444
100
AcDbArc
 50
142.813917903
 51
167.1522951417
  0
ENDBLK
  5
A4
330
3A
100
AcDbEntity
  8
0
100
AcDbBlockEnd
  0
BLOCK
  5
6907
330
68FC
100
AcDbEntity
  8
0
100
AcDbBlockBegin
  2
*D1
 70
     1
 10
0.0
 20
0.0
 30
0.0
  3
*D1
  1

  0
LINE
  5
6BCB
330
68FC
100
AcDbEntity
  8
11100_LEFT_DIM
  6
Continuous
 62
     0
370
    -2
100
AcDbLine
 10
291.6148895193332
 20
228.3047142707894
 30
0.0
 11
301.6410140964544
 21
228.3047142707894
 31
0.0
  0
LINE
  5
6BCC
330
68FC
100
AcDbEntity
  8
11100_LEFT_DIM
  6
Continuous
 62
     0
370
    -2
100
AcDbLine
 10
291.6148895193332
 20
195.7047142707894
 30
0.0
 11
301.6410140964544
 21
195.7047142707894
 31
0.0
  0
LINE
  5
6BCD
330
68FC
100
AcDbEntity
  8
11100_LEFT_DIM
  6
Continuous
 62
     0
370
    -2
100
AcDbLine
 10
300.6410140964544
 20
226.3047142707894
 30
0.0
 11
300.6410140964544
 21
214.015201312991
 31
0.0
  0
LINE
  5
6BCE
330
68FC
100
AcDbEntity
  8
11100_LEFT_DIM
  6
Continuous
 62
     0
370
    -2
100
AcDbLine
 10
300.6410140964544
 20
197.7047142707894
 30
0.0
 11
300.6410140964544
 21
206.1818679796576
 31
0.0
  0
SOLID
  5
6BCF
330
68FC
100
AcDbEntity
  8
11100_LEFT_DIM
  6
Continuous
 62
     0
100
AcDbTrace
 10
300.3076807631211
 20
226.3047142707894
 30
0.0
 11
300.9743474297877
 21
226.3047142707894
 31
0.0
 12
300.6410140964544
 22
228.3047142707894
 32
0.0
 13
300.6410140964544
 23
228.3047142707894
 33
0.0
  0
SOLID
  5
6BD0
330
68FC
100
AcDbEntity
  8
11100_LEFT_DIM
  6
Continuous
 62
     0
100
AcDbTrace
 10
300.3076807631211
 20
197.7047142707894
 30
0.0
 11
300.9743474297877
 21
197.7047142707894
 31
0.0
 12
300.6410140964544
 22
195.7047142707894
 32
0.0
 13
300.6410140964544
 23
195.7047142707894
 33
0.0
  0
MTEXT
  5
6BD1
330
68FC
100
AcDbEntity
  8
11100_LEFT_DIM
  6
Continuous
 62
     0
370
    13
100
AcDbMText
 10
300.6410140964543
 20
210.0985346463243
 30
0.0
 40
3.5
 41
0.0
 71
     5
 72
     1
  1
\A1;33
 11
0.0000000000000001
 21
1.0
 31
0.0
 73
     1
 44
1.0
1001
ACAD
1000
MTEXTBEGIN
1070
    73
1070
     1
1070
    44
1040
1.0
1070
    74
1070
     0
1000
MTEXTEND
  0
POINT
  5
6BD2
330
68FC
100
AcDbEntity
  8
Defpoints
  6
Continuous
 62
     0
100
AcDbPoint
 10
290.6148895193332
 20
228.3047142707894
 30
0.0
  0
POINT
  5
6BD3
330
68FC
100
AcDbEntity
  8
Defpoints
  6
Continuous
 62
     0
100
AcDbPoint
 10
290.6148895193332
 20
195.7047142707894
 30
0.0
  0
POINT
  5
6BD4
330
68FC
100
AcDbEntity
  8
Defpoints
  6
Continuous
 62
     0
100
AcDbPoint
 10
300.6410140964544
 20
195.7047142707894
 30
0.0
  0
ENDBLK
  5
6908
330
68FC
100
AcDbEntity
  8
0
100
AcDbBlockEnd
  0
BLOCK
  5
6914
330
6909
100
AcDbEntity
  8
0
100
AcDbBlockBegin
  2
*D2
 70
     1
 10
0.0
 20
0.0
 30
0.0
  3
*D2
  1

  0
LINE
  5
6BC1
330
6909
100
AcDbEntity
  8
10100_FRONT_DIM
  6
Continuous
 62
     7
370
    -2
100
AcDbLine
 10
84.52940407642641
 20
175.2903640096891
 30
0.0
 11
84.52940407642641
 21
161.1209827113811
 31
0.0
  0
LINE
  5
6BC2
330
6909
100
AcDbEntity
  8
10100_FRONT_DIM
  6
Continuous
 62
     7
370
    -2
100
AcDbLine
 10
139.5294040764265
 20
175.2903640096891
 30
0.0
 11
139.5294040764265
 21
161.1209827113811
 31
0.0
  0
LINE
  5
6BC3
330
6909
100
AcDbEntity
  8
10100_FRONT_DIM
  6
Continuous
370
    -2
100
AcDbLine
 10
88.02940407642642
 20
163.1209827113811
 30
0.0
 11
106.8810192146367
 21
163.1209827113811
 31
0.0
  0
LINE
  5
6BC4
330
6909
100
AcDbEntity
  8
10100_FRONT_DIM
  6
Continuous
370
    -2
100
AcDbLine
 10
136.0294040764265
 20
163.1209827113811
 30
0.0
 11
115.7143525479701
 21
163.1209827113811
 31
0.0
  0
MTEXT
  5
6BC5
330
6909
100
AcDbEntity
  8
10100_FRONT_DIM
  6
Continuous
 62
     7
370
    13
100
AcDbMText
 10
111.2976858813034
 20
163.1209827113811
 30
0.0
 40
3.5
 41
0.0
 71
     5
 72
     1
  1
\A1;55
 73
     1
 44
1.0
1001
ACAD
1000
MTEXTBEGIN
1070
    73
1070
     1
1070
    44
1040
1.0
1070
    74
1070
     0
1000
MTEXTEND
  0
SOLID
  5
6BC6
330
6909
100
AcDbEntity
  8
10100_FRONT_DIM
  6
Continuous
100
AcDbTrace
 10
88.02940407642642
 20
163.7043160447144
 30
0.0
 11
88.02940407642642
 21
162.5376493780477
 31
0.0
 12
84.52940407642641
 22
163.1209827113811
 32
0.0
 13
84.52940407642641
 23
163.1209827113811
 33
0.0
  0
SOLID
  5
6BC7
330
6909
100
AcDbEntity
  8
10100_FRONT_DIM
  6
Continuous
100
AcDbTrace
 10
136.0294040764265
 20
163.7043160447144
 30
0.0
 11
136.0294040764265
 21
162.5376493780477
 31
0.0
 12
139.5294040764265
 22
163.1209827113811
 32
0.0
 13
139.5294040764265
 23
163.1209827113811
 33
0.0
  0
POINT
  5
6BC8
330
6909
100
AcDbEntity
  8
Defpoints
  6
Continuous
 62
     0
100
AcDbPoint
 10
84.52940407642641
 20
175.2903640096891
 30
0.0
  0
POINT
  5
6BC9
330
6909
100
AcDbEntity
  8
Defpoints
  6
Continuous
 62
     0
100
AcDbPoint
 10
139.5294040764265
 20
175.2903640096891
 30
0.0
  0
POINT
  5
6BCA
330
6909
100
AcDbEntity
  8
Defpoints
  6
Continuous
 62
     0
100
AcDbPoint
 10
139.5294040764265
 20
163.1209827113811
 30
0.0
  0
ENDBLK
  5
6915
330
6909
100
AcDbEntity
  8
0
100
AcDbBlockEnd
  0
BLOCK
  5
692E
330
6923
100
AcDbEntity
  8
0
100
AcDbBlockBegin
  2
*D3
 70
     1
 10
0.0
 20
0.0
 30
0.0
  3
*D3
  1

  0
LINE
  5
6BB7
330
6923
100
AcDbEntity
  8
10100_FRONT_DIM
  6
Continuous
 62
     7
370
    -2
100
AcDbLine
 10
71.8294040764265
 20
196.2903640096893
 30
0.0
 11
71.8294040764265
 21
153.4800615291938
 31
0.0
  0
LINE
  5
6BB8
330
6923
100
AcDbEntity
  8
10100_FRONT_DIM
  6
Continuous
 62
     7
370
    -2
100
AcDbLine
 10
181.8294040764265
 20
196.2903640096893
 30
0.0
 11
181.8294040764265
 21
153.4800615291938
 31
0.0
  0
LINE
  5
6BB9
330
6923
100
AcDbEntity
  8
10100_FRONT_DIM
  6
Continuous
370
    -2
100
AcDbLine
 10
75.3294040764265
 20
155.4800615291938
 30
0.0
 11
118.8038870733902
 21
155.4800615291938
 31
0.0
  0
LINE
  5
6BBA
330
6923
100
AcDbEntity
  8
10100_FRONT_DIM
  6
Continuous
370
    -2
100
AcDbLine
 10
178.3294040764265
 20
155.4800615291938
 30
0.0
 11
128.2205537400569
 21
155.4800615291938
 31
0.0
  0
MTEXT
  5
6BBB
330
6923
100
AcDbEntity
  8
10100_FRONT_DIM
  6
Continuous
 62
     7
370
    13
100
AcDbMText
 10
123.5122204067236
 20
155.4160583976859
 30
0.0
 40
3.5
 41
0.0
 71
     5
 72
     1
  1
\A1;110
 73
     1
 44
1.0
1001
ACAD
1000
MTEXTBEGIN
1070
    73
1070
     1
1070
    44
1040
1.0
1070
    74
1070
     0
1000
MTEXTEND
  0
SOLID
  5
6BBC
330
6923
100
AcDbEntity
  8
10100_FRONT_DIM
  6
Continuous
100
AcDbTrace
 10
75.3294040764265
 20
156.0633948625271
 30
0.0
 11
75.3294040764265
 21
154.8967281958605
 31
0.0
 12
71.8294040764265
 22
155.4800615291938
 32
0.0
 13
71.8294040764265
 23
155.4800615291938
 33
0.0
  0
SOLID
  5
6BBD
330
6923
100
AcDbEntity
  8
10100_FRONT_DIM
  6
Continuous
100
AcDbTrace
 10
178.3294040764265
 20
156.0633948625271
 30
0.0
 11
178.3294040764265
 21
154.8967281958605
 31
0.0
 12
181.8294040764265
 22
155.4800615291938
 32
0.0
 13
181.8294040764265
 23
155.4800615291938
 33
0.0
  0
POINT
  5
6BBE
330
6923
100
AcDbEntity
  8
Defpoints
  6
Continuous
 62
     0
100
AcDbPoint
 10
71.8294040764265
 20
196.2903640096893
 30
0.0
  0
POINT
  5
6BBF
330
6923
100
AcDbEntity
  8
Defpoints
  6
Continuous
 62
     0
100
AcDbPoint
 10
181.8294040764265
 20
196.2903640096893
 30
0.0
  0
POINT
  5
6BC0
330
6923
100
AcDbEntity
  8
Defpoints
  6
Continuous
 62
     0
100
AcDbPoint
 10
181.8294040764265
 20
155.4800615291938
 30
0.0
  0
ENDBLK
  5
692F
330
6923
100
AcDbEntity
  8
0
100
AcDbBlockEnd
  0
BLOCK
  5
6948
330
693D
100
AcDbEntity
  8
0
100
AcDbBlockBegin
  2
*D4
 70
     1
 10
0.0
 20
0.0
 30
0.0
  3
*D4
  1

  0
LINE
  5
6BAD
330
693D
100
AcDbEntity
  8
11100_LEFT_DIM
  6
Continuous
 62
     0
370
    -2
100
AcDbLine
 10
273.6148895193333
 20
228.3047142707894
 30
0.0
 11
216.3307275231575
 21
228.3047142707894
 31
0.0
  0
LINE
  5
6BAE
330
693D
100
AcDbEntity
  8
11100_LEFT_DIM
  6
Continuous
 62
     0
370
    -2
100
AcDbLine
 10
231.5148895193333
 20
60.70471427078939
 30
0.0
 11
216.3307275231575
 21
60.70471427078939
 31
0.0
  0
LINE
  5
6BAF
330
693D
100
AcDbEntity
  8
11100_LEFT_DIM
  6
Continuous
 62
     0
370
    -2
100
AcDbLine
 10
217.3307275231576
 20
226.3047142707894
 30
0.0
 11
217.3307275231575
 21
147.5676108490949
 31
0.0
  0
LINE
  5
6BB0
330
693D
100
AcDbEntity
  8
11100_LEFT_DIM
  6
Continuous
 62
     0
370
    -2
100
AcDbLine
 10
217.3307275231575
 20
62.70471427078939
 30
0.0
 11
217.3307275231575
 21
137.4009441824282
 31
0.0
  0
SOLID
  5
6BB1
330
693D
100
AcDbEntity
  8
11100_LEFT_DIM
  6
Continuous
 62
     0
100
AcDbTrace
 10
216.9973941898242
 20
226.3047142707894
 30
0.0
 11
217.6640608564909
 21
226.3047142707894
 31
0.0
 12
217.3307275231576
 22
228.3047142707894
 32
0.0
 13
217.3307275231576
 23
228.3047142707894
 33
0.0
  0
SOLID
  5
6BB2
330
693D
100
AcDbEntity
  8
11100_LEFT_DIM
  6
Continuous
 62
     0
100
AcDbTrace
 10
216.9973941898241
 20
62.70471427078939
 30
0.0
 11
217.6640608564909
 21
62.70471427078939
 31
0.0
 12
217.3307275231575
 22
60.70471427078939
 32
0.0
 13
217.3307275231575
 23
60.70471427078939
 33
0.0
  0
MTEXT
  5
6BB3
330
693D
100
AcDbEntity
  8
11100_LEFT_DIM
  6
Continuous
 62
     0
370
    13
100
AcDbMText
 10
217.3307275231575
 20
142.4842775157616
 30
0.0
 40
3.5
 41
0.0
 71
     5
 72
     1
  1
\A1;168
 11
0.0000000000000001
 21
1.0
 31
0.0
 73
     1
 44
1.0
1001
ACAD
1000
MTEXTBEGIN
1070
    73
1070
     1
1070
    44
1040
1.0
1070
    74
1070
     0
1000
MTEXTEND
  0
POINT
  5
6BB4
330
693D
100
AcDbEntity
  8
Defpoints
  6
Continuous
 62
     0
100
AcDbPoint
 10
274.6148895193333
 20
228.3047142707894
 30
0.0
  0
POINT
  5
6BB5
330
693D
100
AcDbEntity
  8
Defpoints
  6
Continuous
 62
     0
100
AcDbPoint
 10
232.5148895193333
 20
60.70471427078939
 30
0.0
  0
POINT
  5
6BB6
330
693D
100
AcDbEntity
  8
Defpoints
  6
Continuous
 62
     0
100
AcDbPoint
 10
217.3307275231575
 20
60.70471427078939
 30
0.0
  0
ENDBLK
  5
6949
330
693D
100
AcDbEntity
  8
0
100
AcDbBlockEnd
  0
BLOCK
  5
6955
330
694A
100
AcDbEntity
  8
0
100
AcDbBlockBegin
  2
*D5
 70
     1
 10
0.0
 20
0.0
 30
0.0
  3
*D5
  1

  0
LINE
  5
6BA3
330
694A
100
AcDbEntity
  8
11100_LEFT_DIM
  6
Continuous
 62
     0
370
    -2
100
AcDbLine
 10
273.6148895193333
 20
228.3047142707894
 30
0.0
 11
223.864706066499
 21
228.3047142707894
 31
0.0
  0
LINE
  5
6BA4
330
694A
100
AcDbEntity
  8
11100_LEFT_DIM
  6
Continuous
 62
     0
370
    -2
100
AcDbLine
 10
235.6148895193333
 20
130.5547142707894
 30
0.0
 11
223.8647060664989
 21
130.5547142707894
 31
0.0
  0
LINE
  5
6BA5
330
694A
100
AcDbEntity
  8
11100_LEFT_DIM
  6
Continuous
 62
     0
370
    -2
100
AcDbLine
 10
224.8647060664989
 20
226.3047142707894
 30
0.0
 11
224.8647060664989
 21
179.4326902932542
 31
0.0
  0
LINE
  5
6BA6
330
694A
100
AcDbEntity
  8
11100_LEFT_DIM
  6
Continuous
 62
     0
370
    -2
100
AcDbLine
 10
224.8647060664989
 20
132.5547142707894
 30
0.0
 11
224.8647060664989
 21
171.5993569599209
 31
0.0
  0
SOLID
  5
6BA7
330
694A
100
AcDbEntity
  8
11100_LEFT_DIM
  6
Continuous
 62
     0
100
AcDbTrace
 10
224.5313727331656
 20
226.3047142707894
 30
0.0
 11
225.1980393998323
 21
226.3047142707894
 31
0.0
 12
224.8647060664989
 22
228.3047142707894
 32
0.0
 13
224.8647060664989
 23
228.3047142707894
 33
0.0
  0
SOLID
  5
6BA8
330
694A
100
AcDbEntity
  8
11100_LEFT_DIM
  6
Continuous
 62
     0
100
AcDbTrace
 10
224.5313727331656
 20
132.5547142707894
 30
0.0
 11
225.1980393998323
 21
132.5547142707894
 31
0.0
 12
224.8647060664989
 22
130.5547142707894
 32
0.0
 13
224.8647060664989
 23
130.5547142707894
 33
0.0
  0
MTEXT
  5
6BA9
330
694A
100
AcDbEntity
  8
11100_LEFT_DIM
  6
Continuous
 62
     0
370
    13
100
AcDbMText
 10
224.8647060664989
 20
175.5160236265876
 30
0.0
 40
3.5
 41
0.0
 71
     5
 72
     1
  1
\A1;98
 11
0.0000000000000001
 21
1.0
 31
0.0
 73
     1
 44
1.0
1001
ACAD
1000
MTEXTBEGIN
1070
    73
1070
     1
1070
    44
1040
1.0
1070
    74
1070
     0
1000
MTEXTEND
  0
POINT
  5
6BAA
330
694A
100
AcDbEntity
  8
Defpoints
  6
Continuous
 62
     0
100
AcDbPoint
 10
274.6148895193333
 20
228.3047142707894
 30
0.0
  0
POINT
  5
6BAB
330
694A
100
AcDbEntity
  8
Defpoints
  6
Continuous
 62
     0
100
AcDbPoint
 10
236.6148895193333
 20
130.5547142707894
 30
0.0
  0
POINT
  5
6BAC
330
694A
100
AcDbEntity
  8
Defpoints
  6
Continuous
 62
     0
100
AcDbPoint
 10
224.8647060664989
 20
130.5547142707894
 30
0.0
  0
ENDBLK
  5
6956
330
694A
100
AcDbEntity
  8
0
100
AcDbBlockEnd
  0
BLOCK
  5
6962
330
6957
100
AcDbEntity
  8
0
100
AcDbBlockBegin
  2
*D6
 70
     1
 10
0.0
 20
0.0
 30
0.0
  3
*D6
  1

  0
LINE
  5
6BD5
330
6957
100
AcDbEntity
  8
11100_LEFT_DIM
  6
Continuous
 62
     0
370
    -2
100
AcDbLine
 10
274.6148895193333
 20
229.3047142707894
 30
0.0
 11
274.6148895193333
 21
236.9707635120144
 31
0.0
  0
LINE
  5
6BD6
330
6957
100
AcDbEntity
  8
11100_LEFT_DIM
  6
Continuous
 62
     0
370
    -2
100
AcDbLine
 10
289.6148895193333
 20
229.3047142707894
 30
0.0
 11
289.6148895193333
 21
236.9707635120144
 31
0.0
  0
LINE
  5
6BD7
330
6957
100
AcDbEntity
  8
11100_LEFT_DIM
  6
Continuous
 62
     0
370
    -2
100
AcDbLine
 10
276.6148895193333
 20
235.9707635120144
 30
0.0
 11
278.4249490860221
 21
235.9707635120144
 31
0.0
  0
LINE
  5
6BD8
330
6957
100
AcDbEntity
  8
11100_LEFT_DIM
  6
Continuous
 62
     0
370
    -2
100
AcDbLine
 10
287.6148895193333
 20
235.9707635120144
 30
0.0
 11
285.0916157526887
 21
235.9707635120144
 31
0.0
  0
SOLID
  5
6BD9
330
6957
100
AcDbEntity
  8
11100_LEFT_DIM
  6
Continuous
 62
     0
100
AcDbTrace
 10
276.6148895193333
 20
236.3040968453478
 30
0.0
 11
276.6148895193333
 21
235.6374301786811
 31
0.0
 12
274.6148895193333
 22
235.9707635120144
 32
0.0
 13
274.6148895193333
 23
235.9707635120144
 33
0.0
  0
SOLID
  5
6BDA
330
6957
100
AcDbEntity
  8
11100_LEFT_DIM
  6
Continuous
 62
     0
100
AcDbTrace
 10
287.6148895193333
 20
236.3040968453478
 30
0.0
 11
287.6148895193333
 21
235.6374301786811
 31
0.0
 12
289.6148895193333
 22
235.9707635120144
 32
0.0
 13
289.6148895193333
 23
235.9707635120144
 33
0.0
  0
MTEXT
  5
6BDB
330
6957
100
AcDbEntity
  8
11100_LEFT_DIM
  6
Continuous
 62
     0
370
    13
100
AcDbMText
 10
281.7582824193554
 20
235.9707635120144
 30
0.0
 40
3.5
 41
0.0
 71
     5
 72
     1
  1
\A1;15
 73
     1
 44
1.0
1001
ACAD
1000
MTEXTBEGIN
1070
    73
1070
     1
1070
    44
1040
1.0
1070
    74
1070
     0
1000
MTEXTEND
  0
POINT
  5
6BDC
330
6957
100
AcDbEntity
  8
Defpoints
  6
Continuous
 62
     0
100
AcDbPoint
 10
274.6148895193333
 20
228.3047142707894
 30
0.0
  0
POINT
  5
6BDD
330
6957
100
AcDbEntity
  8
Defpoints
  6
Continuous
 62
     0
100
AcDbPoint
 10
289.6148895193333
 20
228.3047142707894
 30
0.0
  0
POINT
  5
6BDE
330
6957
100
AcDbEntity
  8
Defpoints
  6
Continuous
 62
     0
100
AcDbPoint
 10
289.6148895193333
 20
235.9707635120144
 30
0.0
  0
ENDBLK
  5
6963
330
6957
100
AcDbEntity
  8
0
100
AcDbBlockEnd
  0
ENDSEC
  0
SECTION
  2
ENTITIES
  0
INSERT
  5
AA
330
20
100
AcDbEntity
  8
90000_FRAME
  6
Continuous
 62
     7
100
AcDbBlockReference
  2
SIEMENS_OUTLINE_BL0
 10
0.0
 20
0.0
 30
0.0
  0
LINE
  5
AB
330
20
100
AcDbEntity
  8
90000_FRAME
  6
Continuous
 62
     7
100
AcDbLine
 10
275.0
 20
10.0
 30
0.0
 11
410.0
 21
10.0
 31
0.0
  0
LINE
  5
AC
330
20
100
AcDbEntity
  8
90000_FRAME
  6
Continuous
 62
     7
100
AcDbLine
 10
275.0
 20
10.0
 30
0.0
 11
275.0
 21
28.0
 31
0.0
  0
LINE
  5
AD
330
20
100
AcDbEntity
  8
90000_FRAME
  6
Continuous
 62
     7
100
AcDbLine
 10
325.0
 20
16.0
 30
0.0
 11
410.0
 21
16.0
 31
0.0
  0
LINE
  5
AE
330
20
100
AcDbEntity
  8
90000_FRAME
  6
Continuous
 62
     7
100
AcDbLine
 10
275.0
 20
28.0
 30
0.0
 11
410.0
 21
28.0
 31
0.0
  0
LINE
  5
AF
330
20
100
AcDbEntity
  8
90000_FRAME
  6
Continuous
 62
     7
100
AcDbLine
 10
325.0
 20
10.0
 30
0.0
 11
325.0
 21
28.0
 31
0.0
  0
LINE
  5
B0
330
20
100
AcDbEntity
  8
90000_FRAME
  6
Continuous
 62
     7
100
AcDbLine
 10
367.5
 20
10.0
 30
0.0
 11
367.5
 21
16.0
 31
0.0
  0
LINE
  5
B1
330
20
100
AcDbEntity
  8
90000_FRAME
  6
Continuous
 62
     7
100
AcDbLine
 10
410.0
 20
10.0
 30
0.0
 11
410.0
 21
28.0
 31
0.0
  0
TEXT
  5
B2
330
20
100
AcDbEntity
  8
90000_FRAME
  6
Continuous
 62
     7
100
AcDbText
 10
325.66
 20
11.9
 30
0.0
 40
2.2
  1
Format / Size: DIN A3
 41
0.7994987468660284
 72
     5
 11
359.079047619
 21
11.9
 31
0.0
100
AcDbText
  0
TEXT
  5
B3
330
20
100
AcDbEntity
  8
90000_FRAME
  6
Continuous
 62
     7
100
AcDbText
 10
368.16
 20
11.9
 30
0.0
 40
2.2
  1
Massstab / Scale: 1:1
 41
0.7732634338148471
 72
     5
 11
399.0647619048001
 21
11.9
 31
0.0
100
AcDbText
  0
LINE
  5
B7
330
20
100
AcDbEntity
  8
90000_FRAME
  6
Continuous
 62
     7
100
AcDbLine
 10
10.0
 20
0.0
 30
0.0
 11
420.0
 21
0.0
 31
0.0
  0
LINE
  5
B9
330
20
100
AcDbEntity
  8
90000_FRAME
  6
Continuous
 62
     7
100
AcDbLine
 10
420.0
 20
0.0
 30
0.0
 11
420.0
 21
270.0
 31
0.0
  0
LINE
  5
20F5
330
20
100
AcDbEntity
  8
91000_TIP
  6
Continuous
 62
     7
100
AcDbLine
 10
249.8146701040259
 20
21.32373752237061
 30
0.0
 11
259.814669899826
 21
23.82373747137058
 31
0.0
  0
LINE
  5
20F6
330
20
100
AcDbEntity
  8
91000_TIP
  6
CENTER
 62
     7
100
AcDbLine
 10
248.5351596320249
 20
18.82373757347062
 30
0.0
 11
272.1371488961249
 21
18.82373757347062
 31
0.0
  0
LINE
  5
20F7
330
20
100
AcDbEntity
  8
91000_TIP
  6
Continuous
 62
     7
100
AcDbLine
 10
249.8146701040259
 20
16.32373762457058
 30
0.0
 11
259.814669899826
 21
13.8237376755705
 31
0.0
  0
LINE
  5
20F8
330
20
100
AcDbEntity
  8
91000_TIP
  6
Continuous
 62
     7
100
AcDbLine
 10
249.8146701040259
 20
21.32373752237061
 30
0.0
 11
249.8146701040259
 21
16.32373762457058
 31
0.0
  0
LINE
  5
20F9
330
20
100
AcDbEntity
  8
91000_TIP
  6
Continuous
 62
     7
100
AcDbLine
 10
259.814669899826
 20
23.82373747137058
 30
0.0
 11
259.814669899826
 21
13.8237376755705
 31
0.0
  0
LINE
  5
20FA
330
20
100
AcDbEntity
  8
91000_TIP
  6
CENTER
 62
     7
100
AcDbLine
 10
266.3146697670259
 20
13.10225636707057
 30
0.0
 11
266.3146697670259
 21
24.38564236707057
 31
0.0
  0
CIRCLE
  5
20FB
330
20
100
AcDbEntity
  8
91000_TIP
  6
Continuous
 62
     7
100
AcDbCircle
 10
266.3146697670259
 20
18.82373757347062
 30
0.0
 40
4.9999998979
  0
CIRCLE
  5
20FC
330
20
100
AcDbEntity
  8
91000_TIP
  6
Continuous
 62
     7
100
AcDbCircle
 10
266.3146697670259
 20
18.82373757347062
 30
0.0
 40
2.499999948899997
  0
TEXT
  5
2196
330
20
100
AcDbEntity
  8
90000_FRAME
  6
Continuous
 62
     7
100
AcDbText
 10
338.3059245239508
 20
20.25
 30
0.0
 40
3.5
  1
3RV193__00000171_000_ALL
 41
0.7373033857474684
 72
     5
 11
394.2180979431339
 21
20.25
 31
0.0
100
AcDbText
  0
TEXT
  5
2FDF
330
20
100
AcDbEntity
  8
91000_TIP
  6
Continuous
 62
     7
100
AcDbText
 10
21.2756234532
 20
15.1898618139
 30
0.0
 40
3.5
  1
Alle Bemassungswerte sind in Millimeter (mm) angegeben.
 41
0.7901174168295487
 72
     5
 11
155.8589567865
 21
15.1898618139
 31
0.0
100
AcDbText
  0
TEXT
  5
2FE0
330
20
100
AcDbEntity
  8
91000_TIP
  6
Continuous
 62
     7
100
AcDbText
 10
21.2756234532
 20
9.9398618139
 30
0.0
 40
3.5
  1
All dimensions are in millimeters (mm).
 41
0.831845238095536
 72
     5
 11
114.4422901199
 21
9.9398618139
 31
0.0
100
AcDbText
  0
LINE
  5
4E2A
330
20
100
AcDbEntity
  8
90000_FRAME
  6
Continuous
 62
     7
100
AcDbLine
 10
10.0
 20
0.0
 30
0.0
 11
10.0
 21
270.0
 31
0.0
  0
LINE
  5
4E2B
330
20
100
AcDbEntity
  8
90000_FRAME
  6
Continuous
 62
     7
100
AcDbLine
 10
10.0
 20
270.0
 30
0.0
 11
420.0
 21
270.0
 31
0.0
  0
LINE
  5
680B
330
20
100
AcDbEntity
  8
11000_Left
  6
DASHED
 62
     7
370
    20
100
AcDbLine
 39
0.25
 10
380.4708895193332
 20
144.2457142707894
 30
0.0
 11
378.6368895193334
 21
144.2457142707894
 31
0.0
1001
AUSTER_ANSICHT
1002
{
1000
Det03
1002
}
1001
AUSTER_FOLIE
1002
{
1000
NSB00058B_S2_3P_SS_75
1000
NSB00061_S2_3P_EIN_O
1000
NSB00057_S2_3P_SS_55
1002
}
  0
LINE
  5
680C
330
20
100
AcDbEntity
  8
11000_Left
  6
DASHED
 62
     7
370
    20
100
AcDbLine
 39
0.25
 10
378.6368895193334
 20
145.2457142707894
 30
0.0
 11
378.6368895193334
 21
141.0817142707891
 31
0.0
1001
AUSTER_ANSICHT
1002
{
1000
Det03
1002
}
1001
AUSTER_FOLIE
1002
{
1000
NSB00058B_S2_3P_SS_75
1000
NSB00061_S2_3P_EIN_O
1000
NSB00057_S2_3P_SS_55
1002
}
  0
LINE
  5
680D
330
20
100
AcDbEntity
  8
11000_Left
  6
DASHED
 62
     7
370
    20
100
AcDbLine
 39
0.25
 10
362.0408895193332
 20
172.4527142707891
 30
0.0
 11
362.0128895193333
 21
172.6087142707894
 31
0.0
1001
AUSTER_ANSICHT
1002
{
1000
Det03
1002
}
1001
AUSTER_FOLIE
1002
{
1000
NSB00058B_S2_3P_SS_75
1000
NSB00061_S2_3P_EIN_O
1000
NSB00057_S2_3P_SS_55
1002
}
  0
LINE
  5
680E
330
20
100
AcDbEntity
  8
11000_Left
  6
DASHED
 62
     7
370
    20
100
AcDbLine
 39
0.25
 10
338.1148895193332
 20
193.2047142707894
 30
0.0
 11
342.9198895193333
 21
193.2047142707894
 31
0.0
1001
AUSTER_ANSICHT
1002
{
1000
Det03
1002
}
1001
AUSTER_FOLIE
1002
{
1000
NSB00058B_S2_3P_SS_75
1000
NSB00061_S2_3P_EIN_O
1000
NSB00057_S2_3P_SS_55
1002
}
  0
LINE
  5
680F
330
20
100
AcDbEntity
  8
11000_Left
  6
DASHED
 62
     7
370
    20
100
AcDbLine
 39
0.25
 10
343.6938895193334
 20
192.6087142707894
 30
0.0
 11
343.8108895193333
 21
191.8147142707894
 31
0.0
1001
AUSTER_ANSICHT
1002
{
1000
Det03
1002
}
1001
AUSTER_FOLIE
1002
{
1000
NSB00058B_S2_3P_SS_75
1000
NSB00061_S2_3P_EIN_O
1000
NSB00057_S2_3P_SS_55
1002
}
  0
LINE
  5
6810
330
20
100
AcDbEntity
  8
11000_Left
  6
DASHED
 62
     7
370
    20
100
AcDbLine
 39
0.25
 10
345.7958895193332
 20
173.2047142707894
 30
0.0
 11
343.6938895193334
 21
192.6087142707894
 31
0.0
1001
AUSTER_ANSICHT
1002
{
1000
Det03
1002
}
1001
AUSTER_FOLIE
1002
{
1000
NSB00058B_S2_3P_SS_75
1000
NSB00061_S2_3P_EIN_O
1000
NSB00057_S2_3P_SS_55
1002
}
  0
LINE
  5
6811
330
20
100
AcDbEntity
  8
11000_Left
  6
DASHED
 62
     7
370
    20
100
AcDbLine
 39
0.25
 10
345.7958895193332
 20
173.2047142707894
 30
0.0
 11
361.2398895193333
 21
173.2047142707894
 31
0.0
1001
AUSTER_ANSICHT
1002
{
1000
Det03
1002
}
1001
AUSTER_FOLIE
1002
{
1000
NSB00058B_S2_3P_SS_75
1000
NSB00061_S2_3P_EIN_O
1000
NSB00057_S2_3P_SS_55
1002
}
  0
LINE
  5
6812
330
20
100
AcDbEntity
  8
11000_Left
  6
DASHED
 62
     7
370
    20
100
AcDbLine
 39
0.25
 10
369.4368895193334
 20
143.0647142707892
 30
0.0
 11
369.4368895193334
 21
143.9817142707895
 31
0.0
1001
AUSTER_ANSICHT
1002
{
1000
Det03
1002
}
1001
AUSTER_FOLIE
1002
{
1000
NSB00058B_S2_3P_SS_75
1000
NSB00061_S2_3P_EIN_O
1000
NSB00057_S2_3P_SS_55
1002
}
  0
LINE
  5
6813
330
20
100
AcDbEntity
  8
11000_Left
  6
DASHED
 62
     7
370
    20
100
AcDbLine
 39
0.25
 10
369.4368895193334
 20
143.9817142707895
 30
0.0
 11
371.2368895193333
 21
143.9817142707895
 31
0.0
1001
AUSTER_ANSICHT
1002
{
1000
Det03
1002
}
1001
AUSTER_FOLIE
1002
{
1000
NSB00058B_S2_3P_SS_75
1000
NSB00061_S2_3P_EIN_O
1000
NSB00057_S2_3P_SS_55
1002
}
  0
LINE
  5
6814
330
20
100
AcDbEntity
  8
11000_Left
  6
DASHED
 62
     7
370
    20
100
AcDbLine
 39
0.25
 10
364.1148895193333
 20
153.2047142707892
 30
0.0
 11
367.3678895193333
 21
153.2047142707892
 31
0.0
1001
AUSTER_ANSICHT
1002
{
1000
Det03
1002
}
1001
AUSTER_FOLIE
1002
{
1000
NSB00058B_S2_3P_SS_75
1000
NSB00061_S2_3P_EIN_O
1000
NSB00057_S2_3P_SS_55
1002
}
  0
LINE
  5
6815
330
20
100
AcDbEntity
  8
11000_Left
  6
DASHED
 62
     7
370
    20
100
AcDbLine
 39
0.25
 10
371.2968895193333
 20
131.318714270789
 30
0.0
 11
371.2948895193331
 21
130.0907142707893
 31
0.0
1001
AUSTER_ANSICHT
1002
{
1000
Det03
1002
}
1001
AUSTER_FOLIE
1002
{
1000
NSB00058B_S2_3P_SS_75
1000
NSB00061_S2_3P_EIN_O
1000
NSB00057_S2_3P_SS_55
1002
}
  0
LINE
  5
6816
330
20
100
AcDbEntity
  8
11000_Left
  6
DASHED
 62
     7
370
    20
100
AcDbLine
 39
0.25
 10
369.0938895193334
 20
131.7047142707894
 30
0.0
 11
369.1128895193331
 21
131.7047142707894
 31
0.0
1001
AUSTER_ANSICHT
1002
{
1000
Det03
1002
}
1001
AUSTER_FOLIE
1002
{
1000
NSB00058B_S2_3P_SS_75
1000
NSB00061_S2_3P_EIN_O
1000
NSB00057_S2_3P_SS_55
1002
}
  0
LINE
  5
6817
330
20
100
AcDbEntity
  8
11000_Left
  6
DASHED
 62
     7
370
    20
100
AcDbLine
 39
0.25
 10
369.4368895193334
 20
138.2047142707894
 30
0.0
 11
369.0028895193333
 21
138.2047142707894
 31
0.0
1001
AUSTER_ANSICHT
1002
{
1000
Det03
1002
}
1001
AUSTER_FOLIE
1002
{
1000
NSB00058B_S2_3P_SS_75
1000
NSB00061_S2_3P_EIN_O
1000
NSB00057_S2_3P_SS_55
1002
}
  0
LINE
  5
6818
330
20
100
AcDbEntity
  8
11000_Left
  6
DASHED
 62
     7
370
    20
100
AcDbLine
 39
0.25
 10
370.4368895193334
 20
138.4057142707894
 30
0.0
 11
369.4368895193334
 21
138.4057142707894
 31
0.0
1001
AUSTER_ANSICHT
1002
{
1000
Det03
1002
}
1001
AUSTER_FOLIE
1002
{
1000
NSB00058B_S2_3P_SS_75
1000
NSB00061_S2_3P_EIN_O
1000
NSB00057_S2_3P_SS_55
1002
}
  0
LINE
  5
6819
330
20
100
AcDbEntity
  8
11000_Left
  6
DASHED
 62
     7
370
    20
100
AcDbLine
 39
0.25
 10
369.4368895193334
 20
117.8737142707894
 30
0.0
 11
369.4368895193334
 21
123.2407142707894
 31
0.0
1001
AUSTER_ANSICHT
1002
{
1000
Det03
1002
}
1001
AUSTER_FOLIE
1002
{
1000
NSB00058B_S2_3P_SS_75
1000
NSB00061_S2_3P_EIN_O
1000
NSB00057_S2_3P_SS_55
1002
}
  0
LINE
  5
681A
330
20
100
AcDbEntity
  8
11000_Left
  6
DASHED
 62
     7
370
    20
100
AcDbLine
 39
0.25
 10
369.4368895193334
 20
117.2457142707894
 30
0.0
 11
369.4368895193334
 21
117.8737142707894
 31
0.0
1001
AUSTER_ANSICHT
1002
{
1000
Det03
1002
}
1001
AUSTER_FOLIE
1002
{
1000
NSB00058B_S2_3P_SS_75
1000
NSB00061_S2_3P_EIN_O
1000
NSB00057_S2_3P_SS_55
1002
}
  0
LINE
  5
681B
330
20
100
AcDbEntity
  8
11000_Left
  6
DASHED
 62
     7
370
    20
100
AcDbLine
 39
0.25
 10
369.4368895193334
 20
123.4417142707893
 30
0.0
 11
369.0028895193333
 21
123.4417142707893
 31
0.0
1001
AUSTER_ANSICHT
1002
{
1000
Det03
1002
}
1001
AUSTER_FOLIE
1002
{
1000
NSB00058B_S2_3P_SS_75
1000
NSB00061_S2_3P_EIN_O
1000
NSB00057_S2_3P_SS_55
1002
}
  0
LINE
  5
681C
330
20
100
AcDbEntity
  8
11000_Left
  6
DASHED
 62
     7
370
    20
100
AcDbLine
 39
0.25
 10
369.4368895193334
 20
123.2407142707894
 30
0.0
 11
370.4368895193334
 21
123.2407142707894
 31
0.0
1001
AUSTER_ANSICHT
1002
{
1000
Det03
1002
}
1001
AUSTER_FOLIE
1002
{
1000
NSB00058B_S2_3P_SS_75
1000
NSB00061_S2_3P_EIN_O
1000
NSB00057_S2_3P_SS_55
1002
}
  0
LINE
  5
681D
330
20
100
AcDbEntity
  8
11000_Left
  6
DASHED
 62
     7
370
    20
100
AcDbLine
 39
0.25
 10
370.4368895193334
 20
138.4057142707894
 30
0.0
 11
370.4368895193334
 21
123.2407142707894
 31
0.0
1001
AUSTER_ANSICHT
1002
{
1000
Det03
1002
}
1001
AUSTER_FOLIE
1002
{
1000
NSB00058B_S2_3P_SS_75
1000
NSB00061_S2_3P_EIN_O
1000
NSB00057_S2_3P_SS_55
1002
}
  0
LINE
  5
681E
330
20
100
AcDbEntity
  8
11000_Left
  6
DASHED
 62
     7
370
    20
100
AcDbLine
 39
0.25
 10
369.4368895193334
 20
138.4057142707894
 30
0.0
 11
369.4368895193334
 21
123.2407142707894
 31
0.0
1001
AUSTER_ANSICHT
1002
{
1000
Det03
1002
}
1001
AUSTER_FOLIE
1002
{
1000
NSB00058B_S2_3P_SS_75
1000
NSB00061_S2_3P_EIN_O
1000
NSB00057_S2_3P_SS_55
1002
}
  0
LINE
  5
681F
330
20
100
AcDbEntity
  8
11000_Left
  6
DASHED
 62
     7
370
    20
100
AcDbLine
 39
0.25
 10
369.4368895193334
 20
138.4057142707894
 30
0.0
 11
369.4368895193334
 21
143.0647142707892
 31
0.0
1001
AUSTER_ANSICHT
1002
{
1000
Det03
1002
}
1001
AUSTER_FOLIE
1002
{
1000
NSB00058B_S2_3P_SS_75
1000
NSB00061_S2_3P_EIN_O
1000
NSB00057_S2_3P_SS_55
1002
}
  0
LINE
  5
6820
330
20
100
AcDbEntity
  8
11000_Left
  6
DASHED
 62
     7
370
    20
100
AcDbLine
 39
0.25
 10
371.2368895193333
 20
145.2457142707894
 30
0.0
 11
371.2368895193333
 21
141.0817142707891
 31
0.0
1001
AUSTER_ANSICHT
1002
{
1000
Det03
1002
}
1001
AUSTER_FOLIE
1002
{
1000
NSB00058B_S2_3P_SS_75
1000
NSB00061_S2_3P_EIN_O
1000
NSB00057_S2_3P_SS_55
1002
}
  0
LINE
  5
6821
330
20
100
AcDbEntity
  8
11000_Left
  6
DASHED
 62
     7
370
    20
100
AcDbLine
 39
0.25
 10
378.6368895193334
 20
145.2457142707894
 30
0.0
 11
371.2368895193333
 21
145.2457142707894
 31
0.0
1001
AUSTER_ANSICHT
1002
{
1000
Det03
1002
}
1001
AUSTER_FOLIE
1002
{
1000
NSB00058B_S2_3P_SS_75
1000
NSB00061_S2_3P_EIN_O
1000
NSB00057_S2_3P_SS_55
1002
}
  0
LINE
  5
6822
330
20
100
AcDbEntity
  8
11000_Left
  6
DASHED
 62
     7
370
    20
100
AcDbLine
 39
0.25
 10
371.2368895193333
 20
141.0817142707891
 30
0.0
 11
378.6368895193334
 21
141.0817142707891
 31
0.0
1001
AUSTER_ANSICHT
1002
{
1000
Det03
1002
}
1001
AUSTER_FOLIE
1002
{
1000
NSB00058B_S2_3P_SS_75
1000
NSB00061_S2_3P_EIN_O
1000
NSB00057_S2_3P_SS_55
1002
}
  0
LINE
  5
6823
330
20
100
AcDbEntity
  8
11000_Left
  6
DASHED
 62
     7
370
    20
100
AcDbLine
 39
0.25
 10
369.4368895193334
 20
117.2457142707894
 30
0.0
 11
380.4718895193333
 21
117.2457142707894
 31
0.0
1001
AUSTER_ANSICHT
1002
{
1000
Det03
1002
}
1001
AUSTER_FOLIE
1002
{
1000
NSB00058B_S2_3P_SS_75
1000
NSB00061_S2_3P_EIN_O
1000
NSB00057_S2_3P_SS_55
1002
}
  0
LINE
  5
6824
330
20
100
AcDbEntity
  8
11000_Left
  6
DASHED
 62
     7
 48
10.0
100
AcDbLine
 39
0.25
 10
289.6148895193334
 20
228.3047142707894
 30
0.0
 11
274.6148895193333
 21
228.3047142707894
 31
0.0
1001
AUSTER_ANSICHT
1002
{
1000
Det03
1002
}
1001
AUSTER_FOLIE
1002
{
1000
NSB00061_S2_3P_EIN_O
1000
NSB00057_S2_3P_SS_55
1002
}
  0
DIMENSION
  5
6825
330
20
100
AcDbEntity
  8
11100_LEFT_DIM
  6
Continuous
 62
     7
370
    13
100
AcDbDimension
  2
*D6
 10
289.6148895193333
 20
235.9707635120144
 30
0.0
 11
281.7582824193554
 21
235.9707635120144
 31
0.0
 70
   160
 71
     5
 42
15.0
  3
DSTYLE1
100
AcDbAlignedDimension
 13
274.6148895193333
 23
228.3047142707894
 33
0.0
 14
289.6148895193333
 24
228.3047142707894
 34
0.0
100
AcDbRotatedDimension
1001
ACAD
1000
DSTYLE
1002
{
1070
    41
1040
2.0
1070
    42
1040
1.0
1070
    43
1040
1.0
1070
    47
1040
0.005
1070
    48
1040
-0.005
1070
    77
1070
     0
1070
    78
1070
     0
1070
   140
1040
3.5
1070
   143
1040
25.4
1070
   171
1070
     0
1070
   172
1070
     1
1070
   271
1070
     0
1070
   272
1070
     1
1070
   277
1070
     6
1070
   279
1070
     0
1002
}
  0
LINE
  5
6826
330
20
100
AcDbEntity
  8
11000_Left
  6
DASHED
 62
     7
370
    20
100
AcDbLine
 39
0.25
 10
315.0648895193332
 20
187.2047142707894
 30
0.0
 11
313.5648895193333
 21
187.2047142707894
 31
0.0
1001
AUSTER_ANSICHT
1002
{
1000
Det03
1002
}
1001
AUSTER_FOLIE
1002
{
1000
NSB00058B_S2_3P_SS_75
1000
NSB00061_S2_3P_EIN_O
1000
NSB00057_S2_3P_SS_55
1002
}
  0
LINE
  5
6827
330
20
100
AcDbEntity
  8
11000_Left
  6
DASHED
 62
     7
370
    20
100
AcDbLine
 39
0.25
 10
315.0648895193332
 20
192.8047142707894
 30
0.0
 11
315.0648895193332
 21
183.0047142707894
 31
0.0
1001
AUSTER_ANSICHT
1002
{
1000
Det03
1002
}
1001
AUSTER_FOLIE
1002
{
1000
NSB00058B_S2_3P_SS_75
1000
NSB00061_S2_3P_EIN_O
1000
NSB00057_S2_3P_SS_55
1002
}
  0
LINE
  5
6828
330
20
100
AcDbEntity
  8
11000_Left
  6
DASHED
 62
     7
370
    20
100
AcDbLine
 39
0.25
 10
313.5648895193333
 20
184.1047142707894
 30
0.0
 11
313.5648895193333
 21
194.2047142707894
 31
0.0
1001
AUSTER_ANSICHT
1002
{
1000
Det03
1002
}
1001
AUSTER_FOLIE
1002
{
1000
NSB00058B_S2_3P_SS_75
1000
NSB00061_S2_3P_EIN_O
1000
NSB00057_S2_3P_SS_55
1002
}
  0
LINE
  5
6829
330
20
100
AcDbEntity
  8
11000_Left
  6
Continuous
 62
     7
370
    50
100
AcDbLine
 39
0.5
 10
287.6148895193333
 20
192.2047142707894
 30
0.0
 11
287.6148895193333
 21
173.7047142707894
 31
0.0
1001
AUSTER_ANSICHT
1002
{
1000
Det03
1002
}
1001
AUSTER_FOLIE
1002
{
1000
NSB00061_S2_3P_EIN_O
1000
NSB00057_S2_3P_SS_55
1002
}
  0
LINE
  5
682A
330
20
100
AcDbEntity
  8
11000_Left
  6
Continuous
 62
     7
370
    50
100
AcDbLine
 39
0.5
 10
289.6148895193333
 20
195.7047142707894
 30
0.0
 11
289.6148895193333
 21
173.7047142707894
 31
0.0
1001
AUSTER_ANSICHT
1002
{
1000
Det03
1002
}
1001
AUSTER_FOLIE
1002
{
1000
NSB00061_S2_3P_EIN_O
1000
NSB00057_S2_3P_SS_55
1002
}
  0
LINE
  5
682B
330
20
100
AcDbEntity
  8
11000_Left
  6
DASHED
 62
     7
370
    20
100
AcDbLine
 39
0.25
 10
266.1648895193332
 20
183.0047142707894
 30
0.0
 11
266.1648895193332
 21
191.7047142707894
 31
0.0
1001
AUSTER_ANSICHT
1002
{
1000
Det03
1002
}
1001
AUSTER_FOLIE
1002
{
1000
NSB00058B_S2_3P_SS_75
1000
NSB00061_S2_3P_EIN_O
1000
NSB00057_S2_3P_SS_55
1002
}
  0
LINE
  5
682C
330
20
100
AcDbEntity
  8
11000_Left
  6
DASHED
 62
     7
370
    20
100
AcDbLine
 39
0.25
 10
267.6648895193332
 20
187.2047142707894
 30
0.0
 11
266.1648895193332
 21
187.2047142707894
 31
0.0
1001
AUSTER_ANSICHT
1002
{
1000
Det03
1002
}
1001
AUSTER_FOLIE
1002
{
1000
NSB00058B_S2_3P_SS_75
1000
NSB00061_S2_3P_EIN_O
1000
NSB00057_S2_3P_SS_55
1002
}
  0
LINE
  5
682D
330
20
100
AcDbEntity
  8
11000_Left
  6
Continuous
 62
     7
370
    50
100
AcDbLine
 39
0.5
 10
282.6148895193333
 20
195.7047142707894
 30
0.0
 11
284.1148895193333
 21
192.2047142707894
 31
0.0
1001
AUSTER_ANSICHT
1002
{
1000
Det03
1002
}
1001
AUSTER_FOLIE
1002
{
1000
NSB00061_S2_3P_EIN_O
1000
NSB00057_S2_3P_SS_55
1002
}
  0
LINE
  5
682E
330
20
100
AcDbEntity
  8
11000_Left
  6
DASHED
 62
     7
370
    20
100
AcDbLine
 39
0.25
 10
266.1648895193332
 20
191.7047142707894
 30
0.0
 11
266.1648895193332
 21
192.8047142707894
 31
0.0
1001
AUSTER_ANSICHT
1002
{
1000
Det03
1002
}
1001
AUSTER_FOLIE
1002
{
1000
NSB00058B_S2_3P_SS_75
1000
NSB00061_S2_3P_EIN_O
1000
NSB00057_S2_3P_SS_55
1002
}
  0
LINE
  5
682F
330
20
100
AcDbEntity
  8
11000_Left
  6
DASHED
 62
     7
370
    20
100
AcDbLine
 39
0.25
 10
267.6648895193332
 20
194.2047142707894
 30
0.0
 11
267.6648895193332
 21
184.1047142707894
 31
0.0
1001
AUSTER_ANSICHT
1002
{
1000
Det03
1002
}
1001
AUSTER_FOLIE
1002
{
1000
NSB00058B_S2_3P_SS_75
1000
NSB00061_S2_3P_EIN_O
1000
NSB00057_S2_3P_SS_55
1002
}
  0
LINE
  5
6830
330
20
100
AcDbEntity
  8
11000_Left
  6
DASHED
 62
     7
370
    20
100
AcDbLine
 39
0.25
 10
261.6148895193333
 20
193.2047142707894
 30
0.0
 11
261.6148895193333
 21
171.3277142707891
 31
0.0
1001
AUSTER_ANSICHT
1002
{
1000
Det03
1002
}
1001
AUSTER_FOLIE
1002
{
1000
NSB00037_G_S2_M_DREHANTRIEB
1000
NSB00058B_S2_3P_SS_75
1000
NSB00061_S2_3P_EIN_O
1000
NSB00057_S2_3P_SS_55
1002
}
  0
LINE
  5
6831
330
20
100
AcDbEntity
  8
11000_Left
  6
DASHED
 62
     7
370
    20
100
AcDbLine
 39
0.25
 10
257.8148895193333
 20
193.2047142707894
 30
0.0
 11
265.7648895193333
 21
193.2047142707894
 31
0.0
1001
AUSTER_ANSICHT
1002
{
1000
Det03
1002
}
1001
AUSTER_FOLIE
1002
{
1000
NSB00058B_S2_3P_SS_75
1000
NSB00061_S2_3P_EIN_O
1000
NSB00057_S2_3P_SS_55
1002
}
  0
LINE
  5
6832
330
20
100
AcDbEntity
  8
11000_Left
  6
Continuous
 62
     7
370
    50
100
AcDbLine
 39
0.5
 10
284.1148895193333
 20
192.2047142707894
 30
0.0
 11
289.6148895193333
 21
192.2047142707894
 31
0.0
1001
AUSTER_ANSICHT
1002
{
1000
Det03
1002
}
1001
AUSTER_FOLIE
1002
{
1000
NSB00061_S2_3P_EIN_O
1000
NSB00057_S2_3P_SS_55
1002
}
  0
LINE
  5
6833
330
20
100
AcDbEntity
  8
11000_Left
  6
DASHED
 62
     7
370
    20
100
AcDbLine
 39
0.25
 10
314.2648895193334
 20
182.2047142707893
 30
0.0
 11
266.9648895193332
 21
182.2047142707893
 31
0.0
1001
AUSTER_ANSICHT
1002
{
1000
Det03
1002
}
1001
AUSTER_FOLIE
1002
{
1000
NSB00058B_S2_3P_SS_75
1000
NSB00061_S2_3P_EIN_O
1000
NSB00057_S2_3P_SS_55
1002
}
  0
LINE
  5
6834
330
20
100
AcDbEntity
  8
11000_Left
  6
DASHED
 62
     7
370
    20
100
AcDbLine
 39
0.25
 10
268.0648895193333
 20
183.7047142707894
 30
0.0
 11
313.1648895193333
 21
183.7047142707894
 31
0.0
1001
AUSTER_ANSICHT
1002
{
1000
Det03
1002
}
1001
AUSTER_FOLIE
1002
{
1000
NSB00058B_S2_3P_SS_75
1000
NSB00061_S2_3P_EIN_O
1000
NSB00057_S2_3P_SS_55
1002
}
  0
LINE
  5
6835
330
20
100
AcDbEntity
  8
11000_Left
  6
DASHED
 62
     7
370
    20
100
AcDbLine
 39
0.25
 10
269.1648895193332
 20
195.7047142707894
 30
0.0
 11
312.0648895193332
 21
195.7047142707894
 31
0.0
1001
AUSTER_ANSICHT
1002
{
1000
Det03
1002
}
1001
AUSTER_FOLIE
1002
{
1000
NSB00058B_S2_3P_SS_75
1000
NSB00061_S2_3P_EIN_O
1000
NSB00057_S2_3P_SS_55
1002
}
  0
LINE
  5
6836
330
20
100
AcDbEntity
  8
11000_Left
  6
Continuous
 62
     7
370
    50
100
AcDbLine
 39
0.5
 10
274.6148895193333
 20
226.7047142707894
 30
0.0
 11
274.6148895193333
 21
195.7047142707894
 31
0.0
1001
AUSTER_ANSICHT
1002
{
1000
Det03
1002
}
1001
AUSTER_FOLIE
1002
{
1000
NSB00061_S2_3P_EIN_O
1000
NSB00057_S2_3P_SS_55
1002
}
  0
LINE
  5
6837
330
20
100
AcDbEntity
  8
11000_Left
  6
Continuous
 62
     7
370
    50
100
AcDbLine
 39
0.5
 10
289.6148895193333
 20
195.7047142707894
 30
0.0
 11
289.6148895193333
 21
226.7047142707894
 31
0.0
1001
AUSTER_ANSICHT
1002
{
1000
Det03
1002
}
1001
AUSTER_FOLIE
1002
{
1000
NSB00061_S2_3P_EIN_O
1000
NSB00057_S2_3P_SS_55
1002
}
  0
LINE
  5
6838
330
20
100
AcDbEntity
  8
11000_Left
  6
DASHED
 62
     7
370
    20
100
AcDbLine
 39
0.25
 10
315.4648895193333
 20
193.2047142707894
 30
0.0
 11
338.1148895193332
 21
193.2047142707894
 31
0.0
1001
AUSTER_ANSICHT
1002
{
1000
Det03
1002
}
1001
AUSTER_FOLIE
1002
{
1000
NSB00058B_S2_3P_SS_75
1000
NSB00061_S2_3P_EIN_O
1000
NSB00057_S2_3P_SS_55
1002
}
  0
ARC
  5
6839
330
20
100
AcDbEntity
  8
11000_Left
  6
DASHED
 62
     7
370
    20
100
AcDbCircle
 39
0.25
 10
180.7688895193333
 20
130.7447142707893
 30
0.0
 40
200.1581999999999
100
AcDbArc
 50
356.1329999999992
 51
3.867999999997635
1001
AUSTER_ANSICHT
1002
{
1000
Det03
1002
}
1001
AUSTER_FOLIE
1002
{
1000
NSB00058B_S2_3P_SS_75
1000
NSB00061_S2_3P_EIN_O
1000
NSB00057_S2_3P_SS_55
1002
}
  0
ARC
  5
683A
330
20
100
AcDbEntity
  8
11000_Left
  6
DASHED
 62
     7
370
    20
100
AcDbCircle
 39
0.25
 10
64.95988951933333
 20
130.7047142707894
 30
0.0
 40
300.0
100
AcDbArc
 50
4.300999999995545
 51
7.876000000000875
1001
AUSTER_ANSICHT
1002
{
1000
Det03
1002
}
1001
AUSTER_FOLIE
1002
{
1000
NSB00058B_S2_3P_SS_75
1000
NSB00061_S2_3P_EIN_O
1000
NSB00057_S2_3P_SS_55
1002
}
  0
ARC
  5
683B
330
20
100
AcDbEntity
  8
11000_Left
  6
DASHED
 62
     7
370
    20
100
AcDbCircle
 39
0.25
 10
361.2398895193333
 20
172.4047142707894
 30
0.0
 40
0.8
100
AcDbArc
 50
8.011000000000851
 51
90.0
1001
AUSTER_ANSICHT
1002
{
1000
Det03
1002
}
1001
AUSTER_FOLIE
1002
{
1000
NSB00058B_S2_3P_SS_75
1000
NSB00061_S2_3P_EIN_O
1000
NSB00057_S2_3P_SS_55
1002
}
  0
ARC
  5
683C
330
20
100
AcDbEntity
  8
11000_Left
  6
DASHED
 62
     7
370
    20
100
AcDbCircle
 39
0.25
 10
342.9198895193333
 20
192.4047142707894
 30
0.0
 40
0.8
100
AcDbArc
 50
14.77099999999885
 51
90.0
1001
AUSTER_ANSICHT
1002
{
1000
Det03
1002
}
1001
AUSTER_FOLIE
1002
{
1000
NSB00058B_S2_3P_SS_75
1000
NSB00061_S2_3P_EIN_O
1000
NSB00057_S2_3P_SS_55
1002
}
  0
ARC
  5
683D
330
20
100
AcDbEntity
  8
11000_Left
  6
DASHED
 62
     7
370
    20
100
AcDbCircle
 39
0.25
 10
367.3678895193333
 20
152.4047142707894
 30
0.0
 40
0.7999991999999999
100
AcDbArc
 50
4.99500000000119
 51
90.0
1001
AUSTER_ANSICHT
1002
{
1000
Det03
1002
}
1001
AUSTER_FOLIE
1002
{
1000
NSB00058B_S2_3P_SS_75
1000
NSB00061_S2_3P_EIN_O
1000
NSB00057_S2_3P_SS_55
1002
}
  0
ARC
  5
683E
330
20
100
AcDbEntity
  8
11000_Left
  6
DASHED
 62
     7
370
    20
100
AcDbCircle
 39
0.25
 10
315.4648895193333
 20
192.8047142707894
 30
0.0
 40
0.4
100
AcDbArc
 50
90.0
 51
180.0
1001
AUSTER_ANSICHT
1002
{
1000
Det03
1002
}
1001
AUSTER_FOLIE
1002
{
1000
NSB00058B_S2_3P_SS_75
1000
NSB00061_S2_3P_EIN_O
1000
NSB00057_S2_3P_SS_55
1002
}
  0
ARC
  5
683F
330
20
100
AcDbEntity
  8
11000_Left
  6
DASHED
 62
     7
370
    20
100
AcDbCircle
 39
0.25
 10
266.9648895193332
 20
183.0047142707894
 30
0.0
 40
0.8
100
AcDbArc
 50
180.0
 51
270.0
1001
AUSTER_ANSICHT
1002
{
1000
Det03
1002
}
1001
AUSTER_FOLIE
1002
{
1000
NSB00058B_S2_3P_SS_75
1000
NSB00061_S2_3P_EIN_O
1000
NSB00057_S2_3P_SS_55
1002
}
  0
ARC
  5
6840
330
20
100
AcDbEntity
  8
11000_Left
  6
DASHED
 62
     7
370
    20
100
AcDbCircle
 39
0.25
 10
314.2648895193334
 20
183.0047142707894
 30
0.0
 40
0.8
100
AcDbArc
 50
270.0
 51
0.0
1001
AUSTER_ANSICHT
1002
{
1000
Det03
1002
}
1001
AUSTER_FOLIE
1002
{
1000
NSB00058B_S2_3P_SS_75
1000
NSB00061_S2_3P_EIN_O
1000
NSB00057_S2_3P_SS_55
1002
}
  0
ARC
  5
6841
330
20
100
AcDbEntity
  8
11000_Left
  6
DASHED
 62
     7
370
    20
100
AcDbCircle
 39
0.25
 10
312.0648895193332
 20
194.2047142707894
 30
0.0
 40
1.5
100
AcDbArc
 50
0.0
 51
90.0
1001
AUSTER_ANSICHT
1002
{
1000
Det03
1002
}
1001
AUSTER_FOLIE
1002
{
1000
NSB00058B_S2_3P_SS_75
1000
NSB00061_S2_3P_EIN_O
1000
NSB00057_S2_3P_SS_55
1002
}
  0
ARC
  5
6842
330
20
100
AcDbEntity
  8
11000_Left
  6
DASHED
 62
     7
370
    20
100
AcDbCircle
 39
0.25
 10
269.1648895193332
 20
194.2047142707894
 30
0.0
 40
1.5
100
AcDbArc
 50
90.0
 51
180.0
1001
AUSTER_ANSICHT
1002
{
1000
Det03
1002
}
1001
AUSTER_FOLIE
1002
{
1000
NSB00058B_S2_3P_SS_75
1000
NSB00061_S2_3P_EIN_O
1000
NSB00057_S2_3P_SS_55
1002
}
  0
ARC
  5
6843
330
20
100
AcDbEntity
  8
11000_Left
  6
DASHED
 62
     7
370
    20
100
AcDbCircle
 39
0.25
 10
313.1648895193333
 20
184.1047142707894
 30
0.0
 40
0.4
100
AcDbArc
 50
270.0
 51
0.0
1001
AUSTER_ANSICHT
1002
{
1000
Det03
1002
}
1001
AUSTER_FOLIE
1002
{
1000
NSB00058B_S2_3P_SS_75
1000
NSB00061_S2_3P_EIN_O
1000
NSB00057_S2_3P_SS_55
1002
}
  0
ARC
  5
6844
330
20
100
AcDbEntity
  8
11000_Left
  6
DASHED
 62
     7
370
    20
100
AcDbCircle
 39
0.25
 10
268.0648895193333
 20
184.1047142707894
 30
0.0
 40
0.4
100
AcDbArc
 50
180.0
 51
270.0
1001
AUSTER_ANSICHT
1002
{
1000
Det03
1002
}
1001
AUSTER_FOLIE
1002
{
1000
NSB00058B_S2_3P_SS_75
1000
NSB00061_S2_3P_EIN_O
1000
NSB00057_S2_3P_SS_55
1002
}
  0
LINE
  5
6845
330
20
100
AcDbEntity
  8
11000_Left
  6
DASHED
 62
     7
370
    20
100
AcDbLine
 39
0.25
 10
367.3678895193333
 20
108.2047142707894
 30
0.0
 11
364.1148895193333
 21
108.2047142707894
 31
0.0
1001
AUSTER_ANSICHT
1002
{
1000
Det03
1002
}
1001
AUSTER_FOLIE
1002
{
1000
NSB00058B_S2_3P_SS_75
1000
NSB00061_S2_3P_EIN_O
1000
NSB00057_S2_3P_SS_55
1002
}
  0
LINE
  5
6846
330
20
100
AcDbEntity
  8
11000_Left
  6
DASHED
 62
     7
370
    20
100
AcDbLine
 39
0.25
 10
362.0398895193334
 20
88.95171427078947
 30
0.0
 11
362.0128895193333
 21
88.80071427078942
 31
0.0
1001
AUSTER_ANSICHT
1002
{
1000
Det03
1002
}
1001
AUSTER_FOLIE
1002
{
1000
NSB00037_G_S2_M_DREHANTRIEB
1000
NSB00058B_S2_3P_SS_75
1000
NSB00061_S2_3P_EIN_O
1000
NSB00057_S2_3P_SS_55
1002
}
  0
LINE
  5
6847
330
20
100
AcDbEntity
  8
11000_Left
  6
DASHED
 62
     7
370
    20
100
AcDbLine
 39
0.25
 10
362.1298895193334
 20
89.5947142707895
 30
0.0
 11
362.0128895193333
 21
88.80071427078942
 31
0.0
1001
AUSTER_ANSICHT
1002
{
1000
Det03
1002
}
1001
AUSTER_FOLIE
1002
{
1000
NSB00037_G_S2_M_DREHANTRIEB
1000
NSB00058B_S2_3P_SS_75
1000
NSB00061_S2_3P_EIN_O
1000
NSB00057_S2_3P_SS_55
1002
}
  0
LINE
  5
6848
330
20
100
AcDbEntity
  8
11000_Left
  6
DASHED
 62
     7
370
    20
100
AcDbLine
 39
0.25
 10
345.7958895193332
 20
88.2047142707894
 30
0.0
 11
343.6938895193334
 21
68.8007142707894
 31
0.0
1001
AUSTER_ANSICHT
1002
{
1000
Det03
1002
}
1001
AUSTER_FOLIE
1002
{
1000
NSB00037_G_S2_M_DREHANTRIEB
1000
NSB00058B_S2_3P_SS_75
1000
NSB00061_S2_3P_EIN_O
1000
NSB00057_S2_3P_SS_55
1002
}
  0
LINE
  5
6849
330
20
100
AcDbEntity
  8
11000_Left
  6
DASHED
 62
     7
370
    20
100
AcDbLine
 39
0.25
 10
342.9198895193333
 20
68.20471427078939
 30
0.0
 11
338.1148895193332
 21
68.20471427078939
 31
0.0
1001
AUSTER_ANSICHT
1002
{
1000
Det03
1002
}
1001
AUSTER_FOLIE
1002
{
1000
NSB00037_G_S2_M_DREHANTRIEB
1000
NSB00058B_S2_3P_SS_75
1000
NSB00061_S2_3P_EIN_O
1000
NSB00057_S2_3P_SS_55
1002
}
  0
LINE
  5
684A
330
20
100
AcDbEntity
  8
11000_Left
  6
DASHED
 62
     7
370
    20
100
AcDbLine
 39
0.25
 10
361.2398895193333
 20
88.2047142707894
 30
0.0
 11
345.7958895193332
 21
88.2047142707894
 31
0.0
1001
AUSTER_ANSICHT
1002
{
1000
Det03
1002
}
1001
AUSTER_FOLIE
1002
{
1000
NSB00037_G_S2_M_DREHANTRIEB
1000
NSB00058B_S2_3P_SS_75
1000
NSB00061_S2_3P_EIN_O
1000
NSB00057_S2_3P_SS_55
1002
}
  0
LINE
  5
684B
330
20
100
AcDbEntity
  8
11000_Left
  6
DASHED
 62
     7
370
    20
100
AcDbLine
 39
0.25
 10
312.9148895193332
 20
66.60471427078949
 30
0.0
 11
312.9148895193332
 21
68.20471427078939
 31
0.0
1001
AUSTER_ANSICHT
1002
{
1000
Det03
1002
}
1001
AUSTER_FOLIE
1002
{
1000
NSB00037_G_S2_M_DREHANTRIEB
1000
NSB00058B_S2_3P_SS_75
1000
NSB00061_S2_3P_EIN_O
1000
NSB00057_S2_3P_SS_55
1002
}
  0
LINE
  5
684C
330
20
100
AcDbEntity
  8
11000_Left
 62
     7
100
AcDbLine
 39
0.25
 10
300.7658895193332
 20
66.20471427078917
 30
0.0
 11
300.7058895193333
 21
66.20471427078917
 31
0.0
1001
AUSTER_ANSICHT
1002
{
1000
Det03
1002
}
1001
AUSTER_FOLIE
1002
{
1000
NSB00037_G_S2_M_DREHANTRIEB
1000
NSB00058B_S2_3P_SS_75
1000
NSB00061_S2_3P_EIN_O
1000
NSB00057_S2_3P_SS_55
1002
}
  0
LINE
  5
684D
330
20
100
AcDbEntity
  8
11000_Left
 62
     7
100
AcDbLine
 39
0.25
 10
300.4148895193332
 20
66.60471427078949
 30
0.0
 11
300.4148895193332
 21
68.20471427078939
 31
0.0
1001
AUSTER_ANSICHT
1002
{
1000
Det03
1002
}
1001
AUSTER_FOLIE
1002
{
1000
NSB00037_G_S2_M_DREHANTRIEB
1000
NSB00058B_S2_3P_SS_75
1000
NSB00061_S2_3P_EIN_O
1000
NSB00057_S2_3P_SS_55
1002
}
  0
LINE
  5
684E
330
20
100
AcDbEntity
  8
11000_Left
 62
     7
100
AcDbLine
 39
0.25
 10
300.8148895193333
 20
66.20471427078917
 30
0.0
 11
300.7658895193332
 21
66.20471427078917
 31
0.0
1001
AUSTER_ANSICHT
1002
{
1000
Det03
1002
}
1001
AUSTER_FOLIE
1002
{
1000
NSB00037_G_S2_M_DREHANTRIEB
1000
NSB00058B_S2_3P_SS_75
1000
NSB00061_S2_3P_EIN_O
1000
NSB00057_S2_3P_SS_55
1002
}
  0
LINE
  5
684F
330
20
100
AcDbEntity
  8
11000_Left
  6
DASHED
 62
     7
370
    20
100
AcDbLine
 39
0.25
 10
312.5148895193333
 20
66.20471427078917
 30
0.0
 11
300.8148895193333
 21
66.20471427078917
 31
0.0
1001
AUSTER_ANSICHT
1002
{
1000
Det03
1002
}
1001
AUSTER_FOLIE
1002
{
1000
NSB00037_G_S2_M_DREHANTRIEB
1000
NSB00058B_S2_3P_SS_75
1000
NSB00061_S2_3P_EIN_O
1000
NSB00057_S2_3P_SS_55
1002
}
  0
LINE
  5
6850
330
20
100
AcDbEntity
  8
11000_Left
  6
DASHED
 62
     7
370
    20
100
AcDbLine
 39
0.25
 10
258.6148895193333
 20
88.90471427078955
 30
0.0
 11
260.8148895193333
 21
88.90471427078955
 31
0.0
1001
AUSTER_ANSICHT
1002
{
1000
Det03
1002
}
1001
AUSTER_FOLIE
1002
{
1000
NSB00037_G_S2_M_DREHANTRIEB
1000
NSB00058B_S2_3P_SS_75
1000
NSB00061_S2_3P_EIN_O
1000
NSB00057_S2_3P_SS_55
1002
}
  0
LINE
  5
6851
330
20
100
AcDbEntity
  8
11000_Left
  6
DASHED
 62
     7
370
    20
100
AcDbLine
 39
0.25
 10
257.6148895193333
 20
69.70471427078916
 30
0.0
 11
257.6148895193333
 21
68.20471427078939
 31
0.0
1001
AUSTER_ANSICHT
1002
{
1000
Det03
1002
}
1001
AUSTER_FOLIE
1002
{
1000
NSB00037_G_S2_M_DREHANTRIEB
1000
NSB00058B_S2_3P_SS_75
1000
NSB00061_S2_3P_EIN_O
1000
NSB00057_S2_3P_SS_55
1002
}
  0
LINE
  5
6852
330
20
100
AcDbEntity
  8
11000_Left
  6
DASHED
 62
     7
370
    20
100
AcDbLine
 39
0.25
 10
257.6148895193333
 20
68.20471427078939
 30
0.0
 11
257.8148895193333
 21
68.20471427078939
 31
0.0
1001
AUSTER_ANSICHT
1002
{
1000
Det03
1002
}
1001
AUSTER_FOLIE
1002
{
1000
NSB00037_G_S2_M_DREHANTRIEB
1000
NSB00058B_S2_3P_SS_75
1000
NSB00061_S2_3P_EIN_O
1000
NSB00057_S2_3P_SS_55
1002
}
  0
LINE
  5
6853
330
20
100
AcDbEntity
  8
11000_Left
  6
DASHED
 62
     7
370
    20
100
AcDbLine
 39
0.25
 10
257.6148895193333
 20
87.90471427078943
 30
0.0
 11
257.6148895193333
 21
69.70471427078916
 31
0.0
1001
AUSTER_ANSICHT
1002
{
1000
Det03
1002
}
1001
AUSTER_FOLIE
1002
{
1000
NSB00037_G_S2_M_DREHANTRIEB
1000
NSB00058B_S2_3P_SS_75
1000
NSB00061_S2_3P_EIN_O
1000
NSB00057_S2_3P_SS_55
1002
}
  0
LINE
  5
6854
330
20
100
AcDbEntity
  8
11000_Left
  6
DASHED
 62
     7
370
    20
100
AcDbLine
 39
0.25
 10
338.1148895193332
 20
68.20471427078939
 30
0.0
 11
257.8148895193333
 21
68.20471427078939
 31
0.0
1001
AUSTER_ANSICHT
1002
{
1000
Det03
1002
}
1001
AUSTER_FOLIE
1002
{
1000
NSB00037_G_S2_M_DREHANTRIEB
1000
NSB00058B_S2_3P_SS_75
1000
NSB00061_S2_3P_EIN_O
1000
NSB00057_S2_3P_SS_55
1002
}
  0
ARC
  5
6855
330
20
100
AcDbEntity
  8
11000_Left
  6
DASHED
 62
     7
370
    20
100
AcDbCircle
 39
0.25
 10
361.2398895193333
 20
89.00471427078933
 30
0.0
 40
0.8
100
AcDbArc
 50
270.0
 51
351.9889999999992
1001
AUSTER_ANSICHT
1002
{
1000
Det03
1002
}
1001
AUSTER_FOLIE
1002
{
1000
NSB00037_G_S2_M_DREHANTRIEB
1000
NSB00058B_S2_3P_SS_75
1000
NSB00061_S2_3P_EIN_O
1000
NSB00057_S2_3P_SS_55
1002
}
  0
ARC
  5
6856
330
20
100
AcDbEntity
  8
11000_Left
  6
DASHED
 62
     7
370
    20
100
AcDbCircle
 39
0.25
 10
64.95988951933333
 20
130.7047142707894
 30
0.0
 40
300.0
100
AcDbArc
 50
352.1239999999992
 51
355.6990000000045
1001
AUSTER_ANSICHT
1002
{
1000
Det03
1002
}
1001
AUSTER_FOLIE
1002
{
1000
NSB00037_G_S2_M_DREHANTRIEB
1000
NSB00058B_S2_3P_SS_75
1000
NSB00061_S2_3P_EIN_O
1000
NSB00057_S2_3P_SS_55
1002
}
  0
ARC
  5
6857
330
20
100
AcDbEntity
  8
11000_Left
  6
DASHED
 62
     7
370
    20
100
AcDbCircle
 39
0.25
 10
367.3678895193333
 20
109.0047142707894
 30
0.0
 40
0.8
100
AcDbArc
 50
270.0
 51
355.0049999999988
1001
AUSTER_ANSICHT
1002
{
1000
Det03
1002
}
1001
AUSTER_FOLIE
1002
{
1000
NSB00058B_S2_3P_SS_75
1000
NSB00061_S2_3P_EIN_O
1000
NSB00057_S2_3P_SS_55
1002
}
  0
ARC
  5
6858
330
20
100
AcDbEntity
  8
11000_Left
  6
DASHED
 62
     7
370
    20
100
AcDbCircle
 39
0.25
 10
342.9198895193333
 20
69.00471427078935
 30
0.0
 40
0.8
100
AcDbArc
 50
270.0
 51
345.2360000000006
1001
AUSTER_ANSICHT
1002
{
1000
Det03
1002
}
1001
AUSTER_FOLIE
1002
{
1000
NSB00037_G_S2_M_DREHANTRIEB
1000
NSB00058B_S2_3P_SS_75
1000
NSB00061_S2_3P_EIN_O
1000
NSB00057_S2_3P_SS_55
1002
}
  0
ARC
  5
6859
330
20
100
AcDbEntity
  8
11000_Left
  6
DASHED
 62
     7
370
    20
100
AcDbCircle
 39
0.25
 10
258.6148895193333
 20
87.90471427078943
 30
0.0
 40
1.0
100
AcDbArc
 50
90.0
 51
180.0
1001
AUSTER_ANSICHT
1002
{
1000
Det03
1002
}
1001
AUSTER_FOLIE
1002
{
1000
NSB00037_G_S2_M_DREHANTRIEB
1000
NSB00058B_S2_3P_SS_75
1000
NSB00061_S2_3P_EIN_O
1000
NSB00057_S2_3P_SS_55
1002
}
  0
ARC
  5
685A
330
20
100
AcDbEntity
  8
11000_Left
  6
DASHED
 62
     7
370
    20
100
AcDbCircle
 39
0.25
 10
260.8148895193333
 20
89.70471427078939
 30
0.0
 40
0.8
100
AcDbArc
 50
270.0
 51
0.0
1001
AUSTER_ANSICHT
1002
{
1000
Det03
1002
}
1001
AUSTER_FOLIE
1002
{
1000
NSB00037_G_S2_M_DREHANTRIEB
1000
NSB00058B_S2_3P_SS_75
1000
NSB00061_S2_3P_EIN_O
1000
NSB00057_S2_3P_SS_55
1002
}
  0
ARC
  5
685B
330
20
100
AcDbEntity
  8
11000_Left
 62
     7
100
AcDbCircle
 39
0.25
 10
300.8148895193333
 20
66.60471427078949
 30
0.0
 40
0.4
100
AcDbArc
 50
180.0
 51
270.0
1001
AUSTER_ANSICHT
1002
{
1000
Det03
1002
}
1001
AUSTER_FOLIE
1002
{
1000
NSB00037_G_S2_M_DREHANTRIEB
1000
NSB00058B_S2_3P_SS_75
1000
NSB00061_S2_3P_EIN_O
1000
NSB00057_S2_3P_SS_55
1002
}
  0
ARC
  5
685C
330
20
100
AcDbEntity
  8
11000_Left
  6
DASHED
 62
     7
370
    20
100
AcDbCircle
 39
0.25
 10
312.5148895193333
 20
66.60471427078949
 30
0.0
 40
0.4
100
AcDbArc
 50
270.0
 51
0.0
1001
AUSTER_ANSICHT
1002
{
1000
Det03
1002
}
1001
AUSTER_FOLIE
1002
{
1000
NSB00037_G_S2_M_DREHANTRIEB
1000
NSB00058B_S2_3P_SS_75
1000
NSB00061_S2_3P_EIN_O
1000
NSB00057_S2_3P_SS_55
1002
}
  0
ARC
  5
685D
330
20
100
AcDbEntity
  8
11000_Left
  6
DASHED
 62
     7
370
    20
100
AcDbCircle
 39
0.25
 10
119.1148895193333
 20
130.7047142707894
 30
0.0
 40
250.0
100
AcDbArc
 50
355.0039999999989
 51
4.996000000001058
1001
AUSTER_ANSICHT
1002
{
1000
Det03
1002
}
1001
AUSTER_FOLIE
1002
{
1000
NSB00058B_S2_3P_SS_75
1000
NSB00061_S2_3P_EIN_O
1000
NSB00057_S2_3P_SS_55
1002
}
  0
LINE
  5
685E
330
20
100
AcDbEntity
  8
11000_Left
  6
DASHED
 62
     7
370
    20
100
AcDbLine
 39
0.25
 10
261.6148895193333
 20
89.70471427078939
 30
0.0
 11
261.6148895193333
 21
171.7047142707894
 31
0.0
1001
AUSTER_ANSICHT
1002
{
1000
Det03
1002
}
1001
AUSTER_FOLIE
1002
{
1000
NSB00037_G_S2_M_DREHANTRIEB
1000
NSB00058B_S2_3P_SS_75
1000
NSB00061_S2_3P_EIN_O
1000
NSB00057_S2_3P_SS_55
1002
}
  0
LINE
  5
685F
330
20
100
AcDbEntity
  8
11000_Left
  6
DASHED
 62
     7
370
    20
100
AcDbLine
 39
0.25
 10
338.1148895193332
 20
193.2047142707894
 30
0.0
 11
338.1148895193332
 21
68.20471427078939
 31
0.0
1001
AUSTER_ANSICHT
1002
{
1000
Det03
1002
}
1001
AUSTER_FOLIE
1002
{
1000
NSB00037_G_S2_M_DREHANTRIEB
1000
NSB00058B_S2_3P_SS_75
1000
NSB00061_S2_3P_EIN_O
1000
NSB00057_S2_3P_SS_55
1002
}
  0
LINE
  5
6860
330
20
100
AcDbEntity
  8
11000_Left
  6
Continuous
 62
     7
100
AcDbLine
 39
0.7
 10
274.6148895193333
 20
195.7047142707894
 30
0.0
 11
289.6148895193333
 21
195.7047142707894
 31
0.0
1001
AUSTER_ANSICHT
1002
{
1000
Det03
1002
}
1001
AUSTER_FOLIE
1002
{
1000
NSB00061_S2_3P_EIN_O
1000
NSB00057_S2_3P_SS_55
1002
}
  0
LINE
  5
6861
330
20
100
AcDbEntity
  8
11000_Left
  6
Continuous
 62
     7
370
    50
100
AcDbLine
 39
0.5
 10
287.6148895193333
 20
192.2047142707894
 30
0.0
 11
287.6148895193333
 21
173.7047142707894
 31
0.0
1001
AUSTER_ANSICHT
1002
{
1000
Det03
1002
}
1001
AUSTER_FOLIE
1002
{
1000
NSB00057_S2_3P_SS_55
1002
}
  0
LINE
  5
6862
330
20
100
AcDbEntity
  8
11000_Left
  6
Continuous
 62
     7
370
    50
100
AcDbLine
 39
0.5
 10
289.6148895193333
 20
173.7047142707894
 30
0.0
 11
287.6148895193333
 21
173.7047142707894
 31
0.0
1001
AUSTER_ANSICHT
1002
{
1000
Det03
1002
}
1001
AUSTER_FOLIE
1002
{
1000
NSB00057_S2_3P_SS_55
1002
}
  0
LINE
  5
6863
330
20
100
AcDbEntity
  8
11000_Left
  6
Continuous
 62
     7
370
    50
100
AcDbLine
 39
0.5
 10
284.1148895193333
 20
192.2047142707894
 30
0.0
 11
289.6148895193333
 21
192.2047142707894
 31
0.0
1001
AUSTER_ANSICHT
1002
{
1000
Det03
1002
}
1001
AUSTER_FOLIE
1002
{
1000
NSB00057_S2_3P_SS_55
1002
}
  0
LINE
  5
6864
330
20
100
AcDbEntity
  8
11000_Left
  6
Continuous
 62
     7
370
    50
100
AcDbLine
 39
0.5
 10
282.6148895193333
 20
195.7047142707894
 30
0.0
 11
284.1148895193333
 21
192.2047142707894
 31
0.0
1001
AUSTER_ANSICHT
1002
{
1000
Det03
1002
}
1001
AUSTER_FOLIE
1002
{
1000
NSB00057_S2_3P_SS_55
1002
}
  0
LINE
  5
6865
330
20
100
AcDbEntity
  8
11000_Left
  6
Continuous
 62
     7
370
    50
100
AcDbLine
 39
0.5
 10
274.6148895193333
 20
195.7047142707894
 30
0.0
 11
289.6148895193333
 21
195.7047142707894
 31
0.0
1001
AUSTER_ANSICHT
1002
{
1000
Det03
1002
}
1001
AUSTER_FOLIE
1002
{
1000
NSB00057_S2_3P_SS_55
1002
}
  0
LINE
  5
6866
330
20
100
AcDbEntity
  8
11000_Left
  6
Continuous
 62
     7
370
    50
100
AcDbLine
 39
0.5
 10
289.6148895193333
 20
195.7047142707894
 30
0.0
 11
289.6148895193333
 21
173.7047142707894
 31
0.0
1001
AUSTER_ANSICHT
1002
{
1000
Det03
1002
}
1001
AUSTER_FOLIE
1002
{
1000
NSB00057_S2_3P_SS_55
1002
}
  0
LINE
  5
6867
330
20
100
AcDbEntity
  8
11000_Left
  6
Continuous
 62
     7
370
    50
100
AcDbLine
 39
0.5
 10
289.6148895193334
 20
228.3047142707894
 30
0.0
 11
274.6148895193333
 21
228.3047142707894
 31
0.0
1001
AUSTER_ANSICHT
1002
{
1000
Det03
1002
}
1001
AUSTER_FOLIE
1002
{
1000
NSB00057_S2_3P_SS_55
1002
}
  0
LINE
  5
6868
330
20
100
AcDbEntity
  8
11000_Left
  6
Continuous
 62
     7
370
    50
100
AcDbLine
 39
0.5
 10
289.6148895193333
 20
195.7047142707894
 30
0.0
 11
289.6148895193334
 21
228.3047142707894
 31
0.0
1001
AUSTER_ANSICHT
1002
{
1000
Det03
1002
}
1001
AUSTER_FOLIE
1002
{
1000
NSB00057_S2_3P_SS_55
1002
}
  0
LINE
  5
6869
330
20
100
AcDbEntity
  8
11000_Left
  6
Continuous
 62
     7
370
    50
100
AcDbLine
 39
0.5
 10
274.6148895193333
 20
228.3047142707894
 30
0.0
 11
274.6148895193333
 21
195.7047142707894
 31
0.0
1001
AUSTER_ANSICHT
1002
{
1000
Det03
1002
}
1001
AUSTER_FOLIE
1002
{
1000
NSB00057_S2_3P_SS_55
1002
}
  0
LINE
  5
686A
330
20
100
AcDbEntity
  8
11000_Left
  6
DASHED
 62
     7
370
    20
100
AcDbLine
 39
0.25
 10
239.6148895193333
 20
200.3047142707894
 30
0.0
 11
239.6148895193333
 21
199.2047142707893
 31
0.0
1001
AUSTER_ANSICHT
1002
{
1000
Det03
1002
}
1001
AUSTER_FOLIE
1002
{
1000
NSB00058B_S2_3P_SS_75
1000
NSB00061_S2_3P_EIN_O
1000
NSB00057_S2_3P_SS_55
1002
}
  0
LINE
  5
686B
330
20
100
AcDbEntity
  8
11000_Left
  6
DASHED
 62
     7
370
    20
100
AcDbLine
 39
0.25
 10
239.6148895193333
 20
199.2047142707893
 30
0.0
 11
239.6148895193333
 21
193.2047142707894
 31
0.0
1001
AUSTER_ANSICHT
1002
{
1000
Det03
1002
}
1001
AUSTER_FOLIE
1002
{
1000
NSB00058B_S2_3P_SS_75
1000
NSB00061_S2_3P_EIN_O
1000
NSB00057_S2_3P_SS_55
1002
}
  0
LINE
  5
686C
330
20
100
AcDbEntity
  8
11000_Left
  6
DASHED
 62
     7
370
    20
100
AcDbLine
 39
0.25
 10
234.1948895193331
 20
200.3577142707894
 30
0.0
 11
234.0488895193333
 21
199.2577142707894
 31
0.0
1001
AUSTER_ANSICHT
1002
{
1000
Det03
1002
}
1001
AUSTER_FOLIE
1002
{
1000
NSB00058B_S2_3P_SS_75
1000
NSB00061_S2_3P_EIN_O
1000
NSB00057_S2_3P_SS_55
1002
}
  0
LINE
  5
686D
330
20
100
AcDbEntity
  8
11000_Left
  6
DASHED
 62
     7
370
    20
100
AcDbLine
 39
0.25
 10
234.5918895193333
 20
200.7047142707894
 30
0.0
 11
239.2148895193333
 21
200.7047142707894
 31
0.0
1001
AUSTER_ANSICHT
1002
{
1000
Det03
1002
}
1001
AUSTER_FOLIE
1002
{
1000
NSB00058B_S2_3P_SS_75
1000
NSB00061_S2_3P_EIN_O
1000
NSB00057_S2_3P_SS_55
1002
}
  0
LINE
  5
686E
330
20
100
AcDbEntity
  8
11000_Left
  6
DASHED
 62
     7
370
    20
100
AcDbLine
 39
0.25
 10
231.6148895193333
 20
180.7047142707894
 30
0.0
 11
232.1148895193333
 21
180.7047142707894
 31
0.0
1001
AUSTER_ANSICHT
1002
{
1000
Det03
1002
}
1001
AUSTER_FOLIE
1002
{
1000
NSB00058B_S2_3P_SS_75
1000
NSB00061_S2_3P_EIN_O
1000
NSB00057_S2_3P_SS_55
1002
}
  0
LINE
  5
686F
330
20
100
AcDbEntity
  8
11000_Left
  6
DASHED
 62
     7
370
    20
100
AcDbLine
 39
0.25
 10
231.6148895193333
 20
184.7547142707894
 30
0.0
 11
232.1148895193333
 21
184.7547142707894
 31
0.0
1001
AUSTER_ANSICHT
1002
{
1000
Det03
1002
}
1001
AUSTER_FOLIE
1002
{
1000
NSB00058B_S2_3P_SS_75
1000
NSB00061_S2_3P_EIN_O
1000
NSB00057_S2_3P_SS_55
1002
}
  0
LINE
  5
6870
330
20
100
AcDbEntity
  8
11000_Left
  6
DASHED
 62
     7
370
    20
100
AcDbLine
 39
0.25
 10
231.6148895193333
 20
180.7047142707894
 30
0.0
 11
231.6148895193333
 21
184.7547142707894
 31
0.0
1001
AUSTER_ANSICHT
1002
{
1000
Det03
1002
}
1001
AUSTER_FOLIE
1002
{
1000
NSB00058B_S2_3P_SS_75
1000
NSB00061_S2_3P_EIN_O
1000
NSB00057_S2_3P_SS_55
1002
}
  0
LINE
  5
6871
330
20
100
AcDbEntity
  8
11000_Left
  6
DASHED
 62
     7
370
    20
100
AcDbLine
 39
0.25
 10
234.0488895193333
 20
199.2577142707894
 30
0.0
 11
232.1148895193333
 21
184.7547142707894
 31
0.0
1001
AUSTER_ANSICHT
1002
{
1000
Det03
1002
}
1001
AUSTER_FOLIE
1002
{
1000
NSB00058B_S2_3P_SS_75
1000
NSB00061_S2_3P_EIN_O
1000
NSB00057_S2_3P_SS_55
1002
}
  0
LINE
  5
6872
330
20
100
AcDbEntity
  8
11000_Left
  6
DASHED
 62
     7
370
    20
100
AcDbLine
 39
0.25
 10
235.6148895193333
 20
148.2047142707894
 30
0.0
 11
236.6148895193333
 21
148.2047142707894
 31
0.0
1001
AUSTER_ANSICHT
1002
{
1000
Det03
1002
}
1001
AUSTER_FOLIE
1002
{
1000
NSB00058B_S2_3P_SS_75
1000
NSB00061_S2_3P_EIN_O
1000
NSB00057_S2_3P_SS_55
1002
}
  0
LINE
  5
6873
330
20
100
AcDbEntity
  8
11000_Left
  6
DASHED
 62
     7
370
    20
100
AcDbLine
 39
0.25
 10
232.5148895193333
 20
146.2047142707894
 30
0.0
 11
233.5038895193331
 21
146.2047142707894
 31
0.0
1001
AUSTER_ANSICHT
1002
{
1000
Det03
1002
}
1001
AUSTER_FOLIE
1002
{
1000
NSB00058B_S2_3P_SS_75
1000
NSB00061_S2_3P_EIN_O
1000
NSB00057_S2_3P_SS_55
1002
}
  0
LINE
  5
6874
330
20
100
AcDbEntity
  8
11000_Left
  6
DASHED
 62
     7
370
    20
100
AcDbLine
 39
0.25
 10
233.5038895193331
 20
146.2047142707894
 30
0.0
 11
235.3598895193333
 21
147.5047142707895
 31
0.0
1001
AUSTER_ANSICHT
1002
{
1000
Det03
1002
}
1001
AUSTER_FOLIE
1002
{
1000
NSB00058B_S2_3P_SS_75
1000
NSB00061_S2_3P_EIN_O
1000
NSB00057_S2_3P_SS_55
1002
}
  0
LINE
  5
6875
330
20
100
AcDbEntity
  8
11000_Left
  6
DASHED
 62
     7
370
    20
100
AcDbLine
 39
0.25
 10
235.3598895193333
 20
147.5047142707895
 30
0.0
 11
235.6148895193333
 21
148.2047142707894
 31
0.0
1001
AUSTER_ANSICHT
1002
{
1000
Det03
1002
}
1001
AUSTER_FOLIE
1002
{
1000
NSB00058B_S2_3P_SS_75
1000
NSB00061_S2_3P_EIN_O
1000
NSB00057_S2_3P_SS_55
1002
}
  0
LINE
  5
6876
330
20
100
AcDbEntity
  8
11000_Left
  6
DASHED
 62
     7
370
    20
100
AcDbLine
 39
0.25
 10
232.1148895193333
 20
146.6047142707894
 30
0.0
 11
232.1148895193333
 21
180.7047142707894
 31
0.0
1001
AUSTER_ANSICHT
1002
{
1000
Det03
1002
}
1001
AUSTER_FOLIE
1002
{
1000
NSB00058B_S2_3P_SS_75
1000
NSB00061_S2_3P_EIN_O
1000
NSB00057_S2_3P_SS_55
1002
}
  0
DIMENSION
  5
6878
330
20
100
AcDbEntity
  8
11100_LEFT_DIM
  6
Continuous
 62
     7
370
    13
100
AcDbDimension
  2
*D1
 10
300.6410140964544
 20
195.7047142707894
 30
0.0
 11
300.6410140964543
 21
210.0985346463243
 31
0.0
 70
   160
 71
     5
 42
32.6
  3
DSTYLE1
100
AcDbAlignedDimension
 13
290.6148895193332
 23
228.3047142707894
 33
0.0
 14
290.6148895193332
 24
195.7047142707894
 34
0.0
 50
90.0
100
AcDbRotatedDimension
1001
ACAD
1000
DSTYLE
1002
{
1070
    41
1040
2.0
1070
    42
1040
1.0
1070
    43
1040
1.0
1070
    47
1040
0.005
1070
    48
1040
-0.005
1070
    77
1070
     0
1070
    78
1070
     0
1070
   140
1040
3.5
1070
   143
1040
25.4
1070
   171
1070
     0
1070
   172
1070
     1
1070
   271
1070
     0
1070
   272
1070
     1
1070
   277
1070
     6
1070
   279
1070
     0
1002
}
  0
LINE
  5
6879
330
20
100
AcDbEntity
  8
11000_Left
  6
DASHED
 62
     7
370
    20
100
AcDbLine
 39
0.25
 10
232.3148895193333
 20
111.2877142707892
 30
0.0
 11
232.5148895193333
 21
111.4037142707893
 31
0.0
1001
AUSTER_ANSICHT
1002
{
1000
Det03
1002
}
1001
AUSTER_FOLIE
1002
{
1000
NSB00058B_S2_3P_SS_75
1000
NSB00061_S2_3P_EIN_O
1000
NSB00057_S2_3P_SS_55
1002
}
  0
LINE
  5
687A
330
20
100
AcDbEntity
  8
11000_Left
  6
DASHED
 62
     7
370
    20
100
AcDbLine
 39
0.25
 10
234.8148895193333
 20
115.2047142707894
 30
0.0
 11
235.0468895193333
 21
113.8867142707894
 31
0.0
1001
AUSTER_ANSICHT
1002
{
1000
Det03
1002
}
1001
AUSTER_FOLIE
1002
{
1000
NSB00058B_S2_3P_SS_75
1000
NSB00061_S2_3P_EIN_O
1000
NSB00057_S2_3P_SS_55
1002
}
  0
LINE
  5
687B
330
20
100
AcDbEntity
  8
11000_Left
  6
DASHED
 62
     7
370
    20
100
AcDbLine
 39
0.25
 10
234.4148895193331
 20
115.2047142707894
 30
0.0
 11
234.8148895193333
 21
115.2047142707894
 31
0.0
1001
AUSTER_ANSICHT
1002
{
1000
Det03
1002
}
1001
AUSTER_FOLIE
1002
{
1000
NSB00058B_S2_3P_SS_75
1000
NSB00061_S2_3P_EIN_O
1000
NSB00057_S2_3P_SS_55
1002
}
  0
LINE
  5
687C
330
20
100
AcDbEntity
  8
11000_Left
  6
DASHED
 62
     7
370
    20
100
AcDbLine
 39
0.25
 10
235.3148895193332
 20
113.3637142707893
 30
0.0
 11
235.3148895193332
 21
112.9047142707894
 31
0.0
1001
AUSTER_ANSICHT
1002
{
1000
Det03
1002
}
1001
AUSTER_FOLIE
1002
{
1000
NSB00058B_S2_3P_SS_75
1000
NSB00061_S2_3P_EIN_O
1000
NSB00057_S2_3P_SS_55
1002
}
  0
LINE
  5
687D
330
20
100
AcDbEntity
  8
11000_Left
  6
DASHED
 62
     7
370
    20
100
AcDbLine
 39
0.25
 10
235.1148895193333
 20
112.9047142707894
 30
0.0
 11
236.6148895193333
 21
112.9047142707894
 31
0.0
1001
AUSTER_ANSICHT
1002
{
1000
Det03
1002
}
1001
AUSTER_FOLIE
1002
{
1000
NSB00058B_S2_3P_SS_75
1000
NSB00061_S2_3P_EIN_O
1000
NSB00057_S2_3P_SS_55
1002
}
  0
LINE
  5
687E
330
20
100
AcDbEntity
  8
11000_Left
  6
DASHED
 62
     7
370
    20
100
AcDbLine
 39
0.25
 10
235.1148895193333
 20
112.9047142707894
 30
0.0
 11
232.5148895193333
 21
111.4037142707893
 31
0.0
1001
AUSTER_ANSICHT
1002
{
1000
Det03
1002
}
1001
AUSTER_FOLIE
1002
{
1000
NSB00058B_S2_3P_SS_75
1000
NSB00061_S2_3P_EIN_O
1000
NSB00057_S2_3P_SS_55
1002
}
  0
LINE
  5
687F
330
20
100
AcDbEntity
  8
11000_Left
  6
DASHED
 62
     7
370
    20
100
AcDbLine
 39
0.25
 10
232.1148895193333
 20
112.6857142707893
 30
0.0
 11
232.1148895193333
 21
110.9417142707893
 31
0.0
1001
AUSTER_ANSICHT
1002
{
1000
Det03
1002
}
1001
AUSTER_FOLIE
1002
{
1000
NSB00058B_S2_3P_SS_75
1000
NSB00061_S2_3P_EIN_O
1000
NSB00057_S2_3P_SS_55
1002
}
  0
LINE
  5
6880
330
20
100
AcDbEntity
  8
11000_Left
  6
DASHED
 62
     7
370
    20
100
AcDbLine
 39
0.25
 10
234.1078895193332
 20
115.0617142707892
 30
0.0
 11
232.1148895193333
 21
112.6857142707893
 31
0.0
1001
AUSTER_ANSICHT
1002
{
1000
Det03
1002
}
1001
AUSTER_FOLIE
1002
{
1000
NSB00058B_S2_3P_SS_75
1000
NSB00061_S2_3P_EIN_O
1000
NSB00057_S2_3P_SS_55
1002
}
  0
LINE
  5
6881
330
20
100
AcDbEntity
  8
11000_Left
  6
DASHED
 62
     7
370
    20
100
AcDbLine
 39
0.25
 10
232.1148895193333
 20
70.20471427078914
 30
0.0
 11
231.6148895193333
 21
70.20471427078914
 31
0.0
1001
AUSTER_ANSICHT
1002
{
1000
Det03
1002
}
1001
AUSTER_FOLIE
1002
{
1000
NSB00037_G_S2_M_DREHANTRIEB
1000
NSB00058B_S2_3P_SS_75
1000
NSB00061_S2_3P_EIN_O
1000
NSB00057_S2_3P_SS_55
1002
}
  0
LINE
  5
6882
330
20
100
AcDbEntity
  8
11000_Left
  6
DASHED
 62
     7
370
    20
100
AcDbLine
 39
0.25
 10
239.2148895193333
 20
60.70471427078939
 30
0.0
 11
232.5148895193333
 21
60.70471427078939
 31
0.0
1001
AUSTER_ANSICHT
1002
{
1000
Det03
1002
}
1001
AUSTER_FOLIE
1002
{
1000
NSB00037_G_S2_M_DREHANTRIEB
1000
NSB00058B_S2_3P_SS_75
1000
NSB00061_S2_3P_EIN_O
1000
NSB00057_S2_3P_SS_55
1002
}
  0
LINE
  5
6883
330
20
100
AcDbEntity
  8
11000_Left
  6
DASHED
 62
     7
370
    20
100
AcDbLine
 39
0.25
 10
239.6148895193333
 20
68.20471427078939
 30
0.0
 11
239.6148895193333
 21
61.10471427078948
 31
0.0
1001
AUSTER_ANSICHT
1002
{
1000
Det03
1002
}
1001
AUSTER_FOLIE
1002
{
1000
NSB00037_G_S2_M_DREHANTRIEB
1000
NSB00058B_S2_3P_SS_75
1000
NSB00061_S2_3P_EIN_O
1000
NSB00057_S2_3P_SS_55
1002
}
  0
LINE
  5
6884
330
20
100
AcDbEntity
  8
11000_Left
  6
DASHED
 62
     7
370
    20
100
AcDbLine
 39
0.25
 10
231.6148895193333
 20
70.20471427078914
 30
0.0
 11
231.6148895193333
 21
61.20471427078939
 31
0.0
1001
AUSTER_ANSICHT
1002
{
1000
Det03
1002
}
1001
AUSTER_FOLIE
1002
{
1000
NSB00037_G_S2_M_DREHANTRIEB
1000
NSB00058B_S2_3P_SS_75
1000
NSB00061_S2_3P_EIN_O
1000
NSB00057_S2_3P_SS_55
1002
}
  0
LINE
  5
6885
330
20
100
AcDbEntity
  8
11000_Left
  6
DASHED
 62
     7
370
    20
100
AcDbLine
 39
0.25
 10
232.1148895193333
 20
62.20471427078916
 30
0.0
 11
232.1148895193333
 21
110.9417142707893
 31
0.0
1001
AUSTER_ANSICHT
1002
{
1000
Det03
1002
}
1001
AUSTER_FOLIE
1002
{
1000
NSB00037_G_S2_M_DREHANTRIEB
1000
NSB00058B_S2_3P_SS_75
1000
NSB00061_S2_3P_EIN_O
1000
NSB00057_S2_3P_SS_55
1002
}
  0
ARC
  5
6886
330
20
100
AcDbEntity
  8
11000_Left
  6
DASHED
 62
     7
370
    20
100
AcDbCircle
 39
0.25
 10
234.4148895193331
 20
114.8047142707894
 30
0.0
 40
0.4
100
AcDbArc
 50
90.0
 51
139.9999999999961
1001
AUSTER_ANSICHT
1002
{
1000
Det03
1002
}
1001
AUSTER_FOLIE
1002
{
1000
NSB00058B_S2_3P_SS_75
1000
NSB00061_S2_3P_EIN_O
1000
NSB00057_S2_3P_SS_55
1002
}
  0
ARC
  5
6887
330
20
100
AcDbEntity
  8
11000_Left
  6
DASHED
 62
     7
370
    20
100
AcDbCircle
 39
0.25
 10
236.0318895193333
 20
114.0607142707894
 30
0.0
 40
1.0
100
AcDbArc
 50
189.9999999999985
 51
224.1790000000008
1001
AUSTER_ANSICHT
1002
{
1000
Det03
1002
}
1001
AUSTER_FOLIE
1002
{
1000
NSB00058B_S2_3P_SS_75
1000
NSB00061_S2_3P_EIN_O
1000
NSB00057_S2_3P_SS_55
1002
}
  0
LINE
  5
6888
330
20
100
AcDbEntity
  8
11000_Left
  6
DASHED
 62
     7
370
    20
100
AcDbLine
 39
0.25
 10
232.1148895193333
 20
61.10471427078948
 30
0.0
 11
232.1148895193333
 21
62.20471427078916
 31
0.0
1001
AUSTER_ANSICHT
1002
{
1000
Det03
1002
}
1001
AUSTER_FOLIE
1002
{
1000
NSB00037_G_S2_M_DREHANTRIEB
1000
NSB00058B_S2_3P_SS_75
1000
NSB00061_S2_3P_EIN_O
1000
NSB00057_S2_3P_SS_55
1002
}
  0
LINE
  5
6889
330
20
100
AcDbEntity
  8
11000_Left
  6
DASHED
 62
     7
370
    20
100
AcDbLine
 39
0.25
 10
232.1148895193333
 20
61.20471427078939
 30
0.0
 11
231.6148895193333
 21
61.20471427078939
 31
0.0
1001
AUSTER_ANSICHT
1002
{
1000
Det03
1002
}
1001
AUSTER_FOLIE
1002
{
1000
NSB00037_G_S2_M_DREHANTRIEB
1000
NSB00058B_S2_3P_SS_75
1000
NSB00061_S2_3P_EIN_O
1000
NSB00057_S2_3P_SS_55
1002
}
  0
ARC
  5
688A
330
20
100
AcDbEntity
  8
11000_Left
  6
DASHED
 62
     7
370
    20
100
AcDbCircle
 39
0.25
 10
239.2148895193333
 20
61.10471427078948
 30
0.0
 40
0.4
100
AcDbArc
 50
270.0
 51
0.0
1001
AUSTER_ANSICHT
1002
{
1000
Det03
1002
}
1001
AUSTER_FOLIE
1002
{
1000
NSB00037_G_S2_M_DREHANTRIEB
1000
NSB00058B_S2_3P_SS_75
1000
NSB00061_S2_3P_EIN_O
1000
NSB00057_S2_3P_SS_55
1002
}
  0
ARC
  5
688B
330
20
100
AcDbEntity
  8
11000_Left
  6
DASHED
 62
     7
370
    20
100
AcDbCircle
 39
0.25
 10
232.5148895193333
 20
61.10471427078948
 30
0.0
 40
0.4
100
AcDbArc
 50
180.0
 51
270.0
1001
AUSTER_ANSICHT
1002
{
1000
Det03
1002
}
1001
AUSTER_FOLIE
1002
{
1000
NSB00037_G_S2_M_DREHANTRIEB
1000
NSB00058B_S2_3P_SS_75
1000
NSB00061_S2_3P_EIN_O
1000
NSB00057_S2_3P_SS_55
1002
}
  0
LINE
  5
688C
330
20
100
AcDbEntity
  8
11000_Left
  6
DASHED
 62
     7
370
    20
100
AcDbLine
 39
0.25
 10
236.6148895193333
 20
148.2047142707894
 30
0.0
 11
236.6148895193333
 21
112.9047142707894
 31
0.0
1001
AUSTER_ANSICHT
1002
{
1000
Det03
1002
}
1001
AUSTER_FOLIE
1002
{
1000
NSB00058B_S2_3P_SS_75
1000
NSB00061_S2_3P_EIN_O
1000
NSB00057_S2_3P_SS_55
1002
}
  0
DIMENSION
  5
688F
330
20
100
AcDbEntity
  8
10100_FRONT_DIM
  6
Continuous
 62
     7
370
    13
100
AcDbDimension
  2
*D2
 10
139.5294040764265
 20
163.1209827113811
 30
0.0
 11
111.2976858813034
 21
163.1209827113811
 31
0.0
 70
   160
 71
     5
 42
55.0000000000001
  3
H035
100
AcDbAlignedDimension
 13
84.52940407642641
 23
175.2903640096891
 33
0.0
 14
139.5294040764265
 24
175.2903640096891
 34
0.0
100
AcDbRotatedDimension
1001
ACAD
1000
DSTYLE
1002
{
1070
    40
1040
1.0
1070
    77
1070
     0
1070
   147
1040
1.5
1070
   272
1070
     0
1070
   279
1070
     1
1070
   288
1070
     1
1002
}
  0
DIMENSION
  5
6891
330
20
100
AcDbEntity
  8
10100_FRONT_DIM
  6
Continuous
 62
     7
370
    13
100
AcDbDimension
  2
*D3
 10
181.8294040764265
 20
155.4800615291938
 30
0.0
 11
123.5122204067236
 21
155.4160583976859
 31
0.0
 70
   160
 71
     5
 42
110.0
  3
H035
100
AcDbAlignedDimension
 13
71.8294040764265
 23
196.2903640096893
 33
0.0
 14
181.8294040764265
 24
196.2903640096893
 34
0.0
100
AcDbRotatedDimension
1001
ACAD
1000
DSTYLE
1002
{
1070
    40
1040
1.0
1070
    77
1070
     0
1070
   147
1040
1.5
1070
   272
1070
     0
1070
   279
1070
     1
1070
   288
1070
     1
1002
}
  0
LINE
  5
6896
330
20
100
AcDbEntity
  8
10000_FRONT
 62
     7
370
    50
100
AcDbLine
 10
175.6794040764264
 20
192.7903640096893
 30
0.0
 11
176.1794040764264
 21
196.2903640096893
 31
0.0
1001
AUSTER_ANSICHT
1002
{
1000
Det03
1002
}
1001
AUSTER_FOLIE
1002
{
1000
NSB00057_S2_3P_SS_55
1002
}
  0
LINE
  5
6897
330
20
100
AcDbEntity
  8
10000_FRONT
 62
     7
370
    50
100
AcDbLine
 10
167.1794040764264
 20
192.7903640096893
 30
0.0
 11
175.6794040764264
 21
192.7903640096893
 31
0.0
1001
AUSTER_ANSICHT
1002
{
1000
Det03
1002
}
1001
AUSTER_FOLIE
1002
{
1000
NSB00057_S2_3P_SS_55
1002
}
  0
LINE
  5
6898
330
20
100
AcDbEntity
  8
10000_FRONT
 62
     7
370
    50
100
AcDbLine
 10
166.6794040764264
 20
196.2903640096893
 30
0.0
 11
167.1794040764264
 21
192.7903640096893
 31
0.0
1001
AUSTER_ANSICHT
1002
{
1000
Det03
1002
}
1001
AUSTER_FOLIE
1002
{
1000
NSB00057_S2_3P_SS_55
1002
}
  0
LINE
  5
6899
330
20
100
AcDbEntity
  8
10000_FRONT
 62
     7
370
    50
100
AcDbLine
 10
158.4794040764265
 20
192.7903640096893
 30
0.0
 11
158.9794040764264
 21
196.2903640096893
 31
0.0
1001
AUSTER_ANSICHT
1002
{
1000
Det03
1002
}
1001
AUSTER_FOLIE
1002
{
1000
NSB00057_S2_3P_SS_55
1002
}
  0
LINE
  5
689A
330
20
100
AcDbEntity
  8
10000_FRONT
 62
     7
370
    50
100
AcDbLine
 10
149.9794040764264
 20
192.7903640096893
 30
0.0
 11
158.4794040764265
 21
192.7903640096893
 31
0.0
1001
AUSTER_ANSICHT
1002
{
1000
Det03
1002
}
1001
AUSTER_FOLIE
1002
{
1000
NSB00057_S2_3P_SS_55
1002
}
  0
LINE
  5
689B
330
20
100
AcDbEntity
  8
10000_FRONT
 62
     7
370
    50
100
AcDbLine
 10
149.4794040764264
 20
196.2903640096893
 30
0.0
 11
149.9794040764264
 21
192.7903640096893
 31
0.0
1001
AUSTER_ANSICHT
1002
{
1000
Det03
1002
}
1001
AUSTER_FOLIE
1002
{
1000
NSB00057_S2_3P_SS_55
1002
}
  0
LINE
  5
689C
330
20
100
AcDbEntity
  8
10000_FRONT
 62
     7
370
    50
100
AcDbLine
 10
173.9294040764264
 20
175.2903640096891
 30
0.0
 11
173.9294040764264
 21
192.7903640096893
 31
0.0
1001
AUSTER_ANSICHT
1002
{
1000
Det03
1002
}
1001
AUSTER_FOLIE
1002
{
1000
NSB00057_S2_3P_SS_55
1002
}
  0
LINE
  5
689D
330
20
100
AcDbEntity
  8
10000_FRONT
 62
     7
370
    50
100
AcDbLine
 10
168.9294040764264
 20
192.7903640096893
 30
0.0
 11
168.9294040764264
 21
175.2903640096891
 31
0.0
1001
AUSTER_ANSICHT
1002
{
1000
Det03
1002
}
1001
AUSTER_FOLIE
1002
{
1000
NSB00057_S2_3P_SS_55
1002
}
  0
LINE
  5
689E
330
20
100
AcDbEntity
  8
10000_FRONT
 62
     7
370
    50
100
AcDbLine
 10
156.7294040764264
 20
175.2903640096891
 30
0.0
 11
156.7294040764264
 21
192.7903640096893
 31
0.0
1001
AUSTER_ANSICHT
1002
{
1000
Det03
1002
}
1001
AUSTER_FOLIE
1002
{
1000
NSB00057_S2_3P_SS_55
1002
}
  0
LINE
  5
689F
330
20
100
AcDbEntity
  8
10000_FRONT
 62
     7
370
    50
100
AcDbLine
 10
151.7294040764264
 20
192.7903640096893
 30
0.0
 11
151.7294040764264
 21
175.2903640096891
 31
0.0
1001
AUSTER_ANSICHT
1002
{
1000
Det03
1002
}
1001
AUSTER_FOLIE
1002
{
1000
NSB00057_S2_3P_SS_55
1002
}
  0
LINE
  5
68A0
330
20
100
AcDbEntity
  8
10000_FRONT
 62
     7
370
    50
100
AcDbLine
 10
169.9294040764264
 20
174.2903640096893
 30
0.0
 11
172.9294040764264
 21
174.2903640096893
 31
0.0
1001
AUSTER_ANSICHT
1002
{
1000
Det03
1002
}
1001
AUSTER_FOLIE
1002
{
1000
NSB00057_S2_3P_SS_55
1002
}
  0
LINE
  5
68A1
330
20
100
AcDbEntity
  8
10000_FRONT
 62
     7
370
    50
100
AcDbLine
 10
172.9294040764264
 20
174.2903640096893
 30
0.0
 11
173.9294040764264
 21
175.2903640096891
 31
0.0
1001
AUSTER_ANSICHT
1002
{
1000
Det03
1002
}
1001
AUSTER_FOLIE
1002
{
1000
NSB00057_S2_3P_SS_55
1002
}
  0
LINE
  5
68A2
330
20
100
AcDbEntity
  8
10000_FRONT
 62
     7
370
    50
100
AcDbLine
 10
168.9294040764264
 20
175.2903640096891
 30
0.0
 11
169.9294040764264
 21
174.2903640096893
 31
0.0
1001
AUSTER_ANSICHT
1002
{
1000
Det03
1002
}
1001
AUSTER_FOLIE
1002
{
1000
NSB00057_S2_3P_SS_55
1002
}
  0
LINE
  5
68A3
330
20
100
AcDbEntity
  8
10000_FRONT
 62
     7
370
    50
100
AcDbLine
 10
152.7294040764264
 20
174.2903640096893
 30
0.0
 11
155.7294040764264
 21
174.2903640096893
 31
0.0
1001
AUSTER_ANSICHT
1002
{
1000
Det03
1002
}
1001
AUSTER_FOLIE
1002
{
1000
NSB00057_S2_3P_SS_55
1002
}
  0
LINE
  5
68A4
330
20
100
AcDbEntity
  8
10000_FRONT
 62
     7
370
    50
100
AcDbLine
 10
156.7294040764264
 20
175.2903640096891
 30
0.0
 11
155.7294040764264
 21
174.2903640096893
 31
0.0
1001
AUSTER_ANSICHT
1002
{
1000
Det03
1002
}
1001
AUSTER_FOLIE
1002
{
1000
NSB00057_S2_3P_SS_55
1002
}
  0
LINE
  5
68A5
330
20
100
AcDbEntity
  8
10000_FRONT
 62
     7
370
    50
100
AcDbLine
 10
151.7294040764264
 20
175.2903640096891
 30
0.0
 11
152.7294040764264
 21
174.2903640096893
 31
0.0
1001
AUSTER_ANSICHT
1002
{
1000
Det03
1002
}
1001
AUSTER_FOLIE
1002
{
1000
NSB00057_S2_3P_SS_55
1002
}
  0
LINE
  5
68D3
330
20
100
AcDbEntity
  8
10000_FRONT
 62
     7
370
    50
100
AcDbLine
 10
141.2794040764264
 20
192.7903640096893
 30
0.0
 11
141.7794040764265
 21
196.2903640096893
 31
0.0
1001
AUSTER_ANSICHT
1002
{
1000
Det03
1002
}
1001
AUSTER_FOLIE
1002
{
1000
NSB00057_S2_3P_SS_55
1002
}
  0
LINE
  5
68D4
330
20
100
AcDbEntity
  8
10000_FRONT
 62
     7
370
    50
100
AcDbLine
 10
132.7794040764263
 20
192.7903640096893
 30
0.0
 11
141.2794040764264
 21
192.7903640096893
 31
0.0
1001
AUSTER_ANSICHT
1002
{
1000
Det03
1002
}
1001
AUSTER_FOLIE
1002
{
1000
NSB00057_S2_3P_SS_55
1002
}
  0
LINE
  5
68D5
330
20
100
AcDbEntity
  8
10000_FRONT
 62
     7
370
    50
100
AcDbLine
 10
132.2794040764265
 20
196.2903640096893
 30
0.0
 11
132.7794040764263
 21
192.7903640096893
 31
0.0
1001
AUSTER_ANSICHT
1002
{
1000
Det03
1002
}
1001
AUSTER_FOLIE
1002
{
1000
NSB00057_S2_3P_SS_55
1002
}
  0
LINE
  5
68D6
330
20
100
AcDbEntity
  8
10000_FRONT
 62
     7
370
    50
100
AcDbLine
 10
139.5294040764265
 20
175.2903640096891
 30
0.0
 11
139.5294040764265
 21
192.7903640096893
 31
0.0
1001
AUSTER_ANSICHT
1002
{
1000
Det03
1002
}
1001
AUSTER_FOLIE
1002
{
1000
NSB00057_S2_3P_SS_55
1002
}
  0
LINE
  5
68D7
330
20
100
AcDbEntity
  8
10000_FRONT
 62
     7
370
    50
100
AcDbLine
 10
134.5294040764265
 20
192.7903640096893
 30
0.0
 11
134.5294040764265
 21
175.2903640096891
 31
0.0
1001
AUSTER_ANSICHT
1002
{
1000
Det03
1002
}
1001
AUSTER_FOLIE
1002
{
1000
NSB00057_S2_3P_SS_55
1002
}
  0
LINE
  5
68D8
330
20
100
AcDbEntity
  8
10000_FRONT
 62
     7
370
    50
100
AcDbLine
 10
135.5294040764265
 20
174.2903640096893
 30
0.0
 11
138.5294040764265
 21
174.2903640096893
 31
0.0
1001
AUSTER_ANSICHT
1002
{
1000
Det03
1002
}
1001
AUSTER_FOLIE
1002
{
1000
NSB00057_S2_3P_SS_55
1002
}
  0
LINE
  5
68D9
330
20
100
AcDbEntity
  8
10000_FRONT
 62
     7
370
    50
100
AcDbLine
 10
138.5294040764265
 20
174.2903640096893
 30
0.0
 11
139.5294040764265
 21
175.2903640096891
 31
0.0
1001
AUSTER_ANSICHT
1002
{
1000
Det03
1002
}
1001
AUSTER_FOLIE
1002
{
1000
NSB00057_S2_3P_SS_55
1002
}
  0
LINE
  5
68DA
330
20
100
AcDbEntity
  8
10000_FRONT
 62
     7
370
    50
100
AcDbLine
 10
134.5294040764265
 20
175.2903640096891
 30
0.0
 11
135.5294040764265
 21
174.2903640096893
 31
0.0
1001
AUSTER_ANSICHT
1002
{
1000
Det03
1002
}
1001
AUSTER_FOLIE
1002
{
1000
NSB00057_S2_3P_SS_55
1002
}
  0
LINE
  5
68DB
330
20
100
AcDbEntity
  8
10000_FRONT
 62
     7
370
    50
100
AcDbLine
 10
77.77940407642678
 20
192.7903640096893
 30
0.0
 11
77.27940407642641
 21
196.2903640096893
 31
0.0
1001
AUSTER_ANSICHT
1002
{
1000
Det03
1002
}
1001
AUSTER_FOLIE
1002
{
1000
NSB00057_S2_3P_SS_55
1002
}
  0
LINE
  5
68DC
330
20
100
AcDbEntity
  8
10000_FRONT
 62
     7
370
    50
100
AcDbLine
 10
86.27940407642681
 20
192.7903640096893
 30
0.0
 11
77.77940407642678
 21
192.7903640096893
 31
0.0
1001
AUSTER_ANSICHT
1002
{
1000
Det03
1002
}
1001
AUSTER_FOLIE
1002
{
1000
NSB00057_S2_3P_SS_55
1002
}
  0
LINE
  5
68DD
330
20
100
AcDbEntity
  8
10000_FRONT
 62
     7
370
    50
100
AcDbLine
 10
86.77940407642642
 20
196.2903640096893
 30
0.0
 11
86.27940407642681
 21
192.7903640096893
 31
0.0
1001
AUSTER_ANSICHT
1002
{
1000
Det03
1002
}
1001
AUSTER_FOLIE
1002
{
1000
NSB00057_S2_3P_SS_55
1002
}
  0
LINE
  5
68DE
330
20
100
AcDbEntity
  8
10000_FRONT
 62
     7
370
    50
100
AcDbLine
 10
94.9794040764265
 20
192.7903640096893
 30
0.0
 11
94.47940407642652
 21
196.2903640096893
 31
0.0
1001
AUSTER_ANSICHT
1002
{
1000
Det03
1002
}
1001
AUSTER_FOLIE
1002
{
1000
NSB00057_S2_3P_SS_55
1002
}
  0
LINE
  5
68DF
330
20
100
AcDbEntity
  8
10000_FRONT
 62
     7
370
    50
100
AcDbLine
 10
103.4794040764266
 20
192.7903640096893
 30
0.0
 11
94.9794040764265
 21
192.7903640096893
 31
0.0
1001
AUSTER_ANSICHT
1002
{
1000
Det03
1002
}
1001
AUSTER_FOLIE
1002
{
1000
NSB00057_S2_3P_SS_55
1002
}
  0
LINE
  5
68E0
330
20
100
AcDbEntity
  8
10000_FRONT
 62
     7
370
    50
100
AcDbLine
 10
103.9794040764265
 20
196.2903640096893
 30
0.0
 11
103.4794040764266
 21
192.7903640096893
 31
0.0
1001
AUSTER_ANSICHT
1002
{
1000
Det03
1002
}
1001
AUSTER_FOLIE
1002
{
1000
NSB00057_S2_3P_SS_55
1002
}
  0
LINE
  5
68E1
330
20
100
AcDbEntity
  8
10000_FRONT
 62
     7
370
    50
100
AcDbLine
 10
112.1794040764264
 20
192.7903640096893
 30
0.0
 11
111.6794040764265
 21
196.2903640096893
 31
0.0
1001
AUSTER_ANSICHT
1002
{
1000
Det03
1002
}
1001
AUSTER_FOLIE
1002
{
1000
NSB00057_S2_3P_SS_55
1002
}
  0
LINE
  5
68E2
330
20
100
AcDbEntity
  8
10000_FRONT
 62
     7
370
    50
100
AcDbLine
 10
120.6794040764264
 20
192.7903640096893
 30
0.0
 11
112.1794040764264
 21
192.7903640096893
 31
0.0
1001
AUSTER_ANSICHT
1002
{
1000
Det03
1002
}
1001
AUSTER_FOLIE
1002
{
1000
NSB00057_S2_3P_SS_55
1002
}
  0
LINE
  5
68E3
330
20
100
AcDbEntity
  8
10000_FRONT
 62
     7
370
    50
100
AcDbLine
 10
121.1794040764265
 20
196.2903640096893
 30
0.0
 11
120.6794040764264
 21
192.7903640096893
 31
0.0
1001
AUSTER_ANSICHT
1002
{
1000
Det03
1002
}
1001
AUSTER_FOLIE
1002
{
1000
NSB00057_S2_3P_SS_55
1002
}
  0
LINE
  5
68E4
330
20
100
AcDbEntity
  8
10000_FRONT
 62
     7
370
    50
100
AcDbLine
 10
79.52940407642642
 20
175.2903640096891
 30
0.0
 11
79.52940407642642
 21
192.7903640096893
 31
0.0
1001
AUSTER_ANSICHT
1002
{
1000
Det03
1002
}
1001
AUSTER_FOLIE
1002
{
1000
NSB00057_S2_3P_SS_55
1002
}
  0
LINE
  5
68E5
330
20
100
AcDbEntity
  8
10000_FRONT
 62
     7
370
    50
100
AcDbLine
 10
84.52940407642641
 20
192.7903640096893
 30
0.0
 11
84.52940407642641
 21
175.2903640096891
 31
0.0
1001
AUSTER_ANSICHT
1002
{
1000
Det03
1002
}
1001
AUSTER_FOLIE
1002
{
1000
NSB00057_S2_3P_SS_55
1002
}
  0
LINE
  5
68E6
330
20
100
AcDbEntity
  8
10000_FRONT
 62
     7
370
    50
100
AcDbLine
 10
96.7294040764265
 20
175.2903640096891
 30
0.0
 11
96.7294040764265
 21
192.7903640096893
 31
0.0
1001
AUSTER_ANSICHT
1002
{
1000
Det03
1002
}
1001
AUSTER_FOLIE
1002
{
1000
NSB00057_S2_3P_SS_55
1002
}
  0
LINE
  5
68E7
330
20
100
AcDbEntity
  8
10000_FRONT
 62
     7
370
    50
100
AcDbLine
 10
101.7294040764266
 20
192.7903640096893
 30
0.0
 11
101.7294040764266
 21
175.2903640096891
 31
0.0
1001
AUSTER_ANSICHT
1002
{
1000
Det03
1002
}
1001
AUSTER_FOLIE
1002
{
1000
NSB00057_S2_3P_SS_55
1002
}
  0
LINE
  5
68E8
330
20
100
AcDbEntity
  8
10000_FRONT
 62
     7
370
    50
100
AcDbLine
 10
113.9294040764265
 20
175.2903640096891
 30
0.0
 11
113.9294040764265
 21
192.7903640096893
 31
0.0
1001
AUSTER_ANSICHT
1002
{
1000
Det03
1002
}
1001
AUSTER_FOLIE
1002
{
1000
NSB00057_S2_3P_SS_55
1002
}
  0
LINE
  5
68E9
330
20
100
AcDbEntity
  8
10000_FRONT
 62
     7
370
    50
100
AcDbLine
 10
118.9294040764264
 20
192.7903640096893
 30
0.0
 11
118.9294040764264
 21
175.2903640096891
 31
0.0
1001
AUSTER_ANSICHT
1002
{
1000
Det03
1002
}
1001
AUSTER_FOLIE
1002
{
1000
NSB00057_S2_3P_SS_55
1002
}
  0
LINE
  5
68EA
330
20
100
AcDbEntity
  8
10000_FRONT
 62
     7
370
    50
100
AcDbLine
 10
83.52940407642639
 20
174.2903640096893
 30
0.0
 11
80.52940407642658
 21
174.2903640096893
 31
0.0
1001
AUSTER_ANSICHT
1002
{
1000
Det03
1002
}
1001
AUSTER_FOLIE
1002
{
1000
NSB00057_S2_3P_SS_55
1002
}
  0
LINE
  5
68EB
330
20
100
AcDbEntity
  8
10000_FRONT
 62
     7
370
    50
100
AcDbLine
 10
100.7294040764265
 20
174.2903640096893
 30
0.0
 11
97.7294040764265
 21
174.2903640096893
 31
0.0
1001
AUSTER_ANSICHT
1002
{
1000
Det03
1002
}
1001
AUSTER_FOLIE
1002
{
1000
NSB00057_S2_3P_SS_55
1002
}
  0
LINE
  5
68EC
330
20
100
AcDbEntity
  8
10000_FRONT
 62
     7
370
    50
100
AcDbLine
 10
117.9294040764264
 20
174.2903640096893
 30
0.0
 11
114.9294040764266
 21
174.2903640096893
 31
0.0
1001
AUSTER_ANSICHT
1002
{
1000
Det03
1002
}
1001
AUSTER_FOLIE
1002
{
1000
NSB00057_S2_3P_SS_55
1002
}
  0
LINE
  5
68ED
330
20
100
AcDbEntity
  8
10000_FRONT
 62
     7
370
    50
100
AcDbLine
 10
80.52940407642658
 20
174.2903640096893
 30
0.0
 11
79.52940407642642
 21
175.2903640096891
 31
0.0
1001
AUSTER_ANSICHT
1002
{
1000
Det03
1002
}
1001
AUSTER_FOLIE
1002
{
1000
NSB00057_S2_3P_SS_55
1002
}
  0
LINE
  5
68EE
330
20
100
AcDbEntity
  8
10000_FRONT
 62
     7
370
    50
100
AcDbLine
 10
84.52940407642641
 20
175.2903640096891
 30
0.0
 11
83.52940407642639
 21
174.2903640096893
 31
0.0
1001
AUSTER_ANSICHT
1002
{
1000
Det03
1002
}
1001
AUSTER_FOLIE
1002
{
1000
NSB00057_S2_3P_SS_55
1002
}
  0
LINE
  5
68EF
330
20
100
AcDbEntity
  8
10000_FRONT
 62
     7
370
    50
100
AcDbLine
 10
96.7294040764265
 20
175.2903640096891
 30
0.0
 11
97.7294040764265
 21
174.2903640096893
 31
0.0
1001
AUSTER_ANSICHT
1002
{
1000
Det03
1002
}
1001
AUSTER_FOLIE
1002
{
1000
NSB00057_S2_3P_SS_55
1002
}
  0
LINE
  5
68F0
330
20
100
AcDbEntity
  8
10000_FRONT
 62
     7
370
    50
100
AcDbLine
 10
101.7294040764266
 20
175.2903640096891
 30
0.0
 11
100.7294040764265
 21
174.2903640096893
 31
0.0
1001
AUSTER_ANSICHT
1002
{
1000
Det03
1002
}
1001
AUSTER_FOLIE
1002
{
1000
NSB00057_S2_3P_SS_55
1002
}
  0
LINE
  5
68F1
330
20
100
AcDbEntity
  8
10000_FRONT
 62
     7
370
    50
100
AcDbLine
 10
114.9294040764266
 20
174.2903640096893
 30
0.0
 11
113.9294040764265
 21
175.2903640096891
 31
0.0
1001
AUSTER_ANSICHT
1002
{
1000
Det03
1002
}
1001
AUSTER_FOLIE
1002
{
1000
NSB00057_S2_3P_SS_55
1002
}
  0
LINE
  5
68F2
330
20
100
AcDbEntity
  8
10000_FRONT
 62
     7
370
    50
100
AcDbLine
 10
118.9294040764264
 20
175.2903640096891
 30
0.0
 11
117.9294040764264
 21
174.2903640096893
 31
0.0
1001
AUSTER_ANSICHT
1002
{
1000
Det03
1002
}
1001
AUSTER_FOLIE
1002
{
1000
NSB00057_S2_3P_SS_55
1002
}
  0
LINE
  5
68F3
330
20
100
AcDbEntity
  8
10000_FRONT
 62
     7
370
    50
100
AcDbLine
 10
134.5294040764265
 20
192.7903640096893
 30
0.0
 11
134.5294040764265
 21
175.2903640096891
 31
0.0
1001
AUSTER_ANSICHT
1002
{
1000
Det03
1002
}
1001
AUSTER_FOLIE
1002
{
1000
NSB00057_S2_3P_SS_55
1002
}
  0
LINE
  5
68F4
330
20
100
AcDbEntity
  8
10000_FRONT
 62
     7
370
    50
100
AcDbLine
 10
181.8294040764265
 20
196.2903640096893
 30
0.0
 11
71.8294040764265
 21
196.2903640096893
 31
0.0
1001
AUSTER_ANSICHT
1002
{
1000
Det03
1002
}
1001
AUSTER_FOLIE
1002
{
1000
NSB00057_S2_3P_SS_55
1002
}
  0
LINE
  5
68F5
330
20
100
AcDbEntity
  8
10000_FRONT
 62
     7
370
    50
100
AcDbLine
 10
181.8294040764265
 20
196.2903640096893
 30
0.0
 11
181.8294040764265
 21
228.8903640096894
 31
0.0
1001
AUSTER_ANSICHT
1002
{
1000
Det03
1002
}
1001
AUSTER_FOLIE
1002
{
1000
NSB00057_S2_3P_SS_55
1002
}
  0
LINE
  5
68F6
330
20
100
AcDbEntity
  8
10000_FRONT
 62
     7
370
    50
100
AcDbLine
 10
181.8294040764265
 20
228.8903640096894
 30
0.0
 11
71.8294040764265
 21
228.8903640096894
 31
0.0
1001
AUSTER_ANSICHT
1002
{
1000
Det03
1002
}
1001
AUSTER_FOLIE
1002
{
1000
NSB00057_S2_3P_SS_55
1002
}
  0
LINE
  5
68F7
330
20
100
AcDbEntity
  8
10000_FRONT
 62
     7
370
    50
100
AcDbLine
 10
71.8294040764265
 20
196.2903640096893
 30
0.0
 11
71.8294040764265
 21
228.8903640096894
 31
0.0
1001
AUSTER_ANSICHT
1002
{
1000
Det03
1002
}
1001
AUSTER_FOLIE
1002
{
1000
NSB00057_S2_3P_SS_55
1002
}
  0
LINE
  5
68F8
330
20
100
AcDbEntity
  8
11000_Left
  6
DASHED
 62
     7
370
    20
100
AcDbLine
 39
0.25
 10
239.6148895193333
 20
193.2047142707894
 30
0.0
 11
257.6148895193333
 21
193.2047142707894
 31
0.0
1001
AUSTER_ANSICHT
1002
{
1000
Det03
1002
}
1001
AUSTER_FOLIE
1002
{
1000
NSB00058B_S2_3P_SS_75
1000
NSB00061_S2_3P_EIN_O
1000
NSB00057_S2_3P_SS_55
1002
}
  0
LINE
  5
68F9
330
20
100
AcDbEntity
  8
11000_Left
  6
DASHED
 62
     7
370
    20
100
AcDbLine
 39
0.25
 10
257.6148895193333
 20
68.20471427078939
 30
0.0
 11
239.6148895193333
 21
68.20471427078939
 31
0.0
1001
AUSTER_ANSICHT
1002
{
1000
Det03
1002
}
1001
AUSTER_FOLIE
1002
{
1000
NSB00037_G_S2_M_DREHANTRIEB
1000
NSB00058B_S2_3P_SS_75
1000
NSB00061_S2_3P_EIN_O
1000
NSB00057_S2_3P_SS_55
1002
}
  0
DIMENSION
  5
68FA
330
20
100
AcDbEntity
  8
11100_LEFT_DIM
  6
Continuous
 62
     7
370
    13
100
AcDbDimension
  2
*D4
 10
217.3307275231575
 20
60.70471427078939
 30
0.0
 11
217.3307275231575
 21
142.4842775157616
 31
0.0
 70
   160
 71
     5
 42
167.6
  3
DSTYLE1
100
AcDbAlignedDimension
 13
274.6148895193333
 23
228.3047142707894
 33
0.0
 14
232.5148895193333
 24
60.70471427078939
 34
0.0
 50
90.0
100
AcDbRotatedDimension
1001
ACAD
1000
DSTYLE
1002
{
1070
    41
1040
2.0
1070
    42
1040
1.0
1070
    43
1040
1.0
1070
    47
1040
0.005
1070
    48
1040
-0.005
1070
    77
1070
     0
1070
    78
1070
     0
1070
   140
1040
3.5
1070
   143
1040
25.4
1070
   171
1070
     0
1070
   172
1070
     1
1070
   271
1070
     0
1070
   272
1070
     1
1070
   277
1070
     6
1070
   279
1070
     0
1002
}
  0
DIMENSION
  5
68FB
330
20
100
AcDbEntity
  8
11100_LEFT_DIM
  6
Continuous
 62
     7
370
    13
100
AcDbDimension
  2
*D5
 10
224.8647060664989
 20
130.5547142707894
 30
0.0
 11
224.8647060664989
 21
175.5160236265876
 31
0.0
 70
   160
 71
     5
 42
97.75
  3
DSTYLE1
100
AcDbAlignedDimension
 13
274.6148895193333
 23
228.3047142707894
 33
0.0
 14
236.6148895193333
 24
130.5547142707894
 34
0.0
 50
90.0
100
AcDbRotatedDimension
1001
ACAD
1000
DSTYLE
1002
{
1070
    41
1040
2.0
1070
    42
1040
1.0
1070
    43
1040
1.0
1070
    47
1040
0.005
1070
    48
1040
-0.005
1070
    77
1070
     0
1070
    78
1070
     0
1070
   140
1040
3.5
1070
   143
1040
25.4
1070
   171
1070
     0
1070
   172
1070
     1
1070
   271
1070
     0
1070
   272
1070
     1
1070
   277
1070
     6
1070
   279
1070
     0
1002
}
  0
ENDSEC
  0
SECTION
  2
OBJECTS
  0
DICTIONARY
  5
C
330
0
100
AcDbDictionary
281
     1
  3
ACAD_COLOR
350
1B
  3
ACAD_GROUP
350
D
  3
ACAD_LAYOUT
350
19
  3
ACAD_MATERIAL
350
1A
  3
ACAD_MLINESTYLE
350
16
  3
ACAD_PLOTSETTINGS
350
18
  3
ACAD_PLOTSTYLENAME
350
E
  3
ACDBHEADERROUNDTRIPXREC
350
6BE1
  3
AcDbVariableDictionary
350
6B93
  3
DWGPROPS
350
6BE0
  0
DICTIONARY
  5
1B
102
{ACAD_REACTORS
330
C
102
}
330
C
100
AcDbDictionary
281
     1
  0
DICTIONARY
  5
D
102
{ACAD_REACTORS
330
C
102
}
330
C
100
AcDbDictionary
281
     1
  0
DICTIONARY
  5
19
102
{ACAD_REACTORS
330
C
102
}
330
C
100
AcDbDictionary
281
     1
  3
Layout1
350
1F
  3
Model
350
23
  0
DICTIONARY
  5
1A
102
{ACAD_REACTORS
330
C
102
}
330
C
100
AcDbDictionary
281
     1
  0
DICTIONARY
  5
16
102
{ACAD_REACTORS
330
C
102
}
330
C
100
AcDbDictionary
281
     1
  3
Standard
350
17
  0
DICTIONARY
  5
18
102
{ACAD_REACTORS
330
C
102
}
330
C
100
AcDbDictionary
281
     1
  0
ACDBDICTIONARYWDFLT
  5
E
102
{ACAD_REACTORS
330
C
102
}
330
C
100
AcDbDictionary
281
     1
  3
Normal
350
F
100
AcDbDictionaryWithDefault
340
F
  0
DICTIONARY
  5
6BE1
102
{ACAD_REACTORS
330
C
102
}
330
C
100
AcDbDictionary
281
     1
  3
COLORDICT
350
6BE3
  3
MATERIALDICT
350
6BE2
  0
DICTIONARY
  5
6B93
102
{ACAD_REACTORS
330
C
102
}
330
C
100
AcDbDictionary
281
     1
  3
DIMASSOC
350
6B94
  3
PROJECTNAME
350
6B95
  0
XRECORD
  5
6BE0
102
{ACAD_REACTORS
330
C
102
}
330
C
100
AcDbXrecord
280
     1
  1
DWGPROPS COOKIE
  2

  3

  4

  6

  7

  8

  9

300
=
301
=
302
=
303
=
304
=
305
=
306
=
307
=
308
=
309
=
 40
0.815998738425926
 41
2452829.417613079
 42
2453406.482905324
  1

 90
        0
  0
LAYOUT
  5
1F
102
{ACAD_XDICTIONARY
360
6BE4
102
}
102
{ACAD_REACTORS
330
19
102
}
330
19
100
AcDbPlotSettings
  1

  2
HP LaserJet 5000 Series PS
  4

  6

 40
0.0
 41
0.0
 42
0.0
 43
0.0
 44
0.0
 45
0.0
 46
0.0
 47
0.0
 48
0.0
 49
0.0
140
0.0
141
0.0
142
1.0
143
1.0
 70
   688
 72
     0
 73
     0
 74
     5
  7
monochrome.ctb
 75
    16
147
1.0
148
0.0
149
0.0
100
AcDbLayout
  1
Layout1
 70
     1
 71
     1
 10
0.0
 20
0.0
 11
12.0
 21
9.0
 12
0.0
 22
0.0
 32
0.0
 14
1.000000000000000E+20
 24
1.000000000000000E+20
 34
1.000000000000000E+20
 15
-1.000000000000000E+20
 25
-1.000000000000000E+20
 35
-1.000000000000000E+20
146
0.0
 13
0.0
 23
0.0
 33
0.0
 16
1.0
 26
0.0
 36
0.0
 17
0.0
 27
1.0
 37
0.0
 76
     0
330
1C
  0
LAYOUT
  5
23
102
{ACAD_XDICTIONARY
360
6BE6
102
}
102
{ACAD_REACTORS
330
19
102
}
330
19
100
AcDbPlotSettings
  1

  2
\\AMBW779A\A_P00873 (Canon iR2200-3300 PCL6)
  4
A3
  6

 40
4.815417
 41
4.815412
 42
4.815399
 43
4.81543
 44
296.925995
 45
419.9466549999998
 46
0.0
 47
0.0
 48
0.0
 49
0.0
140
0.0
141
0.0
142
1.0
143
1.0
 70
 11952
 72
     1
 73
     1
 74
     1
  7
monochrome.ctb
 75
    16
147
1.0
148
-9.984742291114573
149
0.0090588108578231
100
AcDbLayout
  1
Model
 70
     1
 71
     0
 10
0.0
 20
0.0
 11
12.0
 21
9.0
 12
0.0
 22
0.0
 32
0.0
 14
0.0
 24
0.0
 34
0.0
 15
0.0
 25
0.0
 35
0.0
146
0.0
 13
0.0
 23
0.0
 33
0.0
 16
1.0
 26
0.0
 36
0.0
 17
0.0
 27
1.0
 37
0.0
 76
     0
330
20
  0
MLINESTYLE
  5
17
102
{ACAD_REACTORS
330
16
102
}
330
16
100
AcDbMlineStyle
  2
STANDARD
 70
     0
  3

 62
   256
 51
90.0
 52
90.0
 71
     2
 49
0.5
 62
   256
  6
BYLAYER
 49
-0.5
 62
   256
  6
BYLAYER
  0
ACDBPLACEHOLDER
  5
F
102
{ACAD_REACTORS
330
E
102
}
330
E
  0
XRECORD
  5
6BE3
102
{ACAD_REACTORS
330
6BE1
102
}
330
6BE1
100
AcDbXrecord
280
     1
340
1B
  0
XRECORD
  5
6BE2
102
{ACAD_REACTORS
330
6BE1
102
}
330
6BE1
100
AcDbXrecord
280
     1
340
1A
  0
DICTIONARYVAR
  5
6B94
102
{ACAD_REACTORS
330
6B93
102
}
330
6B93
100
DictionaryVariables
280
     0
  1
1
  0
DICTIONARYVAR
  5
6B95
102
{ACAD_REACTORS
330
6B93
102
}
330
6B93
100
DictionaryVariables
280
     0
  1

  0
DICTIONARY
  5
6BE4
330
1F
100
AcDbDictionary
280
     1
281
     1
  3
ACAD_XREC_ROUNDTRIP
360
6BE5
  0
DICTIONARY
  5
6BE6
330
23
100
AcDbDictionary
280
     1
281
     1
  3
ACAD_XREC_ROUNDTRIP
360
6BE7
  0
XRECORD
  5
6BE5
102
{ACAD_REACTORS
330
6BE4
102
}
330
6BE4
100
AcDbXrecord
280
     1
102
SHADEPLOT
 70
     0
102
SHADEPLOTRESLEVEL
 70
     2
102
SHADEPLOTCUSTOMDPI
 70
   300
  0
XRECORD
  5
6BE7
102
{ACAD_REACTORS
330
6BE6
102
}
330
6BE6
100
AcDbXrecord
280
     1
102
SHADEPLOT
 70
     1
102
SHADEPLOTRESLEVEL
 70
     2
102
SHADEPLOTCUSTOMDPI
 70
   300
  0
ENDSEC
  0
EOF
