  0
SECTION
  2
HEADER
  9
$ACADVER
  1
AC1015
  9
$ACADMAINTVER
 70
    20
  9
$DWGCODEPAGE
  3
ANSI_1252
  9
$INSBASE
 10
0.0
 20
0.0
 30
0.0
  9
$EXTMIN
 10
363.0940081334117
 20
52.92989598636165
 30
-0.0000000349181948
  9
$EXTMAX
 10
603.159583319762
 20
382.9674838547361
 30
0.0000000814935747
  9
$LIMMIN
 10
0.0
 20
0.0
  9
$LIMMAX
 10
420.0
 20
297.0
  9
$ORTHOMODE
 70
     1
  9
$REGENMODE
 70
     1
  9
$FILLMODE
 70
     1
  9
$QTEXTMODE
 70
     0
  9
$MIRRTEXT
 70
     0
  9
$LTSCALE
 40
1.0
  9
$ATTMODE
 70
     1
  9
$TEXTSIZE
 40
2.5
  9
$TRACEWID
 40
1.0
  9
$TEXTSTYLE
  7
Standard
  9
$CLAYER
  8
0
  9
$CELTYPE
  6
ByLayer
  9
$CECOLOR
 62
   256
  9
$CELTSCALE
 40
1.0
  9
$DISPSILH
 70
     0
  9
$DIMSCALE
 40
1.0
  9
$DIMASZ
 40
2.5
  9
$DIMEXO
 40
0.625
  9
$DIMDLI
 40
3.75
  9
$DIMRND
 40
0.0
  9
$DIMDLE
 40
0.0
  9
$DIMEXE
 40
1.25
  9
$DIMTP
 40
0.0
  9
$DIMTM
 40
0.0
  9
$DIMTXT
 40
2.5
  9
$DIMCEN
 40
2.5
  9
$DIMTSZ
 40
0.0
  9
$DIMTOL
 70
     0
  9
$DIMLIM
 70
     0
  9
$DIMTIH
 70
     0
  9
$DIMTOH
 70
     0
  9
$DIMSE1
 70
     0
  9
$DIMSE2
 70
     0
  9
$DIMTAD
 70
     1
  9
$DIMZIN
 70
     8
  9
$DIMBLK
  1

  9
$DIMASO
 70
     1
  9
$DIMSHO
 70
     1
  9
$DIMPOST
  1

  9
$DIMAPOST
  1

  9
$DIMALT
 70
     0
  9
$DIMALTD
 70
     3
  9
$DIMALTF
 40
0.03937007874016
  9
$DIMLFAC
 40
1.0
  9
$DIMTOFL
 70
     1
  9
$DIMTVP
 40
0.0
  9
$DIMTIX
 70
     0
  9
$DIMSOXD
 70
     0
  9
$DIMSAH
 70
     0
  9
$DIMBLK1
  1

  9
$DIMBLK2
  1

  9
$DIMSTYLE
  2
ISO-25
  9
$DIMCLRD
 70
     0
  9
$DIMCLRE
 70
     0
  9
$DIMCLRT
 70
     0
  9
$DIMTFAC
 40
1.0
  9
$DIMGAP
 40
0.625
  9
$DIMJUST
 70
     0
  9
$DIMSD1
 70
     0
  9
$DIMSD2
 70
     0
  9
$DIMTOLJ
 70
     0
  9
$DIMTZIN
 70
     8
  9
$DIMALTZ
 70
     0
  9
$DIMALTTZ
 70
     0
  9
$DIMUPT
 70
     0
  9
$DIMDEC
 70
     2
  9
$DIMTDEC
 70
     2
  9
$DIMALTU
 70
     2
  9
$DIMALTTD
 70
     3
  9
$DIMTXSTY
  7
Standard
  9
$DIMAUNIT
 70
     0
  9
$DIMADEC
 70
     0
  9
$DIMALTRND
 40
0.0
  9
$DIMAZIN
 70
     0
  9
$DIMDSEP
 70
    44
  9
$DIMATFIT
 70
     3
  9
$DIMFRAC
 70
     0
  9
$DIMLDRBLK
  1

  9
$DIMLUNIT
 70
     2
  9
$DIMLWD
 70
    -2
  9
$DIMLWE
 70
    -2
  9
$DIMTMOVE
 70
     0
  9
$LUNITS
 70
     2
  9
$LUPREC
 70
     4
  9
$SKETCHINC
 40
1.0
  9
$FILLETRAD
 40
0.0
  9
$AUNITS
 70
     0
  9
$AUPREC
 70
     0
  9
$MENU
  1
.
  9
$ELEVATION
 40
0.0
  9
$PELEVATION
 40
0.0
  9
$THICKNESS
 40
0.0
  9
$LIMCHECK
 70
     0
  9
$CHAMFERA
 40
0.0
  9
$CHAMFERB
 40
0.0
  9
$CHAMFERC
 40
0.0
  9
$CHAMFERD
 40
0.0
  9
$SKPOLY
 70
     0
  9
$TDCREATE
 40
2454322.428141192
  9
$TDUCREATE
 40
2454322.344807859
  9
$TDUPDATE
 40
2454397.532048206
  9
$TDUUPDATE
 40
2454397.448714873
  9
$TDINDWG
 40
0.1916558218
  9
$TDUSRTIMER
 40
0.1916389931
  9
$USRTIMER
 70
     1
  9
$ANGBASE
 50
0.0
  9
$ANGDIR
 70
     0
  9
$PDMODE
 70
     0
  9
$PDSIZE
 40
0.0
  9
$PLINEWID
 40
0.0
  9
$SPLFRAME
 70
     0
  9
$SPLINETYPE
 70
     6
  9
$SPLINESEGS
 70
     8
  9
$HANDSEED
  5
916
  9
$SURFTAB1
 70
     6
  9
$SURFTAB2
 70
     6
  9
$SURFTYPE
 70
     6
  9
$SURFU
 70
     6
  9
$SURFV
 70
     6
  9
$UCSBASE
  2

  9
$UCSNAME
  2

  9
$UCSORG
 10
0.0
 20
0.0
 30
0.0
  9
$UCSXDIR
 10
1.0
 20
0.0
 30
0.0
  9
$UCSYDIR
 10
0.0
 20
1.0
 30
0.0
  9
$UCSORTHOREF
  2

  9
$UCSORTHOVIEW
 70
     0
  9
$UCSORGTOP
 10
0.0
 20
0.0
 30
0.0
  9
$UCSORGBOTTOM
 10
0.0
 20
0.0
 30
0.0
  9
$UCSORGLEFT
 10
0.0
 20
0.0
 30
0.0
  9
$UCSORGRIGHT
 10
0.0
 20
0.0
 30
0.0
  9
$UCSORGFRONT
 10
0.0
 20
0.0
 30
0.0
  9
$UCSORGBACK
 10
0.0
 20
0.0
 30
0.0
  9
$PUCSBASE
  2

  9
$PUCSNAME
  2

  9
$PUCSORG
 10
0.0
 20
0.0
 30
0.0
  9
$PUCSXDIR
 10
1.0
 20
0.0
 30
0.0
  9
$PUCSYDIR
 10
0.0
 20
1.0
 30
0.0
  9
$PUCSORTHOREF
  2

  9
$PUCSORTHOVIEW
 70
     0
  9
$PUCSORGTOP
 10
0.0
 20
0.0
 30
0.0
  9
$PUCSORGBOTTOM
 10
0.0
 20
0.0
 30
0.0
  9
$PUCSORGLEFT
 10
0.0
 20
0.0
 30
0.0
  9
$PUCSORGRIGHT
 10
0.0
 20
0.0
 30
0.0
  9
$PUCSORGFRONT
 10
0.0
 20
0.0
 30
0.0
  9
$PUCSORGBACK
 10
0.0
 20
0.0
 30
0.0
  9
$USERI1
 70
     0
  9
$USERI2
 70
     0
  9
$USERI3
 70
     0
  9
$USERI4
 70
     0
  9
$USERI5
 70
     0
  9
$USERR1
 40
0.0
  9
$USERR2
 40
0.0
  9
$USERR3
 40
0.0
  9
$USERR4
 40
0.0
  9
$USERR5
 40
0.0
  9
$WORLDVIEW
 70
     1
  9
$SHADEDGE
 70
     3
  9
$SHADEDIF
 70
    70
  9
$TILEMODE
 70
     1
  9
$MAXACTVP
 70
    64
  9
$PINSBASE
 10
0.0
 20
0.0
 30
0.0
  9
$PLIMCHECK
 70
     0
  9
$PEXTMIN
 10
1.000000000000000E+20
 20
1.000000000000000E+20
 30
1.000000000000000E+20
  9
$PEXTMAX
 10
-1.000000000000000E+20
 20
-1.000000000000000E+20
 30
-1.000000000000000E+20
  9
$PLIMMIN
 10
0.0
 20
0.0
  9
$PLIMMAX
 10
420.0
 20
297.0
  9
$UNITMODE
 70
     0
  9
$VISRETAIN
 70
     1
  9
$PLINEGEN
 70
     0
  9
$PSLTSCALE
 70
     1
  9
$TREEDEPTH
 70
  3020
  9
$CMLSTYLE
  2
Standard
  9
$CMLJUST
 70
     0
  9
$CMLSCALE
 40
20.0
  9
$PROXYGRAPHICS
 70
     1
  9
$MEASUREMENT
 70
     1
  9
$CELWEIGHT
370
    -1
  9
$ENDCAPS
280
     0
  9
$JOINSTYLE
280
     0
  9
$LWDISPLAY
290
     1
  9
$INSUNITS
 70
     4
  9
$HYPERLINKBASE
  1

  9
$STYLESHEET
  1

  9
$XEDIT
290
     1
  9
$CEPSNTYPE
380
     0
  9
$PSTYLEMODE
290
     1
  9
$FINGERPRINTGUID
  2
{37E38F6E-7757-49A1-B576-75468D620E64}
  9
$VERSIONGUID
  2
{C99409CA-F42A-47B5-977F-F2C20EA7C611}
  9
$EXTNAMES
290
     1
  9
$PSVPSCALE
 40
0.0
  9
$OLESTARTUP
290
     0
  0
ENDSEC
  0
SECTION
  2
CLASSES
  0
CLASS
  1
ACDBDICTIONARYWDFLT
  2
AcDbDictionaryWithDefault
  3
ObjectDBX Classes
 90
        0
280
     0
281
     0
  0
CLASS
  1
MATERIAL
  2
AcDbMaterial
  3
ObjectDBX Classes
 90
     1153
280
     0
281
     0
  0
CLASS
  1
VISUALSTYLE
  2
AcDbVisualStyle
  3
ObjectDBX Classes
 90
     4095
280
     0
281
     0
  0
CLASS
  1
TABLESTYLE
  2
AcDbTableStyle
  3
ObjectDBX Classes
 90
     4095
280
     0
281
     0
  0
CLASS
  1
SORTENTSTABLE
  2
AcDbSortentsTable
  3
ObjectDBX Classes
 90
        0
280
     0
281
     0
  0
CLASS
  1
DICTIONARYVAR
  2
AcDbDictionaryVar
  3
ObjectDBX Classes
 90
        0
280
     0
281
     0
  0
CLASS
  1
ACDBPLACEHOLDER
  2
AcDbPlaceHolder
  3
ObjectDBX Classes
 90
        0
280
     0
281
     0
  0
CLASS
  1
LAYOUT
  2
AcDbLayout
  3
ObjectDBX Classes
 90
        0
280
     0
281
     0
  0
ENDSEC
  0
SECTION
  2
TABLES
  0
TABLE
  2
VPORT
  5
8
330
0
100
AcDbSymbolTable
 70
     1
  0
VPORT
  5
28
330
8
100
AcDbSymbolTableRecord
100
AcDbViewportTableRecord
  2
*Active
 70
     0
 10
0.0
 20
0.0
 11
1.0
 21
1.0
 12
483.1267957265868
 22
217.9486899205489
 13
0.0
 23
0.0
 14
10.0
 24
10.0
 15
10.0
 25
10.0
 16
0.0
 26
0.0
 36
1.0
 17
0.0
 27
0.0
 37
0.0
 40
332.1886445075596
 41
1.652034261241969
 42
50.0
 43
0.0
 44
0.0
 50
0.0
 51
0.0
 71
     0
 72
  1000
 73
     1
 74
     3
 75
     0
 76
     0
 77
     0
 78
     0
281
     0
 65
     1
110
0.0
120
0.0
130
0.0
111
1.0
121
0.0
131
0.0
112
0.0
122
1.0
132
0.0
 79
     0
146
0.0
  0
ENDTAB
  0
TABLE
  2
LTYPE
  5
5
330
0
100
AcDbSymbolTable
 70
     5
  0
LTYPE
  5
29
330
5
100
AcDbSymbolTableRecord
100
AcDbLinetypeTableRecord
  2
ByBlock
 70
     0
  3

 72
    65
 73
     0
 40
0.0
  0
LTYPE
  5
2A
330
5
100
AcDbSymbolTableRecord
100
AcDbLinetypeTableRecord
  2
ByLayer
 70
     0
  3

 72
    65
 73
     0
 40
0.0
  0
LTYPE
  5
2B
330
5
100
AcDbSymbolTableRecord
100
AcDbLinetypeTableRecord
  2
Continuous
 70
     0
  3
Solid line
 72
    65
 73
     0
 40
0.0
  0
LTYPE
  5
27B
330
5
100
AcDbSymbolTableRecord
100
AcDbLinetypeTableRecord
  2
CENTER
 70
     0
  3
____ _ ____ _ ____ _ ____ _ ____ _ ____ _ ____
 72
    65
 73
     4
 40
0.6
 49
0.375
 74
     0
 49
-0.075
 74
     0
 49
0.075
 74
     0
 49
-0.075
 74
     0
  0
LTYPE
  5
27C
330
5
100
AcDbSymbolTableRecord
100
AcDbLinetypeTableRecord
  2
AM_DIN_G_W050
 70
     0
  3
____ . ____ . ____ . ____ . ____ . ____ . ____
 72
    65
 73
     4
 40
13.75
 49
9.75
 74
     0
 49
-1.5
 74
     0
 49
1.0
 74
     0
 49
-1.5
 74
     0
  0
LTYPE
  5
27D
330
5
100
AcDbSymbolTableRecord
100
AcDbLinetypeTableRecord
  2
AM_DIN_K_W050
 70
     0
  3
_____ . . _____ . . _____ . . ____ .. ____
 72
    65
 73
     6
 40
16.25
 49
9.75
 74
     0
 49
-1.5
 74
     0
 49
1.0
 74
     0
 49
-1.5
 74
     0
 49
1.0
 74
     0
 49
-1.5
 74
     0
  0
ENDTAB
  0
TABLE
  2
LAYER
  5
2
330
0
100
AcDbSymbolTable
 70
    16
  0
LAYER
  5
25
330
2
100
AcDbSymbolTableRecord
100
AcDbLayerTableRecord
  2
0
 70
     0
 62
     7
  6
Continuous
370
    -3
390
F
  0
LAYER
  5
27E
330
2
100
AcDbSymbolTableRecord
100
AcDbLayerTableRecord
  2
90000_FRAME
 70
     0
 62
     7
  6
Continuous
370
    -3
390
F
  0
LAYER
  5
27F
330
2
100
AcDbSymbolTableRecord
100
AcDbLayerTableRecord
  2
91000_TIP
 70
     0
 62
     7
  6
Continuous
370
    -3
390
F
  0
LAYER
  5
280
330
2
100
AcDbSymbolTableRecord
100
AcDbLayerTableRecord
  2
10000_FRONT
 70
     0
 62
     7
  6
Continuous
370
    -3
390
F
  0
LAYER
  5
281
330
2
100
AcDbSymbolTableRecord
100
AcDbLayerTableRecord
  2
11000_LEFT
 70
     0
 62
     7
  6
Continuous
370
    -3
390
F
  0
LAYER
  5
282
330
2
100
AcDbSymbolTableRecord
100
AcDbLayerTableRecord
  2
DEFPOINTS
 70
     0
 62
     7
  6
Continuous
290
     0
370
    -3
390
F
  0
LAYER
  5
283
330
2
100
AcDbSymbolTableRecord
100
AcDbLayerTableRecord
  2
10100_FRONT_DIM
 70
     0
 62
     7
  6
Continuous
370
    -3
390
F
  0
LAYER
  5
284
330
2
100
AcDbSymbolTableRecord
100
AcDbLayerTableRecord
  2
11100_LEFT_DIM
 70
     0
 62
     7
  6
Continuous
370
    -3
390
F
  0
LAYER
  5
285
330
2
100
AcDbSymbolTableRecord
100
AcDbLayerTableRecord
  2
10200_FRONT_SYM
 70
     0
 62
     7
  6
CENTER
370
    13
390
F
1001
AcAecLayerStandard
1000

1000

  0
LAYER
  5
286
330
2
100
AcDbSymbolTableRecord
100
AcDbLayerTableRecord
  2
11200_LEFT_SYM
 70
     0
 62
     7
  6
CENTER
370
    13
390
F
1001
AcAecLayerStandard
1000

1000

  0
LAYER
  5
287
330
2
100
AcDbSymbolTableRecord
100
AcDbLayerTableRecord
  2
92000_TITLE
 70
     0
 62
     7
  6
Continuous
370
    13
390
F
  0
LAYER
  5
288
330
2
100
AcDbSymbolTableRecord
100
AcDbLayerTableRecord
  2
90100_FRAME_THICK
 70
     0
 62
     7
  6
Continuous
370
    50
390
F
  0
LAYER
  5
289
330
2
100
AcDbSymbolTableRecord
100
AcDbLayerTableRecord
  2
90000_FRAME_THIN
 70
     0
 62
     7
  6
Continuous
370
    13
390
F
  0
LAYER
  5
28A
330
2
100
AcDbSymbolTableRecord
100
AcDbLayerTableRecord
  2
90200_FRAME_SIZE
 70
     0
 62
     3
  6
AM_DIN_K_W050
370
    13
390
F
  0
LAYER
  5
28B
330
2
100
AcDbSymbolTableRecord
100
AcDbLayerTableRecord
  2
91100_TIP_SYM
 70
     0
 62
     7
  6
AM_DIN_G_W050
370
    25
390
F
  0
LAYER
  5
28C
330
2
100
AcDbSymbolTableRecord
100
AcDbLayerTableRecord
  2
91200_TIP_SYMB
 70
     0
 62
     7
  6
Continuous
370
    -3
390
F
  0
ENDTAB
  0
TABLE
  2
STYLE
  5
3
330
0
100
AcDbSymbolTable
 70
     2
  0
STYLE
  5
26
330
3
100
AcDbSymbolTableRecord
100
AcDbTextStyleTableRecord
  2
Standard
 70
     0
 40
0.0
 41
1.0
 50
0.0
 71
     0
 42
2.5
  3
txt
  4

  0
STYLE
  5
141
330
3
100
AcDbSymbolTableRecord
100
AcDbTextStyleTableRecord
  2
TXT
 70
     0
 40
0.0
 41
1.0
 50
0.0
 71
     0
 42
0.0
  3
txt
  4

  0
ENDTAB
  0
TABLE
  2
VIEW
  5
6
330
0
100
AcDbSymbolTable
 70
     0
  0
ENDTAB
  0
TABLE
  2
UCS
  5
7
330
0
100
AcDbSymbolTable
 70
     0
  0
ENDTAB
  0
TABLE
  2
APPID
  5
9
330
0
100
AcDbSymbolTable
 70
     9
  0
APPID
  5
27
330
9
100
AcDbSymbolTableRecord
100
AcDbRegAppTableRecord
  2
ACAD
 70
     0
  0
APPID
  5
43
330
9
100
AcDbSymbolTableRecord
100
AcDbRegAppTableRecord
  2
DCO15
 70
     0
  0
APPID
  5
28E
330
9
100
AcDbSymbolTableRecord
100
AcDbRegAppTableRecord
  2
AcAecLayerStandard
 70
     0
  0
APPID
  5
28F
330
9
100
AcDbSymbolTableRecord
100
AcDbRegAppTableRecord
  2
GENIUS_GENREC_14
 70
     0
  0
APPID
  5
290
330
9
100
AcDbSymbolTableRecord
100
AcDbRegAppTableRecord
  2
GENIUS_GENODEF_13
 70
     0
  0
APPID
  5
291
330
9
100
AcDbSymbolTableRecord
100
AcDbRegAppTableRecord
  2
GENIUS_GENOBJ-N-REC_13
 70
     0
  0
APPID
  5
292
330
9
100
AcDbSymbolTableRecord
100
AcDbRegAppTableRecord
  2
ACAD_PSEXT
 70
     0
  0
APPID
  5
490
330
9
100
AcDbSymbolTableRecord
100
AcDbRegAppTableRecord
  2
ACAD_EXEMPT_FROM_CAD_STANDARDS
 70
     0
  0
APPID
  5
664
330
9
100
AcDbSymbolTableRecord
100
AcDbRegAppTableRecord
  2
ACAD_DSTYLE_DIMJOGGED_JOGANGLE_SYMBOL
 70
     0
  0
ENDTAB
  0
TABLE
  2
DIMSTYLE
  5
A
330
0
100
AcDbSymbolTable
 70
     4
100
AcDbDimStyleTable
 71
     1
340
3F
  0
DIMSTYLE
105
3F
330
A
100
AcDbSymbolTableRecord
100
AcDbDimStyleTableRecord
  2
ISO-25
 70
     0
 41
2.5
 42
0.625
 43
3.75
 44
1.25
 73
     0
 74
     0
 77
     1
 78
     8
140
2.5
141
2.5
143
0.03937007874016
147
0.625
171
     3
172
     1
271
     2
272
     2
274
     3
278
    44
283
     0
284
     8
340
26
1001
ACAD_DSTYLE_DIMJOGGED_JOGANGLE_SYMBOL
1070
   384
1040
1.570796326794896
  0
DIMSTYLE
105
42
330
A
100
AcDbSymbolTableRecord
100
AcDbDimStyleTableRecord
  2
STANDARD
 70
     0
279
     2
340
26
  0
DIMSTYLE
105
28D
102
{ACAD_REACTORS
330
2E0
330
2E3
330
2E4
330
2E5
330
2E6
330
2E7
330
2E1
330
2E2
330
2FA
330
354
330
479
330
4A9
330
4AA
330
4AB
330
563
330
596
330
597
330
598
330
5EE
102
}
330
A
100
AcDbSymbolTableRecord
100
AcDbDimStyleTableRecord
  2
H035
 70
     0
 40
0.0
 41
3.5
 42
0.0
 43
3.75
 44
2.0
 73
     0
 74
     0
 77
     1
 78
     8
140
3.5
141
2.5
143
0.039
147
0.5
171
     4
172
     1
176
   256
177
     7
178
     7
340
26
  0
ENDTAB
  0
TABLE
  2
BLOCK_RECORD
  5
1
330
0
100
AcDbSymbolTable
 70
    83
  0
BLOCK_RECORD
  5
37
330
1
100
AcDbSymbolTableRecord
100
AcDbBlockTableRecord
  2
*Model_Space
340
3A
  0
BLOCK_RECORD
  5
33
330
1
100
AcDbSymbolTableRecord
100
AcDbBlockTableRecord
  2
*Paper_Space
340
36
  0
BLOCK_RECORD
  5
3B
330
1
100
AcDbSymbolTableRecord
100
AcDbBlockTableRecord
  2
*Paper_Space0
340
3E
  0
BLOCK_RECORD
  5
AA
330
1
100
AcDbSymbolTableRecord
100
AcDbBlockTableRecord
  2
B11414687909082007_0000000
340
0
  0
BLOCK_RECORD
  5
B1
330
1
100
AcDbSymbolTableRecord
100
AcDbBlockTableRecord
  2
B11414687909082007_0000001
340
0
102
{BLKREFS
331
AE
102
}
  0
BLOCK_RECORD
  5
B8
330
1
100
AcDbSymbolTableRecord
100
AcDbBlockTableRecord
  2
B11414687909082007_0000002
340
0
102
{BLKREFS
331
B3
102
}
  0
BLOCK_RECORD
  5
BE
330
1
100
AcDbSymbolTableRecord
100
AcDbBlockTableRecord
  2
B11414687909082007_0000003
340
0
102
{BLKREFS
331
B4
102
}
  0
BLOCK_RECORD
  5
C4
330
1
100
AcDbSymbolTableRecord
100
AcDbBlockTableRecord
  2
B11414687909082007_0000004
340
0
102
{BLKREFS
331
B5
102
}
  0
BLOCK_RECORD
  5
C8
330
1
100
AcDbSymbolTableRecord
100
AcDbBlockTableRecord
  2
B11414687909082007_0000005
340
0
  0
BLOCK_RECORD
  5
CF
330
1
100
AcDbSymbolTableRecord
100
AcDbBlockTableRecord
  2
B11414687909082007_0000006
340
0
102
{BLKREFS
331
CC
102
}
  0
BLOCK_RECORD
  5
D6
330
1
100
AcDbSymbolTableRecord
100
AcDbBlockTableRecord
  2
B11414687909082007_0000007
340
0
102
{BLKREFS
331
D1
102
}
  0
BLOCK_RECORD
  5
DC
330
1
100
AcDbSymbolTableRecord
100
AcDbBlockTableRecord
  2
B11414687909082007_0000008
340
0
102
{BLKREFS
331
D2
102
}
  0
BLOCK_RECORD
  5
E2
330
1
100
AcDbSymbolTableRecord
100
AcDbBlockTableRecord
  2
B11414687909082007_0000009
340
0
102
{BLKREFS
331
D3
102
}
  0
BLOCK_RECORD
  5
E6
330
1
100
AcDbSymbolTableRecord
100
AcDbBlockTableRecord
  2
B11414687909082007_0000010
340
0
  0
BLOCK_RECORD
  5
EE
330
1
100
AcDbSymbolTableRecord
100
AcDbBlockTableRecord
  2
B11414687909082007_0000011
340
0
102
{BLKREFS
331
EB
102
}
  0
BLOCK_RECORD
  5
F5
330
1
100
AcDbSymbolTableRecord
100
AcDbBlockTableRecord
  2
B11414687909082007_0000012
340
0
102
{BLKREFS
331
F0
102
}
  0
BLOCK_RECORD
  5
FB
330
1
100
AcDbSymbolTableRecord
100
AcDbBlockTableRecord
  2
B11414687909082007_0000013
340
0
102
{BLKREFS
331
F1
102
}
  0
BLOCK_RECORD
  5
101
330
1
100
AcDbSymbolTableRecord
100
AcDbBlockTableRecord
  2
B11414687909082007_0000014
340
0
102
{BLKREFS
331
F2
102
}
  0
BLOCK_RECORD
  5
105
330
1
100
AcDbSymbolTableRecord
100
AcDbBlockTableRecord
  2
B11414687909082007_0000015
340
0
  0
BLOCK_RECORD
  5
10C
330
1
100
AcDbSymbolTableRecord
100
AcDbBlockTableRecord
  2
B11414687909082007_0000016
340
0
102
{BLKREFS
331
109
102
}
  0
BLOCK_RECORD
  5
113
330
1
100
AcDbSymbolTableRecord
100
AcDbBlockTableRecord
  2
B11414687909082007_0000017
340
0
102
{BLKREFS
331
10E
102
}
  0
BLOCK_RECORD
  5
119
330
1
100
AcDbSymbolTableRecord
100
AcDbBlockTableRecord
  2
B11414687909082007_0000018
340
0
102
{BLKREFS
331
10F
102
}
  0
BLOCK_RECORD
  5
11F
330
1
100
AcDbSymbolTableRecord
100
AcDbBlockTableRecord
  2
B11414687909082007_0000019
340
0
102
{BLKREFS
331
110
102
}
  0
BLOCK_RECORD
  5
123
330
1
100
AcDbSymbolTableRecord
100
AcDbBlockTableRecord
  2
B11414687909082007_0000020
340
0
  0
BLOCK_RECORD
  5
12A
330
1
100
AcDbSymbolTableRecord
100
AcDbBlockTableRecord
  2
B11414687909082007_0000021
340
0
102
{BLKREFS
331
127
102
}
  0
BLOCK_RECORD
  5
131
330
1
100
AcDbSymbolTableRecord
100
AcDbBlockTableRecord
  2
B11414687909082007_0000022
340
0
102
{BLKREFS
331
12C
102
}
  0
BLOCK_RECORD
  5
137
330
1
100
AcDbSymbolTableRecord
100
AcDbBlockTableRecord
  2
B11414687909082007_0000023
340
0
102
{BLKREFS
331
12D
102
}
  0
BLOCK_RECORD
  5
13D
330
1
100
AcDbSymbolTableRecord
100
AcDbBlockTableRecord
  2
B11414687909082007_0000024
340
0
102
{BLKREFS
331
12E
102
}
  0
BLOCK_RECORD
  5
1F0
330
1
100
AcDbSymbolTableRecord
100
AcDbBlockTableRecord
  2
*D26
340
0
  0
BLOCK_RECORD
  5
1FC
330
1
100
AcDbSymbolTableRecord
100
AcDbBlockTableRecord
  2
*D27
340
0
  0
BLOCK_RECORD
  5
208
330
1
100
AcDbSymbolTableRecord
100
AcDbBlockTableRecord
  2
*D28
340
0
  0
BLOCK_RECORD
  5
214
330
1
100
AcDbSymbolTableRecord
100
AcDbBlockTableRecord
  2
*D29
340
0
  0
BLOCK_RECORD
  5
220
330
1
100
AcDbSymbolTableRecord
100
AcDbBlockTableRecord
  2
*D30
340
0
  0
BLOCK_RECORD
  5
22E
330
1
100
AcDbSymbolTableRecord
100
AcDbBlockTableRecord
  2
*D31
340
0
  0
BLOCK_RECORD
  5
23A
330
1
100
AcDbSymbolTableRecord
100
AcDbBlockTableRecord
  2
*D32
340
0
  0
BLOCK_RECORD
  5
246
330
1
100
AcDbSymbolTableRecord
100
AcDbBlockTableRecord
  2
*D33
340
0
  0
BLOCK_RECORD
  5
252
330
1
100
AcDbSymbolTableRecord
100
AcDbBlockTableRecord
  2
Title_A4P
340
0
310
2800000020000000200000000100080000000000000400000000000000000000000000000000000000000000000080000080000000808000800000008000800080800000C0C0C000C0DCC000F0CAA6000020400000206000002080000020A0000020C0000020E00000400000004020000040400000406000004080000040A0
310
000040C0000040E00000600000006020000060400000606000006080000060A0000060C0000060E00000800000008020000080400000806000008080000080A0000080C0000080E00000A0000000A0200000A0400000A0600000A0800000A0A00000A0C00000A0E00000C0000000C0200000C0400000C0600000C0800000C0
310
A00000C0C00000C0E00000E0000000E0200000E0400000E0600000E0800000E0A00000E0C00000E0E00040000000400020004000400040006000400080004000A0004000C0004000E00040200000402020004020400040206000402080004020A0004020C0004020E000404000004040200040404000404060004040800040
310
40A0004040C0004040E00040600000406020004060400040606000406080004060A0004060C0004060E00040800000408020004080400040806000408080004080A0004080C0004080E00040A0000040A0200040A0400040A0600040A0800040A0A00040A0C00040A0E00040C0000040C0200040C0400040C0600040C08000
310
40C0A00040C0C00040C0E00040E0000040E0200040E0400040E0600040E0800040E0A00040E0C00040E0E00080000000800020008000400080006000800080008000A0008000C0008000E00080200000802020008020400080206000802080008020A0008020C0008020E00080400000804020008040400080406000804080
310
008040A0008040C0008040E00080600000806020008060400080606000806080008060A0008060C0008060E00080800000808020008080400080806000808080008080A0008080C0008080E00080A0000080A0200080A0400080A0600080A0800080A0A00080A0C00080A0E00080C0000080C0200080C0400080C0600080C0
310
800080C0A00080C0C00080C0E00080E0000080E0200080E0400080E0600080E0800080E0A00080E0C00080E0E000C0000000C0002000C0004000C0006000C0008000C000A000C000C000C000E000C0200000C0202000C0204000C0206000C0208000C020A000C020C000C020E000C0400000C0402000C0404000C0406000C0
310
408000C040A000C040C000C040E000C0600000C0602000C0604000C0606000C0608000C060A000C060C000C060E000C0800000C0802000C0804000C0806000C0808000C080A000C080C000C080E000C0A00000C0A02000C0A04000C0A06000C0A08000C0A0A000C0A0C000C0A0E000C0C00000C0C02000C0C04000C0C06000
310
C0C08000C0C0A000F0FBFF00A4A0A000808080000000FF0000FF000000FFFF00FF000000FF00FF00FFFF0000FFFFFF0000000000000000000000000000000000000000000000000000000000000000000000000000000000000000000000000000000000000000000000000000000000000000000000000000000000000000
310
00000000000000000000000000000000000000000000000000000000000000000000000000000000000000000000000000000000000000000000000000000000000000000000000000000000000000000000000000000000000000000000000000000000000000000000000000000000000000000000000000000000000000
310
00000000000000000000000000000000000000000000000000000000000000000000000000000000000000000000000000000000000000000000000000000000000000000000000000000000000000000000000000000000000000000000000000000000000000000000000000000000000000000000000000000000000000
310
000000000000000000000000000000000000000000000000000000000000000000000000000000000000000000000000000000000000000000000000000000000000000000000000000000000000000000000000000000000000FFFFFFFFFFFFFFFFFFFFFFFFFFFFFFFFFFFFFFFFFFFFFFFF000000FFFFFFFFFFFFFFFFFFFF
310
FFFFFFFFFFFFFFFFFFFFFFFFFFFFFFFFFFFFFF0000FFFFFFFFFFFFFFFFFFFFFFFFFFFFFF00000000FFFFFFFFFFFFFF000000FF00000000FFFFFF00FFFFFFFFFFFFFFFFFFFFFFFFFFFFFFFFFFFFFFFFFFFFFFFF0000000000000000FFFFFFFFFFFFFFFFFFFFFFFFFFFFFFFF00000000000000000000000000000000FFFFFF00
310
0000FFFFFFFFFFFFFF00FF0000000000000000000000000000000000000000000000000000000000000000000000000000000000000000000000000000000000000000000000000000000000000000000000000000000000000000000000000000000000000000000000000000000000000000000000000000000000000000
310
00000000000000000000000000000000000000000000000000000000000000000000000000000000000000000000000000000000000000000000000000000000000000000000000000000000000000000000000000000000000000000000000000000000000000000000000000000000000000000000000000000000000000
310
00000000000000000000000000000000000000000000000000000000000000000000000000000000000000000000000000000000000000000000000000000000000000000000000000000000000000000000000000000000000000000000000000000000000000000000000000000000000000000000000000000000000000
310
0000000000000000000000000000000000000000000000000000000000000000000000000000000000000000000000000000000000000000
102
{BLKREFS
331
2F2
331
35F
102
}
1001
ACAD
1000
DesignCenter Data
1002
{
1070
     1
1070
     4
1002
}
  0
BLOCK_RECORD
  5
270
330
1
100
AcDbSymbolTableRecord
100
AcDbBlockTableRecord
  2
*D35
340
0
  0
BLOCK_RECORD
  5
293
102
{ACAD_XDICTIONARY
360
2FB
102
}
330
1
100
AcDbSymbolTableRecord
100
AcDbBlockTableRecord
  2
A$C08834A8C
340
0
  0
BLOCK_RECORD
  5
368
330
1
100
AcDbSymbolTableRecord
100
AcDbBlockTableRecord
  2
*D37
340
0
  0
BLOCK_RECORD
  5
374
330
1
100
AcDbSymbolTableRecord
100
AcDbBlockTableRecord
  2
*D38
340
0
  0
BLOCK_RECORD
  5
380
330
1
100
AcDbSymbolTableRecord
100
AcDbBlockTableRecord
  2
*D39
340
0
  0
BLOCK_RECORD
  5
38C
330
1
100
AcDbSymbolTableRecord
100
AcDbBlockTableRecord
  2
*D40
340
0
  0
BLOCK_RECORD
  5
398
330
1
100
AcDbSymbolTableRecord
100
AcDbBlockTableRecord
  2
*D41
340
0
  0
BLOCK_RECORD
  5
3A6
330
1
100
AcDbSymbolTableRecord
100
AcDbBlockTableRecord
  2
*D42
340
0
  0
BLOCK_RECORD
  5
3B2
330
1
100
AcDbSymbolTableRecord
100
AcDbBlockTableRecord
  2
*D43
340
0
  0
BLOCK_RECORD
  5
3BE
330
1
100
AcDbSymbolTableRecord
100
AcDbBlockTableRecord
  2
*D44
340
0
  0
BLOCK_RECORD
  5
3CA
330
1
100
AcDbSymbolTableRecord
100
AcDbBlockTableRecord
  2
*D45
340
0
  0
BLOCK_RECORD
  5
47A
330
1
100
AcDbSymbolTableRecord
100
AcDbBlockTableRecord
  2
*D46
340
0
  0
BLOCK_RECORD
  5
4AC
330
1
100
AcDbSymbolTableRecord
100
AcDbBlockTableRecord
  2
*D47
340
0
  0
BLOCK_RECORD
  5
4B8
330
1
100
AcDbSymbolTableRecord
100
AcDbBlockTableRecord
  2
*D48
340
0
  0
BLOCK_RECORD
  5
4C4
330
1
100
AcDbSymbolTableRecord
100
AcDbBlockTableRecord
  2
*D49
340
0
  0
BLOCK_RECORD
  5
564
330
1
100
AcDbSymbolTableRecord
100
AcDbBlockTableRecord
  2
*D50
340
0
  0
BLOCK_RECORD
  5
599
330
1
100
AcDbSymbolTableRecord
100
AcDbBlockTableRecord
  2
*D51
340
0
  0
BLOCK_RECORD
  5
5A7
330
1
100
AcDbSymbolTableRecord
100
AcDbBlockTableRecord
  2
*D52
340
0
  0
BLOCK_RECORD
  5
5B3
330
1
100
AcDbSymbolTableRecord
100
AcDbBlockTableRecord
  2
*D53
340
0
  0
BLOCK_RECORD
  5
5EF
330
1
100
AcDbSymbolTableRecord
100
AcDbBlockTableRecord
  2
*D54
340
0
  0
BLOCK_RECORD
  5
66A
330
1
100
AcDbSymbolTableRecord
100
AcDbBlockTableRecord
  2
B08543708023102007_0000000
340
0
102
{BLKREFS
331
754
102
}
  0
BLOCK_RECORD
  5
671
330
1
100
AcDbSymbolTableRecord
100
AcDbBlockTableRecord
  2
B08543708023102007_0000001
340
0
102
{BLKREFS
331
66E
102
}
  0
BLOCK_RECORD
  5
678
330
1
100
AcDbSymbolTableRecord
100
AcDbBlockTableRecord
  2
B08543708023102007_0000002
340
0
102
{BLKREFS
331
673
102
}
  0
BLOCK_RECORD
  5
67E
330
1
100
AcDbSymbolTableRecord
100
AcDbBlockTableRecord
  2
B08543708023102007_0000003
340
0
102
{BLKREFS
331
674
102
}
  0
BLOCK_RECORD
  5
684
330
1
100
AcDbSymbolTableRecord
100
AcDbBlockTableRecord
  2
B08543708023102007_0000004
340
0
102
{BLKREFS
331
675
102
}
  0
BLOCK_RECORD
  5
688
330
1
100
AcDbSymbolTableRecord
100
AcDbBlockTableRecord
  2
B08543708023102007_0000005
340
0
102
{BLKREFS
331
755
102
}
  0
BLOCK_RECORD
  5
68F
330
1
100
AcDbSymbolTableRecord
100
AcDbBlockTableRecord
  2
B08543708023102007_0000006
340
0
102
{BLKREFS
331
68C
102
}
  0
BLOCK_RECORD
  5
696
330
1
100
AcDbSymbolTableRecord
100
AcDbBlockTableRecord
  2
B08543708023102007_0000007
340
0
102
{BLKREFS
331
691
102
}
  0
BLOCK_RECORD
  5
69C
330
1
100
AcDbSymbolTableRecord
100
AcDbBlockTableRecord
  2
B08543708023102007_0000008
340
0
102
{BLKREFS
331
692
102
}
  0
BLOCK_RECORD
  5
6A2
330
1
100
AcDbSymbolTableRecord
100
AcDbBlockTableRecord
  2
B08543708023102007_0000009
340
0
102
{BLKREFS
331
693
102
}
  0
BLOCK_RECORD
  5
6A6
330
1
100
AcDbSymbolTableRecord
100
AcDbBlockTableRecord
  2
B08543708023102007_0000010
340
0
102
{BLKREFS
331
756
102
}
  0
BLOCK_RECORD
  5
6AE
330
1
100
AcDbSymbolTableRecord
100
AcDbBlockTableRecord
  2
B08543708023102007_0000011
340
0
102
{BLKREFS
331
6AB
102
}
  0
BLOCK_RECORD
  5
6B5
330
1
100
AcDbSymbolTableRecord
100
AcDbBlockTableRecord
  2
B08543708023102007_0000012
340
0
102
{BLKREFS
331
6B0
102
}
  0
BLOCK_RECORD
  5
6BB
330
1
100
AcDbSymbolTableRecord
100
AcDbBlockTableRecord
  2
B08543708023102007_0000013
340
0
102
{BLKREFS
331
6B1
102
}
  0
BLOCK_RECORD
  5
6C1
330
1
100
AcDbSymbolTableRecord
100
AcDbBlockTableRecord
  2
B08543709623102007_0000014
340
0
102
{BLKREFS
331
6B2
102
}
  0
BLOCK_RECORD
  5
6C5
330
1
100
AcDbSymbolTableRecord
100
AcDbBlockTableRecord
  2
B08543709623102007_0000015
340
0
102
{BLKREFS
331
757
102
}
  0
BLOCK_RECORD
  5
6CC
330
1
100
AcDbSymbolTableRecord
100
AcDbBlockTableRecord
  2
B08543709623102007_0000016
340
0
102
{BLKREFS
331
6C9
102
}
  0
BLOCK_RECORD
  5
6D3
330
1
100
AcDbSymbolTableRecord
100
AcDbBlockTableRecord
  2
B08543709623102007_0000017
340
0
102
{BLKREFS
331
6CE
102
}
  0
BLOCK_RECORD
  5
6D9
330
1
100
AcDbSymbolTableRecord
100
AcDbBlockTableRecord
  2
B08543709623102007_0000018
340
0
102
{BLKREFS
331
6CF
102
}
  0
BLOCK_RECORD
  5
6DF
330
1
100
AcDbSymbolTableRecord
100
AcDbBlockTableRecord
  2
B08543709623102007_0000019
340
0
102
{BLKREFS
331
6D0
102
}
  0
BLOCK_RECORD
  5
6E3
330
1
100
AcDbSymbolTableRecord
100
AcDbBlockTableRecord
  2
B08543709623102007_0000020
340
0
102
{BLKREFS
331
758
102
}
  0
BLOCK_RECORD
  5
6EA
330
1
100
AcDbSymbolTableRecord
100
AcDbBlockTableRecord
  2
B08543709623102007_0000021
340
0
102
{BLKREFS
331
6E7
102
}
  0
BLOCK_RECORD
  5
6F1
330
1
100
AcDbSymbolTableRecord
100
AcDbBlockTableRecord
  2
B08543709623102007_0000022
340
0
102
{BLKREFS
331
6EC
102
}
  0
BLOCK_RECORD
  5
6F7
330
1
100
AcDbSymbolTableRecord
100
AcDbBlockTableRecord
  2
B08543709623102007_0000023
340
0
102
{BLKREFS
331
6ED
102
}
  0
BLOCK_RECORD
  5
6FD
330
1
100
AcDbSymbolTableRecord
100
AcDbBlockTableRecord
  2
B08543709623102007_0000024
340
0
102
{BLKREFS
331
6EE
102
}
  0
BLOCK_RECORD
  5
701
330
1
100
AcDbSymbolTableRecord
100
AcDbBlockTableRecord
  2
A$C293953F1
340
0
  0
ENDTAB
  0
ENDSEC
  0
SECTION
  2
BLOCKS
  0
BLOCK
  5
38
330
37
100
AcDbEntity
  8
0
100
AcDbBlockBegin
  2
*Model_Space
 70
     0
 10
0.0
 20
0.0
 30
0.0
  3
*Model_Space
  1

  0
ENDBLK
  5
39
330
37
100
AcDbEntity
  8
0
100
AcDbBlockEnd
  0
BLOCK
  5
34
330
33
100
AcDbEntity
 67
     1
  8
0
100
AcDbBlockBegin
  2
*Paper_Space
 70
     0
 10
0.0
 20
0.0
 30
0.0
  3
*Paper_Space
  1

  0
ENDBLK
  5
35
330
33
100
AcDbEntity
 67
     1
  8
0
100
AcDbBlockEnd
  0
BLOCK
  5
3C
330
3B
100
AcDbEntity
 67
     1
  8
0
100
AcDbBlockBegin
  2
*Paper_Space0
 70
     0
 10
0.0
 20
0.0
 30
0.0
  3
*Paper_Space0
  1

  0
ENDBLK
  5
3D
330
3B
100
AcDbEntity
 67
     1
  8
0
100
AcDbBlockEnd
  0
BLOCK
  5
AB
330
AA
100
AcDbEntity
  8
0
100
AcDbBlockBegin
  2
B11414687909082007_0000000
 70
     0
 10
0.0
 20
0.0
 30
0.0
  3
B11414687909082007_0000000
  1

  0
LINE
  5
AC
330
AA
100
AcDbEntity
  8
0
  6
Continuous
 62
     1
100
AcDbLine
 10
7.0
 20
-23.93438987
 30
0.0
 11
7.0
 21
-38.93438980466667
 31
0.0
  0
LINE
  5
AD
330
AA
100
AcDbEntity
  8
0
  6
Continuous
 62
     1
100
AcDbLine
 10
7.0
 20
-38.93438993533333
 30
0.0
 11
6.999999999999999
 21
-39.93438987000001
 31
0.0
  0
INSERT
  5
AE
330
AA
100
AcDbEntity
  8
0
100
AcDbBlockReference
  2
B11414687909082007_0000001
 10
0.0
 20
0.0
 30
0.0
  0
LINE
  5
AF
330
AA
100
AcDbEntity
  8
0
  6
Continuous
 62
     1
100
AcDbLine
 10
16.0
 20
-39.93438987000001
 30
0.0
 11
16.0
 21
-28.93438987000001
 31
0.0
  0
ENDBLK
  5
B0
330
AA
100
AcDbEntity
  8
0
100
AcDbBlockEnd
  0
BLOCK
  5
B2
330
B1
100
AcDbEntity
  8
0
100
AcDbBlockBegin
  2
B11414687909082007_0000001
 70
     0
 10
0.0
 20
0.0
 30
0.0
  3
B11414687909082007_0000001
  1

  0
INSERT
  5
B3
330
B1
100
AcDbEntity
  8
0
100
AcDbBlockReference
  2
B11414687909082007_0000002
 10
0.0
 20
0.0
 30
0.0
  0
INSERT
  5
B4
330
B1
100
AcDbEntity
  8
0
100
AcDbBlockReference
  2
B11414687909082007_0000003
 10
0.0
 20
0.0
 30
0.0
  0
INSERT
  5
B5
330
B1
100
AcDbEntity
  8
0
100
AcDbBlockReference
  2
B11414687909082007_0000004
 10
0.0
 20
0.0
 30
0.0
  0
LINE
  5
B6
330
B1
100
AcDbEntity
  8
0
  6
Continuous
 62
     1
100
AcDbLine
 10
24.0
 20
-38.93438987000001
 30
0.0
 11
-1.0
 21
-38.93438987000001
 31
0.0
  0
ENDBLK
  5
B7
330
B1
100
AcDbEntity
  8
0
100
AcDbBlockEnd
  0
BLOCK
  5
B9
330
B8
100
AcDbEntity
  8
0
100
AcDbBlockBegin
  2
B11414687909082007_0000002
 70
     0
 10
0.0
 20
0.0
 30
0.0
  3
B11414687909082007_0000002
  1

  0
LINE
  5
BA
330
B8
100
AcDbEntity
  8
0
  6
Continuous
 62
     1
100
AcDbLine
 10
6.999999999999999
 20
-38.93438987000001
 30
0.0
 11
2.999999999999998
 21
-39.93438987000001
 31
0.0
  0
LINE
  5
BB
330
B8
100
AcDbEntity
  8
0
  6
Continuous
 62
     1
100
AcDbLine
 10
2.999999999999998
 20
-39.93438987000001
 30
0.0
 11
2.999999999999998
 21
-37.93438987
 31
0.0
  0
LINE
  5
BC
330
B8
100
AcDbEntity
  8
0
  6
Continuous
 62
     1
100
AcDbLine
 10
2.999999999999998
 20
-37.93438987
 30
0.0
 11
6.999999999999999
 21
-38.93438987000001
 31
0.0
  0
ENDBLK
  5
BD
330
B8
100
AcDbEntity
  8
0
100
AcDbBlockEnd
  0
BLOCK
  5
BF
330
BE
100
AcDbEntity
  8
0
100
AcDbBlockBegin
  2
B11414687909082007_0000003
 70
     0
 10
0.0
 20
0.0
 30
0.0
  3
B11414687909082007_0000003
  1

  0
LINE
  5
C0
330
BE
100
AcDbEntity
  8
0
  6
Continuous
 62
     1
100
AcDbLine
 10
16.0
 20
-38.93438987000001
 30
0.0
 11
20.0
 21
-37.93438987
 31
0.0
  0
LINE
  5
C1
330
BE
100
AcDbEntity
  8
0
  6
Continuous
 62
     1
100
AcDbLine
 10
20.0
 20
-37.93438987
 30
0.0
 11
20.0
 21
-39.93438987000001
 31
0.0
  0
LINE
  5
C2
330
BE
100
AcDbEntity
  8
0
  6
Continuous
 62
     1
100
AcDbLine
 10
20.0
 20
-39.93438987000001
 30
0.0
 11
16.0
 21
-38.93438987000001
 31
0.0
  0
ENDBLK
  5
C3
330
BE
100
AcDbEntity
  8
0
100
AcDbBlockEnd
  0
BLOCK
  5
C5
330
C4
100
AcDbEntity
  8
0
100
AcDbBlockBegin
  2
B11414687909082007_0000004
 70
     0
 10
0.0
 20
0.0
 30
0.0
  3
B11414687909082007_0000004
  1

  0
TEXT
  5
C6
330
C4
100
AcDbEntity
  8
0
  6
Continuous
 62
     7
100
AcDbText
 10
10.33333333333333
 20
-37.93438987
 30
0.0
 40
3.5
  1
9
  7
TXT
 72
     1
 11
11.5
 21
-37.93438987
 31
0.0
100
AcDbText
  0
ENDBLK
  5
C7
330
C4
100
AcDbEntity
  8
0
100
AcDbBlockEnd
  0
BLOCK
  5
C9
330
C8
100
AcDbEntity
  8
0
100
AcDbBlockBegin
  2
B11414687909082007_0000005
 70
     0
 10
0.0
 20
0.0
 30
0.0
  3
B11414687909082007_0000005
  1

  0
LINE
  5
CA
330
C8
100
AcDbEntity
  8
0
  6
Continuous
 62
     1
100
AcDbLine
 10
10.0
 20
28.93438987
 30
0.0
 11
10.0
 21
38.93438975466668
 31
0.0
  0
LINE
  5
CB
330
C8
100
AcDbEntity
  8
0
  6
Continuous
 62
     1
100
AcDbLine
 10
10.0
 20
38.93438998533334
 30
0.0
 11
10.0
 21
39.93438987000001
 31
0.0
  0
INSERT
  5
CC
330
C8
100
AcDbEntity
  8
0
100
AcDbBlockReference
  2
B11414687909082007_0000006
 10
0.0
 20
0.0
 30
0.0
  0
LINE
  5
CD
330
C8
100
AcDbEntity
  8
0
  6
Continuous
 62
     1
100
AcDbLine
 10
16.0
 20
39.93438987000001
 30
0.0
 11
16.0
 21
28.93438987000001
 31
0.0
  0
ENDBLK
  5
CE
330
C8
100
AcDbEntity
  8
0
100
AcDbBlockEnd
  0
BLOCK
  5
D0
330
CF
100
AcDbEntity
  8
0
100
AcDbBlockBegin
  2
B11414687909082007_0000006
 70
     0
 10
0.0
 20
0.0
 30
0.0
  3
B11414687909082007_0000006
  1

  0
INSERT
  5
D1
330
CF
100
AcDbEntity
  8
0
100
AcDbBlockReference
  2
B11414687909082007_0000007
 10
0.0
 20
0.0
 30
0.0
  0
INSERT
  5
D2
330
CF
100
AcDbEntity
  8
0
100
AcDbBlockReference
  2
B11414687909082007_0000008
 10
0.0
 20
0.0
 30
0.0
  0
INSERT
  5
D3
330
CF
100
AcDbEntity
  8
0
100
AcDbBlockReference
  2
B11414687909082007_0000009
 10
0.0
 20
0.0
 30
0.0
  0
LINE
  5
D4
330
CF
100
AcDbEntity
  8
0
  6
Continuous
 62
     1
100
AcDbLine
 10
24.0
 20
38.93438987000001
 30
0.0
 11
2.0
 21
38.93438987000001
 31
0.0
  0
ENDBLK
  5
D5
330
CF
100
AcDbEntity
  8
0
100
AcDbBlockEnd
  0
BLOCK
  5
D7
330
D6
100
AcDbEntity
  8
0
100
AcDbBlockBegin
  2
B11414687909082007_0000007
 70
     0
 10
0.0
 20
0.0
 30
0.0
  3
B11414687909082007_0000007
  1

  0
LINE
  5
D8
330
D6
100
AcDbEntity
  8
0
  6
Continuous
 62
     1
100
AcDbLine
 10
10.0
 20
38.93438987000001
 30
0.0
 11
6.0
 21
37.93438987
 31
0.0
  0
LINE
  5
D9
330
D6
100
AcDbEntity
  8
0
  6
Continuous
 62
     1
100
AcDbLine
 10
6.0
 20
37.93438987
 30
0.0
 11
6.0
 21
39.93438987000001
 31
0.0
  0
LINE
  5
DA
330
D6
100
AcDbEntity
  8
0
  6
Continuous
 62
     1
100
AcDbLine
 10
6.0
 20
39.93438987000001
 30
0.0
 11
10.0
 21
38.93438987000001
 31
0.0
  0
ENDBLK
  5
DB
330
D6
100
AcDbEntity
  8
0
100
AcDbBlockEnd
  0
BLOCK
  5
DD
330
DC
100
AcDbEntity
  8
0
100
AcDbBlockBegin
  2
B11414687909082007_0000008
 70
     0
 10
0.0
 20
0.0
 30
0.0
  3
B11414687909082007_0000008
  1

  0
LINE
  5
DE
330
DC
100
AcDbEntity
  8
0
  6
Continuous
 62
     1
100
AcDbLine
 10
16.0
 20
38.93438987000001
 30
0.0
 11
20.0
 21
39.93438987000001
 31
0.0
  0
LINE
  5
DF
330
DC
100
AcDbEntity
  8
0
  6
Continuous
 62
     1
100
AcDbLine
 10
20.0
 20
39.93438987000001
 30
0.0
 11
20.0
 21
37.93438987
 31
0.0
  0
LINE
  5
E0
330
DC
100
AcDbEntity
  8
0
  6
Continuous
 62
     1
100
AcDbLine
 10
20.0
 20
37.93438987
 30
0.0
 11
16.0
 21
38.93438987000001
 31
0.0
  0
ENDBLK
  5
E1
330
DC
100
AcDbEntity
  8
0
100
AcDbBlockEnd
  0
BLOCK
  5
E3
330
E2
100
AcDbEntity
  8
0
100
AcDbBlockBegin
  2
B11414687909082007_0000009
 70
     0
 10
0.0
 20
0.0
 30
0.0
  3
B11414687909082007_0000009
  1

  0
TEXT
  5
E4
330
E2
100
AcDbEntity
  8
0
  6
Continuous
 62
     7
100
AcDbText
 10
11.83333333333333
 20
39.93438987000001
 30
0.0
 40
3.5
  1
6
  7
TXT
 72
     1
 11
13.0
 21
39.93438987000001
 31
0.0
100
AcDbText
  0
ENDBLK
  5
E5
330
E2
100
AcDbEntity
  8
0
100
AcDbBlockEnd
  0
BLOCK
  5
E7
330
E6
100
AcDbEntity
  8
0
100
AcDbBlockBegin
  2
B11414687909082007_0000010
 70
     0
 10
0.0
 20
0.0
 30
0.0
  3
B11414687909082007_0000010
  1

  0
LINE
  5
E8
330
E6
100
AcDbEntity
  8
0
  6
Continuous
 62
     1
100
AcDbLine
 10
-31.0
 20
38.93439008533333
 30
0.0
 11
-31.0
 21
45.93438970466665
 31
0.0
  0
LINE
  5
E9
330
E6
100
AcDbEntity
  8
0
  6
Continuous
 62
     1
100
AcDbLine
 10
-31.0
 20
45.93439003533332
 30
0.0
 11
-31.0
 21
46.93438986999999
 31
0.0
  0
LINE
  5
EA
330
E6
100
AcDbEntity
  8
0
  6
Continuous
 62
     1
100
AcDbLine
 10
-31.0
 20
0.0
 30
0.0
 11
-31.0
 21
38.93438965466668
 31
0.0
  0
INSERT
  5
EB
330
E6
100
AcDbEntity
  8
0
100
AcDbBlockReference
  2
B11414687909082007_0000011
 10
0.0
 20
0.0
 30
0.0
  0
LINE
  5
EC
330
E6
100
AcDbEntity
  8
0
  6
Continuous
 62
     1
100
AcDbLine
 10
16.0
 20
46.93438986999999
 30
0.0
 11
16.0
 21
28.93438987000001
 31
0.0
  0
ENDBLK
  5
ED
330
E6
100
AcDbEntity
  8
0
100
AcDbBlockEnd
  0
BLOCK
  5
EF
330
EE
100
AcDbEntity
  8
0
100
AcDbBlockBegin
  2
B11414687909082007_0000011
 70
     0
 10
0.0
 20
0.0
 30
0.0
  3
B11414687909082007_0000011
  1

  0
INSERT
  5
F0
330
EE
100
AcDbEntity
  8
0
100
AcDbBlockReference
  2
B11414687909082007_0000012
 10
0.0
 20
0.0
 30
0.0
  0
INSERT
  5
F1
330
EE
100
AcDbEntity
  8
0
100
AcDbBlockReference
  2
B11414687909082007_0000013
 10
0.0
 20
0.0
 30
0.0
  0
INSERT
  5
F2
330
EE
100
AcDbEntity
  8
0
100
AcDbBlockReference
  2
B11414687909082007_0000014
 10
0.0
 20
0.0
 30
0.0
  0
LINE
  5
F3
330
EE
100
AcDbEntity
  8
0
  6
Continuous
 62
     1
100
AcDbLine
 10
-31.0
 20
45.93438986999999
 30
0.0
 11
16.0
 21
45.93438986999999
 31
0.0
  0
ENDBLK
  5
F4
330
EE
100
AcDbEntity
  8
0
100
AcDbBlockEnd
  0
BLOCK
  5
F6
330
F5
100
AcDbEntity
  8
0
100
AcDbBlockBegin
  2
B11414687909082007_0000012
 70
     0
 10
0.0
 20
0.0
 30
0.0
  3
B11414687909082007_0000012
  1

  0
LINE
  5
F7
330
F5
100
AcDbEntity
  8
0
  6
Continuous
 62
     1
100
AcDbLine
 10
-31.0
 20
45.93438986999999
 30
0.0
 11
-27.0
 21
46.93438986999999
 31
0.0
  0
LINE
  5
F8
330
F5
100
AcDbEntity
  8
0
  6
Continuous
 62
     1
100
AcDbLine
 10
-27.0
 20
46.93438986999999
 30
0.0
 11
-27.0
 21
44.93438987
 31
0.0
  0
LINE
  5
F9
330
F5
100
AcDbEntity
  8
0
  6
Continuous
 62
     1
100
AcDbLine
 10
-27.0
 20
44.93438987
 30
0.0
 11
-31.0
 21
45.93438986999999
 31
0.0
  0
ENDBLK
  5
FA
330
F5
100
AcDbEntity
  8
0
100
AcDbBlockEnd
  0
BLOCK
  5
FC
330
FB
100
AcDbEntity
  8
0
100
AcDbBlockBegin
  2
B11414687909082007_0000013
 70
     0
 10
0.0
 20
0.0
 30
0.0
  3
B11414687909082007_0000013
  1

  0
LINE
  5
FD
330
FB
100
AcDbEntity
  8
0
  6
Continuous
 62
     1
100
AcDbLine
 10
16.0
 20
45.93438986999999
 30
0.0
 11
12.0
 21
44.93438987
 31
0.0
  0
LINE
  5
FE
330
FB
100
AcDbEntity
  8
0
  6
Continuous
 62
     1
100
AcDbLine
 10
12.0
 20
44.93438987
 30
0.0
 11
12.0
 21
46.93438986999999
 31
0.0
  0
LINE
  5
FF
330
FB
100
AcDbEntity
  8
0
  6
Continuous
 62
     1
100
AcDbLine
 10
12.0
 20
46.93438986999999
 30
0.0
 11
16.0
 21
45.93438986999999
 31
0.0
  0
ENDBLK
  5
100
330
FB
100
AcDbEntity
  8
0
100
AcDbBlockEnd
  0
BLOCK
  5
102
330
101
100
AcDbEntity
  8
0
100
AcDbBlockBegin
  2
B11414687909082007_0000014
 70
     0
 10
0.0
 20
0.0
 30
0.0
  3
B11414687909082007_0000014
  1

  0
TEXT
  5
103
330
101
100
AcDbEntity
  8
0
  6
Continuous
 62
     7
100
AcDbText
 10
-10.41666666666666
 20
46.93438986999999
 30
0.0
 40
3.5
  1
47
  7
TXT
 72
     1
 11
-7.499999999999996
 21
46.93438986999999
 31
0.0
100
AcDbText
  0
ENDBLK
  5
104
330
101
100
AcDbEntity
  8
0
100
AcDbBlockEnd
  0
BLOCK
  5
106
330
105
100
AcDbEntity
  8
0
100
AcDbBlockBegin
  2
B11414687909082007_0000015
 70
     0
 10
0.0
 20
0.0
 30
0.0
  3
B11414687909082007_0000015
  1

  0
LINE
  5
107
330
105
100
AcDbEntity
  8
0
  6
Continuous
 62
     1
100
AcDbLine
 10
-31.0
 20
0.0
 30
0.0
 11
-31.0
 21
38.93438965466668
 31
0.0
  0
LINE
  5
108
330
105
100
AcDbEntity
  8
0
  6
Continuous
 62
     1
100
AcDbLine
 10
-31.0
 20
38.93439008533333
 30
0.0
 11
-31.0
 21
39.93438987000001
 31
0.0
  0
INSERT
  5
109
330
105
100
AcDbEntity
  8
0
100
AcDbBlockReference
  2
B11414687909082007_0000016
 10
0.0
 20
0.0
 30
0.0
  0
LINE
  5
10A
330
105
100
AcDbEntity
  8
0
  6
Continuous
 62
     1
100
AcDbLine
 10
0.0000000000000036
 20
39.93438987000001
 30
0.0
 11
0.0000000000000015
 21
6.0
 31
0.0
  0
ENDBLK
  5
10B
330
105
100
AcDbEntity
  8
0
100
AcDbBlockEnd
  0
BLOCK
  5
10D
330
10C
100
AcDbEntity
  8
0
100
AcDbBlockBegin
  2
B11414687909082007_0000016
 70
     0
 10
0.0
 20
0.0
 30
0.0
  3
B11414687909082007_0000016
  1

  0
INSERT
  5
10E
330
10C
100
AcDbEntity
  8
0
100
AcDbBlockReference
  2
B11414687909082007_0000017
 10
0.0
 20
0.0
 30
0.0
  0
INSERT
  5
10F
330
10C
100
AcDbEntity
  8
0
100
AcDbBlockReference
  2
B11414687909082007_0000018
 10
0.0
 20
0.0
 30
0.0
  0
INSERT
  5
110
330
10C
100
AcDbEntity
  8
0
100
AcDbBlockReference
  2
B11414687909082007_0000019
 10
0.0
 20
0.0
 30
0.0
  0
LINE
  5
111
330
10C
100
AcDbEntity
  8
0
  6
Continuous
 62
     1
100
AcDbLine
 10
-31.0
 20
38.93438987000001
 30
0.0
 11
0.0000000000000036
 21
38.93438987000001
 31
0.0
  0
ENDBLK
  5
112
330
10C
100
AcDbEntity
  8
0
100
AcDbBlockEnd
  0
BLOCK
  5
114
330
113
100
AcDbEntity
  8
0
100
AcDbBlockBegin
  2
B11414687909082007_0000017
 70
     0
 10
0.0
 20
0.0
 30
0.0
  3
B11414687909082007_0000017
  1

  0
LINE
  5
115
330
113
100
AcDbEntity
  8
0
  6
Continuous
 62
     1
100
AcDbLine
 10
-31.0
 20
38.93438987000001
 30
0.0
 11
-27.0
 21
39.93438987000001
 31
0.0
  0
LINE
  5
116
330
113
100
AcDbEntity
  8
0
  6
Continuous
 62
     1
100
AcDbLine
 10
-27.0
 20
39.93438987000001
 30
0.0
 11
-27.0
 21
37.93438987
 31
0.0
  0
LINE
  5
117
330
113
100
AcDbEntity
  8
0
  6
Continuous
 62
     1
100
AcDbLine
 10
-27.0
 20
37.93438987
 30
0.0
 11
-31.0
 21
38.93438987000001
 31
0.0
  0
ENDBLK
  5
118
330
113
100
AcDbEntity
  8
0
100
AcDbBlockEnd
  0
BLOCK
  5
11A
330
119
100
AcDbEntity
  8
0
100
AcDbBlockBegin
  2
B11414687909082007_0000018
 70
     0
 10
0.0
 20
0.0
 30
0.0
  3
B11414687909082007_0000018
  1

  0
LINE
  5
11B
330
119
100
AcDbEntity
  8
0
  6
Continuous
 62
     1
100
AcDbLine
 10
0.0000000000000036
 20
38.93438987000001
 30
0.0
 11
-3.999999999999996
 21
37.93438987
 31
0.0
  0
LINE
  5
11C
330
119
100
AcDbEntity
  8
0
  6
Continuous
 62
     1
100
AcDbLine
 10
-3.999999999999996
 20
37.93438987
 30
0.0
 11
-3.999999999999996
 21
39.93438987000001
 31
0.0
  0
LINE
  5
11D
330
119
100
AcDbEntity
  8
0
  6
Continuous
 62
     1
100
AcDbLine
 10
-3.999999999999996
 20
39.93438987000001
 30
0.0
 11
0.0000000000000036
 21
38.93438987000001
 31
0.0
  0
ENDBLK
  5
11E
330
119
100
AcDbEntity
  8
0
100
AcDbBlockEnd
  0
BLOCK
  5
120
330
11F
100
AcDbEntity
  8
0
100
AcDbBlockBegin
  2
B11414687909082007_0000019
 70
     0
 10
0.0
 20
0.0
 30
0.0
  3
B11414687909082007_0000019
  1

  0
TEXT
  5
121
330
11F
100
AcDbEntity
  8
0
  6
Continuous
 62
     7
100
AcDbText
 10
-17.83333333333333
 20
39.93438987000001
 30
0.0
 40
3.5
  1
31
  7
TXT
 72
     1
 11
-15.5
 21
39.93438987000001
 31
0.0
100
AcDbText
  0
ENDBLK
  5
122
330
11F
100
AcDbEntity
  8
0
100
AcDbBlockEnd
  0
BLOCK
  5
124
330
123
100
AcDbEntity
  8
0
100
AcDbBlockBegin
  2
B11414687909082007_0000020
 70
     0
 10
0.0
 20
0.0
 30
0.0
  3
B11414687909082007_0000020
  1

  0
LINE
  5
125
330
123
100
AcDbEntity
  8
0
  6
Continuous
 62
     1
100
AcDbLine
 10
16.0
 20
-29.0
 30
0.0
 11
25.99999973466668
 21
-29.0
 31
0.0
  0
LINE
  5
126
330
123
100
AcDbEntity
  8
0
  6
Continuous
 62
     1
100
AcDbLine
 10
26.00000026533333
 20
-29.0
 30
0.0
 11
27.0
 21
-29.0
 31
0.0
  0
INSERT
  5
127
330
123
100
AcDbEntity
  8
0
100
AcDbBlockReference
  2
B11414687909082007_0000021
 10
0.0
 20
0.0
 30
0.0
  0
LINE
  5
128
330
123
100
AcDbEntity
  8
0
  6
Continuous
 62
     1
100
AcDbLine
 10
27.00000000000001
 20
29.0
 30
0.0
 11
16.0
 21
29.0
 31
0.0
  0
ENDBLK
  5
129
330
123
100
AcDbEntity
  8
0
100
AcDbBlockEnd
  0
BLOCK
  5
12B
330
12A
100
AcDbEntity
  8
0
100
AcDbBlockBegin
  2
B11414687909082007_0000021
 70
     0
 10
0.0
 20
0.0
 30
0.0
  3
B11414687909082007_0000021
  1

  0
INSERT
  5
12C
330
12A
100
AcDbEntity
  8
0
100
AcDbBlockReference
  2
B11414687909082007_0000022
 10
0.0
 20
0.0
 30
0.0
  0
INSERT
  5
12D
330
12A
100
AcDbEntity
  8
0
100
AcDbBlockReference
  2
B11414687909082007_0000023
 10
0.0
 20
0.0
 30
0.0
  0
INSERT
  5
12E
330
12A
100
AcDbEntity
  8
0
100
AcDbBlockReference
  2
B11414687909082007_0000024
 10
0.0
 20
0.0
 30
0.0
  0
LINE
  5
12F
330
12A
100
AcDbEntity
  8
0
  6
Continuous
 62
     1
100
AcDbLine
 10
26.0
 20
-29.0
 30
0.0
 11
26.0
 21
29.0
 31
0.0
  0
ENDBLK
  5
130
330
12A
100
AcDbEntity
  8
0
100
AcDbBlockEnd
  0
BLOCK
  5
132
330
131
100
AcDbEntity
  8
0
100
AcDbBlockBegin
  2
B11414687909082007_0000022
 70
     0
 10
0.0
 20
0.0
 30
0.0
  3
B11414687909082007_0000022
  1

  0
LINE
  5
133
330
131
100
AcDbEntity
  8
0
  6
Continuous
 62
     1
100
AcDbLine
 10
26.0
 20
-29.0
 30
0.0
 11
25.0
 21
-25.0
 31
0.0
  0
LINE
  5
134
330
131
100
AcDbEntity
  8
0
  6
Continuous
 62
     1
100
AcDbLine
 10
25.0
 20
-25.0
 30
0.0
 11
27.0
 21
-25.0
 31
0.0
  0
LINE
  5
135
330
131
100
AcDbEntity
  8
0
  6
Continuous
 62
     1
100
AcDbLine
 10
27.0
 20
-25.0
 30
0.0
 11
26.0
 21
-29.0
 31
0.0
  0
ENDBLK
  5
136
330
131
100
AcDbEntity
  8
0
100
AcDbBlockEnd
  0
BLOCK
  5
138
330
137
100
AcDbEntity
  8
0
100
AcDbBlockBegin
  2
B11414687909082007_0000023
 70
     0
 10
0.0
 20
0.0
 30
0.0
  3
B11414687909082007_0000023
  1

  0
LINE
  5
139
330
137
100
AcDbEntity
  8
0
  6
Continuous
 62
     1
100
AcDbLine
 10
26.0
 20
29.0
 30
0.0
 11
27.00000000000001
 21
25.0
 31
0.0
  0
LINE
  5
13A
330
137
100
AcDbEntity
  8
0
  6
Continuous
 62
     1
100
AcDbLine
 10
27.00000000000001
 20
25.0
 30
0.0
 11
25.0
 21
25.0
 31
0.0
  0
LINE
  5
13B
330
137
100
AcDbEntity
  8
0
  6
Continuous
 62
     1
100
AcDbLine
 10
25.0
 20
25.0
 30
0.0
 11
26.0
 21
29.0
 31
0.0
  0
ENDBLK
  5
13C
330
137
100
AcDbEntity
  8
0
100
AcDbBlockEnd
  0
BLOCK
  5
13E
330
13D
100
AcDbEntity
  8
0
100
AcDbBlockBegin
  2
B11414687909082007_0000024
 70
     0
 10
0.0
 20
0.0
 30
0.0
  3
B11414687909082007_0000024
  1

  0
TEXT
  5
13F
330
13D
100
AcDbEntity
  8
0
  6
Continuous
 62
     7
100
AcDbText
 10
25.0
 20
-2.916666666666666
 30
0.0
 40
3.5
  1
58
 50
90.0
  7
TXT
 72
     1
 11
25.0
 21
0.0000000000000001
 31
0.0
100
AcDbText
  0
ENDBLK
  5
140
330
13D
100
AcDbEntity
  8
0
100
AcDbBlockEnd
  0
BLOCK
  5
1F1
330
1F0
100
AcDbEntity
  8
0
370
     0
100
AcDbBlockBegin
  2
*D26
 70
     1
 10
0.0
 20
0.0
 30
0.0
  3
*D26
  1

  0
LINE
  5
1F2
330
1F0
100
AcDbEntity
  8
10100_FRONT_DIM
 62
     7
370
    -2
100
AcDbLine
 10
22.5246659594377
 20
148.9108622486982
 30
0.0
 11
22.5246659594377
 21
192.9038297861809
 31
0.0
  0
LINE
  5
1F3
330
1F0
100
AcDbEntity
  8
10100_FRONT_DIM
 62
     7
370
    -2
100
AcDbLine
 10
80.52466595943768
 20
148.9060315098145
 30
0.0
 11
80.52466595943768
 21
192.9038297861809
 31
0.0
  0
LINE
  5
1F4
330
1F0
100
AcDbEntity
  8
10100_FRONT_DIM
370
    -2
100
AcDbLine
 10
26.0246659594377
 20
190.9038297861809
 30
0.0
 11
77.02466595943768
 21
190.9038297861809
 31
0.0
  0
SOLID
  5
1F5
330
1F0
100
AcDbEntity
  8
10100_FRONT_DIM
370
     0
100
AcDbTrace
 10
26.0246659594377
 20
191.4871631195142
 30
0.0
 11
26.0246659594377
 21
190.3204964528476
 31
0.0
 12
22.5246659594377
 22
190.9038297861809
 32
0.0
 13
22.5246659594377
 23
190.9038297861809
 33
0.0
  0
SOLID
  5
1F6
330
1F0
100
AcDbEntity
  8
10100_FRONT_DIM
370
     0
100
AcDbTrace
 10
77.02466595943768
 20
191.4871631195142
 30
0.0
 11
77.02466595943768
 21
190.3204964528476
 31
0.0
 12
80.52466595943768
 22
190.9038297861809
 32
0.0
 13
80.52466595943768
 23
190.9038297861809
 33
0.0
  0
MTEXT
  5
1F7
330
1F0
100
AcDbEntity
  8
10100_FRONT_DIM
 62
     7
370
    18
100
AcDbMText
 10
51.52466595943767
 20
193.1538297861809
 30
0.0
 40
3.5
 41
0.0
 71
     5
 72
     1
  1
\A1;58
 73
     1
 44
1.0
1001
ACAD
1000
MTEXTBEGIN
1070
    73
1070
     1
1070
    44
1040
1.0
1070
    74
1070
     0
1000
MTEXTEND
  0
POINT
  5
1F8
330
1F0
100
AcDbEntity
  8
DEFPOINTS
 62
     0
370
     0
100
AcDbPoint
 10
22.5246659594377
 20
148.4108622486982
 30
0.0
  0
POINT
  5
1F9
330
1F0
100
AcDbEntity
  8
DEFPOINTS
 62
     0
370
     0
100
AcDbPoint
 10
80.52466595943768
 20
148.4060315098145
 30
0.0
  0
POINT
  5
1FA
330
1F0
100
AcDbEntity
  8
DEFPOINTS
 62
     0
370
     0
100
AcDbPoint
 10
80.52466595943768
 20
190.9038297861809
 30
0.0
  0
ENDBLK
  5
1FB
330
1F0
100
AcDbEntity
  8
0
370
     0
100
AcDbBlockEnd
  0
BLOCK
  5
1FD
330
1FC
100
AcDbEntity
  8
0
370
     0
100
AcDbBlockBegin
  2
*D27
 70
     1
 10
0.0
 20
0.0
 30
0.0
  3
*D27
  1

  0
LINE
  5
1FE
330
1FC
100
AcDbEntity
  8
10100_FRONT_DIM
 62
     7
370
    -2
100
AcDbLine
 10
31.5246659594377
 20
158.4060315098145
 30
0.0
 11
31.5246659594377
 21
182.9038297861809
 31
0.0
  0
LINE
  5
1FF
330
1FC
100
AcDbEntity
  8
10100_FRONT_DIM
 62
     7
370
    -2
100
AcDbLine
 10
71.51088857386509
 20
158.4038297861809
 30
0.0
 11
71.51088857386509
 21
182.9038297861809
 31
0.0
  0
LINE
  5
200
330
1FC
100
AcDbEntity
  8
10100_FRONT_DIM
370
    -2
100
AcDbLine
 10
35.0246659594377
 20
180.9038297861809
 30
0.0
 11
68.0108885738651
 21
180.9038297861809
 31
0.0
  0
SOLID
  5
201
330
1FC
100
AcDbEntity
  8
10100_FRONT_DIM
370
     0
100
AcDbTrace
 10
35.0246659594377
 20
181.4871631195142
 30
0.0
 11
35.0246659594377
 21
180.3204964528475
 31
0.0
 12
31.5246659594377
 22
180.9038297861809
 32
0.0
 13
31.5246659594377
 23
180.9038297861809
 33
0.0
  0
SOLID
  5
202
330
1FC
100
AcDbEntity
  8
10100_FRONT_DIM
370
     0
100
AcDbTrace
 10
68.0108885738651
 20
181.4871631195142
 30
0.0
 11
68.0108885738651
 21
180.3204964528475
 31
0.0
 12
71.51088857386509
 22
180.9038297861809
 32
0.0
 13
71.51088857386509
 23
180.9038297861809
 33
0.0
  0
MTEXT
  5
203
330
1FC
100
AcDbEntity
  8
10100_FRONT_DIM
 62
     7
370
    18
100
AcDbMText
 10
51.5177772666514
 20
183.1538297861809
 30
0.0
 40
3.5
 41
0.0
 71
     5
 72
     1
  1
\A1;40
 73
     1
 44
1.0
1001
ACAD
1000
MTEXTBEGIN
1070
    73
1070
     1
1070
    44
1040
1.0
1070
    74
1070
     0
1000
MTEXTEND
  0
POINT
  5
204
330
1FC
100
AcDbEntity
  8
DEFPOINTS
 62
     0
370
     0
100
AcDbPoint
 10
31.5246659594377
 20
157.9060315098145
 30
0.0
  0
POINT
  5
205
330
1FC
100
AcDbEntity
  8
DEFPOINTS
 62
     0
370
     0
100
AcDbPoint
 10
71.51088857386509
 20
157.9038297861809
 30
0.0
  0
POINT
  5
206
330
1FC
100
AcDbEntity
  8
DEFPOINTS
 62
     0
370
     0
100
AcDbPoint
 10
71.51088857386509
 20
180.9038297861809
 30
0.0
  0
ENDBLK
  5
207
330
1FC
100
AcDbEntity
  8
0
370
     0
100
AcDbBlockEnd
  0
BLOCK
  5
209
330
208
100
AcDbEntity
  8
0
370
     0
100
AcDbBlockBegin
  2
*D28
 70
     1
 10
0.0
 20
0.0
 30
0.0
  3
*D28
  1

  0
LINE
  5
20A
330
208
100
AcDbEntity
  8
10100_FRONT_DIM
 62
     7
370
    -2
100
AcDbLine
 10
43.22466595943774
 20
155.4038297861809
 30
0.0
 11
43.22466595943774
 21
172.9038297861809
 31
0.0
  0
LINE
  5
20B
330
208
100
AcDbEntity
  8
10100_FRONT_DIM
 62
     7
370
    -2
100
AcDbLine
 10
59.82466595943773
 20
155.4038297861809
 30
0.0
 11
59.82466595943773
 21
172.9038297861809
 31
0.0
  0
LINE
  5
20C
330
208
100
AcDbEntity
  8
10100_FRONT_DIM
370
    -2
100
AcDbLine
 10
46.72466595943774
 20
170.9038297861809
 30
0.0
 11
56.32466595943771
 21
170.9038297861809
 31
0.0
  0
SOLID
  5
20D
330
208
100
AcDbEntity
  8
10100_FRONT_DIM
370
     0
100
AcDbTrace
 10
46.72466595943774
 20
171.4871631195141
 30
0.0
 11
46.72466595943774
 21
170.3204964528475
 31
0.0
 12
43.22466595943774
 22
170.9038297861809
 32
0.0
 13
43.22466595943774
 23
170.9038297861809
 33
0.0
  0
SOLID
  5
20E
330
208
100
AcDbEntity
  8
10100_FRONT_DIM
370
     0
100
AcDbTrace
 10
56.32466595943771
 20
171.4871631195141
 30
0.0
 11
56.32466595943771
 21
170.3204964528475
 31
0.0
 12
59.82466595943773
 22
170.9038297861809
 32
0.0
 13
59.82466595943773
 23
170.9038297861809
 33
0.0
  0
MTEXT
  5
20F
330
208
100
AcDbEntity
  8
10100_FRONT_DIM
 62
     7
370
    18
100
AcDbMText
 10
51.52466595943772
 20
173.1538297861809
 30
0.0
 40
3.5
 41
0.0
 71
     5
 72
     1
  1
\A1;16.6
 73
     1
 44
1.0
1001
ACAD
1000
MTEXTBEGIN
1070
    73
1070
     1
1070
    44
1040
1.0
1070
    74
1070
     0
1000
MTEXTEND
  0
POINT
  5
210
330
208
100
AcDbEntity
  8
DEFPOINTS
 62
     0
370
     0
100
AcDbPoint
 10
43.22466595943774
 20
154.9038297861809
 30
0.0
  0
POINT
  5
211
330
208
100
AcDbEntity
  8
DEFPOINTS
 62
     0
370
     0
100
AcDbPoint
 10
59.82466595943773
 20
154.9038297861809
 30
0.0
  0
POINT
  5
212
330
208
100
AcDbEntity
  8
DEFPOINTS
 62
     0
370
     0
100
AcDbPoint
 10
59.82466595943773
 20
170.9038297861809
 30
0.0
  0
ENDBLK
  5
213
330
208
100
AcDbEntity
  8
0
370
     0
100
AcDbBlockEnd
  0
BLOCK
  5
215
330
214
100
AcDbEntity
  8
0
370
     0
100
AcDbBlockBegin
  2
*D29
 70
     1
 10
0.0
 20
0.0
 30
0.0
  3
*D29
  1

  0
LINE
  5
216
330
214
100
AcDbEntity
  8
10100_FRONT_DIM
 62
     7
370
    -2
100
AcDbLine
 10
72.0254725970847
 20
157.9038179698547
 30
0.0
 11
95.52466595943769
 21
157.9038179698547
 31
0.0
  0
LINE
  5
217
330
214
100
AcDbEntity
  8
10100_FRONT_DIM
 62
     7
370
    -2
100
AcDbLine
 10
72.0246659594377
 20
139.9038297861809
 30
0.0
 11
95.52466595943769
 21
139.9038297861809
 31
0.0
  0
LINE
  5
218
330
214
100
AcDbEntity
  8
10100_FRONT_DIM
370
    -2
100
AcDbLine
 10
93.5246659594377
 20
154.4038179698547
 30
0.0
 11
93.5246659594377
 21
143.4038297861809
 31
0.0
  0
SOLID
  5
219
330
214
100
AcDbEntity
  8
10100_FRONT_DIM
370
     0
100
AcDbTrace
 10
92.94133262610435
 20
154.4038179698547
 30
0.0
 11
94.10799929277102
 21
154.4038179698547
 31
0.0
 12
93.5246659594377
 22
157.9038179698547
 32
0.0
 13
93.5246659594377
 23
157.9038179698547
 33
0.0
  0
SOLID
  5
21A
330
214
100
AcDbEntity
  8
10100_FRONT_DIM
370
     0
100
AcDbTrace
 10
92.94133262610435
 20
143.4038297861809
 30
0.0
 11
94.10799929277102
 21
143.4038297861809
 31
0.0
 12
93.5246659594377
 22
139.9038297861809
 32
0.0
 13
93.5246659594377
 23
139.9038297861809
 33
0.0
  0
MTEXT
  5
21B
330
214
100
AcDbEntity
  8
10100_FRONT_DIM
 62
     7
370
    18
100
AcDbMText
 10
91.2746659594377
 20
148.9038238780178
 30
0.0
 40
3.5
 41
0.0
 71
     5
 72
     1
  1
\A1;18
 11
0.0000000000000001
 21
1.0
 31
0.0
 73
     1
 44
1.0
1001
ACAD
1000
MTEXTBEGIN
1070
    73
1070
     1
1070
    44
1040
1.0
1070
    74
1070
     0
1000
MTEXTEND
  0
POINT
  5
21C
330
214
100
AcDbEntity
  8
DEFPOINTS
 62
     0
370
     0
100
AcDbPoint
 10
71.5254725970847
 20
157.9038179698547
 30
0.0
  0
POINT
  5
21D
330
214
100
AcDbEntity
  8
DEFPOINTS
 62
     0
370
     0
100
AcDbPoint
 10
71.5246659594377
 20
139.9038297861809
 30
0.0
  0
POINT
  5
21E
330
214
100
AcDbEntity
  8
DEFPOINTS
 62
     0
370
     0
100
AcDbPoint
 10
93.5246659594377
 20
139.9038297861809
 30
0.0
  0
ENDBLK
  5
21F
330
214
100
AcDbEntity
  8
0
370
     0
100
AcDbBlockEnd
  0
BLOCK
  5
221
330
220
100
AcDbEntity
  8
0
370
     0
100
AcDbBlockBegin
  2
*D30
 70
     1
 10
0.0
 20
0.0
 30
0.0
  3
*D30
  1

  0
LINE
  5
222
330
220
100
AcDbEntity
  8
11100_LEFT_DIM
 62
     7
370
    -2
100
AcDbLine
 10
182.9547534208964
 20
158.4038297861809
 30
0.0
 11
182.9547534208964
 21
172.9038297861809
 31
0.0
  0
LINE
  5
223
330
220
100
AcDbEntity
  8
11100_LEFT_DIM
 62
     7
370
    -2
100
AcDbLine
 10
176.9547534208964
 20
158.4038297861809
 30
0.0
 11
176.9547534208964
 21
172.9038297861809
 31
0.0
  0
LINE
  5
224
330
220
100
AcDbEntity
  8
11100_LEFT_DIM
370
    -2
100
AcDbLine
 10
186.4547534208964
 20
170.9038297861809
 30
0.0
 11
189.9547534208964
 21
170.9038297861809
 31
0.0
  0
LINE
  5
225
330
220
100
AcDbEntity
  8
11100_LEFT_DIM
370
    -2
100
AcDbLine
 10
173.4547534208964
 20
170.9038297861809
 30
0.0
 11
169.9547534208964
 21
170.9038297861809
 31
0.0
  0
LINE
  5
226
330
220
100
AcDbEntity
  8
11100_LEFT_DIM
370
    -2
100
AcDbLine
 10
182.9547534208964
 20
170.9038297861809
 30
0.0
 11
176.9547534208964
 21
170.9038297861809
 31
0.0
  0
SOLID
  5
227
330
220
100
AcDbEntity
  8
11100_LEFT_DIM
370
     0
100
AcDbTrace
 10
186.4547534208964
 20
171.4871631195141
 30
0.0
 11
186.4547534208964
 21
170.3204964528475
 31
0.0
 12
182.9547534208964
 22
170.9038297861809
 32
0.0
 13
182.9547534208964
 23
170.9038297861809
 33
0.0
  0
SOLID
  5
228
330
220
100
AcDbEntity
  8
11100_LEFT_DIM
370
     0
100
AcDbTrace
 10
173.4547534208964
 20
171.4871631195141
 30
0.0
 11
173.4547534208964
 21
170.3204964528475
 31
0.0
 12
176.9547534208964
 22
170.9038297861809
 32
0.0
 13
176.9547534208964
 23
170.9038297861809
 33
0.0
  0
MTEXT
  5
229
330
220
100
AcDbEntity
  8
11100_LEFT_DIM
 62
     7
370
    18
100
AcDbMText
 10
179.9547534208964
 20
173.1538297861809
 30
0.0
 40
3.5
 41
0.0
 71
     5
 72
     1
  1
\A1;6
 73
     1
 44
1.0
1001
ACAD
1000
MTEXTBEGIN
1070
    73
1070
     1
1070
    44
1040
1.0
1070
    74
1070
     0
1000
MTEXTEND
  0
POINT
  5
22A
330
220
100
AcDbEntity
  8
DEFPOINTS
 62
     0
370
     0
100
AcDbPoint
 10
182.9547534208964
 20
157.9038297861809
 30
0.0
  0
POINT
  5
22B
330
220
100
AcDbEntity
  8
DEFPOINTS
 62
     0
370
     0
100
AcDbPoint
 10
176.9547534208964
 20
157.9038297861809
 30
0.0
  0
POINT
  5
22C
330
220
100
AcDbEntity
  8
DEFPOINTS
 62
     0
370
     0
100
AcDbPoint
 10
176.9547534208964
 20
170.9038297861809
 30
0.0
  0
ENDBLK
  5
22D
330
220
100
AcDbEntity
  8
0
370
     0
100
AcDbBlockEnd
  0
BLOCK
  5
22F
330
22E
100
AcDbEntity
  8
0
370
     0
100
AcDbBlockBegin
  2
*D31
 70
     1
 10
0.0
 20
0.0
 30
0.0
  3
*D31
  1

  0
LINE
  5
230
330
22E
100
AcDbEntity
  8
11100_LEFT_DIM
 62
     7
370
    -2
100
AcDbLine
 10
182.9547534208964
 20
158.4038297861809
 30
0.0
 11
182.9547534208964
 21
182.9038297861809
 31
0.0
  0
LINE
  5
231
330
22E
100
AcDbEntity
  8
11100_LEFT_DIM
 62
     7
370
    -2
100
AcDbLine
 10
135.9547534208964
 20
151.9038297861809
 30
0.0
 11
135.9547534208964
 21
182.9038297861809
 31
0.0
  0
LINE
  5
232
330
22E
100
AcDbEntity
  8
11100_LEFT_DIM
370
    -2
100
AcDbLine
 10
179.4547534208964
 20
180.9038297861809
 30
0.0
 11
139.4547534208964
 21
180.9038297861809
 31
0.0
  0
SOLID
  5
233
330
22E
100
AcDbEntity
  8
11100_LEFT_DIM
370
     0
100
AcDbTrace
 10
179.4547534208964
 20
181.4871631195142
 30
0.0
 11
179.4547534208964
 21
180.3204964528475
 31
0.0
 12
182.9547534208964
 22
180.9038297861809
 32
0.0
 13
182.9547534208964
 23
180.9038297861809
 33
0.0
  0
SOLID
  5
234
330
22E
100
AcDbEntity
  8
11100_LEFT_DIM
370
     0
100
AcDbTrace
 10
139.4547534208964
 20
181.4871631195142
 30
0.0
 11
139.4547534208964
 21
180.3204964528475
 31
0.0
 12
135.9547534208964
 22
180.9038297861809
 32
0.0
 13
135.9547534208964
 23
180.9038297861809
 33
0.0
  0
MTEXT
  5
235
330
22E
100
AcDbEntity
  8
11100_LEFT_DIM
 62
     7
370
    18
100
AcDbMText
 10
159.4547534208964
 20
183.1538297861809
 30
0.0
 40
3.5
 41
0.0
 71
     5
 72
     1
  1
\A1;47
 73
     1
 44
1.0
1001
ACAD
1000
MTEXTBEGIN
1070
    73
1070
     1
1070
    44
1040
1.0
1070
    74
1070
     0
1000
MTEXTEND
  0
POINT
  5
236
330
22E
100
AcDbEntity
  8
DEFPOINTS
 62
     0
370
     0
100
AcDbPoint
 10
182.9547534208964
 20
157.9038297861809
 30
0.0
  0
POINT
  5
237
330
22E
100
AcDbEntity
  8
DEFPOINTS
 62
     0
370
     0
100
AcDbPoint
 10
135.9547534208964
 20
151.4038297861809
 30
0.0
  0
POINT
  5
238
330
22E
100
AcDbEntity
  8
DEFPOINTS
 62
     0
370
     0
100
AcDbPoint
 10
135.9547534208964
 20
180.9038297861809
 30
0.0
  0
ENDBLK
  5
239
330
22E
100
AcDbEntity
  8
0
370
     0
100
AcDbBlockEnd
  0
BLOCK
  5
23B
330
23A
100
AcDbEntity
  8
0
370
     0
100
AcDbBlockBegin
  2
*D32
 70
     1
 10
0.0
 20
0.0
 30
0.0
  3
*D32
  1

  0
LINE
  5
23C
330
23A
100
AcDbEntity
  8
11100_LEFT_DIM
 62
     7
370
    -2
100
AcDbLine
 10
166.9547534208964
 20
156.9038297861809
 30
0.0
 11
166.9547534208964
 21
172.9038297861809
 31
0.0
  0
LINE
  5
23D
330
23A
100
AcDbEntity
  8
11100_LEFT_DIM
 62
     7
370
    -2
100
AcDbLine
 10
135.9547534208964
 20
151.9038297861809
 30
0.0
 11
135.9547534208964
 21
172.9038297861809
 31
0.0
  0
LINE
  5
23E
330
23A
100
AcDbEntity
  8
11100_LEFT_DIM
370
    -2
100
AcDbLine
 10
163.4547534208964
 20
170.9038297861809
 30
0.0
 11
139.4547534208964
 21
170.9038297861809
 31
0.0
  0
SOLID
  5
23F
330
23A
100
AcDbEntity
  8
11100_LEFT_DIM
370
     0
100
AcDbTrace
 10
163.4547534208964
 20
171.4871631195141
 30
0.0
 11
163.4547534208964
 21
170.3204964528475
 31
0.0
 12
166.9547534208964
 22
170.9038297861809
 32
0.0
 13
166.9547534208964
 23
170.9038297861809
 33
0.0
  0
SOLID
  5
240
330
23A
100
AcDbEntity
  8
11100_LEFT_DIM
370
     0
100
AcDbTrace
 10
139.4547534208964
 20
171.4871631195141
 30
0.0
 11
139.4547534208964
 21
170.3204964528475
 31
0.0
 12
135.9547534208964
 22
170.9038297861809
 32
0.0
 13
135.9547534208964
 23
170.9038297861809
 33
0.0
  0
MTEXT
  5
241
330
23A
100
AcDbEntity
  8
11100_LEFT_DIM
 62
     7
370
    18
100
AcDbMText
 10
151.4547534208964
 20
173.1538297861809
 30
0.0
 40
3.5
 41
0.0
 71
     5
 72
     1
  1
\A1;31
 73
     1
 44
1.0
1001
ACAD
1000
MTEXTBEGIN
1070
    73
1070
     1
1070
    44
1040
1.0
1070
    74
1070
     0
1000
MTEXTEND
  0
POINT
  5
242
330
23A
100
AcDbEntity
  8
DEFPOINTS
 62
     0
370
     0
100
AcDbPoint
 10
166.9547534208964
 20
156.4038297861809
 30
0.0
  0
POINT
  5
243
330
23A
100
AcDbEntity
  8
DEFPOINTS
 62
     0
370
     0
100
AcDbPoint
 10
135.9547534208964
 20
151.4038297861809
 30
0.0
  0
POINT
  5
244
330
23A
100
AcDbEntity
  8
DEFPOINTS
 62
     0
370
     0
100
AcDbPoint
 10
135.9547534208964
 20
170.9038297861809
 30
0.0
  0
ENDBLK
  5
245
330
23A
100
AcDbEntity
  8
0
370
     0
100
AcDbBlockEnd
  0
BLOCK
  5
247
330
246
100
AcDbEntity
  8
0
370
     0
100
AcDbBlockBegin
  2
*D33
 70
     1
 10
0.0
 20
0.0
 30
0.0
  3
*D33
  1

  0
LINE
  5
248
330
246
100
AcDbEntity
  8
11100_LEFT_DIM
 62
     7
370
    -2
100
AcDbLine
 10
173.9547534186509
 20
143.6216950823457
 30
0.0
 11
173.9547534186509
 21
124.9038297861809
 31
0.0
  0
LINE
  5
249
330
246
100
AcDbEntity
  8
11100_LEFT_DIM
 62
     7
370
    -2
100
AcDbLine
 10
182.9547534208963
 20
139.9038297861809
 30
0.0
 11
182.9547534208963
 21
124.9038297861809
 31
0.0
  0
LINE
  5
24A
330
246
100
AcDbEntity
  8
11100_LEFT_DIM
370
    -2
100
AcDbLine
 10
177.4547534186509
 20
126.9038297861809
 30
0.0
 11
179.4547534208963
 21
126.9038297861809
 31
0.0
  0
SOLID
  5
24B
330
246
100
AcDbEntity
  8
11100_LEFT_DIM
370
     0
100
AcDbTrace
 10
177.4547534186509
 20
127.4871631195142
 30
0.0
 11
177.4547534186509
 21
126.3204964528475
 31
0.0
 12
173.9547534186509
 22
126.9038297861809
 32
0.0
 13
173.9547534186509
 23
126.9038297861809
 33
0.0
  0
SOLID
  5
24C
330
246
100
AcDbEntity
  8
11100_LEFT_DIM
370
     0
100
AcDbTrace
 10
179.4547534208963
 20
127.4871631195142
 30
0.0
 11
179.4547534208963
 21
126.3204964528475
 31
0.0
 12
182.9547534208963
 22
126.9038297861809
 32
0.0
 13
182.9547534208963
 23
126.9038297861809
 33
0.0
  0
MTEXT
  5
24D
330
246
100
AcDbEntity
  8
11100_LEFT_DIM
 62
     7
370
    18
100
AcDbMText
 10
178.4547534197736
 20
129.1538297861809
 30
0.0
 40
3.5
 41
0.0
 71
     5
 72
     1
  1
\A1;9
 73
     1
 44
1.0
1001
ACAD
1000
MTEXTBEGIN
1070
    73
1070
     1
1070
    44
1040
1.0
1070
    74
1070
     0
1000
MTEXTEND
  0
POINT
  5
24E
330
246
100
AcDbEntity
  8
DEFPOINTS
 62
     0
370
     0
100
AcDbPoint
 10
173.9547534186509
 20
143.6216950823457
 30
0.0
  0
POINT
  5
24F
330
246
100
AcDbEntity
  8
DEFPOINTS
 62
     0
370
     0
100
AcDbPoint
 10
182.9547534208963
 20
139.9038297861809
 30
0.0
  0
POINT
  5
250
330
246
100
AcDbEntity
  8
DEFPOINTS
 62
     0
370
     0
100
AcDbPoint
 10
182.9547534208963
 20
126.9038297861809
 30
0.0
  0
ENDBLK
  5
251
330
246
100
AcDbEntity
  8
0
370
     0
100
AcDbBlockEnd
  0
BLOCK
  5
253
330
252
100
AcDbEntity
  8
0
100
AcDbBlockBegin
  2
Title_A4P
 70
     2
 10
0.0
 20
0.0
 30
0.0
  3
Title_A4P
  1

  4
Schriftfeld A4 hoch
  0
MTEXT
  5
254
330
252
100
AcDbEntity
  8
92000_TITLE
100
AcDbMText
 10
-110.0
 20
12.0
 30
0.0
 40
3.5
 41
40.0
 71
     5
 72
     5
  1
{\fSiemens Logo|b0|i0|c0|p2;s}
 73
     1
 44
1.0
1001
ACAD
1000
MTEXTBEGIN
1070
    73
1070
     1
1070
    44
1040
1.0
1070
    74
1070
     0
1000
MTEXTEND
  0
LINE
  5
255
330
252
100
AcDbEntity
  8
92000_TITLE
100
AcDbLine
 10
0.0
 20
6.0
 30
0.0
 11
-135.0
 21
6.0
 31
0.0
1001
GENIUS_GENREC_14
1002
{
1000
PYDIR
1011
-135.0
1021
18.0
1031
0.0
1002
}
1002
{
1000
PXDIR
1011
0.0
1021
0.0
1031
0.0
1002
}
1002
{
1000
PORI
1011
-135.0
1021
0.0
1031
0.0
1002
}
1002
{
1000
PINS
1011
-135.0
1021
0.0
1031
0.0
1002
}
1002
{
1000
HVAL
1000
18
1002
}
1002
{
1000
H
1070
     2
1002
}
1002
{
1000
WVAL
1000
135
1002
}
1002
{
1000
W
1070
     2
1002
}
1002
{
1000
C
1070
     1
1002
}
1001
GENIUS_GENOBJ-N-REC_13
1002
{
1000
OWNER
1000
GEN
1002
}
1001
GENIUS_GENODEF_13
1002
{
1000
HIER
1070
     0
1002
}
1002
{
1000
MANEDIT
1070
     0
1002
}
1002
{
1000
NOSEL
1070
     0
1002
}
1002
{
1000
BEHIND
1070
     0
1002
}
1002
{
1000
OTHER
1070
     0
1002
}
1002
{
1000
REACTOR
1002
}
  0
LINE
  5
256
330
252
100
AcDbEntity
  8
92000_TITLE
100
AcDbLine
 10
0.0
 20
18.0
 30
0.0
 11
-135.0
 21
18.0
 31
0.0
1001
GENIUS_GENREC_14
1002
{
1000
PYDIR
1011
-135.0
1021
18.0
1031
0.0
1002
}
1002
{
1000
PXDIR
1011
0.0
1021
0.0
1031
0.0
1002
}
1002
{
1000
PORI
1011
-135.0
1021
0.0
1031
0.0
1002
}
1002
{
1000
PINS
1011
-135.0
1021
0.0
1031
0.0
1002
}
1002
{
1000
HVAL
1000
18
1002
}
1002
{
1000
H
1070
     2
1002
}
1002
{
1000
WVAL
1000
135
1002
}
1002
{
1000
W
1070
     2
1002
}
1002
{
1000
C
1070
     1
1002
}
1001
GENIUS_GENOBJ-N-REC_13
1002
{
1000
OWNER
1000
GEN
1002
}
1001
GENIUS_GENODEF_13
1002
{
1000
HIER
1070
     0
1002
}
1002
{
1000
MANEDIT
1070
     0
1002
}
1002
{
1000
NOSEL
1070
     0
1002
}
1002
{
1000
BEHIND
1070
     0
1002
}
1002
{
1000
OTHER
1070
     0
1002
}
1002
{
1000
REACTOR
1002
}
  0
LINE
  5
257
330
252
100
AcDbEntity
  8
92000_TITLE
100
AcDbLine
 10
-135.0
 20
0.0
 30
0.0
 11
0.0
 21
0.0
 31
0.0
1001
GENIUS_GENREC_14
1002
{
1000
PYDIR
1011
-135.0
1021
18.0
1031
0.0
1002
}
1002
{
1000
PXDIR
1011
0.0
1021
0.0
1031
0.0
1002
}
1002
{
1000
PORI
1011
-135.0
1021
0.0
1031
0.0
1002
}
1002
{
1000
PINS
1011
-135.0
1021
0.0
1031
0.0
1002
}
1002
{
1000
HVAL
1000
18
1002
}
1002
{
1000
H
1070
     2
1002
}
1002
{
1000
WVAL
1000
135
1002
}
1002
{
1000
W
1070
     2
1002
}
1002
{
1000
C
1070
     1
1002
}
1001
GENIUS_GENOBJ-N-REC_13
1002
{
1000
OWNER
1000
GEN
1002
}
1001
GENIUS_GENODEF_13
1002
{
1000
HIER
1070
     0
1002
}
1002
{
1000
MANEDIT
1070
     0
1002
}
1002
{
1000
NOSEL
1070
     0
1002
}
1002
{
1000
BEHIND
1070
     0
1002
}
1002
{
1000
OTHER
1070
     0
1002
}
1002
{
1000
REACTOR
1002
}
  0
TEXT
  5
258
330
252
100
AcDbEntity
  8
91000_TIP
  6
Continuous
 62
     7
100
AcDbText
 10
-134.9906185411919
 20
23.07158622517954
 30
0.0
 40
2.2
  1
Alle Bemassungswerte sind in Millimeter (mm) angegeben.
 41
0.8250311332499988
 72
     5
 11
-46.65728520789184
 21
23.07158622517954
 31
0.0
100
AcDbText
  0
TEXT
  5
259
330
252
100
AcDbEntity
  8
91000_TIP
  6
Continuous
 62
     7
100
AcDbText
 10
-134.9906185411919
 20
19.9425638213338
 30
0.0
 40
2.2
  1
All dimensions are in millimeters (mm)
 41
0.9608678382598293
 72
     5
 11
-68.05015914242381
 21
19.9425638213338
 31
0.0
100
AcDbText
  0
LINE
  5
25A
330
252
100
AcDbEntity
  8
92000_TITLE
100
AcDbLine
 10
-135.0
 20
18.0
 30
0.0
 11
-135.0
 21
0.0
 31
0.0
1001
GENIUS_GENREC_14
1002
{
1000
PYDIR
1011
-135.0
1021
18.0
1031
0.0
1002
}
1002
{
1000
PXDIR
1011
0.0
1021
0.0
1031
0.0
1002
}
1002
{
1000
PORI
1011
-135.0
1021
0.0
1031
0.0
1002
}
1002
{
1000
PINS
1011
-135.0
1021
0.0
1031
0.0
1002
}
1002
{
1000
HVAL
1000
18
1002
}
1002
{
1000
H
1070
     2
1002
}
1002
{
1000
WVAL
1000
135
1002
}
1002
{
1000
W
1070
     2
1002
}
1002
{
1000
C
1070
     1
1002
}
1001
GENIUS_GENOBJ-N-REC_13
1002
{
1000
OWNER
1000
GEN
1002
}
1001
GENIUS_GENODEF_13
1002
{
1000
HIER
1070
     0
1002
}
1002
{
1000
MANEDIT
1070
     0
1002
}
1002
{
1000
NOSEL
1070
     0
1002
}
1002
{
1000
BEHIND
1070
     0
1002
}
1002
{
1000
OTHER
1070
     0
1002
}
1002
{
1000
REACTOR
1002
}
  0
LINE
  5
25B
330
252
100
AcDbEntity
  8
91100_TIP_SYM
 48
0.5
100
AcDbLine
 10
-147.5
 20
16.0
 30
0.0
 11
-147.5
 21
2.0
 31
0.0
  0
LINE
  5
25C
330
252
100
AcDbEntity
  8
91100_TIP_SYM
 48
0.5
100
AcDbLine
 10
-169.5
 20
9.0
 30
0.0
 11
-140.5
 21
9.0
 31
0.0
  0
LINE
  5
25D
330
252
100
AcDbEntity
  8
91200_TIP_SYMB
100
AcDbLine
 10
-167.5
 20
12.5
 30
0.0
 11
-155.0
 21
14.0
 31
0.0
  0
LINE
  5
25E
330
252
100
AcDbEntity
  8
91200_TIP_SYMB
100
AcDbLine
 10
-155.0
 20
4.0
 30
0.0
 11
-167.5
 21
5.5
 31
0.0
  0
LINE
  5
25F
330
252
100
AcDbEntity
  8
91200_TIP_SYMB
100
AcDbLine
 10
-167.5
 20
5.5
 30
0.0
 11
-167.5
 21
12.5
 31
0.0
  0
CIRCLE
  5
260
330
252
100
AcDbEntity
  8
91200_TIP_SYMB
100
AcDbCircle
 10
-147.5
 20
9.0
 30
0.0
 40
2.0
  0
LINE
  5
261
330
252
100
AcDbEntity
  8
91200_TIP_SYMB
100
AcDbLine
 10
-155.0
 20
14.0
 30
0.0
 11
-155.0
 21
4.0
 31
0.0
  0
CIRCLE
  5
262
330
252
100
AcDbEntity
  8
91200_TIP_SYMB
100
AcDbCircle
 10
-147.5
 20
9.0
 30
0.0
 40
5.0
  0
ATTDEF
  5
263
330
252
100
AcDbEntity
  8
92000_TITLE
100
AcDbText
 10
-116.9999999999995
 20
1.75
 30
0.0
 40
2.5
  1

 72
     1
 11
-116.9999999999995
 21
3.0
 31
0.0
100
AcDbAttributeDefinition
  3
Datum
  2
DATUM
 70
     0
 74
     2
  0
MTEXT
  5
264
330
252
100
AcDbEntity
  8
92000_TITLE
100
AcDbMText
 10
-127.75
 20
3.0
 30
0.0
 40
2.5
 41
11.0
 71
     5
 72
     5
  1
Date:
 73
     1
 44
1.0
1001
ACAD
1000
MTEXTBEGIN
1070
    73
1070
     1
1070
    44
1040
1.0
1070
    74
1070
     0
1000
MTEXTEND
  0
MTEXT
  5
265
330
252
100
AcDbEntity
  8
92000_TITLE
100
AcDbMText
 10
-102.75
 20
3.0
 30
0.0
 40
2.5
 41
11.0
 71
     5
 72
     5
  1
Name:
 73
     1
 44
1.0
1001
ACAD
1000
MTEXTBEGIN
1070
    73
1070
     1
1070
    44
1040
1.0
1070
    74
1070
     0
1000
MTEXTEND
  0
LINE
  5
266
330
252
100
AcDbEntity
  8
92000_TITLE
100
AcDbLine
 10
-110.0
 20
6.0
 30
0.0
 11
-110.0
 21
0.0
 31
0.0
1001
GENIUS_GENREC_14
1002
{
1000
PYDIR
1011
-135.0
1021
18.0
1031
0.0
1002
}
1002
{
1000
PXDIR
1011
0.0
1021
0.0
1031
0.0
1002
}
1002
{
1000
PORI
1011
-135.0
1021
0.0
1031
0.0
1002
}
1002
{
1000
PINS
1011
-135.0
1021
0.0
1031
0.0
1002
}
1002
{
1000
HVAL
1000
18
1002
}
1002
{
1000
H
1070
     2
1002
}
1002
{
1000
WVAL
1000
135
1002
}
1002
{
1000
W
1070
     2
1002
}
1002
{
1000
C
1070
     1
1002
}
1001
GENIUS_GENOBJ-N-REC_13
1002
{
1000
OWNER
1000
GEN
1002
}
1001
GENIUS_GENODEF_13
1002
{
1000
HIER
1070
     0
1002
}
1002
{
1000
MANEDIT
1070
     0
1002
}
1002
{
1000
NOSEL
1070
     0
1002
}
1002
{
1000
BEHIND
1070
     0
1002
}
1002
{
1000
OTHER
1070
     0
1002
}
1002
{
1000
REACTOR
1002
}
  0
MTEXT
  5
267
330
252
100
AcDbEntity
  8
92000_TITLE
100
AcDbMText
 10
-21.25
 20
3.0
 30
0.0
 40
2.5
 41
42.5
 71
     5
 72
     5
  1
Massstab/Scale: 1:1
 73
     1
 44
1.0
1001
ACAD
1000
MTEXTBEGIN
1070
    73
1070
     1
1070
    44
1040
1.0
1070
    74
1070
     0
1000
MTEXTEND
  0
LINE
  5
268
330
252
100
AcDbEntity
  8
92000_TITLE
100
AcDbLine
 10
-85.0
 20
18.0
 30
0.0
 11
-85.0
 21
0.0
 31
0.0
1001
GENIUS_GENREC_14
1002
{
1000
PYDIR
1011
-135.0
1021
18.0
1031
0.0
1002
}
1002
{
1000
PXDIR
1011
0.0
1021
0.0
1031
0.0
1002
}
1002
{
1000
PORI
1011
-135.0
1021
0.0
1031
0.0
1002
}
1002
{
1000
PINS
1011
-135.0
1021
0.0
1031
0.0
1002
}
1002
{
1000
HVAL
1000
18
1002
}
1002
{
1000
H
1070
     2
1002
}
1002
{
1000
WVAL
1000
135
1002
}
1002
{
1000
W
1070
     2
1002
}
1002
{
1000
C
1070
     1
1002
}
1001
GENIUS_GENOBJ-N-REC_13
1002
{
1000
OWNER
1000
GEN
1002
}
1001
GENIUS_GENODEF_13
1002
{
1000
HIER
1070
     0
1002
}
1002
{
1000
MANEDIT
1070
     0
1002
}
1002
{
1000
NOSEL
1070
     0
1002
}
1002
{
1000
BEHIND
1070
     0
1002
}
1002
{
1000
OTHER
1070
     0
1002
}
1002
{
1000
REACTOR
1002
}
  0
MTEXT
  5
269
330
252
100
AcDbEntity
  8
92000_TITLE
100
AcDbMText
 10
-63.75
 20
3.0
 30
0.0
 40
2.5
 41
42.5
 71
     5
 72
     5
  1
Format/Size: DIN A4
 73
     1
 44
1.0
1001
ACAD
1000
MTEXTBEGIN
1070
    73
1070
     1
1070
    44
1040
1.0
1070
    74
1070
     0
1000
MTEXTEND
  0
ATTDEF
  5
26A
330
252
100
AcDbEntity
  8
92000_TITLE
100
AcDbText
 10
-42.49999999999952
 20
12.25000000000011
 30
0.0
 40
3.5
  1

 72
     1
 11
-42.49999999999952
 21
14.00000000000011
 31
0.0
100
AcDbAttributeDefinition
  3
Z-Name
  2
ZEICHNUNGSNAME
 70
     0
 74
     2
  0
ATTDEF
  5
26B
330
252
100
AcDbEntity
  8
92000_TITLE
100
AcDbText
 10
-91.99999999999954
 20
1.75
 30
0.0
 40
2.5
  1

 72
     1
 11
-91.99999999999954
 21
3.0
 31
0.0
100
AcDbAttributeDefinition
  3
Name
  2
NAME
 70
     0
 74
     2
  0
ATTDEF
  5
26C
330
252
100
AcDbEntity
  8
92000_TITLE
100
AcDbText
 10
-42.49999999999952
 20
6.75000000000011
 30
0.0
 40
2.5
  1

 72
     1
 11
-42.49999999999952
 21
8.00000000000011
 31
0.0
100
AcDbAttributeDefinition
  3
A-Name
  2
ARTIKELNAME
 70
     0
 74
     2
  0
LINE
  5
26D
330
252
100
AcDbEntity
  8
92000_TITLE
100
AcDbLine
 10
-42.5
 20
0.0
 30
0.0
 11
-42.5
 21
6.0
 31
0.0
1001
GENIUS_GENREC_14
1002
{
1000
PYDIR
1011
-135.0
1021
18.0
1031
0.0
1002
}
1002
{
1000
PXDIR
1011
0.0
1021
0.0
1031
0.0
1002
}
1002
{
1000
PORI
1011
-135.0
1021
0.0
1031
0.0
1002
}
1002
{
1000
PINS
1011
-135.0
1021
0.0
1031
0.0
1002
}
1002
{
1000
HVAL
1000
18
1002
}
1002
{
1000
H
1070
     2
1002
}
1002
{
1000
WVAL
1000
135
1002
}
1002
{
1000
W
1070
     2
1002
}
1002
{
1000
C
1070
     1
1002
}
1001
GENIUS_GENOBJ-N-REC_13
1002
{
1000
OWNER
1000
GEN
1002
}
1001
GENIUS_GENODEF_13
1002
{
1000
HIER
1070
     0
1002
}
1002
{
1000
MANEDIT
1070
     0
1002
}
1002
{
1000
NOSEL
1070
     0
1002
}
1002
{
1000
BEHIND
1070
     0
1002
}
1002
{
1000
OTHER
1070
     0
1002
}
1002
{
1000
REACTOR
1002
}
  0
LINE
  5
26E
330
252
100
AcDbEntity
  8
92000_TITLE
100
AcDbLine
 10
0.0
 20
0.0
 30
0.0
 11
0.0
 21
18.0
 31
0.0
1001
GENIUS_GENREC_14
1002
{
1000
PYDIR
1011
-135.0
1021
18.0
1031
0.0
1002
}
1002
{
1000
PXDIR
1011
0.0
1021
0.0
1031
0.0
1002
}
1002
{
1000
PORI
1011
-135.0
1021
0.0
1031
0.0
1002
}
1002
{
1000
PINS
1011
-135.0
1021
0.0
1031
0.0
1002
}
1002
{
1000
HVAL
1000
18
1002
}
1002
{
1000
H
1070
     2
1002
}
1002
{
1000
WVAL
1000
135
1002
}
1002
{
1000
W
1070
     2
1002
}
1002
{
1000
C
1070
     1
1002
}
1001
GENIUS_GENOBJ-N-REC_13
1002
{
1000
OWNER
1000
GEN
1002
}
1001
GENIUS_GENODEF_13
1002
{
1000
HIER
1070
     0
1002
}
1002
{
1000
MANEDIT
1070
     0
1002
}
1002
{
1000
NOSEL
1070
     0
1002
}
1002
{
1000
BEHIND
1070
     0
1002
}
1002
{
1000
OTHER
1070
     0
1002
}
1002
{
1000
REACTOR
1002
}
  0
ENDBLK
  5
26F
330
252
100
AcDbEntity
  8
0
100
AcDbBlockEnd
  0
BLOCK
  5
271
330
270
100
AcDbEntity
  8
0
 62
     7
370
     0
100
AcDbBlockBegin
  2
*D35
 70
     1
 10
0.0
 20
0.0
 30
0.0
  3
*D35
  1

  0
LINE
  5
272
330
270
100
AcDbEntity
  8
10100_FRONT_DIM
370
    -2
100
AcDbLine
 10
21.13127596720731
 20
130.9364665367859
 30
0.0
 11
28.63461038165877
 21
143.9249218977944
 31
0.0
  0
LINE
  5
273
330
270
100
AcDbEntity
  8
10100_FRONT_DIM
370
    -2
100
AcDbLine
 10
34.38716676607155
 20
153.8827376745675
 30
0.0
 11
36.13794479611021
 21
156.9133772588028
 31
0.0
  0
MTEXT
  5
274
330
270
100
AcDbEntity
  8
10100_FRONT_DIM
 62
     7
370
    18
100
AcDbMText
 10
22.05928585526243
 20
137.0408745873402
 30
0.0
 40
3.5
 41
0.0
 71
     5
 72
     1
  1
\A1;\U+22054.5
 11
0.5002222942967634
 21
0.8658970240672283
 31
0.0
 73
     1
 44
1.0
1001
ACAD
1000
MTEXTBEGIN
1070
    73
1070
     1
1070
    44
1040
1.0
1070
    74
1070
     0
1000
MTEXTEND
  0
LINE
  5
275
330
270
100
AcDbEntity
  8
10100_FRONT_DIM
370
    -2
100
AcDbLine
 10
32.63638873603288
 20
150.8520980903322
 30
0.0
 11
30.38538841169744
 21
146.9555614820297
 31
0.0
  0
SOLID
  5
276
330
270
100
AcDbEntity
  8
10100_FRONT_DIM
370
     0
100
AcDbTrace
 10
33.882060168699
 20
154.1745340129073
 30
0.0
 11
34.89227336344411
 21
153.5909413362277
 31
0.0
 12
32.63638873603288
 22
150.8520980903322
 32
0.0
 13
32.63638873603288
 23
150.8520980903322
 33
0.0
  0
SOLID
  5
277
330
270
100
AcDbEntity
  8
10100_FRONT_DIM
370
     0
100
AcDbTrace
 10
28.12950378428622
 20
144.2167182361342
 30
0.0
 11
29.13971697903132
 21
143.6331255594545
 31
0.0
 12
30.38538841169744
 22
146.9555614820297
 32
0.0
 13
30.38538841169744
 23
146.9555614820297
 33
0.0
  0
POINT
  5
278
330
270
100
AcDbEntity
  8
DEFPOINTS
 62
     0
370
     0
100
AcDbPoint
 10
30.38538841169744
 20
146.9555614820297
 30
0.0
  0
POINT
  5
279
330
270
100
AcDbEntity
  8
DEFPOINTS
 62
     0
370
     0
100
AcDbPoint
 10
32.63638873603288
 20
150.8520980903322
 30
0.0
  0
ENDBLK
  5
27A
330
270
100
AcDbEntity
  8
0
 62
     7
370
     0
100
AcDbBlockEnd
  0
BLOCK
  5
2FD
330
293
100
AcDbEntity
  8
0
100
AcDbBlockBegin
  2
A$C08834A8C
 70
     0
 10
0.0
 20
0.0
 30
0.0
  3
A$C08834A8C
  1

  0
LINE
  5
294
330
293
100
AcDbEntity
  8
11000_LEFT
  6
Continuous
 62
     7
370
    35
100
AcDbLine
 10
181.9547534369946
 20
171.403829584488
 30
0.0
 11
181.9547534369946
 21
159.403829584488
 31
0.0
  0
ARC
  5
295
330
293
100
AcDbEntity
  8
11000_LEFT
  6
Continuous
 62
     7
370
    35
100
AcDbCircle
 10
156.4268894369946
 20
164.903829584488
 30
0.0
 40
2.0
100
AcDbArc
 50
243.4349490000007
 51
270.0
  0
LINE
  5
296
330
293
100
AcDbEntity
  8
11000_LEFT
  6
Continuous
 62
     7
370
    35
100
AcDbLine
 10
176.9547534369946
 20
162.903829584488
 30
0.0
 11
156.4268894369946
 21
162.903829584488
 31
0.0
  0
ARC
  5
297
330
293
100
AcDbEntity
  8
11000_LEFT
  6
Continuous
 62
     7
370
    35
100
AcDbCircle
 10
151.9547534369946
 20
166.021863584488
 30
0.0
 40
1.0
100
AcDbArc
 50
186.7786519999998
 51
243.4349490000007
  0
LINE
  5
298
330
293
100
AcDbEntity
  8
11000_LEFT
  6
Continuous
 62
     7
370
    35
100
AcDbLine
 10
155.5324624369946
 20
163.1149755844879
 30
0.0
 11
151.5075394369946
 21
165.127436584488
 31
0.0
  0
LINE
  5
299
330
293
100
AcDbEntity
  8
11000_LEFT
  6
Continuous
 62
     7
370
    35
100
AcDbLine
 10
150.9617434369946
 20
165.903829584488
 30
0.0
 11
176.9847534369947
 21
165.903829584488
 31
0.0
  0
LINE
  5
29A
330
293
100
AcDbEntity
  8
11000_LEFT
  6
Continuous
 62
     7
370
    35
100
AcDbLine
 10
176.9547534369946
 20
162.903829584488
 30
0.0
 11
176.9847534369947
 21
162.903829584488
 31
0.0
  0
LINE
  5
29B
330
293
100
AcDbEntity
  8
11000_LEFT
  6
Continuous
 62
     7
370
    35
100
AcDbLine
 10
150.9547534369946
 20
167.903829584488
 30
0.0
 11
150.9547534369946
 21
166.021863584488
 31
0.0
  0
LINE
  5
29C
330
293
100
AcDbEntity
  8
11000_LEFT
  6
Continuous
 62
     7
370
    35
100
AcDbLine
 10
176.9847534369947
 20
162.903829584488
 30
0.0
 11
180.9547534369946
 21
159.403829584488
 31
0.0
  0
LINE
  5
29D
330
293
100
AcDbEntity
  8
11000_LEFT
  6
Continuous
 62
     7
370
    35
100
AcDbLine
 10
180.9547534369946
 20
171.403829584488
 30
0.0
 11
176.9847534369947
 21
167.903829584488
 31
0.0
  0
LINE
  5
29E
330
293
100
AcDbEntity
  8
11000_LEFT
  6
Continuous
 62
     7
370
    35
100
AcDbLine
 10
176.9847534369947
 20
167.903829584488
 30
0.0
 11
150.9547534369946
 21
167.903829584488
 31
0.0
  0
LINE
  5
29F
330
293
100
AcDbEntity
  8
11000_LEFT
  6
Continuous
 62
     7
370
    35
100
AcDbLine
 10
180.9547534369946
 20
159.403829584488
 30
0.0
 11
181.9547534369946
 21
159.403829584488
 31
0.0
  0
LINE
  5
2A0
330
293
100
AcDbEntity
  8
11000_LEFT
  6
Continuous
 62
     7
370
    35
100
AcDbLine
 10
180.9547534369946
 20
171.403829584488
 30
0.0
 11
180.9547534369946
 21
159.403829584488
 31
0.0
  0
LINE
  5
2A1
330
293
100
AcDbEntity
  8
11000_LEFT
  6
Continuous
 62
     7
370
    35
100
AcDbLine
 10
176.9847534369947
 20
167.903829584488
 30
0.0
 11
176.9847534369947
 21
162.903829584488
 31
0.0
  0
LINE
  5
2A2
330
293
100
AcDbEntity
  8
11000_LEFT
  6
Continuous
 62
     7
370
    35
100
AcDbLine
 10
181.9547534369946
 20
171.403829584488
 30
0.0
 11
180.9547534369946
 21
171.403829584488
 31
0.0
  0
LINE
  5
2A3
330
293
100
AcDbEntity
  8
11000_LEFT
  6
Continuous
 62
     7
370
    35
100
AcDbLine
 10
181.9547534369946
 20
157.903829584488
 30
0.0
 11
181.9547534369946
 21
159.403829584488
 31
0.0
  0
LINE
  5
2A4
330
293
100
AcDbEntity
  8
11000_LEFT
  6
Continuous
 62
     7
370
    35
100
AcDbLine
 10
181.9547534369946
 20
171.403829584488
 30
0.0
 11
181.9547534369946
 21
172.903829584488
 31
0.0
  0
LINE
  5
2A5
330
293
100
AcDbEntity
  8
11000_LEFT
  6
Continuous
 62
     7
370
    35
100
AcDbLine
 10
191.9547534369946
 20
172.903829584488
 30
0.0
 11
181.9547534369946
 21
172.903829584488
 31
0.0
  0
LINE
  5
2A6
330
293
100
AcDbEntity
  8
11000_LEFT
  6
Continuous
 62
     7
370
    35
100
AcDbLine
 10
181.9547534369946
 20
157.903829584488
 30
0.0
 11
191.9547534369946
 21
157.903829584488
 31
0.0
  0
LINE
  5
2A7
330
293
100
AcDbEntity
  8
11000_LEFT
  6
Continuous
 62
     7
370
    35
100
AcDbLine
 10
191.9547534369946
 20
174.403829584488
 30
0.0
 11
191.9547534369946
 21
156.403829584488
 31
0.0
  0
LINE
  5
2A8
330
293
100
AcDbEntity
  8
11000_LEFT
  6
Continuous
 62
     7
370
    35
100
AcDbLine
 10
197.9547534369946
 20
174.403829584488
 30
0.0
 11
191.9547534369946
 21
174.403829584488
 31
0.0
  0
LINE
  5
2A9
330
293
100
AcDbEntity
  8
11000_LEFT
  6
Continuous
 62
     7
370
    35
100
AcDbLine
 10
197.9547534369946
 20
156.403829584488
 30
0.0
 11
191.9547534369946
 21
156.403829584488
 31
0.0
  0
LINE
  5
2AA
330
293
100
AcDbEntity
  8
11000_LEFT
  6
Continuous
 62
     7
370
    35
100
AcDbLine
 10
197.9547534369946
 20
174.403829584488
 30
0.0
 11
197.9547534369946
 21
156.403829584488
 31
0.0
  0
LINE
  5
2AB
330
293
100
AcDbEntity
  8
11000_LEFT
  6
Continuous
 62
     7
370
    35
100
AcDbLine
 10
191.9547534369946
 20
168.157156584488
 30
0.0
 11
191.9547534369946
 21
172.403829584488
 31
0.0
  0
LINE
  5
2AC
330
293
100
AcDbEntity
  8
11000_LEFT
  6
Continuous
 62
     7
370
    35
100
AcDbLine
 10
191.9547534369946
 20
158.403829584488
 30
0.0
 11
191.9547534369946
 21
162.650502584488
 31
0.0
  0
LINE
  5
2AD
330
293
100
AcDbEntity
  8
11000_LEFT
  6
Continuous
 62
     7
370
    35
100
AcDbLine
 10
191.9547534369946
 20
158.403829584488
 30
0.0
 11
191.9547534369946
 21
172.403829584488
 31
0.0
  0
LINE
  5
2AE
330
293
100
AcDbEntity
  8
11000_LEFT
  6
Continuous
 62
     7
370
    35
100
AcDbLine
 10
188.9547534369946
 20
160.121694584488
 30
0.0
 11
188.9547534369946
 21
170.685964584488
 31
0.0
  0
LINE
  5
2AF
330
293
100
AcDbEntity
  8
11000_LEFT
  6
Continuous
 62
     7
370
    35
100
AcDbLine
 10
190.9347534369946
 20
158.403829584488
 30
0.0
 11
191.9547534369946
 21
158.403829584488
 31
0.0
  0
LINE
  5
2B0
330
293
100
AcDbEntity
  8
11000_LEFT
  6
Continuous
 62
     7
370
    35
100
AcDbLine
 10
191.9547534369946
 20
172.403829584488
 30
0.0
 11
190.9347534369946
 21
172.403829584488
 31
0.0
  0
ARC
  5
2B1
330
293
100
AcDbEntity
  8
11000_LEFT
  6
Continuous
 62
     7
370
    35
100
AcDbCircle
 10
190.9347534369946
 20
170.403829584488
 30
0.0
 40
2.0
100
AcDbArc
 50
90.0
 51
171.8903859999995
  0
ARC
  5
2B2
330
293
100
AcDbEntity
  8
11000_LEFT
  6
Continuous
 62
     7
370
    35
100
AcDbCircle
 10
190.9347534369946
 20
160.403829584488
 30
0.0
 40
2.0
100
AcDbArc
 50
188.1096140000002
 51
270.0
  0
LINE
  5
2B3
330
293
100
AcDbEntity
  8
10000_FRONT
  6
Continuous
 62
     7
370
    35
100
AcDbLine
 10
70.41088858996336
 20
162.903829584488
 30
0.0
 11
70.41088858996336
 21
165.903829584488
 31
0.0
  0
LINE
  5
2B4
330
293
100
AcDbEntity
  8
10000_FRONT
  6
Continuous
 62
     7
370
    35
100
AcDbLine
 10
70.41088858996336
 20
165.903829584488
 30
0.0
 11
71.31088858996339
 21
165.903829584488
 31
0.0
  0
LINE
  5
2B5
330
293
100
AcDbEntity
  8
10000_FRONT
  6
Continuous
 62
     7
370
    35
100
AcDbLine
 10
68.61088858996339
 20
167.903829584488
 30
0.0
 11
67.31207358996337
 21
165.903829584488
 31
0.0
  0
LINE
  5
2B6
330
293
100
AcDbEntity
  8
10000_FRONT
  6
Continuous
 62
     7
370
    35
100
AcDbLine
 10
71.31088858996339
 20
167.903829584488
 30
0.0
 11
71.31088858996339
 21
162.903829584488
 31
0.0
  0
LINE
  5
2B7
330
293
100
AcDbEntity
  8
10000_FRONT
  6
Continuous
 62
     7
370
    35
100
AcDbLine
 10
61.71088858996338
 20
162.903829584488
 30
0.0
 11
71.31088858996339
 21
162.903829584488
 31
0.0
  0
LINE
  5
2B8
330
293
100
AcDbEntity
  8
10000_FRONT
  6
Continuous
 62
     7
370
    35
100
AcDbLine
 10
71.31088858996339
 20
166.021863584488
 30
0.0
 11
71.31088858996339
 21
165.903829584488
 31
0.0
  0
LINE
  5
2B9
330
293
100
AcDbEntity
  8
10000_FRONT
  6
Continuous
 62
     7
370
    35
100
AcDbLine
 10
67.31207358996337
 20
165.903829584488
 30
0.0
 11
65.70970358996335
 21
165.903829584488
 31
0.0
  0
LINE
  5
2BA
330
293
100
AcDbEntity
  8
10000_FRONT
  6
Continuous
 62
     7
370
    35
100
AcDbLine
 10
61.71088858996338
 20
165.903829584488
 30
0.0
 11
61.71088858996338
 21
166.021863584488
 31
0.0
  0
LINE
  5
2BB
330
293
100
AcDbEntity
  8
10000_FRONT
  6
Continuous
 62
     7
370
    35
100
AcDbLine
 10
61.71088858996338
 20
165.903829584488
 30
0.0
 11
62.61088858996338
 21
165.903829584488
 31
0.0
  0
LINE
  5
2BC
330
293
100
AcDbEntity
  8
10000_FRONT
  6
Continuous
 62
     7
370
    35
100
AcDbLine
 10
62.61088858996338
 20
165.903829584488
 30
0.0
 11
62.61088858996338
 21
162.903829584488
 31
0.0
  0
LINE
  5
2BD
330
293
100
AcDbEntity
  8
10000_FRONT
  6
Continuous
 62
     7
370
    35
100
AcDbLine
 10
61.71088858996338
 20
167.903829584488
 30
0.0
 11
71.31088858996339
 21
167.903829584488
 31
0.0
  0
LINE
  5
2BE
330
293
100
AcDbEntity
  8
10000_FRONT
  6
Continuous
 62
     7
370
    35
100
AcDbLine
 10
61.71088858996338
 20
162.903829584488
 30
0.0
 11
61.71088858996338
 21
167.903829584488
 31
0.0
  0
LINE
  5
2BF
330
293
100
AcDbEntity
  8
10000_FRONT
  6
Continuous
 62
     7
370
    35
100
AcDbLine
 10
65.70970358996335
 20
165.903829584488
 30
0.0
 11
64.41088858996336
 21
167.903829584488
 31
0.0
  0
LINE
  5
2C0
330
293
100
AcDbEntity
  8
10000_FRONT
  6
Continuous
 62
     7
370
    35
100
AcDbLine
 10
71.31088858996339
 20
162.903829584488
 30
0.0
 11
74.81088858996338
 21
159.403829584488
 31
0.0
  0
LINE
  5
2C1
330
293
100
AcDbEntity
  8
10000_FRONT
  6
Continuous
 62
     7
370
    35
100
AcDbLine
 10
58.21088858996336
 20
159.403829584488
 30
0.0
 11
61.71088858996338
 21
162.903829584488
 31
0.0
  0
LINE
  5
2C2
330
293
100
AcDbEntity
  8
10000_FRONT
  6
Continuous
 62
     7
370
    35
100
AcDbLine
 10
74.81088858996338
 20
159.403829584488
 30
0.0
 11
58.21088858996336
 21
159.403829584488
 31
0.0
  0
LINE
  5
2C3
330
293
100
AcDbEntity
  8
10000_FRONT
  6
Continuous
 62
     7
370
    35
100
AcDbLine
 10
74.81088858996338
 20
171.403829584488
 30
0.0
 11
71.31088858996339
 21
167.903829584488
 31
0.0
  0
LINE
  5
2C4
330
293
100
AcDbEntity
  8
10000_FRONT
  6
Continuous
 62
     7
370
    35
100
AcDbLine
 10
58.21088858996336
 20
171.403829584488
 30
0.0
 11
74.81088858996338
 21
171.403829584488
 31
0.0
  0
LINE
  5
2C5
330
293
100
AcDbEntity
  8
10000_FRONT
  6
Continuous
 62
     7
370
    35
100
AcDbLine
 10
61.71088858996338
 20
167.903829584488
 30
0.0
 11
58.21088858996336
 21
171.403829584488
 31
0.0
  0
LINE
  5
2C6
330
293
100
AcDbEntity
  8
10000_FRONT
  6
Continuous
 62
     7
370
    35
100
AcDbLine
 10
58.21088858996336
 20
171.403829584488
 30
0.0
 11
58.21088858996336
 21
159.403829584488
 31
0.0
  0
LINE
  5
2C7
330
293
100
AcDbEntity
  8
10000_FRONT
  6
Continuous
 62
     7
370
    35
100
AcDbLine
 10
74.81088858996338
 20
171.403829584488
 30
0.0
 11
74.81088858996338
 21
159.403829584488
 31
0.0
  0
LINE
  5
2C8
330
293
100
AcDbEntity
  8
10000_FRONT
  6
Continuous
 62
     7
370
    35
100
AcDbLine
 10
64.0108885899634
 20
157.903829584488
 30
0.0
 11
64.0108885899634
 21
159.403829584488
 31
0.0
  0
LINE
  5
2C9
330
293
100
AcDbEntity
  8
10000_FRONT
  6
Continuous
 62
     7
370
    35
100
AcDbLine
 10
69.0108885899634
 20
157.903829584488
 30
0.0
 11
69.0108885899634
 21
159.403829584488
 31
0.0
  0
LINE
  5
2CA
330
293
100
AcDbEntity
  8
10000_FRONT
  6
Continuous
 62
     7
370
    35
100
AcDbLine
 10
69.0108885899634
 20
171.403829584488
 30
0.0
 11
69.0108885899634
 21
172.903829584488
 31
0.0
  0
LINE
  5
2CB
330
293
100
AcDbEntity
  8
10000_FRONT
  6
Continuous
 62
     7
370
    35
100
AcDbLine
 10
64.0108885899634
 20
171.403829584488
 30
0.0
 11
64.0108885899634
 21
172.903829584488
 31
0.0
  0
LINE
  5
2CC
330
293
100
AcDbEntity
  8
10000_FRONT
  6
Continuous
 62
     7
370
    35
100
AcDbLine
 10
54.0108885899634
 20
157.903829584488
 30
0.0
 11
79.01088858996337
 21
157.903829584488
 31
0.0
  0
ARC
  5
2CD
330
293
100
AcDbEntity
  8
10000_FRONT
  6
Continuous
 62
     7
370
    35
100
AcDbCircle
 10
46.51088858996341
 20
165.403829584488
 30
0.0
 40
9.0
100
AcDbArc
 50
90.0
 51
270.0
  0
LINE
  5
2CE
330
293
100
AcDbEntity
  8
10000_FRONT
  6
Continuous
 62
     7
370
    35
100
AcDbLine
 10
86.51088858996336
 20
156.403829584488
 30
0.0
 11
46.51088858996341
 21
156.403829584488
 31
0.0
  0
ARC
  5
2CF
330
293
100
AcDbEntity
  8
10000_FRONT
  6
Continuous
 62
     7
370
    35
100
AcDbCircle
 10
86.51088858996336
 20
165.403829584488
 30
0.0
 40
9.0
100
AcDbArc
 50
270.0
 51
90.0
  0
LINE
  5
2D0
330
293
100
AcDbEntity
  8
10000_FRONT
  6
Continuous
 62
     7
370
    35
100
AcDbLine
 10
46.51088858996341
 20
174.403829584488
 30
0.0
 11
86.51088858996336
 21
174.403829584488
 31
0.0
  0
CIRCLE
  5
2D1
330
293
100
AcDbEntity
  8
10000_FRONT
  6
Continuous
 62
     7
370
    35
100
AcDbCircle
 10
46.51088858996341
 20
165.403829584488
 30
0.0
 40
7.0
  0
CIRCLE
  5
2D2
330
293
100
AcDbEntity
  8
10000_FRONT
  6
Continuous
 62
     7
370
    35
100
AcDbCircle
 10
46.51088858996341
 20
165.403829584488
 30
0.0
 40
5.282135
  0
CIRCLE
  5
2D3
330
293
100
AcDbEntity
  8
10000_FRONT
  6
Continuous
 62
     7
370
    35
100
AcDbCircle
 10
46.51088858996341
 20
165.403829584488
 30
0.0
 40
2.25
  0
CIRCLE
  5
2D4
330
293
100
AcDbEntity
  8
10000_FRONT
  6
Continuous
 62
     7
370
    35
100
AcDbCircle
 10
86.51088858996336
 20
165.403829584488
 30
0.0
 40
7.0
  0
CIRCLE
  5
2D5
330
293
100
AcDbEntity
  8
10000_FRONT
  6
Continuous
 62
     7
370
    35
100
AcDbCircle
 10
86.51088858996336
 20
165.403829584488
 30
0.0
 40
5.282135
  0
CIRCLE
  5
2D6
330
293
100
AcDbEntity
  8
10000_FRONT
  6
Continuous
 62
     7
370
    35
100
AcDbCircle
 10
86.51088858996336
 20
165.403829584488
 30
0.0
 40
2.25
  0
LINE
  5
2D7
330
293
100
AcDbEntity
  8
91000_TIP
  6
Continuous
 62
     7
370
    13
100
AcDbLine
 10
46.37946101609829
 20
32.71009079830714
 30
0.0
 11
56.37946101609827
 21
35.21009079830714
 31
0.0
  0
LINE
  5
2D8
330
293
100
AcDbEntity
  8
91000_TIP
  6
Continuous
 62
     7
370
    13
100
AcDbLine
 10
45.09995001609826
 20
30.21009079830714
 30
0.0
 11
68.70194001609829
 21
30.21009079830714
 31
0.0
  0
LINE
  5
2D9
330
293
100
AcDbEntity
  8
91000_TIP
  6
Continuous
 62
     7
370
    13
100
AcDbLine
 10
46.37946101609829
 20
27.71009079830714
 30
0.0
 11
56.37946101609827
 21
25.21009079830716
 31
0.0
  0
LINE
  5
2DA
330
293
100
AcDbEntity
  8
91000_TIP
  6
Continuous
 62
     7
370
    13
100
AcDbLine
 10
46.37946101609829
 20
32.71009079830714
 30
0.0
 11
46.37946101609829
 21
27.71009079830714
 31
0.0
  0
LINE
  5
2DB
330
293
100
AcDbEntity
  8
91000_TIP
  6
Continuous
 62
     7
370
    13
100
AcDbLine
 10
56.37946101609827
 20
35.21009079830714
 30
0.0
 11
56.37946101609827
 21
25.21009079830716
 31
0.0
  0
LINE
  5
2DC
330
293
100
AcDbEntity
  8
91000_TIP
  6
Continuous
 62
     7
370
    13
100
AcDbLine
 10
62.87946001609826
 20
24.48860979830717
 30
0.0
 11
62.87946001609826
 21
35.77199579830717
 31
0.0
  0
CIRCLE
  5
2DD
330
293
100
AcDbEntity
  8
91000_TIP
  6
Continuous
 62
     7
370
    13
100
AcDbCircle
 10
62.87946001609826
 20
30.21009079830714
 30
0.0
 40
5.0
  0
CIRCLE
  5
2DE
330
293
100
AcDbEntity
  8
91000_TIP
  6
Continuous
 62
     7
370
    13
100
AcDbCircle
 10
62.87946001609826
 20
30.21009079830714
 30
0.0
 40
2.5
  0
LINE
  5
2DF
330
293
100
AcDbEntity
  8
90000_FRAME
  6
Continuous
 62
     7
370
    13
100
AcDbLine
 10
75.00000001609828
 20
21.49999979830715
 30
0.0
 11
75.00000001609828
 21
39.49999979830714
 31
0.0
  0
DIMENSION
  5
2E0
330
293
100
AcDbEntity
  8
10100_FRONT_DIM
370
    18
100
AcDbDimension
  2
*D26
 10
95.52466597553594
 20
207.4038295844881
 30
0.0
 11
66.52466597553595
 21
209.6538295844881
 31
0.0
 12
15.00000001609828
 22
16.49999979830716
 32
0.0
 71
     5
 42
57.99999999999998
  3
H035
100
AcDbAlignedDimension
 13
37.52466597553598
 23
164.9108620470054
 33
0.0
 14
95.52466597553594
 24
164.9060313081216
 34
0.0
100
AcDbRotatedDimension
1001
ACAD
1000
DSTYLE
1002
{
1070
    42
1040
0.5
1070
    40
1040
1.0
1002
}
  0
DIMENSION
  5
2E1
330
293
100
AcDbEntity
  8
10100_FRONT_DIM
370
    18
100
AcDbDimension
  2
*D27
 10
86.51088858996336
 20
197.4038295844881
 30
0.0
 11
66.51777728274968
 21
199.6538295844881
 31
0.0
 12
15.00000001609828
 22
16.49999979830716
 32
0.0
 71
     5
 42
39.9862226144274
  3
H035
100
AcDbAlignedDimension
 13
46.52466597553597
 23
174.4060313081216
 33
0.0
 14
86.51088858996336
 24
174.403829584488
 34
0.0
100
AcDbRotatedDimension
1001
ACAD
1000
DSTYLE
1002
{
1070
   271
1070
     0
1070
    40
1040
1.0
1070
    42
1040
0.5
1002
}
  0
DIMENSION
  5
2E2
330
293
100
AcDbEntity
  8
10100_FRONT_DIM
370
    18
100
AcDbDimension
  2
*D28
 10
74.824665975536
 20
187.403829584488
 30
0.0
 11
66.52466597553601
 21
187.403829584488
 31
0.0
 12
15.00000001609828
 22
16.49999979830716
 32
0.0
 70
   128
 71
     5
 42
16.59999999999997
  3
H035
100
AcDbAlignedDimension
 13
58.22466597553603
 23
171.403829584488
 33
0.0
 14
74.824665975536
 24
171.403829584488
 34
0.0
100
AcDbRotatedDimension
1001
ACAD
1000
DSTYLE
1002
{
1070
   271
1070
     1
1070
    40
1040
1.0
1070
    42
1040
0.5
1002
}
  0
DIMENSION
  5
2E3
330
293
100
AcDbEntity
  8
10100_FRONT_DIM
370
    18
100
AcDbDimension
  2
*D29
 10
108.524665975536
 20
156.403829584488
 30
0.0
 11
106.274665975536
 21
165.4038236763249
 31
0.0
 12
15.00000001609828
 22
16.49999979830716
 32
0.0
 71
     5
 42
17.99998818367379
  3
H035
100
AcDbAlignedDimension
 13
86.52547261318298
 23
174.4038177681618
 33
0.0
 14
86.52466597553598
 24
156.403829584488
 34
0.0
 50
90.0
100
AcDbRotatedDimension
1001
ACAD
1000
DSTYLE
1002
{
1070
    40
1040
1.0
1070
    42
1040
0.5
1002
}
  0
DIMENSION
  5
2E4
330
293
100
AcDbEntity
  8
11100_LEFT_DIM
370
    18
100
AcDbDimension
  2
*D30
 10
191.9547534369947
 20
187.403829584488
 30
0.0
 11
194.9547534369947
 21
189.6538295844881
 31
0.0
 12
15.00000001609828
 22
16.49999979830716
 32
0.0
 71
     5
 42
6.0
  3
H035
100
AcDbAlignedDimension
 13
197.9547534369947
 23
174.403829584488
 33
0.0
 14
191.9547534369947
 24
174.403829584488
 34
0.0
100
AcDbRotatedDimension
1001
ACAD
1000
DSTYLE
1002
{
1070
    42
1040
0.5
1070
    40
1040
1.0
1002
}
  0
DIMENSION
  5
2E5
330
293
100
AcDbEntity
  8
11100_LEFT_DIM
370
    18
100
AcDbDimension
  2
*D31
 10
150.9547534369947
 20
197.4038295844881
 30
0.0
 11
174.4547534369947
 21
199.6538295844881
 31
0.0
 12
15.00000001609828
 22
16.49999979830716
 32
0.0
 71
     5
 42
47.0
  3
H035
100
AcDbAlignedDimension
 13
197.9547534369947
 23
174.403829584488
 33
0.0
 14
150.9547534369947
 24
167.903829584488
 34
0.0
100
AcDbRotatedDimension
1001
ACAD
1000
DSTYLE
1002
{
1070
    42
1040
0.5
1070
    40
1040
1.0
1002
}
  0
DIMENSION
  5
2E6
330
293
100
AcDbEntity
  8
11100_LEFT_DIM
370
    18
100
AcDbDimension
  2
*D32
 10
150.9547534369947
 20
187.403829584488
 30
0.0
 11
166.4547534369947
 21
189.6538295844881
 31
0.0
 12
15.00000001609828
 22
16.49999979830716
 32
0.0
 71
     5
 42
31.0
  3
H035
100
AcDbAlignedDimension
 13
181.9547534369947
 23
172.903829584488
 33
0.0
 14
150.9547534369947
 24
167.903829584488
 34
0.0
100
AcDbRotatedDimension
1001
ACAD
1000
DSTYLE
1002
{
1070
    40
1040
1.0
1070
    42
1040
0.5
1002
}
  0
DIMENSION
  5
2E7
330
293
100
AcDbEntity
  8
11100_LEFT_DIM
370
    18
100
AcDbDimension
  2
*D33
 10
197.9547534369946
 20
143.403829584488
 30
0.0
 11
193.4547534358719
 21
145.653829584488
 31
0.0
 12
15.00000001609828
 22
16.49999979830716
 32
0.0
 71
     5
 42
9.000000002245426
  3
H035
100
AcDbAlignedDimension
 13
188.9547534347491
 23
160.1216948806528
 33
0.0
 14
197.9547534369946
 24
156.403829584488
 34
0.0
100
AcDbRotatedDimension
1001
ACAD
1000
DSTYLE
1002
{
1070
    40
1040
1.0
1002
}
  0
LINE
  5
2E8
330
293
100
AcDbEntity
  8
10200_FRONT_SYM
 48
10.0
370
     0
100
AcDbLine
 10
86.51088858996343
 20
154.3967463513949
 30
0.0
 11
86.51088858996343
 21
176.4109128175813
 31
0.0
  0
LINE
  5
2E9
330
293
100
AcDbEntity
  8
10200_FRONT_SYM
 48
10.0
370
     0
100
AcDbLine
 10
46.51088858996343
 20
154.3967463513949
 30
0.0
 11
46.51088858996343
 21
176.4109128175813
 31
0.0
  0
LINE
  5
2EA
330
293
100
AcDbEntity
  8
10200_FRONT_SYM
 48
10.0
370
     0
100
AcDbLine
 10
35.50380535687021
 20
165.403829584488
 30
0.0
 11
57.51797182305663
 21
165.403829584488
 31
0.0
  0
LINE
  5
2EB
330
293
100
AcDbEntity
  8
10200_FRONT_SYM
 48
10.0
370
     0
100
AcDbLine
 10
75.5038053568703
 20
165.4038295844882
 30
0.0
 11
97.51797182305677
 21
165.4038295844882
 31
0.0
  0
LINE
  5
2EC
330
293
100
AcDbEntity
  8
11200_LEFT_SYM
 48
10.0
370
     0
100
AcDbLine
 10
186.0268253795726
 20
165.403829584488
 30
0.0
 11
201.3631842364722
 21
165.403829584488
 31
0.0
  0
LINE
  5
2ED
330
293
100
AcDbEntity
  8
10000_FRONT
  6
Continuous
 62
     7
370
    35
100
AcDbLine
 10
54.0108885899634
 20
172.903829584488
 30
0.0
 11
79.01088858996337
 21
172.903829584488
 31
0.0
  0
LINE
  5
2EE
330
293
100
AcDbEntity
  8
11000_LEFT
  6
Continuous
 62
     7
370
    35
100
AcDbLine
 10
150.9547534369946
 20
166.021863584488
 30
0.0
 11
150.9617438813369
 21
165.9038295962787
 31
0.0
  0
LWPOLYLINE
  5
2EF
330
293
100
AcDbEntity
  8
90200_FRAME_SIZE
100
AcDbPolyline
 90
        4
 70
     1
 43
0.0
 10
0.0000000160982836
 20
-0.000000201692842
 10
240.0000000160984
 20
-0.000000201692842
 10
240.0000000160984
 20
329.9999997983072
 10
0.0000000160982836
 20
329.9999997983073
1001
GENIUS_GENREC_14
1002
{
1000
PYDIR
1011
0.0000000160982836
1021
329.9999997983072
1031
0.0
1002
}
1002
{
1000
PXDIR
1011
240.0000000160984
1021
-0.000000201692842
1031
0.0
1002
}
1002
{
1000
PORI
1011
0.0000000160982836
1021
-0.000000201692842
1031
0.0
1002
}
1002
{
1000
PINS
1011
0.0000000160982836
1021
-0.000000201692842
1031
0.0
1002
}
1002
{
1000
HVAL
1000
330
1002
}
1002
{
1000
H
1070
     2
1002
}
1002
{
1000
WVAL
1000
240
1002
}
1002
{
1000
W
1070
     2
1002
}
1002
{
1000
C
1070
     1
1002
}
1001
GENIUS_GENODEF_13
1002
{
1000
HIER
1070
     0
1002
}
1002
{
1000
MANEDIT
1070
     0
1002
}
1002
{
1000
NOSEL
1070
     0
1002
}
1002
{
1000
BEHIND
1070
     0
1002
}
1002
{
1000
OTHER
1070
     0
1002
}
1002
{
1000
REACTOR
1002
}
1001
GENIUS_GENOBJ-N-REC_13
1002
{
1000
OWNER
1000
GEN
1002
}
  0
LWPOLYLINE
  5
2F0
330
293
100
AcDbEntity
  8
90100_FRAME_THICK
100
AcDbPolyline
 90
        4
 70
     1
 43
0.0
 10
15.00000001609828
 20
16.49999979830716
 10
225.0000000160984
 20
16.49999979830716
 10
225.0000000160984
 20
313.4999997983072
 10
15.00000001609828
 20
313.4999997983072
1001
GENIUS_GENREC_14
1002
{
1000
PYDIR
1011
15.00000001609828
1021
313.4999997983072
1031
0.0
1002
}
1002
{
1000
PXDIR
1011
225.0000000160984
1021
16.49999979830716
1031
0.0
1002
}
1002
{
1000
PORI
1011
15.00000001609828
1021
16.49999979830716
1031
0.0
1002
}
1002
{
1000
PINS
1011
15.00000001609828
1021
16.49999979830716
1031
0.0
1002
}
1002
{
1000
HVAL
1000
297
1002
}
1002
{
1000
H
1070
     2
1002
}
1002
{
1000
WVAL
1000
210
1002
}
1002
{
1000
W
1070
     2
1002
}
1002
{
1000
C
1070
     1
1002
}
1001
GENIUS_GENODEF_13
1002
{
1000
HIER
1070
     0
1002
}
1002
{
1000
MANEDIT
1070
     0
1002
}
1002
{
1000
NOSEL
1070
     0
1002
}
1002
{
1000
BEHIND
1070
     0
1002
}
1002
{
1000
OTHER
1070
     0
1002
}
1002
{
1000
REACTOR
1002
}
1001
GENIUS_GENOBJ-N-REC_13
1002
{
1000
OWNER
1000
GEN
1002
}
  0
LWPOLYLINE
  5
2F1
330
293
100
AcDbEntity
  8
90000_FRAME_THIN
100
AcDbPolyline
 90
        4
 70
     1
 43
0.0
 10
20.00000001609828
 20
21.49999979830716
 10
220.0000000160983
 20
21.49999979830716
 10
220.0000000160983
 20
308.4999997983072
 10
20.00000001609828
 20
308.4999997983072
1001
GENIUS_GENREC_14
1002
{
1000
PYDIR
1011
15.00000001609828
1021
313.4999997983072
1031
0.0
1002
}
1002
{
1000
PXDIR
1011
225.0000000160984
1021
16.49999979830716
1031
0.0
1002
}
1002
{
1000
PORI
1011
15.00000001609828
1021
16.49999979830716
1031
0.0
1002
}
1002
{
1000
PINS
1011
15.00000001609828
1021
16.49999979830716
1031
0.0
1002
}
1002
{
1000
HVAL
1000
297
1002
}
1002
{
1000
H
1070
     2
1002
}
1002
{
1000
WVAL
1000
210
1002
}
1002
{
1000
W
1070
     2
1002
}
1002
{
1000
C
1070
     1
1002
}
1001
GENIUS_GENODEF_13
1002
{
1000
HIER
1070
     0
1002
}
1002
{
1000
MANEDIT
1070
     0
1002
}
1002
{
1000
NOSEL
1070
     0
1002
}
1002
{
1000
BEHIND
1070
     0
1002
}
1002
{
1000
OTHER
1070
     0
1002
}
1002
{
1000
REACTOR
1002
}
1001
GENIUS_GENOBJ-N-REC_13
1002
{
1000
OWNER
1000
GEN
1002
}
  0
INSERT
  5
2F2
330
293
100
AcDbEntity
  8
0
100
AcDbBlockReference
 66
     1
  2
Title_A4P
 10
215.0000000160984
 20
26.49999979830716
 30
0.0
  0
ATTRIB
  5
2F3
330
2F2
100
AcDbEntity
  8
92000_TITLE
100
AcDbText
 10
98.00000001609873
 20
28.24999979830716
 30
0.0
 40
2.5
  1

 72
     1
 11
98.00000001609873
 21
29.49999979830716
 31
0.0
100
AcDbAttribute
  2
DATUM
 70
     0
 74
     2
  0
ATTRIB
  5
2F4
330
2F2
100
AcDbEntity
  8
92000_TITLE
100
AcDbText
 10
123.0000000160986
 20
28.24999979830716
 30
0.0
 40
2.5
  1

 72
     1
 11
123.0000000160986
 21
29.49999979830716
 31
0.0
100
AcDbAttribute
  2
NAME
 70
     0
 74
     2
  0
ATTRIB
  5
2F5
330
2F2
100
AcDbEntity
  8
92000_TITLE
100
AcDbText
 10
172.5000000160987
 20
38.74999979830728
 30
0.0
 40
3.5
  1

 72
     1
 11
172.5000000160987
 21
40.49999979830728
 31
0.0
100
AcDbAttribute
  2
ZEICHNUNGSNAME
 70
     0
 74
     2
  0
ATTRIB
  5
2F6
330
2F2
100
AcDbEntity
  8
92000_TITLE
100
AcDbText
 10
172.5000000160987
 20
33.24999979830727
 30
0.0
 40
2.5
  1

 72
     1
 11
172.5000000160987
 21
34.49999979830727
 31
0.0
100
AcDbAttribute
  2
ARTIKELNAME
 70
     0
 74
     2
  0
SEQEND
  5
2F7
330
2F2
100
AcDbEntity
  8
0
  0
TEXT
  5
2F8
330
293
100
AcDbEntity
  8
90000_FRAME
  6
Continuous
 62
     7
370
    13
100
AcDbText
 10
131.4480830160983
 20
39.20314179830717
 30
0.0
 40
3.0
  1
3SE5000_00001654_000_ALL
 41
0.7842130000000001
100
AcDbText
  0
TEXT
  5
2F9
330
293
100
AcDbEntity
  8
90000_FRAME
  6
Continuous
 62
     7
370
    13
100
AcDbText
 10
131.2959280160983
 20
34.20314179830717
 30
0.0
 40
2.2
  1
getr. Betätiger
 41
0.7842130000000001
100
AcDbText
  0
DIMENSION
  5
2FA
330
293
100
AcDbEntity
  8
10100_FRONT_DIM
370
    18
100
AcDbDimension
  2
*D35
 10
47.63638875213115
 20
167.3520978886393
 30
0.0
 11
37.05928587136071
 21
153.5408743856473
 31
0.0
 12
15.00000001609828
 22
16.49999979830716
 32
0.0
 70
     3
 71
     5
 42
4.5
  3
H035
100
AcDbDiametricDimension
 15
45.38538842779572
 25
163.4555612803368
 35
0.0
 40
0.0
1001
ACAD
1000
DSTYLE
1002
{
1070
    40
1040
1.0
1070
    42
1040
0.5
1070
   271
1070
     1
1002
}
  0
ENDBLK
  5
2FE
330
293
100
AcDbEntity
  8
0
100
AcDbBlockEnd
  0
BLOCK
  5
372
330
368
100
AcDbEntity
  8
0
100
AcDbBlockBegin
  2
*D37
 70
     1
 10
0.0
 20
0.0
 30
0.0
  3
*D37
  1

  0
LINE
  5
427
330
368
100
AcDbEntity
  8
10100_FRONT_DIM
 62
     7
370
    -2
100
AcDbLine
 10
628.9900979239257
 20
218.3646497628347
 30
0.0
 11
628.9900979239257
 21
262.3576173003174
 31
0.0
  0
LINE
  5
428
330
368
100
AcDbEntity
  8
10100_FRONT_DIM
 62
     7
370
    -2
100
AcDbLine
 10
686.9900979239258
 20
218.359819023951
 30
0.0
 11
686.9900979239258
 21
262.3576173003174
 31
0.0
  0
LINE
  5
429
330
368
100
AcDbEntity
  8
10100_FRONT_DIM
370
    -2
100
AcDbLine
 10
632.4900979239258
 20
260.3576173003174
 30
0.0
 11
683.4900979239257
 21
260.3576173003174
 31
0.0
  0
SOLID
  5
42A
330
368
100
AcDbEntity
  8
10100_FRONT_DIM
100
AcDbTrace
 10
632.4900979239258
 20
260.9409506336508
 30
0.0
 11
632.4900979239258
 21
259.7742839669841
 31
0.0
 12
628.9900979239257
 22
260.3576173003174
 32
0.0
 13
628.9900979239257
 23
260.3576173003174
 33
0.0
  0
SOLID
  5
42B
330
368
100
AcDbEntity
  8
10100_FRONT_DIM
100
AcDbTrace
 10
683.4900979239257
 20
260.9409506336508
 30
0.0
 11
683.4900979239257
 21
259.7742839669841
 31
0.0
 12
686.9900979239258
 22
260.3576173003174
 32
0.0
 13
686.9900979239258
 23
260.3576173003174
 33
0.0
  0
MTEXT
  5
42C
330
368
100
AcDbEntity
  8
10100_FRONT_DIM
 62
     7
370
    18
100
AcDbMText
 10
657.9900979239257
 20
262.6076173003174
 30
0.0
 40
3.5
 41
0.0
 71
     5
 72
     1
  1
\A1;58
 73
     1
 44
1.0
1001
ACAD
1000
MTEXTBEGIN
1070
    73
1070
     1
1070
    44
1040
1.0
1070
    74
1070
     0
1000
MTEXTEND
  0
POINT
  5
42D
330
368
100
AcDbEntity
  8
DEFPOINTS
 62
     0
100
AcDbPoint
 10
628.9900979239257
 20
217.8646497628347
 30
0.0
  0
POINT
  5
42E
330
368
100
AcDbEntity
  8
DEFPOINTS
 62
     0
100
AcDbPoint
 10
686.9900979239258
 20
217.8598190239509
 30
0.0
  0
POINT
  5
42F
330
368
100
AcDbEntity
  8
DEFPOINTS
 62
     0
100
AcDbPoint
 10
686.9900979239258
 20
260.3576173003174
 30
0.0
  0
ENDBLK
  5
373
330
368
100
AcDbEntity
  8
0
100
AcDbBlockEnd
  0
BLOCK
  5
37E
330
374
100
AcDbEntity
  8
0
100
AcDbBlockBegin
  2
*D38
 70
     1
 10
0.0
 20
0.0
 30
0.0
  3
*D38
  1

  0
LINE
  5
430
330
374
100
AcDbEntity
  8
10100_FRONT_DIM
 62
     7
370
    -2
100
AcDbLine
 10
637.9900979239257
 20
227.859819023951
 30
0.0
 11
637.9900979239257
 21
252.3576173003174
 31
0.0
  0
LINE
  5
431
330
374
100
AcDbEntity
  8
10100_FRONT_DIM
 62
     7
370
    -2
100
AcDbLine
 10
677.9763205383533
 20
227.8576173003174
 30
0.0
 11
677.9763205383533
 21
252.3576173003174
 31
0.0
  0
LINE
  5
432
330
374
100
AcDbEntity
  8
10100_FRONT_DIM
370
    -2
100
AcDbLine
 10
641.4900979239257
 20
250.3576173003174
 30
0.0
 11
674.4763205383533
 21
250.3576173003174
 31
0.0
  0
SOLID
  5
433
330
374
100
AcDbEntity
  8
10100_FRONT_DIM
100
AcDbTrace
 10
641.4900979239257
 20
250.9409506336508
 30
0.0
 11
641.4900979239257
 21
249.774283966984
 31
0.0
 12
637.9900979239257
 22
250.3576173003174
 32
0.0
 13
637.9900979239257
 23
250.3576173003174
 33
0.0
  0
SOLID
  5
434
330
374
100
AcDbEntity
  8
10100_FRONT_DIM
100
AcDbTrace
 10
674.4763205383533
 20
250.9409506336508
 30
0.0
 11
674.4763205383533
 21
249.774283966984
 31
0.0
 12
677.9763205383533
 22
250.3576173003174
 32
0.0
 13
677.9763205383533
 23
250.3576173003174
 33
0.0
  0
MTEXT
  5
435
330
374
100
AcDbEntity
  8
10100_FRONT_DIM
 62
     7
370
    18
100
AcDbMText
 10
657.9832092311396
 20
252.6076173003174
 30
0.0
 40
3.5
 41
0.0
 71
     5
 72
     1
  1
\A1;40
 73
     1
 44
1.0
1001
ACAD
1000
MTEXTBEGIN
1070
    73
1070
     1
1070
    44
1040
1.0
1070
    74
1070
     0
1000
MTEXTEND
  0
POINT
  5
436
330
374
100
AcDbEntity
  8
DEFPOINTS
 62
     0
100
AcDbPoint
 10
637.9900979239257
 20
227.359819023951
 30
0.0
  0
POINT
  5
437
330
374
100
AcDbEntity
  8
DEFPOINTS
 62
     0
100
AcDbPoint
 10
677.9763205383533
 20
227.3576173003174
 30
0.0
  0
POINT
  5
438
330
374
100
AcDbEntity
  8
DEFPOINTS
 62
     0
100
AcDbPoint
 10
677.9763205383533
 20
250.3576173003174
 30
0.0
  0
ENDBLK
  5
37F
330
374
100
AcDbEntity
  8
0
100
AcDbBlockEnd
  0
BLOCK
  5
38A
330
380
100
AcDbEntity
  8
0
100
AcDbBlockBegin
  2
*D39
 70
     1
 10
0.0
 20
0.0
 30
0.0
  3
*D39
  1

  0
LINE
  5
439
330
380
100
AcDbEntity
  8
10100_FRONT_DIM
 62
     7
370
    -2
100
AcDbLine
 10
649.6900979239257
 20
224.8576173003174
 30
0.0
 11
649.6900979239257
 21
242.3576173003174
 31
0.0
  0
LINE
  5
43A
330
380
100
AcDbEntity
  8
10100_FRONT_DIM
 62
     7
370
    -2
100
AcDbLine
 10
666.2900979239258
 20
224.8576173003174
 30
0.0
 11
666.2900979239258
 21
242.3576173003174
 31
0.0
  0
LINE
  5
43B
330
380
100
AcDbEntity
  8
10100_FRONT_DIM
370
    -2
100
AcDbLine
 10
653.1900979239257
 20
240.3576173003174
 30
0.0
 11
662.7900979239258
 21
240.3576173003174
 31
0.0
  0
SOLID
  5
43C
330
380
100
AcDbEntity
  8
10100_FRONT_DIM
100
AcDbTrace
 10
653.1900979239257
 20
240.9409506336507
 30
0.0
 11
653.1900979239257
 21
239.774283966984
 31
0.0
 12
649.6900979239257
 22
240.3576173003174
 32
0.0
 13
649.6900979239257
 23
240.3576173003174
 33
0.0
  0
SOLID
  5
43D
330
380
100
AcDbEntity
  8
10100_FRONT_DIM
100
AcDbTrace
 10
662.7900979239258
 20
240.9409506336507
 30
0.0
 11
662.7900979239258
 21
239.774283966984
 31
0.0
 12
666.2900979239258
 22
240.3576173003174
 32
0.0
 13
666.2900979239258
 23
240.3576173003174
 33
0.0
  0
MTEXT
  5
43E
330
380
100
AcDbEntity
  8
10100_FRONT_DIM
 62
     7
370
    18
100
AcDbMText
 10
657.9900979239257
 20
242.6076173003174
 30
0.0
 40
3.5
 41
0.0
 71
     5
 72
     1
  1
\A1;16.6
 73
     1
 44
1.0
1001
ACAD
1000
MTEXTBEGIN
1070
    73
1070
     1
1070
    44
1040
1.0
1070
    74
1070
     0
1000
MTEXTEND
  0
POINT
  5
43F
330
380
100
AcDbEntity
  8
DEFPOINTS
 62
     0
100
AcDbPoint
 10
649.6900979239257
 20
224.3576173003174
 30
0.0
  0
POINT
  5
440
330
380
100
AcDbEntity
  8
DEFPOINTS
 62
     0
100
AcDbPoint
 10
666.2900979239258
 20
224.3576173003174
 30
0.0
  0
POINT
  5
441
330
380
100
AcDbEntity
  8
DEFPOINTS
 62
     0
100
AcDbPoint
 10
666.2900979239258
 20
240.3576173003174
 30
0.0
  0
ENDBLK
  5
38B
330
380
100
AcDbEntity
  8
0
100
AcDbBlockEnd
  0
BLOCK
  5
396
330
38C
100
AcDbEntity
  8
0
100
AcDbBlockBegin
  2
*D40
 70
     1
 10
0.0
 20
0.0
 30
0.0
  3
*D40
  1

  0
LINE
  5
442
330
38C
100
AcDbEntity
  8
10100_FRONT_DIM
 62
     7
370
    -2
100
AcDbLine
 10
678.4909045615727
 20
227.3576054839911
 30
0.0
 11
701.990097923926
 21
227.3576054839911
 31
0.0
  0
LINE
  5
443
330
38C
100
AcDbEntity
  8
10100_FRONT_DIM
 62
     7
370
    -2
100
AcDbLine
 10
678.4900979239258
 20
209.3576173003174
 30
0.0
 11
701.990097923926
 21
209.3576173003174
 31
0.0
  0
LINE
  5
444
330
38C
100
AcDbEntity
  8
10100_FRONT_DIM
370
    -2
100
AcDbLine
 10
699.9900979239257
 20
223.8576054839912
 30
0.0
 11
699.9900979239257
 21
212.8576173003174
 31
0.0
  0
SOLID
  5
445
330
38C
100
AcDbEntity
  8
10100_FRONT_DIM
100
AcDbTrace
 10
699.4067645905925
 20
223.8576054839912
 30
0.0
 11
700.5734312572592
 21
223.8576054839912
 31
0.0
 12
699.9900979239257
 22
227.3576054839911
 32
0.0
 13
699.9900979239257
 23
227.3576054839911
 33
0.0
  0
SOLID
  5
446
330
38C
100
AcDbEntity
  8
10100_FRONT_DIM
100
AcDbTrace
 10
699.4067645905925
 20
212.8576173003174
 30
0.0
 11
700.5734312572592
 21
212.8576173003174
 31
0.0
 12
699.9900979239257
 22
209.3576173003174
 32
0.0
 13
699.9900979239257
 23
209.3576173003174
 33
0.0
  0
MTEXT
  5
447
330
38C
100
AcDbEntity
  8
10100_FRONT_DIM
 62
     7
370
    18
100
AcDbMText
 10
697.7400979239257
 20
218.3576113921544
 30
0.0
 40
3.5
 41
0.0
 71
     5
 72
     1
  1
\A1;18
 11
0.0000000000000001
 21
1.0
 31
0.0
 73
     1
 44
1.0
1001
ACAD
1000
MTEXTBEGIN
1070
    73
1070
     1
1070
    44
1040
1.0
1070
    74
1070
     0
1000
MTEXTEND
  0
POINT
  5
448
330
38C
100
AcDbEntity
  8
DEFPOINTS
 62
     0
100
AcDbPoint
 10
677.9909045615727
 20
227.3576054839911
 30
0.0
  0
POINT
  5
449
330
38C
100
AcDbEntity
  8
DEFPOINTS
 62
     0
100
AcDbPoint
 10
677.9900979239259
 20
209.3576173003174
 30
0.0
  0
POINT
  5
44A
330
38C
100
AcDbEntity
  8
DEFPOINTS
 62
     0
100
AcDbPoint
 10
699.9900979239257
 20
209.3576173003174
 30
0.0
  0
ENDBLK
  5
397
330
38C
100
AcDbEntity
  8
0
100
AcDbBlockEnd
  0
BLOCK
  5
3A4
330
398
100
AcDbEntity
  8
0
100
AcDbBlockBegin
  2
*D41
 70
     1
 10
0.0
 20
0.0
 30
0.0
  3
*D41
  1

  0
LINE
  5
44B
330
398
100
AcDbEntity
  8
11100_LEFT_DIM
 62
     7
370
    -2
100
AcDbLine
 10
789.4201853853846
 20
227.8576173003174
 30
0.0
 11
789.4201853853846
 21
242.3576173003174
 31
0.0
  0
LINE
  5
44C
330
398
100
AcDbEntity
  8
11100_LEFT_DIM
 62
     7
370
    -2
100
AcDbLine
 10
783.4201853853845
 20
227.8576173003174
 30
0.0
 11
783.4201853853845
 21
242.3576173003174
 31
0.0
  0
LINE
  5
44D
330
398
100
AcDbEntity
  8
11100_LEFT_DIM
370
    -2
100
AcDbLine
 10
792.9201853853847
 20
240.3576173003174
 30
0.0
 11
796.4201853853845
 21
240.3576173003174
 31
0.0
  0
LINE
  5
44E
330
398
100
AcDbEntity
  8
11100_LEFT_DIM
370
    -2
100
AcDbLine
 10
779.9201853853845
 20
240.3576173003174
 30
0.0
 11
776.4201853853847
 21
240.3576173003174
 31
0.0
  0
LINE
  5
44F
330
398
100
AcDbEntity
  8
11100_LEFT_DIM
370
    -2
100
AcDbLine
 10
789.4201853853846
 20
240.3576173003174
 30
0.0
 11
783.4201853853845
 21
240.3576173003174
 31
0.0
  0
SOLID
  5
450
330
398
100
AcDbEntity
  8
11100_LEFT_DIM
100
AcDbTrace
 10
792.9201853853847
 20
240.9409506336507
 30
0.0
 11
792.9201853853847
 21
239.774283966984
 31
0.0
 12
789.4201853853846
 22
240.3576173003174
 32
0.0
 13
789.4201853853846
 23
240.3576173003174
 33
0.0
  0
SOLID
  5
451
330
398
100
AcDbEntity
  8
11100_LEFT_DIM
100
AcDbTrace
 10
779.9201853853845
 20
240.9409506336507
 30
0.0
 11
779.9201853853845
 21
239.774283966984
 31
0.0
 12
783.4201853853845
 22
240.3576173003174
 32
0.0
 13
783.4201853853845
 23
240.3576173003174
 33
0.0
  0
MTEXT
  5
452
330
398
100
AcDbEntity
  8
11100_LEFT_DIM
 62
     7
370
    18
100
AcDbMText
 10
786.4201853853845
 20
242.6076173003174
 30
0.0
 40
3.5
 41
0.0
 71
     5
 72
     1
  1
\A1;6
 73
     1
 44
1.0
1001
ACAD
1000
MTEXTBEGIN
1070
    73
1070
     1
1070
    44
1040
1.0
1070
    74
1070
     0
1000
MTEXTEND
  0
POINT
  5
453
330
398
100
AcDbEntity
  8
DEFPOINTS
 62
     0
100
AcDbPoint
 10
789.4201853853846
 20
227.3576173003174
 30
0.0
  0
POINT
  5
454
330
398
100
AcDbEntity
  8
DEFPOINTS
 62
     0
100
AcDbPoint
 10
783.4201853853845
 20
227.3576173003174
 30
0.0
  0
POINT
  5
455
330
398
100
AcDbEntity
  8
DEFPOINTS
 62
     0
100
AcDbPoint
 10
783.4201853853845
 20
240.3576173003174
 30
0.0
  0
ENDBLK
  5
3A5
330
398
100
AcDbEntity
  8
0
100
AcDbBlockEnd
  0
BLOCK
  5
3B0
330
3A6
100
AcDbEntity
  8
0
100
AcDbBlockBegin
  2
*D42
 70
     1
 10
0.0
 20
0.0
 30
0.0
  3
*D42
  1

  0
LINE
  5
456
330
3A6
100
AcDbEntity
  8
11100_LEFT_DIM
 62
     7
370
    -2
100
AcDbLine
 10
789.4201853853846
 20
227.8576173003174
 30
0.0
 11
789.4201853853846
 21
252.3576173003174
 31
0.0
  0
LINE
  5
457
330
3A6
100
AcDbEntity
  8
11100_LEFT_DIM
 62
     7
370
    -2
100
AcDbLine
 10
742.4201853853845
 20
221.3576173003174
 30
0.0
 11
742.4201853853845
 21
252.3576173003174
 31
0.0
  0
LINE
  5
458
330
3A6
100
AcDbEntity
  8
11100_LEFT_DIM
370
    -2
100
AcDbLine
 10
785.9201853853845
 20
250.3576173003174
 30
0.0
 11
745.9201853853845
 21
250.3576173003174
 31
0.0
  0
SOLID
  5
459
330
3A6
100
AcDbEntity
  8
11100_LEFT_DIM
100
AcDbTrace
 10
785.9201853853845
 20
250.9409506336508
 30
0.0
 11
785.9201853853845
 21
249.774283966984
 31
0.0
 12
789.4201853853846
 22
250.3576173003174
 32
0.0
 13
789.4201853853846
 23
250.3576173003174
 33
0.0
  0
SOLID
  5
45A
330
3A6
100
AcDbEntity
  8
11100_LEFT_DIM
100
AcDbTrace
 10
745.9201853853845
 20
250.9409506336508
 30
0.0
 11
745.9201853853845
 21
249.774283966984
 31
0.0
 12
742.4201853853845
 22
250.3576173003174
 32
0.0
 13
742.4201853853845
 23
250.3576173003174
 33
0.0
  0
MTEXT
  5
45B
330
3A6
100
AcDbEntity
  8
11100_LEFT_DIM
 62
     7
370
    18
100
AcDbMText
 10
765.9201853853845
 20
252.6076173003174
 30
0.0
 40
3.5
 41
0.0
 71
     5
 72
     1
  1
\A1;47
 73
     1
 44
1.0
1001
ACAD
1000
MTEXTBEGIN
1070
    73
1070
     1
1070
    44
1040
1.0
1070
    74
1070
     0
1000
MTEXTEND
  0
POINT
  5
45C
330
3A6
100
AcDbEntity
  8
DEFPOINTS
 62
     0
100
AcDbPoint
 10
789.4201853853846
 20
227.3576173003174
 30
0.0
  0
POINT
  5
45D
330
3A6
100
AcDbEntity
  8
DEFPOINTS
 62
     0
100
AcDbPoint
 10
742.4201853853845
 20
220.8576173003174
 30
0.0
  0
POINT
  5
45E
330
3A6
100
AcDbEntity
  8
DEFPOINTS
 62
     0
100
AcDbPoint
 10
742.4201853853845
 20
250.3576173003174
 30
0.0
  0
ENDBLK
  5
3B1
330
3A6
100
AcDbEntity
  8
0
100
AcDbBlockEnd
  0
BLOCK
  5
3BC
330
3B2
100
AcDbEntity
  8
0
100
AcDbBlockBegin
  2
*D43
 70
     1
 10
0.0
 20
0.0
 30
0.0
  3
*D43
  1

  0
LINE
  5
45F
330
3B2
100
AcDbEntity
  8
11100_LEFT_DIM
 62
     7
370
    -2
100
AcDbLine
 10
773.4201853853845
 20
226.3576173003174
 30
0.0
 11
773.4201853853845
 21
242.3576173003174
 31
0.0
  0
LINE
  5
460
330
3B2
100
AcDbEntity
  8
11100_LEFT_DIM
 62
     7
370
    -2
100
AcDbLine
 10
742.4201853853845
 20
221.3576173003174
 30
0.0
 11
742.4201853853845
 21
242.3576173003174
 31
0.0
  0
LINE
  5
461
330
3B2
100
AcDbEntity
  8
11100_LEFT_DIM
370
    -2
100
AcDbLine
 10
769.9201853853845
 20
240.3576173003174
 30
0.0
 11
745.9201853853845
 21
240.3576173003174
 31
0.0
  0
SOLID
  5
462
330
3B2
100
AcDbEntity
  8
11100_LEFT_DIM
100
AcDbTrace
 10
769.9201853853845
 20
240.9409506336507
 30
0.0
 11
769.9201853853845
 21
239.774283966984
 31
0.0
 12
773.4201853853845
 22
240.3576173003174
 32
0.0
 13
773.4201853853845
 23
240.3576173003174
 33
0.0
  0
SOLID
  5
463
330
3B2
100
AcDbEntity
  8
11100_LEFT_DIM
100
AcDbTrace
 10
745.9201853853845
 20
240.9409506336507
 30
0.0
 11
745.9201853853845
 21
239.774283966984
 31
0.0
 12
742.4201853853845
 22
240.3576173003174
 32
0.0
 13
742.4201853853845
 23
240.3576173003174
 33
0.0
  0
MTEXT
  5
464
330
3B2
100
AcDbEntity
  8
11100_LEFT_DIM
 62
     7
370
    18
100
AcDbMText
 10
757.9201853853845
 20
242.6076173003174
 30
0.0
 40
3.5
 41
0.0
 71
     5
 72
     1
  1
\A1;31
 73
     1
 44
1.0
1001
ACAD
1000
MTEXTBEGIN
1070
    73
1070
     1
1070
    44
1040
1.0
1070
    74
1070
     0
1000
MTEXTEND
  0
POINT
  5
465
330
3B2
100
AcDbEntity
  8
DEFPOINTS
 62
     0
100
AcDbPoint
 10
773.4201853853845
 20
225.8576173003174
 30
0.0
  0
POINT
  5
466
330
3B2
100
AcDbEntity
  8
DEFPOINTS
 62
     0
100
AcDbPoint
 10
742.4201853853845
 20
220.8576173003174
 30
0.0
  0
POINT
  5
467
330
3B2
100
AcDbEntity
  8
DEFPOINTS
 62
     0
100
AcDbPoint
 10
742.4201853853845
 20
240.3576173003174
 30
0.0
  0
ENDBLK
  5
3BD
330
3B2
100
AcDbEntity
  8
0
100
AcDbBlockEnd
  0
BLOCK
  5
3C8
330
3BE
100
AcDbEntity
  8
0
100
AcDbBlockBegin
  2
*D44
 70
     1
 10
0.0
 20
0.0
 30
0.0
  3
*D44
  1

  0
LINE
  5
8A5
330
3BE
100
AcDbEntity
  8
11100_LEFT_DIM
 62
     7
370
    -2
100
AcDbLine
 10
527.5774735058791
 20
201.5950386198751
 30
0.0
 11
527.5774735058791
 21
182.8771733237104
 31
0.0
  0
LINE
  5
8A6
330
3BE
100
AcDbEntity
  8
11100_LEFT_DIM
 62
     7
370
    -2
100
AcDbLine
 10
536.5774735081246
 20
197.8771733237104
 30
0.0
 11
536.5774735081246
 21
182.8771733237104
 31
0.0
  0
LINE
  5
8A7
330
3BE
100
AcDbEntity
  8
11100_LEFT_DIM
370
    -2
100
AcDbLine
 10
531.0774735058791
 20
184.8771733237104
 30
0.0
 11
533.0774735081246
 21
184.8771733237104
 31
0.0
  0
SOLID
  5
8A8
330
3BE
100
AcDbEntity
  8
11100_LEFT_DIM
100
AcDbTrace
 10
531.0774735058791
 20
185.4605066570437
 30
0.0
 11
531.0774735058791
 21
184.293839990377
 31
0.0
 12
527.5774735058791
 22
184.8771733237104
 32
0.0
 13
527.5774735058791
 23
184.8771733237104
 33
0.0
  0
SOLID
  5
8A9
330
3BE
100
AcDbEntity
  8
11100_LEFT_DIM
100
AcDbTrace
 10
533.0774735081246
 20
185.4605066570437
 30
0.0
 11
533.0774735081246
 21
184.293839990377
 31
0.0
 12
536.5774735081246
 22
184.8771733237104
 32
0.0
 13
536.5774735081246
 23
184.8771733237104
 33
0.0
  0
MTEXT
  5
8AA
330
3BE
100
AcDbEntity
  8
11100_LEFT_DIM
 62
     7
370
    18
100
AcDbMText
 10
532.077473507002
 20
187.1271733237104
 30
0.0
 40
3.5
 41
0.0
 71
     5
 72
     1
  1
\A1;9
 73
     1
 44
1.0
1001
ACAD
1000
MTEXTBEGIN
1070
    73
1070
     1
1070
    44
1040
1.0
1070
    74
1070
     0
1000
MTEXTEND
  0
POINT
  5
8AB
330
3BE
100
AcDbEntity
  8
DEFPOINTS
 62
     0
100
AcDbPoint
 10
527.5774735058791
 20
201.5950386198751
 30
0.0
  0
POINT
  5
8AC
330
3BE
100
AcDbEntity
  8
DEFPOINTS
 62
     0
100
AcDbPoint
 10
536.5774735081246
 20
197.8771733237104
 30
0.0
  0
POINT
  5
8AD
330
3BE
100
AcDbEntity
  8
DEFPOINTS
 62
     0
100
AcDbPoint
 10
536.5774735081246
 20
184.8771733237104
 30
0.0
  0
ENDBLK
  5
3C9
330
3BE
100
AcDbEntity
  8
0
100
AcDbBlockEnd
  0
BLOCK
  5
3D3
330
3CA
100
AcDbEntity
  8
0
100
AcDbBlockBegin
  2
*D45
 70
     1
 10
0.0
 20
0.0
 30
0.0
  3
*D45
  1

  0
LINE
  5
471
330
3CA
100
AcDbEntity
  8
10100_FRONT_DIM
370
    -2
100
AcDbLine
 10
627.5967079316948
 20
200.3902540509229
 30
0.0
 11
635.1000423461469
 21
213.378709411931
 31
0.0
  0
LINE
  5
472
330
3CA
100
AcDbEntity
  8
10100_FRONT_DIM
370
    -2
100
AcDbLine
 10
640.8525987305599
 20
223.3365251887038
 30
0.0
 11
642.6033767605986
 21
226.3671647729391
 31
0.0
  0
MTEXT
  5
473
330
3CA
100
AcDbEntity
  8
10100_FRONT_DIM
 62
     7
370
    18
100
AcDbMText
 10
628.5247178197502
 20
206.4946621014771
 30
0.0
 40
3.5
 41
0.0
 71
     5
 72
     1
  1
\A1;\U+22054.5
 11
0.5002222942967947
 21
0.8658970240672104
 31
0.0
 73
     1
 44
1.0
1001
ACAD
1000
MTEXTBEGIN
1070
    73
1070
     1
1070
    44
1040
1.0
1070
    74
1070
     0
1000
MTEXTEND
  0
LINE
  5
474
330
3CA
100
AcDbEntity
  8
10100_FRONT_DIM
370
    -2
100
AcDbLine
 10
639.1018207005211
 20
220.3058856044687
 30
0.0
 11
636.8508203761856
 21
216.4093489961663
 31
0.0
  0
SOLID
  5
475
330
3CA
100
AcDbEntity
  8
10100_FRONT_DIM
100
AcDbTrace
 10
640.3474921331874
 20
223.6283215270436
 30
0.0
 11
641.3577053279323
 21
223.044728850364
 31
0.0
 12
639.1018207005211
 22
220.3058856044687
 32
0.0
 13
639.1018207005211
 23
220.3058856044687
 33
0.0
  0
SOLID
  5
476
330
3CA
100
AcDbEntity
  8
10100_FRONT_DIM
100
AcDbTrace
 10
634.5949357487742
 20
213.6705057502708
 30
0.0
 11
635.6051489435193
 21
213.0869130735912
 31
0.0
 12
636.8508203761856
 22
216.4093489961663
 32
0.0
 13
636.8508203761856
 23
216.4093489961663
 33
0.0
  0
POINT
  5
477
330
3CA
100
AcDbEntity
  8
DEFPOINTS
 62
     0
100
AcDbPoint
 10
636.8508203761856
 20
216.4093489961663
 30
0.0
  0
POINT
  5
478
330
3CA
100
AcDbEntity
  8
DEFPOINTS
 62
     0
100
AcDbPoint
 10
639.1018207005211
 20
220.3058856044687
 30
0.0
  0
ENDBLK
  5
3D4
330
3CA
100
AcDbEntity
  8
0
100
AcDbBlockEnd
  0
BLOCK
  5
484
330
47A
100
AcDbEntity
  8
0
100
AcDbBlockBegin
  2
*D46
 70
     1
 10
0.0
 20
0.0
 30
0.0
  3
*D46
  1

  0
LINE
  5
8AE
330
47A
100
AcDbEntity
  8
10100_FRONT_DIM
 62
     7
370
    -2
100
AcDbLine
 10
432.8937361666189
 20
248.5083203735908
 30
0.0
 11
432.8937361666189
 21
272.0075137359438
 31
0.0
  0
LINE
  5
8AF
330
47A
100
AcDbEntity
  8
10100_FRONT_DIM
 62
     7
370
    -2
100
AcDbLine
 10
450.8937243502925
 20
248.5075137359438
 30
0.0
 11
450.8937243502925
 21
272.0075137359438
 31
0.0
  0
LINE
  5
8B0
330
47A
100
AcDbEntity
  8
10100_FRONT_DIM
370
    -2
100
AcDbLine
 10
436.3937361666189
 20
270.0075137359438
 30
0.0
 11
447.3937243502925
 21
270.0075137359438
 31
0.0
  0
SOLID
  5
8B1
330
47A
100
AcDbEntity
  8
10100_FRONT_DIM
100
AcDbTrace
 10
436.3937361666189
 20
270.5908470692771
 30
0.0
 11
436.3937361666189
 21
269.4241804026105
 31
0.0
 12
432.8937361666189
 22
270.0075137359438
 32
0.0
 13
432.8937361666189
 23
270.0075137359438
 33
0.0
  0
SOLID
  5
8B2
330
47A
100
AcDbEntity
  8
10100_FRONT_DIM
100
AcDbTrace
 10
447.3937243502925
 20
270.5908470692771
 30
0.0
 11
447.3937243502925
 21
269.4241804026105
 31
0.0
 12
450.8937243502925
 22
270.0075137359438
 32
0.0
 13
450.8937243502925
 23
270.0075137359438
 33
0.0
  0
MTEXT
  5
8B3
330
47A
100
AcDbEntity
  8
10100_FRONT_DIM
 62
     7
370
    18
100
AcDbMText
 10
441.8937302584557
 20
272.2575137359438
 30
0.0
 40
3.5
 41
0.0
 71
     5
 72
     1
  1
\A1;18
 73
     1
 44
1.0
1001
ACAD
1000
MTEXTBEGIN
1070
    73
1070
     1
1070
    44
1040
1.0
1070
    74
1070
     0
1000
MTEXTEND
  0
POINT
  5
8B4
330
47A
100
AcDbEntity
  8
DEFPOINTS
 62
     0
100
AcDbPoint
 10
432.8937361666189
 20
248.0083203735908
 30
0.0
  0
POINT
  5
8B5
330
47A
100
AcDbEntity
  8
DEFPOINTS
 62
     0
100
AcDbPoint
 10
450.8937243502925
 20
248.0075137359438
 30
0.0
  0
POINT
  5
8B6
330
47A
100
AcDbEntity
  8
DEFPOINTS
 62
     0
100
AcDbPoint
 10
450.8937243502925
 20
270.0075137359438
 30
0.0
  0
ENDBLK
  5
485
330
47A
100
AcDbEntity
  8
0
100
AcDbBlockEnd
  0
BLOCK
  5
4B6
330
4AC
100
AcDbEntity
  8
0
100
AcDbBlockBegin
  2
*D47
 70
     1
 10
0.0
 20
0.0
 30
0.0
  3
*D47
  1

  0
LINE
  5
8B7
330
4AC
100
AcDbEntity
  8
10100_FRONT_DIM
 62
     7
370
    -2
100
AcDbLine
 10
441.3937243502926
 20
197.8771733237104
 30
0.0
 11
397.4007568128099
 21
197.8771733237104
 31
0.0
  0
LINE
  5
8B8
330
4AC
100
AcDbEntity
  8
10100_FRONT_DIM
 62
     7
370
    -2
100
AcDbLine
 10
441.3985550891764
 20
255.8771733237104
 30
0.0
 11
397.4007568128099
 21
255.8771733237104
 31
0.0
  0
LINE
  5
8B9
330
4AC
100
AcDbEntity
  8
10100_FRONT_DIM
370
    -2
100
AcDbLine
 10
399.4007568128099
 20
201.3771733237104
 30
0.0
 11
399.4007568128099
 21
252.3771733237104
 31
0.0
  0
SOLID
  5
8BA
330
4AC
100
AcDbEntity
  8
10100_FRONT_DIM
100
AcDbTrace
 10
398.8174234794766
 20
201.3771733237104
 30
0.0
 11
399.9840901461432
 21
201.3771733237104
 31
0.0
 12
399.4007568128099
 22
197.8771733237104
 32
0.0
 13
399.4007568128099
 23
197.8771733237104
 33
0.0
  0
SOLID
  5
8BB
330
4AC
100
AcDbEntity
  8
10100_FRONT_DIM
100
AcDbTrace
 10
398.8174234794766
 20
252.3771733237104
 30
0.0
 11
399.9840901461432
 21
252.3771733237104
 31
0.0
 12
399.4007568128099
 22
255.8771733237104
 32
0.0
 13
399.4007568128099
 23
255.8771733237104
 33
0.0
  0
MTEXT
  5
8BC
330
4AC
100
AcDbEntity
  8
10100_FRONT_DIM
 62
     7
370
    18
100
AcDbMText
 10
397.1507568128099
 20
226.8771733237104
 30
0.0
 40
3.5
 41
0.0
 71
     5
 72
     1
  1
\A1;58
 11
0.0000000000000001
 21
1.0
 31
0.0
 73
     1
 44
1.0
1001
ACAD
1000
MTEXTBEGIN
1070
    73
1070
     1
1070
    44
1040
1.0
1070
    74
1070
     0
1000
MTEXTEND
  0
POINT
  5
8BD
330
4AC
100
AcDbEntity
  8
DEFPOINTS
 62
     0
100
AcDbPoint
 10
441.8937243502925
 20
197.8771733237104
 30
0.0
  0
POINT
  5
8BE
330
4AC
100
AcDbEntity
  8
DEFPOINTS
 62
     0
100
AcDbPoint
 10
441.8985550891764
 20
255.8771733237104
 30
0.0
  0
POINT
  5
8BF
330
4AC
100
AcDbEntity
  8
DEFPOINTS
 62
     0
100
AcDbPoint
 10
399.4007568128099
 20
255.8771733237104
 30
0.0
  0
ENDBLK
  5
4B7
330
4AC
100
AcDbEntity
  8
0
100
AcDbBlockEnd
  0
BLOCK
  5
4C2
330
4B8
100
AcDbEntity
  8
0
100
AcDbBlockBegin
  2
*D48
 70
     1
 10
0.0
 20
0.0
 30
0.0
  3
*D48
  1

  0
LINE
  5
8C0
330
4B8
100
AcDbEntity
  8
10100_FRONT_DIM
 62
     7
370
    -2
100
AcDbLine
 10
431.8985550891763
 20
206.8771733237104
 30
0.0
 11
407.4007568128099
 21
206.8771733237104
 31
0.0
  0
LINE
  5
8C1
330
4B8
100
AcDbEntity
  8
10100_FRONT_DIM
 62
     7
370
    -2
100
AcDbLine
 10
431.9007568128099
 20
246.8633959381377
 30
0.0
 11
407.4007568128099
 21
246.8633959381377
 31
0.0
  0
LINE
  5
8C2
330
4B8
100
AcDbEntity
  8
10100_FRONT_DIM
370
    -2
100
AcDbLine
 10
409.4007568128098
 20
210.3771733237104
 30
0.0
 11
409.4007568128098
 21
243.3633959381377
 31
0.0
  0
SOLID
  5
8C3
330
4B8
100
AcDbEntity
  8
10100_FRONT_DIM
100
AcDbTrace
 10
408.8174234794766
 20
210.3771733237104
 30
0.0
 11
409.9840901461432
 21
210.3771733237104
 31
0.0
 12
409.4007568128098
 22
206.8771733237104
 32
0.0
 13
409.4007568128098
 23
206.8771733237104
 33
0.0
  0
SOLID
  5
8C4
330
4B8
100
AcDbEntity
  8
10100_FRONT_DIM
100
AcDbTrace
 10
408.8174234794766
 20
243.3633959381377
 30
0.0
 11
409.9840901461432
 21
243.3633959381377
 31
0.0
 12
409.4007568128098
 22
246.8633959381377
 32
0.0
 13
409.4007568128098
 23
246.8633959381377
 33
0.0
  0
MTEXT
  5
8C5
330
4B8
100
AcDbEntity
  8
10100_FRONT_DIM
 62
     7
370
    18
100
AcDbMText
 10
407.1507568128098
 20
226.8702846309241
 30
0.0
 40
3.5
 41
0.0
 71
     5
 72
     1
  1
\A1;40
 11
0.0000000000000001
 21
1.0
 31
0.0
 73
     1
 44
1.0
1001
ACAD
1000
MTEXTBEGIN
1070
    73
1070
     1
1070
    44
1040
1.0
1070
    74
1070
     0
1000
MTEXTEND
  0
POINT
  5
8C6
330
4B8
100
AcDbEntity
  8
DEFPOINTS
 62
     0
100
AcDbPoint
 10
432.3985550891763
 20
206.8771733237104
 30
0.0
  0
POINT
  5
8C7
330
4B8
100
AcDbEntity
  8
DEFPOINTS
 62
     0
100
AcDbPoint
 10
432.40075681281
 20
246.8633959381377
 30
0.0
  0
POINT
  5
8C8
330
4B8
100
AcDbEntity
  8
DEFPOINTS
 62
     0
100
AcDbPoint
 10
409.4007568128098
 20
246.8633959381377
 30
0.0
  0
ENDBLK
  5
4C3
330
4B8
100
AcDbEntity
  8
0
100
AcDbBlockEnd
  0
BLOCK
  5
4CE
330
4C4
100
AcDbEntity
  8
0
100
AcDbBlockBegin
  2
*D49
 70
     1
 10
0.0
 20
0.0
 30
0.0
  3
*D49
  1

  0
LINE
  5
8C9
330
4C4
100
AcDbEntity
  8
10100_FRONT_DIM
 62
     7
370
    -2
100
AcDbLine
 10
434.9007568128099
 20
218.5771733237104
 30
0.0
 11
417.4007568128099
 21
218.5771733237104
 31
0.0
  0
LINE
  5
8CA
330
4C4
100
AcDbEntity
  8
10100_FRONT_DIM
 62
     7
370
    -2
100
AcDbLine
 10
434.9007568128099
 20
235.1771733237105
 30
0.0
 11
417.4007568128099
 21
235.1771733237105
 31
0.0
  0
LINE
  5
8CB
330
4C4
100
AcDbEntity
  8
10100_FRONT_DIM
370
    -2
100
AcDbLine
 10
419.4007568128099
 20
222.0771733237104
 30
0.0
 11
419.4007568128099
 21
231.6771733237104
 31
0.0
  0
SOLID
  5
8CC
330
4C4
100
AcDbEntity
  8
10100_FRONT_DIM
100
AcDbTrace
 10
418.8174234794766
 20
222.0771733237104
 30
0.0
 11
419.9840901461432
 21
222.0771733237104
 31
0.0
 12
419.4007568128099
 22
218.5771733237104
 32
0.0
 13
419.4007568128099
 23
218.5771733237104
 33
0.0
  0
SOLID
  5
8CD
330
4C4
100
AcDbEntity
  8
10100_FRONT_DIM
100
AcDbTrace
 10
418.8174234794766
 20
231.6771733237104
 30
0.0
 11
419.9840901461432
 21
231.6771733237104
 31
0.0
 12
419.4007568128099
 22
235.1771733237105
 32
0.0
 13
419.4007568128099
 23
235.1771733237105
 33
0.0
  0
MTEXT
  5
8CE
330
4C4
100
AcDbEntity
  8
10100_FRONT_DIM
 62
     7
370
    18
100
AcDbMText
 10
417.1507568128099
 20
226.8771733237104
 30
0.0
 40
3.5
 41
0.0
 71
     5
 72
     1
  1
\A1;16.6
 11
0.0000000000000001
 21
1.0
 31
0.0
 73
     1
 44
1.0
1001
ACAD
1000
MTEXTBEGIN
1070
    73
1070
     1
1070
    44
1040
1.0
1070
    74
1070
     0
1000
MTEXTEND
  0
POINT
  5
8CF
330
4C4
100
AcDbEntity
  8
DEFPOINTS
 62
     0
100
AcDbPoint
 10
435.4007568128099
 20
218.5771733237104
 30
0.0
  0
POINT
  5
8D0
330
4C4
100
AcDbEntity
  8
DEFPOINTS
 62
     0
100
AcDbPoint
 10
435.4007568128099
 20
235.1771733237105
 30
0.0
  0
POINT
  5
8D1
330
4C4
100
AcDbEntity
  8
DEFPOINTS
 62
     0
100
AcDbPoint
 10
419.4007568128099
 20
235.1771733237105
 30
0.0
  0
ENDBLK
  5
4CF
330
4C4
100
AcDbEntity
  8
0
100
AcDbBlockEnd
  0
BLOCK
  5
56D
330
564
100
AcDbEntity
  8
0
100
AcDbBlockBegin
  2
*D50
 70
     1
 10
0.0
 20
0.0
 30
0.0
  3
*D50
  1

  0
LINE
  5
8D2
330
564
100
AcDbEntity
  8
10100_FRONT_DIM
370
    -2
100
AcDbLine
 10
459.8610875996874
 20
196.497560717052
 30
0.0
 11
446.8726322386792
 21
204.0008951315039
 31
0.0
  0
LINE
  5
8D3
330
564
100
AcDbEntity
  8
10100_FRONT_DIM
370
    -2
100
AcDbLine
 10
436.9148164619061
 20
209.7534515159171
 30
0.0
 11
433.8841768776709
 21
211.5042295459559
 31
0.0
  0
MTEXT
  5
8D4
330
564
100
AcDbEntity
  8
10100_FRONT_DIM
 62
     7
370
    18
100
AcDbMText
 10
456.0076798734687
 20
201.3221072134098
 30
0.0
 40
3.5
 41
0.0
 71
     5
 72
     1
  1
\A1;\U+22054.5
 11
0.8658970240672113
 21
-0.500222294296793
 31
0.0
 73
     1
 44
1.0
1001
ACAD
1000
MTEXTBEGIN
1070
    73
1070
     1
1070
    44
1040
1.0
1070
    74
1070
     0
1000
MTEXTEND
  0
LINE
  5
8D5
330
564
100
AcDbEntity
  8
10100_FRONT_DIM
370
    -2
100
AcDbLine
 10
439.9454560461414
 20
208.0026734858783
 30
0.0
 11
443.8419926544439
 21
205.7516731615427
 31
0.0
  0
SOLID
  5
8D6
330
564
100
AcDbEntity
  8
10100_FRONT_DIM
100
AcDbTrace
 10
437.2066128002459
 20
210.2585581132897
 30
0.0
 11
436.6230201235664
 21
209.2483449185446
 31
0.0
 12
439.9454560461414
 22
208.0026734858783
 32
0.0
 13
439.9454560461414
 23
208.0026734858783
 33
0.0
  0
SOLID
  5
8D7
330
564
100
AcDbEntity
  8
10100_FRONT_DIM
100
AcDbTrace
 10
447.164428577019
 20
204.5060017288765
 30
0.0
 11
446.5808359003395
 21
203.4957885341314
 31
0.0
 12
443.8419926544439
 22
205.7516731615427
 32
0.0
 13
443.8419926544439
 23
205.7516731615427
 33
0.0
  0
POINT
  5
8D8
330
564
100
AcDbEntity
  8
DEFPOINTS
 62
     0
100
AcDbPoint
 10
443.8419926544439
 20
205.7516731615427
 30
0.0
  0
POINT
  5
8D9
330
564
100
AcDbEntity
  8
DEFPOINTS
 62
     0
100
AcDbPoint
 10
439.9454560461414
 20
208.0026734858783
 30
0.0
  0
ENDBLK
  5
56E
330
564
100
AcDbEntity
  8
0
100
AcDbBlockEnd
  0
BLOCK
  5
5A5
330
599
100
AcDbEntity
  8
0
100
AcDbBlockBegin
  2
*D51
 70
     1
 10
0.0
 20
0.0
 30
0.0
  3
*D51
  1

  0
LINE
  5
8DA
330
599
100
AcDbEntity
  8
11100_LEFT_DIM
 62
     7
370
    -2
100
AcDbLine
 10
536.5774735058791
 20
256.3771733237104
 30
0.0
 11
536.5774735058791
 21
270.8771733237104
 31
0.0
  0
LINE
  5
8DB
330
599
100
AcDbEntity
  8
11100_LEFT_DIM
 62
     7
370
    -2
100
AcDbLine
 10
530.5774735058792
 20
256.3771733237104
 30
0.0
 11
530.5774735058792
 21
270.8771733237104
 31
0.0
  0
LINE
  5
8DC
330
599
100
AcDbEntity
  8
11100_LEFT_DIM
370
    -2
100
AcDbLine
 10
540.0774735058791
 20
268.8771733237104
 30
0.0
 11
543.5774735058791
 21
268.8771733237104
 31
0.0
  0
LINE
  5
8DD
330
599
100
AcDbEntity
  8
11100_LEFT_DIM
370
    -2
100
AcDbLine
 10
527.0774735058792
 20
268.8771733237104
 30
0.0
 11
523.5774735058793
 21
268.8771733237104
 31
0.0
  0
LINE
  5
8DE
330
599
100
AcDbEntity
  8
11100_LEFT_DIM
370
    -2
100
AcDbLine
 10
536.5774735058791
 20
268.8771733237104
 30
0.0
 11
530.5774735058792
 21
268.8771733237104
 31
0.0
  0
SOLID
  5
8DF
330
599
100
AcDbEntity
  8
11100_LEFT_DIM
100
AcDbTrace
 10
540.0774735058791
 20
269.4605066570437
 30
0.0
 11
540.0774735058791
 21
268.2938399903771
 31
0.0
 12
536.5774735058791
 22
268.8771733237104
 32
0.0
 13
536.5774735058791
 23
268.8771733237104
 33
0.0
  0
SOLID
  5
8E0
330
599
100
AcDbEntity
  8
11100_LEFT_DIM
100
AcDbTrace
 10
527.0774735058792
 20
269.4605066570437
 30
0.0
 11
527.0774735058792
 21
268.2938399903771
 31
0.0
 12
530.5774735058792
 22
268.8771733237104
 32
0.0
 13
530.5774735058792
 23
268.8771733237104
 33
0.0
  0
MTEXT
  5
8E1
330
599
100
AcDbEntity
  8
11100_LEFT_DIM
 62
     7
370
    18
100
AcDbMText
 10
533.5774735058792
 20
271.1271733237104
 30
0.0
 40
3.5
 41
0.0
 71
     5
 72
     1
  1
\A1;6
 73
     1
 44
1.0
1001
ACAD
1000
MTEXTBEGIN
1070
    73
1070
     1
1070
    44
1040
1.0
1070
    74
1070
     0
1000
MTEXTEND
  0
POINT
  5
8E2
330
599
100
AcDbEntity
  8
DEFPOINTS
 62
     0
100
AcDbPoint
 10
536.5774735058791
 20
255.8771733237104
 30
0.0
  0
POINT
  5
8E3
330
599
100
AcDbEntity
  8
DEFPOINTS
 62
     0
100
AcDbPoint
 10
530.5774735058792
 20
255.8771733237104
 30
0.0
  0
POINT
  5
8E4
330
599
100
AcDbEntity
  8
DEFPOINTS
 62
     0
100
AcDbPoint
 10
530.5774735058792
 20
268.8771733237104
 30
0.0
  0
ENDBLK
  5
5A6
330
599
100
AcDbEntity
  8
0
100
AcDbBlockEnd
  0
BLOCK
  5
5B1
330
5A7
100
AcDbEntity
  8
0
100
AcDbBlockBegin
  2
*D52
 70
     1
 10
0.0
 20
0.0
 30
0.0
  3
*D52
  1

  0
LINE
  5
8E5
330
5A7
100
AcDbEntity
  8
11100_LEFT_DIM
 62
     7
370
    -2
100
AcDbLine
 10
536.5774735058791
 20
256.3771733237104
 30
0.0
 11
536.5774735058791
 21
280.8771733237104
 31
0.0
  0
LINE
  5
8E6
330
5A7
100
AcDbEntity
  8
11100_LEFT_DIM
 62
     7
370
    -2
100
AcDbLine
 10
483.577473503634
 20
249.8771733237104
 30
0.0
 11
483.577473503634
 21
280.8771733237104
 31
0.0
  0
LINE
  5
8E7
330
5A7
100
AcDbEntity
  8
11100_LEFT_DIM
370
    -2
100
AcDbLine
 10
533.0774735058792
 20
278.8771733237104
 30
0.0
 11
487.0774735036341
 21
278.8771733237104
 31
0.0
  0
SOLID
  5
8E8
330
5A7
100
AcDbEntity
  8
11100_LEFT_DIM
100
AcDbTrace
 10
533.0774735058792
 20
279.4605066570437
 30
0.0
 11
533.0774735058792
 21
278.2938399903771
 31
0.0
 12
536.5774735058791
 22
278.8771733237104
 32
0.0
 13
536.5774735058791
 23
278.8771733237104
 33
0.0
  0
SOLID
  5
8E9
330
5A7
100
AcDbEntity
  8
11100_LEFT_DIM
100
AcDbTrace
 10
487.0774735036341
 20
279.4605066570437
 30
0.0
 11
487.0774735036341
 21
278.2938399903771
 31
0.0
 12
483.577473503634
 22
278.8771733237104
 32
0.0
 13
483.577473503634
 23
278.8771733237104
 33
0.0
  0
MTEXT
  5
8EA
330
5A7
100
AcDbEntity
  8
11100_LEFT_DIM
 62
     7
370
    18
100
AcDbMText
 10
510.0774735047566
 20
281.1271733237104
 30
0.0
 40
3.5
 41
0.0
 71
     5
 72
     1
  1
\A1;53
 73
     1
 44
1.0
1001
ACAD
1000
MTEXTBEGIN
1070
    73
1070
     1
1070
    44
1040
1.0
1070
    74
1070
     0
1000
MTEXTEND
  0
POINT
  5
8EB
330
5A7
100
AcDbEntity
  8
DEFPOINTS
 62
     0
100
AcDbPoint
 10
536.5774735058791
 20
255.8771733237104
 30
0.0
  0
POINT
  5
8EC
330
5A7
100
AcDbEntity
  8
DEFPOINTS
 62
     0
100
AcDbPoint
 10
483.577473503634
 20
249.3771733237104
 30
0.0
  0
POINT
  5
8ED
330
5A7
100
AcDbEntity
  8
DEFPOINTS
 62
     0
100
AcDbPoint
 10
483.577473503634
 20
278.8771733237104
 30
0.0
  0
ENDBLK
  5
5B2
330
5A7
100
AcDbEntity
  8
0
100
AcDbBlockEnd
  0
BLOCK
  5
5BD
330
5B3
100
AcDbEntity
  8
0
100
AcDbBlockBegin
  2
*D53
 70
     1
 10
0.0
 20
0.0
 30
0.0
  3
*D53
  1

  0
LINE
  5
8EE
330
5B3
100
AcDbEntity
  8
11100_LEFT_DIM
 62
     7
370
    -2
100
AcDbLine
 10
514.5774735036338
 20
233.3771733237104
 30
0.0
 11
514.5774735036338
 21
270.8771733237104
 31
0.0
  0
LINE
  5
8EF
330
5B3
100
AcDbEntity
  8
11100_LEFT_DIM
 62
     7
370
    -2
100
AcDbLine
 10
483.577473503634
 20
229.8771733237104
 30
0.0
 11
483.577473503634
 21
270.8771733237104
 31
0.0
  0
LINE
  5
8F0
330
5B3
100
AcDbEntity
  8
11100_LEFT_DIM
370
    -2
100
AcDbLine
 10
511.0774735036338
 20
268.8771733237104
 30
0.0
 11
487.0774735036341
 21
268.8771733237104
 31
0.0
  0
SOLID
  5
8F1
330
5B3
100
AcDbEntity
  8
11100_LEFT_DIM
100
AcDbTrace
 10
511.0774735036338
 20
269.4605066570437
 30
0.0
 11
511.0774735036338
 21
268.2938399903771
 31
0.0
 12
514.5774735036338
 22
268.8771733237104
 32
0.0
 13
514.5774735036338
 23
268.8771733237104
 33
0.0
  0
SOLID
  5
8F2
330
5B3
100
AcDbEntity
  8
11100_LEFT_DIM
100
AcDbTrace
 10
487.0774735036341
 20
269.4605066570437
 30
0.0
 11
487.0774735036341
 21
268.2938399903771
 31
0.0
 12
483.577473503634
 22
268.8771733237104
 32
0.0
 13
483.577473503634
 23
268.8771733237104
 33
0.0
  0
MTEXT
  5
8F3
330
5B3
100
AcDbEntity
  8
11100_LEFT_DIM
 62
     7
370
    18
100
AcDbMText
 10
499.077473503634
 20
271.1271733237104
 30
0.0
 40
3.5
 41
0.0
 71
     5
 72
     1
  1
\A1;31
 73
     1
 44
1.0
1001
ACAD
1000
MTEXTBEGIN
1070
    73
1070
     1
1070
    44
1040
1.0
1070
    74
1070
     0
1000
MTEXTEND
  0
POINT
  5
8F4
330
5B3
100
AcDbEntity
  8
DEFPOINTS
 62
     0
100
AcDbPoint
 10
514.5774735036338
 20
232.8771733237104
 30
0.0
  0
POINT
  5
8F5
330
5B3
100
AcDbEntity
  8
DEFPOINTS
 62
     0
100
AcDbPoint
 10
483.577473503634
 20
229.3771733237104
 30
0.0
  0
POINT
  5
8F6
330
5B3
100
AcDbEntity
  8
DEFPOINTS
 62
     0
100
AcDbPoint
 10
483.577473503634
 20
268.8771733237104
 30
0.0
  0
ENDBLK
  5
5BE
330
5B3
100
AcDbEntity
  8
0
100
AcDbBlockEnd
  0
BLOCK
  5
5FB
330
5EF
100
AcDbEntity
  8
0
100
AcDbBlockBegin
  2
*D54
 70
     1
 10
0.0
 20
0.0
 30
0.0
  3
*D54
  1

  0
LINE
  5
8F7
330
5EF
100
AcDbEntity
  8
11100_LEFT_DIM
 62
     7
370
    -2
100
AcDbLine
 10
537.0774735081246
 20
197.8771733237104
 30
0.0
 11
551.5774735081246
 21
197.8771733237104
 31
0.0
  0
LINE
  5
8F8
330
5EF
100
AcDbEntity
  8
11100_LEFT_DIM
 62
     7
370
    -2
100
AcDbLine
 10
537.0774735081246
 20
255.8771733237104
 30
0.0
 11
551.5774735081246
 21
255.8771733237104
 31
0.0
  0
LINE
  5
8F9
330
5EF
100
AcDbEntity
  8
11100_LEFT_DIM
370
    -2
100
AcDbLine
 10
549.5774735081246
 20
201.3771733237104
 30
0.0
 11
549.5774735081246
 21
252.3771733237104
 31
0.0
  0
SOLID
  5
8FA
330
5EF
100
AcDbEntity
  8
11100_LEFT_DIM
100
AcDbTrace
 10
548.9941401747912
 20
201.3771733237104
 30
0.0
 11
550.1608068414579
 21
201.3771733237104
 31
0.0
 12
549.5774735081246
 22
197.8771733237104
 32
0.0
 13
549.5774735081246
 23
197.8771733237104
 33
0.0
  0
SOLID
  5
8FB
330
5EF
100
AcDbEntity
  8
11100_LEFT_DIM
100
AcDbTrace
 10
548.9941401747912
 20
252.3771733237104
 30
0.0
 11
550.1608068414579
 21
252.3771733237104
 31
0.0
 12
549.5774735081246
 22
255.8771733237104
 32
0.0
 13
549.5774735081246
 23
255.8771733237104
 33
0.0
  0
MTEXT
  5
8FC
330
5EF
100
AcDbEntity
  8
11100_LEFT_DIM
 62
     7
370
    18
100
AcDbMText
 10
547.3274735081246
 20
226.8771733237105
 30
0.0
 40
3.5
 41
0.0
 71
     5
 72
     1
  1
\A1;58
 11
0.0000000000000001
 21
1.0
 31
0.0
 73
     1
 44
1.0
1001
ACAD
1000
MTEXTBEGIN
1070
    73
1070
     1
1070
    44
1040
1.0
1070
    74
1070
     0
1000
MTEXTEND
  0
POINT
  5
8FD
330
5EF
100
AcDbEntity
  8
DEFPOINTS
 62
     0
100
AcDbPoint
 10
536.5774735081246
 20
197.8771733237104
 30
0.0
  0
POINT
  5
8FE
330
5EF
100
AcDbEntity
  8
DEFPOINTS
 62
     0
100
AcDbPoint
 10
536.5774735081246
 20
255.8771733237104
 30
0.0
  0
POINT
  5
8FF
330
5EF
100
AcDbEntity
  8
DEFPOINTS
 62
     0
100
AcDbPoint
 10
549.5774735081246
 20
255.8771733237104
 30
0.0
  0
ENDBLK
  5
5FC
330
5EF
100
AcDbEntity
  8
0
100
AcDbBlockEnd
  0
BLOCK
  5
66B
330
66A
100
AcDbEntity
  8
0
100
AcDbBlockBegin
  2
B08543708023102007_0000000
 70
     0
 10
0.0
 20
0.0
 30
0.0
  3
B08543708023102007_0000000
  1

  0
LINE
  5
66C
330
66A
100
AcDbEntity
  8
0
  6
Continuous
 62
     1
100
AcDbLine
 10
13.0
 20
-24.00001
 30
0.0
 11
13.0
 21
-39.00000993333333
 31
0.0
  0
LINE
  5
66D
330
66A
100
AcDbEntity
  8
0
  6
Continuous
 62
     1
100
AcDbLine
 10
13.0
 20
-39.00001006666667
 30
0.0
 11
13.0
 21
-40.00001
 31
0.0
  0
INSERT
  5
66E
330
66A
100
AcDbEntity
  8
0
100
AcDbBlockReference
  2
B08543708023102007_0000001
 10
0.0
 20
0.0
 30
0.0
  0
LINE
  5
66F
330
66A
100
AcDbEntity
  8
0
  6
Continuous
 62
     1
100
AcDbLine
 10
22.0
 20
-40.00001
 30
0.0
 11
22.0
 21
-29.00001000000001
 31
0.0
  0
ENDBLK
  5
670
330
66A
100
AcDbEntity
  8
0
100
AcDbBlockEnd
  0
BLOCK
  5
672
330
671
100
AcDbEntity
  8
0
100
AcDbBlockBegin
  2
B08543708023102007_0000001
 70
     0
 10
0.0
 20
0.0
 30
0.0
  3
B08543708023102007_0000001
  1

  0
INSERT
  5
673
330
671
100
AcDbEntity
  8
0
100
AcDbBlockReference
  2
B08543708023102007_0000002
 10
0.0
 20
0.0
 30
0.0
  0
INSERT
  5
674
330
671
100
AcDbEntity
  8
0
100
AcDbBlockReference
  2
B08543708023102007_0000003
 10
0.0
 20
0.0
 30
0.0
  0
INSERT
  5
675
330
671
100
AcDbEntity
  8
0
100
AcDbBlockReference
  2
B08543708023102007_0000004
 10
0.0
 20
0.0
 30
0.0
  0
LINE
  5
676
330
671
100
AcDbEntity
  8
0
  6
Continuous
 62
     1
100
AcDbLine
 10
30.0
 20
-39.00001000000001
 30
0.0
 11
4.999999999999998
 21
-39.00001000000001
 31
0.0
  0
ENDBLK
  5
677
330
671
100
AcDbEntity
  8
0
100
AcDbBlockEnd
  0
BLOCK
  5
679
330
678
100
AcDbEntity
  8
0
100
AcDbBlockBegin
  2
B08543708023102007_0000002
 70
     0
 10
0.0
 20
0.0
 30
0.0
  3
B08543708023102007_0000002
  1

  0
LINE
  5
67A
330
678
100
AcDbEntity
  8
0
  6
Continuous
 62
     1
100
AcDbLine
 10
13.0
 20
-39.00001000000001
 30
0.0
 11
8.999999999999998
 21
-40.00001
 31
0.0
  0
LINE
  5
67B
330
678
100
AcDbEntity
  8
0
  6
Continuous
 62
     1
100
AcDbLine
 10
8.999999999999998
 20
-40.00001
 30
0.0
 11
8.999999999999998
 21
-38.00001
 31
0.0
  0
LINE
  5
67C
330
678
100
AcDbEntity
  8
0
  6
Continuous
 62
     1
100
AcDbLine
 10
8.999999999999998
 20
-38.00001
 30
0.0
 11
13.0
 21
-39.00001000000001
 31
0.0
  0
ENDBLK
  5
67D
330
678
100
AcDbEntity
  8
0
100
AcDbBlockEnd
  0
BLOCK
  5
67F
330
67E
100
AcDbEntity
  8
0
100
AcDbBlockBegin
  2
B08543708023102007_0000003
 70
     0
 10
0.0
 20
0.0
 30
0.0
  3
B08543708023102007_0000003
  1

  0
LINE
  5
680
330
67E
100
AcDbEntity
  8
0
  6
Continuous
 62
     1
100
AcDbLine
 10
22.0
 20
-39.00001000000001
 30
0.0
 11
26.0
 21
-38.00001
 31
0.0
  0
LINE
  5
681
330
67E
100
AcDbEntity
  8
0
  6
Continuous
 62
     1
100
AcDbLine
 10
26.0
 20
-38.00001
 30
0.0
 11
26.0
 21
-40.00001
 31
0.0
  0
LINE
  5
682
330
67E
100
AcDbEntity
  8
0
  6
Continuous
 62
     1
100
AcDbLine
 10
26.0
 20
-40.00001
 30
0.0
 11
22.0
 21
-39.00001000000001
 31
0.0
  0
ENDBLK
  5
683
330
67E
100
AcDbEntity
  8
0
100
AcDbBlockEnd
  0
BLOCK
  5
685
330
684
100
AcDbEntity
  8
0
100
AcDbBlockBegin
  2
B08543708023102007_0000004
 70
     0
 10
0.0
 20
0.0
 30
0.0
  3
B08543708023102007_0000004
  1

  0
TEXT
  5
686
330
684
100
AcDbEntity
  8
0
  6
Continuous
 62
     7
100
AcDbText
 10
16.33333333333333
 20
-38.00001
 30
0.0
 40
3.5
  1
9
  7
TXT
 72
     1
 11
17.5
 21
-38.00001
 31
0.0
100
AcDbText
  0
ENDBLK
  5
687
330
684
100
AcDbEntity
  8
0
100
AcDbBlockEnd
  0
BLOCK
  5
689
330
688
100
AcDbEntity
  8
0
100
AcDbBlockBegin
  2
B08543708023102007_0000005
 70
     0
 10
0.0
 20
0.0
 30
0.0
  3
B08543708023102007_0000005
  1

  0
LINE
  5
68A
330
688
100
AcDbEntity
  8
0
  6
Continuous
 62
     1
100
AcDbLine
 10
16.0
 20
29.00001
 30
0.0
 11
16.0
 21
39.00000988333334
 31
0.0
  0
LINE
  5
68B
330
688
100
AcDbEntity
  8
0
  6
Continuous
 62
     1
100
AcDbLine
 10
16.0
 20
39.00001011666667
 30
0.0
 11
16.0
 21
40.00001
 31
0.0
  0
INSERT
  5
68C
330
688
100
AcDbEntity
  8
0
100
AcDbBlockReference
  2
B08543708023102007_0000006
 10
0.0
 20
0.0
 30
0.0
  0
LINE
  5
68D
330
688
100
AcDbEntity
  8
0
  6
Continuous
 62
     1
100
AcDbLine
 10
22.0
 20
40.00001
 30
0.0
 11
22.0
 21
29.00001000000001
 31
0.0
  0
ENDBLK
  5
68E
330
688
100
AcDbEntity
  8
0
100
AcDbBlockEnd
  0
BLOCK
  5
690
330
68F
100
AcDbEntity
  8
0
100
AcDbBlockBegin
  2
B08543708023102007_0000006
 70
     0
 10
0.0
 20
0.0
 30
0.0
  3
B08543708023102007_0000006
  1

  0
INSERT
  5
691
330
68F
100
AcDbEntity
  8
0
100
AcDbBlockReference
  2
B08543708023102007_0000007
 10
0.0
 20
0.0
 30
0.0
  0
INSERT
  5
692
330
68F
100
AcDbEntity
  8
0
100
AcDbBlockReference
  2
B08543708023102007_0000008
 10
0.0
 20
0.0
 30
0.0
  0
INSERT
  5
693
330
68F
100
AcDbEntity
  8
0
100
AcDbBlockReference
  2
B08543708023102007_0000009
 10
0.0
 20
0.0
 30
0.0
  0
LINE
  5
694
330
68F
100
AcDbEntity
  8
0
  6
Continuous
 62
     1
100
AcDbLine
 10
30.0
 20
39.00001000000001
 30
0.0
 11
8.0
 21
39.00001000000001
 31
0.0
  0
ENDBLK
  5
695
330
68F
100
AcDbEntity
  8
0
100
AcDbBlockEnd
  0
BLOCK
  5
697
330
696
100
AcDbEntity
  8
0
100
AcDbBlockBegin
  2
B08543708023102007_0000007
 70
     0
 10
0.0
 20
0.0
 30
0.0
  3
B08543708023102007_0000007
  1

  0
LINE
  5
698
330
696
100
AcDbEntity
  8
0
  6
Continuous
 62
     1
100
AcDbLine
 10
16.0
 20
39.00001000000001
 30
0.0
 11
12.0
 21
38.00001
 31
0.0
  0
LINE
  5
699
330
696
100
AcDbEntity
  8
0
  6
Continuous
 62
     1
100
AcDbLine
 10
12.0
 20
38.00001
 30
0.0
 11
12.0
 21
40.00001
 31
0.0
  0
LINE
  5
69A
330
696
100
AcDbEntity
  8
0
  6
Continuous
 62
     1
100
AcDbLine
 10
12.0
 20
40.00001
 30
0.0
 11
16.0
 21
39.00001000000001
 31
0.0
  0
ENDBLK
  5
69B
330
696
100
AcDbEntity
  8
0
100
AcDbBlockEnd
  0
BLOCK
  5
69D
330
69C
100
AcDbEntity
  8
0
100
AcDbBlockBegin
  2
B08543708023102007_0000008
 70
     0
 10
0.0
 20
0.0
 30
0.0
  3
B08543708023102007_0000008
  1

  0
LINE
  5
69E
330
69C
100
AcDbEntity
  8
0
  6
Continuous
 62
     1
100
AcDbLine
 10
22.0
 20
39.00001000000001
 30
0.0
 11
26.0
 21
40.00001
 31
0.0
  0
LINE
  5
69F
330
69C
100
AcDbEntity
  8
0
  6
Continuous
 62
     1
100
AcDbLine
 10
26.0
 20
40.00001
 30
0.0
 11
26.0
 21
38.00001
 31
0.0
  0
LINE
  5
6A0
330
69C
100
AcDbEntity
  8
0
  6
Continuous
 62
     1
100
AcDbLine
 10
26.0
 20
38.00001
 30
0.0
 11
22.0
 21
39.00001000000001
 31
0.0
  0
ENDBLK
  5
6A1
330
69C
100
AcDbEntity
  8
0
100
AcDbBlockEnd
  0
BLOCK
  5
6A3
330
6A2
100
AcDbEntity
  8
0
100
AcDbBlockBegin
  2
B08543708023102007_0000009
 70
     0
 10
0.0
 20
0.0
 30
0.0
  3
B08543708023102007_0000009
  1

  0
TEXT
  5
6A4
330
6A2
100
AcDbEntity
  8
0
  6
Continuous
 62
     7
100
AcDbText
 10
17.83333333333333
 20
40.00001
 30
0.0
 40
3.5
  1
6
  7
TXT
 72
     1
 11
19.0
 21
40.00001
 31
0.0
100
AcDbText
  0
ENDBLK
  5
6A5
330
6A2
100
AcDbEntity
  8
0
100
AcDbBlockEnd
  0
BLOCK
  5
6A7
330
6A6
100
AcDbEntity
  8
0
100
AcDbBlockBegin
  2
B08543708023102007_0000010
 70
     0
 10
0.0
 20
0.0
 30
0.0
  3
B08543708023102007_0000010
  1

  0
LINE
  5
6A8
330
6A6
100
AcDbEntity
  8
0
  6
Continuous
 62
     1
100
AcDbLine
 10
-31.0
 20
39.00001021666667
 30
0.0
 11
-31.0
 21
46.00000983333333
 31
0.0
  0
LINE
  5
6A9
330
6A6
100
AcDbEntity
  8
0
  6
Continuous
 62
     1
100
AcDbLine
 10
-31.0
 20
46.00001016666666
 30
0.0
 11
-31.0
 21
47.00001
 31
0.0
  0
LINE
  5
6AA
330
6A6
100
AcDbEntity
  8
0
  6
Continuous
 62
     1
100
AcDbLine
 10
-31.0
 20
0.0
 30
0.0
 11
-31.0
 21
39.00000978333334
 31
0.0
  0
INSERT
  5
6AB
330
6A6
100
AcDbEntity
  8
0
100
AcDbBlockReference
  2
B08543708023102007_0000011
 10
0.0
 20
0.0
 30
0.0
  0
LINE
  5
6AC
330
6A6
100
AcDbEntity
  8
0
  6
Continuous
 62
     1
100
AcDbLine
 10
22.00000000000001
 20
47.00001
 30
0.0
 11
22.00000000000001
 21
29.00001000000001
 31
0.0
  0
ENDBLK
  5
6AD
330
6A6
100
AcDbEntity
  8
0
100
AcDbBlockEnd
  0
BLOCK
  5
6AF
330
6AE
100
AcDbEntity
  8
0
100
AcDbBlockBegin
  2
B08543708023102007_0000011
 70
     0
 10
0.0
 20
0.0
 30
0.0
  3
B08543708023102007_0000011
  1

  0
INSERT
  5
6B0
330
6AE
100
AcDbEntity
  8
0
100
AcDbBlockReference
  2
B08543708023102007_0000012
 10
0.0
 20
0.0
 30
0.0
  0
INSERT
  5
6B1
330
6AE
100
AcDbEntity
  8
0
100
AcDbBlockReference
  2
B08543708023102007_0000013
 10
0.0
 20
0.0
 30
0.0
  0
INSERT
  5
6B2
330
6AE
100
AcDbEntity
  8
0
100
AcDbBlockReference
  2
B08543709623102007_0000014
 10
0.0
 20
0.0
 30
0.0
  0
LINE
  5
6B3
330
6AE
100
AcDbEntity
  8
0
  6
Continuous
 62
     1
100
AcDbLine
 10
-31.0
 20
46.00001
 30
0.0
 11
22.00000000000001
 21
46.00001
 31
0.0
  0
ENDBLK
  5
6B4
330
6AE
100
AcDbEntity
  8
0
100
AcDbBlockEnd
  0
BLOCK
  5
6B6
330
6B5
100
AcDbEntity
  8
0
100
AcDbBlockBegin
  2
B08543708023102007_0000012
 70
     0
 10
0.0
 20
0.0
 30
0.0
  3
B08543708023102007_0000012
  1

  0
LINE
  5
6B7
330
6B5
100
AcDbEntity
  8
0
  6
Continuous
 62
     1
100
AcDbLine
 10
-31.0
 20
46.00001
 30
0.0
 11
-27.0
 21
47.00001
 31
0.0
  0
LINE
  5
6B8
330
6B5
100
AcDbEntity
  8
0
  6
Continuous
 62
     1
100
AcDbLine
 10
-27.0
 20
47.00001
 30
0.0
 11
-27.0
 21
45.00001
 31
0.0
  0
LINE
  5
6B9
330
6B5
100
AcDbEntity
  8
0
  6
Continuous
 62
     1
100
AcDbLine
 10
-27.0
 20
45.00001
 30
0.0
 11
-31.0
 21
46.00001
 31
0.0
  0
ENDBLK
  5
6BA
330
6B5
100
AcDbEntity
  8
0
100
AcDbBlockEnd
  0
BLOCK
  5
6BC
330
6BB
100
AcDbEntity
  8
0
100
AcDbBlockBegin
  2
B08543708023102007_0000013
 70
     0
 10
0.0
 20
0.0
 30
0.0
  3
B08543708023102007_0000013
  1

  0
LINE
  5
6BD
330
6BB
100
AcDbEntity
  8
0
  6
Continuous
 62
     1
100
AcDbLine
 10
22.00000000000001
 20
46.00001
 30
0.0
 11
18.0
 21
45.00001
 31
0.0
  0
LINE
  5
6BE
330
6BB
100
AcDbEntity
  8
0
  6
Continuous
 62
     1
100
AcDbLine
 10
18.0
 20
45.00001
 30
0.0
 11
18.0
 21
47.00001
 31
0.0
  0
LINE
  5
6BF
330
6BB
100
AcDbEntity
  8
0
  6
Continuous
 62
     1
100
AcDbLine
 10
18.0
 20
47.00001
 30
0.0
 11
22.00000000000001
 21
46.00001
 31
0.0
  0
ENDBLK
  5
6C0
330
6BB
100
AcDbEntity
  8
0
100
AcDbBlockEnd
  0
BLOCK
  5
6C2
330
6C1
100
AcDbEntity
  8
0
100
AcDbBlockBegin
  2
B08543709623102007_0000014
 70
     0
 10
0.0
 20
0.0
 30
0.0
  3
B08543709623102007_0000014
  1

  0
TEXT
  5
6C3
330
6C1
100
AcDbEntity
  8
0
  6
Continuous
 62
     7
100
AcDbText
 10
-7.416666666666662
 20
47.00001
 30
0.0
 40
3.5
  1
53
  7
TXT
 72
     1
 11
-4.499999999999996
 21
47.00001
 31
0.0
100
AcDbText
  0
ENDBLK
  5
6C4
330
6C1
100
AcDbEntity
  8
0
100
AcDbBlockEnd
  0
BLOCK
  5
6C6
330
6C5
100
AcDbEntity
  8
0
100
AcDbBlockBegin
  2
B08543709623102007_0000015
 70
     0
 10
0.0
 20
0.0
 30
0.0
  3
B08543709623102007_0000015
  1

  0
LINE
  5
6C7
330
6C5
100
AcDbEntity
  8
0
  6
Continuous
 62
     1
100
AcDbLine
 10
-31.0
 20
0.0
 30
0.0
 11
-31.0
 21
39.00000978333334
 31
0.0
  0
LINE
  5
6C8
330
6C5
100
AcDbEntity
  8
0
  6
Continuous
 62
     1
100
AcDbLine
 10
-31.0
 20
39.00001021666667
 30
0.0
 11
-31.0
 21
40.00001
 31
0.0
  0
INSERT
  5
6C9
330
6C5
100
AcDbEntity
  8
0
100
AcDbBlockReference
  2
B08543709623102007_0000016
 10
0.0
 20
0.0
 30
0.0
  0
LINE
  5
6CA
330
6C5
100
AcDbEntity
  8
0
  6
Continuous
 62
     1
100
AcDbLine
 10
0.0000000000000036
 20
40.00001
 30
0.0
 11
0.0000000000000015
 21
6.0
 31
0.0
  0
ENDBLK
  5
6CB
330
6C5
100
AcDbEntity
  8
0
100
AcDbBlockEnd
  0
BLOCK
  5
6CD
330
6CC
100
AcDbEntity
  8
0
100
AcDbBlockBegin
  2
B08543709623102007_0000016
 70
     0
 10
0.0
 20
0.0
 30
0.0
  3
B08543709623102007_0000016
  1

  0
INSERT
  5
6CE
330
6CC
100
AcDbEntity
  8
0
100
AcDbBlockReference
  2
B08543709623102007_0000017
 10
0.0
 20
0.0
 30
0.0
  0
INSERT
  5
6CF
330
6CC
100
AcDbEntity
  8
0
100
AcDbBlockReference
  2
B08543709623102007_0000018
 10
0.0
 20
0.0
 30
0.0
  0
INSERT
  5
6D0
330
6CC
100
AcDbEntity
  8
0
100
AcDbBlockReference
  2
B08543709623102007_0000019
 10
0.0
 20
0.0
 30
0.0
  0
LINE
  5
6D1
330
6CC
100
AcDbEntity
  8
0
  6
Continuous
 62
     1
100
AcDbLine
 10
-31.0
 20
39.00001000000001
 30
0.0
 11
0.0000000000000036
 21
39.00001000000001
 31
0.0
  0
ENDBLK
  5
6D2
330
6CC
100
AcDbEntity
  8
0
100
AcDbBlockEnd
  0
BLOCK
  5
6D4
330
6D3
100
AcDbEntity
  8
0
100
AcDbBlockBegin
  2
B08543709623102007_0000017
 70
     0
 10
0.0
 20
0.0
 30
0.0
  3
B08543709623102007_0000017
  1

  0
LINE
  5
6D5
330
6D3
100
AcDbEntity
  8
0
  6
Continuous
 62
     1
100
AcDbLine
 10
-31.0
 20
39.00001000000001
 30
0.0
 11
-27.0
 21
40.00001
 31
0.0
  0
LINE
  5
6D6
330
6D3
100
AcDbEntity
  8
0
  6
Continuous
 62
     1
100
AcDbLine
 10
-27.0
 20
40.00001
 30
0.0
 11
-27.0
 21
38.00001
 31
0.0
  0
LINE
  5
6D7
330
6D3
100
AcDbEntity
  8
0
  6
Continuous
 62
     1
100
AcDbLine
 10
-27.0
 20
38.00001
 30
0.0
 11
-31.0
 21
39.00001000000001
 31
0.0
  0
ENDBLK
  5
6D8
330
6D3
100
AcDbEntity
  8
0
100
AcDbBlockEnd
  0
BLOCK
  5
6DA
330
6D9
100
AcDbEntity
  8
0
100
AcDbBlockBegin
  2
B08543709623102007_0000018
 70
     0
 10
0.0
 20
0.0
 30
0.0
  3
B08543709623102007_0000018
  1

  0
LINE
  5
6DB
330
6D9
100
AcDbEntity
  8
0
  6
Continuous
 62
     1
100
AcDbLine
 10
0.0000000000000036
 20
39.00001000000001
 30
0.0
 11
-3.999999999999996
 21
38.00001
 31
0.0
  0
LINE
  5
6DC
330
6D9
100
AcDbEntity
  8
0
  6
Continuous
 62
     1
100
AcDbLine
 10
-3.999999999999996
 20
38.00001
 30
0.0
 11
-3.999999999999996
 21
40.00001
 31
0.0
  0
LINE
  5
6DD
330
6D9
100
AcDbEntity
  8
0
  6
Continuous
 62
     1
100
AcDbLine
 10
-3.999999999999996
 20
40.00001
 30
0.0
 11
0.0000000000000036
 21
39.00001000000001
 31
0.0
  0
ENDBLK
  5
6DE
330
6D9
100
AcDbEntity
  8
0
100
AcDbBlockEnd
  0
BLOCK
  5
6E0
330
6DF
100
AcDbEntity
  8
0
100
AcDbBlockBegin
  2
B08543709623102007_0000019
 70
     0
 10
0.0
 20
0.0
 30
0.0
  3
B08543709623102007_0000019
  1

  0
TEXT
  5
6E1
330
6DF
100
AcDbEntity
  8
0
  6
Continuous
 62
     7
100
AcDbText
 10
-17.83333333333333
 20
40.00001
 30
0.0
 40
3.5
  1
31
  7
TXT
 72
     1
 11
-15.5
 21
40.00001
 31
0.0
100
AcDbText
  0
ENDBLK
  5
6E2
330
6DF
100
AcDbEntity
  8
0
100
AcDbBlockEnd
  0
BLOCK
  5
6E4
330
6E3
100
AcDbEntity
  8
0
100
AcDbBlockBegin
  2
B08543709623102007_0000020
 70
     0
 10
0.0
 20
0.0
 30
0.0
  3
B08543709623102007_0000020
  1

  0
LINE
  5
6E5
330
6E3
100
AcDbEntity
  8
0
  6
Continuous
 62
     1
100
AcDbLine
 10
22.0
 20
-29.0
 30
0.0
 11
31.99999973333333
 21
-29.0
 31
0.0
  0
LINE
  5
6E6
330
6E3
100
AcDbEntity
  8
0
  6
Continuous
 62
     1
100
AcDbLine
 10
32.00000026666666
 20
-29.0
 30
0.0
 11
33.0
 21
-29.0
 31
0.0
  0
INSERT
  5
6E7
330
6E3
100
AcDbEntity
  8
0
100
AcDbBlockReference
  2
B08543709623102007_0000021
 10
0.0
 20
0.0
 30
0.0
  0
LINE
  5
6E8
330
6E3
100
AcDbEntity
  8
0
  6
Continuous
 62
     1
100
AcDbLine
 10
33.0
 20
29.0
 30
0.0
 11
22.0
 21
29.0
 31
0.0
  0
ENDBLK
  5
6E9
330
6E3
100
AcDbEntity
  8
0
100
AcDbBlockEnd
  0
BLOCK
  5
6EB
330
6EA
100
AcDbEntity
  8
0
100
AcDbBlockBegin
  2
B08543709623102007_0000021
 70
     0
 10
0.0
 20
0.0
 30
0.0
  3
B08543709623102007_0000021
  1

  0
INSERT
  5
6EC
330
6EA
100
AcDbEntity
  8
0
100
AcDbBlockReference
  2
B08543709623102007_0000022
 10
0.0
 20
0.0
 30
0.0
  0
INSERT
  5
6ED
330
6EA
100
AcDbEntity
  8
0
100
AcDbBlockReference
  2
B08543709623102007_0000023
 10
0.0
 20
0.0
 30
0.0
  0
INSERT
  5
6EE
330
6EA
100
AcDbEntity
  8
0
100
AcDbBlockReference
  2
B08543709623102007_0000024
 10
0.0
 20
0.0
 30
0.0
  0
LINE
  5
6EF
330
6EA
100
AcDbEntity
  8
0
  6
Continuous
 62
     1
100
AcDbLine
 10
32.0
 20
-29.0
 30
0.0
 11
32.0
 21
29.0
 31
0.0
  0
ENDBLK
  5
6F0
330
6EA
100
AcDbEntity
  8
0
100
AcDbBlockEnd
  0
BLOCK
  5
6F2
330
6F1
100
AcDbEntity
  8
0
100
AcDbBlockBegin
  2
B08543709623102007_0000022
 70
     0
 10
0.0
 20
0.0
 30
0.0
  3
B08543709623102007_0000022
  1

  0
LINE
  5
6F3
330
6F1
100
AcDbEntity
  8
0
  6
Continuous
 62
     1
100
AcDbLine
 10
32.0
 20
-29.0
 30
0.0
 11
31.0
 21
-25.0
 31
0.0
  0
LINE
  5
6F4
330
6F1
100
AcDbEntity
  8
0
  6
Continuous
 62
     1
100
AcDbLine
 10
31.0
 20
-25.0
 30
0.0
 11
33.0
 21
-25.0
 31
0.0
  0
LINE
  5
6F5
330
6F1
100
AcDbEntity
  8
0
  6
Continuous
 62
     1
100
AcDbLine
 10
33.0
 20
-25.0
 30
0.0
 11
32.0
 21
-29.0
 31
0.0
  0
ENDBLK
  5
6F6
330
6F1
100
AcDbEntity
  8
0
100
AcDbBlockEnd
  0
BLOCK
  5
6F8
330
6F7
100
AcDbEntity
  8
0
100
AcDbBlockBegin
  2
B08543709623102007_0000023
 70
     0
 10
0.0
 20
0.0
 30
0.0
  3
B08543709623102007_0000023
  1

  0
LINE
  5
6F9
330
6F7
100
AcDbEntity
  8
0
  6
Continuous
 62
     1
100
AcDbLine
 10
32.0
 20
29.0
 30
0.0
 11
33.0
 21
25.0
 31
0.0
  0
LINE
  5
6FA
330
6F7
100
AcDbEntity
  8
0
  6
Continuous
 62
     1
100
AcDbLine
 10
33.0
 20
25.0
 30
0.0
 11
31.0
 21
25.0
 31
0.0
  0
LINE
  5
6FB
330
6F7
100
AcDbEntity
  8
0
  6
Continuous
 62
     1
100
AcDbLine
 10
31.0
 20
25.0
 30
0.0
 11
32.0
 21
29.0
 31
0.0
  0
ENDBLK
  5
6FC
330
6F7
100
AcDbEntity
  8
0
100
AcDbBlockEnd
  0
BLOCK
  5
6FE
330
6FD
100
AcDbEntity
  8
0
100
AcDbBlockBegin
  2
B08543709623102007_0000024
 70
     0
 10
0.0
 20
0.0
 30
0.0
  3
B08543709623102007_0000024
  1

  0
TEXT
  5
6FF
330
6FD
100
AcDbEntity
  8
0
  6
Continuous
 62
     7
100
AcDbText
 10
31.0
 20
-2.916666666666666
 30
0.0
 40
3.5
  1
58
 50
90.0
  7
TXT
 72
     1
 11
31.0
 21
0.0000000000000001
 31
0.0
100
AcDbText
  0
ENDBLK
  5
700
330
6FD
100
AcDbEntity
  8
0
100
AcDbBlockEnd
  0
BLOCK
  5
759
330
701
100
AcDbEntity
  8
0
100
AcDbBlockBegin
  2
A$C293953F1
 70
     0
 10
0.0
 20
0.0
 30
0.0
  3
A$C293953F1
  1

  0
LINE
  5
702
330
701
100
AcDbEntity
  8
0
  6
Continuous
 62
     7
100
AcDbLine
 10
30.99999978990491
 20
46.0000099110855
 30
0.0
 11
30.99999978990491
 21
34.0000099110855
 31
0.0
  0
ARC
  5
703
330
701
100
AcDbEntity
  8
0
  6
Continuous
 62
     7
100
AcDbCircle
 10
5.472135744904466
 20
39.50000991108547
 30
0.0
 40
1.999999999999973
100
AcDbArc
 50
243.4349488229218
 51
270.0
  0
LINE
  5
704
330
701
100
AcDbEntity
  8
0
  6
Continuous
 62
     7
100
AcDbLine
 10
25.99999978990491
 20
37.5000099110855
 30
0.0
 11
5.472135744904466
 21
37.5000099110855
 31
0.0
  0
ARC
  5
705
330
701
100
AcDbEntity
  8
0
  6
Continuous
 62
     7
100
AcDbCircle
 10
0.9999997899048977
 20
40.61804389983538
 30
0.0
 40
1.000000000000001
100
AcDbArc
 50
186.7786520311942
 51
243.4349488229217
  0
LINE
  5
706
330
701
100
AcDbEntity
  8
0
  6
Continuous
 62
     7
100
AcDbLine
 10
4.57770855390456
 20
37.71115552908566
 30
0.0
 11
0.5527861944049342
 21
39.72361670883547
 31
0.0
  0
LINE
  5
707
330
701
100
AcDbEntity
  8
0
  6
Continuous
 62
     7
100
AcDbLine
 10
0.0069902343115018
 20
40.50000991108549
 30
0.0
 11
25.99999978990491
 21
40.50000991108549
 31
0.0
  0
LINE
  5
708
330
701
100
AcDbEntity
  8
0
  6
Continuous
 62
     7
100
AcDbLine
 10
25.99999978990491
 20
40.50000991108549
 30
0.0
 11
25.99999978990491
 21
37.5000099110855
 31
0.0
  0
LINE
  5
709
330
701
100
AcDbEntity
  8
0
  6
Continuous
 62
     7
100
AcDbLine
 10
25.99999978990491
 20
37.5000099110855
 30
0.0
 11
26.02999978990492
 21
37.5000099110855
 31
0.0
  0
ARC
  5
70A
330
701
100
AcDbEntity
  8
0
  6
Continuous
 62
     7
100
AcDbCircle
 10
0.9999997899048942
 20
40.61804389983538
 30
0.0
 40
1.0
100
AcDbArc
 50
180.0
 51
186.7786520311942
  0
LINE
  5
70B
330
701
100
AcDbEntity
  8
0
  6
Continuous
 62
     7
100
AcDbLine
 10
0.0069902343115018
 20
40.50000991108549
 30
0.0
 11
0.0065969203539531
 21
40.50336722928748
 31
0.0
  0
LINE
  5
70C
330
701
100
AcDbEntity
  8
0
  6
Continuous
 62
     7
100
AcDbLine
 10
0.0065969203539531
 20
40.50336722928748
 30
0.0
 11
0.0062149572971109
 21
40.50672585781738
 31
0.0
  0
LINE
  5
70D
330
701
100
AcDbEntity
  8
0
  6
Continuous
 62
     7
100
AcDbLine
 10
0.0062149572971109
 20
40.50672585781738
 30
0.0
 11
0.0058443495054021
 21
40.51008575829854
 31
0.0
  0
LINE
  5
70E
330
701
100
AcDbEntity
  8
0
  6
Continuous
 62
     7
100
AcDbLine
 10
0.0058443495054021
 20
40.51008575829854
 30
0.0
 11
0.005485101213484
 21
40.51344689233981
 31
0.0
  0
LINE
  5
70F
330
701
100
AcDbEntity
  8
0
  6
Continuous
 62
     7
100
AcDbLine
 10
0.005485101213484
 20
40.51344689233981
 30
0.0
 11
0.0051372165262364
 21
40.51680922153591
 31
0.0
  0
LINE
  5
710
330
701
100
AcDbEntity
  8
0
  6
Continuous
 62
     7
100
AcDbLine
 10
0.0051372165262364
 20
40.51680922153591
 30
0.0
 11
0.0048006994186878
 21
40.52017270746794
 31
0.0
  0
LINE
  5
711
330
701
100
AcDbEntity
  8
0
  6
Continuous
 62
     7
100
AcDbLine
 10
0.0048006994186878
 20
40.52017270746794
 30
0.0
 11
0.004475553735972
 21
40.52353731170375
 31
0.0
  0
LINE
  5
712
330
701
100
AcDbEntity
  8
0
  6
Continuous
 62
     7
100
AcDbLine
 10
0.004475553735972
 20
40.52353731170375
 30
0.0
 11
0.0041617831932967
 21
40.52690299579842
 31
0.0
  0
LINE
  5
713
330
701
100
AcDbEntity
  8
0
  6
Continuous
 62
     7
100
AcDbLine
 10
0.0041617831932967
 20
40.52690299579842
 30
0.0
 11
0.0038593913758973
 21
40.53026972129472
 31
0.0
  0
LINE
  5
714
330
701
100
AcDbEntity
  8
0
  6
Continuous
 62
     7
100
AcDbLine
 10
0.0038593913758973
 20
40.53026972129472
 30
0.0
 11
0.0035683817389796
 21
40.53363744972346
 31
0.0
  0
LINE
  5
715
330
701
100
AcDbEntity
  8
0
  6
Continuous
 62
     7
100
AcDbLine
 10
0.0035683817389796
 20
40.53363744972346
 30
0.0
 11
0.0032887576077094
 21
40.53700614260407
 31
0.0
  0
LINE
  5
716
330
701
100
AcDbEntity
  8
0
  6
Continuous
 62
     7
100
AcDbLine
 10
0.0032887576077094
 20
40.53700614260407
 30
0.0
 11
0.0030205221771453
 21
40.54037576144489
 31
0.0
  0
LINE
  5
717
330
701
100
AcDbEntity
  8
0
  6
Continuous
 62
     7
100
AcDbLine
 10
0.0030205221771453
 20
40.54037576144489
 30
0.0
 11
0.0027636785122276
 21
40.54374626774371
 31
0.0
  0
LINE
  5
718
330
701
100
AcDbEntity
  8
0
  6
Continuous
 62
     7
100
AcDbLine
 10
0.0027636785122276
 20
40.54374626774371
 30
0.0
 11
0.0025182295477144
 21
40.54711762298818
 31
0.0
  0
LINE
  5
719
330
701
100
AcDbEntity
  8
0
  6
Continuous
 62
     7
100
AcDbLine
 10
0.0025182295477144
 20
40.54711762298818
 30
0.0
 11
0.0022841780881819
 21
40.55048978865626
 31
0.0
  0
LINE
  5
71A
330
701
100
AcDbEntity
  8
0
  6
Continuous
 62
     7
100
AcDbLine
 10
0.0022841780881819
 20
40.55048978865626
 30
0.0
 11
0.0020615268079638
 21
40.5538627262166
 31
0.0
  0
LINE
  5
71B
330
701
100
AcDbEntity
  8
0
  6
Continuous
 62
     7
100
AcDbLine
 10
0.0020615268079638
 20
40.5538627262166
 30
0.0
 11
0.0018502782511405
 21
40.55723639712911
 31
0.0
  0
LINE
  5
71C
330
701
100
AcDbEntity
  8
0
  6
Continuous
 62
     7
100
AcDbLine
 10
0.0018502782511405
 20
40.55723639712911
 30
0.0
 11
0.0016504348314967
 21
40.56061076284524
 31
0.0
  0
LINE
  5
71D
330
701
100
AcDbEntity
  8
0
  6
Continuous
 62
     7
100
AcDbLine
 10
0.0016504348314967
 20
40.56061076284524
 30
0.0
 11
0.0014619988324966
 21
40.56398578480856
 31
0.0
  0
LINE
  5
71E
330
701
100
AcDbEntity
  8
0
  6
Continuous
 62
     7
100
AcDbLine
 10
0.0014619988324966
 20
40.56398578480856
 30
0.0
 11
0.0012849724072623
 21
40.56736142445511
 31
0.0
  0
LINE
  5
71F
330
701
100
AcDbEntity
  8
0
  6
Continuous
 62
     7
100
AcDbLine
 10
0.0012849724072623
 20
40.56736142445511
 30
0.0
 11
0.0011193575785526
 21
40.5707376432139
 31
0.0
  0
LINE
  5
720
330
701
100
AcDbEntity
  8
0
  6
Continuous
 62
     7
100
AcDbLine
 10
0.0011193575785526
 20
40.5707376432139
 30
0.0
 11
0.0009651562387241
 21
40.57411440250727
 31
0.0
  0
LINE
  5
721
330
701
100
AcDbEntity
  8
0
  6
Continuous
 62
     7
100
AcDbLine
 10
0.0009651562387241
 20
40.57411440250727
 30
0.0
 11
0.0008223701497272
 21
40.57749166375145
 31
0.0
  0
LINE
  5
722
330
701
100
AcDbEntity
  8
0
  6
Continuous
 62
     7
100
AcDbLine
 10
0.0008223701497272
 20
40.57749166375145
 30
0.0
 11
0.0006910009430783
 21
40.58086938835688
 31
0.0
  0
LINE
  5
723
330
701
100
AcDbEntity
  8
0
  6
Continuous
 62
     7
100
AcDbLine
 10
0.0006910009430783
 20
40.58086938835688
 30
0.0
 11
0.0005710501198344
 21
40.58424753772874
 31
0.0
  0
LINE
  5
724
330
701
100
AcDbEntity
  8
0
  6
Continuous
 62
     7
100
AcDbLine
 10
0.0005710501198344
 20
40.58424753772874
 30
0.0
 11
0.0004625190505863
 21
40.58762607326734
 31
0.0
  0
LINE
  5
725
330
701
100
AcDbEntity
  8
0
  6
Continuous
 62
     7
100
AcDbLine
 10
0.0004625190505863
 20
40.58762607326734
 30
0.0
 11
0.0003654089754477
 21
40.59100495636859
 31
0.0
  0
LINE
  5
726
330
701
100
AcDbEntity
  8
0
  6
Continuous
 62
     7
100
AcDbLine
 10
0.0003654089754477
 20
40.59100495636859
 30
0.0
 11
0.00027972100402
 21
40.59438414842442
 31
0.0
  0
LINE
  5
727
330
701
100
AcDbEntity
  8
0
  6
Continuous
 62
     7
100
AcDbLine
 10
0.00027972100402
 20
40.59438414842442
 30
0.0
 11
0.000205456115399
 21
40.59776361082323
 31
0.0
  0
LINE
  5
728
330
701
100
AcDbEntity
  8
0
  6
Continuous
 62
     7
100
AcDbLine
 10
0.000205456115399
 20
40.59776361082323
 30
0.0
 11
0.0001426151581541
 21
40.60114330495031
 31
0.0
  0
LINE
  5
729
330
701
100
AcDbEntity
  8
0
  6
Continuous
 62
     7
100
AcDbLine
 10
0.0001426151581541
 20
40.60114330495031
 30
0.0
 11
0.0000911988503312
 21
40.60452319218836
 31
0.0
  0
LINE
  5
72A
330
701
100
AcDbEntity
  8
0
  6
Continuous
 62
     7
100
AcDbLine
 10
0.0000911988503312
 20
40.60452319218836
 30
0.0
 11
0.0000512077794177
 21
40.60790323391781
 31
0.0
  0
LINE
  5
72B
330
701
100
AcDbEntity
  8
0
  6
Continuous
 62
     7
100
AcDbLine
 10
0.0000512077794177
 20
40.60790323391781
 30
0.0
 11
0.0000226424023708
 21
40.61128339151737
 31
0.0
  0
LINE
  5
72C
330
701
100
AcDbEntity
  8
0
  6
Continuous
 62
     7
100
AcDbLine
 10
0.0000226424023708
 20
40.61128339151737
 30
0.0
 11
0.0000055030455854
 21
40.6146636263644
 31
0.0
  0
LINE
  5
72D
330
701
100
AcDbEntity
  8
0
  6
Continuous
 62
     7
100
AcDbLine
 10
0.0000055030455854
 20
40.6146636263644
 30
0.0
 11
-0.0000002100951058
 21
40.61804389983538
 31
0.0
  0
LINE
  5
72E
330
701
100
AcDbEntity
  8
0
  6
Continuous
 62
     7
100
AcDbLine
 10
-0.0000002100950951
 20
42.50000991108549
 30
0.0
 11
-0.0000002100950951
 21
40.61804389983538
 31
0.0
  0
LINE
  5
72F
330
701
100
AcDbEntity
  8
0
  6
Continuous
 62
     7
100
AcDbLine
 10
26.02999978990492
 20
37.5000099110855
 30
0.0
 11
29.99999978990496
 21
34.00000991108547
 31
0.0
  0
LINE
  5
730
330
701
100
AcDbEntity
  8
0
  6
Continuous
 62
     7
100
AcDbLine
 10
29.99999978990495
 20
46.00000991108553
 30
0.0
 11
26.02999978990491
 21
42.50000991108549
 31
0.0
  0
LINE
  5
731
330
701
100
AcDbEntity
  8
0
  6
Continuous
 62
     7
100
AcDbLine
 10
26.02999978990491
 20
42.50000991108549
 30
0.0
 11
-0.0000002100951058
 21
42.50000991108549
 31
0.0
  0
LINE
  5
732
330
701
100
AcDbEntity
  8
0
  6
Continuous
 62
     7
100
AcDbLine
 10
29.99999978990501
 20
34.0000099110855
 30
0.0
 11
30.99999978990501
 21
34.0000099110855
 31
0.0
  0
LINE
  5
733
330
701
100
AcDbEntity
  8
0
  6
Continuous
 62
     7
100
AcDbLine
 10
29.99999978990501
 20
46.0000099110855
 30
0.0
 11
29.99999978990501
 21
34.0000099110855
 31
0.0
  0
LINE
  5
734
330
701
100
AcDbEntity
  8
0
  6
Continuous
 62
     7
100
AcDbLine
 10
26.0299997899049
 20
42.50000991108549
 30
0.0
 11
26.0299997899049
 21
37.50000991108549
 31
0.0
  0
LINE
  5
735
330
701
100
AcDbEntity
  8
0
  6
Continuous
 62
     7
100
AcDbLine
 10
30.99999978990491
 20
46.0000099110855
 30
0.0
 11
29.99999978990491
 21
46.0000099110855
 31
0.0
  0
LINE
  5
736
330
701
100
AcDbEntity
  8
0
  6
Continuous
 62
     7
100
AcDbLine
 10
36.9999997899049
 20
42.50000991108549
 30
0.0
 11
30.99999978990491
 21
42.50000991108549
 31
0.0
  0
LINE
  5
737
330
701
100
AcDbEntity
  8
0
  6
Continuous
 62
     7
100
AcDbLine
 10
36.9999997899049
 20
37.5000099110855
 30
0.0
 11
30.99999978990491
 21
37.5000099110855
 31
0.0
  0
ARC
  5
738
330
701
100
AcDbEntity
  8
0
  6
Continuous
 62
     7
100
AcDbCircle
 10
36.9999997899049
 20
27.5000099110855
 30
0.0
 40
9.999999999999996
100
AcDbArc
 50
0.0
 51
90.0
  0
ARC
  5
739
330
701
100
AcDbEntity
  8
0
  6
Continuous
 62
     7
100
AcDbCircle
 10
36.9999997899049
 20
52.50000991108549
 30
0.0
 40
10.0
100
AcDbArc
 50
270.0
 51
0.0
  0
LINE
  5
73A
330
701
100
AcDbEntity
  8
0
  6
Continuous
 62
     7
100
AcDbLine
 10
46.9999997899049
 20
69.0000099110855
 30
0.0
 11
46.9999997899049
 21
60.00000991108549
 31
0.0
  0
LINE
  5
73B
330
701
100
AcDbEntity
  8
0
  6
Continuous
 62
     7
100
AcDbLine
 10
46.9999997899049
 20
20.0000099110855
 30
0.0
 11
46.9999997899049
 21
11.0000099110855
 31
0.0
  0
LINE
  5
73C
330
701
100
AcDbEntity
  8
0
  6
Continuous
 62
     7
100
AcDbLine
 10
46.9999997899049
 20
60.00000991108549
 30
0.0
 11
46.9999997899049
 21
20.0000099110855
 31
0.0
  0
LINE
  5
73D
330
701
100
AcDbEntity
  8
0
  6
Continuous
 62
     7
100
AcDbLine
 10
52.99999978990491
 20
69.0000099110855
 30
0.0
 11
52.99999978990491
 21
60.00000991108549
 31
0.0
  0
LINE
  5
73E
330
701
100
AcDbEntity
  8
0
  6
Continuous
 62
     7
100
AcDbLine
 10
52.99999978990491
 20
60.00000991108549
 30
0.0
 11
52.99999978990491
 21
20.0000099110855
 31
0.0
  0
LINE
  5
73F
330
701
100
AcDbEntity
  8
0
  6
Continuous
 62
     7
100
AcDbLine
 10
52.99999978990491
 20
20.0000099110855
 30
0.0
 11
52.99999978990491
 21
11.0000099110855
 31
0.0
  0
LINE
  5
740
330
701
100
AcDbEntity
  8
0
  6
Continuous
 62
     7
100
AcDbLine
 10
52.99999978990491
 20
69.0000099110855
 30
0.0
 11
46.9999997899049
 21
69.0000099110855
 31
0.0
  0
LINE
  5
741
330
701
100
AcDbEntity
  8
0
  6
Continuous
 62
     7
100
AcDbLine
 10
46.9999997899049
 20
11.0000099110855
 30
0.0
 11
52.99999978990491
 21
11.0000099110855
 31
0.0
  0
LINE
  5
742
330
701
100
AcDbEntity
  8
0
  6
Continuous
 62
     7
100
AcDbLine
 10
46.9999997943957
 20
53.0000099112502
 30
0.0
 11
46.9999997943957
 21
67.00000991092079
 31
0.0
  0
LINE
  5
743
330
701
100
AcDbEntity
  8
0
  6
Continuous
 62
     7
100
AcDbLine
 10
43.99999979215031
 20
54.71787520725021
 30
0.0
 11
43.99999979215031
 21
65.28214461492078
 31
0.0
  0
LINE
  5
744
330
701
100
AcDbEntity
  8
0
  6
Continuous
 62
     7
100
AcDbLine
 10
52.9999997921503
 20
54.71787520725021
 30
0.0
 11
52.9999997921503
 21
65.28214461492078
 31
0.0
  0
LINE
  5
745
330
701
100
AcDbEntity
  8
0
  6
Continuous
 62
     7
100
AcDbLine
 10
45.9799997943957
 20
53.00000991116785
 30
0.0
 11
46.9999997943957
 21
53.00000991116785
 31
0.0
  0
LINE
  5
746
330
701
100
AcDbEntity
  8
0
  6
Continuous
 62
     7
100
AcDbLine
 10
46.9999997943957
 20
67.00000991100314
 30
0.0
 11
45.9799997943957
 21
67.00000991100314
 31
0.0
  0
ARC
  5
747
330
701
100
AcDbEntity
  8
0
  6
Continuous
 62
     7
100
AcDbCircle
 10
45.9799997943957
 20
65.00000991108549
 30
0.0
 40
2.0
100
AcDbArc
 50
90.0
 51
171.8903859999998
  0
ARC
  5
748
330
701
100
AcDbEntity
  8
0
  6
Continuous
 62
     7
100
AcDbCircle
 10
45.9799997943957
 20
55.00000991108549
 30
0.0
 40
1.999999999999999
100
AcDbArc
 50
188.1096139999998
 51
270.0
  0
ARC
  5
749
330
701
100
AcDbEntity
  8
0
  6
Continuous
 62
     7
100
AcDbCircle
 10
51.0199997899049
 20
65.00000991108549
 30
0.0
 40
2.000000000000003
100
AcDbArc
 50
8.109613999999789
 51
8.609073117420789
  0
LINE
  5
74A
330
701
100
AcDbEntity
  8
0
  6
Continuous
 62
     7
100
AcDbLine
 10
43.9999997899049
 20
57.0000099110855
 30
0.0
 11
43.9999997899049
 21
63.0000099110855
 31
0.0
  0
LINE
  5
74B
330
701
100
AcDbEntity
  8
0
  6
Continuous
 62
     7
100
AcDbLine
 10
46.9999997943957
 20
13.00000991125021
 30
0.0
 11
46.9999997943957
 21
27.00000991092079
 31
0.0
  0
LINE
  5
74C
330
701
100
AcDbEntity
  8
0
  6
Continuous
 62
     7
100
AcDbLine
 10
43.99999979215031
 20
14.71787520725021
 30
0.0
 11
43.99999979215031
 21
25.28214461492079
 31
0.0
  0
LINE
  5
74D
330
701
100
AcDbEntity
  8
0
  6
Continuous
 62
     7
100
AcDbLine
 10
52.9999997921503
 20
14.71787520725021
 30
0.0
 11
52.9999997921503
 21
25.28214461492079
 31
0.0
  0
LINE
  5
74E
330
701
100
AcDbEntity
  8
0
  6
Continuous
 62
     7
100
AcDbLine
 10
45.9799997943957
 20
13.00000991116785
 30
0.0
 11
46.9999997943957
 21
13.00000991116785
 31
0.0
  0
LINE
  5
74F
330
701
100
AcDbEntity
  8
0
  6
Continuous
 62
     7
100
AcDbLine
 10
46.9999997943957
 20
27.00000991100314
 30
0.0
 11
45.9799997943957
 21
27.00000991100314
 31
0.0
  0
ARC
  5
750
330
701
100
AcDbEntity
  8
0
  6
Continuous
 62
     7
100
AcDbCircle
 10
45.9799997943957
 20
25.0000099110855
 30
0.0
 40
2.0
100
AcDbArc
 50
90.0
 51
171.8903859999998
  0
ARC
  5
751
330
701
100
AcDbEntity
  8
0
  6
Continuous
 62
     7
100
AcDbCircle
 10
45.9799997943957
 20
15.0000099110855
 30
0.0
 40
1.999999999999999
100
AcDbArc
 50
188.1096139999998
 51
270.0
  0
ARC
  5
752
330
701
100
AcDbEntity
  8
0
  6
Continuous
 62
     7
100
AcDbCircle
 10
51.0199997899049
 20
15.0000099110855
 30
0.0
 40
2.000000000000002
100
AcDbArc
 50
351.3909268825792
 51
351.8903860000002
  0
LINE
  5
753
330
701
100
AcDbEntity
  8
0
  6
Continuous
 62
     7
100
AcDbLine
 10
43.9999997899049
 20
17.0000099110855
 30
0.0
 11
43.9999997899049
 21
23.0000099110855
 31
0.0
  0
INSERT
  5
754
330
701
100
AcDbEntity
  8
0
100
AcDbBlockReference
  2
B08543708023102007_0000000
 10
30.99999978990491
 20
40.00000991108549
 30
0.0
  0
INSERT
  5
755
330
701
100
AcDbEntity
  8
0
100
AcDbBlockReference
  2
B08543708023102007_0000005
 10
30.99999978990491
 20
40.00000991108549
 30
0.0
  0
INSERT
  5
756
330
701
100
AcDbEntity
  8
0
100
AcDbBlockReference
  2
B08543708023102007_0000010
 10
30.99999978990491
 20
40.00000991108549
 30
0.0
  0
INSERT
  5
757
330
701
100
AcDbEntity
  8
0
100
AcDbBlockReference
  2
B08543709623102007_0000015
 10
30.99999978990491
 20
40.00000991108549
 30
0.0
  0
INSERT
  5
758
330
701
100
AcDbEntity
  8
0
100
AcDbBlockReference
  2
B08543709623102007_0000020
 10
30.99999978990491
 20
40.00000991108549
 30
0.0
  0
ENDBLK
  5
75A
330
701
100
AcDbEntity
  8
0
100
AcDbBlockEnd
  0
ENDSEC
  0
SECTION
  2
ENTITIES
  0
LINE
  5
79
330
37
100
AcDbEntity
  8
10000_FRONT
  6
Continuous
 62
     7
370
    35
100
AcDbLine
 10
445.7937243502925
 20
224.3771733237104
 30
0.0
 11
445.7937243502925
 21
224.5883189417106
 31
0.0
  0
LINE
  5
7A
330
37
100
AcDbEntity
  8
10000_FRONT
  6
Continuous
 62
     7
370
    35
100
AcDbLine
 10
445.7937243502925
 20
226.6007801214604
 30
0.0
 11
445.7937243502925
 21
227.3771733237104
 31
0.0
  0
LINE
  5
7B
330
37
100
AcDbEntity
  8
10000_FRONT
  6
Continuous
 62
     7
370
    35
100
AcDbLine
 10
445.7937243502925
 20
224.5883189417106
 30
0.0
 11
445.7937243502925
 21
226.6007801214604
 31
0.0
  0
LINE
  5
7C
330
37
100
AcDbEntity
  8
10000_FRONT
  6
Continuous
 62
     7
370
    35
100
AcDbLine
 10
445.7937243502925
 20
227.3771733237104
 30
0.0
 11
446.6937243502925
 21
227.3771733237104
 31
0.0
  0
LINE
  5
7D
330
37
100
AcDbEntity
  8
10000_FRONT
  6
Continuous
 62
     7
370
    35
100
AcDbLine
 10
442.7715615078418
 20
227.4952073124603
 30
0.0
 11
442.6949093502925
 21
227.3771733237104
 31
0.0
  0
LINE
  5
7E
330
37
100
AcDbEntity
  8
10000_FRONT
  6
Continuous
 62
     7
370
    35
100
AcDbLine
 10
443.9937243502926
 20
229.3771733237104
 30
0.0
 11
442.7715615078418
 21
227.4952073124603
 31
0.0
  0
LINE
  5
7F
330
37
100
AcDbEntity
  8
10000_FRONT
  6
Continuous
 62
     7
370
    35
100
AcDbLine
 10
446.6937243502925
 20
224.3771733237104
 30
0.0
 11
445.7937243502925
 21
224.3771733237104
 31
0.0
  0
LINE
  5
80
330
37
100
AcDbEntity
  8
10000_FRONT
  6
Continuous
 62
     7
370
    35
100
AcDbLine
 10
446.6937243502925
 20
227.3771733237104
 30
0.0
 11
446.6937243502925
 21
224.3771733237104
 31
0.0
  0
LINE
  5
81
330
37
100
AcDbEntity
  8
10000_FRONT
  6
Continuous
 62
     7
370
    35
100
AcDbLine
 10
437.9937243502927
 20
226.6007801214604
 30
0.0
 11
437.9937243502927
 21
224.5883189417106
 31
0.0
  0
LINE
  5
82
330
37
100
AcDbEntity
  8
10000_FRONT
  6
Continuous
 62
     7
370
    35
100
AcDbLine
 10
437.9937243502927
 20
224.3771733237104
 30
0.0
 11
445.7937243502925
 21
224.3771733237104
 31
0.0
  0
LINE
  5
83
330
37
100
AcDbEntity
  8
10000_FRONT
  6
Continuous
 62
     7
370
    35
100
AcDbLine
 10
437.9937243502927
 20
224.3771733237104
 30
0.0
 11
437.0937243502926
 21
224.3771733237104
 31
0.0
  0
LINE
  5
84
330
37
100
AcDbEntity
  8
10000_FRONT
  6
Continuous
 62
     7
370
    35
100
AcDbLine
 10
446.6937243502925
 20
227.4952073124603
 30
0.0
 11
446.6937243502925
 21
227.3771733237104
 31
0.0
  0
LINE
  5
85
330
37
100
AcDbEntity
  8
10000_FRONT
  6
Continuous
 62
     7
370
    35
100
AcDbLine
 10
442.6949093502925
 20
227.3771733237104
 30
0.0
 11
441.0925393502926
 21
227.3771733237104
 31
0.0
  0
LINE
  5
86
330
37
100
AcDbEntity
  8
10000_FRONT
  6
Continuous
 62
     7
370
    35
100
AcDbLine
 10
441.0925393502926
 20
227.3771733237104
 30
0.0
 11
441.0158871927436
 21
227.4952073124603
 31
0.0
  0
LINE
  5
87
330
37
100
AcDbEntity
  8
10000_FRONT
  6
Continuous
 62
     7
370
    35
100
AcDbLine
 10
437.0937243502926
 20
227.3771733237104
 30
0.0
 11
437.0937243502926
 21
227.4952073124603
 31
0.0
  0
LINE
  5
88
330
37
100
AcDbEntity
  8
10000_FRONT
  6
Continuous
 62
     7
370
    35
100
AcDbLine
 10
437.0937243502925
 20
227.3771733237104
 30
0.0
 11
437.9937243502927
 21
227.3771733237104
 31
0.0
  0
LINE
  5
89
330
37
100
AcDbEntity
  8
10000_FRONT
  6
Continuous
 62
     7
370
    35
100
AcDbLine
 10
437.9937243502927
 20
227.3771733237104
 30
0.0
 11
437.9937243502927
 21
226.6007801214604
 31
0.0
  0
LINE
  5
8A
330
37
100
AcDbEntity
  8
10000_FRONT
  6
Continuous
 62
     7
370
    35
100
AcDbLine
 10
439.7937243502926
 20
229.3771733237104
 30
0.0
 11
443.9937243502926
 21
229.3771733237104
 31
0.0
  0
LINE
  5
8B
330
37
100
AcDbEntity
  8
10000_FRONT
  6
Continuous
 62
     7
370
    35
100
AcDbLine
 10
437.0937243502926
 20
224.3771733237104
 30
0.0
 11
437.0937243502926
 21
227.3771733237104
 31
0.0
  0
LINE
  5
8C
330
37
100
AcDbEntity
  8
10000_FRONT
  6
Continuous
 62
     7
370
    35
100
AcDbLine
 10
441.0158871927436
 20
227.4952073124603
 30
0.0
 11
439.7937243502926
 21
229.3771733237104
 31
0.0
  0
LINE
  5
8D
330
37
100
AcDbEntity
  8
10000_FRONT
  6
Continuous
 62
     7
370
    35
100
AcDbLine
 10
437.9937243502927
 20
224.5883189417106
 30
0.0
 11
437.9937243502927
 21
224.3771733237104
 31
0.0
  0
LINE
  5
8E
330
37
100
AcDbEntity
  8
10000_FRONT
  6
Continuous
 62
     7
370
    35
100
AcDbLine
 10
437.0937243502926
 20
229.3771733237104
 30
0.0
 11
437.0937243502926
 21
227.4952073124603
 31
0.0
  0
LINE
  5
8F
330
37
100
AcDbEntity
  8
10000_FRONT
  6
Continuous
 62
     7
370
    35
100
AcDbLine
 10
446.6937243502925
 20
229.3771733237104
 30
0.0
 11
446.6937243502925
 21
227.4952073124603
 31
0.0
  0
LINE
  5
90
330
37
100
AcDbEntity
  8
10000_FRONT
  6
Continuous
 62
     7
370
    35
100
AcDbLine
 10
446.6937243502925
 20
229.3771733237104
 30
0.0
 11
443.9937243502926
 21
229.3771733237104
 31
0.0
  0
LINE
  5
91
330
37
100
AcDbEntity
  8
10000_FRONT
  6
Continuous
 62
     7
370
    35
100
AcDbLine
 10
446.6937243502925
 20
224.3771733237104
 30
0.0
 11
450.1937243502927
 21
220.8771733237104
 31
0.0
  0
LINE
  5
92
330
37
100
AcDbEntity
  8
10000_FRONT
  6
Continuous
 62
     7
370
    35
100
AcDbLine
 10
433.5937243502925
 20
220.8771733237104
 30
0.0
 11
437.0937243502925
 21
224.3771733237104
 31
0.0
  0
LINE
  5
93
330
37
100
AcDbEntity
  8
10000_FRONT
  6
Continuous
 62
     7
370
    35
100
AcDbLine
 10
450.1937243502927
 20
220.8771733237104
 30
0.0
 11
433.5937243502926
 21
220.8771733237104
 31
0.0
  0
LINE
  5
94
330
37
100
AcDbEntity
  8
10000_FRONT
  6
Continuous
 62
     7
370
    35
100
AcDbLine
 10
450.1937243502927
 20
232.8771733237104
 30
0.0
 11
446.6937243502925
 21
229.3771733237104
 31
0.0
  0
LINE
  5
95
330
37
100
AcDbEntity
  8
10000_FRONT
  6
Continuous
 62
     7
370
    35
100
AcDbLine
 10
433.5937243502926
 20
232.8771733237104
 30
0.0
 11
450.1937243502927
 21
232.8771733237104
 31
0.0
  0
LINE
  5
96
330
37
100
AcDbEntity
  8
10000_FRONT
  6
Continuous
 62
     7
370
    35
100
AcDbLine
 10
437.0937243502925
 20
229.3771733237104
 30
0.0
 11
433.5937243502925
 21
232.8771733237104
 31
0.0
  0
LINE
  5
97
330
37
100
AcDbEntity
  8
10000_FRONT
  6
Continuous
 62
     7
370
    35
100
AcDbLine
 10
439.7937243502926
 20
229.3771733237104
 30
0.0
 11
437.0937243502926
 21
229.3771733237104
 31
0.0
  0
LINE
  5
98
330
37
100
AcDbEntity
  8
10000_FRONT
  6
Continuous
 62
     7
370
    35
100
AcDbLine
 10
433.5937243502926
 20
232.8771733237104
 30
0.0
 11
433.5937243502926
 21
220.8771733237104
 31
0.0
  0
LINE
  5
99
330
37
100
AcDbEntity
  8
10000_FRONT
  6
Continuous
 62
     7
370
    35
100
AcDbLine
 10
450.1937243502927
 20
232.8771733237104
 30
0.0
 11
450.1937243502927
 21
220.8771733237104
 31
0.0
  0
LINE
  5
9A
330
37
100
AcDbEntity
  8
10000_FRONT
  6
Continuous
 62
     7
370
    35
100
AcDbLine
 10
449.3937243502926
 20
214.3771733237104
 30
0.0
 11
449.3937243502926
 21
220.8771256235237
 31
0.0
  0
LINE
  5
9B
330
37
100
AcDbEntity
  8
10000_FRONT
  6
Continuous
 62
     7
370
    35
100
AcDbLine
 10
434.3937243502926
 20
220.8771256235237
 30
0.0
 11
434.3937243502926
 21
214.3771733237104
 31
0.0
  0
LINE
  5
9C
330
37
100
AcDbEntity
  8
10000_FRONT
  6
Continuous
 62
     7
370
    35
100
AcDbLine
 10
449.3937243502926
 20
232.877221023897
 30
0.0
 11
449.3937243502926
 21
239.3771733237104
 31
0.0
  0
LINE
  5
9D
330
37
100
AcDbEntity
  8
10000_FRONT
  6
Continuous
 62
     7
370
    35
100
AcDbLine
 10
434.3937243502926
 20
239.3771733237104
 30
0.0
 11
434.3937243502926
 21
232.877221023897
 31
0.0
  0
ARC
  5
9E
330
37
100
AcDbEntity
  8
10000_FRONT
  6
Continuous
 62
     7
370
    35
100
AcDbCircle
 10
441.8937243502925
 20
246.8771733237104
 30
0.0
 40
9.0
100
AcDbArc
 50
0.0
 51
180.0
  0
LINE
  5
9F
330
37
100
AcDbEntity
  8
10000_FRONT
  6
Continuous
 62
     7
370
    35
100
AcDbLine
 10
432.8937243502926
 20
206.8771733237104
 30
0.0
 11
432.8937243502926
 21
246.8771733237104
 31
0.0
  0
ARC
  5
A0
330
37
100
AcDbEntity
  8
10000_FRONT
  6
Continuous
 62
     7
370
    35
100
AcDbCircle
 10
441.8937243502925
 20
206.8771733237104
 30
0.0
 40
9.0
100
AcDbArc
 50
180.0
 51
0.0
  0
LINE
  5
A1
330
37
100
AcDbEntity
  8
10000_FRONT
  6
Continuous
 62
     7
370
    35
100
AcDbLine
 10
450.8937243502925
 20
246.8771733237104
 30
0.0
 11
450.8937243502925
 21
206.8771733237104
 31
0.0
  0
CIRCLE
  5
A2
330
37
100
AcDbEntity
  8
10000_FRONT
  6
Continuous
 62
     7
370
    35
100
AcDbCircle
 10
441.8937243502925
 20
246.8771733237104
 30
0.0
 40
7.0
  0
CIRCLE
  5
A3
330
37
100
AcDbEntity
  8
10000_FRONT
  6
Continuous
 62
     7
370
    35
100
AcDbCircle
 10
441.8937243502925
 20
246.8771733237104
 30
0.0
 40
5.282134703835288
  0
CIRCLE
  5
A4
330
37
100
AcDbEntity
  8
10000_FRONT
  6
Continuous
 62
     7
370
    35
100
AcDbCircle
 10
441.8937243502925
 20
246.8771733237104
 30
0.0
 40
2.25
  0
CIRCLE
  5
A5
330
37
100
AcDbEntity
  8
10000_FRONT
  6
Continuous
 62
     7
370
    35
100
AcDbCircle
 10
441.8937243502925
 20
246.8771733237104
 30
0.0
 40
3.0
  0
CIRCLE
  5
A6
330
37
100
AcDbEntity
  8
10000_FRONT
  6
Continuous
 62
     7
370
    35
100
AcDbCircle
 10
441.8937243502925
 20
206.8771733237104
 30
0.0
 40
7.0
  0
CIRCLE
  5
A7
330
37
100
AcDbEntity
  8
10000_FRONT
  6
Continuous
 62
     7
370
    35
100
AcDbCircle
 10
441.8937243502925
 20
206.8771733237104
 30
0.0
 40
5.282134703835288
  0
CIRCLE
  5
A8
330
37
100
AcDbEntity
  8
10000_FRONT
  6
Continuous
 62
     7
370
    35
100
AcDbCircle
 10
441.8937243502925
 20
206.8771733237104
 30
0.0
 40
2.25
  0
CIRCLE
  5
A9
330
37
100
AcDbEntity
  8
10000_FRONT
  6
Continuous
 62
     7
370
    35
100
AcDbCircle
 10
441.8937243502925
 20
206.8771733237104
 30
0.0
 40
3.0
  0
LINE
  5
19B
330
37
100
AcDbEntity
  8
11000_LEFT
  6
Continuous
 62
     7
370
    35
100
AcDbLine
 10
514.5774735036338
 20
232.8771733237104
 30
0.0
 11
514.5774735036338
 21
220.8771733237104
 31
0.0
  0
ARC
  5
19C
330
37
100
AcDbEntity
  8
11000_LEFT
  6
Continuous
 62
     7
370
    35
100
AcDbCircle
 10
489.0496094586334
 20
226.3771733237104
 30
0.0
 40
1.999999999999974
100
AcDbArc
 50
243.4349488229235
 51
270.0
  0
LINE
  5
19D
330
37
100
AcDbEntity
  8
11000_LEFT
  6
Continuous
 62
     7
370
    35
100
AcDbLine
 10
509.5774735036338
 20
224.3771733237104
 30
0.0
 11
489.0496094586334
 21
224.3771733237104
 31
0.0
  0
ARC
  5
19E
330
37
100
AcDbEntity
  8
11000_LEFT
  6
Continuous
 62
     7
370
    35
100
AcDbCircle
 10
484.5774735036338
 20
227.4952073124603
 30
0.0
 40
1.000000000000001
100
AcDbArc
 50
186.7786520311946
 51
243.4349488229201
  0
LINE
  5
19F
330
37
100
AcDbEntity
  8
11000_LEFT
  6
Continuous
 62
     7
370
    35
100
AcDbLine
 10
488.1551822676335
 20
224.5883189417106
 30
0.0
 11
484.1302599081338
 21
226.6007801214604
 31
0.0
  0
LINE
  5
1A0
330
37
100
AcDbEntity
  8
11000_LEFT
  6
Continuous
 62
     7
370
    35
100
AcDbLine
 10
483.5844639480406
 20
227.3771733237104
 30
0.0
 11
509.5774735036338
 21
227.3771733237104
 31
0.0
  0
LINE
  5
1A1
330
37
100
AcDbEntity
  8
11000_LEFT
  6
Continuous
 62
     7
370
    35
100
AcDbLine
 10
509.5774735036338
 20
227.3771733237104
 30
0.0
 11
509.5774735036338
 21
224.3771733237104
 31
0.0
  0
LINE
  5
1A2
330
37
100
AcDbEntity
  8
11000_LEFT
  6
Continuous
 62
     7
370
    35
100
AcDbLine
 10
509.5774735036338
 20
224.3771733237104
 30
0.0
 11
509.607473503634
 21
224.3771733237104
 31
0.0
  0
ARC
  5
1A3
330
37
100
AcDbEntity
  8
11000_LEFT
  6
Continuous
 62
     7
370
    35
100
AcDbCircle
 10
484.5774735036338
 20
227.4952073124603
 30
0.0
 40
1.0
100
AcDbArc
 50
180.0
 51
186.7786520311937
  0
LINE
  5
1A4
330
37
100
AcDbEntity
  8
11000_LEFT
  6
Continuous
 62
     7
370
    35
100
AcDbLine
 10
483.5844639480406
 20
227.3771733237104
 30
0.0
 11
483.584070634083
 21
227.3805306419124
 31
0.0
  0
LINE
  5
1A5
330
37
100
AcDbEntity
  8
11000_LEFT
  6
Continuous
 62
     7
370
    35
100
AcDbLine
 10
483.584070634083
 20
227.3805306419124
 30
0.0
 11
483.5836886710261
 21
227.3838892704423
 31
0.0
  0
LINE
  5
1A6
330
37
100
AcDbEntity
  8
11000_LEFT
  6
Continuous
 62
     7
370
    35
100
AcDbLine
 10
483.5836886710261
 20
227.3838892704423
 30
0.0
 11
483.5833180632344
 21
227.3872491709235
 31
0.0
  0
LINE
  5
1A7
330
37
100
AcDbEntity
  8
11000_LEFT
  6
Continuous
 62
     7
370
    35
100
AcDbLine
 10
483.5833180632344
 20
227.3872491709235
 30
0.0
 11
483.5829588149424
 21
227.3906103049646
 31
0.0
  0
LINE
  5
1A8
330
37
100
AcDbEntity
  8
11000_LEFT
  6
Continuous
 62
     7
370
    35
100
AcDbLine
 10
483.5829588149424
 20
227.3906103049646
 30
0.0
 11
483.5826109302552
 21
227.3939726341609
 31
0.0
  0
LINE
  5
1A9
330
37
100
AcDbEntity
  8
11000_LEFT
  6
Continuous
 62
     7
370
    35
100
AcDbLine
 10
483.5826109302552
 20
227.3939726341609
 30
0.0
 11
483.5822744131476
 21
227.3973361200928
 31
0.0
  0
LINE
  5
1AA
330
37
100
AcDbEntity
  8
11000_LEFT
  6
Continuous
 62
     7
370
    35
100
AcDbLine
 10
483.5822744131476
 20
227.3973361200928
 30
0.0
 11
483.5819492674651
 21
227.4007007243286
 31
0.0
  0
LINE
  5
1AB
330
37
100
AcDbEntity
  8
11000_LEFT
  6
Continuous
 62
     7
370
    35
100
AcDbLine
 10
483.5819492674651
 20
227.4007007243286
 30
0.0
 11
483.5816354969224
 21
227.4040664084234
 31
0.0
  0
LINE
  5
1AC
330
37
100
AcDbEntity
  8
11000_LEFT
  6
Continuous
 62
     7
370
    35
100
AcDbLine
 10
483.5816354969224
 20
227.4040664084234
 30
0.0
 11
483.5813331051049
 21
227.4074331339197
 31
0.0
  0
LINE
  5
1AD
330
37
100
AcDbEntity
  8
11000_LEFT
  6
Continuous
 62
     7
370
    35
100
AcDbLine
 10
483.5813331051049
 20
227.4074331339197
 30
0.0
 11
483.5810420954681
 21
227.4108008623484
 31
0.0
  0
LINE
  5
1AE
330
37
100
AcDbEntity
  8
11000_LEFT
  6
Continuous
 62
     7
370
    35
100
AcDbLine
 10
483.5810420954681
 20
227.4108008623484
 30
0.0
 11
483.5807624713368
 21
227.414169555229
 31
0.0
  0
LINE
  5
1AF
330
37
100
AcDbEntity
  8
11000_LEFT
  6
Continuous
 62
     7
370
    35
100
AcDbLine
 10
483.5807624713368
 20
227.414169555229
 30
0.0
 11
483.5804942359062
 21
227.4175391740698
 31
0.0
  0
LINE
  5
1B0
330
37
100
AcDbEntity
  8
11000_LEFT
  6
Continuous
 62
     7
370
    35
100
AcDbLine
 10
483.5804942359062
 20
227.4175391740698
 30
0.0
 11
483.5802373922413
 21
227.4209096803686
 31
0.0
  0
LINE
  5
1B1
330
37
100
AcDbEntity
  8
11000_LEFT
  6
Continuous
 62
     7
370
    35
100
AcDbLine
 10
483.5802373922413
 20
227.4209096803686
 30
0.0
 11
483.5799919432766
 21
227.4242810356131
 31
0.0
  0
LINE
  5
1B2
330
37
100
AcDbEntity
  8
11000_LEFT
  6
Continuous
 62
     7
370
    35
100
AcDbLine
 10
483.5799919432766
 20
227.4242810356131
 30
0.0
 11
483.5797578918173
 21
227.4276532012811
 31
0.0
  0
LINE
  5
1B3
330
37
100
AcDbEntity
  8
11000_LEFT
  6
Continuous
 62
     7
370
    35
100
AcDbLine
 10
483.5797578918173
 20
227.4276532012811
 30
0.0
 11
483.579535240537
 21
227.4310261388416
 31
0.0
  0
LINE
  5
1B4
330
37
100
AcDbEntity
  8
11000_LEFT
  6
Continuous
 62
     7
370
    35
100
AcDbLine
 10
483.579535240537
 20
227.4310261388416
 30
0.0
 11
483.5793239919802
 21
227.4343998097541
 31
0.0
  0
LINE
  5
1B5
330
37
100
AcDbEntity
  8
11000_LEFT
  6
Continuous
 62
     7
370
    35
100
AcDbLine
 10
483.5793239919802
 20
227.4343998097541
 30
0.0
 11
483.5791241485607
 21
227.4377741754701
 31
0.0
  0
LINE
  5
1B6
330
37
100
AcDbEntity
  8
11000_LEFT
  6
Continuous
 62
     7
370
    35
100
AcDbLine
 10
483.5791241485607
 20
227.4377741754701
 30
0.0
 11
483.5789357125616
 21
227.4411491974335
 31
0.0
  0
LINE
  5
1B7
330
37
100
AcDbEntity
  8
11000_LEFT
  6
Continuous
 62
     7
370
    35
100
AcDbLine
 10
483.5789357125616
 20
227.4411491974335
 30
0.0
 11
483.5787586861363
 21
227.44452483708
 31
0.0
  0
LINE
  5
1B8
330
37
100
AcDbEntity
  8
11000_LEFT
  6
Continuous
 62
     7
370
    35
100
AcDbLine
 10
483.5787586861363
 20
227.44452483708
 30
0.0
 11
483.5785930713075
 21
227.4479010558388
 31
0.0
  0
LINE
  5
1B9
330
37
100
AcDbEntity
  8
11000_LEFT
  6
Continuous
 62
     7
370
    35
100
AcDbLine
 10
483.5785930713075
 20
227.4479010558388
 30
0.0
 11
483.5784388699678
 21
227.4512778151321
 31
0.0
  0
LINE
  5
1BA
330
37
100
AcDbEntity
  8
11000_LEFT
  6
Continuous
 62
     7
370
    35
100
AcDbLine
 10
483.5784388699678
 20
227.4512778151321
 30
0.0
 11
483.5782960838789
 21
227.4546550763764
 31
0.0
  0
LINE
  5
1BB
330
37
100
AcDbEntity
  8
11000_LEFT
  6
Continuous
 62
     7
370
    35
100
AcDbLine
 10
483.5782960838789
 20
227.4546550763764
 30
0.0
 11
483.578164714672
 21
227.4580328009818
 31
0.0
  0
LINE
  5
1BC
330
37
100
AcDbEntity
  8
11000_LEFT
  6
Continuous
 62
     7
370
    35
100
AcDbLine
 10
483.578164714672
 20
227.4580328009818
 30
0.0
 11
483.5780447638488
 21
227.4614109503537
 31
0.0
  0
LINE
  5
1BD
330
37
100
AcDbEntity
  8
11000_LEFT
  6
Continuous
 62
     7
370
    35
100
AcDbLine
 10
483.5780447638488
 20
227.4614109503537
 30
0.0
 11
483.5779362327796
 21
227.4647894858923
 31
0.0
  0
LINE
  5
1BE
330
37
100
AcDbEntity
  8
11000_LEFT
  6
Continuous
 62
     7
370
    35
100
AcDbLine
 10
483.5779362327796
 20
227.4647894858923
 30
0.0
 11
483.5778391227044
 21
227.4681683689936
 31
0.0
  0
LINE
  5
1BF
330
37
100
AcDbEntity
  8
11000_LEFT
  6
Continuous
 62
     7
370
    35
100
AcDbLine
 10
483.5778391227044
 20
227.4681683689936
 30
0.0
 11
483.5777534347331
 21
227.4715475610494
 31
0.0
  0
LINE
  5
1C0
330
37
100
AcDbEntity
  8
11000_LEFT
  6
Continuous
 62
     7
370
    35
100
AcDbLine
 10
483.5777534347331
 20
227.4715475610494
 30
0.0
 11
483.5776791698443
 21
227.4749270234482
 31
0.0
  0
LINE
  5
1C1
330
37
100
AcDbEntity
  8
11000_LEFT
  6
Continuous
 62
     7
370
    35
100
AcDbLine
 10
483.5776791698443
 20
227.4749270234482
 30
0.0
 11
483.5776163288872
 21
227.4783067175753
 31
0.0
  0
LINE
  5
1C2
330
37
100
AcDbEntity
  8
11000_LEFT
  6
Continuous
 62
     7
370
    35
100
AcDbLine
 10
483.5776163288872
 20
227.4783067175753
 30
0.0
 11
483.5775649125793
 21
227.4816866048133
 31
0.0
  0
LINE
  5
1C3
330
37
100
AcDbEntity
  8
11000_LEFT
  6
Continuous
 62
     7
370
    35
100
AcDbLine
 10
483.5775649125793
 20
227.4816866048133
 30
0.0
 11
483.5775249215084
 21
227.4850666465427
 31
0.0
  0
LINE
  5
1C4
330
37
100
AcDbEntity
  8
11000_LEFT
  6
Continuous
 62
     7
370
    35
100
AcDbLine
 10
483.5775249215084
 20
227.4850666465427
 30
0.0
 11
483.5774963561313
 21
227.4884468041423
 31
0.0
  0
LINE
  5
1C5
330
37
100
AcDbEntity
  8
11000_LEFT
  6
Continuous
 62
     7
370
    35
100
AcDbLine
 10
483.5774963561313
 20
227.4884468041423
 30
0.0
 11
483.5774792167747
 21
227.4918270389894
 31
0.0
  0
LINE
  5
1C6
330
37
100
AcDbEntity
  8
11000_LEFT
  6
Continuous
 62
     7
370
    35
100
AcDbLine
 10
483.5774792167747
 20
227.4918270389894
 30
0.0
 11
483.577473503634
 21
227.4952073124603
 31
0.0
  0
LINE
  5
1C7
330
37
100
AcDbEntity
  8
11000_LEFT
  6
Continuous
 62
     7
370
    35
100
AcDbLine
 10
483.577473503634
 20
229.3771733237104
 30
0.0
 11
483.577473503634
 21
227.4952073124603
 31
0.0
  0
LINE
  5
1C8
330
37
100
AcDbEntity
  8
11000_LEFT
  6
Continuous
 62
     7
370
    35
100
AcDbLine
 10
509.607473503634
 20
224.3771733237104
 30
0.0
 11
513.5774735036341
 21
220.8771733237104
 31
0.0
  0
LINE
  5
1C9
330
37
100
AcDbEntity
  8
11000_LEFT
  6
Continuous
 62
     7
370
    35
100
AcDbLine
 10
513.5774735036341
 20
232.8771733237104
 30
0.0
 11
509.607473503634
 21
229.3771733237104
 31
0.0
  0
LINE
  5
1CA
330
37
100
AcDbEntity
  8
11000_LEFT
  6
Continuous
 62
     7
370
    35
100
AcDbLine
 10
509.607473503634
 20
229.3771733237104
 30
0.0
 11
483.577473503634
 21
229.3771733237104
 31
0.0
  0
LINE
  5
1CB
330
37
100
AcDbEntity
  8
11000_LEFT
  6
Continuous
 62
     7
370
    35
100
AcDbLine
 10
513.5774735036341
 20
220.8771733237104
 30
0.0
 11
514.5774735036341
 21
220.8771733237104
 31
0.0
  0
LINE
  5
1CC
330
37
100
AcDbEntity
  8
11000_LEFT
  6
Continuous
 62
     7
370
    35
100
AcDbLine
 10
513.5774735036341
 20
232.8771733237104
 30
0.0
 11
513.5774735036341
 21
220.8771733237104
 31
0.0
  0
LINE
  5
1CD
330
37
100
AcDbEntity
  8
11000_LEFT
  6
Continuous
 62
     7
370
    35
100
AcDbLine
 10
509.607473503634
 20
229.3771733237104
 30
0.0
 11
509.607473503634
 21
224.3771733237104
 31
0.0
  0
LINE
  5
1CE
330
37
100
AcDbEntity
  8
11000_LEFT
  6
Continuous
 62
     7
370
    35
100
AcDbLine
 10
514.5774735036338
 20
232.8771733237104
 30
0.0
 11
513.5774735036338
 21
232.8771733237104
 31
0.0
  0
LINE
  5
1D1
330
37
100
AcDbEntity
  8
11000_LEFT
  6
Continuous
 62
     7
370
    35
100
AcDbLine
 10
530.5774735058792
 20
255.8771733237104
 30
0.0
 11
530.5774735058792
 21
246.8771733237104
 31
0.0
  0
LINE
  5
1D2
330
37
100
AcDbEntity
  8
11000_LEFT
  6
Continuous
 62
     7
370
    35
100
AcDbLine
 10
530.5774735058792
 20
206.8771733237104
 30
0.0
 11
530.5774735058792
 21
197.8771733237104
 31
0.0
  0
LINE
  5
1D3
330
37
100
AcDbEntity
  8
11000_LEFT
  6
Continuous
 62
     7
370
    35
100
AcDbLine
 10
530.5774735058792
 20
246.8771733237104
 30
0.0
 11
530.5774735058792
 21
206.8771733237104
 31
0.0
  0
LINE
  5
1D7
330
37
100
AcDbEntity
  8
11000_LEFT
  6
Continuous
 62
     7
370
    35
100
AcDbLine
 10
536.5774735081246
 20
255.8771733237104
 30
0.0
 11
530.5774735058792
 21
255.8771733237104
 31
0.0
  0
LINE
  5
1D8
330
37
100
AcDbEntity
  8
11000_LEFT
  6
Continuous
 62
     7
370
    35
100
AcDbLine
 10
530.5774735058792
 20
197.8771733237104
 30
0.0
 11
536.5774735081246
 21
197.8771733237104
 31
0.0
  0
LINE
  5
1D9
330
37
100
AcDbEntity
  8
11000_LEFT
  6
Continuous
 62
     7
370
    35
100
AcDbLine
 10
530.5774735103701
 20
239.8771733238752
 30
0.0
 11
530.5774735103701
 21
253.8771733235456
 31
0.0
  0
LINE
  5
1DA
330
37
100
AcDbEntity
  8
11000_LEFT
  6
Continuous
 62
     7
370
    35
100
AcDbLine
 10
527.5774735081246
 20
241.5950386198751
 30
0.0
 11
527.5774735081246
 21
252.1593080275457
 31
0.0
  0
LINE
  5
1DC
330
37
100
AcDbEntity
  8
11000_LEFT
  6
Continuous
 62
     7
370
    35
100
AcDbLine
 10
529.5574735103701
 20
239.8771733237927
 30
0.0
 11
530.5774735103701
 21
239.8771733237927
 31
0.0
  0
LINE
  5
1DD
330
37
100
AcDbEntity
  8
11000_LEFT
  6
Continuous
 62
     7
370
    35
100
AcDbLine
 10
530.5774735103701
 20
253.877173323628
 30
0.0
 11
529.5574735103701
 21
253.877173323628
 31
0.0
  0
ARC
  5
1DE
330
37
100
AcDbEntity
  8
11000_LEFT
  6
Continuous
 62
     7
370
    35
100
AcDbCircle
 10
529.5574735103701
 20
251.8771733237104
 30
0.0
 40
2.0
100
AcDbArc
 50
90.0
 51
171.8903860000002
  0
ARC
  5
1DF
330
37
100
AcDbEntity
  8
11000_LEFT
  6
Continuous
 62
     7
370
    35
100
AcDbCircle
 10
529.5574735103701
 20
241.8771733237104
 30
0.0
 40
1.999999999999999
100
AcDbArc
 50
188.1096139999993
 51
270.0
  0
ARC
  5
1E0
330
37
100
AcDbEntity
  8
0
  6
Continuous
 62
     7
100
AcDbCircle
 10
534.5974735058791
 20
251.8771733237104
 30
0.0
 40
2.000000000000003
100
AcDbArc
 50
8.109613999999371
 51
8.609073117419566
  0
LINE
  5
1E1
330
37
100
AcDbEntity
  8
11000_LEFT
  6
Continuous
 62
     7
370
    35
100
AcDbLine
 10
527.5774735058791
 20
243.8771733237104
 30
0.0
 11
527.5774735058791
 21
249.8771733237104
 31
0.0
  0
LINE
  5
1E2
330
37
100
AcDbEntity
  8
11000_LEFT
  6
Continuous
 62
     7
370
    35
100
AcDbLine
 10
530.5774735103701
 20
199.8771733238752
 30
0.0
 11
530.5774735103701
 21
213.8771733235458
 31
0.0
  0
LINE
  5
1E3
330
37
100
AcDbEntity
  8
11000_LEFT
  6
Continuous
 62
     7
370
    35
100
AcDbLine
 10
527.5774735081246
 20
201.5950386198751
 30
0.0
 11
527.5774735081246
 21
212.1593080275456
 31
0.0
  0
LINE
  5
1E4
330
37
100
AcDbEntity
  8
11000_LEFT
  6
Continuous
 62
     7
370
    35
100
AcDbLine
 10
536.5774735081246
 20
197.8771733237104
 30
0.0
 11
536.5774735081246
 21
255.8771733237104
 31
0.0
  0
LINE
  5
1E5
330
37
100
AcDbEntity
  8
11000_LEFT
  6
Continuous
 62
     7
370
    35
100
AcDbLine
 10
529.5574735103701
 20
199.8771733237927
 30
0.0
 11
530.5774735103701
 21
199.8771733237927
 31
0.0
  0
LINE
  5
1E6
330
37
100
AcDbEntity
  8
11000_LEFT
  6
Continuous
 62
     7
370
    35
100
AcDbLine
 10
530.5774735103701
 20
213.8771733236281
 30
0.0
 11
529.5574735103701
 21
213.8771733236281
 31
0.0
  0
ARC
  5
1E7
330
37
100
AcDbEntity
  8
11000_LEFT
  6
Continuous
 62
     7
370
    35
100
AcDbCircle
 10
529.5574735103701
 20
211.8771733237104
 30
0.0
 40
2.0
100
AcDbArc
 50
90.0
 51
171.8903860000002
  0
ARC
  5
1E8
330
37
100
AcDbEntity
  8
11000_LEFT
  6
Continuous
 62
     7
370
    35
100
AcDbCircle
 10
529.5574735103701
 20
201.8771733237104
 30
0.0
 40
1.999999999999999
100
AcDbArc
 50
188.1096139999993
 51
270.0
  0
LINE
  5
1EA
330
37
100
AcDbEntity
  8
11000_LEFT
  6
Continuous
 62
     7
370
    35
100
AcDbLine
 10
527.5774735058791
 20
203.8771733237104
 30
0.0
 11
527.5774735058791
 21
209.8771733237104
 31
0.0
  0
LINE
  5
344
330
37
100
AcDbEntity
  8
91000_TIP
  6
Continuous
 62
     7
370
    13
100
AcDbLine
 10
409.5068016764758
 20
85.66387851413646
 30
0.0
 11
419.5068016764759
 21
88.16387851413644
 31
0.0
  0
LINE
  5
345
330
37
100
AcDbEntity
  8
91000_TIP
  6
Continuous
 62
     7
370
    13
100
AcDbLine
 10
408.2272906764758
 20
83.16387851413646
 30
0.0
 11
431.8292806764758
 21
83.16387851413646
 31
0.0
  0
LINE
  5
346
330
37
100
AcDbEntity
  8
91000_TIP
  6
Continuous
 62
     7
370
    13
100
AcDbLine
 10
409.5068016764758
 20
80.66387851413646
 30
0.0
 11
419.5068016764759
 21
78.16387851413648
 31
0.0
  0
LINE
  5
347
330
37
100
AcDbEntity
  8
91000_TIP
  6
Continuous
 62
     7
370
    13
100
AcDbLine
 10
409.5068016764758
 20
85.66387851413646
 30
0.0
 11
409.5068016764758
 21
80.66387851413646
 31
0.0
  0
LINE
  5
348
330
37
100
AcDbEntity
  8
91000_TIP
  6
Continuous
 62
     7
370
    13
100
AcDbLine
 10
419.5068016764759
 20
88.16387851413644
 30
0.0
 11
419.5068016764759
 21
78.16387851413648
 31
0.0
  0
LINE
  5
349
330
37
100
AcDbEntity
  8
91000_TIP
  6
Continuous
 62
     7
370
    13
100
AcDbLine
 10
426.0068006764758
 20
77.44239751413648
 30
0.0
 11
426.0068006764758
 21
88.72578351413649
 31
0.0
  0
CIRCLE
  5
34A
330
37
100
AcDbEntity
  8
91000_TIP
  6
Continuous
 62
     7
370
    13
100
AcDbCircle
 10
426.0068006764758
 20
83.16387851413646
 30
0.0
 40
5.0
  0
CIRCLE
  5
34B
330
37
100
AcDbEntity
  8
91000_TIP
  6
Continuous
 62
     7
370
    13
100
AcDbCircle
 10
426.0068006764758
 20
83.16387851413646
 30
0.0
 40
2.5
  0
LINE
  5
34C
330
37
100
AcDbEntity
  8
90000_FRAME
  6
Continuous
 62
     7
370
    13
100
AcDbLine
 10
438.1273406764758
 20
74.45378751413648
 30
0.0
 11
438.1273406764758
 21
92.45378751413644
 31
0.0
  0
DIMENSION
  5
354
330
37
100
AcDbEntity
  8
11100_LEFT_DIM
370
    18
100
AcDbDimension
  2
*D44
 10
536.5774735081246
 20
184.8771733237104
 30
0.0
 11
532.077473507002
 21
187.1271733237104
 31
0.0
 70
    32
 71
     5
 42
9.000000002245428
  3
H035
100
AcDbAlignedDimension
 13
527.5774735058791
 23
201.5950386198751
 33
0.0
 14
536.5774735081246
 24
197.8771733237104
 34
0.0
100
AcDbRotatedDimension
1001
ACAD
1000
DSTYLE
1002
{
1070
    40
1040
1.0
1002
}
  0
LWPOLYLINE
  5
35C
330
37
100
AcDbEntity
  8
90200_FRAME_SIZE
100
AcDbPolyline
 90
        4
 70
     1
 43
0.0
 10
363.1273406764759
 20
52.95378751413648
 10
603.1273406764759
 20
52.95378751413648
 10
603.1273406764759
 20
382.9537875141365
 10
363.1273406764759
 20
382.9537875141367
1001
GENIUS_GENREC_14
1002
{
1000
PYDIR
1011
363.1273406764759
1021
382.9537875141365
1031
0.0
1002
}
1002
{
1000
PXDIR
1011
603.1273406764759
1021
52.95378751413648
1031
0.0
1002
}
1002
{
1000
PORI
1011
363.1273406764759
1021
52.95378751413648
1031
0.0
1002
}
1002
{
1000
PINS
1011
363.1273406764759
1021
52.95378751413648
1031
0.0
1002
}
1002
{
1000
HVAL
1000
330
1002
}
1002
{
1000
H
1070
     2
1002
}
1002
{
1000
WVAL
1000
240
1002
}
1002
{
1000
W
1070
     2
1002
}
1002
{
1000
C
1070
     1
1002
}
1001
GENIUS_GENODEF_13
1002
{
1000
HIER
1070
     0
1002
}
1002
{
1000
MANEDIT
1070
     0
1002
}
1002
{
1000
NOSEL
1070
     0
1002
}
1002
{
1000
BEHIND
1070
     0
1002
}
1002
{
1000
OTHER
1070
     0
1002
}
1002
{
1000
REACTOR
1002
}
1001
GENIUS_GENOBJ-N-REC_13
1002
{
1000
OWNER
1000
GEN
1002
}
  0
LWPOLYLINE
  5
35D
330
37
100
AcDbEntity
  8
90100_FRAME_THICK
100
AcDbPolyline
 90
        4
 70
     1
 43
0.0
 10
378.1273406764759
 20
69.45378751413648
 10
588.1273406764758
 20
69.45378751413648
 10
588.1273406764758
 20
366.4537875141365
 10
378.1273406764759
 20
366.4537875141365
1001
GENIUS_GENREC_14
1002
{
1000
PYDIR
1011
378.1273406764759
1021
366.4537875141365
1031
0.0
1002
}
1002
{
1000
PXDIR
1011
588.1273406764758
1021
69.45378751413648
1031
0.0
1002
}
1002
{
1000
PORI
1011
378.1273406764759
1021
69.45378751413648
1031
0.0
1002
}
1002
{
1000
PINS
1011
378.1273406764759
1021
69.45378751413648
1031
0.0
1002
}
1002
{
1000
HVAL
1000
297
1002
}
1002
{
1000
H
1070
     2
1002
}
1002
{
1000
WVAL
1000
210
1002
}
1002
{
1000
W
1070
     2
1002
}
1002
{
1000
C
1070
     1
1002
}
1001
GENIUS_GENODEF_13
1002
{
1000
HIER
1070
     0
1002
}
1002
{
1000
MANEDIT
1070
     0
1002
}
1002
{
1000
NOSEL
1070
     0
1002
}
1002
{
1000
BEHIND
1070
     0
1002
}
1002
{
1000
OTHER
1070
     0
1002
}
1002
{
1000
REACTOR
1002
}
1001
GENIUS_GENOBJ-N-REC_13
1002
{
1000
OWNER
1000
GEN
1002
}
  0
LWPOLYLINE
  5
35E
330
37
100
AcDbEntity
  8
90000_FRAME_THIN
100
AcDbPolyline
 90
        4
 70
     1
 43
0.0
 10
383.1273406764759
 20
74.45378751413648
 10
583.1273406764759
 20
74.45378751413648
 10
583.1273406764759
 20
361.4537875141365
 10
383.1273406764759
 20
361.4537875141365
1001
GENIUS_GENREC_14
1002
{
1000
PYDIR
1011
378.1273406764759
1021
366.4537875141365
1031
0.0
1002
}
1002
{
1000
PXDIR
1011
588.1273406764758
1021
69.45378751413648
1031
0.0
1002
}
1002
{
1000
PORI
1011
378.1273406764759
1021
69.45378751413648
1031
0.0
1002
}
1002
{
1000
PINS
1011
378.1273406764759
1021
69.45378751413648
1031
0.0
1002
}
1002
{
1000
HVAL
1000
297
1002
}
1002
{
1000
H
1070
     2
1002
}
1002
{
1000
WVAL
1000
210
1002
}
1002
{
1000
W
1070
     2
1002
}
1002
{
1000
C
1070
     1
1002
}
1001
GENIUS_GENODEF_13
1002
{
1000
HIER
1070
     0
1002
}
1002
{
1000
MANEDIT
1070
     0
1002
}
1002
{
1000
NOSEL
1070
     0
1002
}
1002
{
1000
BEHIND
1070
     0
1002
}
1002
{
1000
OTHER
1070
     0
1002
}
1002
{
1000
REACTOR
1002
}
1001
GENIUS_GENOBJ-N-REC_13
1002
{
1000
OWNER
1000
GEN
1002
}
  0
INSERT
  5
35F
330
37
100
AcDbEntity
  8
0
100
AcDbBlockReference
 66
     1
  2
Title_A4P
 10
578.1273406764759
 20
79.45378751413648
 30
0.0
  0
ATTRIB
  5
360
330
35F
100
AcDbEntity
  8
92000_TITLE
100
AcDbText
 10
461.1273406764762
 20
81.20378751413648
 30
0.0
 40
2.5
  1

 72
     1
 11
461.1273406764762
 21
82.45378751413648
 31
0.0
100
AcDbAttribute
  2
DATUM
 70
     0
 74
     2
  0
ATTRIB
  5
361
330
35F
100
AcDbEntity
  8
92000_TITLE
100
AcDbText
 10
486.1273406764762
 20
81.20378751413648
 30
0.0
 40
2.5
  1

 72
     1
 11
486.1273406764762
 21
82.45378751413648
 31
0.0
100
AcDbAttribute
  2
NAME
 70
     0
 74
     2
  0
ATTRIB
  5
362
330
35F
100
AcDbEntity
  8
92000_TITLE
100
AcDbText
 10
498.2940073431429
 20
91.70378751413661
 30
0.0
 40
3.5
  1
3SE5000_00001650_001_ALL
 72
     1
 11
535.6273406764763
 21
93.4537875141366
 31
0.0
100
AcDbAttribute
  2
ZEICHNUNGSNAME
 70
     0
 74
     2
  0
ATTRIB
  5
363
330
35F
100
AcDbEntity
  8
92000_TITLE
100
AcDbText
 10
518.9606740098096
 20
86.20378751413658
 30
0.0
 40
2.5
  1
getr. Betätiger
 72
     1
 11
535.6273406764763
 21
87.45378751413658
 31
0.0
100
AcDbAttribute
  2
ARTIKELNAME
 70
     0
 74
     2
  0
SEQEND
  5
364
330
35F
100
AcDbEntity
  8
0
  0
DIMENSION
  5
479
330
37
100
AcDbEntity
  8
10100_FRONT_DIM
370
    18
100
AcDbDimension
  2
*D46
 10
450.8937243502925
 20
270.0075137359438
 30
0.0
 11
441.8937302584557
 21
272.2575137359438
 31
0.0
 70
    32
 71
     5
 42
17.99998818367368
  3
H035
100
AcDbAlignedDimension
 13
432.8937361666189
 23
248.0083203735908
 33
0.0
 14
450.8937243502925
 24
248.0075137359438
 34
0.0
 50
180.0
100
AcDbRotatedDimension
1001
ACAD
1000
DSTYLE
1002
{
1070
    40
1040
1.0
1070
    42
1040
0.5
1002
}
  0
DIMENSION
  5
4A9
330
37
100
AcDbEntity
  8
10100_FRONT_DIM
370
    18
100
AcDbDimension
  2
*D47
 10
399.4007568128099
 20
255.8771733237104
 30
0.0
 11
397.1507568128099
 21
226.8771733237104
 31
0.0
 70
    32
 71
     5
 42
58.0
  3
H035
100
AcDbAlignedDimension
 13
441.8937243502925
 23
197.8771733237104
 33
0.0
 14
441.8985550891764
 24
255.8771733237104
 34
0.0
 50
90.0
100
AcDbRotatedDimension
1001
ACAD
1000
DSTYLE
1002
{
1070
    42
1040
0.5
1070
    40
1040
1.0
1002
}
  0
DIMENSION
  5
4AA
330
37
100
AcDbEntity
  8
10100_FRONT_DIM
370
    18
100
AcDbDimension
  2
*D48
 10
409.4007568128098
 20
246.8633959381377
 30
0.0
 11
407.1507568128098
 21
226.8702846309241
 31
0.0
 70
    32
 71
     5
 42
39.98622261442733
  3
H035
100
AcDbAlignedDimension
 13
432.3985550891763
 23
206.8771733237104
 33
0.0
 14
432.40075681281
 24
246.8633959381377
 34
0.0
 50
90.0
100
AcDbRotatedDimension
1001
ACAD
1000
DSTYLE
1002
{
1070
   271
1070
     0
1070
    40
1040
1.0
1070
    42
1040
0.5
1002
}
  0
DIMENSION
  5
4AB
330
37
100
AcDbEntity
  8
10100_FRONT_DIM
370
    18
100
AcDbDimension
  2
*D49
 10
419.4007568128099
 20
235.1771733237105
 30
0.0
 11
419.4007568128099
 21
226.8771733237104
 31
0.0
 70
   160
 71
     5
 42
16.60000000000002
  3
H035
100
AcDbAlignedDimension
 13
435.4007568128099
 23
218.5771733237104
 33
0.0
 14
435.4007568128099
 24
235.1771733237105
 34
0.0
 50
90.0
100
AcDbRotatedDimension
1001
ACAD
1000
DSTYLE
1002
{
1070
   271
1070
     1
1070
    40
1040
1.0
1070
    42
1040
0.5
1002
}
  0
LINE
  5
560
330
37
100
AcDbEntity
  8
10200_FRONT_SYM
 48
10.0
370
     0
100
AcDbLine
 10
452.900807583386
 20
246.8771733237104
 30
0.0
 11
430.8866411171995
 21
246.8771733237104
 31
0.0
  0
LINE
  5
561
330
37
100
AcDbEntity
  8
10200_FRONT_SYM
 48
10.0
370
     0
100
AcDbLine
 10
441.8937243502928
 20
195.8700900906172
 30
0.0
 11
441.8937243502928
 21
217.8842565568036
 31
0.0
  0
LINE
  5
562
330
37
100
AcDbEntity
  8
10200_FRONT_SYM
 48
10.0
370
     0
100
AcDbLine
 10
441.8937243502925
 20
235.8700900906173
 30
0.0
 11
441.8937243502925
 21
257.8842565568038
 31
0.0
  0
DIMENSION
  5
563
330
37
100
AcDbEntity
  8
10100_FRONT_DIM
370
    18
100
AcDbDimension
  2
*D50
 10
439.9454560461414
 20
208.0026734858783
 30
0.0
 11
456.0076798734687
 21
201.3221072134098
 31
0.0
 70
    35
 71
     5
 42
4.500000000000113
  3
H035
100
AcDbDiametricDimension
 15
443.8419926544439
 25
205.7516731615427
 35
0.0
 40
0.0
1001
ACAD
1000
DSTYLE
1002
{
1070
    40
1040
1.0
1070
    42
1040
0.5
1070
   271
1070
     1
1002
}
  0
LINE
  5
595
330
37
100
AcDbEntity
  8
11200_LEFT_SYM
 48
10.0
370
     0
100
AcDbLine
 10
509.607473503634
 20
226.8771733237104
 30
0.0
 11
539.9416059109751
 21
226.8622019727743
 31
0.0
  0
DIMENSION
  5
596
330
37
100
AcDbEntity
  8
11100_LEFT_DIM
370
    18
100
AcDbDimension
  2
*D51
 10
530.5774735058792
 20
268.8771733237104
 30
0.0
 11
533.5774735058792
 21
271.1271733237104
 31
0.0
 70
    32
 71
     5
 42
5.999999999999886
  3
H035
100
AcDbAlignedDimension
 13
536.5774735058791
 23
255.8771733237104
 33
0.0
 14
530.5774735058792
 24
255.8771733237104
 34
0.0
100
AcDbRotatedDimension
1001
ACAD
1000
DSTYLE
1002
{
1070
    42
1040
0.5
1070
    40
1040
1.0
1002
}
  0
DIMENSION
  5
597
330
37
100
AcDbEntity
  8
11100_LEFT_DIM
370
    18
100
AcDbDimension
  2
*D52
 10
483.577473503634
 20
278.8771733237104
 30
0.0
 11
510.0774735047566
 21
281.1271733237104
 31
0.0
 70
    32
 71
     5
 42
53.00000000224514
  3
H035
100
AcDbAlignedDimension
 13
536.5774735058791
 23
255.8771733237104
 33
0.0
 14
483.577473503634
 24
249.3771733237104
 34
0.0
100
AcDbRotatedDimension
1001
ACAD
1000
DSTYLE
1002
{
1070
    42
1040
0.5
1070
    40
1040
1.0
1002
}
  0
DIMENSION
  5
598
330
37
100
AcDbEntity
  8
11100_LEFT_DIM
370
    18
100
AcDbDimension
  2
*D53
 10
483.577473503634
 20
268.8771733237104
 30
0.0
 11
499.077473503634
 21
271.1271733237104
 31
0.0
 70
    32
 71
     5
 42
30.99999999999983
  3
H035
100
AcDbAlignedDimension
 13
514.5774735036338
 23
232.8771733237104
 33
0.0
 14
483.577473503634
 24
229.3771733237104
 34
0.0
100
AcDbRotatedDimension
1001
ACAD
1000
DSTYLE
1002
{
1070
    40
1040
1.0
1070
    42
1040
0.5
1002
}
  0
DIMENSION
  5
5EE
330
37
100
AcDbEntity
  8
11100_LEFT_DIM
370
    18
100
AcDbDimension
  2
*D54
 10
549.5774735081246
 20
255.8771733237104
 30
0.0
 11
547.3274735081246
 21
226.8771733237105
 31
0.0
 70
    32
 71
     5
 42
58.00000000000006
  3
H035
100
AcDbAlignedDimension
 13
536.5774735081246
 23
197.8771733237104
 33
0.0
 14
536.5774735081246
 24
255.8771733237104
 34
0.0
 50
270.0
100
AcDbRotatedDimension
1001
ACAD
1000
DSTYLE
1002
{
1070
    42
1040
0.5
1070
    40
1040
1.0
1002
}
  0
LINE
  5
87B
330
37
100
AcDbEntity
  8
11000_LEFT
  6
Continuous
 62
     7
370
    35
100
AcDbLine
 10
520.5774735036339
 20
229.3771733237104
 30
0.0
 11
514.5774735036338
 21
229.3771733237104
 31
0.0
  0
LINE
  5
87C
330
37
100
AcDbEntity
  8
11000_LEFT
  6
Continuous
 62
     7
370
    35
100
AcDbLine
 10
520.5774735036339
 20
224.3771733237104
 30
0.0
 11
514.5774735036338
 21
224.3771733237104
 31
0.0
  0
ARC
  5
87D
330
37
100
AcDbEntity
  8
11000_LEFT
  6
Continuous
 62
     7
370
    35
100
AcDbCircle
 10
520.5774735036339
 20
214.3771733237104
 30
0.0
 40
9.999999999999996
100
AcDbArc
 50
0.0
 51
90.0
  0
ARC
  5
87E
330
37
100
AcDbEntity
  8
11000_LEFT
  6
Continuous
 62
     7
370
    35
100
AcDbCircle
 10
520.5774735036339
 20
239.3771733237104
 30
0.0
 40
10.0
100
AcDbArc
 50
270.0
 51
0.0
  0
ENDSEC
  0
SECTION
  2
OBJECTS
  0
DICTIONARY
  5
C
330
0
100
AcDbDictionary
281
     1
  3
ACAD_2007HEADERVARS_RT
350
90C
  3
ACAD_COLOR
350
30
  3
ACAD_GROUP
350
D
  3
ACAD_LAYOUT
350
2F
  3
ACAD_MATERIAL
350
10
  3
ACAD_MLINESTYLE
350
2C
  3
ACAD_PLOTSETTINGS
350
2E
  3
ACAD_PLOTSTYLENAME
350
E
  3
ACAD_TABLESTYLE
350
31
  3
ACAD_VISUALSTYLE
350
14
  3
AcDbVariableDictionary
350
57A
  3
ASE_INDEX_DICTIONARY
350
578
  3
DWGPROPS
350
90B
  0
DICTIONARY
  5
2FB
330
293
100
AcDbDictionary
280
     1
281
     1
  3
ACAD_SORTENTS
360
2FC
  0
DICTIONARY
  5
90C
102
{ACAD_REACTORS
330
C
102
}
330
C
100
AcDbDictionary
281
     1
  3
DIMJOGANG
350
90D
  0
DICTIONARY
  5
30
102
{ACAD_REACTORS
330
C
102
}
330
C
100
AcDbDictionary
281
     1
  0
DICTIONARY
  5
D
102
{ACAD_REACTORS
330
C
102
}
330
C
100
AcDbDictionary
281
     1
  0
DICTIONARY
  5
2F
102
{ACAD_REACTORS
330
C
102
}
330
C
100
AcDbDictionary
281
     1
  3
Layout1
350
36
  3
Layout2
350
3E
  3
Model
350
3A
  0
DICTIONARY
  5
10
102
{ACAD_REACTORS
330
C
102
}
330
C
100
AcDbDictionary
281
     1
  3
ByBlock
350
12
  3
ByLayer
350
11
  3
Global
350
13
  0
DICTIONARY
  5
2C
102
{ACAD_REACTORS
330
C
102
}
330
C
100
AcDbDictionary
281
     1
  3
Standard
350
2D
  0
DICTIONARY
  5
2E
102
{ACAD_REACTORS
330
C
102
}
330
C
100
AcDbDictionary
281
     1
  0
ACDBDICTIONARYWDFLT
  5
E
102
{ACAD_REACTORS
330
C
102
}
330
C
100
AcDbDictionary
281
     1
  3
Normal
350
F
100
AcDbDictionaryWithDefault
340
F
  0
DICTIONARY
  5
31
102
{ACAD_REACTORS
330
C
102
}
330
C
100
AcDbDictionary
281
     1
  3
Standard
350
32
  0
DICTIONARY
  5
14
102
{ACAD_REACTORS
330
C
102
}
330
C
100
AcDbDictionary
281
     1
  3
2dWireframe
350
1A
  3
3D Hidden
350
1C
  3
3dWireframe
350
1B
  3
Basic
350
19
  3
Brighten
350
20
  3
ColorChange
350
24
  3
Conceptual
350
1D
  3
Dim
350
1F
  3
Facepattern
350
23
  3
Flat
350
15
  3
FlatWithEdges
350
16
  3
Gouraud
350
17
  3
GouraudWithEdges
350
18
  3
Linepattern
350
22
  3
Realistic
350
1E
  3
Thicken
350
21
  0
DICTIONARY
  5
57A
102
{ACAD_REACTORS
330
C
102
}
330
C
100
AcDbDictionary
281
     1
  3
CTABLESTYLE
350
57B
  3
DIMASSOC
350
640
  3
HIDETEXT
350
63F
  3
INDEXCTL
350
63E
  3
SORTENTS
350
63D
  0
DICTIONARY
  5
578
102
{ACAD_REACTORS
330
C
102
}
330
C
100
AcDbDictionary
281
     1
  3
ASEBlockHierarchyIndexRecord
350
579
1001
DCO15
1040
1600066751.305
  0
XRECORD
  5
90B
102
{ACAD_REACTORS
330
C
102
}
330
C
100
AcDbXrecord
280
     1
  1
DWGPROPS COOKIE
  2

  3

  4

  6

  7

  8
adfize1
  9

300
=
301
=
302
=
303
=
304
=
305
=
306
=
307
=
308
=
309
=
 40
0.1916558217592593
 41
2454322.428141192
 42
2454397.532048206
  1

 90
        0
  0
SORTENTSTABLE
  5
2FC
102
{ACAD_REACTORS
330
2FB
102
}
330
2FB
100
AcDbSortentsTable
330
293
  0
XRECORD
  5
90D
102
{ACAD_REACTORS
330
90C
102
}
330
90C
100
AcDbXrecord
280
     1
 40
1.570796326794896
  0
LAYOUT
  5
36
102
{ACAD_XDICTIONARY
360
910
102
}
102
{ACAD_REACTORS
330
2F
102
}
330
2F
100
AcDbPlotSettings
  1

  2
Microsoft Office Document Image Writer
  4

  6

 40
0.0
 41
0.0
 42
0.0
 43
0.0
 44
0.0
 45
0.0
 46
0.0
 47
0.0
 48
0.0
 49
0.0
140
0.0
141
0.0
142
1.0
143
1.0
 70
   688
 72
     0
 73
     0
 74
     5
  7

 75
    16
147
1.0
148
0.0
149
0.0
100
AcDbLayout
  1
Layout1
 70
     1
 71
     1
 10
0.0
 20
0.0
 11
420.0
 21
297.0
 12
0.0
 22
0.0
 32
0.0
 14
1.000000000000000E+20
 24
1.000000000000000E+20
 34
1.000000000000000E+20
 15
-1.000000000000000E+20
 25
-1.000000000000000E+20
 35
-1.000000000000000E+20
146
0.0
 13
0.0
 23
0.0
 33
0.0
 16
1.0
 26
0.0
 36
0.0
 17
0.0
 27
1.0
 37
0.0
 76
     0
330
33
  0
LAYOUT
  5
3E
102
{ACAD_XDICTIONARY
360
914
102
}
102
{ACAD_REACTORS
330
2F
102
}
330
2F
100
AcDbPlotSettings
  1

  2
Microsoft Office Document Image Writer
  4

  6

 40
0.0
 41
0.0
 42
0.0
 43
0.0
 44
0.0
 45
0.0
 46
0.0
 47
0.0
 48
0.0
 49
0.0
140
0.0
141
0.0
142
1.0
143
1.0
 70
   688
 72
     0
 73
     0
 74
     5
  7

 75
    16
147
1.0
148
0.0
149
0.0
100
AcDbLayout
  1
Layout2
 70
     1
 71
     2
 10
0.0
 20
0.0
 11
12.0
 21
9.0
 12
0.0
 22
0.0
 32
0.0
 14
0.0
 24
0.0
 34
0.0
 15
0.0
 25
0.0
 35
0.0
146
0.0
 13
0.0
 23
0.0
 33
0.0
 16
1.0
 26
0.0
 36
0.0
 17
0.0
 27
1.0
 37
0.0
 76
     0
330
3B
  0
LAYOUT
  5
3A
102
{ACAD_XDICTIONARY
360
912
102
}
102
{ACAD_REACTORS
330
2F
102
}
330
2F
100
AcDbPlotSettings
  1

  2
Microsoft Office Document Image Writer
  4

  6

 40
0.0
 41
0.0
 42
0.0
 43
0.0
 44
0.0
 45
0.0
 46
0.0
 47
0.0
 48
0.0
 49
0.0
140
0.0
141
0.0
142
1.0
143
1.0
 70
  1712
 72
     0
 73
     0
 74
     0
  7

 75
     0
147
1.0
148
0.0
149
0.0
100
AcDbLayout
  1
Model
 70
     1
 71
     0
 10
0.0
 20
0.0
 11
12.0
 21
9.0
 12
0.0
 22
0.0
 32
0.0
 14
0.0
 24
0.0
 34
0.0
 15
0.0
 25
0.0
 35
0.0
146
0.0
 13
0.0
 23
0.0
 33
0.0
 16
1.0
 26
0.0
 36
0.0
 17
0.0
 27
1.0
 37
0.0
 76
     0
330
37
331
28
  0
MATERIAL
  5
12
102
{ACAD_XDICTIONARY
360
658
102
}
102
{ACAD_REACTORS
330
10
102
}
330
10
100
AcDbMaterial
  1
ByBlock
  0
MATERIAL
  5
11
102
{ACAD_XDICTIONARY
360
656
102
}
102
{ACAD_REACTORS
330
10
102
}
330
10
100
AcDbMaterial
  1
ByLayer
  0
MATERIAL
  5
13
102
{ACAD_XDICTIONARY
360
65A
102
}
102
{ACAD_REACTORS
330
10
102
}
330
10
100
AcDbMaterial
  1
Global
  0
MLINESTYLE
  5
2D
102
{ACAD_REACTORS
330
2C
102
}
330
2C
100
AcDbMlineStyle
  2
STANDARD
 70
     0
  3

 62
   256
 51
90.0
 52
90.0
 71
     2
 49
0.5
 62
   256
  6
BYLAYER
 49
-0.5
 62
   256
  6
BYLAYER
  0
ACDBPLACEHOLDER
  5
F
102
{ACAD_REACTORS
330
E
102
}
330
E
  0
TABLESTYLE
  5
32
102
{ACAD_XDICTIONARY
360
90E
102
}
102
{ACAD_REACTORS
330
31
102
}
330
31
100
AcDbTableStyle
  3
Standard
 70
     0
 71
     0
 40
1.5
 41
1.5
280
     0
281
     0
  7
Standard
140
4.5
170
     2
 62
     0
 63
     7
283
     0
274
    -2
284
     1
 64
     0
275
    -2
285
     1
 65
     0
276
    -2
286
     1
 66
     0
277
    -2
287
     1
 67
     0
278
    -2
288
     1
 68
     0
279
    -2
289
     1
 69
     0
  7
Standard
140
6.0
170
     5
 62
     0
 63
     7
283
     0
274
    -2
284
     1
 64
     0
275
    -2
285
     1
 65
     0
276
    -2
286
     1
 66
     0
277
    -2
287
     1
 67
     0
278
    -2
288
     1
 68
     0
279
    -2
289
     1
 69
     0
  7
Standard
140
4.5
170
     5
 62
     0
 63
     7
283
     0
274
    -2
284
     1
 64
     0
275
    -2
285
     1
 65
     0
276
    -2
286
     1
 66
     0
277
    -2
287
     1
 67
     0
278
    -2
288
     1
 68
     0
279
    -2
289
     1
 69
     0
  0
VISUALSTYLE
  5
1A
102
{ACAD_REACTORS
330
14
102
}
330
14
100
AcDbVisualStyle
  2
2dWireframe
 70
     4
 71
     0
 72
     2
 73
     0
 90
        0
 40
-0.6
 41
-30.0
 62
     5
 63
     7
 74
     1
 91
        4
 64
     7
 65
   257
 75
     1
175
     1
 42
1.0
 92
        0
 66
   257
 43
1.0
 76
     1
 77
     6
 78
     2
 67
     7
 79
     5
170
     0
171
     0
290
     0
174
     0
 93
        1
 44
0.0
173
     0
291
     0
 45
0.0
1001
ACAD
1000
AcDbSavedByObjectVersion
1070
     0
1000
AcDbSavedByObjectVersion
1070
     0
  0
VISUALSTYLE
  5
1C
102
{ACAD_REACTORS
330
14
102
}
330
14
100
AcDbVisualStyle
  2
3D Hidden
 70
     6
 71
     1
 72
     2
 73
     2
 90
        0
 40
-0.6
 41
-30.0
 62
     5
 63
     7
 74
     2
 91
        2
 64
     7
 65
   257
 75
     2
175
     1
 42
40.0
 92
        0
 66
   257
 43
1.0
 76
     1
 77
     6
 78
     2
 67
     7
 79
     3
170
     0
171
     0
290
     0
174
     0
 93
        1
 44
0.0
173
     0
291
     0
 45
0.0
1001
ACAD
1000
AcDbSavedByObjectVersion
1070
     0
1000
AcDbSavedByObjectVersion
1070
     0
  0
VISUALSTYLE
  5
1B
102
{ACAD_REACTORS
330
14
102
}
330
14
100
AcDbVisualStyle
  2
3dWireframe
 70
     5
 71
     0
 72
     2
 73
     0
 90
        0
 40
-0.6
 41
-30.0
 62
     5
 63
     7
 74
     1
 91
        4
 64
     7
 65
   257
 75
     1
175
     1
 42
1.0
 92
        0
 66
   257
 43
1.0
 76
     1
 77
     6
 78
     2
 67
     7
 79
     5
170
     0
171
     0
290
     0
174
     0
 93
        1
 44
0.0
173
     0
291
     0
 45
0.0
1001
ACAD
1000
AcDbSavedByObjectVersion
1070
     0
1000
AcDbSavedByObjectVersion
1070
     0
  0
VISUALSTYLE
  5
19
102
{ACAD_REACTORS
330
14
102
}
330
14
100
AcDbVisualStyle
  2
Basic
 70
     7
 71
     1
 72
     0
 73
     1
 90
        0
 40
-0.6
 41
-30.0
 62
     5
 63
     7
 74
     0
 91
        4
 64
     7
 65
   257
 75
     1
175
     1
 42
1.0
 92
        8
 66
     7
 43
1.0
 76
     1
 77
     6
 78
     2
 67
     7
 79
     5
170
     0
171
     0
290
     0
174
     0
 93
        1
 44
0.0
173
     0
291
     1
 45
0.0
1001
ACAD
1000
AcDbSavedByObjectVersion
1070
     0
1000
AcDbSavedByObjectVersion
1070
     0
  0
VISUALSTYLE
  5
20
102
{ACAD_REACTORS
330
14
102
}
330
14
100
AcDbVisualStyle
  2
Brighten
 70
    12
 71
     2
 72
     2
 73
     0
 90
        0
 40
-0.6
 41
-30.0
 62
     5
 63
     7
 74
     1
 91
        4
 64
     7
 65
   257
 75
     1
175
     1
 42
1.0
 92
        8
 66
     7
 43
1.0
 76
     1
 77
     6
 78
     2
 67
     7
 79
     5
170
     0
171
     0
290
     0
174
     0
 93
        1
 44
50.0
173
     0
291
     1
 45
0.0
1001
ACAD
1000
AcDbSavedByObjectVersion
1070
     0
1000
AcDbSavedByObjectVersion
1070
     0
  0
VISUALSTYLE
  5
24
102
{ACAD_REACTORS
330
14
102
}
330
14
100
AcDbVisualStyle
  2
ColorChange
 70
    16
 71
     2
 72
     2
 73
     3
 90
        0
 40
-0.6
 41
-30.0
 62
     5
 63
     8
 74
     1
 91
        4
 64
     7
 65
   257
 75
     1
175
     1
 42
1.0
 92
        8
 66
     8
 43
1.0
 76
     1
 77
     6
 78
     2
 67
     7
 79
     5
170
     0
171
     0
290
     0
174
     0
 93
        1
 44
0.0
173
     0
291
     1
 45
0.0
1001
ACAD
1000
AcDbSavedByObjectVersion
1070
     0
1000
AcDbSavedByObjectVersion
1070
     0
  0
VISUALSTYLE
  5
1D
102
{ACAD_REACTORS
330
14
102
}
330
14
100
AcDbVisualStyle
  2
Conceptual
 70
     9
 71
     3
 72
     2
 73
     0
 90
        0
 40
-0.6
 41
-30.0
 62
     5
 63
     7
 74
     2
 91
        2
 64
     7
 65
   257
 75
     1
175
     1
 42
40.0
 92
        8
 66
     7
 43
1.0
 76
     1
 77
     6
 78
     2
 67
     7
 79
     3
170
     0
171
     0
290
     0
174
     0
 93
        1
 44
0.0
173
     0
291
     0
 45
0.0
1001
ACAD
1000
AcDbSavedByObjectVersion
1070
     0
1000
AcDbSavedByObjectVersion
1070
     0
  0
VISUALSTYLE
  5
1F
102
{ACAD_REACTORS
330
14
102
}
330
14
100
AcDbVisualStyle
  2
Dim
 70
    11
 71
     2
 72
     2
 73
     0
 90
        0
 40
-0.6
 41
-30.0
 62
     5
 63
     7
 74
     1
 91
        4
 64
     7
 65
   257
 75
     1
175
     1
 42
1.0
 92
        8
 66
     7
 43
1.0
 76
     1
 77
     6
 78
     2
 67
     7
 79
     5
170
     0
171
     0
290
     0
174
     0
 93
        1
 44
-50.0
173
     0
291
     1
 45
0.0
1001
ACAD
1000
AcDbSavedByObjectVersion
1070
     0
1000
AcDbSavedByObjectVersion
1070
     0
  0
VISUALSTYLE
  5
23
102
{ACAD_REACTORS
330
14
102
}
330
14
100
AcDbVisualStyle
  2
Facepattern
 70
    15
 71
     2
 72
     2
 73
     0
 90
        0
 40
-0.6
 41
-30.0
 62
     5
 63
     7
 74
     1
 91
        4
 64
     7
 65
   257
 75
     1
175
     1
 42
1.0
 92
        8
 66
     7
 43
1.0
 76
     1
 77
     6
 78
     2
 67
     7
 79
     5
170
     0
171
     0
290
     0
174
     0
 93
        1
 44
0.0
173
     0
291
     1
 45
0.0
1001
ACAD
1000
AcDbSavedByObjectVersion
1070
     0
1000
AcDbSavedByObjectVersion
1070
     0
  0
VISUALSTYLE
  5
15
102
{ACAD_REACTORS
330
14
102
}
330
14
100
AcDbVisualStyle
  2
Flat
 70
     0
 71
     2
 72
     1
 73
     1
 90
        2
 40
-0.6
 41
30.0
 62
     5
 63
     7
 74
     0
 91
        4
 64
     7
 65
   257
 75
     1
175
     1
 42
1.0
 92
        8
 66
     7
 43
1.0
 76
     1
 77
     6
 78
     2
 67
     7
 79
     5
170
     0
171
     0
290
     0
174
     0
 93
       13
 44
0.0
173
     0
291
     1
 45
0.0
1001
ACAD
1000
AcDbSavedByObjectVersion
1070
     0
1000
AcDbSavedByObjectVersion
1070
     0
  0
VISUALSTYLE
  5
16
102
{ACAD_REACTORS
330
14
102
}
330
14
100
AcDbVisualStyle
  2
FlatWithEdges
 70
     1
 71
     2
 72
     1
 73
     1
 90
        2
 40
-0.6
 41
30.0
 62
     5
 63
     7
 74
     1
 91
        4
 64
     7
 65
   257
 75
     1
175
     1
 42
1.0
 92
        0
 66
   257
 43
1.0
 76
     1
 77
     6
 78
     2
 67
     7
 79
     5
170
     0
171
     0
290
     0
174
     0
 93
       13
 44
0.0
173
     0
291
     1
 45
0.0
1001
ACAD
1000
AcDbSavedByObjectVersion
1070
     0
1000
AcDbSavedByObjectVersion
1070
     0
  0
VISUALSTYLE
  5
17
102
{ACAD_REACTORS
330
14
102
}
330
14
100
AcDbVisualStyle
  2
Gouraud
 70
     2
 71
     2
 72
     2
 73
     1
 90
        2
 40
-0.6
 41
30.0
 62
     5
 63
     7
 74
     0
 91
        4
 64
     7
 65
   257
 75
     1
175
     1
 42
1.0
 92
        0
 66
     7
 43
1.0
 76
     1
 77
     6
 78
     2
 67
     7
 79
     5
170
     0
171
     0
290
     0
174
     0
 93
       13
 44
0.0
173
     0
291
     1
 45
0.0
1001
ACAD
1000
AcDbSavedByObjectVersion
1070
     0
1000
AcDbSavedByObjectVersion
1070
     0
  0
VISUALSTYLE
  5
18
102
{ACAD_REACTORS
330
14
102
}
330
14
100
AcDbVisualStyle
  2
GouraudWithEdges
 70
     3
 71
     2
 72
     2
 73
     1
 90
        2
 40
-0.6
 41
30.0
 62
     5
 63
     7
 74
     1
 91
        4
 64
     7
 65
   257
 75
     1
175
     1
 42
1.0
 92
        0
 66
   257
 43
1.0
 76
     1
 77
     6
 78
     2
 67
     7
 79
     5
170
     0
171
     0
290
     0
174
     0
 93
       13
 44
0.0
173
     0
291
     1
 45
0.0
1001
ACAD
1000
AcDbSavedByObjectVersion
1070
     0
1000
AcDbSavedByObjectVersion
1070
     0
  0
VISUALSTYLE
  5
22
102
{ACAD_REACTORS
330
14
102
}
330
14
100
AcDbVisualStyle
  2
Linepattern
 70
    14
 71
     2
 72
     2
 73
     0
 90
        0
 40
-0.6
 41
-30.0
 62
     5
 63
     7
 74
     1
 91
        4
 64
     7
 65
   257
 75
     7
175
     7
 42
1.0
 92
        8
 66
     7
 43
1.0
 76
     1
 77
     6
 78
     2
 67
     7
 79
     5
170
     0
171
     0
290
     0
174
     0
 93
        1
 44
0.0
173
     0
291
     1
 45
0.0
1001
ACAD
1000
AcDbSavedByObjectVersion
1070
     0
1000
AcDbSavedByObjectVersion
1070
     0
  0
VISUALSTYLE
  5
1E
102
{ACAD_REACTORS
330
14
102
}
330
14
100
AcDbVisualStyle
  2
Realistic
 70
     8
 71
     2
 72
     2
 73
     0
 90
        0
 40
-0.6
 41
-30.0
 62
     5
 63
     7
 74
     1
 91
        0
 64
     7
 65
   257
 75
     1
175
     1
 42
1.0
 92
        8
 66
     8
 43
1.0
 76
     1
 77
     6
 78
     2
 67
     7
 79
     5
170
     0
171
     0
290
     0
174
     0
 93
       13
 44
0.0
173
     0
291
     0
 45
0.0
1001
ACAD
1000
AcDbSavedByObjectVersion
1070
     0
1000
AcDbSavedByObjectVersion
1070
     0
  0
VISUALSTYLE
  5
21
102
{ACAD_REACTORS
330
14
102
}
330
14
100
AcDbVisualStyle
  2
Thicken
 70
    13
 71
     2
 72
     2
 73
     0
 90
        0
 40
-0.6
 41
-30.0
 62
     5
 63
     7
 74
     1
 91
        4
 64
     7
 65
   257
 75
     1
175
     1
 42
1.0
 92
       12
 66
     7
 43
1.0
 76
     1
 77
     6
 78
     2
 67
     7
 79
     5
170
     0
171
     0
290
     0
174
     0
 93
        1
 44
0.0
173
     0
291
     1
 45
0.0
1001
ACAD
1000
AcDbSavedByObjectVersion
1070
     0
1000
AcDbSavedByObjectVersion
1070
     0
  0
DICTIONARYVAR
  5
57B
102
{ACAD_REACTORS
330
57A
102
}
330
57A
100
DictionaryVariables
280
     0
  1
STANDARD
  0
DICTIONARYVAR
  5
640
102
{ACAD_REACTORS
330
57A
102
}
330
57A
100
DictionaryVariables
280
     0
  1
2
  0
DICTIONARYVAR
  5
63F
102
{ACAD_REACTORS
330
57A
102
}
330
57A
100
DictionaryVariables
280
     0
  1
1
  0
DICTIONARYVAR
  5
63E
102
{ACAD_REACTORS
330
57A
102
}
330
57A
100
DictionaryVariables
280
     0
  1
0
  0
DICTIONARYVAR
  5
63D
102
{ACAD_REACTORS
330
57A
102
}
330
57A
100
DictionaryVariables
280
     0
  1
127
  0
XRECORD
  5
579
102
{ACAD_REACTORS
330
578
102
}
330
578
100
AcDbXrecord
280
     1
330
35F
  0
DICTIONARY
  5
910
330
36
100
AcDbDictionary
280
     1
281
     1
  3
ACAD_XREC_ROUNDTRIP
360
911
  0
DICTIONARY
  5
914
330
3E
100
AcDbDictionary
280
     1
281
     1
  3
ACAD_XREC_ROUNDTRIP
360
915
  0
DICTIONARY
  5
912
330
3A
100
AcDbDictionary
280
     1
281
     1
  3
ACAD_XREC_ROUNDTRIP
360
913
  0
DICTIONARY
  5
658
330
12
100
AcDbDictionary
280
     1
281
     1
  3
ACAD_XREC_ROUNDTRIP
360
659
  0
DICTIONARY
  5
656
330
11
100
AcDbDictionary
280
     1
281
     1
  3
ACAD_XREC_ROUNDTRIP
360
657
  0
DICTIONARY
  5
65A
330
13
100
AcDbDictionary
280
     1
281
     1
  3
ACAD_XREC_ROUNDTRIP
360
65B
  0
DICTIONARY
  5
90E
330
32
100
AcDbDictionary
280
     1
281
     1
  3
ACAD_XREC_ROUNDTRIP
360
90F
  0
XRECORD
  5
911
102
{ACAD_REACTORS
330
910
102
}
330
910
100
AcDbXrecord
280
     1
102
SHADEPLOT
 70
     0
102
SHADEPLOTRESLEVEL
 70
     2
102
SHADEPLOTCUSTOMDPI
 70
   300
  0
XRECORD
  5
915
102
{ACAD_REACTORS
330
914
102
}
330
914
100
AcDbXrecord
280
     1
102
SHADEPLOT
 70
     0
102
SHADEPLOTRESLEVEL
 70
     2
102
SHADEPLOTCUSTOMDPI
 70
   300
  0
XRECORD
  5
913
102
{ACAD_REACTORS
330
912
102
}
330
912
100
AcDbXrecord
280
     1
102
SHADEPLOT
 70
     0
102
SHADEPLOTRESLEVEL
 70
     2
102
SHADEPLOTCUSTOMDPI
 70
   300
  0
XRECORD
  5
659
102
{ACAD_REACTORS
330
658
102
}
330
658
100
AcDbXrecord
280
     1
102
MATERIAL
148
0.0
149
0.0
149
0.0
 93
        0
 94
       63
282
     0
 72
     1
 77
     1
171
     1
175
     1
179
     1
273
     0
  0
XRECORD
  5
657
102
{ACAD_REACTORS
330
656
102
}
330
656
100
AcDbXrecord
280
     1
102
MATERIAL
148
0.0
149
0.0
149
0.0
 93
        0
 94
       63
282
     0
 72
     1
 77
     1
171
     1
175
     1
179
     1
273
     0
  0
XRECORD
  5
65B
102
{ACAD_REACTORS
330
65A
102
}
330
65A
100
AcDbXrecord
280
     1
102
MATERIAL
148
0.0
149
0.0
149
0.0
 93
        0
 94
       63
282
     0
 72
     1
 77
     1
171
     1
175
     1
179
     1
273
     0
  0
XRECORD
  5
90F
102
{ACAD_REACTORS
330
90E
102
}
330
90E
100
AcDbXrecord
280
     1
102
ACAD_ROUNDTRIP_PRE2007_TABLESTYLE
 90
      512
 91
        0
  1

 92
      512
 93
        0
  2

 94
      512
 95
        0
  3

  0
ENDSEC
  0
EOF
