  0
SECTION
  2
HEADER
  9
$ACADVER
  1
AC1015
  9
$ACADMAINTVER
 70
    20
  9
$DWGCODEPAGE
  3
ANSI_1252
  9
$INSBASE
 10
0.0
 20
0.0
 30
0.0
  9
$EXTMIN
 10
-20.0
 20
-21.5
 30
0.0
  9
$EXTMAX
 10
220.0
 20
308.5000000000001
 30
0.0
  9
$LIMMIN
 10
0.0
 20
0.0
  9
$LIMMAX
 10
420.0
 20
297.0
  9
$ORTHOMODE
 70
     1
  9
$REGENMODE
 70
     1
  9
$FILLMODE
 70
     1
  9
$QTEXTMODE
 70
     0
  9
$MIRRTEXT
 70
     0
  9
$LTSCALE
 40
1.0
  9
$ATTMODE
 70
     1
  9
$TEXTSIZE
 40
2.5
  9
$TRACEWID
 40
1.0
  9
$TEXTSTYLE
  7
Standard
  9
$CLAYER
  8
0
  9
$CELTYPE
  6
ByLayer
  9
$CECOLOR
 62
   256
  9
$CELTSCALE
 40
1.0
  9
$DISPSILH
 70
     0
  9
$DIMSCALE
 40
1.0
  9
$DIMASZ
 40
2.5
  9
$DIMEXO
 40
0.625
  9
$DIMDLI
 40
3.75
  9
$DIMRND
 40
0.0
  9
$DIMDLE
 40
0.0
  9
$DIMEXE
 40
1.25
  9
$DIMTP
 40
0.0
  9
$DIMTM
 40
0.0
  9
$DIMTXT
 40
2.5
  9
$DIMCEN
 40
2.5
  9
$DIMTSZ
 40
0.0
  9
$DIMTOL
 70
     0
  9
$DIMLIM
 70
     0
  9
$DIMTIH
 70
     0
  9
$DIMTOH
 70
     0
  9
$DIMSE1
 70
     0
  9
$DIMSE2
 70
     0
  9
$DIMTAD
 70
     1
  9
$DIMZIN
 70
     8
  9
$DIMBLK
  1

  9
$DIMASO
 70
     1
  9
$DIMSHO
 70
     1
  9
$DIMPOST
  1

  9
$DIMAPOST
  1

  9
$DIMALT
 70
     0
  9
$DIMALTD
 70
     3
  9
$DIMALTF
 40
0.03937007874016
  9
$DIMLFAC
 40
1.0
  9
$DIMTOFL
 70
     1
  9
$DIMTVP
 40
0.0
  9
$DIMTIX
 70
     0
  9
$DIMSOXD
 70
     0
  9
$DIMSAH
 70
     0
  9
$DIMBLK1
  1

  9
$DIMBLK2
  1

  9
$DIMSTYLE
  2
ISO-25
  9
$DIMCLRD
 70
     0
  9
$DIMCLRE
 70
     0
  9
$DIMCLRT
 70
     0
  9
$DIMTFAC
 40
1.0
  9
$DIMGAP
 40
0.625
  9
$DIMJUST
 70
     0
  9
$DIMSD1
 70
     0
  9
$DIMSD2
 70
     0
  9
$DIMTOLJ
 70
     0
  9
$DIMTZIN
 70
     8
  9
$DIMALTZ
 70
     0
  9
$DIMALTTZ
 70
     0
  9
$DIMUPT
 70
     0
  9
$DIMDEC
 70
     2
  9
$DIMTDEC
 70
     2
  9
$DIMALTU
 70
     2
  9
$DIMALTTD
 70
     3
  9
$DIMTXSTY
  7
Standard
  9
$DIMAUNIT
 70
     0
  9
$DIMADEC
 70
     0
  9
$DIMALTRND
 40
0.0
  9
$DIMAZIN
 70
     0
  9
$DIMDSEP
 70
    44
  9
$DIMATFIT
 70
     3
  9
$DIMFRAC
 70
     0
  9
$DIMLDRBLK
  1

  9
$DIMLUNIT
 70
     2
  9
$DIMLWD
 70
    -2
  9
$DIMLWE
 70
    -2
  9
$DIMTMOVE
 70
     0
  9
$LUNITS
 70
     2
  9
$LUPREC
 70
     4
  9
$SKETCHINC
 40
1.0
  9
$FILLETRAD
 40
0.0
  9
$AUNITS
 70
     0
  9
$AUPREC
 70
     0
  9
$MENU
  1
.
  9
$ELEVATION
 40
0.0
  9
$PELEVATION
 40
0.0
  9
$THICKNESS
 40
0.0
  9
$LIMCHECK
 70
     0
  9
$CHAMFERA
 40
0.0
  9
$CHAMFERB
 40
0.0
  9
$CHAMFERC
 40
0.0
  9
$CHAMFERD
 40
0.0
  9
$SKPOLY
 70
     0
  9
$TDCREATE
 40
2454295.653872604
  9
$TDUCREATE
 40
2454295.570539271
  9
$TDUPDATE
 40
2454320.689417489
  9
$TDUUPDATE
 40
2454320.606084155
  9
$TDINDWG
 40
0.1433180440
  9
$TDUSRTIMER
 40
0.1433160532
  9
$USRTIMER
 70
     1
  9
$ANGBASE
 50
0.0
  9
$ANGDIR
 70
     0
  9
$PDMODE
 70
     0
  9
$PDSIZE
 40
0.0
  9
$PLINEWID
 40
0.0
  9
$SPLFRAME
 70
     0
  9
$SPLINETYPE
 70
     6
  9
$SPLINESEGS
 70
     8
  9
$HANDSEED
  5
8DC6
  9
$SURFTAB1
 70
     6
  9
$SURFTAB2
 70
     6
  9
$SURFTYPE
 70
     6
  9
$SURFU
 70
     6
  9
$SURFV
 70
     6
  9
$UCSBASE
  2

  9
$UCSNAME
  2

  9
$UCSORG
 10
0.0
 20
0.0
 30
0.0
  9
$UCSXDIR
 10
1.0
 20
0.0
 30
0.0
  9
$UCSYDIR
 10
0.0
 20
1.0
 30
0.0
  9
$UCSORTHOREF
  2

  9
$UCSORTHOVIEW
 70
     0
  9
$UCSORGTOP
 10
0.0
 20
0.0
 30
0.0
  9
$UCSORGBOTTOM
 10
0.0
 20
0.0
 30
0.0
  9
$UCSORGLEFT
 10
0.0
 20
0.0
 30
0.0
  9
$UCSORGRIGHT
 10
0.0
 20
0.0
 30
0.0
  9
$UCSORGFRONT
 10
0.0
 20
0.0
 30
0.0
  9
$UCSORGBACK
 10
0.0
 20
0.0
 30
0.0
  9
$PUCSBASE
  2

  9
$PUCSNAME
  2

  9
$PUCSORG
 10
0.0
 20
0.0
 30
0.0
  9
$PUCSXDIR
 10
1.0
 20
0.0
 30
0.0
  9
$PUCSYDIR
 10
0.0
 20
1.0
 30
0.0
  9
$PUCSORTHOREF
  2

  9
$PUCSORTHOVIEW
 70
     0
  9
$PUCSORGTOP
 10
0.0
 20
0.0
 30
0.0
  9
$PUCSORGBOTTOM
 10
0.0
 20
0.0
 30
0.0
  9
$PUCSORGLEFT
 10
0.0
 20
0.0
 30
0.0
  9
$PUCSORGRIGHT
 10
0.0
 20
0.0
 30
0.0
  9
$PUCSORGFRONT
 10
0.0
 20
0.0
 30
0.0
  9
$PUCSORGBACK
 10
0.0
 20
0.0
 30
0.0
  9
$USERI1
 70
     0
  9
$USERI2
 70
     0
  9
$USERI3
 70
     0
  9
$USERI4
 70
     0
  9
$USERI5
 70
     0
  9
$USERR1
 40
0.0
  9
$USERR2
 40
0.0
  9
$USERR3
 40
0.0
  9
$USERR4
 40
0.0
  9
$USERR5
 40
0.0
  9
$WORLDVIEW
 70
     1
  9
$SHADEDGE
 70
     3
  9
$SHADEDIF
 70
    70
  9
$TILEMODE
 70
     1
  9
$MAXACTVP
 70
    64
  9
$PINSBASE
 10
0.0
 20
0.0
 30
0.0
  9
$PLIMCHECK
 70
     0
  9
$PEXTMIN
 10
1.000000000000000E+20
 20
1.000000000000000E+20
 30
1.000000000000000E+20
  9
$PEXTMAX
 10
-1.000000000000000E+20
 20
-1.000000000000000E+20
 30
-1.000000000000000E+20
  9
$PLIMMIN
 10
0.0
 20
0.0
  9
$PLIMMAX
 10
420.0
 20
297.0
  9
$UNITMODE
 70
     0
  9
$VISRETAIN
 70
     1
  9
$PLINEGEN
 70
     0
  9
$PSLTSCALE
 70
     1
  9
$TREEDEPTH
 70
  3020
  9
$CMLSTYLE
  2
Standard
  9
$CMLJUST
 70
     0
  9
$CMLSCALE
 40
20.0
  9
$PROXYGRAPHICS
 70
     1
  9
$MEASUREMENT
 70
     1
  9
$CELWEIGHT
370
    -1
  9
$ENDCAPS
280
     0
  9
$JOINSTYLE
280
     0
  9
$LWDISPLAY
290
     1
  9
$INSUNITS
 70
     4
  9
$HYPERLINKBASE
  1

  9
$STYLESHEET
  1

  9
$XEDIT
290
     1
  9
$CEPSNTYPE
380
     0
  9
$PSTYLEMODE
290
     1
  9
$FINGERPRINTGUID
  2
{37DD5FD8-D439-40C7-AB83-504ADEB29FA2}
  9
$VERSIONGUID
  2
{F6DC2504-283D-4D56-A369-F43CD4B9B2D1}
  9
$EXTNAMES
290
     1
  9
$PSVPSCALE
 40
0.0
  9
$OLESTARTUP
290
     0
  0
ENDSEC
  0
SECTION
  2
CLASSES
  0
CLASS
  1
ACDBDICTIONARYWDFLT
  2
AcDbDictionaryWithDefault
  3
ObjectDBX Classes
 90
        0
280
     0
281
     0
  0
CLASS
  1
MATERIAL
  2
AcDbMaterial
  3
ObjectDBX Classes
 90
     1153
280
     0
281
     0
  0
CLASS
  1
VISUALSTYLE
  2
AcDbVisualStyle
  3
ObjectDBX Classes
 90
     4095
280
     0
281
     0
  0
CLASS
  1
TABLESTYLE
  2
AcDbTableStyle
  3
ObjectDBX Classes
 90
     4095
280
     0
281
     0
  0
CLASS
  1
SORTENTSTABLE
  2
AcDbSortentsTable
  3
ObjectDBX Classes
 90
        0
280
     0
281
     0
  0
CLASS
  1
DICTIONARYVAR
  2
AcDbDictionaryVar
  3
ObjectDBX Classes
 90
        0
280
     0
281
     0
  0
CLASS
  1
ACDBPLACEHOLDER
  2
AcDbPlaceHolder
  3
ObjectDBX Classes
 90
        0
280
     0
281
     0
  0
CLASS
  1
LAYOUT
  2
AcDbLayout
  3
ObjectDBX Classes
 90
        0
280
     0
281
     0
  0
CLASS
  1
DIMASSOC
  2
AcDbDimAssoc
  3
"AcDbDimAssoc|Product Desc:     AcDim ARX App For Dimension|Company:          Autodesk, Inc.|WEB Address:      www.autodesk.com"
 90
    32768
280
     0
281
     0
  0
ENDSEC
  0
SECTION
  2
TABLES
  0
TABLE
  2
VPORT
  5
8
330
0
100
AcDbSymbolTable
 70
     1
  0
VPORT
  5
28
330
8
100
AcDbSymbolTableRecord
100
AcDbViewportTableRecord
  2
*Active
 70
     0
 10
0.0
 20
0.0
 11
1.0
 21
1.0
 12
111.9669328039806
 22
143.635507190128
 13
0.0
 23
0.0
 14
10.0
 24
10.0
 15
10.0
 25
10.0
 16
0.0
 26
0.0
 36
1.0
 17
0.0
 27
0.0
 37
0.0
 40
332.3563218776122
 41
1.67461430575035
 42
50.0
 43
0.0
 44
0.0
 50
0.0
 51
0.0
 71
     0
 72
  1000
 73
     1
 74
     3
 75
     0
 76
     0
 77
     0
 78
     0
281
     0
 65
     1
110
0.0
120
0.0
130
0.0
111
1.0
121
0.0
131
0.0
112
0.0
122
1.0
132
0.0
 79
     0
146
0.0
  0
ENDTAB
  0
TABLE
  2
LTYPE
  5
5
330
0
100
AcDbSymbolTable
 70
     5
  0
LTYPE
  5
29
330
5
100
AcDbSymbolTableRecord
100
AcDbLinetypeTableRecord
  2
ByBlock
 70
     0
  3

 72
    65
 73
     0
 40
0.0
  0
LTYPE
  5
2A
330
5
100
AcDbSymbolTableRecord
100
AcDbLinetypeTableRecord
  2
ByLayer
 70
     0
  3

 72
    65
 73
     0
 40
0.0
  0
LTYPE
  5
2B
330
5
100
AcDbSymbolTableRecord
100
AcDbLinetypeTableRecord
  2
Continuous
 70
     0
  3
Solid line
 72
    65
 73
     0
 40
0.0
  0
LTYPE
  5
FD
330
5
100
AcDbSymbolTableRecord
100
AcDbLinetypeTableRecord
  2
CENTER
 70
     0
  3
Mitte ____ _ ____ _ ____ _ ____ _ ____ _ ____
 72
    65
 73
     4
 40
50.8
 49
31.75
 74
     0
 49
-6.349999999999997
 74
     0
 49
6.349999999999997
 74
     0
 49
-6.349999999999997
 74
     0
  0
LTYPE
  5
101
330
5
100
AcDbSymbolTableRecord
100
AcDbLinetypeTableRecord
  2
AM_DIN_G_W050
 70
     0
  3
____ . ____ . ____ . ____ . ____ . ____ . ____
 72
    65
 73
     4
 40
13.75
 49
9.75
 74
     0
 49
-1.5
 74
     0
 49
1.0
 74
     0
 49
-1.5
 74
     0
  0
LTYPE
  5
102
330
5
100
AcDbSymbolTableRecord
100
AcDbLinetypeTableRecord
  2
AM_DIN_K_W050
 70
     0
  3
_____ . . _____ . . _____ . . ____ .. ____
 72
    65
 73
     6
 40
16.25
 49
9.75
 74
     0
 49
-1.5
 74
     0
 49
1.0
 74
     0
 49
-1.5
 74
     0
 49
1.0
 74
     0
 49
-1.5
 74
     0
  0
LTYPE
  5
108
330
5
100
AcDbSymbolTableRecord
100
AcDbLinetypeTableRecord
  2
ACAD_ISO10W100
 70
     0
  3
ISO Strichpunktlinie __ . __ . __ . __ . __ . _
 72
    65
 73
     4
 40
18.0
 49
12.0
 74
     0
 49
-3.0
 74
     0
 49
0.0
 74
     0
 49
-3.0
 74
     0
  0
ENDTAB
  0
TABLE
  2
LAYER
  5
2
330
0
100
AcDbSymbolTable
 70
    14
  0
LAYER
  5
25
330
2
100
AcDbSymbolTableRecord
100
AcDbLayerTableRecord
  2
0
 70
     0
 62
     7
  6
Continuous
370
    -3
390
F
  0
LAYER
  5
10B
330
2
100
AcDbSymbolTableRecord
100
AcDbLayerTableRecord
  2
90100_FRAME_THICK
 70
     0
 62
     7
  6
Continuous
370
    50
390
F
  0
LAYER
  5
10C
330
2
100
AcDbSymbolTableRecord
100
AcDbLayerTableRecord
  2
90000_FRAME_THIN
 70
     0
 62
     7
  6
Continuous
370
    13
390
F
  0
LAYER
  5
10D
330
2
100
AcDbSymbolTableRecord
100
AcDbLayerTableRecord
  2
90200_FRAME_SIZE
 70
     0
 62
     3
  6
AM_DIN_K_W050
370
    13
390
F
  0
LAYER
  5
10E
330
2
100
AcDbSymbolTableRecord
100
AcDbLayerTableRecord
  2
92000_TITLE
 70
     0
 62
     7
  6
Continuous
370
    13
390
F
  0
LAYER
  5
10F
330
2
100
AcDbSymbolTableRecord
100
AcDbLayerTableRecord
  2
91100_TIP_SYM
 70
     0
 62
     7
  6
AM_DIN_G_W050
370
    25
390
F
  0
LAYER
  5
110
330
2
100
AcDbSymbolTableRecord
100
AcDbLayerTableRecord
  2
Defpoints
 70
     0
 62
     7
  6
Continuous
290
     0
370
    -3
390
F
  0
LAYER
  5
111
330
2
100
AcDbSymbolTableRecord
100
AcDbLayerTableRecord
  2
91000_TIP
 70
     0
 62
     7
  6
Continuous
370
    13
390
F
  0
LAYER
  5
112
330
2
100
AcDbSymbolTableRecord
100
AcDbLayerTableRecord
  2
91200_TIP_SYMB
 70
     0
 62
     7
  6
Continuous
370
    -3
390
F
  0
LAYER
  5
113
330
2
100
AcDbSymbolTableRecord
100
AcDbLayerTableRecord
  2
10000_FRONT
 70
     0
 62
     7
  6
Continuous
370
    50
390
F
  0
LAYER
  5
114
330
2
100
AcDbSymbolTableRecord
100
AcDbLayerTableRecord
  2
11000_LEFT
 70
     0
 62
     7
  6
Continuous
370
    50
390
F
  0
LAYER
  5
11C
330
2
100
AcDbSymbolTableRecord
100
AcDbLayerTableRecord
  2
10100_FRONT_DIM
 70
     0
 62
     7
  6
Continuous
370
    13
390
F
  0
LAYER
  5
11D
330
2
100
AcDbSymbolTableRecord
100
AcDbLayerTableRecord
  2
11100_LEFT_DIM
 70
     0
 62
     7
  6
Continuous
370
    13
390
F
  0
LAYER
  5
123
330
2
100
AcDbSymbolTableRecord
100
AcDbLayerTableRecord
  2
10200_FRONT_SYM
 70
     0
 62
     7
  6
ACAD_ISO10W100
370
    13
390
F
  0
ENDTAB
  0
TABLE
  2
STYLE
  5
3
330
0
100
AcDbSymbolTable
 70
     1
  0
STYLE
  5
26
330
3
100
AcDbSymbolTableRecord
100
AcDbTextStyleTableRecord
  2
Standard
 70
     0
 40
0.0
 41
1.0
 50
0.0
 71
     0
 42
2.5
  3
txt
  4

  0
ENDTAB
  0
TABLE
  2
VIEW
  5
6
330
0
100
AcDbSymbolTable
 70
     0
  0
ENDTAB
  0
TABLE
  2
UCS
  5
7
330
0
100
AcDbSymbolTable
 70
     0
  0
ENDTAB
  0
TABLE
  2
APPID
  5
9
330
0
100
AcDbSymbolTable
 70
    21
  0
APPID
  5
27
330
9
100
AcDbSymbolTableRecord
100
AcDbRegAppTableRecord
  2
ACAD
 70
     0
  0
APPID
  5
14F
330
9
100
AcDbSymbolTableRecord
100
AcDbRegAppTableRecord
  2
MCAD_NO_VIS
 70
     0
  0
APPID
  5
150
330
9
100
AcDbSymbolTableRecord
100
AcDbRegAppTableRecord
  2
ACAD_TEMP_GRAPHIC
 70
     0
  0
APPID
  5
151
330
9
100
AcDbSymbolTableRecord
100
AcDbRegAppTableRecord
  2
AD_DRAW
 70
     0
  0
APPID
  5
152
330
9
100
AcDbSymbolTableRecord
100
AcDbRegAppTableRecord
  2
ACATTRIBSERVICES
 70
     0
  0
APPID
  5
153
330
9
100
AcDbSymbolTableRecord
100
AcDbRegAppTableRecord
  2
GENIUS_GENDIM_13
 70
     0
  0
APPID
  5
154
330
9
100
AcDbSymbolTableRecord
100
AcDbRegAppTableRecord
  2
GENIUS_GENDTOL_13
 70
     0
  0
APPID
  5
155
330
9
100
AcDbSymbolTableRecord
100
AcDbRegAppTableRecord
  2
GENIUS_GE3DTOL_13
 70
     0
  0
APPID
  5
156
330
9
100
AcDbSymbolTableRecord
100
AcDbRegAppTableRecord
  2
ASURF_PCURVE_APPNAME
 70
     0
  0
APPID
  5
157
330
9
100
AcDbSymbolTableRecord
100
AcDbRegAppTableRecord
  2
AMG_3D2D_5.0
 70
     0
  0
APPID
  5
158
330
9
100
AcDbSymbolTableRecord
100
AcDbRegAppTableRecord
  2
DESIGNERASSEMBLIES
 70
     0
  0
APPID
  5
159
330
9
100
AcDbSymbolTableRecord
100
AcDbRegAppTableRecord
  2
ACADM_DIM_EDIT
 70
     0
  0
APPID
  5
15A
330
9
100
AcDbSymbolTableRecord
100
AcDbRegAppTableRecord
  2
AMDT_DM_ADJ
 70
     0
  0
APPID
  5
15B
330
9
100
AcDbSymbolTableRecord
100
AcDbRegAppTableRecord
  2
GENIUS_GENREC_14
 70
     0
  0
APPID
  5
15C
330
9
100
AcDbSymbolTableRecord
100
AcDbRegAppTableRecord
  2
GENIUS_GENODEF_13
 70
     0
  0
APPID
  5
15D
330
9
100
AcDbSymbolTableRecord
100
AcDbRegAppTableRecord
  2
GENIUS_GENOBJ-N-REC_13
 70
     0
  0
APPID
  5
15E
330
9
100
AcDbSymbolTableRecord
100
AcDbRegAppTableRecord
  2
DCO15
 70
     0
  0
APPID
  5
3D4
330
9
100
AcDbSymbolTableRecord
100
AcDbRegAppTableRecord
  2
AUSTER_ANSICHT
 70
     0
  0
APPID
  5
3D5
330
9
100
AcDbSymbolTableRecord
100
AcDbRegAppTableRecord
  2
AUSTER_FOLIE
 70
     0
  0
APPID
  5
31B1
330
9
100
AcDbSymbolTableRecord
100
AcDbRegAppTableRecord
  2
ACAD_DSTYLE_DIMJOGGED_JOGANGLE_SYMBOL
 70
     0
  0
APPID
  5
8DA0
330
9
100
AcDbSymbolTableRecord
100
AcDbRegAppTableRecord
  2
ACAD_PSEXT
 70
     0
  0
ENDTAB
  0
TABLE
  2
DIMSTYLE
  5
A
330
0
100
AcDbSymbolTable
 70
     3
100
AcDbDimStyleTable
 71
     1
340
3F
  0
DIMSTYLE
105
3F
330
A
100
AcDbSymbolTableRecord
100
AcDbDimStyleTableRecord
  2
ISO-25
 70
     0
 41
2.5
 42
0.625
 43
3.75
 44
1.25
 73
     0
 74
     0
 77
     1
 78
     8
140
2.5
141
2.5
143
0.03937007874016
147
0.625
171
     3
172
     1
271
     2
272
     2
274
     3
278
    44
283
     0
284
     8
340
26
1001
ACAD_DSTYLE_DIMJOGGED_JOGANGLE_SYMBOL
1070
   384
1040
1.570796326794896
  0
DIMSTYLE
105
3D1
330
A
100
AcDbSymbolTableRecord
100
AcDbDimStyleTableRecord
  2
STANDARD
 70
     0
340
26
  0
DIMSTYLE
105
3D3
102
{ACAD_REACTORS
330
7F9E
330
7FA1
330
8552
102
}
330
A
100
AcDbSymbolTableRecord
100
AcDbDimStyleTableRecord
  2
H035
 70
     0
 40
0.0
 41
3.5
 42
0.0
 43
3.75
 44
2.0
 73
     0
 74
     0
 77
     1
 78
     8
140
3.5
141
2.5
143
0.039
147
0.5
171
     4
172
     1
176
   256
177
     7
178
     7
340
26
  0
ENDTAB
  0
TABLE
  2
BLOCK_RECORD
  5
1
330
0
100
AcDbSymbolTable
 70
     5
  0
BLOCK_RECORD
  5
37
102
{ACAD_XDICTIONARY
360
211
102
}
330
1
100
AcDbSymbolTableRecord
100
AcDbBlockTableRecord
  2
*Model_Space
340
3A
  0
BLOCK_RECORD
  5
33
330
1
100
AcDbSymbolTableRecord
100
AcDbBlockTableRecord
  2
*Paper_Space
340
36
  0
BLOCK_RECORD
  5
3B
330
1
100
AcDbSymbolTableRecord
100
AcDbBlockTableRecord
  2
*Paper_Space0
340
3E
  0
BLOCK_RECORD
  5
49
330
1
100
AcDbSymbolTableRecord
100
AcDbBlockTableRecord
  2
Title_A4P
340
0
310
2800000020000000200000000100080000000000000400000000000000000000000000000000000000000000000080000080000000808000800000008000800080800000C0C0C000C0DCC000F0CAA6000020400000206000002080000020A0000020C0000020E00000400000004020000040400000406000004080000040A0
310
000040C0000040E00000600000006020000060400000606000006080000060A0000060C0000060E00000800000008020000080400000806000008080000080A0000080C0000080E00000A0000000A0200000A0400000A0600000A0800000A0A00000A0C00000A0E00000C0000000C0200000C0400000C0600000C0800000C0
310
A00000C0C00000C0E00000E0000000E0200000E0400000E0600000E0800000E0A00000E0C00000E0E00040000000400020004000400040006000400080004000A0004000C0004000E00040200000402020004020400040206000402080004020A0004020C0004020E000404000004040200040404000404060004040800040
310
40A0004040C0004040E00040600000406020004060400040606000406080004060A0004060C0004060E00040800000408020004080400040806000408080004080A0004080C0004080E00040A0000040A0200040A0400040A0600040A0800040A0A00040A0C00040A0E00040C0000040C0200040C0400040C0600040C08000
310
40C0A00040C0C00040C0E00040E0000040E0200040E0400040E0600040E0800040E0A00040E0C00040E0E00080000000800020008000400080006000800080008000A0008000C0008000E00080200000802020008020400080206000802080008020A0008020C0008020E00080400000804020008040400080406000804080
310
008040A0008040C0008040E00080600000806020008060400080606000806080008060A0008060C0008060E00080800000808020008080400080806000808080008080A0008080C0008080E00080A0000080A0200080A0400080A0600080A0800080A0A00080A0C00080A0E00080C0000080C0200080C0400080C0600080C0
310
800080C0A00080C0C00080C0E00080E0000080E0200080E0400080E0600080E0800080E0A00080E0C00080E0E000C0000000C0002000C0004000C0006000C0008000C000A000C000C000C000E000C0200000C0202000C0204000C0206000C0208000C020A000C020C000C020E000C0400000C0402000C0404000C0406000C0
310
408000C040A000C040C000C040E000C0600000C0602000C0604000C0606000C0608000C060A000C060C000C060E000C0800000C0802000C0804000C0806000C0808000C080A000C080C000C080E000C0A00000C0A02000C0A04000C0A06000C0A08000C0A0A000C0A0C000C0A0E000C0C00000C0C02000C0C04000C0C06000
310
C0C08000C0C0A000F0FBFF00A4A0A000808080000000FF0000FF000000FFFF00FF000000FF00FF00FFFF0000FFFFFF0000000000000000000000000000000000000000000000000000000000000000000000000000000000000000000000000000000000000000000000000000000000000000000000000000000000000000
310
00000000000000000000000000000000000000000000000000000000000000000000000000000000000000000000000000000000000000000000000000000000000000000000000000000000000000000000000000000000000000000000000000000000000000000000000000000000000000000000000000000000000000
310
00000000000000000000000000000000000000000000000000000000000000000000000000000000000000000000000000000000000000000000000000000000000000000000000000000000000000000000000000000000000000000000000000000000000000000000000000000000000000000000000000000000000000
310
000000000000000000000000000000000000000000000000000000000000000000000000000000000000000000000000000000000000000000000000000000000000000000000000000000000000000000000000000000000000FFFFFFFFFFFFFFFFFFFFFFFFFFFFFFFFFFFFFFFFFFFFFFFF000000FFFFFFFFFFFFFFFFFFFF
310
FFFFFFFFFFFFFFFFFFFFFFFFFFFFFFFFFFFFFF0000FFFFFFFFFFFFFFFFFFFFFFFFFFFFFF00000000FFFFFFFFFFFFFF000000FF00000000FFFFFF00FFFFFFFFFFFFFFFFFFFFFFFFFFFFFFFFFFFFFFFFFFFFFFFF0000000000000000FFFFFFFFFFFFFFFFFFFFFFFFFFFFFFFF00000000000000000000000000000000FFFFFF00
310
0000FFFFFFFFFFFFFF00FF0000000000000000000000000000000000000000000000000000000000000000000000000000000000000000000000000000000000000000000000000000000000000000000000000000000000000000000000000000000000000000000000000000000000000000000000000000000000000000
310
00000000000000000000000000000000000000000000000000000000000000000000000000000000000000000000000000000000000000000000000000000000000000000000000000000000000000000000000000000000000000000000000000000000000000000000000000000000000000000000000000000000000000
310
00000000000000000000000000000000000000000000000000000000000000000000000000000000000000000000000000000000000000000000000000000000000000000000000000000000000000000000000000000000000000000000000000000000000000000000000000000000000000000000000000000000000000
310
0000000000000000000000000000000000000000000000000000000000000000000000000000000000000000000000000000000000000000
102
{BLKREFS
331
1EC
102
}
1001
ACAD
1000
DesignCenter Data
1002
{
1070
     1
1070
     4
1002
}
  0
BLOCK_RECORD
  5
7FB2
330
1
100
AcDbSymbolTableRecord
100
AcDbBlockTableRecord
  2
*D2
340
0
  0
BLOCK_RECORD
  5
7FBE
330
1
100
AcDbSymbolTableRecord
100
AcDbBlockTableRecord
  2
*D3
340
0
  0
BLOCK_RECORD
  5
8553
330
1
100
AcDbSymbolTableRecord
100
AcDbBlockTableRecord
  2
*D4
340
0
  0
ENDTAB
  0
ENDSEC
  0
SECTION
  2
BLOCKS
  0
BLOCK
  5
38
330
37
100
AcDbEntity
  8
0
100
AcDbBlockBegin
  2
*Model_Space
 70
     0
 10
0.0
 20
0.0
 30
0.0
  3
*Model_Space
  1

  0
ENDBLK
  5
39
330
37
100
AcDbEntity
  8
0
100
AcDbBlockEnd
  0
BLOCK
  5
34
330
33
100
AcDbEntity
 67
     1
  8
0
100
AcDbBlockBegin
  2
*Paper_Space
 70
     0
 10
0.0
 20
0.0
 30
0.0
  3
*Paper_Space
  1

  0
ENDBLK
  5
35
330
33
100
AcDbEntity
 67
     1
  8
0
100
AcDbBlockEnd
  0
BLOCK
  5
3C
330
3B
100
AcDbEntity
 67
     1
  8
0
100
AcDbBlockBegin
  2
*Paper_Space0
 70
     0
 10
0.0
 20
0.0
 30
0.0
  3
*Paper_Space0
  1

  0
ENDBLK
  5
3D
330
3B
100
AcDbEntity
 67
     1
  8
0
100
AcDbBlockEnd
  0
BLOCK
  5
4A
330
49
100
AcDbEntity
  8
0
100
AcDbBlockBegin
  2
Title_A4P
 70
     2
 10
0.0
 20
0.0
 30
0.0
  3
Title_A4P
  1

  4
Schriftfeld A4 hoch
  0
MTEXT
  5
4B
330
49
100
AcDbEntity
  8
92000_TITLE
100
AcDbMText
 10
-110.0
 20
12.0
 30
0.0
 40
3.5
 41
40.0
 71
     5
 72
     5
  1
{\fSiemens Logo|b0|i0|c0|p2;s}
 73
     1
 44
1.0
1001
ACAD
1000
MTEXTBEGIN
1070
    73
1070
     1
1070
    44
1040
1.0
1070
    74
1070
     0
1000
MTEXTEND
  0
LINE
  5
4C
330
49
100
AcDbEntity
  8
92000_TITLE
100
AcDbLine
 10
0.0
 20
6.0
 30
0.0
 11
-135.0
 21
6.0
 31
0.0
1001
GENIUS_GENREC_14
1002
{
1000
PYDIR
1011
-135.0
1021
18.0
1031
0.0
1002
}
1002
{
1000
PXDIR
1011
0.0
1021
0.0
1031
0.0
1002
}
1002
{
1000
PORI
1011
-135.0
1021
0.0
1031
0.0
1002
}
1002
{
1000
PINS
1011
-135.0
1021
0.0
1031
0.0
1002
}
1002
{
1000
HVAL
1000
18
1002
}
1002
{
1000
H
1070
     2
1002
}
1002
{
1000
WVAL
1000
135
1002
}
1002
{
1000
W
1070
     2
1002
}
1002
{
1000
C
1070
     1
1002
}
1001
GENIUS_GENOBJ-N-REC_13
1002
{
1000
OWNER
1000
GEN
1002
}
1001
GENIUS_GENODEF_13
1002
{
1000
HIER
1070
     0
1002
}
1002
{
1000
MANEDIT
1070
     0
1002
}
1002
{
1000
NOSEL
1070
     0
1002
}
1002
{
1000
BEHIND
1070
     0
1002
}
1002
{
1000
OTHER
1070
     0
1002
}
1002
{
1000
REACTOR
1002
}
  0
LINE
  5
4D
330
49
100
AcDbEntity
  8
92000_TITLE
100
AcDbLine
 10
0.0
 20
18.0
 30
0.0
 11
-135.0
 21
18.0
 31
0.0
1001
GENIUS_GENREC_14
1002
{
1000
PYDIR
1011
-135.0
1021
18.0
1031
0.0
1002
}
1002
{
1000
PXDIR
1011
0.0
1021
0.0
1031
0.0
1002
}
1002
{
1000
PORI
1011
-135.0
1021
0.0
1031
0.0
1002
}
1002
{
1000
PINS
1011
-135.0
1021
0.0
1031
0.0
1002
}
1002
{
1000
HVAL
1000
18
1002
}
1002
{
1000
H
1070
     2
1002
}
1002
{
1000
WVAL
1000
135
1002
}
1002
{
1000
W
1070
     2
1002
}
1002
{
1000
C
1070
     1
1002
}
1001
GENIUS_GENOBJ-N-REC_13
1002
{
1000
OWNER
1000
GEN
1002
}
1001
GENIUS_GENODEF_13
1002
{
1000
HIER
1070
     0
1002
}
1002
{
1000
MANEDIT
1070
     0
1002
}
1002
{
1000
NOSEL
1070
     0
1002
}
1002
{
1000
BEHIND
1070
     0
1002
}
1002
{
1000
OTHER
1070
     0
1002
}
1002
{
1000
REACTOR
1002
}
  0
LINE
  5
4E
330
49
100
AcDbEntity
  8
92000_TITLE
100
AcDbLine
 10
-135.0
 20
0.0
 30
0.0
 11
0.0
 21
0.0
 31
0.0
1001
GENIUS_GENREC_14
1002
{
1000
PYDIR
1011
-135.0
1021
18.0
1031
0.0
1002
}
1002
{
1000
PXDIR
1011
0.0
1021
0.0
1031
0.0
1002
}
1002
{
1000
PORI
1011
-135.0
1021
0.0
1031
0.0
1002
}
1002
{
1000
PINS
1011
-135.0
1021
0.0
1031
0.0
1002
}
1002
{
1000
HVAL
1000
18
1002
}
1002
{
1000
H
1070
     2
1002
}
1002
{
1000
WVAL
1000
135
1002
}
1002
{
1000
W
1070
     2
1002
}
1002
{
1000
C
1070
     1
1002
}
1001
GENIUS_GENOBJ-N-REC_13
1002
{
1000
OWNER
1000
GEN
1002
}
1001
GENIUS_GENODEF_13
1002
{
1000
HIER
1070
     0
1002
}
1002
{
1000
MANEDIT
1070
     0
1002
}
1002
{
1000
NOSEL
1070
     0
1002
}
1002
{
1000
BEHIND
1070
     0
1002
}
1002
{
1000
OTHER
1070
     0
1002
}
1002
{
1000
REACTOR
1002
}
  0
TEXT
  5
4F
330
49
100
AcDbEntity
  8
91000_TIP
  6
Continuous
 62
     7
100
AcDbText
 10
-134.9906185411919
 20
23.07158622517954
 30
0.0
 40
2.2
  1
Alle Bemassungswerte sind in Millimeter (mm) angegeben.
 41
0.8250311332500007
 72
     5
 11
-46.65728520789184
 21
23.07158622517954
 31
0.0
100
AcDbText
  0
TEXT
  5
50
330
49
100
AcDbEntity
  8
91000_TIP
  6
Continuous
 62
     7
100
AcDbText
 10
-134.9906185411919
 20
19.9425638213338
 30
0.0
 40
2.2
  1
All dimensions are in millimeters (mm)
 41
0.9608678382598295
 72
     5
 11
-68.05015914242381
 21
19.9425638213338
 31
0.0
100
AcDbText
  0
LINE
  5
51
330
49
100
AcDbEntity
  8
92000_TITLE
100
AcDbLine
 10
-135.0
 20
18.0
 30
0.0
 11
-135.0
 21
0.0
 31
0.0
1001
GENIUS_GENREC_14
1002
{
1000
PYDIR
1011
-135.0
1021
18.0
1031
0.0
1002
}
1002
{
1000
PXDIR
1011
0.0
1021
0.0
1031
0.0
1002
}
1002
{
1000
PORI
1011
-135.0
1021
0.0
1031
0.0
1002
}
1002
{
1000
PINS
1011
-135.0
1021
0.0
1031
0.0
1002
}
1002
{
1000
HVAL
1000
18
1002
}
1002
{
1000
H
1070
     2
1002
}
1002
{
1000
WVAL
1000
135
1002
}
1002
{
1000
W
1070
     2
1002
}
1002
{
1000
C
1070
     1
1002
}
1001
GENIUS_GENOBJ-N-REC_13
1002
{
1000
OWNER
1000
GEN
1002
}
1001
GENIUS_GENODEF_13
1002
{
1000
HIER
1070
     0
1002
}
1002
{
1000
MANEDIT
1070
     0
1002
}
1002
{
1000
NOSEL
1070
     0
1002
}
1002
{
1000
BEHIND
1070
     0
1002
}
1002
{
1000
OTHER
1070
     0
1002
}
1002
{
1000
REACTOR
1002
}
  0
LINE
  5
52
330
49
100
AcDbEntity
  8
91100_TIP_SYM
 48
0.5
100
AcDbLine
 10
-147.5
 20
16.0
 30
0.0
 11
-147.5
 21
2.0
 31
0.0
  0
LINE
  5
53
330
49
100
AcDbEntity
  8
91100_TIP_SYM
 48
0.5
100
AcDbLine
 10
-169.5
 20
9.0
 30
0.0
 11
-140.5
 21
9.0
 31
0.0
  0
LINE
  5
54
330
49
100
AcDbEntity
  8
91200_TIP_SYMB
100
AcDbLine
 10
-167.5
 20
12.5
 30
0.0
 11
-155.0
 21
14.0
 31
0.0
  0
LINE
  5
55
330
49
100
AcDbEntity
  8
91200_TIP_SYMB
100
AcDbLine
 10
-155.0
 20
4.0
 30
0.0
 11
-167.5
 21
5.5
 31
0.0
  0
LINE
  5
56
330
49
100
AcDbEntity
  8
91200_TIP_SYMB
100
AcDbLine
 10
-167.5
 20
5.5
 30
0.0
 11
-167.5
 21
12.5
 31
0.0
  0
CIRCLE
  5
57
330
49
100
AcDbEntity
  8
91200_TIP_SYMB
100
AcDbCircle
 10
-147.5
 20
9.0
 30
0.0
 40
2.0
  0
LINE
  5
58
330
49
100
AcDbEntity
  8
91200_TIP_SYMB
100
AcDbLine
 10
-155.0
 20
14.0
 30
0.0
 11
-155.0
 21
4.0
 31
0.0
  0
CIRCLE
  5
59
330
49
100
AcDbEntity
  8
91200_TIP_SYMB
100
AcDbCircle
 10
-147.5
 20
9.0
 30
0.0
 40
5.0
  0
ATTDEF
  5
5A
330
49
100
AcDbEntity
  8
92000_TITLE
100
AcDbText
 10
-116.9999999999995
 20
1.75
 30
0.0
 40
2.5
  1

 72
     1
 11
-116.9999999999995
 21
3.0
 31
0.0
100
AcDbAttributeDefinition
  3
Datum
  2
DATUM
 70
     0
 74
     2
  0
MTEXT
  5
5B
330
49
100
AcDbEntity
  8
92000_TITLE
100
AcDbMText
 10
-127.75
 20
3.0
 30
0.0
 40
2.5
 41
11.0
 71
     5
 72
     5
  1
Date:
 73
     1
 44
1.0
1001
ACAD
1000
MTEXTBEGIN
1070
    73
1070
     1
1070
    44
1040
1.0
1070
    74
1070
     0
1000
MTEXTEND
  0
MTEXT
  5
5C
330
49
100
AcDbEntity
  8
92000_TITLE
100
AcDbMText
 10
-102.75
 20
3.0
 30
0.0
 40
2.5
 41
11.0
 71
     5
 72
     5
  1
Name:
 73
     1
 44
1.0
1001
ACAD
1000
MTEXTBEGIN
1070
    73
1070
     1
1070
    44
1040
1.0
1070
    74
1070
     0
1000
MTEXTEND
  0
LINE
  5
5D
330
49
100
AcDbEntity
  8
92000_TITLE
100
AcDbLine
 10
-110.0
 20
6.0
 30
0.0
 11
-110.0
 21
0.0
 31
0.0
1001
GENIUS_GENREC_14
1002
{
1000
PYDIR
1011
-135.0
1021
18.0
1031
0.0
1002
}
1002
{
1000
PXDIR
1011
0.0
1021
0.0
1031
0.0
1002
}
1002
{
1000
PORI
1011
-135.0
1021
0.0
1031
0.0
1002
}
1002
{
1000
PINS
1011
-135.0
1021
0.0
1031
0.0
1002
}
1002
{
1000
HVAL
1000
18
1002
}
1002
{
1000
H
1070
     2
1002
}
1002
{
1000
WVAL
1000
135
1002
}
1002
{
1000
W
1070
     2
1002
}
1002
{
1000
C
1070
     1
1002
}
1001
GENIUS_GENOBJ-N-REC_13
1002
{
1000
OWNER
1000
GEN
1002
}
1001
GENIUS_GENODEF_13
1002
{
1000
HIER
1070
     0
1002
}
1002
{
1000
MANEDIT
1070
     0
1002
}
1002
{
1000
NOSEL
1070
     0
1002
}
1002
{
1000
BEHIND
1070
     0
1002
}
1002
{
1000
OTHER
1070
     0
1002
}
1002
{
1000
REACTOR
1002
}
  0
MTEXT
  5
5E
330
49
100
AcDbEntity
  8
92000_TITLE
100
AcDbMText
 10
-21.25
 20
3.0
 30
0.0
 40
2.5
 41
42.5
 71
     5
 72
     5
  1
Massstab/Scale: 1:1
 73
     1
 44
1.0
1001
ACAD
1000
MTEXTBEGIN
1070
    73
1070
     1
1070
    44
1040
1.0
1070
    74
1070
     0
1000
MTEXTEND
  0
LINE
  5
5F
330
49
100
AcDbEntity
  8
92000_TITLE
100
AcDbLine
 10
-85.0
 20
18.0
 30
0.0
 11
-85.0
 21
0.0
 31
0.0
1001
GENIUS_GENREC_14
1002
{
1000
PYDIR
1011
-135.0
1021
18.0
1031
0.0
1002
}
1002
{
1000
PXDIR
1011
0.0
1021
0.0
1031
0.0
1002
}
1002
{
1000
PORI
1011
-135.0
1021
0.0
1031
0.0
1002
}
1002
{
1000
PINS
1011
-135.0
1021
0.0
1031
0.0
1002
}
1002
{
1000
HVAL
1000
18
1002
}
1002
{
1000
H
1070
     2
1002
}
1002
{
1000
WVAL
1000
135
1002
}
1002
{
1000
W
1070
     2
1002
}
1002
{
1000
C
1070
     1
1002
}
1001
GENIUS_GENOBJ-N-REC_13
1002
{
1000
OWNER
1000
GEN
1002
}
1001
GENIUS_GENODEF_13
1002
{
1000
HIER
1070
     0
1002
}
1002
{
1000
MANEDIT
1070
     0
1002
}
1002
{
1000
NOSEL
1070
     0
1002
}
1002
{
1000
BEHIND
1070
     0
1002
}
1002
{
1000
OTHER
1070
     0
1002
}
1002
{
1000
REACTOR
1002
}
  0
MTEXT
  5
60
330
49
100
AcDbEntity
  8
92000_TITLE
100
AcDbMText
 10
-63.75
 20
3.0
 30
0.0
 40
2.5
 41
42.5
 71
     5
 72
     5
  1
Format/Size: DIN A4
 73
     1
 44
1.0
1001
ACAD
1000
MTEXTBEGIN
1070
    73
1070
     1
1070
    44
1040
1.0
1070
    74
1070
     0
1000
MTEXTEND
  0
ATTDEF
  5
61
330
49
100
AcDbEntity
  8
92000_TITLE
100
AcDbText
 10
-42.49999999999952
 20
12.25000000000011
 30
0.0
 40
3.5
  1

 72
     1
 11
-42.49999999999952
 21
14.00000000000011
 31
0.0
100
AcDbAttributeDefinition
  3
Z-Name
  2
ZEICHNUNGSNAME
 70
     0
 74
     2
  0
ATTDEF
  5
62
330
49
100
AcDbEntity
  8
92000_TITLE
100
AcDbText
 10
-91.99999999999954
 20
1.75
 30
0.0
 40
2.5
  1

 72
     1
 11
-91.99999999999954
 21
3.0
 31
0.0
100
AcDbAttributeDefinition
  3
Name
  2
NAME
 70
     0
 74
     2
  0
ATTDEF
  5
63
330
49
100
AcDbEntity
  8
92000_TITLE
100
AcDbText
 10
-42.49999999999952
 20
6.75000000000011
 30
0.0
 40
2.5
  1

 72
     1
 11
-42.49999999999952
 21
8.00000000000011
 31
0.0
100
AcDbAttributeDefinition
  3
A-Name
  2
ARTIKELNAME
 70
     0
 74
     2
  0
LINE
  5
64
330
49
100
AcDbEntity
  8
92000_TITLE
100
AcDbLine
 10
-42.5
 20
0.0
 30
0.0
 11
-42.5
 21
6.0
 31
0.0
1001
GENIUS_GENREC_14
1002
{
1000
PYDIR
1011
-135.0
1021
18.0
1031
0.0
1002
}
1002
{
1000
PXDIR
1011
0.0
1021
0.0
1031
0.0
1002
}
1002
{
1000
PORI
1011
-135.0
1021
0.0
1031
0.0
1002
}
1002
{
1000
PINS
1011
-135.0
1021
0.0
1031
0.0
1002
}
1002
{
1000
HVAL
1000
18
1002
}
1002
{
1000
H
1070
     2
1002
}
1002
{
1000
WVAL
1000
135
1002
}
1002
{
1000
W
1070
     2
1002
}
1002
{
1000
C
1070
     1
1002
}
1001
GENIUS_GENOBJ-N-REC_13
1002
{
1000
OWNER
1000
GEN
1002
}
1001
GENIUS_GENODEF_13
1002
{
1000
HIER
1070
     0
1002
}
1002
{
1000
MANEDIT
1070
     0
1002
}
1002
{
1000
NOSEL
1070
     0
1002
}
1002
{
1000
BEHIND
1070
     0
1002
}
1002
{
1000
OTHER
1070
     0
1002
}
1002
{
1000
REACTOR
1002
}
  0
LINE
  5
65
330
49
100
AcDbEntity
  8
92000_TITLE
100
AcDbLine
 10
0.0
 20
0.0
 30
0.0
 11
0.0
 21
18.0
 31
0.0
1001
GENIUS_GENREC_14
1002
{
1000
PYDIR
1011
-135.0
1021
18.0
1031
0.0
1002
}
1002
{
1000
PXDIR
1011
0.0
1021
0.0
1031
0.0
1002
}
1002
{
1000
PORI
1011
-135.0
1021
0.0
1031
0.0
1002
}
1002
{
1000
PINS
1011
-135.0
1021
0.0
1031
0.0
1002
}
1002
{
1000
HVAL
1000
18
1002
}
1002
{
1000
H
1070
     2
1002
}
1002
{
1000
WVAL
1000
135
1002
}
1002
{
1000
W
1070
     2
1002
}
1002
{
1000
C
1070
     1
1002
}
1001
GENIUS_GENOBJ-N-REC_13
1002
{
1000
OWNER
1000
GEN
1002
}
1001
GENIUS_GENODEF_13
1002
{
1000
HIER
1070
     0
1002
}
1002
{
1000
MANEDIT
1070
     0
1002
}
1002
{
1000
NOSEL
1070
     0
1002
}
1002
{
1000
BEHIND
1070
     0
1002
}
1002
{
1000
OTHER
1070
     0
1002
}
1002
{
1000
REACTOR
1002
}
  0
ENDBLK
  5
66
330
49
100
AcDbEntity
  8
0
100
AcDbBlockEnd
  0
BLOCK
  5
7FBC
330
7FB2
100
AcDbEntity
  8
0
100
AcDbBlockBegin
  2
*D2
 70
     1
 10
0.0
 20
0.0
 30
0.0
  3
*D2
  1

  0
LINE
  5
8575
330
7FB2
100
AcDbEntity
  8
10100_FRONT_DIM
  6
Continuous
 62
     7
370
    -2
100
AcDbLine
 10
72.54592800000001
 20
175.303142
 30
0.0
 11
72.54592800000001
 21
187.9527536392684
 31
0.0
  0
LINE
  5
8576
330
7FB2
100
AcDbEntity
  8
10100_FRONT_DIM
  6
Continuous
 62
     7
370
    -2
100
AcDbLine
 10
97.54592800000002
 20
175.303142
 30
0.0
 11
97.54592800000002
 21
187.9527536392684
 31
0.0
  0
LINE
  5
8577
330
7FB2
100
AcDbEntity
  8
10100_FRONT_DIM
  6
Continuous
370
    -2
100
AcDbLine
 10
76.045928
 20
185.9527536392684
 30
0.0
 11
94.04592800000001
 21
185.9527536392684
 31
0.0
  0
SOLID
  5
8578
330
7FB2
100
AcDbEntity
  8
10100_FRONT_DIM
  6
Continuous
100
AcDbTrace
 10
76.045928
 20
186.5360869726018
 30
0.0
 11
76.045928
 21
185.3694203059351
 31
0.0
 12
72.54592800000001
 22
185.9527536392684
 32
0.0
 13
72.54592800000001
 23
185.9527536392684
 33
0.0
  0
SOLID
  5
8579
330
7FB2
100
AcDbEntity
  8
10100_FRONT_DIM
  6
Continuous
100
AcDbTrace
 10
94.04592800000001
 20
186.5360869726018
 30
0.0
 11
94.04592800000001
 21
185.3694203059351
 31
0.0
 12
97.54592800000002
 22
185.9527536392684
 32
0.0
 13
97.54592800000002
 23
185.9527536392684
 33
0.0
  0
MTEXT
  5
857A
330
7FB2
100
AcDbEntity
  8
10100_FRONT_DIM
  6
Continuous
 62
     7
370
    18
100
AcDbMText
 10
85.04592800000002
 20
188.2027536392684
 30
0.0
 40
3.5
 41
0.0
 71
     5
 72
     1
  1
\A1;25
 73
     1
 44
1.0
1001
ACAD
1000
MTEXTBEGIN
1070
    73
1070
     1
1070
    44
1040
1.0
1070
    74
1070
     0
1000
MTEXTEND
  0
POINT
  5
857B
330
7FB2
100
AcDbEntity
  8
Defpoints
  6
Continuous
 62
     0
100
AcDbPoint
 10
72.54592800000001
 20
175.303142
 30
0.0
  0
POINT
  5
857C
330
7FB2
100
AcDbEntity
  8
Defpoints
  6
Continuous
 62
     0
100
AcDbPoint
 10
97.54592800000002
 20
175.303142
 30
0.0
  0
POINT
  5
857D
330
7FB2
100
AcDbEntity
  8
Defpoints
  6
Continuous
 62
     0
100
AcDbPoint
 10
97.54592800000002
 20
185.9527536392684
 30
0.0
  0
ENDBLK
  5
7FBD
330
7FB2
100
AcDbEntity
  8
0
100
AcDbBlockEnd
  0
BLOCK
  5
7FC8
330
7FBE
100
AcDbEntity
  8
0
100
AcDbBlockBegin
  2
*D3
 70
     1
 10
0.0
 20
0.0
 30
0.0
  3
*D3
  1

  0
LINE
  5
8587
330
7FBE
100
AcDbEntity
  8
10100_FRONT_DIM
  6
Continuous
 62
     7
370
    -2
100
AcDbLine
 10
73.24592799999997
 20
176.003142
 30
0.0
 11
60.54592800000001
 21
176.003142
 31
0.0
  0
LINE
  5
8588
330
7FBE
100
AcDbEntity
  8
10100_FRONT_DIM
  6
Continuous
 62
     7
370
    -2
100
AcDbLine
 10
78.045928
 20
143.503142
 30
0.0
 11
60.545928
 21
143.503142
 31
0.0
  0
LINE
  5
8589
330
7FBE
100
AcDbEntity
  8
10100_FRONT_DIM
  6
Continuous
370
    -2
100
AcDbLine
 10
62.54592800000001
 20
172.503142
 30
0.0
 11
62.54592800000001
 21
147.003142
 31
0.0
  0
SOLID
  5
858A
330
7FBE
100
AcDbEntity
  8
10100_FRONT_DIM
  6
Continuous
100
AcDbTrace
 10
61.96259466666667
 20
172.503142
 30
0.0
 11
63.12926133333334
 21
172.503142
 31
0.0
 12
62.54592800000001
 22
176.003142
 32
0.0
 13
62.54592800000001
 23
176.003142
 33
0.0
  0
SOLID
  5
858B
330
7FBE
100
AcDbEntity
  8
10100_FRONT_DIM
  6
Continuous
100
AcDbTrace
 10
61.96259466666667
 20
147.003142
 30
0.0
 11
63.12926133333334
 21
147.003142
 31
0.0
 12
62.54592800000001
 22
143.503142
 32
0.0
 13
62.54592800000001
 23
143.503142
 33
0.0
  0
MTEXT
  5
858C
330
7FBE
100
AcDbEntity
  8
10100_FRONT_DIM
  6
Continuous
 62
     7
370
    18
100
AcDbMText
 10
60.29592799999998
 20
159.753142
 30
0.0
 40
3.5
 41
0.0
 71
     5
 72
     1
  1
\A1;32.5
 11
0.0000000000000001
 21
1.0
 31
0.0
 73
     1
 44
1.0
1001
ACAD
1000
MTEXTBEGIN
1070
    73
1070
     1
1070
    44
1040
1.0
1070
    74
1070
     0
1000
MTEXTEND
  0
POINT
  5
858D
330
7FBE
100
AcDbEntity
  8
Defpoints
  6
Continuous
 62
     0
100
AcDbPoint
 10
73.24592799999997
 20
176.003142
 30
0.0
  0
POINT
  5
858E
330
7FBE
100
AcDbEntity
  8
Defpoints
  6
Continuous
 62
     0
100
AcDbPoint
 10
78.045928
 20
143.503142
 30
0.0
  0
POINT
  5
858F
330
7FBE
100
AcDbEntity
  8
Defpoints
  6
Continuous
 62
     0
100
AcDbPoint
 10
62.54592800000001
 20
143.503142
 30
0.0
  0
ENDBLK
  5
7FC9
330
7FBE
100
AcDbEntity
  8
0
100
AcDbBlockEnd
  0
BLOCK
  5
855F
330
8553
100
AcDbEntity
  8
0
100
AcDbBlockBegin
  2
*D4
 70
     1
 10
0.0
 20
0.0
 30
0.0
  3
*D4
  1

  0
LINE
  5
859B
330
8553
100
AcDbEntity
  8
11100_LEFT_DIM
 62
     7
370
    -2
100
AcDbLine
 10
117.545928
 20
176.003142
 30
0.0
 11
117.545928
 21
187.8423360302999
 31
0.0
  0
LINE
  5
859C
330
8553
100
AcDbEntity
  8
11100_LEFT_DIM
 62
     7
370
    -2
100
AcDbLine
 10
142.545928
 20
176.003142
 30
0.0
 11
142.545928
 21
187.8423360302999
 31
0.0
  0
LINE
  5
859D
330
8553
100
AcDbEntity
  8
11100_LEFT_DIM
370
    -2
100
AcDbLine
 10
121.045928
 20
185.8423360302999
 30
0.0
 11
139.045928
 21
185.8423360302999
 31
0.0
  0
SOLID
  5
859E
330
8553
100
AcDbEntity
  8
11100_LEFT_DIM
100
AcDbTrace
 10
121.045928
 20
186.4256693636333
 30
0.0
 11
121.045928
 21
185.2590026969665
 31
0.0
 12
117.545928
 22
185.8423360302999
 32
0.0
 13
117.545928
 23
185.8423360302999
 33
0.0
  0
SOLID
  5
859F
330
8553
100
AcDbEntity
  8
11100_LEFT_DIM
100
AcDbTrace
 10
139.045928
 20
186.4256693636333
 30
0.0
 11
139.045928
 21
185.2590026969665
 31
0.0
 12
142.545928
 22
185.8423360302999
 32
0.0
 13
142.545928
 23
185.8423360302999
 33
0.0
  0
MTEXT
  5
85A0
330
8553
100
AcDbEntity
  8
11100_LEFT_DIM
 62
     7
100
AcDbMText
 10
130.045928
 20
188.0923360302999
 30
0.0
 40
3.5
 41
0.0
 71
     5
 72
     1
  1
\A1;25
 73
     1
 44
1.0
1001
ACAD
1000
MTEXTBEGIN
1070
    73
1070
     1
1070
    44
1040
1.0
1070
    74
1070
     0
1000
MTEXTEND
  0
POINT
  5
85A1
330
8553
100
AcDbEntity
  8
Defpoints
 62
     0
100
AcDbPoint
 10
117.545928
 20
176.003142
 30
0.0
  0
POINT
  5
85A2
330
8553
100
AcDbEntity
  8
Defpoints
 62
     0
100
AcDbPoint
 10
142.545928
 20
176.003142
 30
0.0
  0
POINT
  5
85A3
330
8553
100
AcDbEntity
  8
Defpoints
 62
     0
100
AcDbPoint
 10
142.545928
 20
185.8423360302999
 30
0.0
  0
ENDBLK
  5
8560
330
8553
100
AcDbEntity
  8
0
100
AcDbBlockEnd
  0
ENDSEC
  0
SECTION
  2
ENTITIES
  0
LWPOLYLINE
  5
1C1
330
37
100
AcDbEntity
  8
90200_FRAME_SIZE
100
AcDbPolyline
 90
        4
 70
     1
 43
0.0
 10
-20.0
 20
-21.5
 10
220.0
 20
-21.5
 10
220.0
 20
308.5
 10
-20.0
 20
308.5000000000001
1001
GENIUS_GENREC_14
1002
{
1000
PYDIR
1011
-20.0
1021
308.5
1031
0.0
1002
}
1002
{
1000
PXDIR
1011
220.0
1021
-21.5
1031
0.0
1002
}
1002
{
1000
PORI
1011
-20.0
1021
-21.5
1031
0.0
1002
}
1002
{
1000
PINS
1011
-20.0
1021
-21.5
1031
0.0
1002
}
1002
{
1000
HVAL
1000
330
1002
}
1002
{
1000
H
1070
     2
1002
}
1002
{
1000
WVAL
1000
240
1002
}
1002
{
1000
W
1070
     2
1002
}
1002
{
1000
C
1070
     1
1002
}
1001
GENIUS_GENODEF_13
1002
{
1000
HIER
1070
     0
1002
}
1002
{
1000
MANEDIT
1070
     0
1002
}
1002
{
1000
NOSEL
1070
     0
1002
}
1002
{
1000
BEHIND
1070
     0
1002
}
1002
{
1000
OTHER
1070
     0
1002
}
1002
{
1000
REACTOR
1002
}
1001
GENIUS_GENOBJ-N-REC_13
1002
{
1000
OWNER
1000
GEN
1002
}
  0
LWPOLYLINE
  5
1C9
330
37
100
AcDbEntity
  8
90100_FRAME_THICK
100
AcDbPolyline
 90
        4
 70
     1
 43
0.0
 10
-5.0
 20
-5.0
 10
205.0
 20
-5.0
 10
205.0
 20
292.0
 10
-5.0
 20
292.0
1001
GENIUS_GENREC_14
1002
{
1000
PYDIR
1011
-5.0
1021
292.0
1031
0.0
1002
}
1002
{
1000
PXDIR
1011
205.0
1021
-5.0
1031
0.0
1002
}
1002
{
1000
PORI
1011
-5.0
1021
-5.0
1031
0.0
1002
}
1002
{
1000
PINS
1011
-5.0
1021
-5.0
1031
0.0
1002
}
1002
{
1000
HVAL
1000
297
1002
}
1002
{
1000
H
1070
     2
1002
}
1002
{
1000
WVAL
1000
210
1002
}
1002
{
1000
W
1070
     2
1002
}
1002
{
1000
C
1070
     1
1002
}
1001
GENIUS_GENODEF_13
1002
{
1000
HIER
1070
     0
1002
}
1002
{
1000
MANEDIT
1070
     0
1002
}
1002
{
1000
NOSEL
1070
     0
1002
}
1002
{
1000
BEHIND
1070
     0
1002
}
1002
{
1000
OTHER
1070
     0
1002
}
1002
{
1000
REACTOR
1002
}
1001
GENIUS_GENOBJ-N-REC_13
1002
{
1000
OWNER
1000
GEN
1002
}
  0
LWPOLYLINE
  5
1CD
330
37
100
AcDbEntity
  8
90000_FRAME_THIN
100
AcDbPolyline
 90
        4
 70
     1
 43
0.0
 10
0.0
 20
0.0
 10
200.0
 20
0.0
 10
200.0
 20
287.0
 10
0.0
 20
287.0
1001
GENIUS_GENREC_14
1002
{
1000
PYDIR
1011
-5.0
1021
292.0
1031
0.0
1002
}
1002
{
1000
PXDIR
1011
205.0
1021
-5.0
1031
0.0
1002
}
1002
{
1000
PORI
1011
-5.0
1021
-5.0
1031
0.0
1002
}
1002
{
1000
PINS
1011
-5.0
1021
-5.0
1031
0.0
1002
}
1002
{
1000
HVAL
1000
297
1002
}
1002
{
1000
H
1070
     2
1002
}
1002
{
1000
WVAL
1000
210
1002
}
1002
{
1000
W
1070
     2
1002
}
1002
{
1000
C
1070
     1
1002
}
1001
GENIUS_GENODEF_13
1002
{
1000
HIER
1070
     0
1002
}
1002
{
1000
MANEDIT
1070
     0
1002
}
1002
{
1000
NOSEL
1070
     0
1002
}
1002
{
1000
BEHIND
1070
     0
1002
}
1002
{
1000
OTHER
1070
     0
1002
}
1002
{
1000
REACTOR
1002
}
1001
GENIUS_GENOBJ-N-REC_13
1002
{
1000
OWNER
1000
GEN
1002
}
  0
INSERT
  5
1EC
330
37
100
AcDbEntity
  8
0
100
AcDbBlockReference
 66
     1
  2
Title_A4P
 10
195.0
 20
5.0
 30
0.0
  0
ATTRIB
  5
1ED
330
1EC
100
AcDbEntity
  8
92000_TITLE
100
AcDbText
 10
78.00000000000046
 20
6.75
 30
0.0
 40
2.5
  1

 72
     1
 11
78.00000000000046
 21
8.0
 31
0.0
100
AcDbAttribute
  2
DATUM
 70
     0
 74
     2
  0
ATTRIB
  5
1EE
330
1EC
100
AcDbEntity
  8
92000_TITLE
100
AcDbText
 10
103.0000000000004
 20
6.75
 30
0.0
 40
2.5
  1

 72
     1
 11
103.0000000000004
 21
8.0
 31
0.0
100
AcDbAttribute
  2
NAME
 70
     0
 74
     2
  0
ATTRIB
  5
1EF
330
1EC
100
AcDbEntity
  8
92000_TITLE
100
AcDbText
 10
114.291666666667
 20
17.25000000000011
 30
0.0
 40
3.5
  1
3SE5000_00002208_000_ALL
 72
     1
 11
152.5000000000004
 21
19.00000000000011
 31
0.0
100
AcDbAttribute
  2
ZEICHNUNGSNAME
 70
     0
 74
     2
  0
ATTRIB
  5
1F0
330
1EC
100
AcDbEntity
  8
92000_TITLE
100
AcDbText
 10
136.2500000000004
 20
11.75000000000011
 30
0.0
 40
2.5
  1
Schaltelement 
 72
     1
 11
152.5000000000004
 21
13.00000000000011
 31
0.0
100
AcDbAttribute
  2
ARTIKELNAME
 70
     0
 74
     2
  0
SEQEND
  5
1F1
330
1EC
100
AcDbEntity
  8
0
  0
ARC
  5
6679
330
37
100
AcDbEntity
  8
10000_FRONT
  6
Continuous
 62
     7
370
    35
100
AcDbCircle
 10
96.84592800000002
 20
175.303142
 30
0.0
 40
0.7
100
AcDbArc
 50
0.0
 51
90.0
  0
LINE
  5
667A
330
37
100
AcDbEntity
  8
10000_FRONT
  6
Continuous
 62
     7
370
    35
100
AcDbLine
 10
73.24592799999997
 20
176.003142
 30
0.0
 11
96.84592800000002
 21
176.003142
 31
0.0
  0
ARC
  5
667B
330
37
100
AcDbEntity
  8
10000_FRONT
  6
Continuous
 62
     7
370
    35
100
AcDbCircle
 10
73.24592799999997
 20
175.303142
 30
0.0
 40
0.7
100
AcDbArc
 50
90.0
 51
180.0
  0
LINE
  5
667C
330
37
100
AcDbEntity
  8
10000_FRONT
  6
Continuous
 62
     7
370
    35
100
AcDbLine
 10
72.54592800000001
 20
146.203142
 30
0.0
 11
72.54592800000001
 21
175.303142
 31
0.0
  0
ARC
  5
667D
330
37
100
AcDbEntity
  8
10000_FRONT
  6
Continuous
 62
     7
370
    35
100
AcDbCircle
 10
73.24592799999997
 20
146.203142
 30
0.0
 40
0.7
100
AcDbArc
 50
180.0
 51
270.0
  0
LINE
  5
667E
330
37
100
AcDbEntity
  8
10000_FRONT
  6
Continuous
 62
     7
370
    35
100
AcDbLine
 10
78.045928
 20
145.503142
 30
0.0
 11
73.24592799999997
 21
145.503142
 31
0.0
  0
LINE
  5
667F
330
37
100
AcDbEntity
  8
10000_FRONT
  6
Continuous
 62
     7
370
    35
100
AcDbLine
 10
96.84592800000002
 20
145.503142
 30
0.0
 11
92.045928
 21
145.503142
 31
0.0
  0
ARC
  5
6680
330
37
100
AcDbEntity
  8
10000_FRONT
  6
Continuous
 62
     7
370
    35
100
AcDbCircle
 10
96.84592800000002
 20
146.203142
 30
0.0
 40
0.7
100
AcDbArc
 50
270.0
 51
0.0
  0
LINE
  5
6681
330
37
100
AcDbEntity
  8
10000_FRONT
  6
Continuous
 62
     7
370
    35
100
AcDbLine
 10
97.54592800000001
 20
175.303142
 30
0.0
 11
97.54592800000001
 21
146.203142
 31
0.0
  0
LINE
  5
6682
330
37
100
AcDbEntity
  8
10000_FRONT
  6
Continuous
 62
     7
370
    35
100
AcDbLine
 10
92.045928
 20
145.503142
 30
0.0
 11
92.045928
 21
143.503142
 31
0.0
  0
LINE
  5
6683
330
37
100
AcDbEntity
  8
10000_FRONT
  6
Continuous
 62
     7
370
    35
100
AcDbLine
 10
92.045928
 20
143.503142
 30
0.0
 11
78.045928
 21
143.503142
 31
0.0
  0
LINE
  5
6684
330
37
100
AcDbEntity
  8
10000_FRONT
  6
Continuous
 62
     7
370
    35
100
AcDbLine
 10
78.045928
 20
143.503142
 30
0.0
 11
78.045928
 21
145.503142
 31
0.0
  0
LINE
  5
703F
330
37
100
AcDbEntity
  8
11000_LEFT
  6
Continuous
 62
     7
370
    35
100
AcDbLine
 10
142.545928
 20
145.503142
 30
0.0
 11
142.545928
 21
146.203142
 31
0.0
  0
LINE
  5
7040
330
37
100
AcDbEntity
  8
11000_LEFT
  6
Continuous
 62
     7
370
    35
100
AcDbLine
 10
142.545928
 20
175.303142
 30
0.0
 11
142.545928
 21
176.003142
 31
0.0
  0
LINE
  5
7041
330
37
100
AcDbEntity
  8
11000_LEFT
  6
Continuous
 62
     7
370
    35
100
AcDbLine
 10
142.545928
 20
146.203142
 30
0.0
 11
142.545928
 21
175.303142
 31
0.0
  0
LINE
  5
7042
330
37
100
AcDbEntity
  8
11000_LEFT
  6
Continuous
 62
     7
370
    35
100
AcDbLine
 10
142.545928
 20
145.503142
 30
0.0
 11
142.545928
 21
146.203142
 31
0.0
  0
LINE
  5
7043
330
37
100
AcDbEntity
  8
11000_LEFT
  6
Continuous
 62
     7
370
    35
100
AcDbLine
 10
117.545928
 20
143.503142
 30
0.0
 11
133.545928
 21
143.503142
 31
0.0
  0
LINE
  5
7044
330
37
100
AcDbEntity
  8
11000_LEFT
  6
Continuous
 62
     7
370
    35
100
AcDbLine
 10
133.545928
 20
143.503142
 30
0.0
 11
133.545928
 21
145.503142
 31
0.0
  0
LINE
  5
7045
330
37
100
AcDbEntity
  8
11000_LEFT
  6
Continuous
 62
     7
370
    35
100
AcDbLine
 10
117.545928
 20
143.503142
 30
0.0
 11
117.545928
 21
145.503142
 31
0.0
  0
LINE
  5
7046
330
37
100
AcDbEntity
  8
11000_LEFT
  6
Continuous
 62
     7
370
    35
100
AcDbLine
 10
117.545928
 20
145.503142
 30
0.0
 11
142.545928
 21
145.503142
 31
0.0
  0
LINE
  5
7047
330
37
100
AcDbEntity
  8
11000_LEFT
  6
Continuous
 62
     7
370
    35
100
AcDbLine
 10
117.545928
 20
145.503142
 30
0.0
 11
117.545928
 21
146.203142
 31
0.0
  0
LINE
  5
7048
330
37
100
AcDbEntity
  8
11000_LEFT
  6
Continuous
 62
     7
370
    35
100
AcDbLine
 10
117.545928
 20
146.203142
 30
0.0
 11
117.545928
 21
175.303142
 31
0.0
  0
LINE
  5
7049
330
37
100
AcDbEntity
  8
11000_LEFT
  6
Continuous
 62
     7
370
    35
100
AcDbLine
 10
117.545928
 20
176.003142
 30
0.0
 11
142.545928
 21
176.003142
 31
0.0
  0
LINE
  5
704A
330
37
100
AcDbEntity
  8
11000_LEFT
  6
Continuous
 62
     7
370
    35
100
AcDbLine
 10
117.545928
 20
175.303142
 30
0.0
 11
117.545928
 21
176.003142
 31
0.0
  0
DIMENSION
  5
7F9E
330
37
100
AcDbEntity
  8
10100_FRONT_DIM
  6
Continuous
 62
     7
370
    18
100
AcDbDimension
  2
*D2
 10
97.54592800000002
 20
185.9527536392684
 30
0.0
 11
85.04592800000002
 21
188.2027536392684
 31
0.0
 70
    32
 71
     5
 42
25.00000000000002
  3
H035
100
AcDbAlignedDimension
 13
72.54592800000001
 23
175.303142
 33
0.0
 14
97.54592800000002
 24
175.303142
 34
0.0
100
AcDbRotatedDimension
1001
ACAD
1000
DSTYLE
1002
{
1070
    40
1040
1.0
1002
}
  0
DIMENSION
  5
7FA1
330
37
100
AcDbEntity
  8
10100_FRONT_DIM
  6
Continuous
 62
     7
370
    18
100
AcDbDimension
  2
*D3
 10
62.54592800000001
 20
143.503142
 30
0.0
 11
60.29592799999998
 21
159.753142
 31
0.0
 70
    32
 71
     5
 42
32.5
  3
H035
100
AcDbAlignedDimension
 13
73.24592799999997
 23
176.003142
 33
0.0
 14
78.045928
 24
143.503142
 34
0.0
 50
90.0
100
AcDbRotatedDimension
1001
ACAD
1000
DSTYLE
1002
{
1070
    40
1040
1.0
1002
}
  0
LWPOLYLINE
  5
80DD
330
37
100
AcDbEntity
  8
10000_FRONT
  6
Continuous
 62
     7
370
    35
100
AcDbPolyline
 90
        4
 70
     1
 43
0.0
 10
73.64592800000003
 20
174.703142
 10
81.44592799999998
 20
174.703142
 10
81.44592799999998
 20
167.903142
 10
73.64592800000003
 20
167.903142
  0
LWPOLYLINE
  5
830B
330
37
100
AcDbEntity
  8
10000_FRONT
  6
Continuous
 62
     7
370
    35
100
AcDbPolyline
 90
        4
 70
     1
 43
0.0
 10
73.64592800000003
 20
154.703142
 10
81.44592799999998
 20
154.703142
 10
81.44592799999998
 20
147.903142
 10
73.64592800000003
 20
147.903142
  0
LWPOLYLINE
  5
8422
330
37
100
AcDbEntity
  8
10000_FRONT
  6
Continuous
 62
     7
370
    35
100
AcDbPolyline
 90
        4
 70
     1
 43
0.0
 10
88.64592800000002
 20
174.703142
 10
96.44592799999998
 20
174.703142
 10
96.44592799999998
 20
167.903142
 10
88.64592800000002
 20
167.903142
  0
LWPOLYLINE
  5
8539
330
37
100
AcDbEntity
  8
10000_FRONT
  6
Continuous
 62
     7
370
    35
100
AcDbPolyline
 90
        4
 70
     1
 43
0.0
 10
88.64592800000002
 20
154.703142
 10
96.44592799999998
 20
154.703142
 10
96.44592799999998
 20
147.903142
 10
88.64592800000002
 20
147.903142
  0
DIMENSION
  5
8552
330
37
100
AcDbEntity
  8
11100_LEFT_DIM
100
AcDbDimension
  2
*D4
 10
142.545928
 20
185.8423360302999
 30
0.0
 11
130.045928
 21
188.0923360302999
 31
0.0
 70
    32
 71
     5
 42
25.0
  3
H035
100
AcDbAlignedDimension
 13
117.545928
 23
176.003142
 33
0.0
 14
142.545928
 24
176.003142
 34
0.0
100
AcDbRotatedDimension
1001
ACAD
1000
DSTYLE
1002
{
1070
    40
1040
1.0
1002
}
  0
ARC
  5
8858
330
37
100
AcDbEntity
  8
10000_FRONT
  6
Continuous
 62
     7
370
    35
100
AcDbCircle
 10
92.54592800000002
 20
171.453142
 30
0.0
 40
1.85
100
AcDbArc
 50
73.83655499999926
 51
106.1634450000007
  0
LINE
  5
8859
330
37
100
AcDbEntity
  8
10000_FRONT
  6
Continuous
 62
     7
370
    35
100
AcDbLine
 10
92.03092800000002
 20
169.37627
 30
0.0
 11
92.03092800000002
 21
170.579733
 31
0.0
  0
LINE
  5
885A
330
37
100
AcDbEntity
  8
10000_FRONT
  6
Continuous
 62
     7
370
    35
100
AcDbLine
 10
93.06092799999998
 20
170.579733
 30
0.0
 11
93.06092799999998
 21
169.37627
 31
0.0
  0
LINE
  5
885B
330
37
100
AcDbEntity
  8
10000_FRONT
  6
Continuous
 62
     7
370
    35
100
AcDbLine
 10
93.06092799999998
 20
173.2300139999999
 30
0.0
 11
93.06092799999998
 21
172.026551
 31
0.0
  0
ARC
  5
885C
330
37
100
AcDbEntity
  8
10000_FRONT
  6
Continuous
 62
     7
370
    35
100
AcDbCircle
 10
92.54592800000002
 20
171.153142
 30
0.0
 40
1.85
100
AcDbArc
 50
253.8365549999993
 51
286.1634450000007
  0
LINE
  5
885D
330
37
100
AcDbEntity
  8
10000_FRONT
  6
Continuous
 62
     7
370
    35
100
AcDbLine
 10
92.03092800000002
 20
172.026551
 30
0.0
 11
92.03092800000002
 21
173.2300139999999
 31
0.0
  0
LINE
  5
885E
330
37
100
AcDbEntity
  8
10000_FRONT
  6
Continuous
 62
     7
370
    35
100
AcDbLine
 10
93.06092799999998
 20
172.026551
 30
0.0
 11
95.01175699999995
 21
172.026551
 31
0.0
  0
LINE
  5
885F
330
37
100
AcDbEntity
  8
10000_FRONT
  6
Continuous
 62
     7
370
    35
100
AcDbLine
 10
90.08009900000002
 20
172.026551
 30
0.0
 11
92.03092800000002
 21
172.026551
 31
0.0
  0
LINE
  5
8860
330
37
100
AcDbEntity
  8
10000_FRONT
  6
Continuous
 62
     7
370
    35
100
AcDbLine
 10
95.22787800000003
 20
171.995022
 30
0.0
 11
95.23159899999994
 21
171.99106
 31
0.0
  0
LINE
  5
8861
330
37
100
AcDbEntity
  8
10000_FRONT
  6
Continuous
 62
     7
370
    35
100
AcDbLine
 10
95.23159899999994
 20
171.99106
 30
0.0
 11
95.2353169999999
 21
171.987093
 31
0.0
  0
LINE
  5
8862
330
37
100
AcDbEntity
  8
10000_FRONT
  6
Continuous
 62
     7
370
    35
100
AcDbLine
 10
95.2353169999999
 20
171.987093
 30
0.0
 11
95.23903200000004
 21
171.9831209999999
 31
0.0
  0
LINE
  5
8863
330
37
100
AcDbEntity
  8
10000_FRONT
  6
Continuous
 62
     7
370
    35
100
AcDbLine
 10
95.23903200000004
 20
171.9831209999999
 30
0.0
 11
95.242743
 21
171.979143
 31
0.0
  0
LINE
  5
8864
330
37
100
AcDbEntity
  8
10000_FRONT
  6
Continuous
 62
     7
370
    35
100
AcDbLine
 10
95.242743
 20
171.979143
 30
0.0
 11
95.24645099999998
 21
171.9751600000001
 31
0.0
  0
LINE
  5
8865
330
37
100
AcDbEntity
  8
10000_FRONT
  6
Continuous
 62
     7
370
    35
100
AcDbLine
 10
95.24645099999998
 20
171.9751600000001
 30
0.0
 11
95.25015600000001
 21
171.971172
 31
0.0
  0
LINE
  5
8866
330
37
100
AcDbEntity
  8
10000_FRONT
  6
Continuous
 62
     7
370
    35
100
AcDbLine
 10
95.25015600000001
 20
171.971172
 30
0.0
 11
95.25385700000006
 21
171.967177
 31
0.0
  0
LINE
  5
8867
330
37
100
AcDbEntity
  8
10000_FRONT
  6
Continuous
 62
     7
370
    35
100
AcDbLine
 10
95.25385700000006
 20
171.967177
 30
0.0
 11
95.25755500000002
 21
171.9631779999999
 31
0.0
  0
LINE
  5
8868
330
37
100
AcDbEntity
  8
10000_FRONT
  6
Continuous
 62
     7
370
    35
100
AcDbLine
 10
95.25755500000002
 20
171.9631779999999
 30
0.0
 11
95.26125000000002
 21
171.959173
 31
0.0
  0
LINE
  5
8869
330
37
100
AcDbEntity
  8
10000_FRONT
  6
Continuous
 62
     7
370
    35
100
AcDbLine
 10
95.26125000000002
 20
171.959173
 30
0.0
 11
95.26494100000002
 21
171.955162
 31
0.0
  0
LINE
  5
886A
330
37
100
AcDbEntity
  8
10000_FRONT
  6
Continuous
 62
     7
370
    35
100
AcDbLine
 10
95.26494100000002
 20
171.955162
 30
0.0
 11
95.26862900000002
 21
171.951146
 31
0.0
  0
LINE
  5
886B
330
37
100
AcDbEntity
  8
10000_FRONT
  6
Continuous
 62
     7
370
    35
100
AcDbLine
 10
95.26862900000002
 20
171.951146
 30
0.0
 11
95.27231400000003
 21
171.947125
 31
0.0
  0
LINE
  5
886C
330
37
100
AcDbEntity
  8
10000_FRONT
  6
Continuous
 62
     7
370
    35
100
AcDbLine
 10
95.27231400000003
 20
171.947125
 30
0.0
 11
95.27599499999997
 21
171.943098
 31
0.0
  0
LINE
  5
886D
330
37
100
AcDbEntity
  8
10000_FRONT
  6
Continuous
 62
     7
370
    35
100
AcDbLine
 10
95.27599499999997
 20
171.943098
 30
0.0
 11
95.279673
 21
171.939066
 31
0.0
  0
LINE
  5
886E
330
37
100
AcDbEntity
  8
10000_FRONT
  6
Continuous
 62
     7
370
    35
100
AcDbLine
 10
95.279673
 20
171.939066
 30
0.0
 11
95.28334799999996
 21
171.935028
 31
0.0
  0
LINE
  5
886F
330
37
100
AcDbEntity
  8
10000_FRONT
  6
Continuous
 62
     7
370
    35
100
AcDbLine
 10
95.28334799999996
 20
171.935028
 30
0.0
 11
95.28701899999999
 21
171.9309850000001
 31
0.0
  0
LINE
  5
8870
330
37
100
AcDbEntity
  8
10000_FRONT
  6
Continuous
 62
     7
370
    35
100
AcDbLine
 10
95.28701899999999
 20
171.9309850000001
 30
0.0
 11
95.29068700000003
 21
171.926936
 31
0.0
  0
LINE
  5
8871
330
37
100
AcDbEntity
  8
10000_FRONT
  6
Continuous
 62
     7
370
    35
100
AcDbLine
 10
95.29068700000003
 20
171.926936
 30
0.0
 11
95.29435199999998
 21
171.922882
 31
0.0
  0
LINE
  5
8872
330
37
100
AcDbEntity
  8
10000_FRONT
  6
Continuous
 62
     7
370
    35
100
AcDbLine
 10
95.29435199999998
 20
171.922882
 30
0.0
 11
95.29801300000002
 21
171.918823
 31
0.0
  0
LINE
  5
8873
330
37
100
AcDbEntity
  8
10000_FRONT
  6
Continuous
 62
     7
370
    35
100
AcDbLine
 10
95.29801300000002
 20
171.918823
 30
0.0
 11
95.30167099999998
 21
171.914758
 31
0.0
  0
LINE
  5
8874
330
37
100
AcDbEntity
  8
10000_FRONT
  6
Continuous
 62
     7
370
    35
100
AcDbLine
 10
95.30167099999998
 20
171.914758
 30
0.0
 11
95.30532500000004
 21
171.910688
 31
0.0
  0
LINE
  5
8875
330
37
100
AcDbEntity
  8
10000_FRONT
  6
Continuous
 62
     7
370
    35
100
AcDbLine
 10
95.30532500000004
 20
171.910688
 30
0.0
 11
95.30897700000002
 21
171.906612
 31
0.0
  0
LINE
  5
8876
330
37
100
AcDbEntity
  8
10000_FRONT
  6
Continuous
 62
     7
370
    35
100
AcDbLine
 10
95.30897700000002
 20
171.906612
 30
0.0
 11
95.31262400000001
 21
171.902532
 31
0.0
  0
LINE
  5
8877
330
37
100
AcDbEntity
  8
10000_FRONT
  6
Continuous
 62
     7
370
    35
100
AcDbLine
 10
95.31262400000001
 20
171.902532
 30
0.0
 11
95.31626900000004
 21
171.898445
 31
0.0
  0
LINE
  5
8878
330
37
100
AcDbEntity
  8
10000_FRONT
  6
Continuous
 62
     7
370
    35
100
AcDbLine
 10
95.31626900000004
 20
171.898445
 30
0.0
 11
95.319909
 21
171.894354
 31
0.0
  0
LINE
  5
8879
330
37
100
AcDbEntity
  8
10000_FRONT
  6
Continuous
 62
     7
370
    35
100
AcDbLine
 10
95.319909
 20
171.894354
 30
0.0
 11
95.32354699999997
 21
171.890256
 31
0.0
  0
LINE
  5
887A
330
37
100
AcDbEntity
  8
10000_FRONT
  6
Continuous
 62
     7
370
    35
100
AcDbLine
 10
95.32354699999997
 20
171.890256
 30
0.0
 11
95.32718100000002
 21
171.886154
 31
0.0
  0
LINE
  5
887B
330
37
100
AcDbEntity
  8
10000_FRONT
  6
Continuous
 62
     7
370
    35
100
AcDbLine
 10
95.32718100000002
 20
171.886154
 30
0.0
 11
95.33081200000003
 21
171.882046
 31
0.0
  0
LINE
  5
887C
330
37
100
AcDbEntity
  8
10000_FRONT
  6
Continuous
 62
     7
370
    35
100
AcDbLine
 10
95.33081200000003
 20
171.882046
 30
0.0
 11
95.33443899999998
 21
171.877933
 31
0.0
  0
LINE
  5
887D
330
37
100
AcDbEntity
  8
10000_FRONT
  6
Continuous
 62
     7
370
    35
100
AcDbLine
 10
95.33443899999998
 20
171.877933
 30
0.0
 11
95.33806300000003
 21
171.873815
 31
0.0
  0
LINE
  5
887E
330
37
100
AcDbEntity
  8
10000_FRONT
  6
Continuous
 62
     7
370
    35
100
AcDbLine
 10
95.33806300000003
 20
171.873815
 30
0.0
 11
95.34168299999995
 21
171.869691
 31
0.0
  0
LINE
  5
887F
330
37
100
AcDbEntity
  8
10000_FRONT
  6
Continuous
 62
     7
370
    35
100
AcDbLine
 10
95.34168299999995
 20
171.869691
 30
0.0
 11
95.3453
 21
171.865562
 31
0.0
  0
LINE
  5
8880
330
37
100
AcDbEntity
  8
10000_FRONT
  6
Continuous
 62
     7
370
    35
100
AcDbLine
 10
95.3453
 20
171.865562
 30
0.0
 11
95.34891400000004
 21
171.861427
 31
0.0
  0
LINE
  5
8881
330
37
100
AcDbEntity
  8
10000_FRONT
  6
Continuous
 62
     7
370
    35
100
AcDbLine
 10
95.34891400000004
 20
171.861427
 30
0.0
 11
95.35252400000002
 21
171.857287
 31
0.0
  0
LINE
  5
8882
330
37
100
AcDbEntity
  8
10000_FRONT
  6
Continuous
 62
     7
370
    35
100
AcDbLine
 10
95.35252400000002
 20
171.857287
 30
0.0
 11
95.35613000000003
 21
171.853142
 31
0.0
  0
LINE
  5
8883
330
37
100
AcDbEntity
  8
10000_FRONT
  6
Continuous
 62
     7
370
    35
100
AcDbLine
 10
95.01175699999995
 20
172.026551
 30
0.0
 11
95.020717
 21
172.026522
 31
0.0
  0
LINE
  5
8884
330
37
100
AcDbEntity
  8
10000_FRONT
  6
Continuous
 62
     7
370
    35
100
AcDbLine
 10
95.020717
 20
172.026522
 30
0.0
 11
95.029941
 21
172.026431
 31
0.0
  0
LINE
  5
8885
330
37
100
AcDbEntity
  8
10000_FRONT
  6
Continuous
 62
     7
370
    35
100
AcDbLine
 10
95.029941
 20
172.026431
 30
0.0
 11
95.03933299999998
 21
172.026275
 31
0.0
  0
LINE
  5
8886
330
37
100
AcDbEntity
  8
10000_FRONT
  6
Continuous
 62
     7
370
    35
100
AcDbLine
 10
95.03933299999998
 20
172.026275
 30
0.0
 11
95.04879199999995
 21
172.026053
 31
0.0
  0
LINE
  5
8887
330
37
100
AcDbEntity
  8
10000_FRONT
  6
Continuous
 62
     7
370
    35
100
AcDbLine
 10
95.04879199999995
 20
172.026053
 30
0.0
 11
95.05821500000001
 21
172.0257649999999
 31
0.0
  0
LINE
  5
8888
330
37
100
AcDbEntity
  8
10000_FRONT
  6
Continuous
 62
     7
370
    35
100
AcDbLine
 10
95.05821500000001
 20
172.0257649999999
 30
0.0
 11
95.06750199999997
 21
172.0254139999999
 31
0.0
  0
LINE
  5
8889
330
37
100
AcDbEntity
  8
10000_FRONT
  6
Continuous
 62
     7
370
    35
100
AcDbLine
 10
95.06750199999997
 20
172.0254139999999
 30
0.0
 11
95.07655599999997
 21
172.025007
 31
0.0
  0
LINE
  5
888A
330
37
100
AcDbEntity
  8
10000_FRONT
  6
Continuous
 62
     7
370
    35
100
AcDbLine
 10
95.07655599999997
 20
172.025007
 30
0.0
 11
95.08529000000001
 21
172.024551
 31
0.0
  0
LINE
  5
888B
330
37
100
AcDbEntity
  8
10000_FRONT
  6
Continuous
 62
     7
370
    35
100
AcDbLine
 10
95.08529000000001
 20
172.024551
 30
0.0
 11
95.09362899999997
 21
172.024056
 31
0.0
  0
LINE
  5
888C
330
37
100
AcDbEntity
  8
10000_FRONT
  6
Continuous
 62
     7
370
    35
100
AcDbLine
 10
95.09362899999997
 20
172.024056
 30
0.0
 11
95.10190299999996
 21
172.023503
 31
0.0
  0
LINE
  5
888D
330
37
100
AcDbEntity
  8
10000_FRONT
  6
Continuous
 62
     7
370
    35
100
AcDbLine
 10
95.10190299999996
 20
172.023503
 30
0.0
 11
95.11026700000002
 21
172.022879
 31
0.0
  0
LINE
  5
888E
330
37
100
AcDbEntity
  8
10000_FRONT
  6
Continuous
 62
     7
370
    35
100
AcDbLine
 10
95.11026700000002
 20
172.022879
 30
0.0
 11
95.11862299999995
 21
172.022186
 31
0.0
  0
LINE
  5
888F
330
37
100
AcDbEntity
  8
10000_FRONT
  6
Continuous
 62
     7
370
    35
100
AcDbLine
 10
95.11862299999995
 20
172.022186
 30
0.0
 11
95.126872
 21
172.021429
 31
0.0
  0
LINE
  5
8890
330
37
100
AcDbEntity
  8
10000_FRONT
  6
Continuous
 62
     7
370
    35
100
AcDbLine
 10
95.126872
 20
172.021429
 30
0.0
 11
95.13492299999995
 21
172.020614
 31
0.0
  0
LINE
  5
8891
330
37
100
AcDbEntity
  8
10000_FRONT
  6
Continuous
 62
     7
370
    35
100
AcDbLine
 10
95.13492299999995
 20
172.020614
 30
0.0
 11
95.14269199999992
 21
172.019751
 31
0.0
  0
LINE
  5
8892
330
37
100
AcDbEntity
  8
10000_FRONT
  6
Continuous
 62
     7
370
    35
100
AcDbLine
 10
95.14269199999992
 20
172.019751
 30
0.0
 11
95.150103
 21
172.018849
 31
0.0
  0
LINE
  5
8893
330
37
100
AcDbEntity
  8
10000_FRONT
  6
Continuous
 62
     7
370
    35
100
AcDbLine
 10
95.150103
 20
172.018849
 30
0.0
 11
95.15709300000002
 21
172.017922
 31
0.0
  0
LINE
  5
8894
330
37
100
AcDbEntity
  8
10000_FRONT
  6
Continuous
 62
     7
370
    35
100
AcDbLine
 10
95.15709300000002
 20
172.017922
 30
0.0
 11
95.16362600000002
 21
172.016979
 31
0.0
  0
LINE
  5
8895
330
37
100
AcDbEntity
  8
10000_FRONT
  6
Continuous
 62
     7
370
    35
100
AcDbLine
 10
95.16362600000002
 20
172.016979
 30
0.0
 11
95.16999599999996
 21
172.015981
 31
0.0
  0
LINE
  5
8896
330
37
100
AcDbEntity
  8
10000_FRONT
  6
Continuous
 62
     7
370
    35
100
AcDbLine
 10
95.16999599999996
 20
172.015981
 30
0.0
 11
95.17626899999998
 21
172.014911
 31
0.0
  0
LINE
  5
8897
330
37
100
AcDbEntity
  8
10000_FRONT
  6
Continuous
 62
     7
370
    35
100
AcDbLine
 10
95.17626899999998
 20
172.014911
 30
0.0
 11
95.18235300000004
 21
172.013778
 31
0.0
  0
LINE
  5
8898
330
37
100
AcDbEntity
  8
10000_FRONT
  6
Continuous
 62
     7
370
    35
100
AcDbLine
 10
95.18235300000004
 20
172.013778
 30
0.0
 11
95.18816700000002
 21
172.012591
 31
0.0
  0
LINE
  5
8899
330
37
100
AcDbEntity
  8
10000_FRONT
  6
Continuous
 62
     7
370
    35
100
AcDbLine
 10
95.18816700000002
 20
172.012591
 30
0.0
 11
95.19364000000001
 21
172.011364
 31
0.0
  0
LINE
  5
889A
330
37
100
AcDbEntity
  8
10000_FRONT
  6
Continuous
 62
     7
370
    35
100
AcDbLine
 10
95.19364000000001
 20
172.011364
 30
0.0
 11
95.198712
 21
172.010109
 31
0.0
  0
LINE
  5
889B
330
37
100
AcDbEntity
  8
10000_FRONT
  6
Continuous
 62
     7
370
    35
100
AcDbLine
 10
95.198712
 20
172.010109
 30
0.0
 11
95.20334100000004
 21
172.008842
 31
0.0
  0
LINE
  5
889C
330
37
100
AcDbEntity
  8
10000_FRONT
  6
Continuous
 62
     7
370
    35
100
AcDbLine
 10
95.20334100000004
 20
172.008842
 30
0.0
 11
95.20749699999996
 21
172.007578
 31
0.0
  0
LINE
  5
889D
330
37
100
AcDbEntity
  8
10000_FRONT
  6
Continuous
 62
     7
370
    35
100
AcDbLine
 10
95.20749699999996
 20
172.007578
 30
0.0
 11
95.21120200000002
 21
172.00632
 31
0.0
  0
LINE
  5
889E
330
37
100
AcDbEntity
  8
10000_FRONT
  6
Continuous
 62
     7
370
    35
100
AcDbLine
 10
95.21120200000002
 20
172.00632
 30
0.0
 11
95.21464200000002
 21
172.005005
 31
0.0
  0
LINE
  5
889F
330
37
100
AcDbEntity
  8
10000_FRONT
  6
Continuous
 62
     7
370
    35
100
AcDbLine
 10
95.21464200000002
 20
172.005005
 30
0.0
 11
95.21778500000003
 21
172.003631
 31
0.0
  0
LINE
  5
88A0
330
37
100
AcDbEntity
  8
10000_FRONT
  6
Continuous
 62
     7
370
    35
100
AcDbLine
 10
95.21778500000003
 20
172.003631
 30
0.0
 11
95.22056500000003
 21
172.002212
 31
0.0
  0
LINE
  5
88A1
330
37
100
AcDbEntity
  8
10000_FRONT
  6
Continuous
 62
     7
370
    35
100
AcDbLine
 10
95.22056500000003
 20
172.002212
 30
0.0
 11
95.22293300000002
 21
172.000764
 31
0.0
  0
LINE
  5
88A2
330
37
100
AcDbEntity
  8
10000_FRONT
  6
Continuous
 62
     7
370
    35
100
AcDbLine
 10
95.22293300000002
 20
172.000764
 30
0.0
 11
95.22485500000003
 21
171.999303
 31
0.0
  0
LINE
  5
88A3
330
37
100
AcDbEntity
  8
10000_FRONT
  6
Continuous
 62
     7
370
    35
100
AcDbLine
 10
95.22485500000003
 20
171.999303
 30
0.0
 11
95.22631500000001
 21
171.997848
 31
0.0
  0
LINE
  5
88A4
330
37
100
AcDbEntity
  8
10000_FRONT
  6
Continuous
 62
     7
370
    35
100
AcDbLine
 10
95.22631500000001
 20
171.997848
 30
0.0
 11
95.22731599999998
 21
171.996415
 31
0.0
  0
LINE
  5
88A5
330
37
100
AcDbEntity
  8
10000_FRONT
  6
Continuous
 62
     7
370
    35
100
AcDbLine
 10
95.22731599999998
 20
171.996415
 30
0.0
 11
95.22787800000003
 21
171.995022
 31
0.0
  0
LINE
  5
88A6
330
37
100
AcDbEntity
  8
10000_FRONT
  6
Continuous
 62
     7
370
    35
100
AcDbLine
 10
95.01175699999995
 20
170.579733
 30
0.0
 11
93.06092799999998
 21
170.579733
 31
0.0
  0
LINE
  5
88A7
330
37
100
AcDbEntity
  8
10000_FRONT
  6
Continuous
 62
     7
370
    35
100
AcDbLine
 10
95.22787800000003
 20
170.611262
 30
0.0
 11
95.22731599999998
 21
170.609869
 31
0.0
  0
LINE
  5
88A8
330
37
100
AcDbEntity
  8
10000_FRONT
  6
Continuous
 62
     7
370
    35
100
AcDbLine
 10
95.22731599999998
 20
170.609869
 30
0.0
 11
95.22631500000001
 21
170.608436
 31
0.0
  0
LINE
  5
88A9
330
37
100
AcDbEntity
  8
10000_FRONT
  6
Continuous
 62
     7
370
    35
100
AcDbLine
 10
95.22631500000001
 20
170.608436
 30
0.0
 11
95.22485500000003
 21
170.606981
 31
0.0
  0
LINE
  5
88AA
330
37
100
AcDbEntity
  8
10000_FRONT
  6
Continuous
 62
     7
370
    35
100
AcDbLine
 10
95.22485500000003
 20
170.606981
 30
0.0
 11
95.22293300000002
 21
170.6055199999999
 31
0.0
  0
LINE
  5
88AB
330
37
100
AcDbEntity
  8
10000_FRONT
  6
Continuous
 62
     7
370
    35
100
AcDbLine
 10
95.22293300000002
 20
170.6055199999999
 30
0.0
 11
95.22056500000003
 21
170.6040719999999
 31
0.0
  0
LINE
  5
88AC
330
37
100
AcDbEntity
  8
10000_FRONT
  6
Continuous
 62
     7
370
    35
100
AcDbLine
 10
95.22056500000003
 20
170.6040719999999
 30
0.0
 11
95.21778500000003
 21
170.602653
 31
0.0
  0
LINE
  5
88AD
330
37
100
AcDbEntity
  8
10000_FRONT
  6
Continuous
 62
     7
370
    35
100
AcDbLine
 10
95.21778500000003
 20
170.602653
 30
0.0
 11
95.21464200000002
 21
170.601279
 31
0.0
  0
LINE
  5
88AE
330
37
100
AcDbEntity
  8
10000_FRONT
  6
Continuous
 62
     7
370
    35
100
AcDbLine
 10
95.21464200000002
 20
170.601279
 30
0.0
 11
95.21120200000002
 21
170.599964
 31
0.0
  0
LINE
  5
88AF
330
37
100
AcDbEntity
  8
10000_FRONT
  6
Continuous
 62
     7
370
    35
100
AcDbLine
 10
95.21120200000002
 20
170.599964
 30
0.0
 11
95.20749699999996
 21
170.598706
 31
0.0
  0
LINE
  5
88B0
330
37
100
AcDbEntity
  8
10000_FRONT
  6
Continuous
 62
     7
370
    35
100
AcDbLine
 10
95.20749699999996
 20
170.598706
 30
0.0
 11
95.20334100000004
 21
170.597442
 31
0.0
  0
LINE
  5
88B1
330
37
100
AcDbEntity
  8
10000_FRONT
  6
Continuous
 62
     7
370
    35
100
AcDbLine
 10
95.20334100000004
 20
170.597442
 30
0.0
 11
95.198712
 21
170.596175
 31
0.0
  0
LINE
  5
88B2
330
37
100
AcDbEntity
  8
10000_FRONT
  6
Continuous
 62
     7
370
    35
100
AcDbLine
 10
95.198712
 20
170.596175
 30
0.0
 11
95.19364000000001
 21
170.59492
 31
0.0
  0
LINE
  5
88B3
330
37
100
AcDbEntity
  8
10000_FRONT
  6
Continuous
 62
     7
370
    35
100
AcDbLine
 10
95.19364000000001
 20
170.59492
 30
0.0
 11
95.18816700000002
 21
170.593693
 31
0.0
  0
LINE
  5
88B4
330
37
100
AcDbEntity
  8
10000_FRONT
  6
Continuous
 62
     7
370
    35
100
AcDbLine
 10
95.18816700000002
 20
170.593693
 30
0.0
 11
95.18235300000004
 21
170.592506
 31
0.0
  0
LINE
  5
88B5
330
37
100
AcDbEntity
  8
10000_FRONT
  6
Continuous
 62
     7
370
    35
100
AcDbLine
 10
95.18235300000004
 20
170.592506
 30
0.0
 11
95.17626899999998
 21
170.591373
 31
0.0
  0
LINE
  5
88B6
330
37
100
AcDbEntity
  8
10000_FRONT
  6
Continuous
 62
     7
370
    35
100
AcDbLine
 10
95.17626899999998
 20
170.591373
 30
0.0
 11
95.16999599999996
 21
170.590303
 31
0.0
  0
LINE
  5
88B7
330
37
100
AcDbEntity
  8
10000_FRONT
  6
Continuous
 62
     7
370
    35
100
AcDbLine
 10
95.16999599999996
 20
170.590303
 30
0.0
 11
95.16362600000002
 21
170.589305
 31
0.0
  0
LINE
  5
88B8
330
37
100
AcDbEntity
  8
10000_FRONT
  6
Continuous
 62
     7
370
    35
100
AcDbLine
 10
95.16362600000002
 20
170.589305
 30
0.0
 11
95.15709300000002
 21
170.588362
 31
0.0
  0
LINE
  5
88B9
330
37
100
AcDbEntity
  8
10000_FRONT
  6
Continuous
 62
     7
370
    35
100
AcDbLine
 10
95.15709300000002
 20
170.588362
 30
0.0
 11
95.150103
 21
170.587435
 31
0.0
  0
LINE
  5
88BA
330
37
100
AcDbEntity
  8
10000_FRONT
  6
Continuous
 62
     7
370
    35
100
AcDbLine
 10
95.150103
 20
170.587435
 30
0.0
 11
95.14269199999992
 21
170.586533
 31
0.0
  0
LINE
  5
88BB
330
37
100
AcDbEntity
  8
10000_FRONT
  6
Continuous
 62
     7
370
    35
100
AcDbLine
 10
95.14269199999992
 20
170.586533
 30
0.0
 11
95.13492299999995
 21
170.58567
 31
0.0
  0
LINE
  5
88BC
330
37
100
AcDbEntity
  8
10000_FRONT
  6
Continuous
 62
     7
370
    35
100
AcDbLine
 10
95.13492299999995
 20
170.58567
 30
0.0
 11
95.126872
 21
170.584855
 31
0.0
  0
LINE
  5
88BD
330
37
100
AcDbEntity
  8
10000_FRONT
  6
Continuous
 62
     7
370
    35
100
AcDbLine
 10
95.126872
 20
170.584855
 30
0.0
 11
95.11862299999995
 21
170.584098
 31
0.0
  0
LINE
  5
88BE
330
37
100
AcDbEntity
  8
10000_FRONT
  6
Continuous
 62
     7
370
    35
100
AcDbLine
 10
95.11862299999995
 20
170.584098
 30
0.0
 11
95.11026700000002
 21
170.583405
 31
0.0
  0
LINE
  5
88BF
330
37
100
AcDbEntity
  8
10000_FRONT
  6
Continuous
 62
     7
370
    35
100
AcDbLine
 10
95.11026700000002
 20
170.583405
 30
0.0
 11
95.10190299999996
 21
170.582781
 31
0.0
  0
LINE
  5
88C0
330
37
100
AcDbEntity
  8
10000_FRONT
  6
Continuous
 62
     7
370
    35
100
AcDbLine
 10
95.10190299999996
 20
170.582781
 30
0.0
 11
95.09362899999997
 21
170.582228
 31
0.0
  0
LINE
  5
88C1
330
37
100
AcDbEntity
  8
10000_FRONT
  6
Continuous
 62
     7
370
    35
100
AcDbLine
 10
95.09362899999997
 20
170.582228
 30
0.0
 11
95.08529000000001
 21
170.581733
 31
0.0
  0
LINE
  5
88C2
330
37
100
AcDbEntity
  8
10000_FRONT
  6
Continuous
 62
     7
370
    35
100
AcDbLine
 10
95.08529000000001
 20
170.581733
 30
0.0
 11
95.07655599999997
 21
170.581277
 31
0.0
  0
LINE
  5
88C3
330
37
100
AcDbEntity
  8
10000_FRONT
  6
Continuous
 62
     7
370
    35
100
AcDbLine
 10
95.07655599999997
 20
170.581277
 30
0.0
 11
95.06750199999997
 21
170.58087
 31
0.0
  0
LINE
  5
88C4
330
37
100
AcDbEntity
  8
10000_FRONT
  6
Continuous
 62
     7
370
    35
100
AcDbLine
 10
95.06750199999997
 20
170.58087
 30
0.0
 11
95.05821500000001
 21
170.5805189999999
 31
0.0
  0
LINE
  5
88C5
330
37
100
AcDbEntity
  8
10000_FRONT
  6
Continuous
 62
     7
370
    35
100
AcDbLine
 10
95.05821500000001
 20
170.5805189999999
 30
0.0
 11
95.04879199999995
 21
170.580231
 31
0.0
  0
LINE
  5
88C6
330
37
100
AcDbEntity
  8
10000_FRONT
  6
Continuous
 62
     7
370
    35
100
AcDbLine
 10
95.04879199999995
 20
170.580231
 30
0.0
 11
95.03933299999998
 21
170.580009
 31
0.0
  0
LINE
  5
88C7
330
37
100
AcDbEntity
  8
10000_FRONT
  6
Continuous
 62
     7
370
    35
100
AcDbLine
 10
95.03933299999998
 20
170.580009
 30
0.0
 11
95.029941
 21
170.579853
 31
0.0
  0
LINE
  5
88C8
330
37
100
AcDbEntity
  8
10000_FRONT
  6
Continuous
 62
     7
370
    35
100
AcDbLine
 10
95.029941
 20
170.579853
 30
0.0
 11
95.020717
 21
170.579762
 31
0.0
  0
LINE
  5
88C9
330
37
100
AcDbEntity
  8
10000_FRONT
  6
Continuous
 62
     7
370
    35
100
AcDbLine
 10
95.020717
 20
170.579762
 30
0.0
 11
95.01175699999995
 21
170.579733
 31
0.0
  0
LINE
  5
88CA
330
37
100
AcDbEntity
  8
10000_FRONT
  6
Continuous
 62
     7
370
    35
100
AcDbLine
 10
95.35613000000003
 20
170.753142
 30
0.0
 11
95.35252400000002
 21
170.748997
 31
0.0
  0
LINE
  5
88CB
330
37
100
AcDbEntity
  8
10000_FRONT
  6
Continuous
 62
     7
370
    35
100
AcDbLine
 10
95.35252400000002
 20
170.748997
 30
0.0
 11
95.34891400000004
 21
170.744857
 31
0.0
  0
LINE
  5
88CC
330
37
100
AcDbEntity
  8
10000_FRONT
  6
Continuous
 62
     7
370
    35
100
AcDbLine
 10
95.34891400000004
 20
170.744857
 30
0.0
 11
95.3453
 21
170.740722
 31
0.0
  0
LINE
  5
88CD
330
37
100
AcDbEntity
  8
10000_FRONT
  6
Continuous
 62
     7
370
    35
100
AcDbLine
 10
95.3453
 20
170.740722
 30
0.0
 11
95.34168299999995
 21
170.7365929999999
 31
0.0
  0
LINE
  5
88CE
330
37
100
AcDbEntity
  8
10000_FRONT
  6
Continuous
 62
     7
370
    35
100
AcDbLine
 10
95.34168299999995
 20
170.7365929999999
 30
0.0
 11
95.33806300000003
 21
170.732469
 31
0.0
  0
LINE
  5
88CF
330
37
100
AcDbEntity
  8
10000_FRONT
  6
Continuous
 62
     7
370
    35
100
AcDbLine
 10
95.33806300000003
 20
170.732469
 30
0.0
 11
95.33443899999998
 21
170.7283509999999
 31
0.0
  0
LINE
  5
88D0
330
37
100
AcDbEntity
  8
10000_FRONT
  6
Continuous
 62
     7
370
    35
100
AcDbLine
 10
95.33443899999998
 20
170.7283509999999
 30
0.0
 11
95.33081200000003
 21
170.724238
 31
0.0
  0
LINE
  5
88D1
330
37
100
AcDbEntity
  8
10000_FRONT
  6
Continuous
 62
     7
370
    35
100
AcDbLine
 10
95.33081200000003
 20
170.724238
 30
0.0
 11
95.32718100000002
 21
170.72013
 31
0.0
  0
LINE
  5
88D2
330
37
100
AcDbEntity
  8
10000_FRONT
  6
Continuous
 62
     7
370
    35
100
AcDbLine
 10
95.32718100000002
 20
170.72013
 30
0.0
 11
95.32354699999997
 21
170.716028
 31
0.0
  0
LINE
  5
88D3
330
37
100
AcDbEntity
  8
10000_FRONT
  6
Continuous
 62
     7
370
    35
100
AcDbLine
 10
95.32354699999997
 20
170.716028
 30
0.0
 11
95.319909
 21
170.71193
 31
0.0
  0
LINE
  5
88D4
330
37
100
AcDbEntity
  8
10000_FRONT
  6
Continuous
 62
     7
370
    35
100
AcDbLine
 10
95.319909
 20
170.71193
 30
0.0
 11
95.31626900000004
 21
170.7078389999999
 31
0.0
  0
LINE
  5
88D5
330
37
100
AcDbEntity
  8
10000_FRONT
  6
Continuous
 62
     7
370
    35
100
AcDbLine
 10
95.31626900000004
 20
170.7078389999999
 30
0.0
 11
95.31262400000001
 21
170.703752
 31
0.0
  0
LINE
  5
88D6
330
37
100
AcDbEntity
  8
10000_FRONT
  6
Continuous
 62
     7
370
    35
100
AcDbLine
 10
95.31262400000001
 20
170.703752
 30
0.0
 11
95.30897700000002
 21
170.6996719999999
 31
0.0
  0
LINE
  5
88D7
330
37
100
AcDbEntity
  8
10000_FRONT
  6
Continuous
 62
     7
370
    35
100
AcDbLine
 10
95.30897700000002
 20
170.6996719999999
 30
0.0
 11
95.30532500000004
 21
170.695596
 31
0.0
  0
LINE
  5
88D8
330
37
100
AcDbEntity
  8
10000_FRONT
  6
Continuous
 62
     7
370
    35
100
AcDbLine
 10
95.30532500000004
 20
170.695596
 30
0.0
 11
95.30167099999998
 21
170.691526
 31
0.0
  0
LINE
  5
88D9
330
37
100
AcDbEntity
  8
10000_FRONT
  6
Continuous
 62
     7
370
    35
100
AcDbLine
 10
95.30167099999998
 20
170.691526
 30
0.0
 11
95.29801300000002
 21
170.687461
 31
0.0
  0
LINE
  5
88DA
330
37
100
AcDbEntity
  8
10000_FRONT
  6
Continuous
 62
     7
370
    35
100
AcDbLine
 10
95.29801300000002
 20
170.687461
 30
0.0
 11
95.29435199999998
 21
170.683402
 31
0.0
  0
LINE
  5
88DB
330
37
100
AcDbEntity
  8
10000_FRONT
  6
Continuous
 62
     7
370
    35
100
AcDbLine
 10
95.29435199999998
 20
170.683402
 30
0.0
 11
95.29068700000003
 21
170.679348
 31
0.0
  0
LINE
  5
88DC
330
37
100
AcDbEntity
  8
10000_FRONT
  6
Continuous
 62
     7
370
    35
100
AcDbLine
 10
95.29068700000003
 20
170.679348
 30
0.0
 11
95.28701899999999
 21
170.675299
 31
0.0
  0
LINE
  5
88DD
330
37
100
AcDbEntity
  8
10000_FRONT
  6
Continuous
 62
     7
370
    35
100
AcDbLine
 10
95.28701899999999
 20
170.675299
 30
0.0
 11
95.28334799999996
 21
170.671256
 31
0.0
  0
LINE
  5
88DE
330
37
100
AcDbEntity
  8
10000_FRONT
  6
Continuous
 62
     7
370
    35
100
AcDbLine
 10
95.28334799999996
 20
170.671256
 30
0.0
 11
95.279673
 21
170.6672179999999
 31
0.0
  0
LINE
  5
88DF
330
37
100
AcDbEntity
  8
10000_FRONT
  6
Continuous
 62
     7
370
    35
100
AcDbLine
 10
95.279673
 20
170.6672179999999
 30
0.0
 11
95.27599499999997
 21
170.663186
 31
0.0
  0
LINE
  5
88E0
330
37
100
AcDbEntity
  8
10000_FRONT
  6
Continuous
 62
     7
370
    35
100
AcDbLine
 10
95.27599499999997
 20
170.663186
 30
0.0
 11
95.27231400000003
 21
170.659159
 31
0.0
  0
LINE
  5
88E1
330
37
100
AcDbEntity
  8
10000_FRONT
  6
Continuous
 62
     7
370
    35
100
AcDbLine
 10
95.27231400000003
 20
170.659159
 30
0.0
 11
95.26862900000002
 21
170.655138
 31
0.0
  0
LINE
  5
88E2
330
37
100
AcDbEntity
  8
10000_FRONT
  6
Continuous
 62
     7
370
    35
100
AcDbLine
 10
95.26862900000002
 20
170.655138
 30
0.0
 11
95.26494100000002
 21
170.651122
 31
0.0
  0
LINE
  5
88E3
330
37
100
AcDbEntity
  8
10000_FRONT
  6
Continuous
 62
     7
370
    35
100
AcDbLine
 10
95.26494100000002
 20
170.651122
 30
0.0
 11
95.26125000000002
 21
170.647111
 31
0.0
  0
LINE
  5
88E4
330
37
100
AcDbEntity
  8
10000_FRONT
  6
Continuous
 62
     7
370
    35
100
AcDbLine
 10
95.26125000000002
 20
170.647111
 30
0.0
 11
95.25755500000002
 21
170.643106
 31
0.0
  0
LINE
  5
88E5
330
37
100
AcDbEntity
  8
10000_FRONT
  6
Continuous
 62
     7
370
    35
100
AcDbLine
 10
95.25755500000002
 20
170.643106
 30
0.0
 11
95.25385700000006
 21
170.639107
 31
0.0
  0
LINE
  5
88E6
330
37
100
AcDbEntity
  8
10000_FRONT
  6
Continuous
 62
     7
370
    35
100
AcDbLine
 10
95.25385700000006
 20
170.639107
 30
0.0
 11
95.25015600000001
 21
170.635112
 31
0.0
  0
LINE
  5
88E7
330
37
100
AcDbEntity
  8
10000_FRONT
  6
Continuous
 62
     7
370
    35
100
AcDbLine
 10
95.25015600000001
 20
170.635112
 30
0.0
 11
95.24645099999998
 21
170.631124
 31
0.0
  0
LINE
  5
88E8
330
37
100
AcDbEntity
  8
10000_FRONT
  6
Continuous
 62
     7
370
    35
100
AcDbLine
 10
95.24645099999998
 20
170.631124
 30
0.0
 11
95.242743
 21
170.627141
 31
0.0
  0
LINE
  5
88E9
330
37
100
AcDbEntity
  8
10000_FRONT
  6
Continuous
 62
     7
370
    35
100
AcDbLine
 10
95.242743
 20
170.627141
 30
0.0
 11
95.23903200000004
 21
170.6231629999999
 31
0.0
  0
LINE
  5
88EA
330
37
100
AcDbEntity
  8
10000_FRONT
  6
Continuous
 62
     7
370
    35
100
AcDbLine
 10
95.23903200000004
 20
170.6231629999999
 30
0.0
 11
95.2353169999999
 21
170.619191
 31
0.0
  0
LINE
  5
88EB
330
37
100
AcDbEntity
  8
10000_FRONT
  6
Continuous
 62
     7
370
    35
100
AcDbLine
 10
95.2353169999999
 20
170.619191
 30
0.0
 11
95.23159899999994
 21
170.615224
 31
0.0
  0
LINE
  5
88EC
330
37
100
AcDbEntity
  8
10000_FRONT
  6
Continuous
 62
     7
370
    35
100
AcDbLine
 10
95.23159899999994
 20
170.615224
 30
0.0
 11
95.22787800000003
 21
170.611262
 31
0.0
  0
LINE
  5
88ED
330
37
100
AcDbEntity
  8
10000_FRONT
  6
Continuous
 62
     7
370
    35
100
AcDbLine
 10
90.08009900000002
 20
170.579733
 30
0.0
 11
90.07113900000002
 21
170.579762
 31
0.0
  0
LINE
  5
88EE
330
37
100
AcDbEntity
  8
10000_FRONT
  6
Continuous
 62
     7
370
    35
100
AcDbLine
 10
90.07113900000002
 20
170.579762
 30
0.0
 11
90.06191499999998
 21
170.579853
 31
0.0
  0
LINE
  5
88EF
330
37
100
AcDbEntity
  8
10000_FRONT
  6
Continuous
 62
     7
370
    35
100
AcDbLine
 10
90.06191499999998
 20
170.579853
 30
0.0
 11
90.05252300000002
 21
170.580009
 31
0.0
  0
LINE
  5
88F0
330
37
100
AcDbEntity
  8
10000_FRONT
  6
Continuous
 62
     7
370
    35
100
AcDbLine
 10
90.05252300000002
 20
170.580009
 30
0.0
 11
90.04306400000002
 21
170.580231
 31
0.0
  0
LINE
  5
88F1
330
37
100
AcDbEntity
  8
10000_FRONT
  6
Continuous
 62
     7
370
    35
100
AcDbLine
 10
90.04306400000002
 20
170.580231
 30
0.0
 11
90.03364099999997
 21
170.5805189999999
 31
0.0
  0
LINE
  5
88F2
330
37
100
AcDbEntity
  8
10000_FRONT
  6
Continuous
 62
     7
370
    35
100
AcDbLine
 10
90.03364099999997
 20
170.5805189999999
 30
0.0
 11
90.02435400000001
 21
170.58087
 31
0.0
  0
LINE
  5
88F3
330
37
100
AcDbEntity
  8
10000_FRONT
  6
Continuous
 62
     7
370
    35
100
AcDbLine
 10
90.02435400000001
 20
170.58087
 30
0.0
 11
90.01530000000002
 21
170.581277
 31
0.0
  0
LINE
  5
88F4
330
37
100
AcDbEntity
  8
10000_FRONT
  6
Continuous
 62
     7
370
    35
100
AcDbLine
 10
90.01530000000002
 20
170.581277
 30
0.0
 11
90.00656600000002
 21
170.581733
 31
0.0
  0
LINE
  5
88F5
330
37
100
AcDbEntity
  8
10000_FRONT
  6
Continuous
 62
     7
370
    35
100
AcDbLine
 10
90.00656600000002
 20
170.581733
 30
0.0
 11
89.99822699999999
 21
170.582228
 31
0.0
  0
LINE
  5
88F6
330
37
100
AcDbEntity
  8
10000_FRONT
  6
Continuous
 62
     7
370
    35
100
AcDbLine
 10
89.99822699999999
 20
170.582228
 30
0.0
 11
89.98995300000002
 21
170.582781
 31
0.0
  0
LINE
  5
88F7
330
37
100
AcDbEntity
  8
10000_FRONT
  6
Continuous
 62
     7
370
    35
100
AcDbLine
 10
89.98995300000002
 20
170.582781
 30
0.0
 11
89.98158899999998
 21
170.583405
 31
0.0
  0
LINE
  5
88F8
330
37
100
AcDbEntity
  8
10000_FRONT
  6
Continuous
 62
     7
370
    35
100
AcDbLine
 10
89.98158899999998
 20
170.583405
 30
0.0
 11
89.97323299999996
 21
170.584098
 31
0.0
  0
LINE
  5
88F9
330
37
100
AcDbEntity
  8
10000_FRONT
  6
Continuous
 62
     7
370
    35
100
AcDbLine
 10
89.97323299999996
 20
170.584098
 30
0.0
 11
89.96498400000001
 21
170.584855
 31
0.0
  0
LINE
  5
88FA
330
37
100
AcDbEntity
  8
10000_FRONT
  6
Continuous
 62
     7
370
    35
100
AcDbLine
 10
89.96498400000001
 20
170.584855
 30
0.0
 11
89.95693299999997
 21
170.58567
 31
0.0
  0
LINE
  5
88FB
330
37
100
AcDbEntity
  8
10000_FRONT
  6
Continuous
 62
     7
370
    35
100
AcDbLine
 10
89.95693299999997
 20
170.58567
 30
0.0
 11
89.94916399999999
 21
170.586533
 31
0.0
  0
LINE
  5
88FC
330
37
100
AcDbEntity
  8
10000_FRONT
  6
Continuous
 62
     7
370
    35
100
AcDbLine
 10
89.94916399999999
 20
170.586533
 30
0.0
 11
89.94175300000001
 21
170.587435
 31
0.0
  0
LINE
  5
88FD
330
37
100
AcDbEntity
  8
10000_FRONT
  6
Continuous
 62
     7
370
    35
100
AcDbLine
 10
89.94175300000001
 20
170.587435
 30
0.0
 11
89.93476300000002
 21
170.588362
 31
0.0
  0
LINE
  5
88FE
330
37
100
AcDbEntity
  8
10000_FRONT
  6
Continuous
 62
     7
370
    35
100
AcDbLine
 10
89.93476300000002
 20
170.588362
 30
0.0
 11
89.92822999999999
 21
170.589305
 31
0.0
  0
LINE
  5
88FF
330
37
100
AcDbEntity
  8
10000_FRONT
  6
Continuous
 62
     7
370
    35
100
AcDbLine
 10
89.92822999999999
 20
170.589305
 30
0.0
 11
89.92186000000002
 21
170.590303
 31
0.0
  0
LINE
  5
8900
330
37
100
AcDbEntity
  8
10000_FRONT
  6
Continuous
 62
     7
370
    35
100
AcDbLine
 10
92.03092800000002
 20
170.579733
 30
0.0
 11
90.08009900000002
 21
170.579733
 31
0.0
  0
LINE
  5
8901
330
37
100
AcDbEntity
  8
10000_FRONT
  6
Continuous
 62
     7
370
    35
100
AcDbLine
 10
89.92186000000002
 20
172.015981
 30
0.0
 11
89.92822999999999
 21
172.016979
 31
0.0
  0
LINE
  5
8902
330
37
100
AcDbEntity
  8
10000_FRONT
  6
Continuous
 62
     7
370
    35
100
AcDbLine
 10
89.92822999999999
 20
172.016979
 30
0.0
 11
89.93476300000002
 21
172.017922
 31
0.0
  0
LINE
  5
8903
330
37
100
AcDbEntity
  8
10000_FRONT
  6
Continuous
 62
     7
370
    35
100
AcDbLine
 10
89.93476300000002
 20
172.017922
 30
0.0
 11
89.94175300000001
 21
172.018849
 31
0.0
  0
LINE
  5
8904
330
37
100
AcDbEntity
  8
10000_FRONT
  6
Continuous
 62
     7
370
    35
100
AcDbLine
 10
89.94175300000001
 20
172.018849
 30
0.0
 11
89.94916399999999
 21
172.019751
 31
0.0
  0
LINE
  5
8905
330
37
100
AcDbEntity
  8
10000_FRONT
  6
Continuous
 62
     7
370
    35
100
AcDbLine
 10
89.94916399999999
 20
172.019751
 30
0.0
 11
89.95693299999997
 21
172.020614
 31
0.0
  0
LINE
  5
8906
330
37
100
AcDbEntity
  8
10000_FRONT
  6
Continuous
 62
     7
370
    35
100
AcDbLine
 10
89.95693299999997
 20
172.020614
 30
0.0
 11
89.96498400000001
 21
172.021429
 31
0.0
  0
LINE
  5
8907
330
37
100
AcDbEntity
  8
10000_FRONT
  6
Continuous
 62
     7
370
    35
100
AcDbLine
 10
89.96498400000001
 20
172.021429
 30
0.0
 11
89.97323299999996
 21
172.022186
 31
0.0
  0
LINE
  5
8908
330
37
100
AcDbEntity
  8
10000_FRONT
  6
Continuous
 62
     7
370
    35
100
AcDbLine
 10
89.97323299999996
 20
172.022186
 30
0.0
 11
89.98158899999998
 21
172.022879
 31
0.0
  0
LINE
  5
8909
330
37
100
AcDbEntity
  8
10000_FRONT
  6
Continuous
 62
     7
370
    35
100
AcDbLine
 10
89.98158899999998
 20
172.022879
 30
0.0
 11
89.98995300000002
 21
172.023503
 31
0.0
  0
LINE
  5
890A
330
37
100
AcDbEntity
  8
10000_FRONT
  6
Continuous
 62
     7
370
    35
100
AcDbLine
 10
89.98995300000002
 20
172.023503
 30
0.0
 11
89.99822699999999
 21
172.024056
 31
0.0
  0
LINE
  5
890B
330
37
100
AcDbEntity
  8
10000_FRONT
  6
Continuous
 62
     7
370
    35
100
AcDbLine
 10
89.99822699999999
 20
172.024056
 30
0.0
 11
90.00656600000002
 21
172.024551
 31
0.0
  0
LINE
  5
890C
330
37
100
AcDbEntity
  8
10000_FRONT
  6
Continuous
 62
     7
370
    35
100
AcDbLine
 10
90.00656600000002
 20
172.024551
 30
0.0
 11
90.01530000000002
 21
172.025007
 31
0.0
  0
LINE
  5
890D
330
37
100
AcDbEntity
  8
10000_FRONT
  6
Continuous
 62
     7
370
    35
100
AcDbLine
 10
90.01530000000002
 20
172.025007
 30
0.0
 11
90.02435400000001
 21
172.0254139999999
 31
0.0
  0
LINE
  5
890E
330
37
100
AcDbEntity
  8
10000_FRONT
  6
Continuous
 62
     7
370
    35
100
AcDbLine
 10
90.02435400000001
 20
172.0254139999999
 30
0.0
 11
90.03364099999997
 21
172.0257649999999
 31
0.0
  0
LINE
  5
890F
330
37
100
AcDbEntity
  8
10000_FRONT
  6
Continuous
 62
     7
370
    35
100
AcDbLine
 10
90.03364099999997
 20
172.0257649999999
 30
0.0
 11
90.04306400000002
 21
172.026053
 31
0.0
  0
LINE
  5
8910
330
37
100
AcDbEntity
  8
10000_FRONT
  6
Continuous
 62
     7
370
    35
100
AcDbLine
 10
90.04306400000002
 20
172.026053
 30
0.0
 11
90.05252300000002
 21
172.026275
 31
0.0
  0
LINE
  5
8911
330
37
100
AcDbEntity
  8
10000_FRONT
  6
Continuous
 62
     7
370
    35
100
AcDbLine
 10
90.05252300000002
 20
172.026275
 30
0.0
 11
90.06191499999998
 21
172.026431
 31
0.0
  0
LINE
  5
8912
330
37
100
AcDbEntity
  8
10000_FRONT
  6
Continuous
 62
     7
370
    35
100
AcDbLine
 10
90.06191499999998
 20
172.026431
 30
0.0
 11
90.07113900000002
 21
172.026522
 31
0.0
  0
LINE
  5
8913
330
37
100
AcDbEntity
  8
10000_FRONT
  6
Continuous
 62
     7
370
    35
100
AcDbLine
 10
90.07113900000002
 20
172.026522
 30
0.0
 11
90.08009900000002
 21
172.026551
 31
0.0
  0
ARC
  5
8914
330
37
100
AcDbEntity
  8
10000_FRONT
  6
Continuous
 62
     7
370
    35
100
AcDbCircle
 10
92.54592800000002
 20
171.303142
 30
0.0
 40
2.863518
100
AcDbArc
 50
348.9263059999998
 51
11.07369400000023
  0
ARC
  5
8915
330
37
100
AcDbEntity
  8
10000_FRONT
  6
Continuous
 62
     7
370
    35
100
AcDbCircle
 10
92.54592800000002
 20
171.303142
 30
0.0
 40
2.769756999999998
100
AcDbArc
 50
194.4655559999996
 51
345.5344440000004
  0
ARC
  5
8916
330
37
100
AcDbEntity
  8
10000_FRONT
  6
Continuous
 62
     7
370
    35
100
AcDbCircle
 10
92.54592800000002
 20
171.303142
 30
0.0
 40
2.769756999999998
100
AcDbArc
 50
14.46555599999959
 51
165.5344440000004
  0
ARC
  5
8917
330
37
100
AcDbEntity
  8
10000_FRONT
  6
Continuous
 62
     7
370
    35
100
AcDbCircle
 10
92.54592800000002
 20
171.303142
 30
0.0
 40
2.863518
100
AcDbArc
 50
168.9263059999998
 51
191.0736940000001
  0
LINE
  5
8918
330
37
100
AcDbEntity
  8
10000_FRONT
  6
Continuous
 62
     7
370
    35
100
AcDbLine
 10
89.86397799999997
 20
170.611262
 30
0.0
 11
89.86025699999997
 21
170.615224
 31
0.0
  0
LINE
  5
8919
330
37
100
AcDbEntity
  8
10000_FRONT
  6
Continuous
 62
     7
370
    35
100
AcDbLine
 10
89.86025699999997
 20
170.615224
 30
0.0
 11
89.85653899999999
 21
170.619191
 31
0.0
  0
LINE
  5
891A
330
37
100
AcDbEntity
  8
10000_FRONT
  6
Continuous
 62
     7
370
    35
100
AcDbLine
 10
89.85653899999999
 20
170.619191
 30
0.0
 11
89.852824
 21
170.6231629999999
 31
0.0
  0
LINE
  5
891B
330
37
100
AcDbEntity
  8
10000_FRONT
  6
Continuous
 62
     7
370
    35
100
AcDbLine
 10
89.852824
 20
170.6231629999999
 30
0.0
 11
89.84911299999998
 21
170.627141
 31
0.0
  0
LINE
  5
891C
330
37
100
AcDbEntity
  8
10000_FRONT
  6
Continuous
 62
     7
370
    35
100
AcDbLine
 10
89.84911299999998
 20
170.627141
 30
0.0
 11
89.84540500000004
 21
170.631124
 31
0.0
  0
LINE
  5
891D
330
37
100
AcDbEntity
  8
10000_FRONT
  6
Continuous
 62
     7
370
    35
100
AcDbLine
 10
89.84540500000004
 20
170.631124
 30
0.0
 11
89.8417
 21
170.635112
 31
0.0
  0
LINE
  5
891E
330
37
100
AcDbEntity
  8
10000_FRONT
  6
Continuous
 62
     7
370
    35
100
AcDbLine
 10
89.8417
 20
170.635112
 30
0.0
 11
89.83799899999997
 21
170.639107
 31
0.0
  0
LINE
  5
891F
330
37
100
AcDbEntity
  8
10000_FRONT
  6
Continuous
 62
     7
370
    35
100
AcDbLine
 10
89.83799899999997
 20
170.639107
 30
0.0
 11
89.83430099999997
 21
170.643106
 31
0.0
  0
LINE
  5
8920
330
37
100
AcDbEntity
  8
10000_FRONT
  6
Continuous
 62
     7
370
    35
100
AcDbLine
 10
89.83430099999997
 20
170.643106
 30
0.0
 11
89.83060599999998
 21
170.647111
 31
0.0
  0
LINE
  5
8921
330
37
100
AcDbEntity
  8
10000_FRONT
  6
Continuous
 62
     7
370
    35
100
AcDbLine
 10
89.83060599999998
 20
170.647111
 30
0.0
 11
89.82691499999999
 21
170.651122
 31
0.0
  0
LINE
  5
8922
330
37
100
AcDbEntity
  8
10000_FRONT
  6
Continuous
 62
     7
370
    35
100
AcDbLine
 10
89.82691499999999
 20
170.651122
 30
0.0
 11
89.82322699999995
 21
170.655138
 31
0.0
  0
LINE
  5
8923
330
37
100
AcDbEntity
  8
10000_FRONT
  6
Continuous
 62
     7
370
    35
100
AcDbLine
 10
89.82322699999995
 20
170.655138
 30
0.0
 11
89.81954200000002
 21
170.659159
 31
0.0
  0
LINE
  5
8924
330
37
100
AcDbEntity
  8
10000_FRONT
  6
Continuous
 62
     7
370
    35
100
AcDbLine
 10
89.81954200000002
 20
170.659159
 30
0.0
 11
89.81586100000004
 21
170.663186
 31
0.0
  0
LINE
  5
8925
330
37
100
AcDbEntity
  8
10000_FRONT
  6
Continuous
 62
     7
370
    35
100
AcDbLine
 10
89.81586100000004
 20
170.663186
 30
0.0
 11
89.812183
 21
170.6672179999999
 31
0.0
  0
LINE
  5
8926
330
37
100
AcDbEntity
  8
10000_FRONT
  6
Continuous
 62
     7
370
    35
100
AcDbLine
 10
89.812183
 20
170.6672179999999
 30
0.0
 11
89.80850800000002
 21
170.671256
 31
0.0
  0
LINE
  5
8927
330
37
100
AcDbEntity
  8
10000_FRONT
  6
Continuous
 62
     7
370
    35
100
AcDbLine
 10
89.80850800000002
 20
170.671256
 30
0.0
 11
89.80483700000002
 21
170.675299
 31
0.0
  0
LINE
  5
8928
330
37
100
AcDbEntity
  8
10000_FRONT
  6
Continuous
 62
     7
370
    35
100
AcDbLine
 10
89.80483700000002
 20
170.675299
 30
0.0
 11
89.80116900000002
 21
170.679348
 31
0.0
  0
LINE
  5
8929
330
37
100
AcDbEntity
  8
10000_FRONT
  6
Continuous
 62
     7
370
    35
100
AcDbLine
 10
89.80116900000002
 20
170.679348
 30
0.0
 11
89.797504
 21
170.683402
 31
0.0
  0
LINE
  5
892A
330
37
100
AcDbEntity
  8
10000_FRONT
  6
Continuous
 62
     7
370
    35
100
AcDbLine
 10
89.797504
 20
170.683402
 30
0.0
 11
89.79384299999997
 21
170.687461
 31
0.0
  0
LINE
  5
892B
330
37
100
AcDbEntity
  8
10000_FRONT
  6
Continuous
 62
     7
370
    35
100
AcDbLine
 10
89.79384299999997
 20
170.687461
 30
0.0
 11
89.79018500000002
 21
170.691526
 31
0.0
  0
LINE
  5
892C
330
37
100
AcDbEntity
  8
10000_FRONT
  6
Continuous
 62
     7
370
    35
100
AcDbLine
 10
89.79018500000002
 20
170.691526
 30
0.0
 11
89.78653100000002
 21
170.695596
 31
0.0
  0
LINE
  5
892D
330
37
100
AcDbEntity
  8
10000_FRONT
  6
Continuous
 62
     7
370
    35
100
AcDbLine
 10
89.78653100000002
 20
170.695596
 30
0.0
 11
89.78287899999996
 21
170.6996719999999
 31
0.0
  0
LINE
  5
892E
330
37
100
AcDbEntity
  8
10000_FRONT
  6
Continuous
 62
     7
370
    35
100
AcDbLine
 10
89.78287899999996
 20
170.6996719999999
 30
0.0
 11
89.77923199999997
 21
170.703752
 31
0.0
  0
LINE
  5
892F
330
37
100
AcDbEntity
  8
10000_FRONT
  6
Continuous
 62
     7
370
    35
100
AcDbLine
 10
89.77923199999997
 20
170.703752
 30
0.0
 11
89.77558700000004
 21
170.7078389999999
 31
0.0
  0
LINE
  5
8930
330
37
100
AcDbEntity
  8
10000_FRONT
  6
Continuous
 62
     7
370
    35
100
AcDbLine
 10
89.77558700000004
 20
170.7078389999999
 30
0.0
 11
89.77194700000003
 21
170.71193
 31
0.0
  0
LINE
  5
8931
330
37
100
AcDbEntity
  8
10000_FRONT
  6
Continuous
 62
     7
370
    35
100
AcDbLine
 10
89.77194700000003
 20
170.71193
 30
0.0
 11
89.76830899999999
 21
170.716028
 31
0.0
  0
LINE
  5
8932
330
37
100
AcDbEntity
  8
10000_FRONT
  6
Continuous
 62
     7
370
    35
100
AcDbLine
 10
89.76830899999999
 20
170.716028
 30
0.0
 11
89.76467500000003
 21
170.72013
 31
0.0
  0
LINE
  5
8933
330
37
100
AcDbEntity
  8
10000_FRONT
  6
Continuous
 62
     7
370
    35
100
AcDbLine
 10
89.76467500000003
 20
170.72013
 30
0.0
 11
89.76104399999995
 21
170.724238
 31
0.0
  0
LINE
  5
8934
330
37
100
AcDbEntity
  8
10000_FRONT
  6
Continuous
 62
     7
370
    35
100
AcDbLine
 10
89.76104399999995
 20
170.724238
 30
0.0
 11
89.75741699999998
 21
170.7283509999999
 31
0.0
  0
LINE
  5
8935
330
37
100
AcDbEntity
  8
10000_FRONT
  6
Continuous
 62
     7
370
    35
100
AcDbLine
 10
89.75741699999998
 20
170.7283509999999
 30
0.0
 11
89.75379299999998
 21
170.732469
 31
0.0
  0
LINE
  5
8936
330
37
100
AcDbEntity
  8
10000_FRONT
  6
Continuous
 62
     7
370
    35
100
AcDbLine
 10
89.75379299999998
 20
170.732469
 30
0.0
 11
89.75017300000002
 21
170.7365929999999
 31
0.0
  0
LINE
  5
8937
330
37
100
AcDbEntity
  8
10000_FRONT
  6
Continuous
 62
     7
370
    35
100
AcDbLine
 10
89.75017300000002
 20
170.7365929999999
 30
0.0
 11
89.74655600000001
 21
170.740722
 31
0.0
  0
LINE
  5
8938
330
37
100
AcDbEntity
  8
10000_FRONT
  6
Continuous
 62
     7
370
    35
100
AcDbLine
 10
89.74655600000001
 20
170.740722
 30
0.0
 11
89.74294199999995
 21
170.744857
 31
0.0
  0
LINE
  5
8939
330
37
100
AcDbEntity
  8
10000_FRONT
  6
Continuous
 62
     7
370
    35
100
AcDbLine
 10
89.74294199999995
 20
170.744857
 30
0.0
 11
89.73933199999995
 21
170.748997
 31
0.0
  0
LINE
  5
893A
330
37
100
AcDbEntity
  8
10000_FRONT
  6
Continuous
 62
     7
370
    35
100
AcDbLine
 10
89.73933199999995
 20
170.748997
 30
0.0
 11
89.735726
 21
170.753142
 31
0.0
  0
LINE
  5
893B
330
37
100
AcDbEntity
  8
10000_FRONT
  6
Continuous
 62
     7
370
    35
100
AcDbLine
 10
90.08009900000002
 20
170.579733
 30
0.0
 11
90.07113900000002
 21
170.579762
 31
0.0
  0
LINE
  5
893C
330
37
100
AcDbEntity
  8
10000_FRONT
  6
Continuous
 62
     7
370
    35
100
AcDbLine
 10
90.07113900000002
 20
170.579762
 30
0.0
 11
90.06191499999998
 21
170.579853
 31
0.0
  0
LINE
  5
893D
330
37
100
AcDbEntity
  8
10000_FRONT
  6
Continuous
 62
     7
370
    35
100
AcDbLine
 10
90.06191499999998
 20
170.579853
 30
0.0
 11
90.05252300000002
 21
170.580009
 31
0.0
  0
LINE
  5
893E
330
37
100
AcDbEntity
  8
10000_FRONT
  6
Continuous
 62
     7
370
    35
100
AcDbLine
 10
90.05252300000002
 20
170.580009
 30
0.0
 11
90.04306400000002
 21
170.580231
 31
0.0
  0
LINE
  5
893F
330
37
100
AcDbEntity
  8
10000_FRONT
  6
Continuous
 62
     7
370
    35
100
AcDbLine
 10
90.04306400000002
 20
170.580231
 30
0.0
 11
90.03364099999997
 21
170.5805189999999
 31
0.0
  0
LINE
  5
8940
330
37
100
AcDbEntity
  8
10000_FRONT
  6
Continuous
 62
     7
370
    35
100
AcDbLine
 10
90.03364099999997
 20
170.5805189999999
 30
0.0
 11
90.02435400000001
 21
170.58087
 31
0.0
  0
LINE
  5
8941
330
37
100
AcDbEntity
  8
10000_FRONT
  6
Continuous
 62
     7
370
    35
100
AcDbLine
 10
90.02435400000001
 20
170.58087
 30
0.0
 11
90.01530000000002
 21
170.581277
 31
0.0
  0
LINE
  5
8942
330
37
100
AcDbEntity
  8
10000_FRONT
  6
Continuous
 62
     7
370
    35
100
AcDbLine
 10
90.01530000000002
 20
170.581277
 30
0.0
 11
90.00656600000002
 21
170.581733
 31
0.0
  0
LINE
  5
8943
330
37
100
AcDbEntity
  8
10000_FRONT
  6
Continuous
 62
     7
370
    35
100
AcDbLine
 10
90.00656600000002
 20
170.581733
 30
0.0
 11
89.99822699999999
 21
170.582228
 31
0.0
  0
LINE
  5
8944
330
37
100
AcDbEntity
  8
10000_FRONT
  6
Continuous
 62
     7
370
    35
100
AcDbLine
 10
89.99822699999999
 20
170.582228
 30
0.0
 11
89.98995300000002
 21
170.582781
 31
0.0
  0
LINE
  5
8945
330
37
100
AcDbEntity
  8
10000_FRONT
  6
Continuous
 62
     7
370
    35
100
AcDbLine
 10
89.98995300000002
 20
170.582781
 30
0.0
 11
89.98158899999998
 21
170.583405
 31
0.0
  0
LINE
  5
8946
330
37
100
AcDbEntity
  8
10000_FRONT
  6
Continuous
 62
     7
370
    35
100
AcDbLine
 10
89.98158899999998
 20
170.583405
 30
0.0
 11
89.97323299999996
 21
170.584098
 31
0.0
  0
LINE
  5
8947
330
37
100
AcDbEntity
  8
10000_FRONT
  6
Continuous
 62
     7
370
    35
100
AcDbLine
 10
89.97323299999996
 20
170.584098
 30
0.0
 11
89.96498400000001
 21
170.584855
 31
0.0
  0
LINE
  5
8948
330
37
100
AcDbEntity
  8
10000_FRONT
  6
Continuous
 62
     7
370
    35
100
AcDbLine
 10
89.96498400000001
 20
170.584855
 30
0.0
 11
89.95693299999997
 21
170.58567
 31
0.0
  0
LINE
  5
8949
330
37
100
AcDbEntity
  8
10000_FRONT
  6
Continuous
 62
     7
370
    35
100
AcDbLine
 10
89.95693299999997
 20
170.58567
 30
0.0
 11
89.94916399999999
 21
170.586533
 31
0.0
  0
LINE
  5
894A
330
37
100
AcDbEntity
  8
10000_FRONT
  6
Continuous
 62
     7
370
    35
100
AcDbLine
 10
89.94916399999999
 20
170.586533
 30
0.0
 11
89.94175300000001
 21
170.587435
 31
0.0
  0
LINE
  5
894B
330
37
100
AcDbEntity
  8
10000_FRONT
  6
Continuous
 62
     7
370
    35
100
AcDbLine
 10
89.94175300000001
 20
170.587435
 30
0.0
 11
89.93476300000002
 21
170.588362
 31
0.0
  0
LINE
  5
894C
330
37
100
AcDbEntity
  8
10000_FRONT
  6
Continuous
 62
     7
370
    35
100
AcDbLine
 10
89.93476300000002
 20
170.588362
 30
0.0
 11
89.92822999999999
 21
170.589305
 31
0.0
  0
LINE
  5
894D
330
37
100
AcDbEntity
  8
10000_FRONT
  6
Continuous
 62
     7
370
    35
100
AcDbLine
 10
89.92822999999999
 20
170.589305
 30
0.0
 11
89.92186000000002
 21
170.590303
 31
0.0
  0
LINE
  5
894E
330
37
100
AcDbEntity
  8
10000_FRONT
  6
Continuous
 62
     7
370
    35
100
AcDbLine
 10
89.92186000000002
 20
170.590303
 30
0.0
 11
89.91558700000002
 21
170.591373
 31
0.0
  0
LINE
  5
894F
330
37
100
AcDbEntity
  8
10000_FRONT
  6
Continuous
 62
     7
370
    35
100
AcDbLine
 10
89.91558700000002
 20
170.591373
 30
0.0
 11
89.90950299999996
 21
170.592506
 31
0.0
  0
LINE
  5
8950
330
37
100
AcDbEntity
  8
10000_FRONT
  6
Continuous
 62
     7
370
    35
100
AcDbLine
 10
89.90950299999996
 20
170.592506
 30
0.0
 11
89.90368899999998
 21
170.593693
 31
0.0
  0
LINE
  5
8951
330
37
100
AcDbEntity
  8
10000_FRONT
  6
Continuous
 62
     7
370
    35
100
AcDbLine
 10
89.90368899999998
 20
170.593693
 30
0.0
 11
89.89821599999997
 21
170.59492
 31
0.0
  0
LINE
  5
8952
330
37
100
AcDbEntity
  8
10000_FRONT
  6
Continuous
 62
     7
370
    35
100
AcDbLine
 10
89.89821599999997
 20
170.59492
 30
0.0
 11
89.89314400000003
 21
170.596175
 31
0.0
  0
LINE
  5
8953
330
37
100
AcDbEntity
  8
10000_FRONT
  6
Continuous
 62
     7
370
    35
100
AcDbLine
 10
89.89314400000003
 20
170.596175
 30
0.0
 11
89.88851499999999
 21
170.597442
 31
0.0
  0
LINE
  5
8954
330
37
100
AcDbEntity
  8
10000_FRONT
  6
Continuous
 62
     7
370
    35
100
AcDbLine
 10
89.88851499999999
 20
170.597442
 30
0.0
 11
89.88435900000002
 21
170.598706
 31
0.0
  0
LINE
  5
8955
330
37
100
AcDbEntity
  8
10000_FRONT
  6
Continuous
 62
     7
370
    35
100
AcDbLine
 10
89.88435900000002
 20
170.598706
 30
0.0
 11
89.88065399999998
 21
170.599964
 31
0.0
  0
LINE
  5
8956
330
37
100
AcDbEntity
  8
10000_FRONT
  6
Continuous
 62
     7
370
    35
100
AcDbLine
 10
89.88065399999998
 20
170.599964
 30
0.0
 11
89.87721399999998
 21
170.601279
 31
0.0
  0
LINE
  5
8957
330
37
100
AcDbEntity
  8
10000_FRONT
  6
Continuous
 62
     7
370
    35
100
AcDbLine
 10
89.87721399999998
 20
170.601279
 30
0.0
 11
89.87407100000002
 21
170.602653
 31
0.0
  0
LINE
  5
8958
330
37
100
AcDbEntity
  8
10000_FRONT
  6
Continuous
 62
     7
370
    35
100
AcDbLine
 10
89.87407100000002
 20
170.602653
 30
0.0
 11
89.87129099999998
 21
170.6040719999999
 31
0.0
  0
LINE
  5
8959
330
37
100
AcDbEntity
  8
10000_FRONT
  6
Continuous
 62
     7
370
    35
100
AcDbLine
 10
89.87129099999998
 20
170.6040719999999
 30
0.0
 11
89.86892299999999
 21
170.6055199999999
 31
0.0
  0
LINE
  5
895A
330
37
100
AcDbEntity
  8
10000_FRONT
  6
Continuous
 62
     7
370
    35
100
AcDbLine
 10
89.86892299999999
 20
170.6055199999999
 30
0.0
 11
89.86700100000001
 21
170.606981
 31
0.0
  0
LINE
  5
895B
330
37
100
AcDbEntity
  8
10000_FRONT
  6
Continuous
 62
     7
370
    35
100
AcDbLine
 10
89.86700100000001
 20
170.606981
 30
0.0
 11
89.86554100000002
 21
170.608436
 31
0.0
  0
LINE
  5
895C
330
37
100
AcDbEntity
  8
10000_FRONT
  6
Continuous
 62
     7
370
    35
100
AcDbLine
 10
89.86554100000002
 20
170.608436
 30
0.0
 11
89.86454000000003
 21
170.609869
 31
0.0
  0
LINE
  5
895D
330
37
100
AcDbEntity
  8
10000_FRONT
  6
Continuous
 62
     7
370
    35
100
AcDbLine
 10
89.86454000000003
 20
170.609869
 30
0.0
 11
89.86397799999997
 21
170.611262
 31
0.0
  0
LINE
  5
895E
330
37
100
AcDbEntity
  8
10000_FRONT
  6
Continuous
 62
     7
370
    35
100
AcDbLine
 10
89.86397799999997
 20
171.995022
 30
0.0
 11
89.86454000000003
 21
171.996415
 31
0.0
  0
LINE
  5
895F
330
37
100
AcDbEntity
  8
10000_FRONT
  6
Continuous
 62
     7
370
    35
100
AcDbLine
 10
89.86454000000003
 20
171.996415
 30
0.0
 11
89.86554100000002
 21
171.997848
 31
0.0
  0
LINE
  5
8960
330
37
100
AcDbEntity
  8
10000_FRONT
  6
Continuous
 62
     7
370
    35
100
AcDbLine
 10
89.86554100000002
 20
171.997848
 30
0.0
 11
89.86700100000001
 21
171.999303
 31
0.0
  0
LINE
  5
8961
330
37
100
AcDbEntity
  8
10000_FRONT
  6
Continuous
 62
     7
370
    35
100
AcDbLine
 10
89.86700100000001
 20
171.999303
 30
0.0
 11
89.86892299999999
 21
172.000764
 31
0.0
  0
LINE
  5
8962
330
37
100
AcDbEntity
  8
10000_FRONT
  6
Continuous
 62
     7
370
    35
100
AcDbLine
 10
89.86892299999999
 20
172.000764
 30
0.0
 11
89.87129099999998
 21
172.002212
 31
0.0
  0
LINE
  5
8963
330
37
100
AcDbEntity
  8
10000_FRONT
  6
Continuous
 62
     7
370
    35
100
AcDbLine
 10
89.87129099999998
 20
172.002212
 30
0.0
 11
89.87407100000002
 21
172.003631
 31
0.0
  0
LINE
  5
8964
330
37
100
AcDbEntity
  8
10000_FRONT
  6
Continuous
 62
     7
370
    35
100
AcDbLine
 10
89.87407100000002
 20
172.003631
 30
0.0
 11
89.87721399999998
 21
172.005005
 31
0.0
  0
LINE
  5
8965
330
37
100
AcDbEntity
  8
10000_FRONT
  6
Continuous
 62
     7
370
    35
100
AcDbLine
 10
89.87721399999998
 20
172.005005
 30
0.0
 11
89.88065399999998
 21
172.00632
 31
0.0
  0
LINE
  5
8966
330
37
100
AcDbEntity
  8
10000_FRONT
  6
Continuous
 62
     7
370
    35
100
AcDbLine
 10
89.88065399999998
 20
172.00632
 30
0.0
 11
89.88435900000002
 21
172.007578
 31
0.0
  0
LINE
  5
8967
330
37
100
AcDbEntity
  8
10000_FRONT
  6
Continuous
 62
     7
370
    35
100
AcDbLine
 10
89.88435900000002
 20
172.007578
 30
0.0
 11
89.88851499999999
 21
172.008842
 31
0.0
  0
LINE
  5
8968
330
37
100
AcDbEntity
  8
10000_FRONT
  6
Continuous
 62
     7
370
    35
100
AcDbLine
 10
89.88851499999999
 20
172.008842
 30
0.0
 11
89.89314400000003
 21
172.010109
 31
0.0
  0
LINE
  5
8969
330
37
100
AcDbEntity
  8
10000_FRONT
  6
Continuous
 62
     7
370
    35
100
AcDbLine
 10
89.89314400000003
 20
172.010109
 30
0.0
 11
89.89821599999997
 21
172.011364
 31
0.0
  0
LINE
  5
896A
330
37
100
AcDbEntity
  8
10000_FRONT
  6
Continuous
 62
     7
370
    35
100
AcDbLine
 10
89.89821599999997
 20
172.011364
 30
0.0
 11
89.90368899999998
 21
172.012591
 31
0.0
  0
LINE
  5
896B
330
37
100
AcDbEntity
  8
10000_FRONT
  6
Continuous
 62
     7
370
    35
100
AcDbLine
 10
89.90368899999998
 20
172.012591
 30
0.0
 11
89.90950299999996
 21
172.013778
 31
0.0
  0
LINE
  5
896C
330
37
100
AcDbEntity
  8
10000_FRONT
  6
Continuous
 62
     7
370
    35
100
AcDbLine
 10
89.90950299999996
 20
172.013778
 30
0.0
 11
89.91558700000002
 21
172.014911
 31
0.0
  0
LINE
  5
896D
330
37
100
AcDbEntity
  8
10000_FRONT
  6
Continuous
 62
     7
370
    35
100
AcDbLine
 10
89.91558700000002
 20
172.014911
 30
0.0
 11
89.92186000000002
 21
172.015981
 31
0.0
  0
LINE
  5
896E
330
37
100
AcDbEntity
  8
10000_FRONT
  6
Continuous
 62
     7
370
    35
100
AcDbLine
 10
89.92186000000002
 20
172.015981
 30
0.0
 11
89.92822999999999
 21
172.016979
 31
0.0
  0
LINE
  5
896F
330
37
100
AcDbEntity
  8
10000_FRONT
  6
Continuous
 62
     7
370
    35
100
AcDbLine
 10
89.92822999999999
 20
172.016979
 30
0.0
 11
89.93476300000002
 21
172.017922
 31
0.0
  0
LINE
  5
8970
330
37
100
AcDbEntity
  8
10000_FRONT
  6
Continuous
 62
     7
370
    35
100
AcDbLine
 10
89.93476300000002
 20
172.017922
 30
0.0
 11
89.94175300000001
 21
172.018849
 31
0.0
  0
LINE
  5
8971
330
37
100
AcDbEntity
  8
10000_FRONT
  6
Continuous
 62
     7
370
    35
100
AcDbLine
 10
89.94175300000001
 20
172.018849
 30
0.0
 11
89.94916399999999
 21
172.019751
 31
0.0
  0
LINE
  5
8972
330
37
100
AcDbEntity
  8
10000_FRONT
  6
Continuous
 62
     7
370
    35
100
AcDbLine
 10
89.94916399999999
 20
172.019751
 30
0.0
 11
89.95693299999997
 21
172.020614
 31
0.0
  0
LINE
  5
8973
330
37
100
AcDbEntity
  8
10000_FRONT
  6
Continuous
 62
     7
370
    35
100
AcDbLine
 10
89.95693299999997
 20
172.020614
 30
0.0
 11
89.96498400000001
 21
172.021429
 31
0.0
  0
LINE
  5
8974
330
37
100
AcDbEntity
  8
10000_FRONT
  6
Continuous
 62
     7
370
    35
100
AcDbLine
 10
89.96498400000001
 20
172.021429
 30
0.0
 11
89.97323299999996
 21
172.022186
 31
0.0
  0
LINE
  5
8975
330
37
100
AcDbEntity
  8
10000_FRONT
  6
Continuous
 62
     7
370
    35
100
AcDbLine
 10
89.97323299999996
 20
172.022186
 30
0.0
 11
89.98158899999998
 21
172.022879
 31
0.0
  0
LINE
  5
8976
330
37
100
AcDbEntity
  8
10000_FRONT
  6
Continuous
 62
     7
370
    35
100
AcDbLine
 10
89.98158899999998
 20
172.022879
 30
0.0
 11
89.98995300000002
 21
172.023503
 31
0.0
  0
LINE
  5
8977
330
37
100
AcDbEntity
  8
10000_FRONT
  6
Continuous
 62
     7
370
    35
100
AcDbLine
 10
89.98995300000002
 20
172.023503
 30
0.0
 11
89.99822699999999
 21
172.024056
 31
0.0
  0
LINE
  5
8978
330
37
100
AcDbEntity
  8
10000_FRONT
  6
Continuous
 62
     7
370
    35
100
AcDbLine
 10
89.99822699999999
 20
172.024056
 30
0.0
 11
90.00656600000002
 21
172.024551
 31
0.0
  0
LINE
  5
8979
330
37
100
AcDbEntity
  8
10000_FRONT
  6
Continuous
 62
     7
370
    35
100
AcDbLine
 10
90.00656600000002
 20
172.024551
 30
0.0
 11
90.01530000000002
 21
172.025007
 31
0.0
  0
LINE
  5
897A
330
37
100
AcDbEntity
  8
10000_FRONT
  6
Continuous
 62
     7
370
    35
100
AcDbLine
 10
90.01530000000002
 20
172.025007
 30
0.0
 11
90.02435400000001
 21
172.0254139999999
 31
0.0
  0
LINE
  5
897B
330
37
100
AcDbEntity
  8
10000_FRONT
  6
Continuous
 62
     7
370
    35
100
AcDbLine
 10
90.02435400000001
 20
172.0254139999999
 30
0.0
 11
90.03364099999997
 21
172.0257649999999
 31
0.0
  0
LINE
  5
897C
330
37
100
AcDbEntity
  8
10000_FRONT
  6
Continuous
 62
     7
370
    35
100
AcDbLine
 10
90.03364099999997
 20
172.0257649999999
 30
0.0
 11
90.04306400000002
 21
172.026053
 31
0.0
  0
LINE
  5
897D
330
37
100
AcDbEntity
  8
10000_FRONT
  6
Continuous
 62
     7
370
    35
100
AcDbLine
 10
90.04306400000002
 20
172.026053
 30
0.0
 11
90.05252300000002
 21
172.026275
 31
0.0
  0
LINE
  5
897E
330
37
100
AcDbEntity
  8
10000_FRONT
  6
Continuous
 62
     7
370
    35
100
AcDbLine
 10
90.05252300000002
 20
172.026275
 30
0.0
 11
90.06191499999998
 21
172.026431
 31
0.0
  0
LINE
  5
897F
330
37
100
AcDbEntity
  8
10000_FRONT
  6
Continuous
 62
     7
370
    35
100
AcDbLine
 10
90.06191499999998
 20
172.026431
 30
0.0
 11
90.07113900000002
 21
172.026522
 31
0.0
  0
LINE
  5
8980
330
37
100
AcDbEntity
  8
10000_FRONT
  6
Continuous
 62
     7
370
    35
100
AcDbLine
 10
90.07113900000002
 20
172.026522
 30
0.0
 11
90.08009900000002
 21
172.026551
 31
0.0
  0
LINE
  5
8981
330
37
100
AcDbEntity
  8
10000_FRONT
  6
Continuous
 62
     7
370
    35
100
AcDbLine
 10
89.735726
 20
171.853142
 30
0.0
 11
89.73933199999995
 21
171.857287
 31
0.0
  0
LINE
  5
8982
330
37
100
AcDbEntity
  8
10000_FRONT
  6
Continuous
 62
     7
370
    35
100
AcDbLine
 10
89.73933199999995
 20
171.857287
 30
0.0
 11
89.74294199999995
 21
171.861427
 31
0.0
  0
LINE
  5
8983
330
37
100
AcDbEntity
  8
10000_FRONT
  6
Continuous
 62
     7
370
    35
100
AcDbLine
 10
89.74294199999995
 20
171.861427
 30
0.0
 11
89.74655600000001
 21
171.865562
 31
0.0
  0
LINE
  5
8984
330
37
100
AcDbEntity
  8
10000_FRONT
  6
Continuous
 62
     7
370
    35
100
AcDbLine
 10
89.74655600000001
 20
171.865562
 30
0.0
 11
89.75017300000002
 21
171.869691
 31
0.0
  0
LINE
  5
8985
330
37
100
AcDbEntity
  8
10000_FRONT
  6
Continuous
 62
     7
370
    35
100
AcDbLine
 10
89.75017300000002
 20
171.869691
 30
0.0
 11
89.75379299999998
 21
171.873815
 31
0.0
  0
LINE
  5
8986
330
37
100
AcDbEntity
  8
10000_FRONT
  6
Continuous
 62
     7
370
    35
100
AcDbLine
 10
89.75379299999998
 20
171.873815
 30
0.0
 11
89.75741699999998
 21
171.877933
 31
0.0
  0
LINE
  5
8987
330
37
100
AcDbEntity
  8
10000_FRONT
  6
Continuous
 62
     7
370
    35
100
AcDbLine
 10
89.75741699999998
 20
171.877933
 30
0.0
 11
89.76104399999995
 21
171.882046
 31
0.0
  0
LINE
  5
8988
330
37
100
AcDbEntity
  8
10000_FRONT
  6
Continuous
 62
     7
370
    35
100
AcDbLine
 10
89.76104399999995
 20
171.882046
 30
0.0
 11
89.76467500000003
 21
171.886154
 31
0.0
  0
LINE
  5
8989
330
37
100
AcDbEntity
  8
10000_FRONT
  6
Continuous
 62
     7
370
    35
100
AcDbLine
 10
89.76467500000003
 20
171.886154
 30
0.0
 11
89.76830899999999
 21
171.890256
 31
0.0
  0
LINE
  5
898A
330
37
100
AcDbEntity
  8
10000_FRONT
  6
Continuous
 62
     7
370
    35
100
AcDbLine
 10
89.76830899999999
 20
171.890256
 30
0.0
 11
89.77194700000003
 21
171.894354
 31
0.0
  0
LINE
  5
898B
330
37
100
AcDbEntity
  8
10000_FRONT
  6
Continuous
 62
     7
370
    35
100
AcDbLine
 10
89.77194700000003
 20
171.894354
 30
0.0
 11
89.77558700000004
 21
171.898445
 31
0.0
  0
LINE
  5
898C
330
37
100
AcDbEntity
  8
10000_FRONT
  6
Continuous
 62
     7
370
    35
100
AcDbLine
 10
89.77558700000004
 20
171.898445
 30
0.0
 11
89.77923199999997
 21
171.902532
 31
0.0
  0
LINE
  5
898D
330
37
100
AcDbEntity
  8
10000_FRONT
  6
Continuous
 62
     7
370
    35
100
AcDbLine
 10
89.77923199999997
 20
171.902532
 30
0.0
 11
89.78287899999996
 21
171.906612
 31
0.0
  0
LINE
  5
898E
330
37
100
AcDbEntity
  8
10000_FRONT
  6
Continuous
 62
     7
370
    35
100
AcDbLine
 10
89.78287899999996
 20
171.906612
 30
0.0
 11
89.78653100000002
 21
171.910688
 31
0.0
  0
LINE
  5
898F
330
37
100
AcDbEntity
  8
10000_FRONT
  6
Continuous
 62
     7
370
    35
100
AcDbLine
 10
89.78653100000002
 20
171.910688
 30
0.0
 11
89.79018500000002
 21
171.914758
 31
0.0
  0
LINE
  5
8990
330
37
100
AcDbEntity
  8
10000_FRONT
  6
Continuous
 62
     7
370
    35
100
AcDbLine
 10
89.79018500000002
 20
171.914758
 30
0.0
 11
89.79384299999997
 21
171.918823
 31
0.0
  0
LINE
  5
8991
330
37
100
AcDbEntity
  8
10000_FRONT
  6
Continuous
 62
     7
370
    35
100
AcDbLine
 10
89.79384299999997
 20
171.918823
 30
0.0
 11
89.797504
 21
171.922882
 31
0.0
  0
LINE
  5
8992
330
37
100
AcDbEntity
  8
10000_FRONT
  6
Continuous
 62
     7
370
    35
100
AcDbLine
 10
89.797504
 20
171.922882
 30
0.0
 11
89.80116900000002
 21
171.926936
 31
0.0
  0
LINE
  5
8993
330
37
100
AcDbEntity
  8
10000_FRONT
  6
Continuous
 62
     7
370
    35
100
AcDbLine
 10
89.80116900000002
 20
171.926936
 30
0.0
 11
89.80483700000002
 21
171.9309850000001
 31
0.0
  0
LINE
  5
8994
330
37
100
AcDbEntity
  8
10000_FRONT
  6
Continuous
 62
     7
370
    35
100
AcDbLine
 10
89.80483700000002
 20
171.9309850000001
 30
0.0
 11
89.80850800000002
 21
171.935028
 31
0.0
  0
LINE
  5
8995
330
37
100
AcDbEntity
  8
10000_FRONT
  6
Continuous
 62
     7
370
    35
100
AcDbLine
 10
89.80850800000002
 20
171.935028
 30
0.0
 11
89.812183
 21
171.939066
 31
0.0
  0
LINE
  5
8996
330
37
100
AcDbEntity
  8
10000_FRONT
  6
Continuous
 62
     7
370
    35
100
AcDbLine
 10
89.812183
 20
171.939066
 30
0.0
 11
89.81586100000004
 21
171.943098
 31
0.0
  0
LINE
  5
8997
330
37
100
AcDbEntity
  8
10000_FRONT
  6
Continuous
 62
     7
370
    35
100
AcDbLine
 10
89.81586100000004
 20
171.943098
 30
0.0
 11
89.81954200000002
 21
171.947125
 31
0.0
  0
LINE
  5
8998
330
37
100
AcDbEntity
  8
10000_FRONT
  6
Continuous
 62
     7
370
    35
100
AcDbLine
 10
89.81954200000002
 20
171.947125
 30
0.0
 11
89.82322699999995
 21
171.951146
 31
0.0
  0
LINE
  5
8999
330
37
100
AcDbEntity
  8
10000_FRONT
  6
Continuous
 62
     7
370
    35
100
AcDbLine
 10
89.82322699999995
 20
171.951146
 30
0.0
 11
89.82691499999999
 21
171.955162
 31
0.0
  0
LINE
  5
899A
330
37
100
AcDbEntity
  8
10000_FRONT
  6
Continuous
 62
     7
370
    35
100
AcDbLine
 10
89.82691499999999
 20
171.955162
 30
0.0
 11
89.83060599999998
 21
171.959173
 31
0.0
  0
LINE
  5
899B
330
37
100
AcDbEntity
  8
10000_FRONT
  6
Continuous
 62
     7
370
    35
100
AcDbLine
 10
89.83060599999998
 20
171.959173
 30
0.0
 11
89.83430099999997
 21
171.9631779999999
 31
0.0
  0
LINE
  5
899C
330
37
100
AcDbEntity
  8
10000_FRONT
  6
Continuous
 62
     7
370
    35
100
AcDbLine
 10
89.83430099999997
 20
171.9631779999999
 30
0.0
 11
89.83799899999997
 21
171.967177
 31
0.0
  0
LINE
  5
899D
330
37
100
AcDbEntity
  8
10000_FRONT
  6
Continuous
 62
     7
370
    35
100
AcDbLine
 10
89.83799899999997
 20
171.967177
 30
0.0
 11
89.8417
 21
171.971172
 31
0.0
  0
LINE
  5
899E
330
37
100
AcDbEntity
  8
10000_FRONT
  6
Continuous
 62
     7
370
    35
100
AcDbLine
 10
89.8417
 20
171.971172
 30
0.0
 11
89.84540500000004
 21
171.9751600000001
 31
0.0
  0
LINE
  5
899F
330
37
100
AcDbEntity
  8
10000_FRONT
  6
Continuous
 62
     7
370
    35
100
AcDbLine
 10
89.84540500000004
 20
171.9751600000001
 30
0.0
 11
89.84911299999998
 21
171.979143
 31
0.0
  0
LINE
  5
89A0
330
37
100
AcDbEntity
  8
10000_FRONT
  6
Continuous
 62
     7
370
    35
100
AcDbLine
 10
89.84911299999998
 20
171.979143
 30
0.0
 11
89.852824
 21
171.9831209999999
 31
0.0
  0
LINE
  5
89A1
330
37
100
AcDbEntity
  8
10000_FRONT
  6
Continuous
 62
     7
370
    35
100
AcDbLine
 10
89.852824
 20
171.9831209999999
 30
0.0
 11
89.85653899999999
 21
171.987093
 31
0.0
  0
LINE
  5
89A2
330
37
100
AcDbEntity
  8
10000_FRONT
  6
Continuous
 62
     7
370
    35
100
AcDbLine
 10
89.85653899999999
 20
171.987093
 30
0.0
 11
89.86025699999997
 21
171.99106
 31
0.0
  0
LINE
  5
89A3
330
37
100
AcDbEntity
  8
10000_FRONT
  6
Continuous
 62
     7
370
    35
100
AcDbLine
 10
89.86025699999997
 20
171.99106
 30
0.0
 11
89.86397799999997
 21
171.995022
 31
0.0
  0
LINE
  5
89A4
330
37
100
AcDbEntity
  8
10200_FRONT_SYM
  6
CENTER
 62
     7
 48
0.125
370
    18
100
AcDbLine
 10
89.21312349999999
 20
171.3099078058795
 30
0.0
 11
95.83203063781937
 21
171.3099078058795
 31
0.0
  0
LINE
  5
89A5
330
37
100
AcDbEntity
  8
10200_FRONT_SYM
  6
CENTER
 62
     7
 48
0.125
370
    18
100
AcDbLine
 10
92.54592800000002
 20
167.8122624999999
 30
0.0
 11
92.54592800000002
 21
174.7940215
 31
0.0
  0
ARC
  5
89A6
330
37
100
AcDbEntity
  8
10000_FRONT
  6
Continuous
 62
     7
370
    35
100
AcDbCircle
 10
92.54592800000002
 20
151.453142
 30
0.0
 40
1.85
100
AcDbArc
 50
73.83655499999924
 51
106.1634450000007
  0
LINE
  5
89A7
330
37
100
AcDbEntity
  8
10000_FRONT
  6
Continuous
 62
     7
370
    35
100
AcDbLine
 10
92.03092800000002
 20
149.37627
 30
0.0
 11
92.03092800000002
 21
150.579733
 31
0.0
  0
LINE
  5
89A8
330
37
100
AcDbEntity
  8
10000_FRONT
  6
Continuous
 62
     7
370
    35
100
AcDbLine
 10
93.06092799999998
 20
150.579733
 30
0.0
 11
93.06092799999998
 21
149.37627
 31
0.0
  0
LINE
  5
89A9
330
37
100
AcDbEntity
  8
10000_FRONT
  6
Continuous
 62
     7
370
    35
100
AcDbLine
 10
93.06092799999998
 20
153.230014
 30
0.0
 11
93.06092799999998
 21
152.026551
 31
0.0
  0
ARC
  5
89AA
330
37
100
AcDbEntity
  8
10000_FRONT
  6
Continuous
 62
     7
370
    35
100
AcDbCircle
 10
92.54592800000002
 20
151.153142
 30
0.0
 40
1.85
100
AcDbArc
 50
253.8365549999992
 51
286.1634450000007
  0
LINE
  5
89AB
330
37
100
AcDbEntity
  8
10000_FRONT
  6
Continuous
 62
     7
370
    35
100
AcDbLine
 10
92.03092800000002
 20
152.026551
 30
0.0
 11
92.03092800000002
 21
153.230014
 31
0.0
  0
LINE
  5
89AC
330
37
100
AcDbEntity
  8
10000_FRONT
  6
Continuous
 62
     7
370
    35
100
AcDbLine
 10
93.06092799999998
 20
152.026551
 30
0.0
 11
95.01175699999995
 21
152.026551
 31
0.0
  0
LINE
  5
89AD
330
37
100
AcDbEntity
  8
10000_FRONT
  6
Continuous
 62
     7
370
    35
100
AcDbLine
 10
90.08009900000002
 20
152.026551
 30
0.0
 11
92.03092800000002
 21
152.026551
 31
0.0
  0
LINE
  5
89AE
330
37
100
AcDbEntity
  8
10000_FRONT
  6
Continuous
 62
     7
370
    35
100
AcDbLine
 10
95.22787800000003
 20
151.995022
 30
0.0
 11
95.23159899999994
 21
151.99106
 31
0.0
  0
LINE
  5
89AF
330
37
100
AcDbEntity
  8
10000_FRONT
  6
Continuous
 62
     7
370
    35
100
AcDbLine
 10
95.23159899999994
 20
151.99106
 30
0.0
 11
95.2353169999999
 21
151.987093
 31
0.0
  0
LINE
  5
89B0
330
37
100
AcDbEntity
  8
10000_FRONT
  6
Continuous
 62
     7
370
    35
100
AcDbLine
 10
95.2353169999999
 20
151.987093
 30
0.0
 11
95.23903200000004
 21
151.9831209999999
 31
0.0
  0
LINE
  5
89B1
330
37
100
AcDbEntity
  8
10000_FRONT
  6
Continuous
 62
     7
370
    35
100
AcDbLine
 10
95.23903200000004
 20
151.9831209999999
 30
0.0
 11
95.242743
 21
151.979143
 31
0.0
  0
LINE
  5
89B2
330
37
100
AcDbEntity
  8
10000_FRONT
  6
Continuous
 62
     7
370
    35
100
AcDbLine
 10
95.242743
 20
151.979143
 30
0.0
 11
95.24645099999998
 21
151.9751600000001
 31
0.0
  0
LINE
  5
89B3
330
37
100
AcDbEntity
  8
10000_FRONT
  6
Continuous
 62
     7
370
    35
100
AcDbLine
 10
95.24645099999998
 20
151.9751600000001
 30
0.0
 11
95.25015600000001
 21
151.971172
 31
0.0
  0
LINE
  5
89B4
330
37
100
AcDbEntity
  8
10000_FRONT
  6
Continuous
 62
     7
370
    35
100
AcDbLine
 10
95.25015600000001
 20
151.971172
 30
0.0
 11
95.25385700000006
 21
151.967177
 31
0.0
  0
LINE
  5
89B5
330
37
100
AcDbEntity
  8
10000_FRONT
  6
Continuous
 62
     7
370
    35
100
AcDbLine
 10
95.25385700000006
 20
151.967177
 30
0.0
 11
95.25755500000002
 21
151.9631779999999
 31
0.0
  0
LINE
  5
89B6
330
37
100
AcDbEntity
  8
10000_FRONT
  6
Continuous
 62
     7
370
    35
100
AcDbLine
 10
95.25755500000002
 20
151.9631779999999
 30
0.0
 11
95.26125000000002
 21
151.959173
 31
0.0
  0
LINE
  5
89B7
330
37
100
AcDbEntity
  8
10000_FRONT
  6
Continuous
 62
     7
370
    35
100
AcDbLine
 10
95.26125000000002
 20
151.959173
 30
0.0
 11
95.26494100000002
 21
151.955162
 31
0.0
  0
LINE
  5
89B8
330
37
100
AcDbEntity
  8
10000_FRONT
  6
Continuous
 62
     7
370
    35
100
AcDbLine
 10
95.26494100000002
 20
151.955162
 30
0.0
 11
95.26862900000002
 21
151.951146
 31
0.0
  0
LINE
  5
89B9
330
37
100
AcDbEntity
  8
10000_FRONT
  6
Continuous
 62
     7
370
    35
100
AcDbLine
 10
95.26862900000002
 20
151.951146
 30
0.0
 11
95.27231400000003
 21
151.947125
 31
0.0
  0
LINE
  5
89BA
330
37
100
AcDbEntity
  8
10000_FRONT
  6
Continuous
 62
     7
370
    35
100
AcDbLine
 10
95.27231400000003
 20
151.947125
 30
0.0
 11
95.27599499999997
 21
151.943098
 31
0.0
  0
LINE
  5
89BB
330
37
100
AcDbEntity
  8
10000_FRONT
  6
Continuous
 62
     7
370
    35
100
AcDbLine
 10
95.27599499999997
 20
151.943098
 30
0.0
 11
95.279673
 21
151.939066
 31
0.0
  0
LINE
  5
89BC
330
37
100
AcDbEntity
  8
10000_FRONT
  6
Continuous
 62
     7
370
    35
100
AcDbLine
 10
95.279673
 20
151.939066
 30
0.0
 11
95.28334799999996
 21
151.935028
 31
0.0
  0
LINE
  5
89BD
330
37
100
AcDbEntity
  8
10000_FRONT
  6
Continuous
 62
     7
370
    35
100
AcDbLine
 10
95.28334799999996
 20
151.935028
 30
0.0
 11
95.28701899999999
 21
151.9309850000001
 31
0.0
  0
LINE
  5
89BE
330
37
100
AcDbEntity
  8
10000_FRONT
  6
Continuous
 62
     7
370
    35
100
AcDbLine
 10
95.28701899999999
 20
151.9309850000001
 30
0.0
 11
95.29068700000003
 21
151.926936
 31
0.0
  0
LINE
  5
89BF
330
37
100
AcDbEntity
  8
10000_FRONT
  6
Continuous
 62
     7
370
    35
100
AcDbLine
 10
95.29068700000003
 20
151.926936
 30
0.0
 11
95.29435199999998
 21
151.922882
 31
0.0
  0
LINE
  5
89C0
330
37
100
AcDbEntity
  8
10000_FRONT
  6
Continuous
 62
     7
370
    35
100
AcDbLine
 10
95.29435199999998
 20
151.922882
 30
0.0
 11
95.29801300000002
 21
151.918823
 31
0.0
  0
LINE
  5
89C1
330
37
100
AcDbEntity
  8
10000_FRONT
  6
Continuous
 62
     7
370
    35
100
AcDbLine
 10
95.29801300000002
 20
151.918823
 30
0.0
 11
95.30167099999998
 21
151.914758
 31
0.0
  0
LINE
  5
89C2
330
37
100
AcDbEntity
  8
10000_FRONT
  6
Continuous
 62
     7
370
    35
100
AcDbLine
 10
95.30167099999998
 20
151.914758
 30
0.0
 11
95.30532500000004
 21
151.910688
 31
0.0
  0
LINE
  5
89C3
330
37
100
AcDbEntity
  8
10000_FRONT
  6
Continuous
 62
     7
370
    35
100
AcDbLine
 10
95.30532500000004
 20
151.910688
 30
0.0
 11
95.30897700000002
 21
151.906612
 31
0.0
  0
LINE
  5
89C4
330
37
100
AcDbEntity
  8
10000_FRONT
  6
Continuous
 62
     7
370
    35
100
AcDbLine
 10
95.30897700000002
 20
151.906612
 30
0.0
 11
95.31262400000001
 21
151.902532
 31
0.0
  0
LINE
  5
89C5
330
37
100
AcDbEntity
  8
10000_FRONT
  6
Continuous
 62
     7
370
    35
100
AcDbLine
 10
95.31262400000001
 20
151.902532
 30
0.0
 11
95.31626900000004
 21
151.898445
 31
0.0
  0
LINE
  5
89C6
330
37
100
AcDbEntity
  8
10000_FRONT
  6
Continuous
 62
     7
370
    35
100
AcDbLine
 10
95.31626900000004
 20
151.898445
 30
0.0
 11
95.319909
 21
151.894354
 31
0.0
  0
LINE
  5
89C7
330
37
100
AcDbEntity
  8
10000_FRONT
  6
Continuous
 62
     7
370
    35
100
AcDbLine
 10
95.319909
 20
151.894354
 30
0.0
 11
95.32354699999997
 21
151.890256
 31
0.0
  0
LINE
  5
89C8
330
37
100
AcDbEntity
  8
10000_FRONT
  6
Continuous
 62
     7
370
    35
100
AcDbLine
 10
95.32354699999997
 20
151.890256
 30
0.0
 11
95.32718100000002
 21
151.886154
 31
0.0
  0
LINE
  5
89C9
330
37
100
AcDbEntity
  8
10000_FRONT
  6
Continuous
 62
     7
370
    35
100
AcDbLine
 10
95.32718100000002
 20
151.886154
 30
0.0
 11
95.33081200000003
 21
151.882046
 31
0.0
  0
LINE
  5
89CA
330
37
100
AcDbEntity
  8
10000_FRONT
  6
Continuous
 62
     7
370
    35
100
AcDbLine
 10
95.33081200000003
 20
151.882046
 30
0.0
 11
95.33443899999998
 21
151.877933
 31
0.0
  0
LINE
  5
89CB
330
37
100
AcDbEntity
  8
10000_FRONT
  6
Continuous
 62
     7
370
    35
100
AcDbLine
 10
95.33443899999998
 20
151.877933
 30
0.0
 11
95.33806300000003
 21
151.873815
 31
0.0
  0
LINE
  5
89CC
330
37
100
AcDbEntity
  8
10000_FRONT
  6
Continuous
 62
     7
370
    35
100
AcDbLine
 10
95.33806300000003
 20
151.873815
 30
0.0
 11
95.34168299999995
 21
151.869691
 31
0.0
  0
LINE
  5
89CD
330
37
100
AcDbEntity
  8
10000_FRONT
  6
Continuous
 62
     7
370
    35
100
AcDbLine
 10
95.34168299999995
 20
151.869691
 30
0.0
 11
95.3453
 21
151.865562
 31
0.0
  0
LINE
  5
89CE
330
37
100
AcDbEntity
  8
10000_FRONT
  6
Continuous
 62
     7
370
    35
100
AcDbLine
 10
95.3453
 20
151.865562
 30
0.0
 11
95.34891400000004
 21
151.861427
 31
0.0
  0
LINE
  5
89CF
330
37
100
AcDbEntity
  8
10000_FRONT
  6
Continuous
 62
     7
370
    35
100
AcDbLine
 10
95.34891400000004
 20
151.861427
 30
0.0
 11
95.35252400000002
 21
151.857287
 31
0.0
  0
LINE
  5
89D0
330
37
100
AcDbEntity
  8
10000_FRONT
  6
Continuous
 62
     7
370
    35
100
AcDbLine
 10
95.35252400000002
 20
151.857287
 30
0.0
 11
95.35613000000003
 21
151.853142
 31
0.0
  0
LINE
  5
89D1
330
37
100
AcDbEntity
  8
10000_FRONT
  6
Continuous
 62
     7
370
    35
100
AcDbLine
 10
95.01175699999995
 20
152.026551
 30
0.0
 11
95.020717
 21
152.026522
 31
0.0
  0
LINE
  5
89D2
330
37
100
AcDbEntity
  8
10000_FRONT
  6
Continuous
 62
     7
370
    35
100
AcDbLine
 10
95.020717
 20
152.026522
 30
0.0
 11
95.029941
 21
152.026431
 31
0.0
  0
LINE
  5
89D3
330
37
100
AcDbEntity
  8
10000_FRONT
  6
Continuous
 62
     7
370
    35
100
AcDbLine
 10
95.029941
 20
152.026431
 30
0.0
 11
95.03933299999998
 21
152.026275
 31
0.0
  0
LINE
  5
89D4
330
37
100
AcDbEntity
  8
10000_FRONT
  6
Continuous
 62
     7
370
    35
100
AcDbLine
 10
95.03933299999998
 20
152.026275
 30
0.0
 11
95.04879199999995
 21
152.026053
 31
0.0
  0
LINE
  5
89D5
330
37
100
AcDbEntity
  8
10000_FRONT
  6
Continuous
 62
     7
370
    35
100
AcDbLine
 10
95.04879199999995
 20
152.026053
 30
0.0
 11
95.05821500000001
 21
152.025765
 31
0.0
  0
LINE
  5
89D6
330
37
100
AcDbEntity
  8
10000_FRONT
  6
Continuous
 62
     7
370
    35
100
AcDbLine
 10
95.05821500000001
 20
152.025765
 30
0.0
 11
95.06750199999997
 21
152.025414
 31
0.0
  0
LINE
  5
89D7
330
37
100
AcDbEntity
  8
10000_FRONT
  6
Continuous
 62
     7
370
    35
100
AcDbLine
 10
95.06750199999997
 20
152.025414
 30
0.0
 11
95.07655599999997
 21
152.025007
 31
0.0
  0
LINE
  5
89D8
330
37
100
AcDbEntity
  8
10000_FRONT
  6
Continuous
 62
     7
370
    35
100
AcDbLine
 10
95.07655599999997
 20
152.025007
 30
0.0
 11
95.08529000000001
 21
152.024551
 31
0.0
  0
LINE
  5
89D9
330
37
100
AcDbEntity
  8
10000_FRONT
  6
Continuous
 62
     7
370
    35
100
AcDbLine
 10
95.08529000000001
 20
152.024551
 30
0.0
 11
95.09362899999997
 21
152.024056
 31
0.0
  0
LINE
  5
89DA
330
37
100
AcDbEntity
  8
10000_FRONT
  6
Continuous
 62
     7
370
    35
100
AcDbLine
 10
95.09362899999997
 20
152.024056
 30
0.0
 11
95.10190299999996
 21
152.023503
 31
0.0
  0
LINE
  5
89DB
330
37
100
AcDbEntity
  8
10000_FRONT
  6
Continuous
 62
     7
370
    35
100
AcDbLine
 10
95.10190299999996
 20
152.023503
 30
0.0
 11
95.11026700000002
 21
152.022879
 31
0.0
  0
LINE
  5
89DC
330
37
100
AcDbEntity
  8
10000_FRONT
  6
Continuous
 62
     7
370
    35
100
AcDbLine
 10
95.11026700000002
 20
152.022879
 30
0.0
 11
95.11862299999995
 21
152.022186
 31
0.0
  0
LINE
  5
89DD
330
37
100
AcDbEntity
  8
10000_FRONT
  6
Continuous
 62
     7
370
    35
100
AcDbLine
 10
95.11862299999995
 20
152.022186
 30
0.0
 11
95.126872
 21
152.021429
 31
0.0
  0
LINE
  5
89DE
330
37
100
AcDbEntity
  8
10000_FRONT
  6
Continuous
 62
     7
370
    35
100
AcDbLine
 10
95.126872
 20
152.021429
 30
0.0
 11
95.13492299999995
 21
152.020614
 31
0.0
  0
LINE
  5
89DF
330
37
100
AcDbEntity
  8
10000_FRONT
  6
Continuous
 62
     7
370
    35
100
AcDbLine
 10
95.13492299999995
 20
152.020614
 30
0.0
 11
95.14269199999992
 21
152.019751
 31
0.0
  0
LINE
  5
89E0
330
37
100
AcDbEntity
  8
10000_FRONT
  6
Continuous
 62
     7
370
    35
100
AcDbLine
 10
95.14269199999992
 20
152.019751
 30
0.0
 11
95.150103
 21
152.018849
 31
0.0
  0
LINE
  5
89E1
330
37
100
AcDbEntity
  8
10000_FRONT
  6
Continuous
 62
     7
370
    35
100
AcDbLine
 10
95.150103
 20
152.018849
 30
0.0
 11
95.15709300000002
 21
152.017922
 31
0.0
  0
LINE
  5
89E2
330
37
100
AcDbEntity
  8
10000_FRONT
  6
Continuous
 62
     7
370
    35
100
AcDbLine
 10
95.15709300000002
 20
152.017922
 30
0.0
 11
95.16362600000002
 21
152.016979
 31
0.0
  0
LINE
  5
89E3
330
37
100
AcDbEntity
  8
10000_FRONT
  6
Continuous
 62
     7
370
    35
100
AcDbLine
 10
95.16362600000002
 20
152.016979
 30
0.0
 11
95.16999599999996
 21
152.015981
 31
0.0
  0
LINE
  5
89E4
330
37
100
AcDbEntity
  8
10000_FRONT
  6
Continuous
 62
     7
370
    35
100
AcDbLine
 10
95.16999599999996
 20
152.015981
 30
0.0
 11
95.17626899999998
 21
152.014911
 31
0.0
  0
LINE
  5
89E5
330
37
100
AcDbEntity
  8
10000_FRONT
  6
Continuous
 62
     7
370
    35
100
AcDbLine
 10
95.17626899999998
 20
152.014911
 30
0.0
 11
95.18235300000004
 21
152.013778
 31
0.0
  0
LINE
  5
89E6
330
37
100
AcDbEntity
  8
10000_FRONT
  6
Continuous
 62
     7
370
    35
100
AcDbLine
 10
95.18235300000004
 20
152.013778
 30
0.0
 11
95.18816700000002
 21
152.012591
 31
0.0
  0
LINE
  5
89E7
330
37
100
AcDbEntity
  8
10000_FRONT
  6
Continuous
 62
     7
370
    35
100
AcDbLine
 10
95.18816700000002
 20
152.012591
 30
0.0
 11
95.19364000000001
 21
152.011364
 31
0.0
  0
LINE
  5
89E8
330
37
100
AcDbEntity
  8
10000_FRONT
  6
Continuous
 62
     7
370
    35
100
AcDbLine
 10
95.19364000000001
 20
152.011364
 30
0.0
 11
95.198712
 21
152.010109
 31
0.0
  0
LINE
  5
89E9
330
37
100
AcDbEntity
  8
10000_FRONT
  6
Continuous
 62
     7
370
    35
100
AcDbLine
 10
95.198712
 20
152.010109
 30
0.0
 11
95.20334100000004
 21
152.008842
 31
0.0
  0
LINE
  5
89EA
330
37
100
AcDbEntity
  8
10000_FRONT
  6
Continuous
 62
     7
370
    35
100
AcDbLine
 10
95.20334100000004
 20
152.008842
 30
0.0
 11
95.20749699999996
 21
152.007578
 31
0.0
  0
LINE
  5
89EB
330
37
100
AcDbEntity
  8
10000_FRONT
  6
Continuous
 62
     7
370
    35
100
AcDbLine
 10
95.20749699999996
 20
152.007578
 30
0.0
 11
95.21120200000002
 21
152.00632
 31
0.0
  0
LINE
  5
89EC
330
37
100
AcDbEntity
  8
10000_FRONT
  6
Continuous
 62
     7
370
    35
100
AcDbLine
 10
95.21120200000002
 20
152.00632
 30
0.0
 11
95.21464200000002
 21
152.005005
 31
0.0
  0
LINE
  5
89ED
330
37
100
AcDbEntity
  8
10000_FRONT
  6
Continuous
 62
     7
370
    35
100
AcDbLine
 10
95.21464200000002
 20
152.005005
 30
0.0
 11
95.21778500000003
 21
152.003631
 31
0.0
  0
LINE
  5
89EE
330
37
100
AcDbEntity
  8
10000_FRONT
  6
Continuous
 62
     7
370
    35
100
AcDbLine
 10
95.21778500000003
 20
152.003631
 30
0.0
 11
95.22056500000003
 21
152.002212
 31
0.0
  0
LINE
  5
89EF
330
37
100
AcDbEntity
  8
10000_FRONT
  6
Continuous
 62
     7
370
    35
100
AcDbLine
 10
95.22056500000003
 20
152.002212
 30
0.0
 11
95.22293300000002
 21
152.000764
 31
0.0
  0
LINE
  5
89F0
330
37
100
AcDbEntity
  8
10000_FRONT
  6
Continuous
 62
     7
370
    35
100
AcDbLine
 10
95.22293300000002
 20
152.000764
 30
0.0
 11
95.22485500000003
 21
151.999303
 31
0.0
  0
LINE
  5
89F1
330
37
100
AcDbEntity
  8
10000_FRONT
  6
Continuous
 62
     7
370
    35
100
AcDbLine
 10
95.22485500000003
 20
151.999303
 30
0.0
 11
95.22631500000001
 21
151.997848
 31
0.0
  0
LINE
  5
89F2
330
37
100
AcDbEntity
  8
10000_FRONT
  6
Continuous
 62
     7
370
    35
100
AcDbLine
 10
95.22631500000001
 20
151.997848
 30
0.0
 11
95.22731599999998
 21
151.996415
 31
0.0
  0
LINE
  5
89F3
330
37
100
AcDbEntity
  8
10000_FRONT
  6
Continuous
 62
     7
370
    35
100
AcDbLine
 10
95.22731599999998
 20
151.996415
 30
0.0
 11
95.22787800000003
 21
151.995022
 31
0.0
  0
LINE
  5
89F4
330
37
100
AcDbEntity
  8
10000_FRONT
  6
Continuous
 62
     7
370
    35
100
AcDbLine
 10
95.01175699999995
 20
150.579733
 30
0.0
 11
93.06092799999998
 21
150.579733
 31
0.0
  0
LINE
  5
89F5
330
37
100
AcDbEntity
  8
10000_FRONT
  6
Continuous
 62
     7
370
    35
100
AcDbLine
 10
95.22787800000003
 20
150.611262
 30
0.0
 11
95.22731599999998
 21
150.609869
 31
0.0
  0
LINE
  5
89F6
330
37
100
AcDbEntity
  8
10000_FRONT
  6
Continuous
 62
     7
370
    35
100
AcDbLine
 10
95.22731599999998
 20
150.609869
 30
0.0
 11
95.22631500000001
 21
150.608436
 31
0.0
  0
LINE
  5
89F7
330
37
100
AcDbEntity
  8
10000_FRONT
  6
Continuous
 62
     7
370
    35
100
AcDbLine
 10
95.22631500000001
 20
150.608436
 30
0.0
 11
95.22485500000003
 21
150.606981
 31
0.0
  0
LINE
  5
89F8
330
37
100
AcDbEntity
  8
10000_FRONT
  6
Continuous
 62
     7
370
    35
100
AcDbLine
 10
95.22485500000003
 20
150.606981
 30
0.0
 11
95.22293300000002
 21
150.60552
 31
0.0
  0
LINE
  5
89F9
330
37
100
AcDbEntity
  8
10000_FRONT
  6
Continuous
 62
     7
370
    35
100
AcDbLine
 10
95.22293300000002
 20
150.60552
 30
0.0
 11
95.22056500000003
 21
150.6040719999999
 31
0.0
  0
LINE
  5
89FA
330
37
100
AcDbEntity
  8
10000_FRONT
  6
Continuous
 62
     7
370
    35
100
AcDbLine
 10
95.22056500000003
 20
150.6040719999999
 30
0.0
 11
95.21778500000003
 21
150.602653
 31
0.0
  0
LINE
  5
89FB
330
37
100
AcDbEntity
  8
10000_FRONT
  6
Continuous
 62
     7
370
    35
100
AcDbLine
 10
95.21778500000003
 20
150.602653
 30
0.0
 11
95.21464200000002
 21
150.601279
 31
0.0
  0
LINE
  5
89FC
330
37
100
AcDbEntity
  8
10000_FRONT
  6
Continuous
 62
     7
370
    35
100
AcDbLine
 10
95.21464200000002
 20
150.601279
 30
0.0
 11
95.21120200000002
 21
150.599964
 31
0.0
  0
LINE
  5
89FD
330
37
100
AcDbEntity
  8
10000_FRONT
  6
Continuous
 62
     7
370
    35
100
AcDbLine
 10
95.21120200000002
 20
150.599964
 30
0.0
 11
95.20749699999996
 21
150.598706
 31
0.0
  0
LINE
  5
89FE
330
37
100
AcDbEntity
  8
10000_FRONT
  6
Continuous
 62
     7
370
    35
100
AcDbLine
 10
95.20749699999996
 20
150.598706
 30
0.0
 11
95.20334100000004
 21
150.597442
 31
0.0
  0
LINE
  5
89FF
330
37
100
AcDbEntity
  8
10000_FRONT
  6
Continuous
 62
     7
370
    35
100
AcDbLine
 10
95.20334100000004
 20
150.597442
 30
0.0
 11
95.198712
 21
150.596175
 31
0.0
  0
LINE
  5
8A00
330
37
100
AcDbEntity
  8
10000_FRONT
  6
Continuous
 62
     7
370
    35
100
AcDbLine
 10
95.198712
 20
150.596175
 30
0.0
 11
95.19364000000001
 21
150.59492
 31
0.0
  0
LINE
  5
8A01
330
37
100
AcDbEntity
  8
10000_FRONT
  6
Continuous
 62
     7
370
    35
100
AcDbLine
 10
95.19364000000001
 20
150.59492
 30
0.0
 11
95.18816700000002
 21
150.593693
 31
0.0
  0
LINE
  5
8A02
330
37
100
AcDbEntity
  8
10000_FRONT
  6
Continuous
 62
     7
370
    35
100
AcDbLine
 10
95.18816700000002
 20
150.593693
 30
0.0
 11
95.18235300000004
 21
150.592506
 31
0.0
  0
LINE
  5
8A03
330
37
100
AcDbEntity
  8
10000_FRONT
  6
Continuous
 62
     7
370
    35
100
AcDbLine
 10
95.18235300000004
 20
150.592506
 30
0.0
 11
95.17626899999998
 21
150.591373
 31
0.0
  0
LINE
  5
8A04
330
37
100
AcDbEntity
  8
10000_FRONT
  6
Continuous
 62
     7
370
    35
100
AcDbLine
 10
95.17626899999998
 20
150.591373
 30
0.0
 11
95.16999599999996
 21
150.590303
 31
0.0
  0
LINE
  5
8A05
330
37
100
AcDbEntity
  8
10000_FRONT
  6
Continuous
 62
     7
370
    35
100
AcDbLine
 10
95.16999599999996
 20
150.590303
 30
0.0
 11
95.16362600000002
 21
150.589305
 31
0.0
  0
LINE
  5
8A06
330
37
100
AcDbEntity
  8
10000_FRONT
  6
Continuous
 62
     7
370
    35
100
AcDbLine
 10
95.16362600000002
 20
150.589305
 30
0.0
 11
95.15709300000002
 21
150.588362
 31
0.0
  0
LINE
  5
8A07
330
37
100
AcDbEntity
  8
10000_FRONT
  6
Continuous
 62
     7
370
    35
100
AcDbLine
 10
95.15709300000002
 20
150.588362
 30
0.0
 11
95.150103
 21
150.587435
 31
0.0
  0
LINE
  5
8A08
330
37
100
AcDbEntity
  8
10000_FRONT
  6
Continuous
 62
     7
370
    35
100
AcDbLine
 10
95.150103
 20
150.587435
 30
0.0
 11
95.14269199999992
 21
150.586533
 31
0.0
  0
LINE
  5
8A09
330
37
100
AcDbEntity
  8
10000_FRONT
  6
Continuous
 62
     7
370
    35
100
AcDbLine
 10
95.14269199999992
 20
150.586533
 30
0.0
 11
95.13492299999995
 21
150.58567
 31
0.0
  0
LINE
  5
8A0A
330
37
100
AcDbEntity
  8
10000_FRONT
  6
Continuous
 62
     7
370
    35
100
AcDbLine
 10
95.13492299999995
 20
150.58567
 30
0.0
 11
95.126872
 21
150.584855
 31
0.0
  0
LINE
  5
8A0B
330
37
100
AcDbEntity
  8
10000_FRONT
  6
Continuous
 62
     7
370
    35
100
AcDbLine
 10
95.126872
 20
150.584855
 30
0.0
 11
95.11862299999995
 21
150.584098
 31
0.0
  0
LINE
  5
8A0C
330
37
100
AcDbEntity
  8
10000_FRONT
  6
Continuous
 62
     7
370
    35
100
AcDbLine
 10
95.11862299999995
 20
150.584098
 30
0.0
 11
95.11026700000002
 21
150.583405
 31
0.0
  0
LINE
  5
8A0D
330
37
100
AcDbEntity
  8
10000_FRONT
  6
Continuous
 62
     7
370
    35
100
AcDbLine
 10
95.11026700000002
 20
150.583405
 30
0.0
 11
95.10190299999996
 21
150.582781
 31
0.0
  0
LINE
  5
8A0E
330
37
100
AcDbEntity
  8
10000_FRONT
  6
Continuous
 62
     7
370
    35
100
AcDbLine
 10
95.10190299999996
 20
150.582781
 30
0.0
 11
95.09362899999997
 21
150.582228
 31
0.0
  0
LINE
  5
8A0F
330
37
100
AcDbEntity
  8
10000_FRONT
  6
Continuous
 62
     7
370
    35
100
AcDbLine
 10
95.09362899999997
 20
150.582228
 30
0.0
 11
95.08529000000001
 21
150.581733
 31
0.0
  0
LINE
  5
8A10
330
37
100
AcDbEntity
  8
10000_FRONT
  6
Continuous
 62
     7
370
    35
100
AcDbLine
 10
95.08529000000001
 20
150.581733
 30
0.0
 11
95.07655599999997
 21
150.581277
 31
0.0
  0
LINE
  5
8A11
330
37
100
AcDbEntity
  8
10000_FRONT
  6
Continuous
 62
     7
370
    35
100
AcDbLine
 10
95.07655599999997
 20
150.581277
 30
0.0
 11
95.06750199999997
 21
150.58087
 31
0.0
  0
LINE
  5
8A12
330
37
100
AcDbEntity
  8
10000_FRONT
  6
Continuous
 62
     7
370
    35
100
AcDbLine
 10
95.06750199999997
 20
150.58087
 30
0.0
 11
95.05821500000001
 21
150.580519
 31
0.0
  0
LINE
  5
8A13
330
37
100
AcDbEntity
  8
10000_FRONT
  6
Continuous
 62
     7
370
    35
100
AcDbLine
 10
95.05821500000001
 20
150.580519
 30
0.0
 11
95.04879199999995
 21
150.580231
 31
0.0
  0
LINE
  5
8A14
330
37
100
AcDbEntity
  8
10000_FRONT
  6
Continuous
 62
     7
370
    35
100
AcDbLine
 10
95.04879199999995
 20
150.580231
 30
0.0
 11
95.03933299999998
 21
150.580009
 31
0.0
  0
LINE
  5
8A15
330
37
100
AcDbEntity
  8
10000_FRONT
  6
Continuous
 62
     7
370
    35
100
AcDbLine
 10
95.03933299999998
 20
150.580009
 30
0.0
 11
95.029941
 21
150.579853
 31
0.0
  0
LINE
  5
8A16
330
37
100
AcDbEntity
  8
10000_FRONT
  6
Continuous
 62
     7
370
    35
100
AcDbLine
 10
95.029941
 20
150.579853
 30
0.0
 11
95.020717
 21
150.579762
 31
0.0
  0
LINE
  5
8A17
330
37
100
AcDbEntity
  8
10000_FRONT
  6
Continuous
 62
     7
370
    35
100
AcDbLine
 10
95.020717
 20
150.579762
 30
0.0
 11
95.01175699999995
 21
150.579733
 31
0.0
  0
LINE
  5
8A18
330
37
100
AcDbEntity
  8
10000_FRONT
  6
Continuous
 62
     7
370
    35
100
AcDbLine
 10
95.35613000000003
 20
150.753142
 30
0.0
 11
95.35252400000002
 21
150.748997
 31
0.0
  0
LINE
  5
8A19
330
37
100
AcDbEntity
  8
10000_FRONT
  6
Continuous
 62
     7
370
    35
100
AcDbLine
 10
95.35252400000002
 20
150.748997
 30
0.0
 11
95.34891400000004
 21
150.744857
 31
0.0
  0
LINE
  5
8A1A
330
37
100
AcDbEntity
  8
10000_FRONT
  6
Continuous
 62
     7
370
    35
100
AcDbLine
 10
95.34891400000004
 20
150.744857
 30
0.0
 11
95.3453
 21
150.740722
 31
0.0
  0
LINE
  5
8A1B
330
37
100
AcDbEntity
  8
10000_FRONT
  6
Continuous
 62
     7
370
    35
100
AcDbLine
 10
95.3453
 20
150.740722
 30
0.0
 11
95.34168299999995
 21
150.7365929999999
 31
0.0
  0
LINE
  5
8A1C
330
37
100
AcDbEntity
  8
10000_FRONT
  6
Continuous
 62
     7
370
    35
100
AcDbLine
 10
95.34168299999995
 20
150.7365929999999
 30
0.0
 11
95.33806300000003
 21
150.732469
 31
0.0
  0
LINE
  5
8A1D
330
37
100
AcDbEntity
  8
10000_FRONT
  6
Continuous
 62
     7
370
    35
100
AcDbLine
 10
95.33806300000003
 20
150.732469
 30
0.0
 11
95.33443899999998
 21
150.7283509999999
 31
0.0
  0
LINE
  5
8A1E
330
37
100
AcDbEntity
  8
10000_FRONT
  6
Continuous
 62
     7
370
    35
100
AcDbLine
 10
95.33443899999998
 20
150.7283509999999
 30
0.0
 11
95.33081200000003
 21
150.724238
 31
0.0
  0
LINE
  5
8A1F
330
37
100
AcDbEntity
  8
10000_FRONT
  6
Continuous
 62
     7
370
    35
100
AcDbLine
 10
95.33081200000003
 20
150.724238
 30
0.0
 11
95.32718100000002
 21
150.72013
 31
0.0
  0
LINE
  5
8A20
330
37
100
AcDbEntity
  8
10000_FRONT
  6
Continuous
 62
     7
370
    35
100
AcDbLine
 10
95.32718100000002
 20
150.72013
 30
0.0
 11
95.32354699999997
 21
150.716028
 31
0.0
  0
LINE
  5
8A21
330
37
100
AcDbEntity
  8
10000_FRONT
  6
Continuous
 62
     7
370
    35
100
AcDbLine
 10
95.32354699999997
 20
150.716028
 30
0.0
 11
95.319909
 21
150.71193
 31
0.0
  0
LINE
  5
8A22
330
37
100
AcDbEntity
  8
10000_FRONT
  6
Continuous
 62
     7
370
    35
100
AcDbLine
 10
95.319909
 20
150.71193
 30
0.0
 11
95.31626900000004
 21
150.707839
 31
0.0
  0
LINE
  5
8A23
330
37
100
AcDbEntity
  8
10000_FRONT
  6
Continuous
 62
     7
370
    35
100
AcDbLine
 10
95.31626900000004
 20
150.707839
 30
0.0
 11
95.31262400000001
 21
150.703752
 31
0.0
  0
LINE
  5
8A24
330
37
100
AcDbEntity
  8
10000_FRONT
  6
Continuous
 62
     7
370
    35
100
AcDbLine
 10
95.31262400000001
 20
150.703752
 30
0.0
 11
95.30897700000002
 21
150.6996719999999
 31
0.0
  0
LINE
  5
8A25
330
37
100
AcDbEntity
  8
10000_FRONT
  6
Continuous
 62
     7
370
    35
100
AcDbLine
 10
95.30897700000002
 20
150.6996719999999
 30
0.0
 11
95.30532500000004
 21
150.695596
 31
0.0
  0
LINE
  5
8A26
330
37
100
AcDbEntity
  8
10000_FRONT
  6
Continuous
 62
     7
370
    35
100
AcDbLine
 10
95.30532500000004
 20
150.695596
 30
0.0
 11
95.30167099999998
 21
150.691526
 31
0.0
  0
LINE
  5
8A27
330
37
100
AcDbEntity
  8
10000_FRONT
  6
Continuous
 62
     7
370
    35
100
AcDbLine
 10
95.30167099999998
 20
150.691526
 30
0.0
 11
95.29801300000002
 21
150.687461
 31
0.0
  0
LINE
  5
8A28
330
37
100
AcDbEntity
  8
10000_FRONT
  6
Continuous
 62
     7
370
    35
100
AcDbLine
 10
95.29801300000002
 20
150.687461
 30
0.0
 11
95.29435199999998
 21
150.683402
 31
0.0
  0
LINE
  5
8A29
330
37
100
AcDbEntity
  8
10000_FRONT
  6
Continuous
 62
     7
370
    35
100
AcDbLine
 10
95.29435199999998
 20
150.683402
 30
0.0
 11
95.29068700000003
 21
150.679348
 31
0.0
  0
LINE
  5
8A2A
330
37
100
AcDbEntity
  8
10000_FRONT
  6
Continuous
 62
     7
370
    35
100
AcDbLine
 10
95.29068700000003
 20
150.679348
 30
0.0
 11
95.28701899999999
 21
150.675299
 31
0.0
  0
LINE
  5
8A2B
330
37
100
AcDbEntity
  8
10000_FRONT
  6
Continuous
 62
     7
370
    35
100
AcDbLine
 10
95.28701899999999
 20
150.675299
 30
0.0
 11
95.28334799999996
 21
150.671256
 31
0.0
  0
LINE
  5
8A2C
330
37
100
AcDbEntity
  8
10000_FRONT
  6
Continuous
 62
     7
370
    35
100
AcDbLine
 10
95.28334799999996
 20
150.671256
 30
0.0
 11
95.279673
 21
150.6672179999999
 31
0.0
  0
LINE
  5
8A2D
330
37
100
AcDbEntity
  8
10000_FRONT
  6
Continuous
 62
     7
370
    35
100
AcDbLine
 10
95.279673
 20
150.6672179999999
 30
0.0
 11
95.27599499999997
 21
150.663186
 31
0.0
  0
LINE
  5
8A2E
330
37
100
AcDbEntity
  8
10000_FRONT
  6
Continuous
 62
     7
370
    35
100
AcDbLine
 10
95.27599499999997
 20
150.663186
 30
0.0
 11
95.27231400000003
 21
150.659159
 31
0.0
  0
LINE
  5
8A2F
330
37
100
AcDbEntity
  8
10000_FRONT
  6
Continuous
 62
     7
370
    35
100
AcDbLine
 10
95.27231400000003
 20
150.659159
 30
0.0
 11
95.26862900000002
 21
150.655138
 31
0.0
  0
LINE
  5
8A30
330
37
100
AcDbEntity
  8
10000_FRONT
  6
Continuous
 62
     7
370
    35
100
AcDbLine
 10
95.26862900000002
 20
150.655138
 30
0.0
 11
95.26494100000002
 21
150.651122
 31
0.0
  0
LINE
  5
8A31
330
37
100
AcDbEntity
  8
10000_FRONT
  6
Continuous
 62
     7
370
    35
100
AcDbLine
 10
95.26494100000002
 20
150.651122
 30
0.0
 11
95.26125000000002
 21
150.647111
 31
0.0
  0
LINE
  5
8A32
330
37
100
AcDbEntity
  8
10000_FRONT
  6
Continuous
 62
     7
370
    35
100
AcDbLine
 10
95.26125000000002
 20
150.647111
 30
0.0
 11
95.25755500000002
 21
150.643106
 31
0.0
  0
LINE
  5
8A33
330
37
100
AcDbEntity
  8
10000_FRONT
  6
Continuous
 62
     7
370
    35
100
AcDbLine
 10
95.25755500000002
 20
150.643106
 30
0.0
 11
95.25385700000006
 21
150.639107
 31
0.0
  0
LINE
  5
8A34
330
37
100
AcDbEntity
  8
10000_FRONT
  6
Continuous
 62
     7
370
    35
100
AcDbLine
 10
95.25385700000006
 20
150.639107
 30
0.0
 11
95.25015600000001
 21
150.635112
 31
0.0
  0
LINE
  5
8A35
330
37
100
AcDbEntity
  8
10000_FRONT
  6
Continuous
 62
     7
370
    35
100
AcDbLine
 10
95.25015600000001
 20
150.635112
 30
0.0
 11
95.24645099999998
 21
150.631124
 31
0.0
  0
LINE
  5
8A36
330
37
100
AcDbEntity
  8
10000_FRONT
  6
Continuous
 62
     7
370
    35
100
AcDbLine
 10
95.24645099999998
 20
150.631124
 30
0.0
 11
95.242743
 21
150.627141
 31
0.0
  0
LINE
  5
8A37
330
37
100
AcDbEntity
  8
10000_FRONT
  6
Continuous
 62
     7
370
    35
100
AcDbLine
 10
95.242743
 20
150.627141
 30
0.0
 11
95.23903200000004
 21
150.623163
 31
0.0
  0
LINE
  5
8A38
330
37
100
AcDbEntity
  8
10000_FRONT
  6
Continuous
 62
     7
370
    35
100
AcDbLine
 10
95.23903200000004
 20
150.623163
 30
0.0
 11
95.2353169999999
 21
150.619191
 31
0.0
  0
LINE
  5
8A39
330
37
100
AcDbEntity
  8
10000_FRONT
  6
Continuous
 62
     7
370
    35
100
AcDbLine
 10
95.2353169999999
 20
150.619191
 30
0.0
 11
95.23159899999994
 21
150.615224
 31
0.0
  0
LINE
  5
8A3A
330
37
100
AcDbEntity
  8
10000_FRONT
  6
Continuous
 62
     7
370
    35
100
AcDbLine
 10
95.23159899999994
 20
150.615224
 30
0.0
 11
95.22787800000003
 21
150.611262
 31
0.0
  0
LINE
  5
8A3B
330
37
100
AcDbEntity
  8
10000_FRONT
  6
Continuous
 62
     7
370
    35
100
AcDbLine
 10
90.08009900000002
 20
150.579733
 30
0.0
 11
90.07113900000002
 21
150.579762
 31
0.0
  0
LINE
  5
8A3C
330
37
100
AcDbEntity
  8
10000_FRONT
  6
Continuous
 62
     7
370
    35
100
AcDbLine
 10
90.07113900000002
 20
150.579762
 30
0.0
 11
90.06191499999998
 21
150.579853
 31
0.0
  0
LINE
  5
8A3D
330
37
100
AcDbEntity
  8
10000_FRONT
  6
Continuous
 62
     7
370
    35
100
AcDbLine
 10
90.06191499999998
 20
150.579853
 30
0.0
 11
90.05252300000002
 21
150.580009
 31
0.0
  0
LINE
  5
8A3E
330
37
100
AcDbEntity
  8
10000_FRONT
  6
Continuous
 62
     7
370
    35
100
AcDbLine
 10
90.05252300000002
 20
150.580009
 30
0.0
 11
90.04306400000002
 21
150.580231
 31
0.0
  0
LINE
  5
8A3F
330
37
100
AcDbEntity
  8
10000_FRONT
  6
Continuous
 62
     7
370
    35
100
AcDbLine
 10
90.04306400000002
 20
150.580231
 30
0.0
 11
90.03364099999997
 21
150.580519
 31
0.0
  0
LINE
  5
8A40
330
37
100
AcDbEntity
  8
10000_FRONT
  6
Continuous
 62
     7
370
    35
100
AcDbLine
 10
90.03364099999997
 20
150.580519
 30
0.0
 11
90.02435400000001
 21
150.58087
 31
0.0
  0
LINE
  5
8A41
330
37
100
AcDbEntity
  8
10000_FRONT
  6
Continuous
 62
     7
370
    35
100
AcDbLine
 10
90.02435400000001
 20
150.58087
 30
0.0
 11
90.01530000000002
 21
150.581277
 31
0.0
  0
LINE
  5
8A42
330
37
100
AcDbEntity
  8
10000_FRONT
  6
Continuous
 62
     7
370
    35
100
AcDbLine
 10
90.01530000000002
 20
150.581277
 30
0.0
 11
90.00656600000002
 21
150.581733
 31
0.0
  0
LINE
  5
8A43
330
37
100
AcDbEntity
  8
10000_FRONT
  6
Continuous
 62
     7
370
    35
100
AcDbLine
 10
90.00656600000002
 20
150.581733
 30
0.0
 11
89.99822699999999
 21
150.582228
 31
0.0
  0
LINE
  5
8A44
330
37
100
AcDbEntity
  8
10000_FRONT
  6
Continuous
 62
     7
370
    35
100
AcDbLine
 10
89.99822699999999
 20
150.582228
 30
0.0
 11
89.98995300000002
 21
150.582781
 31
0.0
  0
LINE
  5
8A45
330
37
100
AcDbEntity
  8
10000_FRONT
  6
Continuous
 62
     7
370
    35
100
AcDbLine
 10
89.98995300000002
 20
150.582781
 30
0.0
 11
89.98158899999998
 21
150.583405
 31
0.0
  0
LINE
  5
8A46
330
37
100
AcDbEntity
  8
10000_FRONT
  6
Continuous
 62
     7
370
    35
100
AcDbLine
 10
89.98158899999998
 20
150.583405
 30
0.0
 11
89.97323299999996
 21
150.584098
 31
0.0
  0
LINE
  5
8A47
330
37
100
AcDbEntity
  8
10000_FRONT
  6
Continuous
 62
     7
370
    35
100
AcDbLine
 10
89.97323299999996
 20
150.584098
 30
0.0
 11
89.96498400000001
 21
150.584855
 31
0.0
  0
LINE
  5
8A48
330
37
100
AcDbEntity
  8
10000_FRONT
  6
Continuous
 62
     7
370
    35
100
AcDbLine
 10
89.96498400000001
 20
150.584855
 30
0.0
 11
89.95693299999997
 21
150.58567
 31
0.0
  0
LINE
  5
8A49
330
37
100
AcDbEntity
  8
10000_FRONT
  6
Continuous
 62
     7
370
    35
100
AcDbLine
 10
89.95693299999997
 20
150.58567
 30
0.0
 11
89.94916399999999
 21
150.586533
 31
0.0
  0
LINE
  5
8A4A
330
37
100
AcDbEntity
  8
10000_FRONT
  6
Continuous
 62
     7
370
    35
100
AcDbLine
 10
89.94916399999999
 20
150.586533
 30
0.0
 11
89.94175300000001
 21
150.587435
 31
0.0
  0
LINE
  5
8A4B
330
37
100
AcDbEntity
  8
10000_FRONT
  6
Continuous
 62
     7
370
    35
100
AcDbLine
 10
89.94175300000001
 20
150.587435
 30
0.0
 11
89.93476300000002
 21
150.588362
 31
0.0
  0
LINE
  5
8A4C
330
37
100
AcDbEntity
  8
10000_FRONT
  6
Continuous
 62
     7
370
    35
100
AcDbLine
 10
89.93476300000002
 20
150.588362
 30
0.0
 11
89.92822999999999
 21
150.589305
 31
0.0
  0
LINE
  5
8A4D
330
37
100
AcDbEntity
  8
10000_FRONT
  6
Continuous
 62
     7
370
    35
100
AcDbLine
 10
89.92822999999999
 20
150.589305
 30
0.0
 11
89.92186000000002
 21
150.590303
 31
0.0
  0
LINE
  5
8A4E
330
37
100
AcDbEntity
  8
10000_FRONT
  6
Continuous
 62
     7
370
    35
100
AcDbLine
 10
92.03092800000002
 20
150.579733
 30
0.0
 11
90.08009900000002
 21
150.579733
 31
0.0
  0
LINE
  5
8A4F
330
37
100
AcDbEntity
  8
10000_FRONT
  6
Continuous
 62
     7
370
    35
100
AcDbLine
 10
89.92186000000002
 20
152.015981
 30
0.0
 11
89.92822999999999
 21
152.016979
 31
0.0
  0
LINE
  5
8A50
330
37
100
AcDbEntity
  8
10000_FRONT
  6
Continuous
 62
     7
370
    35
100
AcDbLine
 10
89.92822999999999
 20
152.016979
 30
0.0
 11
89.93476300000002
 21
152.017922
 31
0.0
  0
LINE
  5
8A51
330
37
100
AcDbEntity
  8
10000_FRONT
  6
Continuous
 62
     7
370
    35
100
AcDbLine
 10
89.93476300000002
 20
152.017922
 30
0.0
 11
89.94175300000001
 21
152.018849
 31
0.0
  0
LINE
  5
8A52
330
37
100
AcDbEntity
  8
10000_FRONT
  6
Continuous
 62
     7
370
    35
100
AcDbLine
 10
89.94175300000001
 20
152.018849
 30
0.0
 11
89.94916399999999
 21
152.019751
 31
0.0
  0
LINE
  5
8A53
330
37
100
AcDbEntity
  8
10000_FRONT
  6
Continuous
 62
     7
370
    35
100
AcDbLine
 10
89.94916399999999
 20
152.019751
 30
0.0
 11
89.95693299999997
 21
152.020614
 31
0.0
  0
LINE
  5
8A54
330
37
100
AcDbEntity
  8
10000_FRONT
  6
Continuous
 62
     7
370
    35
100
AcDbLine
 10
89.95693299999997
 20
152.020614
 30
0.0
 11
89.96498400000001
 21
152.021429
 31
0.0
  0
LINE
  5
8A55
330
37
100
AcDbEntity
  8
10000_FRONT
  6
Continuous
 62
     7
370
    35
100
AcDbLine
 10
89.96498400000001
 20
152.021429
 30
0.0
 11
89.97323299999996
 21
152.022186
 31
0.0
  0
LINE
  5
8A56
330
37
100
AcDbEntity
  8
10000_FRONT
  6
Continuous
 62
     7
370
    35
100
AcDbLine
 10
89.97323299999996
 20
152.022186
 30
0.0
 11
89.98158899999998
 21
152.022879
 31
0.0
  0
LINE
  5
8A57
330
37
100
AcDbEntity
  8
10000_FRONT
  6
Continuous
 62
     7
370
    35
100
AcDbLine
 10
89.98158899999998
 20
152.022879
 30
0.0
 11
89.98995300000002
 21
152.023503
 31
0.0
  0
LINE
  5
8A58
330
37
100
AcDbEntity
  8
10000_FRONT
  6
Continuous
 62
     7
370
    35
100
AcDbLine
 10
89.98995300000002
 20
152.023503
 30
0.0
 11
89.99822699999999
 21
152.024056
 31
0.0
  0
LINE
  5
8A59
330
37
100
AcDbEntity
  8
10000_FRONT
  6
Continuous
 62
     7
370
    35
100
AcDbLine
 10
89.99822699999999
 20
152.024056
 30
0.0
 11
90.00656600000002
 21
152.024551
 31
0.0
  0
LINE
  5
8A5A
330
37
100
AcDbEntity
  8
10000_FRONT
  6
Continuous
 62
     7
370
    35
100
AcDbLine
 10
90.00656600000002
 20
152.024551
 30
0.0
 11
90.01530000000002
 21
152.025007
 31
0.0
  0
LINE
  5
8A5B
330
37
100
AcDbEntity
  8
10000_FRONT
  6
Continuous
 62
     7
370
    35
100
AcDbLine
 10
90.01530000000002
 20
152.025007
 30
0.0
 11
90.02435400000001
 21
152.025414
 31
0.0
  0
LINE
  5
8A5C
330
37
100
AcDbEntity
  8
10000_FRONT
  6
Continuous
 62
     7
370
    35
100
AcDbLine
 10
90.02435400000001
 20
152.025414
 30
0.0
 11
90.03364099999997
 21
152.025765
 31
0.0
  0
LINE
  5
8A5D
330
37
100
AcDbEntity
  8
10000_FRONT
  6
Continuous
 62
     7
370
    35
100
AcDbLine
 10
90.03364099999997
 20
152.025765
 30
0.0
 11
90.04306400000002
 21
152.026053
 31
0.0
  0
LINE
  5
8A5E
330
37
100
AcDbEntity
  8
10000_FRONT
  6
Continuous
 62
     7
370
    35
100
AcDbLine
 10
90.04306400000002
 20
152.026053
 30
0.0
 11
90.05252300000002
 21
152.026275
 31
0.0
  0
LINE
  5
8A5F
330
37
100
AcDbEntity
  8
10000_FRONT
  6
Continuous
 62
     7
370
    35
100
AcDbLine
 10
90.05252300000002
 20
152.026275
 30
0.0
 11
90.06191499999998
 21
152.026431
 31
0.0
  0
LINE
  5
8A60
330
37
100
AcDbEntity
  8
10000_FRONT
  6
Continuous
 62
     7
370
    35
100
AcDbLine
 10
90.06191499999998
 20
152.026431
 30
0.0
 11
90.07113900000002
 21
152.026522
 31
0.0
  0
LINE
  5
8A61
330
37
100
AcDbEntity
  8
10000_FRONT
  6
Continuous
 62
     7
370
    35
100
AcDbLine
 10
90.07113900000002
 20
152.026522
 30
0.0
 11
90.08009900000002
 21
152.026551
 31
0.0
  0
ARC
  5
8A62
330
37
100
AcDbEntity
  8
10000_FRONT
  6
Continuous
 62
     7
370
    35
100
AcDbCircle
 10
92.54592800000002
 20
151.303142
 30
0.0
 40
2.863518
100
AcDbArc
 50
348.9263059999998
 51
11.07369400000015
  0
ARC
  5
8A63
330
37
100
AcDbEntity
  8
10000_FRONT
  6
Continuous
 62
     7
370
    35
100
AcDbCircle
 10
92.54592800000002
 20
151.303142
 30
0.0
 40
2.769756999999998
100
AcDbArc
 50
194.4655559999996
 51
345.5344440000004
  0
ARC
  5
8A64
330
37
100
AcDbEntity
  8
10000_FRONT
  6
Continuous
 62
     7
370
    35
100
AcDbCircle
 10
92.54592800000002
 20
151.303142
 30
0.0
 40
2.769756999999998
100
AcDbArc
 50
14.46555599999965
 51
165.5344440000003
  0
ARC
  5
8A65
330
37
100
AcDbEntity
  8
10000_FRONT
  6
Continuous
 62
     7
370
    35
100
AcDbCircle
 10
92.54592800000002
 20
151.303142
 30
0.0
 40
2.863518
100
AcDbArc
 50
168.9263059999998
 51
191.0736940000001
  0
LINE
  5
8A66
330
37
100
AcDbEntity
  8
10000_FRONT
  6
Continuous
 62
     7
370
    35
100
AcDbLine
 10
89.86397799999997
 20
150.611262
 30
0.0
 11
89.86025699999997
 21
150.615224
 31
0.0
  0
LINE
  5
8A67
330
37
100
AcDbEntity
  8
10000_FRONT
  6
Continuous
 62
     7
370
    35
100
AcDbLine
 10
89.86025699999997
 20
150.615224
 30
0.0
 11
89.85653899999999
 21
150.619191
 31
0.0
  0
LINE
  5
8A68
330
37
100
AcDbEntity
  8
10000_FRONT
  6
Continuous
 62
     7
370
    35
100
AcDbLine
 10
89.85653899999999
 20
150.619191
 30
0.0
 11
89.852824
 21
150.623163
 31
0.0
  0
LINE
  5
8A69
330
37
100
AcDbEntity
  8
10000_FRONT
  6
Continuous
 62
     7
370
    35
100
AcDbLine
 10
89.852824
 20
150.623163
 30
0.0
 11
89.84911299999998
 21
150.627141
 31
0.0
  0
LINE
  5
8A6A
330
37
100
AcDbEntity
  8
10000_FRONT
  6
Continuous
 62
     7
370
    35
100
AcDbLine
 10
89.84911299999998
 20
150.627141
 30
0.0
 11
89.84540500000004
 21
150.631124
 31
0.0
  0
LINE
  5
8A6B
330
37
100
AcDbEntity
  8
10000_FRONT
  6
Continuous
 62
     7
370
    35
100
AcDbLine
 10
89.84540500000004
 20
150.631124
 30
0.0
 11
89.8417
 21
150.635112
 31
0.0
  0
LINE
  5
8A6C
330
37
100
AcDbEntity
  8
10000_FRONT
  6
Continuous
 62
     7
370
    35
100
AcDbLine
 10
89.8417
 20
150.635112
 30
0.0
 11
89.83799899999997
 21
150.639107
 31
0.0
  0
LINE
  5
8A6D
330
37
100
AcDbEntity
  8
10000_FRONT
  6
Continuous
 62
     7
370
    35
100
AcDbLine
 10
89.83799899999997
 20
150.639107
 30
0.0
 11
89.83430099999997
 21
150.643106
 31
0.0
  0
LINE
  5
8A6E
330
37
100
AcDbEntity
  8
10000_FRONT
  6
Continuous
 62
     7
370
    35
100
AcDbLine
 10
89.83430099999997
 20
150.643106
 30
0.0
 11
89.83060599999998
 21
150.647111
 31
0.0
  0
LINE
  5
8A6F
330
37
100
AcDbEntity
  8
10000_FRONT
  6
Continuous
 62
     7
370
    35
100
AcDbLine
 10
89.83060599999998
 20
150.647111
 30
0.0
 11
89.82691499999999
 21
150.651122
 31
0.0
  0
LINE
  5
8A70
330
37
100
AcDbEntity
  8
10000_FRONT
  6
Continuous
 62
     7
370
    35
100
AcDbLine
 10
89.82691499999999
 20
150.651122
 30
0.0
 11
89.82322699999995
 21
150.655138
 31
0.0
  0
LINE
  5
8A71
330
37
100
AcDbEntity
  8
10000_FRONT
  6
Continuous
 62
     7
370
    35
100
AcDbLine
 10
89.82322699999995
 20
150.655138
 30
0.0
 11
89.81954200000002
 21
150.659159
 31
0.0
  0
LINE
  5
8A72
330
37
100
AcDbEntity
  8
10000_FRONT
  6
Continuous
 62
     7
370
    35
100
AcDbLine
 10
89.81954200000002
 20
150.659159
 30
0.0
 11
89.81586100000004
 21
150.663186
 31
0.0
  0
LINE
  5
8A73
330
37
100
AcDbEntity
  8
10000_FRONT
  6
Continuous
 62
     7
370
    35
100
AcDbLine
 10
89.81586100000004
 20
150.663186
 30
0.0
 11
89.812183
 21
150.6672179999999
 31
0.0
  0
LINE
  5
8A74
330
37
100
AcDbEntity
  8
10000_FRONT
  6
Continuous
 62
     7
370
    35
100
AcDbLine
 10
89.812183
 20
150.6672179999999
 30
0.0
 11
89.80850800000002
 21
150.671256
 31
0.0
  0
LINE
  5
8A75
330
37
100
AcDbEntity
  8
10000_FRONT
  6
Continuous
 62
     7
370
    35
100
AcDbLine
 10
89.80850800000002
 20
150.671256
 30
0.0
 11
89.80483700000002
 21
150.675299
 31
0.0
  0
LINE
  5
8A76
330
37
100
AcDbEntity
  8
10000_FRONT
  6
Continuous
 62
     7
370
    35
100
AcDbLine
 10
89.80483700000002
 20
150.675299
 30
0.0
 11
89.80116900000002
 21
150.679348
 31
0.0
  0
LINE
  5
8A77
330
37
100
AcDbEntity
  8
10000_FRONT
  6
Continuous
 62
     7
370
    35
100
AcDbLine
 10
89.80116900000002
 20
150.679348
 30
0.0
 11
89.797504
 21
150.683402
 31
0.0
  0
LINE
  5
8A78
330
37
100
AcDbEntity
  8
10000_FRONT
  6
Continuous
 62
     7
370
    35
100
AcDbLine
 10
89.797504
 20
150.683402
 30
0.0
 11
89.79384299999997
 21
150.687461
 31
0.0
  0
LINE
  5
8A79
330
37
100
AcDbEntity
  8
10000_FRONT
  6
Continuous
 62
     7
370
    35
100
AcDbLine
 10
89.79384299999997
 20
150.687461
 30
0.0
 11
89.79018500000002
 21
150.691526
 31
0.0
  0
LINE
  5
8A7A
330
37
100
AcDbEntity
  8
10000_FRONT
  6
Continuous
 62
     7
370
    35
100
AcDbLine
 10
89.79018500000002
 20
150.691526
 30
0.0
 11
89.78653100000002
 21
150.695596
 31
0.0
  0
LINE
  5
8A7B
330
37
100
AcDbEntity
  8
10000_FRONT
  6
Continuous
 62
     7
370
    35
100
AcDbLine
 10
89.78653100000002
 20
150.695596
 30
0.0
 11
89.78287899999996
 21
150.6996719999999
 31
0.0
  0
LINE
  5
8A7C
330
37
100
AcDbEntity
  8
10000_FRONT
  6
Continuous
 62
     7
370
    35
100
AcDbLine
 10
89.78287899999996
 20
150.6996719999999
 30
0.0
 11
89.77923199999997
 21
150.703752
 31
0.0
  0
LINE
  5
8A7D
330
37
100
AcDbEntity
  8
10000_FRONT
  6
Continuous
 62
     7
370
    35
100
AcDbLine
 10
89.77923199999997
 20
150.703752
 30
0.0
 11
89.77558700000004
 21
150.707839
 31
0.0
  0
LINE
  5
8A7E
330
37
100
AcDbEntity
  8
10000_FRONT
  6
Continuous
 62
     7
370
    35
100
AcDbLine
 10
89.77558700000004
 20
150.707839
 30
0.0
 11
89.77194700000003
 21
150.71193
 31
0.0
  0
LINE
  5
8A7F
330
37
100
AcDbEntity
  8
10000_FRONT
  6
Continuous
 62
     7
370
    35
100
AcDbLine
 10
89.77194700000003
 20
150.71193
 30
0.0
 11
89.76830899999999
 21
150.716028
 31
0.0
  0
LINE
  5
8A80
330
37
100
AcDbEntity
  8
10000_FRONT
  6
Continuous
 62
     7
370
    35
100
AcDbLine
 10
89.76830899999999
 20
150.716028
 30
0.0
 11
89.76467500000003
 21
150.72013
 31
0.0
  0
LINE
  5
8A81
330
37
100
AcDbEntity
  8
10000_FRONT
  6
Continuous
 62
     7
370
    35
100
AcDbLine
 10
89.76467500000003
 20
150.72013
 30
0.0
 11
89.76104399999995
 21
150.724238
 31
0.0
  0
LINE
  5
8A82
330
37
100
AcDbEntity
  8
10000_FRONT
  6
Continuous
 62
     7
370
    35
100
AcDbLine
 10
89.76104399999995
 20
150.724238
 30
0.0
 11
89.75741699999998
 21
150.7283509999999
 31
0.0
  0
LINE
  5
8A83
330
37
100
AcDbEntity
  8
10000_FRONT
  6
Continuous
 62
     7
370
    35
100
AcDbLine
 10
89.75741699999998
 20
150.7283509999999
 30
0.0
 11
89.75379299999998
 21
150.732469
 31
0.0
  0
LINE
  5
8A84
330
37
100
AcDbEntity
  8
10000_FRONT
  6
Continuous
 62
     7
370
    35
100
AcDbLine
 10
89.75379299999998
 20
150.732469
 30
0.0
 11
89.75017300000002
 21
150.7365929999999
 31
0.0
  0
LINE
  5
8A85
330
37
100
AcDbEntity
  8
10000_FRONT
  6
Continuous
 62
     7
370
    35
100
AcDbLine
 10
89.75017300000002
 20
150.7365929999999
 30
0.0
 11
89.74655600000001
 21
150.740722
 31
0.0
  0
LINE
  5
8A86
330
37
100
AcDbEntity
  8
10000_FRONT
  6
Continuous
 62
     7
370
    35
100
AcDbLine
 10
89.74655600000001
 20
150.740722
 30
0.0
 11
89.74294199999995
 21
150.744857
 31
0.0
  0
LINE
  5
8A87
330
37
100
AcDbEntity
  8
10000_FRONT
  6
Continuous
 62
     7
370
    35
100
AcDbLine
 10
89.74294199999995
 20
150.744857
 30
0.0
 11
89.73933199999995
 21
150.748997
 31
0.0
  0
LINE
  5
8A88
330
37
100
AcDbEntity
  8
10000_FRONT
  6
Continuous
 62
     7
370
    35
100
AcDbLine
 10
89.73933199999995
 20
150.748997
 30
0.0
 11
89.735726
 21
150.753142
 31
0.0
  0
LINE
  5
8A89
330
37
100
AcDbEntity
  8
10000_FRONT
  6
Continuous
 62
     7
370
    35
100
AcDbLine
 10
90.08009900000002
 20
150.579733
 30
0.0
 11
90.07113900000002
 21
150.579762
 31
0.0
  0
LINE
  5
8A8A
330
37
100
AcDbEntity
  8
10000_FRONT
  6
Continuous
 62
     7
370
    35
100
AcDbLine
 10
90.07113900000002
 20
150.579762
 30
0.0
 11
90.06191499999998
 21
150.579853
 31
0.0
  0
LINE
  5
8A8B
330
37
100
AcDbEntity
  8
10000_FRONT
  6
Continuous
 62
     7
370
    35
100
AcDbLine
 10
90.06191499999998
 20
150.579853
 30
0.0
 11
90.05252300000002
 21
150.580009
 31
0.0
  0
LINE
  5
8A8C
330
37
100
AcDbEntity
  8
10000_FRONT
  6
Continuous
 62
     7
370
    35
100
AcDbLine
 10
90.05252300000002
 20
150.580009
 30
0.0
 11
90.04306400000002
 21
150.580231
 31
0.0
  0
LINE
  5
8A8D
330
37
100
AcDbEntity
  8
10000_FRONT
  6
Continuous
 62
     7
370
    35
100
AcDbLine
 10
90.04306400000002
 20
150.580231
 30
0.0
 11
90.03364099999997
 21
150.580519
 31
0.0
  0
LINE
  5
8A8E
330
37
100
AcDbEntity
  8
10000_FRONT
  6
Continuous
 62
     7
370
    35
100
AcDbLine
 10
90.03364099999997
 20
150.580519
 30
0.0
 11
90.02435400000001
 21
150.58087
 31
0.0
  0
LINE
  5
8A8F
330
37
100
AcDbEntity
  8
10000_FRONT
  6
Continuous
 62
     7
370
    35
100
AcDbLine
 10
90.02435400000001
 20
150.58087
 30
0.0
 11
90.01530000000002
 21
150.581277
 31
0.0
  0
LINE
  5
8A90
330
37
100
AcDbEntity
  8
10000_FRONT
  6
Continuous
 62
     7
370
    35
100
AcDbLine
 10
90.01530000000002
 20
150.581277
 30
0.0
 11
90.00656600000002
 21
150.581733
 31
0.0
  0
LINE
  5
8A91
330
37
100
AcDbEntity
  8
10000_FRONT
  6
Continuous
 62
     7
370
    35
100
AcDbLine
 10
90.00656600000002
 20
150.581733
 30
0.0
 11
89.99822699999999
 21
150.582228
 31
0.0
  0
LINE
  5
8A92
330
37
100
AcDbEntity
  8
10000_FRONT
  6
Continuous
 62
     7
370
    35
100
AcDbLine
 10
89.99822699999999
 20
150.582228
 30
0.0
 11
89.98995300000002
 21
150.582781
 31
0.0
  0
LINE
  5
8A93
330
37
100
AcDbEntity
  8
10000_FRONT
  6
Continuous
 62
     7
370
    35
100
AcDbLine
 10
89.98995300000002
 20
150.582781
 30
0.0
 11
89.98158899999998
 21
150.583405
 31
0.0
  0
LINE
  5
8A94
330
37
100
AcDbEntity
  8
10000_FRONT
  6
Continuous
 62
     7
370
    35
100
AcDbLine
 10
89.98158899999998
 20
150.583405
 30
0.0
 11
89.97323299999996
 21
150.584098
 31
0.0
  0
LINE
  5
8A95
330
37
100
AcDbEntity
  8
10000_FRONT
  6
Continuous
 62
     7
370
    35
100
AcDbLine
 10
89.97323299999996
 20
150.584098
 30
0.0
 11
89.96498400000001
 21
150.584855
 31
0.0
  0
LINE
  5
8A96
330
37
100
AcDbEntity
  8
10000_FRONT
  6
Continuous
 62
     7
370
    35
100
AcDbLine
 10
89.96498400000001
 20
150.584855
 30
0.0
 11
89.95693299999997
 21
150.58567
 31
0.0
  0
LINE
  5
8A97
330
37
100
AcDbEntity
  8
10000_FRONT
  6
Continuous
 62
     7
370
    35
100
AcDbLine
 10
89.95693299999997
 20
150.58567
 30
0.0
 11
89.94916399999999
 21
150.586533
 31
0.0
  0
LINE
  5
8A98
330
37
100
AcDbEntity
  8
10000_FRONT
  6
Continuous
 62
     7
370
    35
100
AcDbLine
 10
89.94916399999999
 20
150.586533
 30
0.0
 11
89.94175300000001
 21
150.587435
 31
0.0
  0
LINE
  5
8A99
330
37
100
AcDbEntity
  8
10000_FRONT
  6
Continuous
 62
     7
370
    35
100
AcDbLine
 10
89.94175300000001
 20
150.587435
 30
0.0
 11
89.93476300000002
 21
150.588362
 31
0.0
  0
LINE
  5
8A9A
330
37
100
AcDbEntity
  8
10000_FRONT
  6
Continuous
 62
     7
370
    35
100
AcDbLine
 10
89.93476300000002
 20
150.588362
 30
0.0
 11
89.92822999999999
 21
150.589305
 31
0.0
  0
LINE
  5
8A9B
330
37
100
AcDbEntity
  8
10000_FRONT
  6
Continuous
 62
     7
370
    35
100
AcDbLine
 10
89.92822999999999
 20
150.589305
 30
0.0
 11
89.92186000000002
 21
150.590303
 31
0.0
  0
LINE
  5
8A9C
330
37
100
AcDbEntity
  8
10000_FRONT
  6
Continuous
 62
     7
370
    35
100
AcDbLine
 10
89.92186000000002
 20
150.590303
 30
0.0
 11
89.91558700000002
 21
150.591373
 31
0.0
  0
LINE
  5
8A9D
330
37
100
AcDbEntity
  8
10000_FRONT
  6
Continuous
 62
     7
370
    35
100
AcDbLine
 10
89.91558700000002
 20
150.591373
 30
0.0
 11
89.90950299999996
 21
150.592506
 31
0.0
  0
LINE
  5
8A9E
330
37
100
AcDbEntity
  8
10000_FRONT
  6
Continuous
 62
     7
370
    35
100
AcDbLine
 10
89.90950299999996
 20
150.592506
 30
0.0
 11
89.90368899999998
 21
150.593693
 31
0.0
  0
LINE
  5
8A9F
330
37
100
AcDbEntity
  8
10000_FRONT
  6
Continuous
 62
     7
370
    35
100
AcDbLine
 10
89.90368899999998
 20
150.593693
 30
0.0
 11
89.89821599999997
 21
150.59492
 31
0.0
  0
LINE
  5
8AA0
330
37
100
AcDbEntity
  8
10000_FRONT
  6
Continuous
 62
     7
370
    35
100
AcDbLine
 10
89.89821599999997
 20
150.59492
 30
0.0
 11
89.89314400000003
 21
150.596175
 31
0.0
  0
LINE
  5
8AA1
330
37
100
AcDbEntity
  8
10000_FRONT
  6
Continuous
 62
     7
370
    35
100
AcDbLine
 10
89.89314400000003
 20
150.596175
 30
0.0
 11
89.88851499999999
 21
150.597442
 31
0.0
  0
LINE
  5
8AA2
330
37
100
AcDbEntity
  8
10000_FRONT
  6
Continuous
 62
     7
370
    35
100
AcDbLine
 10
89.88851499999999
 20
150.597442
 30
0.0
 11
89.88435900000002
 21
150.598706
 31
0.0
  0
LINE
  5
8AA3
330
37
100
AcDbEntity
  8
10000_FRONT
  6
Continuous
 62
     7
370
    35
100
AcDbLine
 10
89.88435900000002
 20
150.598706
 30
0.0
 11
89.88065399999998
 21
150.599964
 31
0.0
  0
LINE
  5
8AA4
330
37
100
AcDbEntity
  8
10000_FRONT
  6
Continuous
 62
     7
370
    35
100
AcDbLine
 10
89.88065399999998
 20
150.599964
 30
0.0
 11
89.87721399999998
 21
150.601279
 31
0.0
  0
LINE
  5
8AA5
330
37
100
AcDbEntity
  8
10000_FRONT
  6
Continuous
 62
     7
370
    35
100
AcDbLine
 10
89.87721399999998
 20
150.601279
 30
0.0
 11
89.87407100000002
 21
150.602653
 31
0.0
  0
LINE
  5
8AA6
330
37
100
AcDbEntity
  8
10000_FRONT
  6
Continuous
 62
     7
370
    35
100
AcDbLine
 10
89.87407100000002
 20
150.602653
 30
0.0
 11
89.87129099999998
 21
150.6040719999999
 31
0.0
  0
LINE
  5
8AA7
330
37
100
AcDbEntity
  8
10000_FRONT
  6
Continuous
 62
     7
370
    35
100
AcDbLine
 10
89.87129099999998
 20
150.6040719999999
 30
0.0
 11
89.86892299999999
 21
150.60552
 31
0.0
  0
LINE
  5
8AA8
330
37
100
AcDbEntity
  8
10000_FRONT
  6
Continuous
 62
     7
370
    35
100
AcDbLine
 10
89.86892299999999
 20
150.60552
 30
0.0
 11
89.86700100000001
 21
150.606981
 31
0.0
  0
LINE
  5
8AA9
330
37
100
AcDbEntity
  8
10000_FRONT
  6
Continuous
 62
     7
370
    35
100
AcDbLine
 10
89.86700100000001
 20
150.606981
 30
0.0
 11
89.86554100000002
 21
150.608436
 31
0.0
  0
LINE
  5
8AAA
330
37
100
AcDbEntity
  8
10000_FRONT
  6
Continuous
 62
     7
370
    35
100
AcDbLine
 10
89.86554100000002
 20
150.608436
 30
0.0
 11
89.86454000000003
 21
150.609869
 31
0.0
  0
LINE
  5
8AAB
330
37
100
AcDbEntity
  8
10000_FRONT
  6
Continuous
 62
     7
370
    35
100
AcDbLine
 10
89.86454000000003
 20
150.609869
 30
0.0
 11
89.86397799999997
 21
150.611262
 31
0.0
  0
LINE
  5
8AAC
330
37
100
AcDbEntity
  8
10000_FRONT
  6
Continuous
 62
     7
370
    35
100
AcDbLine
 10
89.86397799999997
 20
151.995022
 30
0.0
 11
89.86454000000003
 21
151.996415
 31
0.0
  0
LINE
  5
8AAD
330
37
100
AcDbEntity
  8
10000_FRONT
  6
Continuous
 62
     7
370
    35
100
AcDbLine
 10
89.86454000000003
 20
151.996415
 30
0.0
 11
89.86554100000002
 21
151.997848
 31
0.0
  0
LINE
  5
8AAE
330
37
100
AcDbEntity
  8
10000_FRONT
  6
Continuous
 62
     7
370
    35
100
AcDbLine
 10
89.86554100000002
 20
151.997848
 30
0.0
 11
89.86700100000001
 21
151.999303
 31
0.0
  0
LINE
  5
8AAF
330
37
100
AcDbEntity
  8
10000_FRONT
  6
Continuous
 62
     7
370
    35
100
AcDbLine
 10
89.86700100000001
 20
151.999303
 30
0.0
 11
89.86892299999999
 21
152.000764
 31
0.0
  0
LINE
  5
8AB0
330
37
100
AcDbEntity
  8
10000_FRONT
  6
Continuous
 62
     7
370
    35
100
AcDbLine
 10
89.86892299999999
 20
152.000764
 30
0.0
 11
89.87129099999998
 21
152.002212
 31
0.0
  0
LINE
  5
8AB1
330
37
100
AcDbEntity
  8
10000_FRONT
  6
Continuous
 62
     7
370
    35
100
AcDbLine
 10
89.87129099999998
 20
152.002212
 30
0.0
 11
89.87407100000002
 21
152.003631
 31
0.0
  0
LINE
  5
8AB2
330
37
100
AcDbEntity
  8
10000_FRONT
  6
Continuous
 62
     7
370
    35
100
AcDbLine
 10
89.87407100000002
 20
152.003631
 30
0.0
 11
89.87721399999998
 21
152.005005
 31
0.0
  0
LINE
  5
8AB3
330
37
100
AcDbEntity
  8
10000_FRONT
  6
Continuous
 62
     7
370
    35
100
AcDbLine
 10
89.87721399999998
 20
152.005005
 30
0.0
 11
89.88065399999998
 21
152.00632
 31
0.0
  0
LINE
  5
8AB4
330
37
100
AcDbEntity
  8
10000_FRONT
  6
Continuous
 62
     7
370
    35
100
AcDbLine
 10
89.88065399999998
 20
152.00632
 30
0.0
 11
89.88435900000002
 21
152.007578
 31
0.0
  0
LINE
  5
8AB5
330
37
100
AcDbEntity
  8
10000_FRONT
  6
Continuous
 62
     7
370
    35
100
AcDbLine
 10
89.88435900000002
 20
152.007578
 30
0.0
 11
89.88851499999999
 21
152.008842
 31
0.0
  0
LINE
  5
8AB6
330
37
100
AcDbEntity
  8
10000_FRONT
  6
Continuous
 62
     7
370
    35
100
AcDbLine
 10
89.88851499999999
 20
152.008842
 30
0.0
 11
89.89314400000003
 21
152.010109
 31
0.0
  0
LINE
  5
8AB7
330
37
100
AcDbEntity
  8
10000_FRONT
  6
Continuous
 62
     7
370
    35
100
AcDbLine
 10
89.89314400000003
 20
152.010109
 30
0.0
 11
89.89821599999997
 21
152.011364
 31
0.0
  0
LINE
  5
8AB8
330
37
100
AcDbEntity
  8
10000_FRONT
  6
Continuous
 62
     7
370
    35
100
AcDbLine
 10
89.89821599999997
 20
152.011364
 30
0.0
 11
89.90368899999998
 21
152.012591
 31
0.0
  0
LINE
  5
8AB9
330
37
100
AcDbEntity
  8
10000_FRONT
  6
Continuous
 62
     7
370
    35
100
AcDbLine
 10
89.90368899999998
 20
152.012591
 30
0.0
 11
89.90950299999996
 21
152.013778
 31
0.0
  0
LINE
  5
8ABA
330
37
100
AcDbEntity
  8
10000_FRONT
  6
Continuous
 62
     7
370
    35
100
AcDbLine
 10
89.90950299999996
 20
152.013778
 30
0.0
 11
89.91558700000002
 21
152.014911
 31
0.0
  0
LINE
  5
8ABB
330
37
100
AcDbEntity
  8
10000_FRONT
  6
Continuous
 62
     7
370
    35
100
AcDbLine
 10
89.91558700000002
 20
152.014911
 30
0.0
 11
89.92186000000002
 21
152.015981
 31
0.0
  0
LINE
  5
8ABC
330
37
100
AcDbEntity
  8
10000_FRONT
  6
Continuous
 62
     7
370
    35
100
AcDbLine
 10
89.92186000000002
 20
152.015981
 30
0.0
 11
89.92822999999999
 21
152.016979
 31
0.0
  0
LINE
  5
8ABD
330
37
100
AcDbEntity
  8
10000_FRONT
  6
Continuous
 62
     7
370
    35
100
AcDbLine
 10
89.92822999999999
 20
152.016979
 30
0.0
 11
89.93476300000002
 21
152.017922
 31
0.0
  0
LINE
  5
8ABE
330
37
100
AcDbEntity
  8
10000_FRONT
  6
Continuous
 62
     7
370
    35
100
AcDbLine
 10
89.93476300000002
 20
152.017922
 30
0.0
 11
89.94175300000001
 21
152.018849
 31
0.0
  0
LINE
  5
8ABF
330
37
100
AcDbEntity
  8
10000_FRONT
  6
Continuous
 62
     7
370
    35
100
AcDbLine
 10
89.94175300000001
 20
152.018849
 30
0.0
 11
89.94916399999999
 21
152.019751
 31
0.0
  0
LINE
  5
8AC0
330
37
100
AcDbEntity
  8
10000_FRONT
  6
Continuous
 62
     7
370
    35
100
AcDbLine
 10
89.94916399999999
 20
152.019751
 30
0.0
 11
89.95693299999997
 21
152.020614
 31
0.0
  0
LINE
  5
8AC1
330
37
100
AcDbEntity
  8
10000_FRONT
  6
Continuous
 62
     7
370
    35
100
AcDbLine
 10
89.95693299999997
 20
152.020614
 30
0.0
 11
89.96498400000001
 21
152.021429
 31
0.0
  0
LINE
  5
8AC2
330
37
100
AcDbEntity
  8
10000_FRONT
  6
Continuous
 62
     7
370
    35
100
AcDbLine
 10
89.96498400000001
 20
152.021429
 30
0.0
 11
89.97323299999996
 21
152.022186
 31
0.0
  0
LINE
  5
8AC3
330
37
100
AcDbEntity
  8
10000_FRONT
  6
Continuous
 62
     7
370
    35
100
AcDbLine
 10
89.97323299999996
 20
152.022186
 30
0.0
 11
89.98158899999998
 21
152.022879
 31
0.0
  0
LINE
  5
8AC4
330
37
100
AcDbEntity
  8
10000_FRONT
  6
Continuous
 62
     7
370
    35
100
AcDbLine
 10
89.98158899999998
 20
152.022879
 30
0.0
 11
89.98995300000002
 21
152.023503
 31
0.0
  0
LINE
  5
8AC5
330
37
100
AcDbEntity
  8
10000_FRONT
  6
Continuous
 62
     7
370
    35
100
AcDbLine
 10
89.98995300000002
 20
152.023503
 30
0.0
 11
89.99822699999999
 21
152.024056
 31
0.0
  0
LINE
  5
8AC6
330
37
100
AcDbEntity
  8
10000_FRONT
  6
Continuous
 62
     7
370
    35
100
AcDbLine
 10
89.99822699999999
 20
152.024056
 30
0.0
 11
90.00656600000002
 21
152.024551
 31
0.0
  0
LINE
  5
8AC7
330
37
100
AcDbEntity
  8
10000_FRONT
  6
Continuous
 62
     7
370
    35
100
AcDbLine
 10
90.00656600000002
 20
152.024551
 30
0.0
 11
90.01530000000002
 21
152.025007
 31
0.0
  0
LINE
  5
8AC8
330
37
100
AcDbEntity
  8
10000_FRONT
  6
Continuous
 62
     7
370
    35
100
AcDbLine
 10
90.01530000000002
 20
152.025007
 30
0.0
 11
90.02435400000001
 21
152.025414
 31
0.0
  0
LINE
  5
8AC9
330
37
100
AcDbEntity
  8
10000_FRONT
  6
Continuous
 62
     7
370
    35
100
AcDbLine
 10
90.02435400000001
 20
152.025414
 30
0.0
 11
90.03364099999997
 21
152.025765
 31
0.0
  0
LINE
  5
8ACA
330
37
100
AcDbEntity
  8
10000_FRONT
  6
Continuous
 62
     7
370
    35
100
AcDbLine
 10
90.03364099999997
 20
152.025765
 30
0.0
 11
90.04306400000002
 21
152.026053
 31
0.0
  0
LINE
  5
8ACB
330
37
100
AcDbEntity
  8
10000_FRONT
  6
Continuous
 62
     7
370
    35
100
AcDbLine
 10
90.04306400000002
 20
152.026053
 30
0.0
 11
90.05252300000002
 21
152.026275
 31
0.0
  0
LINE
  5
8ACC
330
37
100
AcDbEntity
  8
10000_FRONT
  6
Continuous
 62
     7
370
    35
100
AcDbLine
 10
90.05252300000002
 20
152.026275
 30
0.0
 11
90.06191499999998
 21
152.026431
 31
0.0
  0
LINE
  5
8ACD
330
37
100
AcDbEntity
  8
10000_FRONT
  6
Continuous
 62
     7
370
    35
100
AcDbLine
 10
90.06191499999998
 20
152.026431
 30
0.0
 11
90.07113900000002
 21
152.026522
 31
0.0
  0
LINE
  5
8ACE
330
37
100
AcDbEntity
  8
10000_FRONT
  6
Continuous
 62
     7
370
    35
100
AcDbLine
 10
90.07113900000002
 20
152.026522
 30
0.0
 11
90.08009900000002
 21
152.026551
 31
0.0
  0
LINE
  5
8ACF
330
37
100
AcDbEntity
  8
10000_FRONT
  6
Continuous
 62
     7
370
    35
100
AcDbLine
 10
89.735726
 20
151.853142
 30
0.0
 11
89.73933199999995
 21
151.857287
 31
0.0
  0
LINE
  5
8AD0
330
37
100
AcDbEntity
  8
10000_FRONT
  6
Continuous
 62
     7
370
    35
100
AcDbLine
 10
89.73933199999995
 20
151.857287
 30
0.0
 11
89.74294199999995
 21
151.861427
 31
0.0
  0
LINE
  5
8AD1
330
37
100
AcDbEntity
  8
10000_FRONT
  6
Continuous
 62
     7
370
    35
100
AcDbLine
 10
89.74294199999995
 20
151.861427
 30
0.0
 11
89.74655600000001
 21
151.865562
 31
0.0
  0
LINE
  5
8AD2
330
37
100
AcDbEntity
  8
10000_FRONT
  6
Continuous
 62
     7
370
    35
100
AcDbLine
 10
89.74655600000001
 20
151.865562
 30
0.0
 11
89.75017300000002
 21
151.869691
 31
0.0
  0
LINE
  5
8AD3
330
37
100
AcDbEntity
  8
10000_FRONT
  6
Continuous
 62
     7
370
    35
100
AcDbLine
 10
89.75017300000002
 20
151.869691
 30
0.0
 11
89.75379299999998
 21
151.873815
 31
0.0
  0
LINE
  5
8AD4
330
37
100
AcDbEntity
  8
10000_FRONT
  6
Continuous
 62
     7
370
    35
100
AcDbLine
 10
89.75379299999998
 20
151.873815
 30
0.0
 11
89.75741699999998
 21
151.877933
 31
0.0
  0
LINE
  5
8AD5
330
37
100
AcDbEntity
  8
10000_FRONT
  6
Continuous
 62
     7
370
    35
100
AcDbLine
 10
89.75741699999998
 20
151.877933
 30
0.0
 11
89.76104399999995
 21
151.882046
 31
0.0
  0
LINE
  5
8AD6
330
37
100
AcDbEntity
  8
10000_FRONT
  6
Continuous
 62
     7
370
    35
100
AcDbLine
 10
89.76104399999995
 20
151.882046
 30
0.0
 11
89.76467500000003
 21
151.886154
 31
0.0
  0
LINE
  5
8AD7
330
37
100
AcDbEntity
  8
10000_FRONT
  6
Continuous
 62
     7
370
    35
100
AcDbLine
 10
89.76467500000003
 20
151.886154
 30
0.0
 11
89.76830899999999
 21
151.890256
 31
0.0
  0
LINE
  5
8AD8
330
37
100
AcDbEntity
  8
10000_FRONT
  6
Continuous
 62
     7
370
    35
100
AcDbLine
 10
89.76830899999999
 20
151.890256
 30
0.0
 11
89.77194700000003
 21
151.894354
 31
0.0
  0
LINE
  5
8AD9
330
37
100
AcDbEntity
  8
10000_FRONT
  6
Continuous
 62
     7
370
    35
100
AcDbLine
 10
89.77194700000003
 20
151.894354
 30
0.0
 11
89.77558700000004
 21
151.898445
 31
0.0
  0
LINE
  5
8ADA
330
37
100
AcDbEntity
  8
10000_FRONT
  6
Continuous
 62
     7
370
    35
100
AcDbLine
 10
89.77558700000004
 20
151.898445
 30
0.0
 11
89.77923199999997
 21
151.902532
 31
0.0
  0
LINE
  5
8ADB
330
37
100
AcDbEntity
  8
10000_FRONT
  6
Continuous
 62
     7
370
    35
100
AcDbLine
 10
89.77923199999997
 20
151.902532
 30
0.0
 11
89.78287899999996
 21
151.906612
 31
0.0
  0
LINE
  5
8ADC
330
37
100
AcDbEntity
  8
10000_FRONT
  6
Continuous
 62
     7
370
    35
100
AcDbLine
 10
89.78287899999996
 20
151.906612
 30
0.0
 11
89.78653100000002
 21
151.910688
 31
0.0
  0
LINE
  5
8ADD
330
37
100
AcDbEntity
  8
10000_FRONT
  6
Continuous
 62
     7
370
    35
100
AcDbLine
 10
89.78653100000002
 20
151.910688
 30
0.0
 11
89.79018500000002
 21
151.914758
 31
0.0
  0
LINE
  5
8ADE
330
37
100
AcDbEntity
  8
10000_FRONT
  6
Continuous
 62
     7
370
    35
100
AcDbLine
 10
89.79018500000002
 20
151.914758
 30
0.0
 11
89.79384299999997
 21
151.918823
 31
0.0
  0
LINE
  5
8ADF
330
37
100
AcDbEntity
  8
10000_FRONT
  6
Continuous
 62
     7
370
    35
100
AcDbLine
 10
89.79384299999997
 20
151.918823
 30
0.0
 11
89.797504
 21
151.922882
 31
0.0
  0
LINE
  5
8AE0
330
37
100
AcDbEntity
  8
10000_FRONT
  6
Continuous
 62
     7
370
    35
100
AcDbLine
 10
89.797504
 20
151.922882
 30
0.0
 11
89.80116900000002
 21
151.926936
 31
0.0
  0
LINE
  5
8AE1
330
37
100
AcDbEntity
  8
10000_FRONT
  6
Continuous
 62
     7
370
    35
100
AcDbLine
 10
89.80116900000002
 20
151.926936
 30
0.0
 11
89.80483700000002
 21
151.9309850000001
 31
0.0
  0
LINE
  5
8AE2
330
37
100
AcDbEntity
  8
10000_FRONT
  6
Continuous
 62
     7
370
    35
100
AcDbLine
 10
89.80483700000002
 20
151.9309850000001
 30
0.0
 11
89.80850800000002
 21
151.935028
 31
0.0
  0
LINE
  5
8AE3
330
37
100
AcDbEntity
  8
10000_FRONT
  6
Continuous
 62
     7
370
    35
100
AcDbLine
 10
89.80850800000002
 20
151.935028
 30
0.0
 11
89.812183
 21
151.939066
 31
0.0
  0
LINE
  5
8AE4
330
37
100
AcDbEntity
  8
10000_FRONT
  6
Continuous
 62
     7
370
    35
100
AcDbLine
 10
89.812183
 20
151.939066
 30
0.0
 11
89.81586100000004
 21
151.943098
 31
0.0
  0
LINE
  5
8AE5
330
37
100
AcDbEntity
  8
10000_FRONT
  6
Continuous
 62
     7
370
    35
100
AcDbLine
 10
89.81586100000004
 20
151.943098
 30
0.0
 11
89.81954200000002
 21
151.947125
 31
0.0
  0
LINE
  5
8AE6
330
37
100
AcDbEntity
  8
10000_FRONT
  6
Continuous
 62
     7
370
    35
100
AcDbLine
 10
89.81954200000002
 20
151.947125
 30
0.0
 11
89.82322699999995
 21
151.951146
 31
0.0
  0
LINE
  5
8AE7
330
37
100
AcDbEntity
  8
10000_FRONT
  6
Continuous
 62
     7
370
    35
100
AcDbLine
 10
89.82322699999995
 20
151.951146
 30
0.0
 11
89.82691499999999
 21
151.955162
 31
0.0
  0
LINE
  5
8AE8
330
37
100
AcDbEntity
  8
10000_FRONT
  6
Continuous
 62
     7
370
    35
100
AcDbLine
 10
89.82691499999999
 20
151.955162
 30
0.0
 11
89.83060599999998
 21
151.959173
 31
0.0
  0
LINE
  5
8AE9
330
37
100
AcDbEntity
  8
10000_FRONT
  6
Continuous
 62
     7
370
    35
100
AcDbLine
 10
89.83060599999998
 20
151.959173
 30
0.0
 11
89.83430099999997
 21
151.9631779999999
 31
0.0
  0
LINE
  5
8AEA
330
37
100
AcDbEntity
  8
10000_FRONT
  6
Continuous
 62
     7
370
    35
100
AcDbLine
 10
89.83430099999997
 20
151.9631779999999
 30
0.0
 11
89.83799899999997
 21
151.967177
 31
0.0
  0
LINE
  5
8AEB
330
37
100
AcDbEntity
  8
10000_FRONT
  6
Continuous
 62
     7
370
    35
100
AcDbLine
 10
89.83799899999997
 20
151.967177
 30
0.0
 11
89.8417
 21
151.971172
 31
0.0
  0
LINE
  5
8AEC
330
37
100
AcDbEntity
  8
10000_FRONT
  6
Continuous
 62
     7
370
    35
100
AcDbLine
 10
89.8417
 20
151.971172
 30
0.0
 11
89.84540500000004
 21
151.9751600000001
 31
0.0
  0
LINE
  5
8AED
330
37
100
AcDbEntity
  8
10000_FRONT
  6
Continuous
 62
     7
370
    35
100
AcDbLine
 10
89.84540500000004
 20
151.9751600000001
 30
0.0
 11
89.84911299999998
 21
151.979143
 31
0.0
  0
LINE
  5
8AEE
330
37
100
AcDbEntity
  8
10000_FRONT
  6
Continuous
 62
     7
370
    35
100
AcDbLine
 10
89.84911299999998
 20
151.979143
 30
0.0
 11
89.852824
 21
151.9831209999999
 31
0.0
  0
LINE
  5
8AEF
330
37
100
AcDbEntity
  8
10000_FRONT
  6
Continuous
 62
     7
370
    35
100
AcDbLine
 10
89.852824
 20
151.9831209999999
 30
0.0
 11
89.85653899999999
 21
151.987093
 31
0.0
  0
LINE
  5
8AF0
330
37
100
AcDbEntity
  8
10000_FRONT
  6
Continuous
 62
     7
370
    35
100
AcDbLine
 10
89.85653899999999
 20
151.987093
 30
0.0
 11
89.86025699999997
 21
151.99106
 31
0.0
  0
LINE
  5
8AF1
330
37
100
AcDbEntity
  8
10000_FRONT
  6
Continuous
 62
     7
370
    35
100
AcDbLine
 10
89.86025699999997
 20
151.99106
 30
0.0
 11
89.86397799999997
 21
151.995022
 31
0.0
  0
LINE
  5
8AF2
330
37
100
AcDbEntity
  8
10200_FRONT_SYM
  6
CENTER
 62
     7
 48
0.125
370
    18
100
AcDbLine
 10
89.21312349999999
 20
151.3099078058795
 30
0.0
 11
95.83203063781937
 21
151.3099078058795
 31
0.0
  0
LINE
  5
8AF3
330
37
100
AcDbEntity
  8
10200_FRONT_SYM
  6
CENTER
 62
     7
 48
0.125
370
    18
100
AcDbLine
 10
92.54592800000002
 20
147.8122624999999
 30
0.0
 11
92.54592800000002
 21
154.7940215
 31
0.0
  0
ARC
  5
8AF4
330
37
100
AcDbEntity
  8
10000_FRONT
  6
Continuous
 62
     7
370
    35
100
AcDbCircle
 10
77.54592800000001
 20
171.453142
 30
0.0
 40
1.85
100
AcDbArc
 50
73.83655499999936
 51
106.1634450000006
  0
LINE
  5
8AF5
330
37
100
AcDbEntity
  8
10000_FRONT
  6
Continuous
 62
     7
370
    35
100
AcDbLine
 10
77.03092800000002
 20
169.37627
 30
0.0
 11
77.03092800000002
 21
170.579733
 31
0.0
  0
LINE
  5
8AF6
330
37
100
AcDbEntity
  8
10000_FRONT
  6
Continuous
 62
     7
370
    35
100
AcDbLine
 10
78.06092799999998
 20
170.579733
 30
0.0
 11
78.06092799999998
 21
169.37627
 31
0.0
  0
LINE
  5
8AF7
330
37
100
AcDbEntity
  8
10000_FRONT
  6
Continuous
 62
     7
370
    35
100
AcDbLine
 10
78.06092799999998
 20
173.2300139999999
 30
0.0
 11
78.06092799999998
 21
172.026551
 31
0.0
  0
ARC
  5
8AF8
330
37
100
AcDbEntity
  8
10000_FRONT
  6
Continuous
 62
     7
370
    35
100
AcDbCircle
 10
77.54592800000001
 20
171.153142
 30
0.0
 40
1.85
100
AcDbArc
 50
253.8365549999991
 51
286.1634450000007
  0
LINE
  5
8AF9
330
37
100
AcDbEntity
  8
10000_FRONT
  6
Continuous
 62
     7
370
    35
100
AcDbLine
 10
77.03092800000002
 20
172.026551
 30
0.0
 11
77.03092800000002
 21
173.2300139999999
 31
0.0
  0
LINE
  5
8AFA
330
37
100
AcDbEntity
  8
10000_FRONT
  6
Continuous
 62
     7
370
    35
100
AcDbLine
 10
78.06092799999998
 20
172.026551
 30
0.0
 11
80.01175699999995
 21
172.026551
 31
0.0
  0
LINE
  5
8AFB
330
37
100
AcDbEntity
  8
10000_FRONT
  6
Continuous
 62
     7
370
    35
100
AcDbLine
 10
75.08009900000002
 20
172.026551
 30
0.0
 11
77.03092800000002
 21
172.026551
 31
0.0
  0
LINE
  5
8AFC
330
37
100
AcDbEntity
  8
10000_FRONT
  6
Continuous
 62
     7
370
    35
100
AcDbLine
 10
80.22787800000003
 20
171.995022
 30
0.0
 11
80.23159899999994
 21
171.99106
 31
0.0
  0
LINE
  5
8AFD
330
37
100
AcDbEntity
  8
10000_FRONT
  6
Continuous
 62
     7
370
    35
100
AcDbLine
 10
80.23159899999994
 20
171.99106
 30
0.0
 11
80.2353169999999
 21
171.987093
 31
0.0
  0
LINE
  5
8AFE
330
37
100
AcDbEntity
  8
10000_FRONT
  6
Continuous
 62
     7
370
    35
100
AcDbLine
 10
80.2353169999999
 20
171.987093
 30
0.0
 11
80.23903200000004
 21
171.9831209999999
 31
0.0
  0
LINE
  5
8AFF
330
37
100
AcDbEntity
  8
10000_FRONT
  6
Continuous
 62
     7
370
    35
100
AcDbLine
 10
80.23903200000004
 20
171.9831209999999
 30
0.0
 11
80.242743
 21
171.979143
 31
0.0
  0
LINE
  5
8B00
330
37
100
AcDbEntity
  8
10000_FRONT
  6
Continuous
 62
     7
370
    35
100
AcDbLine
 10
80.242743
 20
171.979143
 30
0.0
 11
80.24645099999998
 21
171.9751600000001
 31
0.0
  0
LINE
  5
8B01
330
37
100
AcDbEntity
  8
10000_FRONT
  6
Continuous
 62
     7
370
    35
100
AcDbLine
 10
80.24645099999998
 20
171.9751600000001
 30
0.0
 11
80.25015600000001
 21
171.971172
 31
0.0
  0
LINE
  5
8B02
330
37
100
AcDbEntity
  8
10000_FRONT
  6
Continuous
 62
     7
370
    35
100
AcDbLine
 10
80.25015600000001
 20
171.971172
 30
0.0
 11
80.25385700000006
 21
171.967177
 31
0.0
  0
LINE
  5
8B03
330
37
100
AcDbEntity
  8
10000_FRONT
  6
Continuous
 62
     7
370
    35
100
AcDbLine
 10
80.25385700000006
 20
171.967177
 30
0.0
 11
80.25755500000002
 21
171.9631779999999
 31
0.0
  0
LINE
  5
8B04
330
37
100
AcDbEntity
  8
10000_FRONT
  6
Continuous
 62
     7
370
    35
100
AcDbLine
 10
80.25755500000002
 20
171.9631779999999
 30
0.0
 11
80.26125000000002
 21
171.959173
 31
0.0
  0
LINE
  5
8B05
330
37
100
AcDbEntity
  8
10000_FRONT
  6
Continuous
 62
     7
370
    35
100
AcDbLine
 10
80.26125000000002
 20
171.959173
 30
0.0
 11
80.26494100000002
 21
171.955162
 31
0.0
  0
LINE
  5
8B06
330
37
100
AcDbEntity
  8
10000_FRONT
  6
Continuous
 62
     7
370
    35
100
AcDbLine
 10
80.26494100000002
 20
171.955162
 30
0.0
 11
80.26862900000002
 21
171.951146
 31
0.0
  0
LINE
  5
8B07
330
37
100
AcDbEntity
  8
10000_FRONT
  6
Continuous
 62
     7
370
    35
100
AcDbLine
 10
80.26862900000002
 20
171.951146
 30
0.0
 11
80.27231400000003
 21
171.947125
 31
0.0
  0
LINE
  5
8B08
330
37
100
AcDbEntity
  8
10000_FRONT
  6
Continuous
 62
     7
370
    35
100
AcDbLine
 10
80.27231400000003
 20
171.947125
 30
0.0
 11
80.27599499999997
 21
171.943098
 31
0.0
  0
LINE
  5
8B09
330
37
100
AcDbEntity
  8
10000_FRONT
  6
Continuous
 62
     7
370
    35
100
AcDbLine
 10
80.27599499999997
 20
171.943098
 30
0.0
 11
80.279673
 21
171.939066
 31
0.0
  0
LINE
  5
8B0A
330
37
100
AcDbEntity
  8
10000_FRONT
  6
Continuous
 62
     7
370
    35
100
AcDbLine
 10
80.279673
 20
171.939066
 30
0.0
 11
80.28334799999994
 21
171.935028
 31
0.0
  0
LINE
  5
8B0B
330
37
100
AcDbEntity
  8
10000_FRONT
  6
Continuous
 62
     7
370
    35
100
AcDbLine
 10
80.28334799999994
 20
171.935028
 30
0.0
 11
80.28701899999999
 21
171.9309850000001
 31
0.0
  0
LINE
  5
8B0C
330
37
100
AcDbEntity
  8
10000_FRONT
  6
Continuous
 62
     7
370
    35
100
AcDbLine
 10
80.28701899999999
 20
171.9309850000001
 30
0.0
 11
80.29068700000003
 21
171.926936
 31
0.0
  0
LINE
  5
8B0D
330
37
100
AcDbEntity
  8
10000_FRONT
  6
Continuous
 62
     7
370
    35
100
AcDbLine
 10
80.29068700000003
 20
171.926936
 30
0.0
 11
80.29435199999998
 21
171.922882
 31
0.0
  0
LINE
  5
8B0E
330
37
100
AcDbEntity
  8
10000_FRONT
  6
Continuous
 62
     7
370
    35
100
AcDbLine
 10
80.29435199999998
 20
171.922882
 30
0.0
 11
80.29801300000002
 21
171.918823
 31
0.0
  0
LINE
  5
8B0F
330
37
100
AcDbEntity
  8
10000_FRONT
  6
Continuous
 62
     7
370
    35
100
AcDbLine
 10
80.29801300000002
 20
171.918823
 30
0.0
 11
80.30167099999998
 21
171.914758
 31
0.0
  0
LINE
  5
8B10
330
37
100
AcDbEntity
  8
10000_FRONT
  6
Continuous
 62
     7
370
    35
100
AcDbLine
 10
80.30167099999998
 20
171.914758
 30
0.0
 11
80.30532500000004
 21
171.910688
 31
0.0
  0
LINE
  5
8B11
330
37
100
AcDbEntity
  8
10000_FRONT
  6
Continuous
 62
     7
370
    35
100
AcDbLine
 10
80.30532500000004
 20
171.910688
 30
0.0
 11
80.30897700000002
 21
171.906612
 31
0.0
  0
LINE
  5
8B12
330
37
100
AcDbEntity
  8
10000_FRONT
  6
Continuous
 62
     7
370
    35
100
AcDbLine
 10
80.30897700000002
 20
171.906612
 30
0.0
 11
80.31262400000001
 21
171.902532
 31
0.0
  0
LINE
  5
8B13
330
37
100
AcDbEntity
  8
10000_FRONT
  6
Continuous
 62
     7
370
    35
100
AcDbLine
 10
80.31262400000001
 20
171.902532
 30
0.0
 11
80.31626900000004
 21
171.898445
 31
0.0
  0
LINE
  5
8B14
330
37
100
AcDbEntity
  8
10000_FRONT
  6
Continuous
 62
     7
370
    35
100
AcDbLine
 10
80.31626900000004
 20
171.898445
 30
0.0
 11
80.319909
 21
171.894354
 31
0.0
  0
LINE
  5
8B15
330
37
100
AcDbEntity
  8
10000_FRONT
  6
Continuous
 62
     7
370
    35
100
AcDbLine
 10
80.319909
 20
171.894354
 30
0.0
 11
80.32354699999997
 21
171.890256
 31
0.0
  0
LINE
  5
8B16
330
37
100
AcDbEntity
  8
10000_FRONT
  6
Continuous
 62
     7
370
    35
100
AcDbLine
 10
80.32354699999997
 20
171.890256
 30
0.0
 11
80.32718100000002
 21
171.886154
 31
0.0
  0
LINE
  5
8B17
330
37
100
AcDbEntity
  8
10000_FRONT
  6
Continuous
 62
     7
370
    35
100
AcDbLine
 10
80.32718100000002
 20
171.886154
 30
0.0
 11
80.33081200000003
 21
171.882046
 31
0.0
  0
LINE
  5
8B18
330
37
100
AcDbEntity
  8
10000_FRONT
  6
Continuous
 62
     7
370
    35
100
AcDbLine
 10
80.33081200000003
 20
171.882046
 30
0.0
 11
80.33443899999998
 21
171.877933
 31
0.0
  0
LINE
  5
8B19
330
37
100
AcDbEntity
  8
10000_FRONT
  6
Continuous
 62
     7
370
    35
100
AcDbLine
 10
80.33443899999998
 20
171.877933
 30
0.0
 11
80.33806300000003
 21
171.873815
 31
0.0
  0
LINE
  5
8B1A
330
37
100
AcDbEntity
  8
10000_FRONT
  6
Continuous
 62
     7
370
    35
100
AcDbLine
 10
80.33806300000003
 20
171.873815
 30
0.0
 11
80.34168299999995
 21
171.869691
 31
0.0
  0
LINE
  5
8B1B
330
37
100
AcDbEntity
  8
10000_FRONT
  6
Continuous
 62
     7
370
    35
100
AcDbLine
 10
80.34168299999995
 20
171.869691
 30
0.0
 11
80.3453
 21
171.865562
 31
0.0
  0
LINE
  5
8B1C
330
37
100
AcDbEntity
  8
10000_FRONT
  6
Continuous
 62
     7
370
    35
100
AcDbLine
 10
80.3453
 20
171.865562
 30
0.0
 11
80.34891400000004
 21
171.861427
 31
0.0
  0
LINE
  5
8B1D
330
37
100
AcDbEntity
  8
10000_FRONT
  6
Continuous
 62
     7
370
    35
100
AcDbLine
 10
80.34891400000004
 20
171.861427
 30
0.0
 11
80.35252400000002
 21
171.857287
 31
0.0
  0
LINE
  5
8B1E
330
37
100
AcDbEntity
  8
10000_FRONT
  6
Continuous
 62
     7
370
    35
100
AcDbLine
 10
80.35252400000002
 20
171.857287
 30
0.0
 11
80.35613000000003
 21
171.853142
 31
0.0
  0
LINE
  5
8B1F
330
37
100
AcDbEntity
  8
10000_FRONT
  6
Continuous
 62
     7
370
    35
100
AcDbLine
 10
80.01175699999995
 20
172.026551
 30
0.0
 11
80.020717
 21
172.026522
 31
0.0
  0
LINE
  5
8B20
330
37
100
AcDbEntity
  8
10000_FRONT
  6
Continuous
 62
     7
370
    35
100
AcDbLine
 10
80.020717
 20
172.026522
 30
0.0
 11
80.029941
 21
172.026431
 31
0.0
  0
LINE
  5
8B21
330
37
100
AcDbEntity
  8
10000_FRONT
  6
Continuous
 62
     7
370
    35
100
AcDbLine
 10
80.029941
 20
172.026431
 30
0.0
 11
80.03933299999998
 21
172.026275
 31
0.0
  0
LINE
  5
8B22
330
37
100
AcDbEntity
  8
10000_FRONT
  6
Continuous
 62
     7
370
    35
100
AcDbLine
 10
80.03933299999998
 20
172.026275
 30
0.0
 11
80.04879199999995
 21
172.026053
 31
0.0
  0
LINE
  5
8B23
330
37
100
AcDbEntity
  8
10000_FRONT
  6
Continuous
 62
     7
370
    35
100
AcDbLine
 10
80.04879199999995
 20
172.026053
 30
0.0
 11
80.05821500000001
 21
172.0257649999999
 31
0.0
  0
LINE
  5
8B24
330
37
100
AcDbEntity
  8
10000_FRONT
  6
Continuous
 62
     7
370
    35
100
AcDbLine
 10
80.05821500000001
 20
172.0257649999999
 30
0.0
 11
80.06750199999997
 21
172.0254139999999
 31
0.0
  0
LINE
  5
8B25
330
37
100
AcDbEntity
  8
10000_FRONT
  6
Continuous
 62
     7
370
    35
100
AcDbLine
 10
80.06750199999997
 20
172.0254139999999
 30
0.0
 11
80.07655599999997
 21
172.025007
 31
0.0
  0
LINE
  5
8B26
330
37
100
AcDbEntity
  8
10000_FRONT
  6
Continuous
 62
     7
370
    35
100
AcDbLine
 10
80.07655599999997
 20
172.025007
 30
0.0
 11
80.08529000000001
 21
172.024551
 31
0.0
  0
LINE
  5
8B27
330
37
100
AcDbEntity
  8
10000_FRONT
  6
Continuous
 62
     7
370
    35
100
AcDbLine
 10
80.08529000000001
 20
172.024551
 30
0.0
 11
80.09362899999997
 21
172.024056
 31
0.0
  0
LINE
  5
8B28
330
37
100
AcDbEntity
  8
10000_FRONT
  6
Continuous
 62
     7
370
    35
100
AcDbLine
 10
80.09362899999997
 20
172.024056
 30
0.0
 11
80.10190299999996
 21
172.023503
 31
0.0
  0
LINE
  5
8B29
330
37
100
AcDbEntity
  8
10000_FRONT
  6
Continuous
 62
     7
370
    35
100
AcDbLine
 10
80.10190299999996
 20
172.023503
 30
0.0
 11
80.11026700000002
 21
172.022879
 31
0.0
  0
LINE
  5
8B2A
330
37
100
AcDbEntity
  8
10000_FRONT
  6
Continuous
 62
     7
370
    35
100
AcDbLine
 10
80.11026700000002
 20
172.022879
 30
0.0
 11
80.11862299999995
 21
172.022186
 31
0.0
  0
LINE
  5
8B2B
330
37
100
AcDbEntity
  8
10000_FRONT
  6
Continuous
 62
     7
370
    35
100
AcDbLine
 10
80.11862299999995
 20
172.022186
 30
0.0
 11
80.126872
 21
172.021429
 31
0.0
  0
LINE
  5
8B2C
330
37
100
AcDbEntity
  8
10000_FRONT
  6
Continuous
 62
     7
370
    35
100
AcDbLine
 10
80.126872
 20
172.021429
 30
0.0
 11
80.13492299999995
 21
172.020614
 31
0.0
  0
LINE
  5
8B2D
330
37
100
AcDbEntity
  8
10000_FRONT
  6
Continuous
 62
     7
370
    35
100
AcDbLine
 10
80.13492299999995
 20
172.020614
 30
0.0
 11
80.14269199999992
 21
172.019751
 31
0.0
  0
LINE
  5
8B2E
330
37
100
AcDbEntity
  8
10000_FRONT
  6
Continuous
 62
     7
370
    35
100
AcDbLine
 10
80.14269199999992
 20
172.019751
 30
0.0
 11
80.150103
 21
172.018849
 31
0.0
  0
LINE
  5
8B2F
330
37
100
AcDbEntity
  8
10000_FRONT
  6
Continuous
 62
     7
370
    35
100
AcDbLine
 10
80.150103
 20
172.018849
 30
0.0
 11
80.15709300000002
 21
172.017922
 31
0.0
  0
LINE
  5
8B30
330
37
100
AcDbEntity
  8
10000_FRONT
  6
Continuous
 62
     7
370
    35
100
AcDbLine
 10
80.15709300000002
 20
172.017922
 30
0.0
 11
80.16362600000002
 21
172.016979
 31
0.0
  0
LINE
  5
8B31
330
37
100
AcDbEntity
  8
10000_FRONT
  6
Continuous
 62
     7
370
    35
100
AcDbLine
 10
80.16362600000002
 20
172.016979
 30
0.0
 11
80.16999599999996
 21
172.015981
 31
0.0
  0
LINE
  5
8B32
330
37
100
AcDbEntity
  8
10000_FRONT
  6
Continuous
 62
     7
370
    35
100
AcDbLine
 10
80.16999599999996
 20
172.015981
 30
0.0
 11
80.17626899999998
 21
172.014911
 31
0.0
  0
LINE
  5
8B33
330
37
100
AcDbEntity
  8
10000_FRONT
  6
Continuous
 62
     7
370
    35
100
AcDbLine
 10
80.17626899999998
 20
172.014911
 30
0.0
 11
80.18235300000005
 21
172.013778
 31
0.0
  0
LINE
  5
8B34
330
37
100
AcDbEntity
  8
10000_FRONT
  6
Continuous
 62
     7
370
    35
100
AcDbLine
 10
80.18235300000005
 20
172.013778
 30
0.0
 11
80.18816700000002
 21
172.012591
 31
0.0
  0
LINE
  5
8B35
330
37
100
AcDbEntity
  8
10000_FRONT
  6
Continuous
 62
     7
370
    35
100
AcDbLine
 10
80.18816700000002
 20
172.012591
 30
0.0
 11
80.19364000000001
 21
172.011364
 31
0.0
  0
LINE
  5
8B36
330
37
100
AcDbEntity
  8
10000_FRONT
  6
Continuous
 62
     7
370
    35
100
AcDbLine
 10
80.19364000000001
 20
172.011364
 30
0.0
 11
80.198712
 21
172.010109
 31
0.0
  0
LINE
  5
8B37
330
37
100
AcDbEntity
  8
10000_FRONT
  6
Continuous
 62
     7
370
    35
100
AcDbLine
 10
80.198712
 20
172.010109
 30
0.0
 11
80.20334100000004
 21
172.008842
 31
0.0
  0
LINE
  5
8B38
330
37
100
AcDbEntity
  8
10000_FRONT
  6
Continuous
 62
     7
370
    35
100
AcDbLine
 10
80.20334100000004
 20
172.008842
 30
0.0
 11
80.20749699999994
 21
172.007578
 31
0.0
  0
LINE
  5
8B39
330
37
100
AcDbEntity
  8
10000_FRONT
  6
Continuous
 62
     7
370
    35
100
AcDbLine
 10
80.20749699999994
 20
172.007578
 30
0.0
 11
80.21120200000002
 21
172.00632
 31
0.0
  0
LINE
  5
8B3A
330
37
100
AcDbEntity
  8
10000_FRONT
  6
Continuous
 62
     7
370
    35
100
AcDbLine
 10
80.21120200000002
 20
172.00632
 30
0.0
 11
80.21464200000002
 21
172.005005
 31
0.0
  0
LINE
  5
8B3B
330
37
100
AcDbEntity
  8
10000_FRONT
  6
Continuous
 62
     7
370
    35
100
AcDbLine
 10
80.21464200000002
 20
172.005005
 30
0.0
 11
80.21778500000003
 21
172.003631
 31
0.0
  0
LINE
  5
8B3C
330
37
100
AcDbEntity
  8
10000_FRONT
  6
Continuous
 62
     7
370
    35
100
AcDbLine
 10
80.21778500000003
 20
172.003631
 30
0.0
 11
80.22056500000003
 21
172.002212
 31
0.0
  0
LINE
  5
8B3D
330
37
100
AcDbEntity
  8
10000_FRONT
  6
Continuous
 62
     7
370
    35
100
AcDbLine
 10
80.22056500000003
 20
172.002212
 30
0.0
 11
80.22293300000002
 21
172.000764
 31
0.0
  0
LINE
  5
8B3E
330
37
100
AcDbEntity
  8
10000_FRONT
  6
Continuous
 62
     7
370
    35
100
AcDbLine
 10
80.22293300000002
 20
172.000764
 30
0.0
 11
80.22485500000003
 21
171.999303
 31
0.0
  0
LINE
  5
8B3F
330
37
100
AcDbEntity
  8
10000_FRONT
  6
Continuous
 62
     7
370
    35
100
AcDbLine
 10
80.22485500000003
 20
171.999303
 30
0.0
 11
80.22631500000001
 21
171.997848
 31
0.0
  0
LINE
  5
8B40
330
37
100
AcDbEntity
  8
10000_FRONT
  6
Continuous
 62
     7
370
    35
100
AcDbLine
 10
80.22631500000001
 20
171.997848
 30
0.0
 11
80.22731599999998
 21
171.996415
 31
0.0
  0
LINE
  5
8B41
330
37
100
AcDbEntity
  8
10000_FRONT
  6
Continuous
 62
     7
370
    35
100
AcDbLine
 10
80.22731599999998
 20
171.996415
 30
0.0
 11
80.22787800000003
 21
171.995022
 31
0.0
  0
LINE
  5
8B42
330
37
100
AcDbEntity
  8
10000_FRONT
  6
Continuous
 62
     7
370
    35
100
AcDbLine
 10
80.01175699999995
 20
170.579733
 30
0.0
 11
78.06092799999998
 21
170.579733
 31
0.0
  0
LINE
  5
8B43
330
37
100
AcDbEntity
  8
10000_FRONT
  6
Continuous
 62
     7
370
    35
100
AcDbLine
 10
80.22787800000003
 20
170.611262
 30
0.0
 11
80.22731599999998
 21
170.609869
 31
0.0
  0
LINE
  5
8B44
330
37
100
AcDbEntity
  8
10000_FRONT
  6
Continuous
 62
     7
370
    35
100
AcDbLine
 10
80.22731599999998
 20
170.609869
 30
0.0
 11
80.22631500000001
 21
170.608436
 31
0.0
  0
LINE
  5
8B45
330
37
100
AcDbEntity
  8
10000_FRONT
  6
Continuous
 62
     7
370
    35
100
AcDbLine
 10
80.22631500000001
 20
170.608436
 30
0.0
 11
80.22485500000003
 21
170.606981
 31
0.0
  0
LINE
  5
8B46
330
37
100
AcDbEntity
  8
10000_FRONT
  6
Continuous
 62
     7
370
    35
100
AcDbLine
 10
80.22485500000003
 20
170.606981
 30
0.0
 11
80.22293300000002
 21
170.6055199999999
 31
0.0
  0
LINE
  5
8B47
330
37
100
AcDbEntity
  8
10000_FRONT
  6
Continuous
 62
     7
370
    35
100
AcDbLine
 10
80.22293300000002
 20
170.6055199999999
 30
0.0
 11
80.22056500000003
 21
170.6040719999999
 31
0.0
  0
LINE
  5
8B48
330
37
100
AcDbEntity
  8
10000_FRONT
  6
Continuous
 62
     7
370
    35
100
AcDbLine
 10
80.22056500000003
 20
170.6040719999999
 30
0.0
 11
80.21778500000003
 21
170.602653
 31
0.0
  0
LINE
  5
8B49
330
37
100
AcDbEntity
  8
10000_FRONT
  6
Continuous
 62
     7
370
    35
100
AcDbLine
 10
80.21778500000003
 20
170.602653
 30
0.0
 11
80.21464200000002
 21
170.601279
 31
0.0
  0
LINE
  5
8B4A
330
37
100
AcDbEntity
  8
10000_FRONT
  6
Continuous
 62
     7
370
    35
100
AcDbLine
 10
80.21464200000002
 20
170.601279
 30
0.0
 11
80.21120200000002
 21
170.599964
 31
0.0
  0
LINE
  5
8B4B
330
37
100
AcDbEntity
  8
10000_FRONT
  6
Continuous
 62
     7
370
    35
100
AcDbLine
 10
80.21120200000002
 20
170.599964
 30
0.0
 11
80.20749699999994
 21
170.598706
 31
0.0
  0
LINE
  5
8B4C
330
37
100
AcDbEntity
  8
10000_FRONT
  6
Continuous
 62
     7
370
    35
100
AcDbLine
 10
80.20749699999994
 20
170.598706
 30
0.0
 11
80.20334100000004
 21
170.597442
 31
0.0
  0
LINE
  5
8B4D
330
37
100
AcDbEntity
  8
10000_FRONT
  6
Continuous
 62
     7
370
    35
100
AcDbLine
 10
80.20334100000004
 20
170.597442
 30
0.0
 11
80.198712
 21
170.596175
 31
0.0
  0
LINE
  5
8B4E
330
37
100
AcDbEntity
  8
10000_FRONT
  6
Continuous
 62
     7
370
    35
100
AcDbLine
 10
80.198712
 20
170.596175
 30
0.0
 11
80.19364000000001
 21
170.59492
 31
0.0
  0
LINE
  5
8B4F
330
37
100
AcDbEntity
  8
10000_FRONT
  6
Continuous
 62
     7
370
    35
100
AcDbLine
 10
80.19364000000001
 20
170.59492
 30
0.0
 11
80.18816700000002
 21
170.593693
 31
0.0
  0
LINE
  5
8B50
330
37
100
AcDbEntity
  8
10000_FRONT
  6
Continuous
 62
     7
370
    35
100
AcDbLine
 10
80.18816700000002
 20
170.593693
 30
0.0
 11
80.18235300000005
 21
170.592506
 31
0.0
  0
LINE
  5
8B51
330
37
100
AcDbEntity
  8
10000_FRONT
  6
Continuous
 62
     7
370
    35
100
AcDbLine
 10
80.18235300000005
 20
170.592506
 30
0.0
 11
80.17626899999998
 21
170.591373
 31
0.0
  0
LINE
  5
8B52
330
37
100
AcDbEntity
  8
10000_FRONT
  6
Continuous
 62
     7
370
    35
100
AcDbLine
 10
80.17626899999998
 20
170.591373
 30
0.0
 11
80.16999599999996
 21
170.590303
 31
0.0
  0
LINE
  5
8B53
330
37
100
AcDbEntity
  8
10000_FRONT
  6
Continuous
 62
     7
370
    35
100
AcDbLine
 10
80.16999599999996
 20
170.590303
 30
0.0
 11
80.16362600000002
 21
170.589305
 31
0.0
  0
LINE
  5
8B54
330
37
100
AcDbEntity
  8
10000_FRONT
  6
Continuous
 62
     7
370
    35
100
AcDbLine
 10
80.16362600000002
 20
170.589305
 30
0.0
 11
80.15709300000002
 21
170.588362
 31
0.0
  0
LINE
  5
8B55
330
37
100
AcDbEntity
  8
10000_FRONT
  6
Continuous
 62
     7
370
    35
100
AcDbLine
 10
80.15709300000002
 20
170.588362
 30
0.0
 11
80.150103
 21
170.587435
 31
0.0
  0
LINE
  5
8B56
330
37
100
AcDbEntity
  8
10000_FRONT
  6
Continuous
 62
     7
370
    35
100
AcDbLine
 10
80.150103
 20
170.587435
 30
0.0
 11
80.14269199999992
 21
170.586533
 31
0.0
  0
LINE
  5
8B57
330
37
100
AcDbEntity
  8
10000_FRONT
  6
Continuous
 62
     7
370
    35
100
AcDbLine
 10
80.14269199999992
 20
170.586533
 30
0.0
 11
80.13492299999995
 21
170.58567
 31
0.0
  0
LINE
  5
8B58
330
37
100
AcDbEntity
  8
10000_FRONT
  6
Continuous
 62
     7
370
    35
100
AcDbLine
 10
80.13492299999995
 20
170.58567
 30
0.0
 11
80.126872
 21
170.584855
 31
0.0
  0
LINE
  5
8B59
330
37
100
AcDbEntity
  8
10000_FRONT
  6
Continuous
 62
     7
370
    35
100
AcDbLine
 10
80.126872
 20
170.584855
 30
0.0
 11
80.11862299999995
 21
170.584098
 31
0.0
  0
LINE
  5
8B5A
330
37
100
AcDbEntity
  8
10000_FRONT
  6
Continuous
 62
     7
370
    35
100
AcDbLine
 10
80.11862299999995
 20
170.584098
 30
0.0
 11
80.11026700000002
 21
170.583405
 31
0.0
  0
LINE
  5
8B5B
330
37
100
AcDbEntity
  8
10000_FRONT
  6
Continuous
 62
     7
370
    35
100
AcDbLine
 10
80.11026700000002
 20
170.583405
 30
0.0
 11
80.10190299999996
 21
170.582781
 31
0.0
  0
LINE
  5
8B5C
330
37
100
AcDbEntity
  8
10000_FRONT
  6
Continuous
 62
     7
370
    35
100
AcDbLine
 10
80.10190299999996
 20
170.582781
 30
0.0
 11
80.09362899999997
 21
170.582228
 31
0.0
  0
LINE
  5
8B5D
330
37
100
AcDbEntity
  8
10000_FRONT
  6
Continuous
 62
     7
370
    35
100
AcDbLine
 10
80.09362899999997
 20
170.582228
 30
0.0
 11
80.08529000000001
 21
170.581733
 31
0.0
  0
LINE
  5
8B5E
330
37
100
AcDbEntity
  8
10000_FRONT
  6
Continuous
 62
     7
370
    35
100
AcDbLine
 10
80.08529000000001
 20
170.581733
 30
0.0
 11
80.07655599999997
 21
170.581277
 31
0.0
  0
LINE
  5
8B5F
330
37
100
AcDbEntity
  8
10000_FRONT
  6
Continuous
 62
     7
370
    35
100
AcDbLine
 10
80.07655599999997
 20
170.581277
 30
0.0
 11
80.06750199999997
 21
170.58087
 31
0.0
  0
LINE
  5
8B60
330
37
100
AcDbEntity
  8
10000_FRONT
  6
Continuous
 62
     7
370
    35
100
AcDbLine
 10
80.06750199999997
 20
170.58087
 30
0.0
 11
80.05821500000001
 21
170.5805189999999
 31
0.0
  0
LINE
  5
8B61
330
37
100
AcDbEntity
  8
10000_FRONT
  6
Continuous
 62
     7
370
    35
100
AcDbLine
 10
80.05821500000001
 20
170.5805189999999
 30
0.0
 11
80.04879199999995
 21
170.580231
 31
0.0
  0
LINE
  5
8B62
330
37
100
AcDbEntity
  8
10000_FRONT
  6
Continuous
 62
     7
370
    35
100
AcDbLine
 10
80.04879199999995
 20
170.580231
 30
0.0
 11
80.03933299999998
 21
170.580009
 31
0.0
  0
LINE
  5
8B63
330
37
100
AcDbEntity
  8
10000_FRONT
  6
Continuous
 62
     7
370
    35
100
AcDbLine
 10
80.03933299999998
 20
170.580009
 30
0.0
 11
80.029941
 21
170.579853
 31
0.0
  0
LINE
  5
8B64
330
37
100
AcDbEntity
  8
10000_FRONT
  6
Continuous
 62
     7
370
    35
100
AcDbLine
 10
80.029941
 20
170.579853
 30
0.0
 11
80.020717
 21
170.579762
 31
0.0
  0
LINE
  5
8B65
330
37
100
AcDbEntity
  8
10000_FRONT
  6
Continuous
 62
     7
370
    35
100
AcDbLine
 10
80.020717
 20
170.579762
 30
0.0
 11
80.01175699999995
 21
170.579733
 31
0.0
  0
LINE
  5
8B66
330
37
100
AcDbEntity
  8
10000_FRONT
  6
Continuous
 62
     7
370
    35
100
AcDbLine
 10
80.35613000000003
 20
170.753142
 30
0.0
 11
80.35252400000002
 21
170.748997
 31
0.0
  0
LINE
  5
8B67
330
37
100
AcDbEntity
  8
10000_FRONT
  6
Continuous
 62
     7
370
    35
100
AcDbLine
 10
80.35252400000002
 20
170.748997
 30
0.0
 11
80.34891400000004
 21
170.744857
 31
0.0
  0
LINE
  5
8B68
330
37
100
AcDbEntity
  8
10000_FRONT
  6
Continuous
 62
     7
370
    35
100
AcDbLine
 10
80.34891400000004
 20
170.744857
 30
0.0
 11
80.3453
 21
170.740722
 31
0.0
  0
LINE
  5
8B69
330
37
100
AcDbEntity
  8
10000_FRONT
  6
Continuous
 62
     7
370
    35
100
AcDbLine
 10
80.3453
 20
170.740722
 30
0.0
 11
80.34168299999995
 21
170.7365929999999
 31
0.0
  0
LINE
  5
8B6A
330
37
100
AcDbEntity
  8
10000_FRONT
  6
Continuous
 62
     7
370
    35
100
AcDbLine
 10
80.34168299999995
 20
170.7365929999999
 30
0.0
 11
80.33806300000003
 21
170.732469
 31
0.0
  0
LINE
  5
8B6B
330
37
100
AcDbEntity
  8
10000_FRONT
  6
Continuous
 62
     7
370
    35
100
AcDbLine
 10
80.33806300000003
 20
170.732469
 30
0.0
 11
80.33443899999998
 21
170.7283509999999
 31
0.0
  0
LINE
  5
8B6C
330
37
100
AcDbEntity
  8
10000_FRONT
  6
Continuous
 62
     7
370
    35
100
AcDbLine
 10
80.33443899999998
 20
170.7283509999999
 30
0.0
 11
80.33081200000003
 21
170.724238
 31
0.0
  0
LINE
  5
8B6D
330
37
100
AcDbEntity
  8
10000_FRONT
  6
Continuous
 62
     7
370
    35
100
AcDbLine
 10
80.33081200000003
 20
170.724238
 30
0.0
 11
80.32718100000002
 21
170.72013
 31
0.0
  0
LINE
  5
8B6E
330
37
100
AcDbEntity
  8
10000_FRONT
  6
Continuous
 62
     7
370
    35
100
AcDbLine
 10
80.32718100000002
 20
170.72013
 30
0.0
 11
80.32354699999997
 21
170.716028
 31
0.0
  0
LINE
  5
8B6F
330
37
100
AcDbEntity
  8
10000_FRONT
  6
Continuous
 62
     7
370
    35
100
AcDbLine
 10
80.32354699999997
 20
170.716028
 30
0.0
 11
80.319909
 21
170.71193
 31
0.0
  0
LINE
  5
8B70
330
37
100
AcDbEntity
  8
10000_FRONT
  6
Continuous
 62
     7
370
    35
100
AcDbLine
 10
80.319909
 20
170.71193
 30
0.0
 11
80.31626900000004
 21
170.7078389999999
 31
0.0
  0
LINE
  5
8B71
330
37
100
AcDbEntity
  8
10000_FRONT
  6
Continuous
 62
     7
370
    35
100
AcDbLine
 10
80.31626900000004
 20
170.7078389999999
 30
0.0
 11
80.31262400000001
 21
170.703752
 31
0.0
  0
LINE
  5
8B72
330
37
100
AcDbEntity
  8
10000_FRONT
  6
Continuous
 62
     7
370
    35
100
AcDbLine
 10
80.31262400000001
 20
170.703752
 30
0.0
 11
80.30897700000002
 21
170.6996719999999
 31
0.0
  0
LINE
  5
8B73
330
37
100
AcDbEntity
  8
10000_FRONT
  6
Continuous
 62
     7
370
    35
100
AcDbLine
 10
80.30897700000002
 20
170.6996719999999
 30
0.0
 11
80.30532500000004
 21
170.695596
 31
0.0
  0
LINE
  5
8B74
330
37
100
AcDbEntity
  8
10000_FRONT
  6
Continuous
 62
     7
370
    35
100
AcDbLine
 10
80.30532500000004
 20
170.695596
 30
0.0
 11
80.30167099999998
 21
170.691526
 31
0.0
  0
LINE
  5
8B75
330
37
100
AcDbEntity
  8
10000_FRONT
  6
Continuous
 62
     7
370
    35
100
AcDbLine
 10
80.30167099999998
 20
170.691526
 30
0.0
 11
80.29801300000002
 21
170.687461
 31
0.0
  0
LINE
  5
8B76
330
37
100
AcDbEntity
  8
10000_FRONT
  6
Continuous
 62
     7
370
    35
100
AcDbLine
 10
80.29801300000002
 20
170.687461
 30
0.0
 11
80.29435199999998
 21
170.683402
 31
0.0
  0
LINE
  5
8B77
330
37
100
AcDbEntity
  8
10000_FRONT
  6
Continuous
 62
     7
370
    35
100
AcDbLine
 10
80.29435199999998
 20
170.683402
 30
0.0
 11
80.29068700000003
 21
170.679348
 31
0.0
  0
LINE
  5
8B78
330
37
100
AcDbEntity
  8
10000_FRONT
  6
Continuous
 62
     7
370
    35
100
AcDbLine
 10
80.29068700000003
 20
170.679348
 30
0.0
 11
80.28701899999999
 21
170.675299
 31
0.0
  0
LINE
  5
8B79
330
37
100
AcDbEntity
  8
10000_FRONT
  6
Continuous
 62
     7
370
    35
100
AcDbLine
 10
80.28701899999999
 20
170.675299
 30
0.0
 11
80.28334799999994
 21
170.671256
 31
0.0
  0
LINE
  5
8B7A
330
37
100
AcDbEntity
  8
10000_FRONT
  6
Continuous
 62
     7
370
    35
100
AcDbLine
 10
80.28334799999994
 20
170.671256
 30
0.0
 11
80.279673
 21
170.6672179999999
 31
0.0
  0
LINE
  5
8B7B
330
37
100
AcDbEntity
  8
10000_FRONT
  6
Continuous
 62
     7
370
    35
100
AcDbLine
 10
80.279673
 20
170.6672179999999
 30
0.0
 11
80.27599499999997
 21
170.663186
 31
0.0
  0
LINE
  5
8B7C
330
37
100
AcDbEntity
  8
10000_FRONT
  6
Continuous
 62
     7
370
    35
100
AcDbLine
 10
80.27599499999997
 20
170.663186
 30
0.0
 11
80.27231400000003
 21
170.659159
 31
0.0
  0
LINE
  5
8B7D
330
37
100
AcDbEntity
  8
10000_FRONT
  6
Continuous
 62
     7
370
    35
100
AcDbLine
 10
80.27231400000003
 20
170.659159
 30
0.0
 11
80.26862900000002
 21
170.655138
 31
0.0
  0
LINE
  5
8B7E
330
37
100
AcDbEntity
  8
10000_FRONT
  6
Continuous
 62
     7
370
    35
100
AcDbLine
 10
80.26862900000002
 20
170.655138
 30
0.0
 11
80.26494100000002
 21
170.651122
 31
0.0
  0
LINE
  5
8B7F
330
37
100
AcDbEntity
  8
10000_FRONT
  6
Continuous
 62
     7
370
    35
100
AcDbLine
 10
80.26494100000002
 20
170.651122
 30
0.0
 11
80.26125000000002
 21
170.647111
 31
0.0
  0
LINE
  5
8B80
330
37
100
AcDbEntity
  8
10000_FRONT
  6
Continuous
 62
     7
370
    35
100
AcDbLine
 10
80.26125000000002
 20
170.647111
 30
0.0
 11
80.25755500000002
 21
170.643106
 31
0.0
  0
LINE
  5
8B81
330
37
100
AcDbEntity
  8
10000_FRONT
  6
Continuous
 62
     7
370
    35
100
AcDbLine
 10
80.25755500000002
 20
170.643106
 30
0.0
 11
80.25385700000006
 21
170.639107
 31
0.0
  0
LINE
  5
8B82
330
37
100
AcDbEntity
  8
10000_FRONT
  6
Continuous
 62
     7
370
    35
100
AcDbLine
 10
80.25385700000006
 20
170.639107
 30
0.0
 11
80.25015600000001
 21
170.635112
 31
0.0
  0
LINE
  5
8B83
330
37
100
AcDbEntity
  8
10000_FRONT
  6
Continuous
 62
     7
370
    35
100
AcDbLine
 10
80.25015600000001
 20
170.635112
 30
0.0
 11
80.24645099999998
 21
170.631124
 31
0.0
  0
LINE
  5
8B84
330
37
100
AcDbEntity
  8
10000_FRONT
  6
Continuous
 62
     7
370
    35
100
AcDbLine
 10
80.24645099999998
 20
170.631124
 30
0.0
 11
80.242743
 21
170.627141
 31
0.0
  0
LINE
  5
8B85
330
37
100
AcDbEntity
  8
10000_FRONT
  6
Continuous
 62
     7
370
    35
100
AcDbLine
 10
80.242743
 20
170.627141
 30
0.0
 11
80.23903200000004
 21
170.6231629999999
 31
0.0
  0
LINE
  5
8B86
330
37
100
AcDbEntity
  8
10000_FRONT
  6
Continuous
 62
     7
370
    35
100
AcDbLine
 10
80.23903200000004
 20
170.6231629999999
 30
0.0
 11
80.2353169999999
 21
170.619191
 31
0.0
  0
LINE
  5
8B87
330
37
100
AcDbEntity
  8
10000_FRONT
  6
Continuous
 62
     7
370
    35
100
AcDbLine
 10
80.2353169999999
 20
170.619191
 30
0.0
 11
80.23159899999994
 21
170.615224
 31
0.0
  0
LINE
  5
8B88
330
37
100
AcDbEntity
  8
10000_FRONT
  6
Continuous
 62
     7
370
    35
100
AcDbLine
 10
80.23159899999994
 20
170.615224
 30
0.0
 11
80.22787800000003
 21
170.611262
 31
0.0
  0
LINE
  5
8B89
330
37
100
AcDbEntity
  8
10000_FRONT
  6
Continuous
 62
     7
370
    35
100
AcDbLine
 10
75.08009900000002
 20
170.579733
 30
0.0
 11
75.07113900000002
 21
170.579762
 31
0.0
  0
LINE
  5
8B8A
330
37
100
AcDbEntity
  8
10000_FRONT
  6
Continuous
 62
     7
370
    35
100
AcDbLine
 10
75.07113900000002
 20
170.579762
 30
0.0
 11
75.06191499999999
 21
170.579853
 31
0.0
  0
LINE
  5
8B8B
330
37
100
AcDbEntity
  8
10000_FRONT
  6
Continuous
 62
     7
370
    35
100
AcDbLine
 10
75.06191499999999
 20
170.579853
 30
0.0
 11
75.05252300000002
 21
170.580009
 31
0.0
  0
LINE
  5
8B8C
330
37
100
AcDbEntity
  8
10000_FRONT
  6
Continuous
 62
     7
370
    35
100
AcDbLine
 10
75.05252300000002
 20
170.580009
 30
0.0
 11
75.04306400000001
 21
170.580231
 31
0.0
  0
LINE
  5
8B8D
330
37
100
AcDbEntity
  8
10000_FRONT
  6
Continuous
 62
     7
370
    35
100
AcDbLine
 10
75.04306400000001
 20
170.580231
 30
0.0
 11
75.03364099999995
 21
170.5805189999999
 31
0.0
  0
LINE
  5
8B8E
330
37
100
AcDbEntity
  8
10000_FRONT
  6
Continuous
 62
     7
370
    35
100
AcDbLine
 10
75.03364099999995
 20
170.5805189999999
 30
0.0
 11
75.02435400000002
 21
170.58087
 31
0.0
  0
LINE
  5
8B8F
330
37
100
AcDbEntity
  8
10000_FRONT
  6
Continuous
 62
     7
370
    35
100
AcDbLine
 10
75.02435400000002
 20
170.58087
 30
0.0
 11
75.01530000000002
 21
170.581277
 31
0.0
  0
LINE
  5
8B90
330
37
100
AcDbEntity
  8
10000_FRONT
  6
Continuous
 62
     7
370
    35
100
AcDbLine
 10
75.01530000000002
 20
170.581277
 30
0.0
 11
75.00656600000002
 21
170.581733
 31
0.0
  0
LINE
  5
8B91
330
37
100
AcDbEntity
  8
10000_FRONT
  6
Continuous
 62
     7
370
    35
100
AcDbLine
 10
75.00656600000002
 20
170.581733
 30
0.0
 11
74.99822699999999
 21
170.582228
 31
0.0
  0
LINE
  5
8B92
330
37
100
AcDbEntity
  8
10000_FRONT
  6
Continuous
 62
     7
370
    35
100
AcDbLine
 10
74.99822699999999
 20
170.582228
 30
0.0
 11
74.98995300000001
 21
170.582781
 31
0.0
  0
LINE
  5
8B93
330
37
100
AcDbEntity
  8
10000_FRONT
  6
Continuous
 62
     7
370
    35
100
AcDbLine
 10
74.98995300000001
 20
170.582781
 30
0.0
 11
74.98158899999999
 21
170.583405
 31
0.0
  0
LINE
  5
8B94
330
37
100
AcDbEntity
  8
10000_FRONT
  6
Continuous
 62
     7
370
    35
100
AcDbLine
 10
74.98158899999999
 20
170.583405
 30
0.0
 11
74.97323299999997
 21
170.584098
 31
0.0
  0
LINE
  5
8B95
330
37
100
AcDbEntity
  8
10000_FRONT
  6
Continuous
 62
     7
370
    35
100
AcDbLine
 10
74.97323299999997
 20
170.584098
 30
0.0
 11
74.96498400000001
 21
170.584855
 31
0.0
  0
LINE
  5
8B96
330
37
100
AcDbEntity
  8
10000_FRONT
  6
Continuous
 62
     7
370
    35
100
AcDbLine
 10
74.96498400000001
 20
170.584855
 30
0.0
 11
74.95693299999995
 21
170.58567
 31
0.0
  0
LINE
  5
8B97
330
37
100
AcDbEntity
  8
10000_FRONT
  6
Continuous
 62
     7
370
    35
100
AcDbLine
 10
74.95693299999995
 20
170.58567
 30
0.0
 11
74.94916399999998
 21
170.586533
 31
0.0
  0
LINE
  5
8B98
330
37
100
AcDbEntity
  8
10000_FRONT
  6
Continuous
 62
     7
370
    35
100
AcDbLine
 10
74.94916399999998
 20
170.586533
 30
0.0
 11
74.94175300000001
 21
170.587435
 31
0.0
  0
LINE
  5
8B99
330
37
100
AcDbEntity
  8
10000_FRONT
  6
Continuous
 62
     7
370
    35
100
AcDbLine
 10
74.94175300000001
 20
170.587435
 30
0.0
 11
74.93476300000001
 21
170.588362
 31
0.0
  0
LINE
  5
8B9A
330
37
100
AcDbEntity
  8
10000_FRONT
  6
Continuous
 62
     7
370
    35
100
AcDbLine
 10
74.93476300000001
 20
170.588362
 30
0.0
 11
74.92822999999998
 21
170.589305
 31
0.0
  0
LINE
  5
8B9B
330
37
100
AcDbEntity
  8
10000_FRONT
  6
Continuous
 62
     7
370
    35
100
AcDbLine
 10
74.92822999999998
 20
170.589305
 30
0.0
 11
74.92186000000002
 21
170.590303
 31
0.0
  0
LINE
  5
8B9C
330
37
100
AcDbEntity
  8
10000_FRONT
  6
Continuous
 62
     7
370
    35
100
AcDbLine
 10
77.03092800000002
 20
170.579733
 30
0.0
 11
75.08009900000002
 21
170.579733
 31
0.0
  0
LINE
  5
8B9D
330
37
100
AcDbEntity
  8
10000_FRONT
  6
Continuous
 62
     7
370
    35
100
AcDbLine
 10
74.92186000000002
 20
172.015981
 30
0.0
 11
74.92822999999998
 21
172.016979
 31
0.0
  0
LINE
  5
8B9E
330
37
100
AcDbEntity
  8
10000_FRONT
  6
Continuous
 62
     7
370
    35
100
AcDbLine
 10
74.92822999999998
 20
172.016979
 30
0.0
 11
74.93476300000001
 21
172.017922
 31
0.0
  0
LINE
  5
8B9F
330
37
100
AcDbEntity
  8
10000_FRONT
  6
Continuous
 62
     7
370
    35
100
AcDbLine
 10
74.93476300000001
 20
172.017922
 30
0.0
 11
74.94175300000001
 21
172.018849
 31
0.0
  0
LINE
  5
8BA0
330
37
100
AcDbEntity
  8
10000_FRONT
  6
Continuous
 62
     7
370
    35
100
AcDbLine
 10
74.94175300000001
 20
172.018849
 30
0.0
 11
74.94916399999998
 21
172.019751
 31
0.0
  0
LINE
  5
8BA1
330
37
100
AcDbEntity
  8
10000_FRONT
  6
Continuous
 62
     7
370
    35
100
AcDbLine
 10
74.94916399999998
 20
172.019751
 30
0.0
 11
74.95693299999995
 21
172.020614
 31
0.0
  0
LINE
  5
8BA2
330
37
100
AcDbEntity
  8
10000_FRONT
  6
Continuous
 62
     7
370
    35
100
AcDbLine
 10
74.95693299999995
 20
172.020614
 30
0.0
 11
74.96498400000001
 21
172.021429
 31
0.0
  0
LINE
  5
8BA3
330
37
100
AcDbEntity
  8
10000_FRONT
  6
Continuous
 62
     7
370
    35
100
AcDbLine
 10
74.96498400000001
 20
172.021429
 30
0.0
 11
74.97323299999997
 21
172.022186
 31
0.0
  0
LINE
  5
8BA4
330
37
100
AcDbEntity
  8
10000_FRONT
  6
Continuous
 62
     7
370
    35
100
AcDbLine
 10
74.97323299999997
 20
172.022186
 30
0.0
 11
74.98158899999999
 21
172.022879
 31
0.0
  0
LINE
  5
8BA5
330
37
100
AcDbEntity
  8
10000_FRONT
  6
Continuous
 62
     7
370
    35
100
AcDbLine
 10
74.98158899999999
 20
172.022879
 30
0.0
 11
74.98995300000001
 21
172.023503
 31
0.0
  0
LINE
  5
8BA6
330
37
100
AcDbEntity
  8
10000_FRONT
  6
Continuous
 62
     7
370
    35
100
AcDbLine
 10
74.98995300000001
 20
172.023503
 30
0.0
 11
74.99822699999999
 21
172.024056
 31
0.0
  0
LINE
  5
8BA7
330
37
100
AcDbEntity
  8
10000_FRONT
  6
Continuous
 62
     7
370
    35
100
AcDbLine
 10
74.99822699999999
 20
172.024056
 30
0.0
 11
75.00656600000002
 21
172.024551
 31
0.0
  0
LINE
  5
8BA8
330
37
100
AcDbEntity
  8
10000_FRONT
  6
Continuous
 62
     7
370
    35
100
AcDbLine
 10
75.00656600000002
 20
172.024551
 30
0.0
 11
75.01530000000002
 21
172.025007
 31
0.0
  0
LINE
  5
8BA9
330
37
100
AcDbEntity
  8
10000_FRONT
  6
Continuous
 62
     7
370
    35
100
AcDbLine
 10
75.01530000000002
 20
172.025007
 30
0.0
 11
75.02435400000002
 21
172.0254139999999
 31
0.0
  0
LINE
  5
8BAA
330
37
100
AcDbEntity
  8
10000_FRONT
  6
Continuous
 62
     7
370
    35
100
AcDbLine
 10
75.02435400000002
 20
172.0254139999999
 30
0.0
 11
75.03364099999995
 21
172.0257649999999
 31
0.0
  0
LINE
  5
8BAB
330
37
100
AcDbEntity
  8
10000_FRONT
  6
Continuous
 62
     7
370
    35
100
AcDbLine
 10
75.03364099999995
 20
172.0257649999999
 30
0.0
 11
75.04306400000001
 21
172.026053
 31
0.0
  0
LINE
  5
8BAC
330
37
100
AcDbEntity
  8
10000_FRONT
  6
Continuous
 62
     7
370
    35
100
AcDbLine
 10
75.04306400000001
 20
172.026053
 30
0.0
 11
75.05252300000002
 21
172.026275
 31
0.0
  0
LINE
  5
8BAD
330
37
100
AcDbEntity
  8
10000_FRONT
  6
Continuous
 62
     7
370
    35
100
AcDbLine
 10
75.05252300000002
 20
172.026275
 30
0.0
 11
75.06191499999999
 21
172.026431
 31
0.0
  0
LINE
  5
8BAE
330
37
100
AcDbEntity
  8
10000_FRONT
  6
Continuous
 62
     7
370
    35
100
AcDbLine
 10
75.06191499999999
 20
172.026431
 30
0.0
 11
75.07113900000002
 21
172.026522
 31
0.0
  0
LINE
  5
8BAF
330
37
100
AcDbEntity
  8
10000_FRONT
  6
Continuous
 62
     7
370
    35
100
AcDbLine
 10
75.07113900000002
 20
172.026522
 30
0.0
 11
75.08009900000002
 21
172.026551
 31
0.0
  0
ARC
  5
8BB0
330
37
100
AcDbEntity
  8
10000_FRONT
  6
Continuous
 62
     7
370
    35
100
AcDbCircle
 10
77.54592800000001
 20
171.303142
 30
0.0
 40
2.863518
100
AcDbArc
 50
348.9263059999998
 51
11.07369400000023
  0
ARC
  5
8BB1
330
37
100
AcDbEntity
  8
10000_FRONT
  6
Continuous
 62
     7
370
    35
100
AcDbCircle
 10
77.54592800000001
 20
171.303142
 30
0.0
 40
2.769756999999998
100
AcDbArc
 50
194.4655559999996
 51
345.5344440000004
  0
ARC
  5
8BB2
330
37
100
AcDbEntity
  8
10000_FRONT
  6
Continuous
 62
     7
370
    35
100
AcDbCircle
 10
77.54592800000001
 20
171.303142
 30
0.0
 40
2.769756999999998
100
AcDbArc
 50
14.46555599999959
 51
165.5344440000004
  0
ARC
  5
8BB3
330
37
100
AcDbEntity
  8
10000_FRONT
  6
Continuous
 62
     7
370
    35
100
AcDbCircle
 10
77.54592800000001
 20
171.303142
 30
0.0
 40
2.863518
100
AcDbArc
 50
168.9263059999998
 51
191.0736940000001
  0
LINE
  5
8BB4
330
37
100
AcDbEntity
  8
10000_FRONT
  6
Continuous
 62
     7
370
    35
100
AcDbLine
 10
74.86397799999995
 20
170.611262
 30
0.0
 11
74.86025699999995
 21
170.615224
 31
0.0
  0
LINE
  5
8BB5
330
37
100
AcDbEntity
  8
10000_FRONT
  6
Continuous
 62
     7
370
    35
100
AcDbLine
 10
74.86025699999995
 20
170.615224
 30
0.0
 11
74.85653899999999
 21
170.619191
 31
0.0
  0
LINE
  5
8BB6
330
37
100
AcDbEntity
  8
10000_FRONT
  6
Continuous
 62
     7
370
    35
100
AcDbLine
 10
74.85653899999999
 20
170.619191
 30
0.0
 11
74.852824
 21
170.6231629999999
 31
0.0
  0
LINE
  5
8BB7
330
37
100
AcDbEntity
  8
10000_FRONT
  6
Continuous
 62
     7
370
    35
100
AcDbLine
 10
74.852824
 20
170.6231629999999
 30
0.0
 11
74.84911299999997
 21
170.627141
 31
0.0
  0
LINE
  5
8BB8
330
37
100
AcDbEntity
  8
10000_FRONT
  6
Continuous
 62
     7
370
    35
100
AcDbLine
 10
74.84911299999997
 20
170.627141
 30
0.0
 11
74.84540500000004
 21
170.631124
 31
0.0
  0
LINE
  5
8BB9
330
37
100
AcDbEntity
  8
10000_FRONT
  6
Continuous
 62
     7
370
    35
100
AcDbLine
 10
74.84540500000004
 20
170.631124
 30
0.0
 11
74.8417
 21
170.635112
 31
0.0
  0
LINE
  5
8BBA
330
37
100
AcDbEntity
  8
10000_FRONT
  6
Continuous
 62
     7
370
    35
100
AcDbLine
 10
74.8417
 20
170.635112
 30
0.0
 11
74.83799899999997
 21
170.639107
 31
0.0
  0
LINE
  5
8BBB
330
37
100
AcDbEntity
  8
10000_FRONT
  6
Continuous
 62
     7
370
    35
100
AcDbLine
 10
74.83799899999997
 20
170.639107
 30
0.0
 11
74.83430099999996
 21
170.643106
 31
0.0
  0
LINE
  5
8BBC
330
37
100
AcDbEntity
  8
10000_FRONT
  6
Continuous
 62
     7
370
    35
100
AcDbLine
 10
74.83430099999996
 20
170.643106
 30
0.0
 11
74.83060599999998
 21
170.647111
 31
0.0
  0
LINE
  5
8BBD
330
37
100
AcDbEntity
  8
10000_FRONT
  6
Continuous
 62
     7
370
    35
100
AcDbLine
 10
74.83060599999998
 20
170.647111
 30
0.0
 11
74.82691499999998
 21
170.651122
 31
0.0
  0
LINE
  5
8BBE
330
37
100
AcDbEntity
  8
10000_FRONT
  6
Continuous
 62
     7
370
    35
100
AcDbLine
 10
74.82691499999998
 20
170.651122
 30
0.0
 11
74.82322699999993
 21
170.655138
 31
0.0
  0
LINE
  5
8BBF
330
37
100
AcDbEntity
  8
10000_FRONT
  6
Continuous
 62
     7
370
    35
100
AcDbLine
 10
74.82322699999993
 20
170.655138
 30
0.0
 11
74.81954200000001
 21
170.659159
 31
0.0
  0
LINE
  5
8BC0
330
37
100
AcDbEntity
  8
10000_FRONT
  6
Continuous
 62
     7
370
    35
100
AcDbLine
 10
74.81954200000001
 20
170.659159
 30
0.0
 11
74.81586100000004
 21
170.663186
 31
0.0
  0
LINE
  5
8BC1
330
37
100
AcDbEntity
  8
10000_FRONT
  6
Continuous
 62
     7
370
    35
100
AcDbLine
 10
74.81586100000004
 20
170.663186
 30
0.0
 11
74.81218299999998
 21
170.6672179999999
 31
0.0
  0
LINE
  5
8BC2
330
37
100
AcDbEntity
  8
10000_FRONT
  6
Continuous
 62
     7
370
    35
100
AcDbLine
 10
74.81218299999998
 20
170.6672179999999
 30
0.0
 11
74.80850800000002
 21
170.671256
 31
0.0
  0
LINE
  5
8BC3
330
37
100
AcDbEntity
  8
10000_FRONT
  6
Continuous
 62
     7
370
    35
100
AcDbLine
 10
74.80850800000002
 20
170.671256
 30
0.0
 11
74.80483700000002
 21
170.675299
 31
0.0
  0
LINE
  5
8BC4
330
37
100
AcDbEntity
  8
10000_FRONT
  6
Continuous
 62
     7
370
    35
100
AcDbLine
 10
74.80483700000002
 20
170.675299
 30
0.0
 11
74.80116900000002
 21
170.679348
 31
0.0
  0
LINE
  5
8BC5
330
37
100
AcDbEntity
  8
10000_FRONT
  6
Continuous
 62
     7
370
    35
100
AcDbLine
 10
74.80116900000002
 20
170.679348
 30
0.0
 11
74.797504
 21
170.683402
 31
0.0
  0
LINE
  5
8BC6
330
37
100
AcDbEntity
  8
10000_FRONT
  6
Continuous
 62
     7
370
    35
100
AcDbLine
 10
74.797504
 20
170.683402
 30
0.0
 11
74.79384299999995
 21
170.687461
 31
0.0
  0
LINE
  5
8BC7
330
37
100
AcDbEntity
  8
10000_FRONT
  6
Continuous
 62
     7
370
    35
100
AcDbLine
 10
74.79384299999995
 20
170.687461
 30
0.0
 11
74.79018500000002
 21
170.691526
 31
0.0
  0
LINE
  5
8BC8
330
37
100
AcDbEntity
  8
10000_FRONT
  6
Continuous
 62
     7
370
    35
100
AcDbLine
 10
74.79018500000002
 20
170.691526
 30
0.0
 11
74.78653100000002
 21
170.695596
 31
0.0
  0
LINE
  5
8BC9
330
37
100
AcDbEntity
  8
10000_FRONT
  6
Continuous
 62
     7
370
    35
100
AcDbLine
 10
74.78653100000002
 20
170.695596
 30
0.0
 11
74.78287899999997
 21
170.6996719999999
 31
0.0
  0
LINE
  5
8BCA
330
37
100
AcDbEntity
  8
10000_FRONT
  6
Continuous
 62
     7
370
    35
100
AcDbLine
 10
74.78287899999997
 20
170.6996719999999
 30
0.0
 11
74.77923199999995
 21
170.703752
 31
0.0
  0
LINE
  5
8BCB
330
37
100
AcDbEntity
  8
10000_FRONT
  6
Continuous
 62
     7
370
    35
100
AcDbLine
 10
74.77923199999995
 20
170.703752
 30
0.0
 11
74.77558700000004
 21
170.7078389999999
 31
0.0
  0
LINE
  5
8BCC
330
37
100
AcDbEntity
  8
10000_FRONT
  6
Continuous
 62
     7
370
    35
100
AcDbLine
 10
74.77558700000004
 20
170.7078389999999
 30
0.0
 11
74.77194700000005
 21
170.71193
 31
0.0
  0
LINE
  5
8BCD
330
37
100
AcDbEntity
  8
10000_FRONT
  6
Continuous
 62
     7
370
    35
100
AcDbLine
 10
74.77194700000005
 20
170.71193
 30
0.0
 11
74.76830899999999
 21
170.716028
 31
0.0
  0
LINE
  5
8BCE
330
37
100
AcDbEntity
  8
10000_FRONT
  6
Continuous
 62
     7
370
    35
100
AcDbLine
 10
74.76830899999999
 20
170.716028
 30
0.0
 11
74.76467500000005
 21
170.72013
 31
0.0
  0
LINE
  5
8BCF
330
37
100
AcDbEntity
  8
10000_FRONT
  6
Continuous
 62
     7
370
    35
100
AcDbLine
 10
74.76467500000005
 20
170.72013
 30
0.0
 11
74.76104399999996
 21
170.724238
 31
0.0
  0
LINE
  5
8BD0
330
37
100
AcDbEntity
  8
10000_FRONT
  6
Continuous
 62
     7
370
    35
100
AcDbLine
 10
74.76104399999996
 20
170.724238
 30
0.0
 11
74.75741699999997
 21
170.7283509999999
 31
0.0
  0
LINE
  5
8BD1
330
37
100
AcDbEntity
  8
10000_FRONT
  6
Continuous
 62
     7
370
    35
100
AcDbLine
 10
74.75741699999997
 20
170.7283509999999
 30
0.0
 11
74.75379299999999
 21
170.732469
 31
0.0
  0
LINE
  5
8BD2
330
37
100
AcDbEntity
  8
10000_FRONT
  6
Continuous
 62
     7
370
    35
100
AcDbLine
 10
74.75379299999999
 20
170.732469
 30
0.0
 11
74.75017300000001
 21
170.7365929999999
 31
0.0
  0
LINE
  5
8BD3
330
37
100
AcDbEntity
  8
10000_FRONT
  6
Continuous
 62
     7
370
    35
100
AcDbLine
 10
74.75017300000001
 20
170.7365929999999
 30
0.0
 11
74.74655600000001
 21
170.740722
 31
0.0
  0
LINE
  5
8BD4
330
37
100
AcDbEntity
  8
10000_FRONT
  6
Continuous
 62
     7
370
    35
100
AcDbLine
 10
74.74655600000001
 20
170.740722
 30
0.0
 11
74.74294199999995
 21
170.744857
 31
0.0
  0
LINE
  5
8BD5
330
37
100
AcDbEntity
  8
10000_FRONT
  6
Continuous
 62
     7
370
    35
100
AcDbLine
 10
74.74294199999995
 20
170.744857
 30
0.0
 11
74.73933199999994
 21
170.748997
 31
0.0
  0
LINE
  5
8BD6
330
37
100
AcDbEntity
  8
10000_FRONT
  6
Continuous
 62
     7
370
    35
100
AcDbLine
 10
74.73933199999994
 20
170.748997
 30
0.0
 11
74.735726
 21
170.753142
 31
0.0
  0
LINE
  5
8BD7
330
37
100
AcDbEntity
  8
10000_FRONT
  6
Continuous
 62
     7
370
    35
100
AcDbLine
 10
75.08009900000002
 20
170.579733
 30
0.0
 11
75.07113900000002
 21
170.579762
 31
0.0
  0
LINE
  5
8BD8
330
37
100
AcDbEntity
  8
10000_FRONT
  6
Continuous
 62
     7
370
    35
100
AcDbLine
 10
75.07113900000002
 20
170.579762
 30
0.0
 11
75.06191499999999
 21
170.579853
 31
0.0
  0
LINE
  5
8BD9
330
37
100
AcDbEntity
  8
10000_FRONT
  6
Continuous
 62
     7
370
    35
100
AcDbLine
 10
75.06191499999999
 20
170.579853
 30
0.0
 11
75.05252300000002
 21
170.580009
 31
0.0
  0
LINE
  5
8BDA
330
37
100
AcDbEntity
  8
10000_FRONT
  6
Continuous
 62
     7
370
    35
100
AcDbLine
 10
75.05252300000002
 20
170.580009
 30
0.0
 11
75.04306400000001
 21
170.580231
 31
0.0
  0
LINE
  5
8BDB
330
37
100
AcDbEntity
  8
10000_FRONT
  6
Continuous
 62
     7
370
    35
100
AcDbLine
 10
75.04306400000001
 20
170.580231
 30
0.0
 11
75.03364099999995
 21
170.5805189999999
 31
0.0
  0
LINE
  5
8BDC
330
37
100
AcDbEntity
  8
10000_FRONT
  6
Continuous
 62
     7
370
    35
100
AcDbLine
 10
75.03364099999995
 20
170.5805189999999
 30
0.0
 11
75.02435400000002
 21
170.58087
 31
0.0
  0
LINE
  5
8BDD
330
37
100
AcDbEntity
  8
10000_FRONT
  6
Continuous
 62
     7
370
    35
100
AcDbLine
 10
75.02435400000002
 20
170.58087
 30
0.0
 11
75.01530000000002
 21
170.581277
 31
0.0
  0
LINE
  5
8BDE
330
37
100
AcDbEntity
  8
10000_FRONT
  6
Continuous
 62
     7
370
    35
100
AcDbLine
 10
75.01530000000002
 20
170.581277
 30
0.0
 11
75.00656600000002
 21
170.581733
 31
0.0
  0
LINE
  5
8BDF
330
37
100
AcDbEntity
  8
10000_FRONT
  6
Continuous
 62
     7
370
    35
100
AcDbLine
 10
75.00656600000002
 20
170.581733
 30
0.0
 11
74.99822699999999
 21
170.582228
 31
0.0
  0
LINE
  5
8BE0
330
37
100
AcDbEntity
  8
10000_FRONT
  6
Continuous
 62
     7
370
    35
100
AcDbLine
 10
74.99822699999999
 20
170.582228
 30
0.0
 11
74.98995300000001
 21
170.582781
 31
0.0
  0
LINE
  5
8BE1
330
37
100
AcDbEntity
  8
10000_FRONT
  6
Continuous
 62
     7
370
    35
100
AcDbLine
 10
74.98995300000001
 20
170.582781
 30
0.0
 11
74.98158899999999
 21
170.583405
 31
0.0
  0
LINE
  5
8BE2
330
37
100
AcDbEntity
  8
10000_FRONT
  6
Continuous
 62
     7
370
    35
100
AcDbLine
 10
74.98158899999999
 20
170.583405
 30
0.0
 11
74.97323299999997
 21
170.584098
 31
0.0
  0
LINE
  5
8BE3
330
37
100
AcDbEntity
  8
10000_FRONT
  6
Continuous
 62
     7
370
    35
100
AcDbLine
 10
74.97323299999997
 20
170.584098
 30
0.0
 11
74.96498400000001
 21
170.584855
 31
0.0
  0
LINE
  5
8BE4
330
37
100
AcDbEntity
  8
10000_FRONT
  6
Continuous
 62
     7
370
    35
100
AcDbLine
 10
74.96498400000001
 20
170.584855
 30
0.0
 11
74.95693299999995
 21
170.58567
 31
0.0
  0
LINE
  5
8BE5
330
37
100
AcDbEntity
  8
10000_FRONT
  6
Continuous
 62
     7
370
    35
100
AcDbLine
 10
74.95693299999995
 20
170.58567
 30
0.0
 11
74.94916399999998
 21
170.586533
 31
0.0
  0
LINE
  5
8BE6
330
37
100
AcDbEntity
  8
10000_FRONT
  6
Continuous
 62
     7
370
    35
100
AcDbLine
 10
74.94916399999998
 20
170.586533
 30
0.0
 11
74.94175300000001
 21
170.587435
 31
0.0
  0
LINE
  5
8BE7
330
37
100
AcDbEntity
  8
10000_FRONT
  6
Continuous
 62
     7
370
    35
100
AcDbLine
 10
74.94175300000001
 20
170.587435
 30
0.0
 11
74.93476300000001
 21
170.588362
 31
0.0
  0
LINE
  5
8BE8
330
37
100
AcDbEntity
  8
10000_FRONT
  6
Continuous
 62
     7
370
    35
100
AcDbLine
 10
74.93476300000001
 20
170.588362
 30
0.0
 11
74.92822999999998
 21
170.589305
 31
0.0
  0
LINE
  5
8BE9
330
37
100
AcDbEntity
  8
10000_FRONT
  6
Continuous
 62
     7
370
    35
100
AcDbLine
 10
74.92822999999998
 20
170.589305
 30
0.0
 11
74.92186000000002
 21
170.590303
 31
0.0
  0
LINE
  5
8BEA
330
37
100
AcDbEntity
  8
10000_FRONT
  6
Continuous
 62
     7
370
    35
100
AcDbLine
 10
74.92186000000002
 20
170.590303
 30
0.0
 11
74.91558700000002
 21
170.591373
 31
0.0
  0
LINE
  5
8BEB
330
37
100
AcDbEntity
  8
10000_FRONT
  6
Continuous
 62
     7
370
    35
100
AcDbLine
 10
74.91558700000002
 20
170.591373
 30
0.0
 11
74.90950299999996
 21
170.592506
 31
0.0
  0
LINE
  5
8BEC
330
37
100
AcDbEntity
  8
10000_FRONT
  6
Continuous
 62
     7
370
    35
100
AcDbLine
 10
74.90950299999996
 20
170.592506
 30
0.0
 11
74.90368899999999
 21
170.593693
 31
0.0
  0
LINE
  5
8BED
330
37
100
AcDbEntity
  8
10000_FRONT
  6
Continuous
 62
     7
370
    35
100
AcDbLine
 10
74.90368899999999
 20
170.593693
 30
0.0
 11
74.89821599999995
 21
170.59492
 31
0.0
  0
LINE
  5
8BEE
330
37
100
AcDbEntity
  8
10000_FRONT
  6
Continuous
 62
     7
370
    35
100
AcDbLine
 10
74.89821599999995
 20
170.59492
 30
0.0
 11
74.89314400000004
 21
170.596175
 31
0.0
  0
LINE
  5
8BEF
330
37
100
AcDbEntity
  8
10000_FRONT
  6
Continuous
 62
     7
370
    35
100
AcDbLine
 10
74.89314400000004
 20
170.596175
 30
0.0
 11
74.88851499999999
 21
170.597442
 31
0.0
  0
LINE
  5
8BF0
330
37
100
AcDbEntity
  8
10000_FRONT
  6
Continuous
 62
     7
370
    35
100
AcDbLine
 10
74.88851499999999
 20
170.597442
 30
0.0
 11
74.88435900000002
 21
170.598706
 31
0.0
  0
LINE
  5
8BF1
330
37
100
AcDbEntity
  8
10000_FRONT
  6
Continuous
 62
     7
370
    35
100
AcDbLine
 10
74.88435900000002
 20
170.598706
 30
0.0
 11
74.88065399999998
 21
170.599964
 31
0.0
  0
LINE
  5
8BF2
330
37
100
AcDbEntity
  8
10000_FRONT
  6
Continuous
 62
     7
370
    35
100
AcDbLine
 10
74.88065399999998
 20
170.599964
 30
0.0
 11
74.87721399999998
 21
170.601279
 31
0.0
  0
LINE
  5
8BF3
330
37
100
AcDbEntity
  8
10000_FRONT
  6
Continuous
 62
     7
370
    35
100
AcDbLine
 10
74.87721399999998
 20
170.601279
 30
0.0
 11
74.87407100000002
 21
170.602653
 31
0.0
  0
LINE
  5
8BF4
330
37
100
AcDbEntity
  8
10000_FRONT
  6
Continuous
 62
     7
370
    35
100
AcDbLine
 10
74.87407100000002
 20
170.602653
 30
0.0
 11
74.87129099999998
 21
170.6040719999999
 31
0.0
  0
LINE
  5
8BF5
330
37
100
AcDbEntity
  8
10000_FRONT
  6
Continuous
 62
     7
370
    35
100
AcDbLine
 10
74.87129099999998
 20
170.6040719999999
 30
0.0
 11
74.86892299999998
 21
170.6055199999999
 31
0.0
  0
LINE
  5
8BF6
330
37
100
AcDbEntity
  8
10000_FRONT
  6
Continuous
 62
     7
370
    35
100
AcDbLine
 10
74.86892299999998
 20
170.6055199999999
 30
0.0
 11
74.86700100000001
 21
170.606981
 31
0.0
  0
LINE
  5
8BF7
330
37
100
AcDbEntity
  8
10000_FRONT
  6
Continuous
 62
     7
370
    35
100
AcDbLine
 10
74.86700100000001
 20
170.606981
 30
0.0
 11
74.86554100000002
 21
170.608436
 31
0.0
  0
LINE
  5
8BF8
330
37
100
AcDbEntity
  8
10000_FRONT
  6
Continuous
 62
     7
370
    35
100
AcDbLine
 10
74.86554100000002
 20
170.608436
 30
0.0
 11
74.86454000000003
 21
170.609869
 31
0.0
  0
LINE
  5
8BF9
330
37
100
AcDbEntity
  8
10000_FRONT
  6
Continuous
 62
     7
370
    35
100
AcDbLine
 10
74.86454000000003
 20
170.609869
 30
0.0
 11
74.86397799999995
 21
170.611262
 31
0.0
  0
LINE
  5
8BFA
330
37
100
AcDbEntity
  8
10000_FRONT
  6
Continuous
 62
     7
370
    35
100
AcDbLine
 10
74.86397799999995
 20
171.995022
 30
0.0
 11
74.86454000000003
 21
171.996415
 31
0.0
  0
LINE
  5
8BFB
330
37
100
AcDbEntity
  8
10000_FRONT
  6
Continuous
 62
     7
370
    35
100
AcDbLine
 10
74.86454000000003
 20
171.996415
 30
0.0
 11
74.86554100000002
 21
171.997848
 31
0.0
  0
LINE
  5
8BFC
330
37
100
AcDbEntity
  8
10000_FRONT
  6
Continuous
 62
     7
370
    35
100
AcDbLine
 10
74.86554100000002
 20
171.997848
 30
0.0
 11
74.86700100000001
 21
171.999303
 31
0.0
  0
LINE
  5
8BFD
330
37
100
AcDbEntity
  8
10000_FRONT
  6
Continuous
 62
     7
370
    35
100
AcDbLine
 10
74.86700100000001
 20
171.999303
 30
0.0
 11
74.86892299999998
 21
172.000764
 31
0.0
  0
LINE
  5
8BFE
330
37
100
AcDbEntity
  8
10000_FRONT
  6
Continuous
 62
     7
370
    35
100
AcDbLine
 10
74.86892299999998
 20
172.000764
 30
0.0
 11
74.87129099999998
 21
172.002212
 31
0.0
  0
LINE
  5
8BFF
330
37
100
AcDbEntity
  8
10000_FRONT
  6
Continuous
 62
     7
370
    35
100
AcDbLine
 10
74.87129099999998
 20
172.002212
 30
0.0
 11
74.87407100000002
 21
172.003631
 31
0.0
  0
LINE
  5
8C00
330
37
100
AcDbEntity
  8
10000_FRONT
  6
Continuous
 62
     7
370
    35
100
AcDbLine
 10
74.87407100000002
 20
172.003631
 30
0.0
 11
74.87721399999998
 21
172.005005
 31
0.0
  0
LINE
  5
8C01
330
37
100
AcDbEntity
  8
10000_FRONT
  6
Continuous
 62
     7
370
    35
100
AcDbLine
 10
74.87721399999998
 20
172.005005
 30
0.0
 11
74.88065399999998
 21
172.00632
 31
0.0
  0
LINE
  5
8C02
330
37
100
AcDbEntity
  8
10000_FRONT
  6
Continuous
 62
     7
370
    35
100
AcDbLine
 10
74.88065399999998
 20
172.00632
 30
0.0
 11
74.88435900000002
 21
172.007578
 31
0.0
  0
LINE
  5
8C03
330
37
100
AcDbEntity
  8
10000_FRONT
  6
Continuous
 62
     7
370
    35
100
AcDbLine
 10
74.88435900000002
 20
172.007578
 30
0.0
 11
74.88851499999999
 21
172.008842
 31
0.0
  0
LINE
  5
8C04
330
37
100
AcDbEntity
  8
10000_FRONT
  6
Continuous
 62
     7
370
    35
100
AcDbLine
 10
74.88851499999999
 20
172.008842
 30
0.0
 11
74.89314400000004
 21
172.010109
 31
0.0
  0
LINE
  5
8C05
330
37
100
AcDbEntity
  8
10000_FRONT
  6
Continuous
 62
     7
370
    35
100
AcDbLine
 10
74.89314400000004
 20
172.010109
 30
0.0
 11
74.89821599999995
 21
172.011364
 31
0.0
  0
LINE
  5
8C06
330
37
100
AcDbEntity
  8
10000_FRONT
  6
Continuous
 62
     7
370
    35
100
AcDbLine
 10
74.89821599999995
 20
172.011364
 30
0.0
 11
74.90368899999999
 21
172.012591
 31
0.0
  0
LINE
  5
8C07
330
37
100
AcDbEntity
  8
10000_FRONT
  6
Continuous
 62
     7
370
    35
100
AcDbLine
 10
74.90368899999999
 20
172.012591
 30
0.0
 11
74.90950299999996
 21
172.013778
 31
0.0
  0
LINE
  5
8C08
330
37
100
AcDbEntity
  8
10000_FRONT
  6
Continuous
 62
     7
370
    35
100
AcDbLine
 10
74.90950299999996
 20
172.013778
 30
0.0
 11
74.91558700000002
 21
172.014911
 31
0.0
  0
LINE
  5
8C09
330
37
100
AcDbEntity
  8
10000_FRONT
  6
Continuous
 62
     7
370
    35
100
AcDbLine
 10
74.91558700000002
 20
172.014911
 30
0.0
 11
74.92186000000002
 21
172.015981
 31
0.0
  0
LINE
  5
8C0A
330
37
100
AcDbEntity
  8
10000_FRONT
  6
Continuous
 62
     7
370
    35
100
AcDbLine
 10
74.92186000000002
 20
172.015981
 30
0.0
 11
74.92822999999998
 21
172.016979
 31
0.0
  0
LINE
  5
8C0B
330
37
100
AcDbEntity
  8
10000_FRONT
  6
Continuous
 62
     7
370
    35
100
AcDbLine
 10
74.92822999999998
 20
172.016979
 30
0.0
 11
74.93476300000001
 21
172.017922
 31
0.0
  0
LINE
  5
8C0C
330
37
100
AcDbEntity
  8
10000_FRONT
  6
Continuous
 62
     7
370
    35
100
AcDbLine
 10
74.93476300000001
 20
172.017922
 30
0.0
 11
74.94175300000001
 21
172.018849
 31
0.0
  0
LINE
  5
8C0D
330
37
100
AcDbEntity
  8
10000_FRONT
  6
Continuous
 62
     7
370
    35
100
AcDbLine
 10
74.94175300000001
 20
172.018849
 30
0.0
 11
74.94916399999998
 21
172.019751
 31
0.0
  0
LINE
  5
8C0E
330
37
100
AcDbEntity
  8
10000_FRONT
  6
Continuous
 62
     7
370
    35
100
AcDbLine
 10
74.94916399999998
 20
172.019751
 30
0.0
 11
74.95693299999995
 21
172.020614
 31
0.0
  0
LINE
  5
8C0F
330
37
100
AcDbEntity
  8
10000_FRONT
  6
Continuous
 62
     7
370
    35
100
AcDbLine
 10
74.95693299999995
 20
172.020614
 30
0.0
 11
74.96498400000001
 21
172.021429
 31
0.0
  0
LINE
  5
8C10
330
37
100
AcDbEntity
  8
10000_FRONT
  6
Continuous
 62
     7
370
    35
100
AcDbLine
 10
74.96498400000001
 20
172.021429
 30
0.0
 11
74.97323299999997
 21
172.022186
 31
0.0
  0
LINE
  5
8C11
330
37
100
AcDbEntity
  8
10000_FRONT
  6
Continuous
 62
     7
370
    35
100
AcDbLine
 10
74.97323299999997
 20
172.022186
 30
0.0
 11
74.98158899999999
 21
172.022879
 31
0.0
  0
LINE
  5
8C12
330
37
100
AcDbEntity
  8
10000_FRONT
  6
Continuous
 62
     7
370
    35
100
AcDbLine
 10
74.98158899999999
 20
172.022879
 30
0.0
 11
74.98995300000001
 21
172.023503
 31
0.0
  0
LINE
  5
8C13
330
37
100
AcDbEntity
  8
10000_FRONT
  6
Continuous
 62
     7
370
    35
100
AcDbLine
 10
74.98995300000001
 20
172.023503
 30
0.0
 11
74.99822699999999
 21
172.024056
 31
0.0
  0
LINE
  5
8C14
330
37
100
AcDbEntity
  8
10000_FRONT
  6
Continuous
 62
     7
370
    35
100
AcDbLine
 10
74.99822699999999
 20
172.024056
 30
0.0
 11
75.00656600000002
 21
172.024551
 31
0.0
  0
LINE
  5
8C15
330
37
100
AcDbEntity
  8
10000_FRONT
  6
Continuous
 62
     7
370
    35
100
AcDbLine
 10
75.00656600000002
 20
172.024551
 30
0.0
 11
75.01530000000002
 21
172.025007
 31
0.0
  0
LINE
  5
8C16
330
37
100
AcDbEntity
  8
10000_FRONT
  6
Continuous
 62
     7
370
    35
100
AcDbLine
 10
75.01530000000002
 20
172.025007
 30
0.0
 11
75.02435400000002
 21
172.0254139999999
 31
0.0
  0
LINE
  5
8C17
330
37
100
AcDbEntity
  8
10000_FRONT
  6
Continuous
 62
     7
370
    35
100
AcDbLine
 10
75.02435400000002
 20
172.0254139999999
 30
0.0
 11
75.03364099999995
 21
172.0257649999999
 31
0.0
  0
LINE
  5
8C18
330
37
100
AcDbEntity
  8
10000_FRONT
  6
Continuous
 62
     7
370
    35
100
AcDbLine
 10
75.03364099999995
 20
172.0257649999999
 30
0.0
 11
75.04306400000001
 21
172.026053
 31
0.0
  0
LINE
  5
8C19
330
37
100
AcDbEntity
  8
10000_FRONT
  6
Continuous
 62
     7
370
    35
100
AcDbLine
 10
75.04306400000001
 20
172.026053
 30
0.0
 11
75.05252300000002
 21
172.026275
 31
0.0
  0
LINE
  5
8C1A
330
37
100
AcDbEntity
  8
10000_FRONT
  6
Continuous
 62
     7
370
    35
100
AcDbLine
 10
75.05252300000002
 20
172.026275
 30
0.0
 11
75.06191499999999
 21
172.026431
 31
0.0
  0
LINE
  5
8C1B
330
37
100
AcDbEntity
  8
10000_FRONT
  6
Continuous
 62
     7
370
    35
100
AcDbLine
 10
75.06191499999999
 20
172.026431
 30
0.0
 11
75.07113900000002
 21
172.026522
 31
0.0
  0
LINE
  5
8C1C
330
37
100
AcDbEntity
  8
10000_FRONT
  6
Continuous
 62
     7
370
    35
100
AcDbLine
 10
75.07113900000002
 20
172.026522
 30
0.0
 11
75.08009900000002
 21
172.026551
 31
0.0
  0
LINE
  5
8C1D
330
37
100
AcDbEntity
  8
10000_FRONT
  6
Continuous
 62
     7
370
    35
100
AcDbLine
 10
74.735726
 20
171.853142
 30
0.0
 11
74.73933199999994
 21
171.857287
 31
0.0
  0
LINE
  5
8C1E
330
37
100
AcDbEntity
  8
10000_FRONT
  6
Continuous
 62
     7
370
    35
100
AcDbLine
 10
74.73933199999994
 20
171.857287
 30
0.0
 11
74.74294199999995
 21
171.861427
 31
0.0
  0
LINE
  5
8C1F
330
37
100
AcDbEntity
  8
10000_FRONT
  6
Continuous
 62
     7
370
    35
100
AcDbLine
 10
74.74294199999995
 20
171.861427
 30
0.0
 11
74.74655600000001
 21
171.865562
 31
0.0
  0
LINE
  5
8C20
330
37
100
AcDbEntity
  8
10000_FRONT
  6
Continuous
 62
     7
370
    35
100
AcDbLine
 10
74.74655600000001
 20
171.865562
 30
0.0
 11
74.75017300000001
 21
171.869691
 31
0.0
  0
LINE
  5
8C21
330
37
100
AcDbEntity
  8
10000_FRONT
  6
Continuous
 62
     7
370
    35
100
AcDbLine
 10
74.75017300000001
 20
171.869691
 30
0.0
 11
74.75379299999999
 21
171.873815
 31
0.0
  0
LINE
  5
8C22
330
37
100
AcDbEntity
  8
10000_FRONT
  6
Continuous
 62
     7
370
    35
100
AcDbLine
 10
74.75379299999999
 20
171.873815
 30
0.0
 11
74.75741699999997
 21
171.877933
 31
0.0
  0
LINE
  5
8C23
330
37
100
AcDbEntity
  8
10000_FRONT
  6
Continuous
 62
     7
370
    35
100
AcDbLine
 10
74.75741699999997
 20
171.877933
 30
0.0
 11
74.76104399999996
 21
171.882046
 31
0.0
  0
LINE
  5
8C24
330
37
100
AcDbEntity
  8
10000_FRONT
  6
Continuous
 62
     7
370
    35
100
AcDbLine
 10
74.76104399999996
 20
171.882046
 30
0.0
 11
74.76467500000005
 21
171.886154
 31
0.0
  0
LINE
  5
8C25
330
37
100
AcDbEntity
  8
10000_FRONT
  6
Continuous
 62
     7
370
    35
100
AcDbLine
 10
74.76467500000005
 20
171.886154
 30
0.0
 11
74.76830899999999
 21
171.890256
 31
0.0
  0
LINE
  5
8C26
330
37
100
AcDbEntity
  8
10000_FRONT
  6
Continuous
 62
     7
370
    35
100
AcDbLine
 10
74.76830899999999
 20
171.890256
 30
0.0
 11
74.77194700000005
 21
171.894354
 31
0.0
  0
LINE
  5
8C27
330
37
100
AcDbEntity
  8
10000_FRONT
  6
Continuous
 62
     7
370
    35
100
AcDbLine
 10
74.77194700000005
 20
171.894354
 30
0.0
 11
74.77558700000004
 21
171.898445
 31
0.0
  0
LINE
  5
8C28
330
37
100
AcDbEntity
  8
10000_FRONT
  6
Continuous
 62
     7
370
    35
100
AcDbLine
 10
74.77558700000004
 20
171.898445
 30
0.0
 11
74.77923199999995
 21
171.902532
 31
0.0
  0
LINE
  5
8C29
330
37
100
AcDbEntity
  8
10000_FRONT
  6
Continuous
 62
     7
370
    35
100
AcDbLine
 10
74.77923199999995
 20
171.902532
 30
0.0
 11
74.78287899999997
 21
171.906612
 31
0.0
  0
LINE
  5
8C2A
330
37
100
AcDbEntity
  8
10000_FRONT
  6
Continuous
 62
     7
370
    35
100
AcDbLine
 10
74.78287899999997
 20
171.906612
 30
0.0
 11
74.78653100000002
 21
171.910688
 31
0.0
  0
LINE
  5
8C2B
330
37
100
AcDbEntity
  8
10000_FRONT
  6
Continuous
 62
     7
370
    35
100
AcDbLine
 10
74.78653100000002
 20
171.910688
 30
0.0
 11
74.79018500000002
 21
171.914758
 31
0.0
  0
LINE
  5
8C2C
330
37
100
AcDbEntity
  8
10000_FRONT
  6
Continuous
 62
     7
370
    35
100
AcDbLine
 10
74.79018500000002
 20
171.914758
 30
0.0
 11
74.79384299999995
 21
171.918823
 31
0.0
  0
LINE
  5
8C2D
330
37
100
AcDbEntity
  8
10000_FRONT
  6
Continuous
 62
     7
370
    35
100
AcDbLine
 10
74.79384299999995
 20
171.918823
 30
0.0
 11
74.797504
 21
171.922882
 31
0.0
  0
LINE
  5
8C2E
330
37
100
AcDbEntity
  8
10000_FRONT
  6
Continuous
 62
     7
370
    35
100
AcDbLine
 10
74.797504
 20
171.922882
 30
0.0
 11
74.80116900000002
 21
171.926936
 31
0.0
  0
LINE
  5
8C2F
330
37
100
AcDbEntity
  8
10000_FRONT
  6
Continuous
 62
     7
370
    35
100
AcDbLine
 10
74.80116900000002
 20
171.926936
 30
0.0
 11
74.80483700000002
 21
171.9309850000001
 31
0.0
  0
LINE
  5
8C30
330
37
100
AcDbEntity
  8
10000_FRONT
  6
Continuous
 62
     7
370
    35
100
AcDbLine
 10
74.80483700000002
 20
171.9309850000001
 30
0.0
 11
74.80850800000002
 21
171.935028
 31
0.0
  0
LINE
  5
8C31
330
37
100
AcDbEntity
  8
10000_FRONT
  6
Continuous
 62
     7
370
    35
100
AcDbLine
 10
74.80850800000002
 20
171.935028
 30
0.0
 11
74.81218299999998
 21
171.939066
 31
0.0
  0
LINE
  5
8C32
330
37
100
AcDbEntity
  8
10000_FRONT
  6
Continuous
 62
     7
370
    35
100
AcDbLine
 10
74.81218299999998
 20
171.939066
 30
0.0
 11
74.81586100000004
 21
171.943098
 31
0.0
  0
LINE
  5
8C33
330
37
100
AcDbEntity
  8
10000_FRONT
  6
Continuous
 62
     7
370
    35
100
AcDbLine
 10
74.81586100000004
 20
171.943098
 30
0.0
 11
74.81954200000001
 21
171.947125
 31
0.0
  0
LINE
  5
8C34
330
37
100
AcDbEntity
  8
10000_FRONT
  6
Continuous
 62
     7
370
    35
100
AcDbLine
 10
74.81954200000001
 20
171.947125
 30
0.0
 11
74.82322699999993
 21
171.951146
 31
0.0
  0
LINE
  5
8C35
330
37
100
AcDbEntity
  8
10000_FRONT
  6
Continuous
 62
     7
370
    35
100
AcDbLine
 10
74.82322699999993
 20
171.951146
 30
0.0
 11
74.82691499999998
 21
171.955162
 31
0.0
  0
LINE
  5
8C36
330
37
100
AcDbEntity
  8
10000_FRONT
  6
Continuous
 62
     7
370
    35
100
AcDbLine
 10
74.82691499999998
 20
171.955162
 30
0.0
 11
74.83060599999998
 21
171.959173
 31
0.0
  0
LINE
  5
8C37
330
37
100
AcDbEntity
  8
10000_FRONT
  6
Continuous
 62
     7
370
    35
100
AcDbLine
 10
74.83060599999998
 20
171.959173
 30
0.0
 11
74.83430099999996
 21
171.9631779999999
 31
0.0
  0
LINE
  5
8C38
330
37
100
AcDbEntity
  8
10000_FRONT
  6
Continuous
 62
     7
370
    35
100
AcDbLine
 10
74.83430099999996
 20
171.9631779999999
 30
0.0
 11
74.83799899999997
 21
171.967177
 31
0.0
  0
LINE
  5
8C39
330
37
100
AcDbEntity
  8
10000_FRONT
  6
Continuous
 62
     7
370
    35
100
AcDbLine
 10
74.83799899999997
 20
171.967177
 30
0.0
 11
74.8417
 21
171.971172
 31
0.0
  0
LINE
  5
8C3A
330
37
100
AcDbEntity
  8
10000_FRONT
  6
Continuous
 62
     7
370
    35
100
AcDbLine
 10
74.8417
 20
171.971172
 30
0.0
 11
74.84540500000004
 21
171.9751600000001
 31
0.0
  0
LINE
  5
8C3B
330
37
100
AcDbEntity
  8
10000_FRONT
  6
Continuous
 62
     7
370
    35
100
AcDbLine
 10
74.84540500000004
 20
171.9751600000001
 30
0.0
 11
74.84911299999997
 21
171.979143
 31
0.0
  0
LINE
  5
8C3C
330
37
100
AcDbEntity
  8
10000_FRONT
  6
Continuous
 62
     7
370
    35
100
AcDbLine
 10
74.84911299999997
 20
171.979143
 30
0.0
 11
74.852824
 21
171.9831209999999
 31
0.0
  0
LINE
  5
8C3D
330
37
100
AcDbEntity
  8
10000_FRONT
  6
Continuous
 62
     7
370
    35
100
AcDbLine
 10
74.852824
 20
171.9831209999999
 30
0.0
 11
74.85653899999999
 21
171.987093
 31
0.0
  0
LINE
  5
8C3E
330
37
100
AcDbEntity
  8
10000_FRONT
  6
Continuous
 62
     7
370
    35
100
AcDbLine
 10
74.85653899999999
 20
171.987093
 30
0.0
 11
74.86025699999995
 21
171.99106
 31
0.0
  0
LINE
  5
8C3F
330
37
100
AcDbEntity
  8
10000_FRONT
  6
Continuous
 62
     7
370
    35
100
AcDbLine
 10
74.86025699999995
 20
171.99106
 30
0.0
 11
74.86397799999995
 21
171.995022
 31
0.0
  0
LINE
  5
8C40
330
37
100
AcDbEntity
  8
10200_FRONT_SYM
  6
CENTER
 62
     7
 48
0.125
370
    18
100
AcDbLine
 10
74.21312349999998
 20
171.3099078058795
 30
0.0
 11
80.83203063781937
 21
171.3099078058795
 31
0.0
  0
LINE
  5
8C41
330
37
100
AcDbEntity
  8
10200_FRONT_SYM
  6
CENTER
 62
     7
 48
0.125
370
    18
100
AcDbLine
 10
77.54592800000001
 20
167.8122624999999
 30
0.0
 11
77.54592800000001
 21
174.7940215
 31
0.0
  0
ARC
  5
8C42
330
37
100
AcDbEntity
  8
10000_FRONT
  6
Continuous
 62
     7
370
    35
100
AcDbCircle
 10
77.54592800000001
 20
151.453142
 30
0.0
 40
1.85
100
AcDbArc
 50
73.83655499999933
 51
106.1634450000006
  0
LINE
  5
8C43
330
37
100
AcDbEntity
  8
10000_FRONT
  6
Continuous
 62
     7
370
    35
100
AcDbLine
 10
77.03092800000002
 20
149.37627
 30
0.0
 11
77.03092800000002
 21
150.579733
 31
0.0
  0
LINE
  5
8C44
330
37
100
AcDbEntity
  8
10000_FRONT
  6
Continuous
 62
     7
370
    35
100
AcDbLine
 10
78.06092799999998
 20
150.579733
 30
0.0
 11
78.06092799999998
 21
149.37627
 31
0.0
  0
LINE
  5
8C45
330
37
100
AcDbEntity
  8
10000_FRONT
  6
Continuous
 62
     7
370
    35
100
AcDbLine
 10
78.06092799999998
 20
153.230014
 30
0.0
 11
78.06092799999998
 21
152.026551
 31
0.0
  0
ARC
  5
8C46
330
37
100
AcDbEntity
  8
10000_FRONT
  6
Continuous
 62
     7
370
    35
100
AcDbCircle
 10
77.54592800000001
 20
151.153142
 30
0.0
 40
1.85
100
AcDbArc
 50
253.8365549999991
 51
286.1634450000007
  0
LINE
  5
8C47
330
37
100
AcDbEntity
  8
10000_FRONT
  6
Continuous
 62
     7
370
    35
100
AcDbLine
 10
77.03092800000002
 20
152.026551
 30
0.0
 11
77.03092800000002
 21
153.230014
 31
0.0
  0
LINE
  5
8C48
330
37
100
AcDbEntity
  8
10000_FRONT
  6
Continuous
 62
     7
370
    35
100
AcDbLine
 10
78.06092799999998
 20
152.026551
 30
0.0
 11
80.01175699999995
 21
152.026551
 31
0.0
  0
LINE
  5
8C49
330
37
100
AcDbEntity
  8
10000_FRONT
  6
Continuous
 62
     7
370
    35
100
AcDbLine
 10
75.08009900000002
 20
152.026551
 30
0.0
 11
77.03092800000002
 21
152.026551
 31
0.0
  0
LINE
  5
8C4A
330
37
100
AcDbEntity
  8
10000_FRONT
  6
Continuous
 62
     7
370
    35
100
AcDbLine
 10
80.22787800000003
 20
151.995022
 30
0.0
 11
80.23159899999994
 21
151.99106
 31
0.0
  0
LINE
  5
8C4B
330
37
100
AcDbEntity
  8
10000_FRONT
  6
Continuous
 62
     7
370
    35
100
AcDbLine
 10
80.23159899999994
 20
151.99106
 30
0.0
 11
80.2353169999999
 21
151.987093
 31
0.0
  0
LINE
  5
8C4C
330
37
100
AcDbEntity
  8
10000_FRONT
  6
Continuous
 62
     7
370
    35
100
AcDbLine
 10
80.2353169999999
 20
151.987093
 30
0.0
 11
80.23903200000004
 21
151.9831209999999
 31
0.0
  0
LINE
  5
8C4D
330
37
100
AcDbEntity
  8
10000_FRONT
  6
Continuous
 62
     7
370
    35
100
AcDbLine
 10
80.23903200000004
 20
151.9831209999999
 30
0.0
 11
80.242743
 21
151.979143
 31
0.0
  0
LINE
  5
8C4E
330
37
100
AcDbEntity
  8
10000_FRONT
  6
Continuous
 62
     7
370
    35
100
AcDbLine
 10
80.242743
 20
151.979143
 30
0.0
 11
80.24645099999998
 21
151.9751600000001
 31
0.0
  0
LINE
  5
8C4F
330
37
100
AcDbEntity
  8
10000_FRONT
  6
Continuous
 62
     7
370
    35
100
AcDbLine
 10
80.24645099999998
 20
151.9751600000001
 30
0.0
 11
80.25015600000001
 21
151.971172
 31
0.0
  0
LINE
  5
8C50
330
37
100
AcDbEntity
  8
10000_FRONT
  6
Continuous
 62
     7
370
    35
100
AcDbLine
 10
80.25015600000001
 20
151.971172
 30
0.0
 11
80.25385700000006
 21
151.967177
 31
0.0
  0
LINE
  5
8C51
330
37
100
AcDbEntity
  8
10000_FRONT
  6
Continuous
 62
     7
370
    35
100
AcDbLine
 10
80.25385700000006
 20
151.967177
 30
0.0
 11
80.25755500000002
 21
151.9631779999999
 31
0.0
  0
LINE
  5
8C52
330
37
100
AcDbEntity
  8
10000_FRONT
  6
Continuous
 62
     7
370
    35
100
AcDbLine
 10
80.25755500000002
 20
151.9631779999999
 30
0.0
 11
80.26125000000002
 21
151.959173
 31
0.0
  0
LINE
  5
8C53
330
37
100
AcDbEntity
  8
10000_FRONT
  6
Continuous
 62
     7
370
    35
100
AcDbLine
 10
80.26125000000002
 20
151.959173
 30
0.0
 11
80.26494100000002
 21
151.955162
 31
0.0
  0
LINE
  5
8C54
330
37
100
AcDbEntity
  8
10000_FRONT
  6
Continuous
 62
     7
370
    35
100
AcDbLine
 10
80.26494100000002
 20
151.955162
 30
0.0
 11
80.26862900000002
 21
151.951146
 31
0.0
  0
LINE
  5
8C55
330
37
100
AcDbEntity
  8
10000_FRONT
  6
Continuous
 62
     7
370
    35
100
AcDbLine
 10
80.26862900000002
 20
151.951146
 30
0.0
 11
80.27231400000003
 21
151.947125
 31
0.0
  0
LINE
  5
8C56
330
37
100
AcDbEntity
  8
10000_FRONT
  6
Continuous
 62
     7
370
    35
100
AcDbLine
 10
80.27231400000003
 20
151.947125
 30
0.0
 11
80.27599499999997
 21
151.943098
 31
0.0
  0
LINE
  5
8C57
330
37
100
AcDbEntity
  8
10000_FRONT
  6
Continuous
 62
     7
370
    35
100
AcDbLine
 10
80.27599499999997
 20
151.943098
 30
0.0
 11
80.279673
 21
151.939066
 31
0.0
  0
LINE
  5
8C58
330
37
100
AcDbEntity
  8
10000_FRONT
  6
Continuous
 62
     7
370
    35
100
AcDbLine
 10
80.279673
 20
151.939066
 30
0.0
 11
80.28334799999994
 21
151.935028
 31
0.0
  0
LINE
  5
8C59
330
37
100
AcDbEntity
  8
10000_FRONT
  6
Continuous
 62
     7
370
    35
100
AcDbLine
 10
80.28334799999994
 20
151.935028
 30
0.0
 11
80.28701899999999
 21
151.9309850000001
 31
0.0
  0
LINE
  5
8C5A
330
37
100
AcDbEntity
  8
10000_FRONT
  6
Continuous
 62
     7
370
    35
100
AcDbLine
 10
80.28701899999999
 20
151.9309850000001
 30
0.0
 11
80.29068700000003
 21
151.926936
 31
0.0
  0
LINE
  5
8C5B
330
37
100
AcDbEntity
  8
10000_FRONT
  6
Continuous
 62
     7
370
    35
100
AcDbLine
 10
80.29068700000003
 20
151.926936
 30
0.0
 11
80.29435199999998
 21
151.922882
 31
0.0
  0
LINE
  5
8C5C
330
37
100
AcDbEntity
  8
10000_FRONT
  6
Continuous
 62
     7
370
    35
100
AcDbLine
 10
80.29435199999998
 20
151.922882
 30
0.0
 11
80.29801300000002
 21
151.918823
 31
0.0
  0
LINE
  5
8C5D
330
37
100
AcDbEntity
  8
10000_FRONT
  6
Continuous
 62
     7
370
    35
100
AcDbLine
 10
80.29801300000002
 20
151.918823
 30
0.0
 11
80.30167099999998
 21
151.914758
 31
0.0
  0
LINE
  5
8C5E
330
37
100
AcDbEntity
  8
10000_FRONT
  6
Continuous
 62
     7
370
    35
100
AcDbLine
 10
80.30167099999998
 20
151.914758
 30
0.0
 11
80.30532500000004
 21
151.910688
 31
0.0
  0
LINE
  5
8C5F
330
37
100
AcDbEntity
  8
10000_FRONT
  6
Continuous
 62
     7
370
    35
100
AcDbLine
 10
80.30532500000004
 20
151.910688
 30
0.0
 11
80.30897700000002
 21
151.906612
 31
0.0
  0
LINE
  5
8C60
330
37
100
AcDbEntity
  8
10000_FRONT
  6
Continuous
 62
     7
370
    35
100
AcDbLine
 10
80.30897700000002
 20
151.906612
 30
0.0
 11
80.31262400000001
 21
151.902532
 31
0.0
  0
LINE
  5
8C61
330
37
100
AcDbEntity
  8
10000_FRONT
  6
Continuous
 62
     7
370
    35
100
AcDbLine
 10
80.31262400000001
 20
151.902532
 30
0.0
 11
80.31626900000004
 21
151.898445
 31
0.0
  0
LINE
  5
8C62
330
37
100
AcDbEntity
  8
10000_FRONT
  6
Continuous
 62
     7
370
    35
100
AcDbLine
 10
80.31626900000004
 20
151.898445
 30
0.0
 11
80.319909
 21
151.894354
 31
0.0
  0
LINE
  5
8C63
330
37
100
AcDbEntity
  8
10000_FRONT
  6
Continuous
 62
     7
370
    35
100
AcDbLine
 10
80.319909
 20
151.894354
 30
0.0
 11
80.32354699999997
 21
151.890256
 31
0.0
  0
LINE
  5
8C64
330
37
100
AcDbEntity
  8
10000_FRONT
  6
Continuous
 62
     7
370
    35
100
AcDbLine
 10
80.32354699999997
 20
151.890256
 30
0.0
 11
80.32718100000002
 21
151.886154
 31
0.0
  0
LINE
  5
8C65
330
37
100
AcDbEntity
  8
10000_FRONT
  6
Continuous
 62
     7
370
    35
100
AcDbLine
 10
80.32718100000002
 20
151.886154
 30
0.0
 11
80.33081200000003
 21
151.882046
 31
0.0
  0
LINE
  5
8C66
330
37
100
AcDbEntity
  8
10000_FRONT
  6
Continuous
 62
     7
370
    35
100
AcDbLine
 10
80.33081200000003
 20
151.882046
 30
0.0
 11
80.33443899999998
 21
151.877933
 31
0.0
  0
LINE
  5
8C67
330
37
100
AcDbEntity
  8
10000_FRONT
  6
Continuous
 62
     7
370
    35
100
AcDbLine
 10
80.33443899999998
 20
151.877933
 30
0.0
 11
80.33806300000003
 21
151.873815
 31
0.0
  0
LINE
  5
8C68
330
37
100
AcDbEntity
  8
10000_FRONT
  6
Continuous
 62
     7
370
    35
100
AcDbLine
 10
80.33806300000003
 20
151.873815
 30
0.0
 11
80.34168299999995
 21
151.869691
 31
0.0
  0
LINE
  5
8C69
330
37
100
AcDbEntity
  8
10000_FRONT
  6
Continuous
 62
     7
370
    35
100
AcDbLine
 10
80.34168299999995
 20
151.869691
 30
0.0
 11
80.3453
 21
151.865562
 31
0.0
  0
LINE
  5
8C6A
330
37
100
AcDbEntity
  8
10000_FRONT
  6
Continuous
 62
     7
370
    35
100
AcDbLine
 10
80.3453
 20
151.865562
 30
0.0
 11
80.34891400000004
 21
151.861427
 31
0.0
  0
LINE
  5
8C6B
330
37
100
AcDbEntity
  8
10000_FRONT
  6
Continuous
 62
     7
370
    35
100
AcDbLine
 10
80.34891400000004
 20
151.861427
 30
0.0
 11
80.35252400000002
 21
151.857287
 31
0.0
  0
LINE
  5
8C6C
330
37
100
AcDbEntity
  8
10000_FRONT
  6
Continuous
 62
     7
370
    35
100
AcDbLine
 10
80.35252400000002
 20
151.857287
 30
0.0
 11
80.35613000000003
 21
151.853142
 31
0.0
  0
LINE
  5
8C6D
330
37
100
AcDbEntity
  8
10000_FRONT
  6
Continuous
 62
     7
370
    35
100
AcDbLine
 10
80.01175699999995
 20
152.026551
 30
0.0
 11
80.020717
 21
152.026522
 31
0.0
  0
LINE
  5
8C6E
330
37
100
AcDbEntity
  8
10000_FRONT
  6
Continuous
 62
     7
370
    35
100
AcDbLine
 10
80.020717
 20
152.026522
 30
0.0
 11
80.029941
 21
152.026431
 31
0.0
  0
LINE
  5
8C6F
330
37
100
AcDbEntity
  8
10000_FRONT
  6
Continuous
 62
     7
370
    35
100
AcDbLine
 10
80.029941
 20
152.026431
 30
0.0
 11
80.03933299999998
 21
152.026275
 31
0.0
  0
LINE
  5
8C70
330
37
100
AcDbEntity
  8
10000_FRONT
  6
Continuous
 62
     7
370
    35
100
AcDbLine
 10
80.03933299999998
 20
152.026275
 30
0.0
 11
80.04879199999995
 21
152.026053
 31
0.0
  0
LINE
  5
8C71
330
37
100
AcDbEntity
  8
10000_FRONT
  6
Continuous
 62
     7
370
    35
100
AcDbLine
 10
80.04879199999995
 20
152.026053
 30
0.0
 11
80.05821500000001
 21
152.025765
 31
0.0
  0
LINE
  5
8C72
330
37
100
AcDbEntity
  8
10000_FRONT
  6
Continuous
 62
     7
370
    35
100
AcDbLine
 10
80.05821500000001
 20
152.025765
 30
0.0
 11
80.06750199999997
 21
152.025414
 31
0.0
  0
LINE
  5
8C73
330
37
100
AcDbEntity
  8
10000_FRONT
  6
Continuous
 62
     7
370
    35
100
AcDbLine
 10
80.06750199999997
 20
152.025414
 30
0.0
 11
80.07655599999997
 21
152.025007
 31
0.0
  0
LINE
  5
8C74
330
37
100
AcDbEntity
  8
10000_FRONT
  6
Continuous
 62
     7
370
    35
100
AcDbLine
 10
80.07655599999997
 20
152.025007
 30
0.0
 11
80.08529000000001
 21
152.024551
 31
0.0
  0
LINE
  5
8C75
330
37
100
AcDbEntity
  8
10000_FRONT
  6
Continuous
 62
     7
370
    35
100
AcDbLine
 10
80.08529000000001
 20
152.024551
 30
0.0
 11
80.09362899999997
 21
152.024056
 31
0.0
  0
LINE
  5
8C76
330
37
100
AcDbEntity
  8
10000_FRONT
  6
Continuous
 62
     7
370
    35
100
AcDbLine
 10
80.09362899999997
 20
152.024056
 30
0.0
 11
80.10190299999996
 21
152.023503
 31
0.0
  0
LINE
  5
8C77
330
37
100
AcDbEntity
  8
10000_FRONT
  6
Continuous
 62
     7
370
    35
100
AcDbLine
 10
80.10190299999996
 20
152.023503
 30
0.0
 11
80.11026700000002
 21
152.022879
 31
0.0
  0
LINE
  5
8C78
330
37
100
AcDbEntity
  8
10000_FRONT
  6
Continuous
 62
     7
370
    35
100
AcDbLine
 10
80.11026700000002
 20
152.022879
 30
0.0
 11
80.11862299999995
 21
152.022186
 31
0.0
  0
LINE
  5
8C79
330
37
100
AcDbEntity
  8
10000_FRONT
  6
Continuous
 62
     7
370
    35
100
AcDbLine
 10
80.11862299999995
 20
152.022186
 30
0.0
 11
80.126872
 21
152.021429
 31
0.0
  0
LINE
  5
8C7A
330
37
100
AcDbEntity
  8
10000_FRONT
  6
Continuous
 62
     7
370
    35
100
AcDbLine
 10
80.126872
 20
152.021429
 30
0.0
 11
80.13492299999995
 21
152.020614
 31
0.0
  0
LINE
  5
8C7B
330
37
100
AcDbEntity
  8
10000_FRONT
  6
Continuous
 62
     7
370
    35
100
AcDbLine
 10
80.13492299999995
 20
152.020614
 30
0.0
 11
80.14269199999992
 21
152.019751
 31
0.0
  0
LINE
  5
8C7C
330
37
100
AcDbEntity
  8
10000_FRONT
  6
Continuous
 62
     7
370
    35
100
AcDbLine
 10
80.14269199999992
 20
152.019751
 30
0.0
 11
80.150103
 21
152.018849
 31
0.0
  0
LINE
  5
8C7D
330
37
100
AcDbEntity
  8
10000_FRONT
  6
Continuous
 62
     7
370
    35
100
AcDbLine
 10
80.150103
 20
152.018849
 30
0.0
 11
80.15709300000002
 21
152.017922
 31
0.0
  0
LINE
  5
8C7E
330
37
100
AcDbEntity
  8
10000_FRONT
  6
Continuous
 62
     7
370
    35
100
AcDbLine
 10
80.15709300000002
 20
152.017922
 30
0.0
 11
80.16362600000002
 21
152.016979
 31
0.0
  0
LINE
  5
8C7F
330
37
100
AcDbEntity
  8
10000_FRONT
  6
Continuous
 62
     7
370
    35
100
AcDbLine
 10
80.16362600000002
 20
152.016979
 30
0.0
 11
80.16999599999996
 21
152.015981
 31
0.0
  0
LINE
  5
8C80
330
37
100
AcDbEntity
  8
10000_FRONT
  6
Continuous
 62
     7
370
    35
100
AcDbLine
 10
80.16999599999996
 20
152.015981
 30
0.0
 11
80.17626899999998
 21
152.014911
 31
0.0
  0
LINE
  5
8C81
330
37
100
AcDbEntity
  8
10000_FRONT
  6
Continuous
 62
     7
370
    35
100
AcDbLine
 10
80.17626899999998
 20
152.014911
 30
0.0
 11
80.18235300000005
 21
152.013778
 31
0.0
  0
LINE
  5
8C82
330
37
100
AcDbEntity
  8
10000_FRONT
  6
Continuous
 62
     7
370
    35
100
AcDbLine
 10
80.18235300000005
 20
152.013778
 30
0.0
 11
80.18816700000002
 21
152.012591
 31
0.0
  0
LINE
  5
8C83
330
37
100
AcDbEntity
  8
10000_FRONT
  6
Continuous
 62
     7
370
    35
100
AcDbLine
 10
80.18816700000002
 20
152.012591
 30
0.0
 11
80.19364000000001
 21
152.011364
 31
0.0
  0
LINE
  5
8C84
330
37
100
AcDbEntity
  8
10000_FRONT
  6
Continuous
 62
     7
370
    35
100
AcDbLine
 10
80.19364000000001
 20
152.011364
 30
0.0
 11
80.198712
 21
152.010109
 31
0.0
  0
LINE
  5
8C85
330
37
100
AcDbEntity
  8
10000_FRONT
  6
Continuous
 62
     7
370
    35
100
AcDbLine
 10
80.198712
 20
152.010109
 30
0.0
 11
80.20334100000004
 21
152.008842
 31
0.0
  0
LINE
  5
8C86
330
37
100
AcDbEntity
  8
10000_FRONT
  6
Continuous
 62
     7
370
    35
100
AcDbLine
 10
80.20334100000004
 20
152.008842
 30
0.0
 11
80.20749699999994
 21
152.007578
 31
0.0
  0
LINE
  5
8C87
330
37
100
AcDbEntity
  8
10000_FRONT
  6
Continuous
 62
     7
370
    35
100
AcDbLine
 10
80.20749699999994
 20
152.007578
 30
0.0
 11
80.21120200000002
 21
152.00632
 31
0.0
  0
LINE
  5
8C88
330
37
100
AcDbEntity
  8
10000_FRONT
  6
Continuous
 62
     7
370
    35
100
AcDbLine
 10
80.21120200000002
 20
152.00632
 30
0.0
 11
80.21464200000002
 21
152.005005
 31
0.0
  0
LINE
  5
8C89
330
37
100
AcDbEntity
  8
10000_FRONT
  6
Continuous
 62
     7
370
    35
100
AcDbLine
 10
80.21464200000002
 20
152.005005
 30
0.0
 11
80.21778500000003
 21
152.003631
 31
0.0
  0
LINE
  5
8C8A
330
37
100
AcDbEntity
  8
10000_FRONT
  6
Continuous
 62
     7
370
    35
100
AcDbLine
 10
80.21778500000003
 20
152.003631
 30
0.0
 11
80.22056500000003
 21
152.002212
 31
0.0
  0
LINE
  5
8C8B
330
37
100
AcDbEntity
  8
10000_FRONT
  6
Continuous
 62
     7
370
    35
100
AcDbLine
 10
80.22056500000003
 20
152.002212
 30
0.0
 11
80.22293300000002
 21
152.000764
 31
0.0
  0
LINE
  5
8C8C
330
37
100
AcDbEntity
  8
10000_FRONT
  6
Continuous
 62
     7
370
    35
100
AcDbLine
 10
80.22293300000002
 20
152.000764
 30
0.0
 11
80.22485500000003
 21
151.999303
 31
0.0
  0
LINE
  5
8C8D
330
37
100
AcDbEntity
  8
10000_FRONT
  6
Continuous
 62
     7
370
    35
100
AcDbLine
 10
80.22485500000003
 20
151.999303
 30
0.0
 11
80.22631500000001
 21
151.997848
 31
0.0
  0
LINE
  5
8C8E
330
37
100
AcDbEntity
  8
10000_FRONT
  6
Continuous
 62
     7
370
    35
100
AcDbLine
 10
80.22631500000001
 20
151.997848
 30
0.0
 11
80.22731599999998
 21
151.996415
 31
0.0
  0
LINE
  5
8C8F
330
37
100
AcDbEntity
  8
10000_FRONT
  6
Continuous
 62
     7
370
    35
100
AcDbLine
 10
80.22731599999998
 20
151.996415
 30
0.0
 11
80.22787800000003
 21
151.995022
 31
0.0
  0
LINE
  5
8C90
330
37
100
AcDbEntity
  8
10000_FRONT
  6
Continuous
 62
     7
370
    35
100
AcDbLine
 10
80.01175699999995
 20
150.579733
 30
0.0
 11
78.06092799999998
 21
150.579733
 31
0.0
  0
LINE
  5
8C91
330
37
100
AcDbEntity
  8
10000_FRONT
  6
Continuous
 62
     7
370
    35
100
AcDbLine
 10
80.22787800000003
 20
150.611262
 30
0.0
 11
80.22731599999998
 21
150.609869
 31
0.0
  0
LINE
  5
8C92
330
37
100
AcDbEntity
  8
10000_FRONT
  6
Continuous
 62
     7
370
    35
100
AcDbLine
 10
80.22731599999998
 20
150.609869
 30
0.0
 11
80.22631500000001
 21
150.608436
 31
0.0
  0
LINE
  5
8C93
330
37
100
AcDbEntity
  8
10000_FRONT
  6
Continuous
 62
     7
370
    35
100
AcDbLine
 10
80.22631500000001
 20
150.608436
 30
0.0
 11
80.22485500000003
 21
150.606981
 31
0.0
  0
LINE
  5
8C94
330
37
100
AcDbEntity
  8
10000_FRONT
  6
Continuous
 62
     7
370
    35
100
AcDbLine
 10
80.22485500000003
 20
150.606981
 30
0.0
 11
80.22293300000002
 21
150.60552
 31
0.0
  0
LINE
  5
8C95
330
37
100
AcDbEntity
  8
10000_FRONT
  6
Continuous
 62
     7
370
    35
100
AcDbLine
 10
80.22293300000002
 20
150.60552
 30
0.0
 11
80.22056500000003
 21
150.6040719999999
 31
0.0
  0
LINE
  5
8C96
330
37
100
AcDbEntity
  8
10000_FRONT
  6
Continuous
 62
     7
370
    35
100
AcDbLine
 10
80.22056500000003
 20
150.6040719999999
 30
0.0
 11
80.21778500000003
 21
150.602653
 31
0.0
  0
LINE
  5
8C97
330
37
100
AcDbEntity
  8
10000_FRONT
  6
Continuous
 62
     7
370
    35
100
AcDbLine
 10
80.21778500000003
 20
150.602653
 30
0.0
 11
80.21464200000002
 21
150.601279
 31
0.0
  0
LINE
  5
8C98
330
37
100
AcDbEntity
  8
10000_FRONT
  6
Continuous
 62
     7
370
    35
100
AcDbLine
 10
80.21464200000002
 20
150.601279
 30
0.0
 11
80.21120200000002
 21
150.599964
 31
0.0
  0
LINE
  5
8C99
330
37
100
AcDbEntity
  8
10000_FRONT
  6
Continuous
 62
     7
370
    35
100
AcDbLine
 10
80.21120200000002
 20
150.599964
 30
0.0
 11
80.20749699999994
 21
150.598706
 31
0.0
  0
LINE
  5
8C9A
330
37
100
AcDbEntity
  8
10000_FRONT
  6
Continuous
 62
     7
370
    35
100
AcDbLine
 10
80.20749699999994
 20
150.598706
 30
0.0
 11
80.20334100000004
 21
150.597442
 31
0.0
  0
LINE
  5
8C9B
330
37
100
AcDbEntity
  8
10000_FRONT
  6
Continuous
 62
     7
370
    35
100
AcDbLine
 10
80.20334100000004
 20
150.597442
 30
0.0
 11
80.198712
 21
150.596175
 31
0.0
  0
LINE
  5
8C9C
330
37
100
AcDbEntity
  8
10000_FRONT
  6
Continuous
 62
     7
370
    35
100
AcDbLine
 10
80.198712
 20
150.596175
 30
0.0
 11
80.19364000000001
 21
150.59492
 31
0.0
  0
LINE
  5
8C9D
330
37
100
AcDbEntity
  8
10000_FRONT
  6
Continuous
 62
     7
370
    35
100
AcDbLine
 10
80.19364000000001
 20
150.59492
 30
0.0
 11
80.18816700000002
 21
150.593693
 31
0.0
  0
LINE
  5
8C9E
330
37
100
AcDbEntity
  8
10000_FRONT
  6
Continuous
 62
     7
370
    35
100
AcDbLine
 10
80.18816700000002
 20
150.593693
 30
0.0
 11
80.18235300000005
 21
150.592506
 31
0.0
  0
LINE
  5
8C9F
330
37
100
AcDbEntity
  8
10000_FRONT
  6
Continuous
 62
     7
370
    35
100
AcDbLine
 10
80.18235300000005
 20
150.592506
 30
0.0
 11
80.17626899999998
 21
150.591373
 31
0.0
  0
LINE
  5
8CA0
330
37
100
AcDbEntity
  8
10000_FRONT
  6
Continuous
 62
     7
370
    35
100
AcDbLine
 10
80.17626899999998
 20
150.591373
 30
0.0
 11
80.16999599999996
 21
150.590303
 31
0.0
  0
LINE
  5
8CA1
330
37
100
AcDbEntity
  8
10000_FRONT
  6
Continuous
 62
     7
370
    35
100
AcDbLine
 10
80.16999599999996
 20
150.590303
 30
0.0
 11
80.16362600000002
 21
150.589305
 31
0.0
  0
LINE
  5
8CA2
330
37
100
AcDbEntity
  8
10000_FRONT
  6
Continuous
 62
     7
370
    35
100
AcDbLine
 10
80.16362600000002
 20
150.589305
 30
0.0
 11
80.15709300000002
 21
150.588362
 31
0.0
  0
LINE
  5
8CA3
330
37
100
AcDbEntity
  8
10000_FRONT
  6
Continuous
 62
     7
370
    35
100
AcDbLine
 10
80.15709300000002
 20
150.588362
 30
0.0
 11
80.150103
 21
150.587435
 31
0.0
  0
LINE
  5
8CA4
330
37
100
AcDbEntity
  8
10000_FRONT
  6
Continuous
 62
     7
370
    35
100
AcDbLine
 10
80.150103
 20
150.587435
 30
0.0
 11
80.14269199999992
 21
150.586533
 31
0.0
  0
LINE
  5
8CA5
330
37
100
AcDbEntity
  8
10000_FRONT
  6
Continuous
 62
     7
370
    35
100
AcDbLine
 10
80.14269199999992
 20
150.586533
 30
0.0
 11
80.13492299999995
 21
150.58567
 31
0.0
  0
LINE
  5
8CA6
330
37
100
AcDbEntity
  8
10000_FRONT
  6
Continuous
 62
     7
370
    35
100
AcDbLine
 10
80.13492299999995
 20
150.58567
 30
0.0
 11
80.126872
 21
150.584855
 31
0.0
  0
LINE
  5
8CA7
330
37
100
AcDbEntity
  8
10000_FRONT
  6
Continuous
 62
     7
370
    35
100
AcDbLine
 10
80.126872
 20
150.584855
 30
0.0
 11
80.11862299999995
 21
150.584098
 31
0.0
  0
LINE
  5
8CA8
330
37
100
AcDbEntity
  8
10000_FRONT
  6
Continuous
 62
     7
370
    35
100
AcDbLine
 10
80.11862299999995
 20
150.584098
 30
0.0
 11
80.11026700000002
 21
150.583405
 31
0.0
  0
LINE
  5
8CA9
330
37
100
AcDbEntity
  8
10000_FRONT
  6
Continuous
 62
     7
370
    35
100
AcDbLine
 10
80.11026700000002
 20
150.583405
 30
0.0
 11
80.10190299999996
 21
150.582781
 31
0.0
  0
LINE
  5
8CAA
330
37
100
AcDbEntity
  8
10000_FRONT
  6
Continuous
 62
     7
370
    35
100
AcDbLine
 10
80.10190299999996
 20
150.582781
 30
0.0
 11
80.09362899999997
 21
150.582228
 31
0.0
  0
LINE
  5
8CAB
330
37
100
AcDbEntity
  8
10000_FRONT
  6
Continuous
 62
     7
370
    35
100
AcDbLine
 10
80.09362899999997
 20
150.582228
 30
0.0
 11
80.08529000000001
 21
150.581733
 31
0.0
  0
LINE
  5
8CAC
330
37
100
AcDbEntity
  8
10000_FRONT
  6
Continuous
 62
     7
370
    35
100
AcDbLine
 10
80.08529000000001
 20
150.581733
 30
0.0
 11
80.07655599999997
 21
150.581277
 31
0.0
  0
LINE
  5
8CAD
330
37
100
AcDbEntity
  8
10000_FRONT
  6
Continuous
 62
     7
370
    35
100
AcDbLine
 10
80.07655599999997
 20
150.581277
 30
0.0
 11
80.06750199999997
 21
150.58087
 31
0.0
  0
LINE
  5
8CAE
330
37
100
AcDbEntity
  8
10000_FRONT
  6
Continuous
 62
     7
370
    35
100
AcDbLine
 10
80.06750199999997
 20
150.58087
 30
0.0
 11
80.05821500000001
 21
150.580519
 31
0.0
  0
LINE
  5
8CAF
330
37
100
AcDbEntity
  8
10000_FRONT
  6
Continuous
 62
     7
370
    35
100
AcDbLine
 10
80.05821500000001
 20
150.580519
 30
0.0
 11
80.04879199999995
 21
150.580231
 31
0.0
  0
LINE
  5
8CB0
330
37
100
AcDbEntity
  8
10000_FRONT
  6
Continuous
 62
     7
370
    35
100
AcDbLine
 10
80.04879199999995
 20
150.580231
 30
0.0
 11
80.03933299999998
 21
150.580009
 31
0.0
  0
LINE
  5
8CB1
330
37
100
AcDbEntity
  8
10000_FRONT
  6
Continuous
 62
     7
370
    35
100
AcDbLine
 10
80.03933299999998
 20
150.580009
 30
0.0
 11
80.029941
 21
150.579853
 31
0.0
  0
LINE
  5
8CB2
330
37
100
AcDbEntity
  8
10000_FRONT
  6
Continuous
 62
     7
370
    35
100
AcDbLine
 10
80.029941
 20
150.579853
 30
0.0
 11
80.020717
 21
150.579762
 31
0.0
  0
LINE
  5
8CB3
330
37
100
AcDbEntity
  8
10000_FRONT
  6
Continuous
 62
     7
370
    35
100
AcDbLine
 10
80.020717
 20
150.579762
 30
0.0
 11
80.01175699999995
 21
150.579733
 31
0.0
  0
LINE
  5
8CB4
330
37
100
AcDbEntity
  8
10000_FRONT
  6
Continuous
 62
     7
370
    35
100
AcDbLine
 10
80.35613000000003
 20
150.753142
 30
0.0
 11
80.35252400000002
 21
150.748997
 31
0.0
  0
LINE
  5
8CB5
330
37
100
AcDbEntity
  8
10000_FRONT
  6
Continuous
 62
     7
370
    35
100
AcDbLine
 10
80.35252400000002
 20
150.748997
 30
0.0
 11
80.34891400000004
 21
150.744857
 31
0.0
  0
LINE
  5
8CB6
330
37
100
AcDbEntity
  8
10000_FRONT
  6
Continuous
 62
     7
370
    35
100
AcDbLine
 10
80.34891400000004
 20
150.744857
 30
0.0
 11
80.3453
 21
150.740722
 31
0.0
  0
LINE
  5
8CB7
330
37
100
AcDbEntity
  8
10000_FRONT
  6
Continuous
 62
     7
370
    35
100
AcDbLine
 10
80.3453
 20
150.740722
 30
0.0
 11
80.34168299999995
 21
150.7365929999999
 31
0.0
  0
LINE
  5
8CB8
330
37
100
AcDbEntity
  8
10000_FRONT
  6
Continuous
 62
     7
370
    35
100
AcDbLine
 10
80.34168299999995
 20
150.7365929999999
 30
0.0
 11
80.33806300000003
 21
150.732469
 31
0.0
  0
LINE
  5
8CB9
330
37
100
AcDbEntity
  8
10000_FRONT
  6
Continuous
 62
     7
370
    35
100
AcDbLine
 10
80.33806300000003
 20
150.732469
 30
0.0
 11
80.33443899999998
 21
150.7283509999999
 31
0.0
  0
LINE
  5
8CBA
330
37
100
AcDbEntity
  8
10000_FRONT
  6
Continuous
 62
     7
370
    35
100
AcDbLine
 10
80.33443899999998
 20
150.7283509999999
 30
0.0
 11
80.33081200000003
 21
150.724238
 31
0.0
  0
LINE
  5
8CBB
330
37
100
AcDbEntity
  8
10000_FRONT
  6
Continuous
 62
     7
370
    35
100
AcDbLine
 10
80.33081200000003
 20
150.724238
 30
0.0
 11
80.32718100000002
 21
150.72013
 31
0.0
  0
LINE
  5
8CBC
330
37
100
AcDbEntity
  8
10000_FRONT
  6
Continuous
 62
     7
370
    35
100
AcDbLine
 10
80.32718100000002
 20
150.72013
 30
0.0
 11
80.32354699999997
 21
150.716028
 31
0.0
  0
LINE
  5
8CBD
330
37
100
AcDbEntity
  8
10000_FRONT
  6
Continuous
 62
     7
370
    35
100
AcDbLine
 10
80.32354699999997
 20
150.716028
 30
0.0
 11
80.319909
 21
150.71193
 31
0.0
  0
LINE
  5
8CBE
330
37
100
AcDbEntity
  8
10000_FRONT
  6
Continuous
 62
     7
370
    35
100
AcDbLine
 10
80.319909
 20
150.71193
 30
0.0
 11
80.31626900000004
 21
150.707839
 31
0.0
  0
LINE
  5
8CBF
330
37
100
AcDbEntity
  8
10000_FRONT
  6
Continuous
 62
     7
370
    35
100
AcDbLine
 10
80.31626900000004
 20
150.707839
 30
0.0
 11
80.31262400000001
 21
150.703752
 31
0.0
  0
LINE
  5
8CC0
330
37
100
AcDbEntity
  8
10000_FRONT
  6
Continuous
 62
     7
370
    35
100
AcDbLine
 10
80.31262400000001
 20
150.703752
 30
0.0
 11
80.30897700000002
 21
150.6996719999999
 31
0.0
  0
LINE
  5
8CC1
330
37
100
AcDbEntity
  8
10000_FRONT
  6
Continuous
 62
     7
370
    35
100
AcDbLine
 10
80.30897700000002
 20
150.6996719999999
 30
0.0
 11
80.30532500000004
 21
150.695596
 31
0.0
  0
LINE
  5
8CC2
330
37
100
AcDbEntity
  8
10000_FRONT
  6
Continuous
 62
     7
370
    35
100
AcDbLine
 10
80.30532500000004
 20
150.695596
 30
0.0
 11
80.30167099999998
 21
150.691526
 31
0.0
  0
LINE
  5
8CC3
330
37
100
AcDbEntity
  8
10000_FRONT
  6
Continuous
 62
     7
370
    35
100
AcDbLine
 10
80.30167099999998
 20
150.691526
 30
0.0
 11
80.29801300000002
 21
150.687461
 31
0.0
  0
LINE
  5
8CC4
330
37
100
AcDbEntity
  8
10000_FRONT
  6
Continuous
 62
     7
370
    35
100
AcDbLine
 10
80.29801300000002
 20
150.687461
 30
0.0
 11
80.29435199999998
 21
150.683402
 31
0.0
  0
LINE
  5
8CC5
330
37
100
AcDbEntity
  8
10000_FRONT
  6
Continuous
 62
     7
370
    35
100
AcDbLine
 10
80.29435199999998
 20
150.683402
 30
0.0
 11
80.29068700000003
 21
150.679348
 31
0.0
  0
LINE
  5
8CC6
330
37
100
AcDbEntity
  8
10000_FRONT
  6
Continuous
 62
     7
370
    35
100
AcDbLine
 10
80.29068700000003
 20
150.679348
 30
0.0
 11
80.28701899999999
 21
150.675299
 31
0.0
  0
LINE
  5
8CC7
330
37
100
AcDbEntity
  8
10000_FRONT
  6
Continuous
 62
     7
370
    35
100
AcDbLine
 10
80.28701899999999
 20
150.675299
 30
0.0
 11
80.28334799999994
 21
150.671256
 31
0.0
  0
LINE
  5
8CC8
330
37
100
AcDbEntity
  8
10000_FRONT
  6
Continuous
 62
     7
370
    35
100
AcDbLine
 10
80.28334799999994
 20
150.671256
 30
0.0
 11
80.279673
 21
150.6672179999999
 31
0.0
  0
LINE
  5
8CC9
330
37
100
AcDbEntity
  8
10000_FRONT
  6
Continuous
 62
     7
370
    35
100
AcDbLine
 10
80.279673
 20
150.6672179999999
 30
0.0
 11
80.27599499999997
 21
150.663186
 31
0.0
  0
LINE
  5
8CCA
330
37
100
AcDbEntity
  8
10000_FRONT
  6
Continuous
 62
     7
370
    35
100
AcDbLine
 10
80.27599499999997
 20
150.663186
 30
0.0
 11
80.27231400000003
 21
150.659159
 31
0.0
  0
LINE
  5
8CCB
330
37
100
AcDbEntity
  8
10000_FRONT
  6
Continuous
 62
     7
370
    35
100
AcDbLine
 10
80.27231400000003
 20
150.659159
 30
0.0
 11
80.26862900000002
 21
150.655138
 31
0.0
  0
LINE
  5
8CCC
330
37
100
AcDbEntity
  8
10000_FRONT
  6
Continuous
 62
     7
370
    35
100
AcDbLine
 10
80.26862900000002
 20
150.655138
 30
0.0
 11
80.26494100000002
 21
150.651122
 31
0.0
  0
LINE
  5
8CCD
330
37
100
AcDbEntity
  8
10000_FRONT
  6
Continuous
 62
     7
370
    35
100
AcDbLine
 10
80.26494100000002
 20
150.651122
 30
0.0
 11
80.26125000000002
 21
150.647111
 31
0.0
  0
LINE
  5
8CCE
330
37
100
AcDbEntity
  8
10000_FRONT
  6
Continuous
 62
     7
370
    35
100
AcDbLine
 10
80.26125000000002
 20
150.647111
 30
0.0
 11
80.25755500000002
 21
150.643106
 31
0.0
  0
LINE
  5
8CCF
330
37
100
AcDbEntity
  8
10000_FRONT
  6
Continuous
 62
     7
370
    35
100
AcDbLine
 10
80.25755500000002
 20
150.643106
 30
0.0
 11
80.25385700000006
 21
150.639107
 31
0.0
  0
LINE
  5
8CD0
330
37
100
AcDbEntity
  8
10000_FRONT
  6
Continuous
 62
     7
370
    35
100
AcDbLine
 10
80.25385700000006
 20
150.639107
 30
0.0
 11
80.25015600000001
 21
150.635112
 31
0.0
  0
LINE
  5
8CD1
330
37
100
AcDbEntity
  8
10000_FRONT
  6
Continuous
 62
     7
370
    35
100
AcDbLine
 10
80.25015600000001
 20
150.635112
 30
0.0
 11
80.24645099999998
 21
150.631124
 31
0.0
  0
LINE
  5
8CD2
330
37
100
AcDbEntity
  8
10000_FRONT
  6
Continuous
 62
     7
370
    35
100
AcDbLine
 10
80.24645099999998
 20
150.631124
 30
0.0
 11
80.242743
 21
150.627141
 31
0.0
  0
LINE
  5
8CD3
330
37
100
AcDbEntity
  8
10000_FRONT
  6
Continuous
 62
     7
370
    35
100
AcDbLine
 10
80.242743
 20
150.627141
 30
0.0
 11
80.23903200000004
 21
150.623163
 31
0.0
  0
LINE
  5
8CD4
330
37
100
AcDbEntity
  8
10000_FRONT
  6
Continuous
 62
     7
370
    35
100
AcDbLine
 10
80.23903200000004
 20
150.623163
 30
0.0
 11
80.2353169999999
 21
150.619191
 31
0.0
  0
LINE
  5
8CD5
330
37
100
AcDbEntity
  8
10000_FRONT
  6
Continuous
 62
     7
370
    35
100
AcDbLine
 10
80.2353169999999
 20
150.619191
 30
0.0
 11
80.23159899999994
 21
150.615224
 31
0.0
  0
LINE
  5
8CD6
330
37
100
AcDbEntity
  8
10000_FRONT
  6
Continuous
 62
     7
370
    35
100
AcDbLine
 10
80.23159899999994
 20
150.615224
 30
0.0
 11
80.22787800000003
 21
150.611262
 31
0.0
  0
LINE
  5
8CD7
330
37
100
AcDbEntity
  8
10000_FRONT
  6
Continuous
 62
     7
370
    35
100
AcDbLine
 10
75.08009900000002
 20
150.579733
 30
0.0
 11
75.07113900000002
 21
150.579762
 31
0.0
  0
LINE
  5
8CD8
330
37
100
AcDbEntity
  8
10000_FRONT
  6
Continuous
 62
     7
370
    35
100
AcDbLine
 10
75.07113900000002
 20
150.579762
 30
0.0
 11
75.06191499999999
 21
150.579853
 31
0.0
  0
LINE
  5
8CD9
330
37
100
AcDbEntity
  8
10000_FRONT
  6
Continuous
 62
     7
370
    35
100
AcDbLine
 10
75.06191499999999
 20
150.579853
 30
0.0
 11
75.05252300000002
 21
150.580009
 31
0.0
  0
LINE
  5
8CDA
330
37
100
AcDbEntity
  8
10000_FRONT
  6
Continuous
 62
     7
370
    35
100
AcDbLine
 10
75.05252300000002
 20
150.580009
 30
0.0
 11
75.04306400000001
 21
150.580231
 31
0.0
  0
LINE
  5
8CDB
330
37
100
AcDbEntity
  8
10000_FRONT
  6
Continuous
 62
     7
370
    35
100
AcDbLine
 10
75.04306400000001
 20
150.580231
 30
0.0
 11
75.03364099999995
 21
150.580519
 31
0.0
  0
LINE
  5
8CDC
330
37
100
AcDbEntity
  8
10000_FRONT
  6
Continuous
 62
     7
370
    35
100
AcDbLine
 10
75.03364099999995
 20
150.580519
 30
0.0
 11
75.02435400000002
 21
150.58087
 31
0.0
  0
LINE
  5
8CDD
330
37
100
AcDbEntity
  8
10000_FRONT
  6
Continuous
 62
     7
370
    35
100
AcDbLine
 10
75.02435400000002
 20
150.58087
 30
0.0
 11
75.01530000000002
 21
150.581277
 31
0.0
  0
LINE
  5
8CDE
330
37
100
AcDbEntity
  8
10000_FRONT
  6
Continuous
 62
     7
370
    35
100
AcDbLine
 10
75.01530000000002
 20
150.581277
 30
0.0
 11
75.00656600000002
 21
150.581733
 31
0.0
  0
LINE
  5
8CDF
330
37
100
AcDbEntity
  8
10000_FRONT
  6
Continuous
 62
     7
370
    35
100
AcDbLine
 10
75.00656600000002
 20
150.581733
 30
0.0
 11
74.99822699999999
 21
150.582228
 31
0.0
  0
LINE
  5
8CE0
330
37
100
AcDbEntity
  8
10000_FRONT
  6
Continuous
 62
     7
370
    35
100
AcDbLine
 10
74.99822699999999
 20
150.582228
 30
0.0
 11
74.98995300000001
 21
150.582781
 31
0.0
  0
LINE
  5
8CE1
330
37
100
AcDbEntity
  8
10000_FRONT
  6
Continuous
 62
     7
370
    35
100
AcDbLine
 10
74.98995300000001
 20
150.582781
 30
0.0
 11
74.98158899999999
 21
150.583405
 31
0.0
  0
LINE
  5
8CE2
330
37
100
AcDbEntity
  8
10000_FRONT
  6
Continuous
 62
     7
370
    35
100
AcDbLine
 10
74.98158899999999
 20
150.583405
 30
0.0
 11
74.97323299999997
 21
150.584098
 31
0.0
  0
LINE
  5
8CE3
330
37
100
AcDbEntity
  8
10000_FRONT
  6
Continuous
 62
     7
370
    35
100
AcDbLine
 10
74.97323299999997
 20
150.584098
 30
0.0
 11
74.96498400000001
 21
150.584855
 31
0.0
  0
LINE
  5
8CE4
330
37
100
AcDbEntity
  8
10000_FRONT
  6
Continuous
 62
     7
370
    35
100
AcDbLine
 10
74.96498400000001
 20
150.584855
 30
0.0
 11
74.95693299999995
 21
150.58567
 31
0.0
  0
LINE
  5
8CE5
330
37
100
AcDbEntity
  8
10000_FRONT
  6
Continuous
 62
     7
370
    35
100
AcDbLine
 10
74.95693299999995
 20
150.58567
 30
0.0
 11
74.94916399999998
 21
150.586533
 31
0.0
  0
LINE
  5
8CE6
330
37
100
AcDbEntity
  8
10000_FRONT
  6
Continuous
 62
     7
370
    35
100
AcDbLine
 10
74.94916399999998
 20
150.586533
 30
0.0
 11
74.94175300000001
 21
150.587435
 31
0.0
  0
LINE
  5
8CE7
330
37
100
AcDbEntity
  8
10000_FRONT
  6
Continuous
 62
     7
370
    35
100
AcDbLine
 10
74.94175300000001
 20
150.587435
 30
0.0
 11
74.93476300000001
 21
150.588362
 31
0.0
  0
LINE
  5
8CE8
330
37
100
AcDbEntity
  8
10000_FRONT
  6
Continuous
 62
     7
370
    35
100
AcDbLine
 10
74.93476300000001
 20
150.588362
 30
0.0
 11
74.92822999999998
 21
150.589305
 31
0.0
  0
LINE
  5
8CE9
330
37
100
AcDbEntity
  8
10000_FRONT
  6
Continuous
 62
     7
370
    35
100
AcDbLine
 10
74.92822999999998
 20
150.589305
 30
0.0
 11
74.92186000000002
 21
150.590303
 31
0.0
  0
LINE
  5
8CEA
330
37
100
AcDbEntity
  8
10000_FRONT
  6
Continuous
 62
     7
370
    35
100
AcDbLine
 10
77.03092800000002
 20
150.579733
 30
0.0
 11
75.08009900000002
 21
150.579733
 31
0.0
  0
LINE
  5
8CEB
330
37
100
AcDbEntity
  8
10000_FRONT
  6
Continuous
 62
     7
370
    35
100
AcDbLine
 10
74.92186000000002
 20
152.015981
 30
0.0
 11
74.92822999999998
 21
152.016979
 31
0.0
  0
LINE
  5
8CEC
330
37
100
AcDbEntity
  8
10000_FRONT
  6
Continuous
 62
     7
370
    35
100
AcDbLine
 10
74.92822999999998
 20
152.016979
 30
0.0
 11
74.93476300000001
 21
152.017922
 31
0.0
  0
LINE
  5
8CED
330
37
100
AcDbEntity
  8
10000_FRONT
  6
Continuous
 62
     7
370
    35
100
AcDbLine
 10
74.93476300000001
 20
152.017922
 30
0.0
 11
74.94175300000001
 21
152.018849
 31
0.0
  0
LINE
  5
8CEE
330
37
100
AcDbEntity
  8
10000_FRONT
  6
Continuous
 62
     7
370
    35
100
AcDbLine
 10
74.94175300000001
 20
152.018849
 30
0.0
 11
74.94916399999998
 21
152.019751
 31
0.0
  0
LINE
  5
8CEF
330
37
100
AcDbEntity
  8
10000_FRONT
  6
Continuous
 62
     7
370
    35
100
AcDbLine
 10
74.94916399999998
 20
152.019751
 30
0.0
 11
74.95693299999995
 21
152.020614
 31
0.0
  0
LINE
  5
8CF0
330
37
100
AcDbEntity
  8
10000_FRONT
  6
Continuous
 62
     7
370
    35
100
AcDbLine
 10
74.95693299999995
 20
152.020614
 30
0.0
 11
74.96498400000001
 21
152.021429
 31
0.0
  0
LINE
  5
8CF1
330
37
100
AcDbEntity
  8
10000_FRONT
  6
Continuous
 62
     7
370
    35
100
AcDbLine
 10
74.96498400000001
 20
152.021429
 30
0.0
 11
74.97323299999997
 21
152.022186
 31
0.0
  0
LINE
  5
8CF2
330
37
100
AcDbEntity
  8
10000_FRONT
  6
Continuous
 62
     7
370
    35
100
AcDbLine
 10
74.97323299999997
 20
152.022186
 30
0.0
 11
74.98158899999999
 21
152.022879
 31
0.0
  0
LINE
  5
8CF3
330
37
100
AcDbEntity
  8
10000_FRONT
  6
Continuous
 62
     7
370
    35
100
AcDbLine
 10
74.98158899999999
 20
152.022879
 30
0.0
 11
74.98995300000001
 21
152.023503
 31
0.0
  0
LINE
  5
8CF4
330
37
100
AcDbEntity
  8
10000_FRONT
  6
Continuous
 62
     7
370
    35
100
AcDbLine
 10
74.98995300000001
 20
152.023503
 30
0.0
 11
74.99822699999999
 21
152.024056
 31
0.0
  0
LINE
  5
8CF5
330
37
100
AcDbEntity
  8
10000_FRONT
  6
Continuous
 62
     7
370
    35
100
AcDbLine
 10
74.99822699999999
 20
152.024056
 30
0.0
 11
75.00656600000002
 21
152.024551
 31
0.0
  0
LINE
  5
8CF6
330
37
100
AcDbEntity
  8
10000_FRONT
  6
Continuous
 62
     7
370
    35
100
AcDbLine
 10
75.00656600000002
 20
152.024551
 30
0.0
 11
75.01530000000002
 21
152.025007
 31
0.0
  0
LINE
  5
8CF7
330
37
100
AcDbEntity
  8
10000_FRONT
  6
Continuous
 62
     7
370
    35
100
AcDbLine
 10
75.01530000000002
 20
152.025007
 30
0.0
 11
75.02435400000002
 21
152.025414
 31
0.0
  0
LINE
  5
8CF8
330
37
100
AcDbEntity
  8
10000_FRONT
  6
Continuous
 62
     7
370
    35
100
AcDbLine
 10
75.02435400000002
 20
152.025414
 30
0.0
 11
75.03364099999995
 21
152.025765
 31
0.0
  0
LINE
  5
8CF9
330
37
100
AcDbEntity
  8
10000_FRONT
  6
Continuous
 62
     7
370
    35
100
AcDbLine
 10
75.03364099999995
 20
152.025765
 30
0.0
 11
75.04306400000001
 21
152.026053
 31
0.0
  0
LINE
  5
8CFA
330
37
100
AcDbEntity
  8
10000_FRONT
  6
Continuous
 62
     7
370
    35
100
AcDbLine
 10
75.04306400000001
 20
152.026053
 30
0.0
 11
75.05252300000002
 21
152.026275
 31
0.0
  0
LINE
  5
8CFB
330
37
100
AcDbEntity
  8
10000_FRONT
  6
Continuous
 62
     7
370
    35
100
AcDbLine
 10
75.05252300000002
 20
152.026275
 30
0.0
 11
75.06191499999999
 21
152.026431
 31
0.0
  0
LINE
  5
8CFC
330
37
100
AcDbEntity
  8
10000_FRONT
  6
Continuous
 62
     7
370
    35
100
AcDbLine
 10
75.06191499999999
 20
152.026431
 30
0.0
 11
75.07113900000002
 21
152.026522
 31
0.0
  0
LINE
  5
8CFD
330
37
100
AcDbEntity
  8
10000_FRONT
  6
Continuous
 62
     7
370
    35
100
AcDbLine
 10
75.07113900000002
 20
152.026522
 30
0.0
 11
75.08009900000002
 21
152.026551
 31
0.0
  0
ARC
  5
8CFE
330
37
100
AcDbEntity
  8
10000_FRONT
  6
Continuous
 62
     7
370
    35
100
AcDbCircle
 10
77.54592800000001
 20
151.303142
 30
0.0
 40
2.863518
100
AcDbArc
 50
348.9263059999998
 51
11.07369400000015
  0
ARC
  5
8CFF
330
37
100
AcDbEntity
  8
10000_FRONT
  6
Continuous
 62
     7
370
    35
100
AcDbCircle
 10
77.54592800000001
 20
151.303142
 30
0.0
 40
2.769756999999998
100
AcDbArc
 50
194.4655559999996
 51
345.5344440000004
  0
ARC
  5
8D00
330
37
100
AcDbEntity
  8
10000_FRONT
  6
Continuous
 62
     7
370
    35
100
AcDbCircle
 10
77.54592800000001
 20
151.303142
 30
0.0
 40
2.769756999999998
100
AcDbArc
 50
14.46555599999965
 51
165.5344440000003
  0
ARC
  5
8D01
330
37
100
AcDbEntity
  8
10000_FRONT
  6
Continuous
 62
     7
370
    35
100
AcDbCircle
 10
77.54592800000001
 20
151.303142
 30
0.0
 40
2.863518
100
AcDbArc
 50
168.9263059999998
 51
191.0736940000001
  0
LINE
  5
8D02
330
37
100
AcDbEntity
  8
10000_FRONT
  6
Continuous
 62
     7
370
    35
100
AcDbLine
 10
74.86397799999995
 20
150.611262
 30
0.0
 11
74.86025699999995
 21
150.615224
 31
0.0
  0
LINE
  5
8D03
330
37
100
AcDbEntity
  8
10000_FRONT
  6
Continuous
 62
     7
370
    35
100
AcDbLine
 10
74.86025699999995
 20
150.615224
 30
0.0
 11
74.85653899999999
 21
150.619191
 31
0.0
  0
LINE
  5
8D04
330
37
100
AcDbEntity
  8
10000_FRONT
  6
Continuous
 62
     7
370
    35
100
AcDbLine
 10
74.85653899999999
 20
150.619191
 30
0.0
 11
74.852824
 21
150.623163
 31
0.0
  0
LINE
  5
8D05
330
37
100
AcDbEntity
  8
10000_FRONT
  6
Continuous
 62
     7
370
    35
100
AcDbLine
 10
74.852824
 20
150.623163
 30
0.0
 11
74.84911299999997
 21
150.627141
 31
0.0
  0
LINE
  5
8D06
330
37
100
AcDbEntity
  8
10000_FRONT
  6
Continuous
 62
     7
370
    35
100
AcDbLine
 10
74.84911299999997
 20
150.627141
 30
0.0
 11
74.84540500000004
 21
150.631124
 31
0.0
  0
LINE
  5
8D07
330
37
100
AcDbEntity
  8
10000_FRONT
  6
Continuous
 62
     7
370
    35
100
AcDbLine
 10
74.84540500000004
 20
150.631124
 30
0.0
 11
74.8417
 21
150.635112
 31
0.0
  0
LINE
  5
8D08
330
37
100
AcDbEntity
  8
10000_FRONT
  6
Continuous
 62
     7
370
    35
100
AcDbLine
 10
74.8417
 20
150.635112
 30
0.0
 11
74.83799899999997
 21
150.639107
 31
0.0
  0
LINE
  5
8D09
330
37
100
AcDbEntity
  8
10000_FRONT
  6
Continuous
 62
     7
370
    35
100
AcDbLine
 10
74.83799899999997
 20
150.639107
 30
0.0
 11
74.83430099999996
 21
150.643106
 31
0.0
  0
LINE
  5
8D0A
330
37
100
AcDbEntity
  8
10000_FRONT
  6
Continuous
 62
     7
370
    35
100
AcDbLine
 10
74.83430099999996
 20
150.643106
 30
0.0
 11
74.83060599999998
 21
150.647111
 31
0.0
  0
LINE
  5
8D0B
330
37
100
AcDbEntity
  8
10000_FRONT
  6
Continuous
 62
     7
370
    35
100
AcDbLine
 10
74.83060599999998
 20
150.647111
 30
0.0
 11
74.82691499999998
 21
150.651122
 31
0.0
  0
LINE
  5
8D0C
330
37
100
AcDbEntity
  8
10000_FRONT
  6
Continuous
 62
     7
370
    35
100
AcDbLine
 10
74.82691499999998
 20
150.651122
 30
0.0
 11
74.82322699999993
 21
150.655138
 31
0.0
  0
LINE
  5
8D0D
330
37
100
AcDbEntity
  8
10000_FRONT
  6
Continuous
 62
     7
370
    35
100
AcDbLine
 10
74.82322699999993
 20
150.655138
 30
0.0
 11
74.81954200000001
 21
150.659159
 31
0.0
  0
LINE
  5
8D0E
330
37
100
AcDbEntity
  8
10000_FRONT
  6
Continuous
 62
     7
370
    35
100
AcDbLine
 10
74.81954200000001
 20
150.659159
 30
0.0
 11
74.81586100000004
 21
150.663186
 31
0.0
  0
LINE
  5
8D0F
330
37
100
AcDbEntity
  8
10000_FRONT
  6
Continuous
 62
     7
370
    35
100
AcDbLine
 10
74.81586100000004
 20
150.663186
 30
0.0
 11
74.81218299999998
 21
150.6672179999999
 31
0.0
  0
LINE
  5
8D10
330
37
100
AcDbEntity
  8
10000_FRONT
  6
Continuous
 62
     7
370
    35
100
AcDbLine
 10
74.81218299999998
 20
150.6672179999999
 30
0.0
 11
74.80850800000002
 21
150.671256
 31
0.0
  0
LINE
  5
8D11
330
37
100
AcDbEntity
  8
10000_FRONT
  6
Continuous
 62
     7
370
    35
100
AcDbLine
 10
74.80850800000002
 20
150.671256
 30
0.0
 11
74.80483700000002
 21
150.675299
 31
0.0
  0
LINE
  5
8D12
330
37
100
AcDbEntity
  8
10000_FRONT
  6
Continuous
 62
     7
370
    35
100
AcDbLine
 10
74.80483700000002
 20
150.675299
 30
0.0
 11
74.80116900000002
 21
150.679348
 31
0.0
  0
LINE
  5
8D13
330
37
100
AcDbEntity
  8
10000_FRONT
  6
Continuous
 62
     7
370
    35
100
AcDbLine
 10
74.80116900000002
 20
150.679348
 30
0.0
 11
74.797504
 21
150.683402
 31
0.0
  0
LINE
  5
8D14
330
37
100
AcDbEntity
  8
10000_FRONT
  6
Continuous
 62
     7
370
    35
100
AcDbLine
 10
74.797504
 20
150.683402
 30
0.0
 11
74.79384299999995
 21
150.687461
 31
0.0
  0
LINE
  5
8D15
330
37
100
AcDbEntity
  8
10000_FRONT
  6
Continuous
 62
     7
370
    35
100
AcDbLine
 10
74.79384299999995
 20
150.687461
 30
0.0
 11
74.79018500000002
 21
150.691526
 31
0.0
  0
LINE
  5
8D16
330
37
100
AcDbEntity
  8
10000_FRONT
  6
Continuous
 62
     7
370
    35
100
AcDbLine
 10
74.79018500000002
 20
150.691526
 30
0.0
 11
74.78653100000002
 21
150.695596
 31
0.0
  0
LINE
  5
8D17
330
37
100
AcDbEntity
  8
10000_FRONT
  6
Continuous
 62
     7
370
    35
100
AcDbLine
 10
74.78653100000002
 20
150.695596
 30
0.0
 11
74.78287899999997
 21
150.6996719999999
 31
0.0
  0
LINE
  5
8D18
330
37
100
AcDbEntity
  8
10000_FRONT
  6
Continuous
 62
     7
370
    35
100
AcDbLine
 10
74.78287899999997
 20
150.6996719999999
 30
0.0
 11
74.77923199999995
 21
150.703752
 31
0.0
  0
LINE
  5
8D19
330
37
100
AcDbEntity
  8
10000_FRONT
  6
Continuous
 62
     7
370
    35
100
AcDbLine
 10
74.77923199999995
 20
150.703752
 30
0.0
 11
74.77558700000004
 21
150.707839
 31
0.0
  0
LINE
  5
8D1A
330
37
100
AcDbEntity
  8
10000_FRONT
  6
Continuous
 62
     7
370
    35
100
AcDbLine
 10
74.77558700000004
 20
150.707839
 30
0.0
 11
74.77194700000005
 21
150.71193
 31
0.0
  0
LINE
  5
8D1B
330
37
100
AcDbEntity
  8
10000_FRONT
  6
Continuous
 62
     7
370
    35
100
AcDbLine
 10
74.77194700000005
 20
150.71193
 30
0.0
 11
74.76830899999999
 21
150.716028
 31
0.0
  0
LINE
  5
8D1C
330
37
100
AcDbEntity
  8
10000_FRONT
  6
Continuous
 62
     7
370
    35
100
AcDbLine
 10
74.76830899999999
 20
150.716028
 30
0.0
 11
74.76467500000005
 21
150.72013
 31
0.0
  0
LINE
  5
8D1D
330
37
100
AcDbEntity
  8
10000_FRONT
  6
Continuous
 62
     7
370
    35
100
AcDbLine
 10
74.76467500000005
 20
150.72013
 30
0.0
 11
74.76104399999996
 21
150.724238
 31
0.0
  0
LINE
  5
8D1E
330
37
100
AcDbEntity
  8
10000_FRONT
  6
Continuous
 62
     7
370
    35
100
AcDbLine
 10
74.76104399999996
 20
150.724238
 30
0.0
 11
74.75741699999997
 21
150.7283509999999
 31
0.0
  0
LINE
  5
8D1F
330
37
100
AcDbEntity
  8
10000_FRONT
  6
Continuous
 62
     7
370
    35
100
AcDbLine
 10
74.75741699999997
 20
150.7283509999999
 30
0.0
 11
74.75379299999999
 21
150.732469
 31
0.0
  0
LINE
  5
8D20
330
37
100
AcDbEntity
  8
10000_FRONT
  6
Continuous
 62
     7
370
    35
100
AcDbLine
 10
74.75379299999999
 20
150.732469
 30
0.0
 11
74.75017300000001
 21
150.7365929999999
 31
0.0
  0
LINE
  5
8D21
330
37
100
AcDbEntity
  8
10000_FRONT
  6
Continuous
 62
     7
370
    35
100
AcDbLine
 10
74.75017300000001
 20
150.7365929999999
 30
0.0
 11
74.74655600000001
 21
150.740722
 31
0.0
  0
LINE
  5
8D22
330
37
100
AcDbEntity
  8
10000_FRONT
  6
Continuous
 62
     7
370
    35
100
AcDbLine
 10
74.74655600000001
 20
150.740722
 30
0.0
 11
74.74294199999995
 21
150.744857
 31
0.0
  0
LINE
  5
8D23
330
37
100
AcDbEntity
  8
10000_FRONT
  6
Continuous
 62
     7
370
    35
100
AcDbLine
 10
74.74294199999995
 20
150.744857
 30
0.0
 11
74.73933199999994
 21
150.748997
 31
0.0
  0
LINE
  5
8D24
330
37
100
AcDbEntity
  8
10000_FRONT
  6
Continuous
 62
     7
370
    35
100
AcDbLine
 10
74.73933199999994
 20
150.748997
 30
0.0
 11
74.735726
 21
150.753142
 31
0.0
  0
LINE
  5
8D25
330
37
100
AcDbEntity
  8
10000_FRONT
  6
Continuous
 62
     7
370
    35
100
AcDbLine
 10
75.08009900000002
 20
150.579733
 30
0.0
 11
75.07113900000002
 21
150.579762
 31
0.0
  0
LINE
  5
8D26
330
37
100
AcDbEntity
  8
10000_FRONT
  6
Continuous
 62
     7
370
    35
100
AcDbLine
 10
75.07113900000002
 20
150.579762
 30
0.0
 11
75.06191499999999
 21
150.579853
 31
0.0
  0
LINE
  5
8D27
330
37
100
AcDbEntity
  8
10000_FRONT
  6
Continuous
 62
     7
370
    35
100
AcDbLine
 10
75.06191499999999
 20
150.579853
 30
0.0
 11
75.05252300000002
 21
150.580009
 31
0.0
  0
LINE
  5
8D28
330
37
100
AcDbEntity
  8
10000_FRONT
  6
Continuous
 62
     7
370
    35
100
AcDbLine
 10
75.05252300000002
 20
150.580009
 30
0.0
 11
75.04306400000001
 21
150.580231
 31
0.0
  0
LINE
  5
8D29
330
37
100
AcDbEntity
  8
10000_FRONT
  6
Continuous
 62
     7
370
    35
100
AcDbLine
 10
75.04306400000001
 20
150.580231
 30
0.0
 11
75.03364099999995
 21
150.580519
 31
0.0
  0
LINE
  5
8D2A
330
37
100
AcDbEntity
  8
10000_FRONT
  6
Continuous
 62
     7
370
    35
100
AcDbLine
 10
75.03364099999995
 20
150.580519
 30
0.0
 11
75.02435400000002
 21
150.58087
 31
0.0
  0
LINE
  5
8D2B
330
37
100
AcDbEntity
  8
10000_FRONT
  6
Continuous
 62
     7
370
    35
100
AcDbLine
 10
75.02435400000002
 20
150.58087
 30
0.0
 11
75.01530000000002
 21
150.581277
 31
0.0
  0
LINE
  5
8D2C
330
37
100
AcDbEntity
  8
10000_FRONT
  6
Continuous
 62
     7
370
    35
100
AcDbLine
 10
75.01530000000002
 20
150.581277
 30
0.0
 11
75.00656600000002
 21
150.581733
 31
0.0
  0
LINE
  5
8D2D
330
37
100
AcDbEntity
  8
10000_FRONT
  6
Continuous
 62
     7
370
    35
100
AcDbLine
 10
75.00656600000002
 20
150.581733
 30
0.0
 11
74.99822699999999
 21
150.582228
 31
0.0
  0
LINE
  5
8D2E
330
37
100
AcDbEntity
  8
10000_FRONT
  6
Continuous
 62
     7
370
    35
100
AcDbLine
 10
74.99822699999999
 20
150.582228
 30
0.0
 11
74.98995300000001
 21
150.582781
 31
0.0
  0
LINE
  5
8D2F
330
37
100
AcDbEntity
  8
10000_FRONT
  6
Continuous
 62
     7
370
    35
100
AcDbLine
 10
74.98995300000001
 20
150.582781
 30
0.0
 11
74.98158899999999
 21
150.583405
 31
0.0
  0
LINE
  5
8D30
330
37
100
AcDbEntity
  8
10000_FRONT
  6
Continuous
 62
     7
370
    35
100
AcDbLine
 10
74.98158899999999
 20
150.583405
 30
0.0
 11
74.97323299999997
 21
150.584098
 31
0.0
  0
LINE
  5
8D31
330
37
100
AcDbEntity
  8
10000_FRONT
  6
Continuous
 62
     7
370
    35
100
AcDbLine
 10
74.97323299999997
 20
150.584098
 30
0.0
 11
74.96498400000001
 21
150.584855
 31
0.0
  0
LINE
  5
8D32
330
37
100
AcDbEntity
  8
10000_FRONT
  6
Continuous
 62
     7
370
    35
100
AcDbLine
 10
74.96498400000001
 20
150.584855
 30
0.0
 11
74.95693299999995
 21
150.58567
 31
0.0
  0
LINE
  5
8D33
330
37
100
AcDbEntity
  8
10000_FRONT
  6
Continuous
 62
     7
370
    35
100
AcDbLine
 10
74.95693299999995
 20
150.58567
 30
0.0
 11
74.94916399999998
 21
150.586533
 31
0.0
  0
LINE
  5
8D34
330
37
100
AcDbEntity
  8
10000_FRONT
  6
Continuous
 62
     7
370
    35
100
AcDbLine
 10
74.94916399999998
 20
150.586533
 30
0.0
 11
74.94175300000001
 21
150.587435
 31
0.0
  0
LINE
  5
8D35
330
37
100
AcDbEntity
  8
10000_FRONT
  6
Continuous
 62
     7
370
    35
100
AcDbLine
 10
74.94175300000001
 20
150.587435
 30
0.0
 11
74.93476300000001
 21
150.588362
 31
0.0
  0
LINE
  5
8D36
330
37
100
AcDbEntity
  8
10000_FRONT
  6
Continuous
 62
     7
370
    35
100
AcDbLine
 10
74.93476300000001
 20
150.588362
 30
0.0
 11
74.92822999999998
 21
150.589305
 31
0.0
  0
LINE
  5
8D37
330
37
100
AcDbEntity
  8
10000_FRONT
  6
Continuous
 62
     7
370
    35
100
AcDbLine
 10
74.92822999999998
 20
150.589305
 30
0.0
 11
74.92186000000002
 21
150.590303
 31
0.0
  0
LINE
  5
8D38
330
37
100
AcDbEntity
  8
10000_FRONT
  6
Continuous
 62
     7
370
    35
100
AcDbLine
 10
74.92186000000002
 20
150.590303
 30
0.0
 11
74.91558700000002
 21
150.591373
 31
0.0
  0
LINE
  5
8D39
330
37
100
AcDbEntity
  8
10000_FRONT
  6
Continuous
 62
     7
370
    35
100
AcDbLine
 10
74.91558700000002
 20
150.591373
 30
0.0
 11
74.90950299999996
 21
150.592506
 31
0.0
  0
LINE
  5
8D3A
330
37
100
AcDbEntity
  8
10000_FRONT
  6
Continuous
 62
     7
370
    35
100
AcDbLine
 10
74.90950299999996
 20
150.592506
 30
0.0
 11
74.90368899999999
 21
150.593693
 31
0.0
  0
LINE
  5
8D3B
330
37
100
AcDbEntity
  8
10000_FRONT
  6
Continuous
 62
     7
370
    35
100
AcDbLine
 10
74.90368899999999
 20
150.593693
 30
0.0
 11
74.89821599999995
 21
150.59492
 31
0.0
  0
LINE
  5
8D3C
330
37
100
AcDbEntity
  8
10000_FRONT
  6
Continuous
 62
     7
370
    35
100
AcDbLine
 10
74.89821599999995
 20
150.59492
 30
0.0
 11
74.89314400000004
 21
150.596175
 31
0.0
  0
LINE
  5
8D3D
330
37
100
AcDbEntity
  8
10000_FRONT
  6
Continuous
 62
     7
370
    35
100
AcDbLine
 10
74.89314400000004
 20
150.596175
 30
0.0
 11
74.88851499999999
 21
150.597442
 31
0.0
  0
LINE
  5
8D3E
330
37
100
AcDbEntity
  8
10000_FRONT
  6
Continuous
 62
     7
370
    35
100
AcDbLine
 10
74.88851499999999
 20
150.597442
 30
0.0
 11
74.88435900000002
 21
150.598706
 31
0.0
  0
LINE
  5
8D3F
330
37
100
AcDbEntity
  8
10000_FRONT
  6
Continuous
 62
     7
370
    35
100
AcDbLine
 10
74.88435900000002
 20
150.598706
 30
0.0
 11
74.88065399999998
 21
150.599964
 31
0.0
  0
LINE
  5
8D40
330
37
100
AcDbEntity
  8
10000_FRONT
  6
Continuous
 62
     7
370
    35
100
AcDbLine
 10
74.88065399999998
 20
150.599964
 30
0.0
 11
74.87721399999998
 21
150.601279
 31
0.0
  0
LINE
  5
8D41
330
37
100
AcDbEntity
  8
10000_FRONT
  6
Continuous
 62
     7
370
    35
100
AcDbLine
 10
74.87721399999998
 20
150.601279
 30
0.0
 11
74.87407100000002
 21
150.602653
 31
0.0
  0
LINE
  5
8D42
330
37
100
AcDbEntity
  8
10000_FRONT
  6
Continuous
 62
     7
370
    35
100
AcDbLine
 10
74.87407100000002
 20
150.602653
 30
0.0
 11
74.87129099999998
 21
150.6040719999999
 31
0.0
  0
LINE
  5
8D43
330
37
100
AcDbEntity
  8
10000_FRONT
  6
Continuous
 62
     7
370
    35
100
AcDbLine
 10
74.87129099999998
 20
150.6040719999999
 30
0.0
 11
74.86892299999998
 21
150.60552
 31
0.0
  0
LINE
  5
8D44
330
37
100
AcDbEntity
  8
10000_FRONT
  6
Continuous
 62
     7
370
    35
100
AcDbLine
 10
74.86892299999998
 20
150.60552
 30
0.0
 11
74.86700100000001
 21
150.606981
 31
0.0
  0
LINE
  5
8D45
330
37
100
AcDbEntity
  8
10000_FRONT
  6
Continuous
 62
     7
370
    35
100
AcDbLine
 10
74.86700100000001
 20
150.606981
 30
0.0
 11
74.86554100000002
 21
150.608436
 31
0.0
  0
LINE
  5
8D46
330
37
100
AcDbEntity
  8
10000_FRONT
  6
Continuous
 62
     7
370
    35
100
AcDbLine
 10
74.86554100000002
 20
150.608436
 30
0.0
 11
74.86454000000003
 21
150.609869
 31
0.0
  0
LINE
  5
8D47
330
37
100
AcDbEntity
  8
10000_FRONT
  6
Continuous
 62
     7
370
    35
100
AcDbLine
 10
74.86454000000003
 20
150.609869
 30
0.0
 11
74.86397799999995
 21
150.611262
 31
0.0
  0
LINE
  5
8D48
330
37
100
AcDbEntity
  8
10000_FRONT
  6
Continuous
 62
     7
370
    35
100
AcDbLine
 10
74.86397799999995
 20
151.995022
 30
0.0
 11
74.86454000000003
 21
151.996415
 31
0.0
  0
LINE
  5
8D49
330
37
100
AcDbEntity
  8
10000_FRONT
  6
Continuous
 62
     7
370
    35
100
AcDbLine
 10
74.86454000000003
 20
151.996415
 30
0.0
 11
74.86554100000002
 21
151.997848
 31
0.0
  0
LINE
  5
8D4A
330
37
100
AcDbEntity
  8
10000_FRONT
  6
Continuous
 62
     7
370
    35
100
AcDbLine
 10
74.86554100000002
 20
151.997848
 30
0.0
 11
74.86700100000001
 21
151.999303
 31
0.0
  0
LINE
  5
8D4B
330
37
100
AcDbEntity
  8
10000_FRONT
  6
Continuous
 62
     7
370
    35
100
AcDbLine
 10
74.86700100000001
 20
151.999303
 30
0.0
 11
74.86892299999998
 21
152.000764
 31
0.0
  0
LINE
  5
8D4C
330
37
100
AcDbEntity
  8
10000_FRONT
  6
Continuous
 62
     7
370
    35
100
AcDbLine
 10
74.86892299999998
 20
152.000764
 30
0.0
 11
74.87129099999998
 21
152.002212
 31
0.0
  0
LINE
  5
8D4D
330
37
100
AcDbEntity
  8
10000_FRONT
  6
Continuous
 62
     7
370
    35
100
AcDbLine
 10
74.87129099999998
 20
152.002212
 30
0.0
 11
74.87407100000002
 21
152.003631
 31
0.0
  0
LINE
  5
8D4E
330
37
100
AcDbEntity
  8
10000_FRONT
  6
Continuous
 62
     7
370
    35
100
AcDbLine
 10
74.87407100000002
 20
152.003631
 30
0.0
 11
74.87721399999998
 21
152.005005
 31
0.0
  0
LINE
  5
8D4F
330
37
100
AcDbEntity
  8
10000_FRONT
  6
Continuous
 62
     7
370
    35
100
AcDbLine
 10
74.87721399999998
 20
152.005005
 30
0.0
 11
74.88065399999998
 21
152.00632
 31
0.0
  0
LINE
  5
8D50
330
37
100
AcDbEntity
  8
10000_FRONT
  6
Continuous
 62
     7
370
    35
100
AcDbLine
 10
74.88065399999998
 20
152.00632
 30
0.0
 11
74.88435900000002
 21
152.007578
 31
0.0
  0
LINE
  5
8D51
330
37
100
AcDbEntity
  8
10000_FRONT
  6
Continuous
 62
     7
370
    35
100
AcDbLine
 10
74.88435900000002
 20
152.007578
 30
0.0
 11
74.88851499999999
 21
152.008842
 31
0.0
  0
LINE
  5
8D52
330
37
100
AcDbEntity
  8
10000_FRONT
  6
Continuous
 62
     7
370
    35
100
AcDbLine
 10
74.88851499999999
 20
152.008842
 30
0.0
 11
74.89314400000004
 21
152.010109
 31
0.0
  0
LINE
  5
8D53
330
37
100
AcDbEntity
  8
10000_FRONT
  6
Continuous
 62
     7
370
    35
100
AcDbLine
 10
74.89314400000004
 20
152.010109
 30
0.0
 11
74.89821599999995
 21
152.011364
 31
0.0
  0
LINE
  5
8D54
330
37
100
AcDbEntity
  8
10000_FRONT
  6
Continuous
 62
     7
370
    35
100
AcDbLine
 10
74.89821599999995
 20
152.011364
 30
0.0
 11
74.90368899999999
 21
152.012591
 31
0.0
  0
LINE
  5
8D55
330
37
100
AcDbEntity
  8
10000_FRONT
  6
Continuous
 62
     7
370
    35
100
AcDbLine
 10
74.90368899999999
 20
152.012591
 30
0.0
 11
74.90950299999996
 21
152.013778
 31
0.0
  0
LINE
  5
8D56
330
37
100
AcDbEntity
  8
10000_FRONT
  6
Continuous
 62
     7
370
    35
100
AcDbLine
 10
74.90950299999996
 20
152.013778
 30
0.0
 11
74.91558700000002
 21
152.014911
 31
0.0
  0
LINE
  5
8D57
330
37
100
AcDbEntity
  8
10000_FRONT
  6
Continuous
 62
     7
370
    35
100
AcDbLine
 10
74.91558700000002
 20
152.014911
 30
0.0
 11
74.92186000000002
 21
152.015981
 31
0.0
  0
LINE
  5
8D58
330
37
100
AcDbEntity
  8
10000_FRONT
  6
Continuous
 62
     7
370
    35
100
AcDbLine
 10
74.92186000000002
 20
152.015981
 30
0.0
 11
74.92822999999998
 21
152.016979
 31
0.0
  0
LINE
  5
8D59
330
37
100
AcDbEntity
  8
10000_FRONT
  6
Continuous
 62
     7
370
    35
100
AcDbLine
 10
74.92822999999998
 20
152.016979
 30
0.0
 11
74.93476300000001
 21
152.017922
 31
0.0
  0
LINE
  5
8D5A
330
37
100
AcDbEntity
  8
10000_FRONT
  6
Continuous
 62
     7
370
    35
100
AcDbLine
 10
74.93476300000001
 20
152.017922
 30
0.0
 11
74.94175300000001
 21
152.018849
 31
0.0
  0
LINE
  5
8D5B
330
37
100
AcDbEntity
  8
10000_FRONT
  6
Continuous
 62
     7
370
    35
100
AcDbLine
 10
74.94175300000001
 20
152.018849
 30
0.0
 11
74.94916399999998
 21
152.019751
 31
0.0
  0
LINE
  5
8D5C
330
37
100
AcDbEntity
  8
10000_FRONT
  6
Continuous
 62
     7
370
    35
100
AcDbLine
 10
74.94916399999998
 20
152.019751
 30
0.0
 11
74.95693299999995
 21
152.020614
 31
0.0
  0
LINE
  5
8D5D
330
37
100
AcDbEntity
  8
10000_FRONT
  6
Continuous
 62
     7
370
    35
100
AcDbLine
 10
74.95693299999995
 20
152.020614
 30
0.0
 11
74.96498400000001
 21
152.021429
 31
0.0
  0
LINE
  5
8D5E
330
37
100
AcDbEntity
  8
10000_FRONT
  6
Continuous
 62
     7
370
    35
100
AcDbLine
 10
74.96498400000001
 20
152.021429
 30
0.0
 11
74.97323299999997
 21
152.022186
 31
0.0
  0
LINE
  5
8D5F
330
37
100
AcDbEntity
  8
10000_FRONT
  6
Continuous
 62
     7
370
    35
100
AcDbLine
 10
74.97323299999997
 20
152.022186
 30
0.0
 11
74.98158899999999
 21
152.022879
 31
0.0
  0
LINE
  5
8D60
330
37
100
AcDbEntity
  8
10000_FRONT
  6
Continuous
 62
     7
370
    35
100
AcDbLine
 10
74.98158899999999
 20
152.022879
 30
0.0
 11
74.98995300000001
 21
152.023503
 31
0.0
  0
LINE
  5
8D61
330
37
100
AcDbEntity
  8
10000_FRONT
  6
Continuous
 62
     7
370
    35
100
AcDbLine
 10
74.98995300000001
 20
152.023503
 30
0.0
 11
74.99822699999999
 21
152.024056
 31
0.0
  0
LINE
  5
8D62
330
37
100
AcDbEntity
  8
10000_FRONT
  6
Continuous
 62
     7
370
    35
100
AcDbLine
 10
74.99822699999999
 20
152.024056
 30
0.0
 11
75.00656600000002
 21
152.024551
 31
0.0
  0
LINE
  5
8D63
330
37
100
AcDbEntity
  8
10000_FRONT
  6
Continuous
 62
     7
370
    35
100
AcDbLine
 10
75.00656600000002
 20
152.024551
 30
0.0
 11
75.01530000000002
 21
152.025007
 31
0.0
  0
LINE
  5
8D64
330
37
100
AcDbEntity
  8
10000_FRONT
  6
Continuous
 62
     7
370
    35
100
AcDbLine
 10
75.01530000000002
 20
152.025007
 30
0.0
 11
75.02435400000002
 21
152.025414
 31
0.0
  0
LINE
  5
8D65
330
37
100
AcDbEntity
  8
10000_FRONT
  6
Continuous
 62
     7
370
    35
100
AcDbLine
 10
75.02435400000002
 20
152.025414
 30
0.0
 11
75.03364099999995
 21
152.025765
 31
0.0
  0
LINE
  5
8D66
330
37
100
AcDbEntity
  8
10000_FRONT
  6
Continuous
 62
     7
370
    35
100
AcDbLine
 10
75.03364099999995
 20
152.025765
 30
0.0
 11
75.04306400000001
 21
152.026053
 31
0.0
  0
LINE
  5
8D67
330
37
100
AcDbEntity
  8
10000_FRONT
  6
Continuous
 62
     7
370
    35
100
AcDbLine
 10
75.04306400000001
 20
152.026053
 30
0.0
 11
75.05252300000002
 21
152.026275
 31
0.0
  0
LINE
  5
8D68
330
37
100
AcDbEntity
  8
10000_FRONT
  6
Continuous
 62
     7
370
    35
100
AcDbLine
 10
75.05252300000002
 20
152.026275
 30
0.0
 11
75.06191499999999
 21
152.026431
 31
0.0
  0
LINE
  5
8D69
330
37
100
AcDbEntity
  8
10000_FRONT
  6
Continuous
 62
     7
370
    35
100
AcDbLine
 10
75.06191499999999
 20
152.026431
 30
0.0
 11
75.07113900000002
 21
152.026522
 31
0.0
  0
LINE
  5
8D6A
330
37
100
AcDbEntity
  8
10000_FRONT
  6
Continuous
 62
     7
370
    35
100
AcDbLine
 10
75.07113900000002
 20
152.026522
 30
0.0
 11
75.08009900000002
 21
152.026551
 31
0.0
  0
LINE
  5
8D6B
330
37
100
AcDbEntity
  8
10000_FRONT
  6
Continuous
 62
     7
370
    35
100
AcDbLine
 10
74.735726
 20
151.853142
 30
0.0
 11
74.73933199999994
 21
151.857287
 31
0.0
  0
LINE
  5
8D6C
330
37
100
AcDbEntity
  8
10000_FRONT
  6
Continuous
 62
     7
370
    35
100
AcDbLine
 10
74.73933199999994
 20
151.857287
 30
0.0
 11
74.74294199999995
 21
151.861427
 31
0.0
  0
LINE
  5
8D6D
330
37
100
AcDbEntity
  8
10000_FRONT
  6
Continuous
 62
     7
370
    35
100
AcDbLine
 10
74.74294199999995
 20
151.861427
 30
0.0
 11
74.74655600000001
 21
151.865562
 31
0.0
  0
LINE
  5
8D6E
330
37
100
AcDbEntity
  8
10000_FRONT
  6
Continuous
 62
     7
370
    35
100
AcDbLine
 10
74.74655600000001
 20
151.865562
 30
0.0
 11
74.75017300000001
 21
151.869691
 31
0.0
  0
LINE
  5
8D6F
330
37
100
AcDbEntity
  8
10000_FRONT
  6
Continuous
 62
     7
370
    35
100
AcDbLine
 10
74.75017300000001
 20
151.869691
 30
0.0
 11
74.75379299999999
 21
151.873815
 31
0.0
  0
LINE
  5
8D70
330
37
100
AcDbEntity
  8
10000_FRONT
  6
Continuous
 62
     7
370
    35
100
AcDbLine
 10
74.75379299999999
 20
151.873815
 30
0.0
 11
74.75741699999997
 21
151.877933
 31
0.0
  0
LINE
  5
8D71
330
37
100
AcDbEntity
  8
10000_FRONT
  6
Continuous
 62
     7
370
    35
100
AcDbLine
 10
74.75741699999997
 20
151.877933
 30
0.0
 11
74.76104399999996
 21
151.882046
 31
0.0
  0
LINE
  5
8D72
330
37
100
AcDbEntity
  8
10000_FRONT
  6
Continuous
 62
     7
370
    35
100
AcDbLine
 10
74.76104399999996
 20
151.882046
 30
0.0
 11
74.76467500000005
 21
151.886154
 31
0.0
  0
LINE
  5
8D73
330
37
100
AcDbEntity
  8
10000_FRONT
  6
Continuous
 62
     7
370
    35
100
AcDbLine
 10
74.76467500000005
 20
151.886154
 30
0.0
 11
74.76830899999999
 21
151.890256
 31
0.0
  0
LINE
  5
8D74
330
37
100
AcDbEntity
  8
10000_FRONT
  6
Continuous
 62
     7
370
    35
100
AcDbLine
 10
74.76830899999999
 20
151.890256
 30
0.0
 11
74.77194700000005
 21
151.894354
 31
0.0
  0
LINE
  5
8D75
330
37
100
AcDbEntity
  8
10000_FRONT
  6
Continuous
 62
     7
370
    35
100
AcDbLine
 10
74.77194700000005
 20
151.894354
 30
0.0
 11
74.77558700000004
 21
151.898445
 31
0.0
  0
LINE
  5
8D76
330
37
100
AcDbEntity
  8
10000_FRONT
  6
Continuous
 62
     7
370
    35
100
AcDbLine
 10
74.77558700000004
 20
151.898445
 30
0.0
 11
74.77923199999995
 21
151.902532
 31
0.0
  0
LINE
  5
8D77
330
37
100
AcDbEntity
  8
10000_FRONT
  6
Continuous
 62
     7
370
    35
100
AcDbLine
 10
74.77923199999995
 20
151.902532
 30
0.0
 11
74.78287899999997
 21
151.906612
 31
0.0
  0
LINE
  5
8D78
330
37
100
AcDbEntity
  8
10000_FRONT
  6
Continuous
 62
     7
370
    35
100
AcDbLine
 10
74.78287899999997
 20
151.906612
 30
0.0
 11
74.78653100000002
 21
151.910688
 31
0.0
  0
LINE
  5
8D79
330
37
100
AcDbEntity
  8
10000_FRONT
  6
Continuous
 62
     7
370
    35
100
AcDbLine
 10
74.78653100000002
 20
151.910688
 30
0.0
 11
74.79018500000002
 21
151.914758
 31
0.0
  0
LINE
  5
8D7A
330
37
100
AcDbEntity
  8
10000_FRONT
  6
Continuous
 62
     7
370
    35
100
AcDbLine
 10
74.79018500000002
 20
151.914758
 30
0.0
 11
74.79384299999995
 21
151.918823
 31
0.0
  0
LINE
  5
8D7B
330
37
100
AcDbEntity
  8
10000_FRONT
  6
Continuous
 62
     7
370
    35
100
AcDbLine
 10
74.79384299999995
 20
151.918823
 30
0.0
 11
74.797504
 21
151.922882
 31
0.0
  0
LINE
  5
8D7C
330
37
100
AcDbEntity
  8
10000_FRONT
  6
Continuous
 62
     7
370
    35
100
AcDbLine
 10
74.797504
 20
151.922882
 30
0.0
 11
74.80116900000002
 21
151.926936
 31
0.0
  0
LINE
  5
8D7D
330
37
100
AcDbEntity
  8
10000_FRONT
  6
Continuous
 62
     7
370
    35
100
AcDbLine
 10
74.80116900000002
 20
151.926936
 30
0.0
 11
74.80483700000002
 21
151.9309850000001
 31
0.0
  0
LINE
  5
8D7E
330
37
100
AcDbEntity
  8
10000_FRONT
  6
Continuous
 62
     7
370
    35
100
AcDbLine
 10
74.80483700000002
 20
151.9309850000001
 30
0.0
 11
74.80850800000002
 21
151.935028
 31
0.0
  0
LINE
  5
8D7F
330
37
100
AcDbEntity
  8
10000_FRONT
  6
Continuous
 62
     7
370
    35
100
AcDbLine
 10
74.80850800000002
 20
151.935028
 30
0.0
 11
74.81218299999998
 21
151.939066
 31
0.0
  0
LINE
  5
8D80
330
37
100
AcDbEntity
  8
10000_FRONT
  6
Continuous
 62
     7
370
    35
100
AcDbLine
 10
74.81218299999998
 20
151.939066
 30
0.0
 11
74.81586100000004
 21
151.943098
 31
0.0
  0
LINE
  5
8D81
330
37
100
AcDbEntity
  8
10000_FRONT
  6
Continuous
 62
     7
370
    35
100
AcDbLine
 10
74.81586100000004
 20
151.943098
 30
0.0
 11
74.81954200000001
 21
151.947125
 31
0.0
  0
LINE
  5
8D82
330
37
100
AcDbEntity
  8
10000_FRONT
  6
Continuous
 62
     7
370
    35
100
AcDbLine
 10
74.81954200000001
 20
151.947125
 30
0.0
 11
74.82322699999993
 21
151.951146
 31
0.0
  0
LINE
  5
8D83
330
37
100
AcDbEntity
  8
10000_FRONT
  6
Continuous
 62
     7
370
    35
100
AcDbLine
 10
74.82322699999993
 20
151.951146
 30
0.0
 11
74.82691499999998
 21
151.955162
 31
0.0
  0
LINE
  5
8D84
330
37
100
AcDbEntity
  8
10000_FRONT
  6
Continuous
 62
     7
370
    35
100
AcDbLine
 10
74.82691499999998
 20
151.955162
 30
0.0
 11
74.83060599999998
 21
151.959173
 31
0.0
  0
LINE
  5
8D85
330
37
100
AcDbEntity
  8
10000_FRONT
  6
Continuous
 62
     7
370
    35
100
AcDbLine
 10
74.83060599999998
 20
151.959173
 30
0.0
 11
74.83430099999996
 21
151.9631779999999
 31
0.0
  0
LINE
  5
8D86
330
37
100
AcDbEntity
  8
10000_FRONT
  6
Continuous
 62
     7
370
    35
100
AcDbLine
 10
74.83430099999996
 20
151.9631779999999
 30
0.0
 11
74.83799899999997
 21
151.967177
 31
0.0
  0
LINE
  5
8D87
330
37
100
AcDbEntity
  8
10000_FRONT
  6
Continuous
 62
     7
370
    35
100
AcDbLine
 10
74.83799899999997
 20
151.967177
 30
0.0
 11
74.8417
 21
151.971172
 31
0.0
  0
LINE
  5
8D88
330
37
100
AcDbEntity
  8
10000_FRONT
  6
Continuous
 62
     7
370
    35
100
AcDbLine
 10
74.8417
 20
151.971172
 30
0.0
 11
74.84540500000004
 21
151.9751600000001
 31
0.0
  0
LINE
  5
8D89
330
37
100
AcDbEntity
  8
10000_FRONT
  6
Continuous
 62
     7
370
    35
100
AcDbLine
 10
74.84540500000004
 20
151.9751600000001
 30
0.0
 11
74.84911299999997
 21
151.979143
 31
0.0
  0
LINE
  5
8D8A
330
37
100
AcDbEntity
  8
10000_FRONT
  6
Continuous
 62
     7
370
    35
100
AcDbLine
 10
74.84911299999997
 20
151.979143
 30
0.0
 11
74.852824
 21
151.9831209999999
 31
0.0
  0
LINE
  5
8D8B
330
37
100
AcDbEntity
  8
10000_FRONT
  6
Continuous
 62
     7
370
    35
100
AcDbLine
 10
74.852824
 20
151.9831209999999
 30
0.0
 11
74.85653899999999
 21
151.987093
 31
0.0
  0
LINE
  5
8D8C
330
37
100
AcDbEntity
  8
10000_FRONT
  6
Continuous
 62
     7
370
    35
100
AcDbLine
 10
74.85653899999999
 20
151.987093
 30
0.0
 11
74.86025699999995
 21
151.99106
 31
0.0
  0
LINE
  5
8D8D
330
37
100
AcDbEntity
  8
10000_FRONT
  6
Continuous
 62
     7
370
    35
100
AcDbLine
 10
74.86025699999995
 20
151.99106
 30
0.0
 11
74.86397799999995
 21
151.995022
 31
0.0
  0
LINE
  5
8D8E
330
37
100
AcDbEntity
  8
10200_FRONT_SYM
  6
CENTER
 62
     7
 48
0.125
370
    18
100
AcDbLine
 10
74.21312349999998
 20
151.3099078058795
 30
0.0
 11
80.83203063781937
 21
151.3099078058795
 31
0.0
  0
LINE
  5
8D8F
330
37
100
AcDbEntity
  8
10200_FRONT_SYM
  6
CENTER
 62
     7
 48
0.125
370
    18
100
AcDbLine
 10
77.54592800000001
 20
147.8122624999999
 30
0.0
 11
77.54592800000001
 21
154.7940215
 31
0.0
  0
ENDSEC
  0
SECTION
  2
OBJECTS
  0
DICTIONARY
  5
C
330
0
100
AcDbDictionary
281
     1
  3
ACAD_2007HEADERVARS_RT
350
8DBC
  3
ACAD_COLOR
350
30
  3
ACAD_GROUP
350
D
  3
ACAD_LAYOUT
350
2F
  3
ACAD_MATERIAL
350
10
  3
ACAD_MLINESTYLE
350
2C
  3
ACAD_PLOTSETTINGS
350
2E
  3
ACAD_PLOTSTYLENAME
350
E
  3
ACAD_TABLESTYLE
350
31
  3
ACAD_VISUALSTYLE
350
14
  3
AcDbVariableDictionary
350
319A
  3
ASE_INDEX_DICTIONARY
350
8DB9
  3
DWGPROPS
350
8DBB
  0
DICTIONARY
  5
211
330
37
100
AcDbDictionary
280
     1
281
     1
  3
ACAD_SORTENTS
360
212
  0
DICTIONARY
  5
8DBC
102
{ACAD_REACTORS
330
C
102
}
330
C
100
AcDbDictionary
281
     1
  3
DIMJOGANG
350
8DBD
  0
DICTIONARY
  5
30
102
{ACAD_REACTORS
330
C
102
}
330
C
100
AcDbDictionary
281
     1
  0
DICTIONARY
  5
D
102
{ACAD_REACTORS
330
C
102
}
330
C
100
AcDbDictionary
281
     1
  0
DICTIONARY
  5
2F
102
{ACAD_REACTORS
330
C
102
}
330
C
100
AcDbDictionary
281
     1
  3
Layout1
350
36
  3
Layout2
350
3E
  3
Model
350
3A
  0
DICTIONARY
  5
10
102
{ACAD_REACTORS
330
C
102
}
330
C
100
AcDbDictionary
281
     1
  3
ByBlock
350
12
  3
ByLayer
350
11
  3
Global
350
13
  0
DICTIONARY
  5
2C
102
{ACAD_REACTORS
330
C
102
}
330
C
100
AcDbDictionary
281
     1
  3
Standard
350
2D
  0
DICTIONARY
  5
2E
102
{ACAD_REACTORS
330
C
102
}
330
C
100
AcDbDictionary
281
     1
  0
ACDBDICTIONARYWDFLT
  5
E
102
{ACAD_REACTORS
330
C
102
}
330
C
100
AcDbDictionary
281
     1
  3
Normal
350
F
100
AcDbDictionaryWithDefault
340
F
  0
DICTIONARY
  5
31
102
{ACAD_REACTORS
330
C
102
}
330
C
100
AcDbDictionary
281
     1
  3
Standard
350
32
  0
DICTIONARY
  5
14
102
{ACAD_REACTORS
330
C
102
}
330
C
100
AcDbDictionary
281
     1
  3
2dWireframe
350
1A
  3
3D Hidden
350
1C
  3
3dWireframe
350
1B
  3
Basic
350
19
  3
Brighten
350
20
  3
ColorChange
350
24
  3
Conceptual
350
1D
  3
Dim
350
1F
  3
Facepattern
350
23
  3
Flat
350
15
  3
FlatWithEdges
350
16
  3
Gouraud
350
17
  3
GouraudWithEdges
350
18
  3
Linepattern
350
22
  3
Realistic
350
1E
  3
Thicken
350
21
  0
DICTIONARY
  5
319A
102
{ACAD_REACTORS
330
C
102
}
330
C
100
AcDbDictionary
281
     1
  3
CTABLESTYLE
350
319B
  3
DIMASSOC
350
319F
  3
HIDETEXT
350
319E
  3
INDEXCTL
350
319D
  3
SORTENTS
350
319C
  0
DICTIONARY
  5
8DB9
102
{ACAD_REACTORS
330
C
102
}
330
C
100
AcDbDictionary
281
     1
  3
ASEBlockHierarchyIndexRecord
350
8DBA
1001
DCO15
1040
1599910061.671
  0
XRECORD
  5
8DBB
102
{ACAD_REACTORS
330
C
102
}
330
C
100
AcDbXrecord
280
     1
  1
DWGPROPS COOKIE
  2

  3

  4

  6

  7

  8
adfize1
  9

300
=
301
=
302
=
303
=
304
=
305
=
306
=
307
=
308
=
309
=
 40
0.1433178703703704
 41
2454295.653872604
 42
2454320.689417489
  1

 90
        0
  0
SORTENTSTABLE
  5
212
102
{ACAD_REACTORS
330
211
102
}
330
211
100
AcDbSortentsTable
330
37
331
6683
  5
6683
331
7048
  5
7048
331
667A
  5
667A
331
7041
  5
7041
331
1C9
  5
1C9
331
6680
  5
6680
331
667E
  5
667E
331
7045
  5
7045
331
7042
  5
7042
331
1CD
  5
1CD
331
6684
  5
6684
331
7049
  5
7049
331
667B
  5
667B
331
6681
  5
6681
331
667F
  5
667F
331
7046
  5
7046
331
703F
  5
703F
331
704A
  5
704A
331
667C
  5
667C
331
7043
  5
7043
331
7040
  5
7040
331
6682
  5
6682
331
7047
  5
7047
331
6679
  5
6679
331
7044
  5
7044
331
1C1
  5
1C1
331
667D
  5
667D
331
1EC
  5
1EC
  0
XRECORD
  5
8DBD
102
{ACAD_REACTORS
330
8DBC
102
}
330
8DBC
100
AcDbXrecord
280
     1
 40
1.570796326794896
  0
LAYOUT
  5
36
102
{ACAD_XDICTIONARY
360
8DC0
102
}
102
{ACAD_REACTORS
330
2F
102
}
330
2F
100
AcDbPlotSettings
  1

  2
Microsoft Office Document Image Writer
  4

  6

 40
0.0
 41
0.0
 42
0.0
 43
0.0
 44
0.0
 45
0.0
 46
0.0
 47
0.0
 48
0.0
 49
0.0
140
0.0
141
0.0
142
1.0
143
1.0
 70
   688
 72
     0
 73
     0
 74
     5
  7

 75
    16
147
1.0
148
0.0
149
0.0
100
AcDbLayout
  1
Layout1
 70
     1
 71
     1
 10
0.0
 20
0.0
 11
420.0
 21
297.0
 12
0.0
 22
0.0
 32
0.0
 14
1.000000000000000E+20
 24
1.000000000000000E+20
 34
1.000000000000000E+20
 15
-1.000000000000000E+20
 25
-1.000000000000000E+20
 35
-1.000000000000000E+20
146
0.0
 13
0.0
 23
0.0
 33
0.0
 16
1.0
 26
0.0
 36
0.0
 17
0.0
 27
1.0
 37
0.0
 76
     0
330
33
  0
LAYOUT
  5
3E
102
{ACAD_XDICTIONARY
360
8DC4
102
}
102
{ACAD_REACTORS
330
2F
102
}
330
2F
100
AcDbPlotSettings
  1

  2
Microsoft Office Document Image Writer
  4

  6

 40
0.0
 41
0.0
 42
0.0
 43
0.0
 44
0.0
 45
0.0
 46
0.0
 47
0.0
 48
0.0
 49
0.0
140
0.0
141
0.0
142
1.0
143
1.0
 70
   688
 72
     0
 73
     0
 74
     5
  7

 75
    16
147
1.0
148
0.0
149
0.0
100
AcDbLayout
  1
Layout2
 70
     1
 71
     2
 10
0.0
 20
0.0
 11
12.0
 21
9.0
 12
0.0
 22
0.0
 32
0.0
 14
0.0
 24
0.0
 34
0.0
 15
0.0
 25
0.0
 35
0.0
146
0.0
 13
0.0
 23
0.0
 33
0.0
 16
1.0
 26
0.0
 36
0.0
 17
0.0
 27
1.0
 37
0.0
 76
     0
330
3B
  0
LAYOUT
  5
3A
102
{ACAD_XDICTIONARY
360
8DC2
102
}
102
{ACAD_REACTORS
330
2F
102
}
330
2F
100
AcDbPlotSettings
  1

  2
Microsoft Office Document Image Writer
  4
A4
  6

 40
3.174999952316283
 41
3.174999952316283
 42
3.175003051757812
 43
3.17498779296875
 44
209.9733276367186
 45
297.0106506347656
 46
0.0
 47
0.0
 48
0.0
 49
0.0
140
0.0
141
0.0
142
1.0
143
1.914839956979126
 70
 11952
 72
     1
 73
     1
 74
     0
  7

 75
     0
147
0.5222368565870179
148
166.3173928074282
149
22.54265374867799
100
AcDbLayout
  1
Model
 70
     1
 71
     0
 10
0.0
 20
0.0
 11
12.0
 21
9.0
 12
0.0
 22
0.0
 32
0.0
 14
0.0
 24
0.0
 34
0.0
 15
0.0
 25
0.0
 35
0.0
146
0.0
 13
0.0
 23
0.0
 33
0.0
 16
1.0
 26
0.0
 36
0.0
 17
0.0
 27
1.0
 37
0.0
 76
     0
330
37
331
28
1001
ACAD_PSEXT
1000
Microsoft Office Document Image Writer
1000
Microsoft Office Document Image Writer Driver
1000
Microsoft Document Imaging Writer Port:
1000

1070
     0
  0
MATERIAL
  5
12
102
{ACAD_XDICTIONARY
360
31A5
102
}
102
{ACAD_REACTORS
330
10
102
}
330
10
100
AcDbMaterial
  1
ByBlock
  0
MATERIAL
  5
11
102
{ACAD_XDICTIONARY
360
31A3
102
}
102
{ACAD_REACTORS
330
10
102
}
330
10
100
AcDbMaterial
  1
ByLayer
  0
MATERIAL
  5
13
102
{ACAD_XDICTIONARY
360
31A7
102
}
102
{ACAD_REACTORS
330
10
102
}
330
10
100
AcDbMaterial
  1
Global
  0
MLINESTYLE
  5
2D
102
{ACAD_REACTORS
330
2C
102
}
330
2C
100
AcDbMlineStyle
  2
STANDARD
 70
     0
  3

 62
   256
 51
90.0
 52
90.0
 71
     2
 49
0.5
 62
   256
  6
BYLAYER
 49
-0.5
 62
   256
  6
BYLAYER
  0
ACDBPLACEHOLDER
  5
F
102
{ACAD_REACTORS
330
E
102
}
330
E
  0
TABLESTYLE
  5
32
102
{ACAD_XDICTIONARY
360
8DBE
102
}
102
{ACAD_REACTORS
330
31
102
}
330
31
100
AcDbTableStyle
  3
Standard
 70
     0
 71
     0
 40
1.5
 41
1.5
280
     0
281
     0
  7
Standard
140
4.5
170
     2
 62
     0
 63
     7
283
     0
274
    -2
284
     1
 64
     0
275
    -2
285
     1
 65
     0
276
    -2
286
     1
 66
     0
277
    -2
287
     1
 67
     0
278
    -2
288
     1
 68
     0
279
    -2
289
     1
 69
     0
  7
Standard
140
6.0
170
     5
 62
     0
 63
     7
283
     0
274
    -2
284
     1
 64
     0
275
    -2
285
     1
 65
     0
276
    -2
286
     1
 66
     0
277
    -2
287
     1
 67
     0
278
    -2
288
     1
 68
     0
279
    -2
289
     1
 69
     0
  7
Standard
140
4.5
170
     5
 62
     0
 63
     7
283
     0
274
    -2
284
     1
 64
     0
275
    -2
285
     1
 65
     0
276
    -2
286
     1
 66
     0
277
    -2
287
     1
 67
     0
278
    -2
288
     1
 68
     0
279
    -2
289
     1
 69
     0
  0
VISUALSTYLE
  5
1A
102
{ACAD_REACTORS
330
14
102
}
330
14
100
AcDbVisualStyle
  2
2dWireframe
 70
     4
 71
     0
 72
     2
 73
     0
 90
        0
 40
-0.6
 41
-30.0
 62
     5
 63
     7
 74
     1
 91
        4
 64
     7
 65
   257
 75
     1
175
     1
 42
1.0
 92
        0
 66
   257
 43
1.0
 76
     1
 77
     6
 78
     2
 67
     7
 79
     5
170
     0
171
     0
290
     0
174
     0
 93
        1
 44
0.0
173
     0
291
     0
 45
0.0
1001
ACAD
1000
AcDbSavedByObjectVersion
1070
     0
1000
AcDbSavedByObjectVersion
1070
     0
1000
AcDbSavedByObjectVersion
1070
     0
1000
AcDbSavedByObjectVersion
1070
     0
1000
AcDbSavedByObjectVersion
1070
     0
1000
AcDbSavedByObjectVersion
1070
     0
  0
VISUALSTYLE
  5
1C
102
{ACAD_REACTORS
330
14
102
}
330
14
100
AcDbVisualStyle
  2
3D Hidden
 70
     6
 71
     1
 72
     2
 73
     2
 90
        0
 40
-0.6
 41
-30.0
 62
     5
 63
     7
 74
     2
 91
        2
 64
     7
 65
   257
 75
     2
175
     1
 42
40.0
 92
        0
 66
   257
 43
1.0
 76
     1
 77
     6
 78
     2
 67
     7
 79
     3
170
     0
171
     0
290
     0
174
     0
 93
        1
 44
0.0
173
     0
291
     0
 45
0.0
1001
ACAD
1000
AcDbSavedByObjectVersion
1070
     0
1000
AcDbSavedByObjectVersion
1070
     0
1000
AcDbSavedByObjectVersion
1070
     0
1000
AcDbSavedByObjectVersion
1070
     0
1000
AcDbSavedByObjectVersion
1070
     0
1000
AcDbSavedByObjectVersion
1070
     0
  0
VISUALSTYLE
  5
1B
102
{ACAD_REACTORS
330
14
102
}
330
14
100
AcDbVisualStyle
  2
3dWireframe
 70
     5
 71
     0
 72
     2
 73
     0
 90
        0
 40
-0.6
 41
-30.0
 62
     5
 63
     7
 74
     1
 91
        4
 64
     7
 65
   257
 75
     1
175
     1
 42
1.0
 92
        0
 66
   257
 43
1.0
 76
     1
 77
     6
 78
     2
 67
     7
 79
     5
170
     0
171
     0
290
     0
174
     0
 93
        1
 44
0.0
173
     0
291
     0
 45
0.0
1001
ACAD
1000
AcDbSavedByObjectVersion
1070
     0
1000
AcDbSavedByObjectVersion
1070
     0
1000
AcDbSavedByObjectVersion
1070
     0
1000
AcDbSavedByObjectVersion
1070
     0
1000
AcDbSavedByObjectVersion
1070
     0
1000
AcDbSavedByObjectVersion
1070
     0
  0
VISUALSTYLE
  5
19
102
{ACAD_REACTORS
330
14
102
}
330
14
100
AcDbVisualStyle
  2
Basic
 70
     7
 71
     1
 72
     0
 73
     1
 90
        0
 40
-0.6
 41
-30.0
 62
     5
 63
     7
 74
     0
 91
        4
 64
     7
 65
   257
 75
     1
175
     1
 42
1.0
 92
        8
 66
     7
 43
1.0
 76
     1
 77
     6
 78
     2
 67
     7
 79
     5
170
     0
171
     0
290
     0
174
     0
 93
        1
 44
0.0
173
     0
291
     1
 45
0.0
1001
ACAD
1000
AcDbSavedByObjectVersion
1070
     0
1000
AcDbSavedByObjectVersion
1070
     0
1000
AcDbSavedByObjectVersion
1070
     0
1000
AcDbSavedByObjectVersion
1070
     0
1000
AcDbSavedByObjectVersion
1070
     0
1000
AcDbSavedByObjectVersion
1070
     0
  0
VISUALSTYLE
  5
20
102
{ACAD_REACTORS
330
14
102
}
330
14
100
AcDbVisualStyle
  2
Brighten
 70
    12
 71
     2
 72
     2
 73
     0
 90
        0
 40
-0.6
 41
-30.0
 62
     5
 63
     7
 74
     1
 91
        4
 64
     7
 65
   257
 75
     1
175
     1
 42
1.0
 92
        8
 66
     7
 43
1.0
 76
     1
 77
     6
 78
     2
 67
     7
 79
     5
170
     0
171
     0
290
     0
174
     0
 93
        1
 44
50.0
173
     0
291
     1
 45
0.0
1001
ACAD
1000
AcDbSavedByObjectVersion
1070
     0
1000
AcDbSavedByObjectVersion
1070
     0
1000
AcDbSavedByObjectVersion
1070
     0
1000
AcDbSavedByObjectVersion
1070
     0
1000
AcDbSavedByObjectVersion
1070
     0
1000
AcDbSavedByObjectVersion
1070
     0
  0
VISUALSTYLE
  5
24
102
{ACAD_REACTORS
330
14
102
}
330
14
100
AcDbVisualStyle
  2
ColorChange
 70
    16
 71
     2
 72
     2
 73
     3
 90
        0
 40
-0.6
 41
-30.0
 62
     5
 63
     8
 74
     1
 91
        4
 64
     7
 65
   257
 75
     1
175
     1
 42
1.0
 92
        8
 66
     8
 43
1.0
 76
     1
 77
     6
 78
     2
 67
     7
 79
     5
170
     0
171
     0
290
     0
174
     0
 93
        1
 44
0.0
173
     0
291
     1
 45
0.0
1001
ACAD
1000
AcDbSavedByObjectVersion
1070
     0
1000
AcDbSavedByObjectVersion
1070
     0
1000
AcDbSavedByObjectVersion
1070
     0
1000
AcDbSavedByObjectVersion
1070
     0
1000
AcDbSavedByObjectVersion
1070
     0
1000
AcDbSavedByObjectVersion
1070
     0
  0
VISUALSTYLE
  5
1D
102
{ACAD_REACTORS
330
14
102
}
330
14
100
AcDbVisualStyle
  2
Conceptual
 70
     9
 71
     3
 72
     2
 73
     0
 90
        0
 40
-0.6
 41
-30.0
 62
     5
 63
     7
 74
     2
 91
        2
 64
     7
 65
   257
 75
     1
175
     1
 42
40.0
 92
        8
 66
     7
 43
1.0
 76
     1
 77
     6
 78
     2
 67
     7
 79
     3
170
     0
171
     0
290
     0
174
     0
 93
        1
 44
0.0
173
     0
291
     0
 45
0.0
1001
ACAD
1000
AcDbSavedByObjectVersion
1070
     0
1000
AcDbSavedByObjectVersion
1070
     0
1000
AcDbSavedByObjectVersion
1070
     0
1000
AcDbSavedByObjectVersion
1070
     0
1000
AcDbSavedByObjectVersion
1070
     0
1000
AcDbSavedByObjectVersion
1070
     0
  0
VISUALSTYLE
  5
1F
102
{ACAD_REACTORS
330
14
102
}
330
14
100
AcDbVisualStyle
  2
Dim
 70
    11
 71
     2
 72
     2
 73
     0
 90
        0
 40
-0.6
 41
-30.0
 62
     5
 63
     7
 74
     1
 91
        4
 64
     7
 65
   257
 75
     1
175
     1
 42
1.0
 92
        8
 66
     7
 43
1.0
 76
     1
 77
     6
 78
     2
 67
     7
 79
     5
170
     0
171
     0
290
     0
174
     0
 93
        1
 44
-50.0
173
     0
291
     1
 45
0.0
1001
ACAD
1000
AcDbSavedByObjectVersion
1070
     0
1000
AcDbSavedByObjectVersion
1070
     0
1000
AcDbSavedByObjectVersion
1070
     0
1000
AcDbSavedByObjectVersion
1070
     0
1000
AcDbSavedByObjectVersion
1070
     0
1000
AcDbSavedByObjectVersion
1070
     0
  0
VISUALSTYLE
  5
23
102
{ACAD_REACTORS
330
14
102
}
330
14
100
AcDbVisualStyle
  2
Facepattern
 70
    15
 71
     2
 72
     2
 73
     0
 90
        0
 40
-0.6
 41
-30.0
 62
     5
 63
     7
 74
     1
 91
        4
 64
     7
 65
   257
 75
     1
175
     1
 42
1.0
 92
        8
 66
     7
 43
1.0
 76
     1
 77
     6
 78
     2
 67
     7
 79
     5
170
     0
171
     0
290
     0
174
     0
 93
        1
 44
0.0
173
     0
291
     1
 45
0.0
1001
ACAD
1000
AcDbSavedByObjectVersion
1070
     0
1000
AcDbSavedByObjectVersion
1070
     0
1000
AcDbSavedByObjectVersion
1070
     0
1000
AcDbSavedByObjectVersion
1070
     0
1000
AcDbSavedByObjectVersion
1070
     0
1000
AcDbSavedByObjectVersion
1070
     0
  0
VISUALSTYLE
  5
15
102
{ACAD_REACTORS
330
14
102
}
330
14
100
AcDbVisualStyle
  2
Flat
 70
     0
 71
     2
 72
     1
 73
     1
 90
        2
 40
-0.6
 41
30.0
 62
     5
 63
     7
 74
     0
 91
        4
 64
     7
 65
   257
 75
     1
175
     1
 42
1.0
 92
        8
 66
     7
 43
1.0
 76
     1
 77
     6
 78
     2
 67
     7
 79
     5
170
     0
171
     0
290
     0
174
     0
 93
       13
 44
0.0
173
     0
291
     1
 45
0.0
1001
ACAD
1000
AcDbSavedByObjectVersion
1070
     0
1000
AcDbSavedByObjectVersion
1070
     0
1000
AcDbSavedByObjectVersion
1070
     0
1000
AcDbSavedByObjectVersion
1070
     0
1000
AcDbSavedByObjectVersion
1070
     0
1000
AcDbSavedByObjectVersion
1070
     0
  0
VISUALSTYLE
  5
16
102
{ACAD_REACTORS
330
14
102
}
330
14
100
AcDbVisualStyle
  2
FlatWithEdges
 70
     1
 71
     2
 72
     1
 73
     1
 90
        2
 40
-0.6
 41
30.0
 62
     5
 63
     7
 74
     1
 91
        4
 64
     7
 65
   257
 75
     1
175
     1
 42
1.0
 92
        0
 66
   257
 43
1.0
 76
     1
 77
     6
 78
     2
 67
     7
 79
     5
170
     0
171
     0
290
     0
174
     0
 93
       13
 44
0.0
173
     0
291
     1
 45
0.0
1001
ACAD
1000
AcDbSavedByObjectVersion
1070
     0
1000
AcDbSavedByObjectVersion
1070
     0
1000
AcDbSavedByObjectVersion
1070
     0
1000
AcDbSavedByObjectVersion
1070
     0
1000
AcDbSavedByObjectVersion
1070
     0
1000
AcDbSavedByObjectVersion
1070
     0
  0
VISUALSTYLE
  5
17
102
{ACAD_REACTORS
330
14
102
}
330
14
100
AcDbVisualStyle
  2
Gouraud
 70
     2
 71
     2
 72
     2
 73
     1
 90
        2
 40
-0.6
 41
30.0
 62
     5
 63
     7
 74
     0
 91
        4
 64
     7
 65
   257
 75
     1
175
     1
 42
1.0
 92
        0
 66
     7
 43
1.0
 76
     1
 77
     6
 78
     2
 67
     7
 79
     5
170
     0
171
     0
290
     0
174
     0
 93
       13
 44
0.0
173
     0
291
     1
 45
0.0
1001
ACAD
1000
AcDbSavedByObjectVersion
1070
     0
1000
AcDbSavedByObjectVersion
1070
     0
1000
AcDbSavedByObjectVersion
1070
     0
1000
AcDbSavedByObjectVersion
1070
     0
1000
AcDbSavedByObjectVersion
1070
     0
1000
AcDbSavedByObjectVersion
1070
     0
  0
VISUALSTYLE
  5
18
102
{ACAD_REACTORS
330
14
102
}
330
14
100
AcDbVisualStyle
  2
GouraudWithEdges
 70
     3
 71
     2
 72
     2
 73
     1
 90
        2
 40
-0.6
 41
30.0
 62
     5
 63
     7
 74
     1
 91
        4
 64
     7
 65
   257
 75
     1
175
     1
 42
1.0
 92
        0
 66
   257
 43
1.0
 76
     1
 77
     6
 78
     2
 67
     7
 79
     5
170
     0
171
     0
290
     0
174
     0
 93
       13
 44
0.0
173
     0
291
     1
 45
0.0
1001
ACAD
1000
AcDbSavedByObjectVersion
1070
     0
1000
AcDbSavedByObjectVersion
1070
     0
1000
AcDbSavedByObjectVersion
1070
     0
1000
AcDbSavedByObjectVersion
1070
     0
1000
AcDbSavedByObjectVersion
1070
     0
1000
AcDbSavedByObjectVersion
1070
     0
  0
VISUALSTYLE
  5
22
102
{ACAD_REACTORS
330
14
102
}
330
14
100
AcDbVisualStyle
  2
Linepattern
 70
    14
 71
     2
 72
     2
 73
     0
 90
        0
 40
-0.6
 41
-30.0
 62
     5
 63
     7
 74
     1
 91
        4
 64
     7
 65
   257
 75
     7
175
     7
 42
1.0
 92
        8
 66
     7
 43
1.0
 76
     1
 77
     6
 78
     2
 67
     7
 79
     5
170
     0
171
     0
290
     0
174
     0
 93
        1
 44
0.0
173
     0
291
     1
 45
0.0
1001
ACAD
1000
AcDbSavedByObjectVersion
1070
     0
1000
AcDbSavedByObjectVersion
1070
     0
1000
AcDbSavedByObjectVersion
1070
     0
1000
AcDbSavedByObjectVersion
1070
     0
1000
AcDbSavedByObjectVersion
1070
     0
1000
AcDbSavedByObjectVersion
1070
     0
  0
VISUALSTYLE
  5
1E
102
{ACAD_REACTORS
330
14
102
}
330
14
100
AcDbVisualStyle
  2
Realistic
 70
     8
 71
     2
 72
     2
 73
     0
 90
        0
 40
-0.6
 41
-30.0
 62
     5
 63
     7
 74
     1
 91
        0
 64
     7
 65
   257
 75
     1
175
     1
 42
1.0
 92
        8
 66
     8
 43
1.0
 76
     1
 77
     6
 78
     2
 67
     7
 79
     5
170
     0
171
     0
290
     0
174
     0
 93
       13
 44
0.0
173
     0
291
     0
 45
0.0
1001
ACAD
1000
AcDbSavedByObjectVersion
1070
     0
1000
AcDbSavedByObjectVersion
1070
     0
1000
AcDbSavedByObjectVersion
1070
     0
1000
AcDbSavedByObjectVersion
1070
     0
1000
AcDbSavedByObjectVersion
1070
     0
1000
AcDbSavedByObjectVersion
1070
     0
  0
VISUALSTYLE
  5
21
102
{ACAD_REACTORS
330
14
102
}
330
14
100
AcDbVisualStyle
  2
Thicken
 70
    13
 71
     2
 72
     2
 73
     0
 90
        0
 40
-0.6
 41
-30.0
 62
     5
 63
     7
 74
     1
 91
        4
 64
     7
 65
   257
 75
     1
175
     1
 42
1.0
 92
       12
 66
     7
 43
1.0
 76
     1
 77
     6
 78
     2
 67
     7
 79
     5
170
     0
171
     0
290
     0
174
     0
 93
        1
 44
0.0
173
     0
291
     1
 45
0.0
1001
ACAD
1000
AcDbSavedByObjectVersion
1070
     0
1000
AcDbSavedByObjectVersion
1070
     0
1000
AcDbSavedByObjectVersion
1070
     0
1000
AcDbSavedByObjectVersion
1070
     0
1000
AcDbSavedByObjectVersion
1070
     0
1000
AcDbSavedByObjectVersion
1070
     0
  0
DICTIONARYVAR
  5
319B
102
{ACAD_REACTORS
330
319A
102
}
330
319A
100
DictionaryVariables
280
     0
  1
STANDARD
  0
DICTIONARYVAR
  5
319F
102
{ACAD_REACTORS
330
319A
102
}
330
319A
100
DictionaryVariables
280
     0
  1
2
  0
DICTIONARYVAR
  5
319E
102
{ACAD_REACTORS
330
319A
102
}
330
319A
100
DictionaryVariables
280
     0
  1
1
  0
DICTIONARYVAR
  5
319D
102
{ACAD_REACTORS
330
319A
102
}
330
319A
100
DictionaryVariables
280
     0
  1
0
  0
DICTIONARYVAR
  5
319C
102
{ACAD_REACTORS
330
319A
102
}
330
319A
100
DictionaryVariables
280
     0
  1
127
  0
XRECORD
  5
8DBA
102
{ACAD_REACTORS
330
8DB9
102
}
330
8DB9
100
AcDbXrecord
280
     1
330
1EC
  0
DICTIONARY
  5
8DC0
330
36
100
AcDbDictionary
280
     1
281
     1
  3
ACAD_XREC_ROUNDTRIP
360
8DC1
  0
DICTIONARY
  5
8DC4
330
3E
100
AcDbDictionary
280
     1
281
     1
  3
ACAD_XREC_ROUNDTRIP
360
8DC5
  0
DICTIONARY
  5
8DC2
330
3A
100
AcDbDictionary
280
     1
281
     1
  3
ACAD_XREC_ROUNDTRIP
360
8DC3
  0
DICTIONARY
  5
31A5
330
12
100
AcDbDictionary
280
     1
281
     1
  3
ACAD_XREC_ROUNDTRIP
360
31A6
  0
DICTIONARY
  5
31A3
330
11
100
AcDbDictionary
280
     1
281
     1
  3
ACAD_XREC_ROUNDTRIP
360
31A4
  0
DICTIONARY
  5
31A7
330
13
100
AcDbDictionary
280
     1
281
     1
  3
ACAD_XREC_ROUNDTRIP
360
31A8
  0
DICTIONARY
  5
8DBE
330
32
100
AcDbDictionary
280
     1
281
     1
  3
ACAD_XREC_ROUNDTRIP
360
8DBF
  0
XRECORD
  5
8DC1
102
{ACAD_REACTORS
330
8DC0
102
}
330
8DC0
100
AcDbXrecord
280
     1
102
SHADEPLOT
 70
     0
102
SHADEPLOTRESLEVEL
 70
     2
102
SHADEPLOTCUSTOMDPI
 70
   300
  0
XRECORD
  5
8DC5
102
{ACAD_REACTORS
330
8DC4
102
}
330
8DC4
100
AcDbXrecord
280
     1
102
SHADEPLOT
 70
     0
102
SHADEPLOTRESLEVEL
 70
     2
102
SHADEPLOTCUSTOMDPI
 70
   300
  0
XRECORD
  5
8DC3
102
{ACAD_REACTORS
330
8DC2
102
}
330
8DC2
100
AcDbXrecord
280
     1
102
SHADEPLOT
 70
     0
102
SHADEPLOTRESLEVEL
 70
     2
102
SHADEPLOTCUSTOMDPI
 70
   300
  0
XRECORD
  5
31A6
102
{ACAD_REACTORS
330
31A5
102
}
330
31A5
100
AcDbXrecord
280
     1
102
MATERIAL
148
0.0
149
0.0
149
0.0
 93
        0
 94
       63
282
     0
 72
     1
 77
     1
171
     1
175
     1
179
     1
273
     0
  0
XRECORD
  5
31A4
102
{ACAD_REACTORS
330
31A3
102
}
330
31A3
100
AcDbXrecord
280
     1
102
MATERIAL
148
0.0
149
0.0
149
0.0
 93
        0
 94
       63
282
     0
 72
     1
 77
     1
171
     1
175
     1
179
     1
273
     0
  0
XRECORD
  5
31A8
102
{ACAD_REACTORS
330
31A7
102
}
330
31A7
100
AcDbXrecord
280
     1
102
MATERIAL
148
0.0
149
0.0
149
0.0
 93
        0
 94
       63
282
     0
 72
     1
 77
     1
171
     1
175
     1
179
     1
273
     0
  0
XRECORD
  5
8DBF
102
{ACAD_REACTORS
330
8DBE
102
}
330
8DBE
100
AcDbXrecord
280
     1
102
ACAD_ROUNDTRIP_PRE2007_TABLESTYLE
 90
      512
 91
        0
  1

 92
      512
 93
        0
  2

 94
      512
 95
        0
  3

  0
ENDSEC
  0
EOF
