  0
SECTION
  2
HEADER
  9
$ACADVER
  1
AC1015
  9
$ACADMAINTVER
 70
    20
  9
$DWGCODEPAGE
  3
ANSI_1252
  9
$INSBASE
 10
0.0
 20
0.0
 30
0.0
  9
$EXTMIN
 10
-20.0
 20
-21.5
 30
0.0
  9
$EXTMAX
 10
220.0
 20
308.5000000000001
 30
0.0
  9
$LIMMIN
 10
0.0
 20
0.0
  9
$LIMMAX
 10
420.0
 20
297.0
  9
$ORTHOMODE
 70
     0
  9
$REGENMODE
 70
     1
  9
$FILLMODE
 70
     1
  9
$QTEXTMODE
 70
     0
  9
$MIRRTEXT
 70
     0
  9
$LTSCALE
 40
1.0
  9
$ATTMODE
 70
     1
  9
$TEXTSIZE
 40
2.5
  9
$TRACEWID
 40
1.0
  9
$TEXTSTYLE
  7
Standard
  9
$CLAYER
  8
0
  9
$CELTYPE
  6
Continuous
  9
$CECOLOR
 62
     7
  9
$CELTSCALE
 40
1.0
  9
$DISPSILH
 70
     0
  9
$DIMSCALE
 40
0.0
  9
$DIMASZ
 40
3.5
  9
$DIMEXO
 40
0.0
  9
$DIMDLI
 40
3.75
  9
$DIMRND
 40
0.0
  9
$DIMDLE
 40
0.0
  9
$DIMEXE
 40
2.0
  9
$DIMTP
 40
0.0
  9
$DIMTM
 40
0.0
  9
$DIMTXT
 40
3.5
  9
$DIMCEN
 40
2.5
  9
$DIMTSZ
 40
0.0
  9
$DIMTOL
 70
     0
  9
$DIMLIM
 70
     0
  9
$DIMTIH
 70
     0
  9
$DIMTOH
 70
     0
  9
$DIMSE1
 70
     0
  9
$DIMSE2
 70
     0
  9
$DIMTAD
 70
     1
  9
$DIMZIN
 70
     8
  9
$DIMBLK
  1

  9
$DIMASO
 70
     1
  9
$DIMSHO
 70
     1
  9
$DIMPOST
  1

  9
$DIMAPOST
  1

  9
$DIMALT
 70
     0
  9
$DIMALTD
 70
     4
  9
$DIMALTF
 40
0.039
  9
$DIMLFAC
 40
1.0
  9
$DIMTOFL
 70
     1
  9
$DIMTVP
 40
0.0
  9
$DIMTIX
 70
     0
  9
$DIMSOXD
 70
     0
  9
$DIMSAH
 70
     0
  9
$DIMBLK1
  1

  9
$DIMBLK2
  1

  9
$DIMSTYLE
  2
H035
  9
$DIMCLRD
 70
   256
  9
$DIMCLRE
 70
     7
  9
$DIMCLRT
 70
     7
  9
$DIMTFAC
 40
1.0
  9
$DIMGAP
 40
0.5
  9
$DIMJUST
 70
     0
  9
$DIMSD1
 70
     0
  9
$DIMSD2
 70
     0
  9
$DIMTOLJ
 70
     1
  9
$DIMTZIN
 70
     0
  9
$DIMALTZ
 70
     0
  9
$DIMALTTZ
 70
     0
  9
$DIMUPT
 70
     0
  9
$DIMDEC
 70
     4
  9
$DIMTDEC
 70
     4
  9
$DIMALTU
 70
     2
  9
$DIMALTTD
 70
     2
  9
$DIMTXSTY
  7
Standard
  9
$DIMAUNIT
 70
     0
  9
$DIMADEC
 70
     0
  9
$DIMALTRND
 40
0.0
  9
$DIMAZIN
 70
     0
  9
$DIMDSEP
 70
    46
  9
$DIMATFIT
 70
     3
  9
$DIMFRAC
 70
     0
  9
$DIMLDRBLK
  1

  9
$DIMLUNIT
 70
     2
  9
$DIMLWD
 70
    -2
  9
$DIMLWE
 70
    -2
  9
$DIMTMOVE
 70
     0
  9
$LUNITS
 70
     2
  9
$LUPREC
 70
     4
  9
$SKETCHINC
 40
1.0
  9
$FILLETRAD
 40
0.0
  9
$AUNITS
 70
     0
  9
$AUPREC
 70
     0
  9
$MENU
  1
.
  9
$ELEVATION
 40
0.0
  9
$PELEVATION
 40
0.0
  9
$THICKNESS
 40
0.0
  9
$LIMCHECK
 70
     0
  9
$CHAMFERA
 40
0.0
  9
$CHAMFERB
 40
0.0
  9
$CHAMFERC
 40
0.0
  9
$CHAMFERD
 40
0.0
  9
$SKPOLY
 70
     0
  9
$TDCREATE
 40
2454295.653872604
  9
$TDUCREATE
 40
2454295.570539271
  9
$TDUPDATE
 40
2454320.695189410
  9
$TDUUPDATE
 40
2454320.611856076
  9
$TDINDWG
 40
0.1930402546
  9
$TDUSRTIMER
 40
0.1930380903
  9
$USRTIMER
 70
     1
  9
$ANGBASE
 50
0.0
  9
$ANGDIR
 70
     0
  9
$PDMODE
 70
     0
  9
$PDSIZE
 40
0.0
  9
$PLINEWID
 40
0.0
  9
$SPLFRAME
 70
     0
  9
$SPLINETYPE
 70
     6
  9
$SPLINESEGS
 70
     8
  9
$HANDSEED
  5
B159
  9
$SURFTAB1
 70
     6
  9
$SURFTAB2
 70
     6
  9
$SURFTYPE
 70
     6
  9
$SURFU
 70
     6
  9
$SURFV
 70
     6
  9
$UCSBASE
  2

  9
$UCSNAME
  2

  9
$UCSORG
 10
0.0
 20
0.0
 30
0.0
  9
$UCSXDIR
 10
1.0
 20
0.0
 30
0.0
  9
$UCSYDIR
 10
0.0
 20
1.0
 30
0.0
  9
$UCSORTHOREF
  2

  9
$UCSORTHOVIEW
 70
     0
  9
$UCSORGTOP
 10
0.0
 20
0.0
 30
0.0
  9
$UCSORGBOTTOM
 10
0.0
 20
0.0
 30
0.0
  9
$UCSORGLEFT
 10
0.0
 20
0.0
 30
0.0
  9
$UCSORGRIGHT
 10
0.0
 20
0.0
 30
0.0
  9
$UCSORGFRONT
 10
0.0
 20
0.0
 30
0.0
  9
$UCSORGBACK
 10
0.0
 20
0.0
 30
0.0
  9
$PUCSBASE
  2

  9
$PUCSNAME
  2

  9
$PUCSORG
 10
0.0
 20
0.0
 30
0.0
  9
$PUCSXDIR
 10
1.0
 20
0.0
 30
0.0
  9
$PUCSYDIR
 10
0.0
 20
1.0
 30
0.0
  9
$PUCSORTHOREF
  2

  9
$PUCSORTHOVIEW
 70
     0
  9
$PUCSORGTOP
 10
0.0
 20
0.0
 30
0.0
  9
$PUCSORGBOTTOM
 10
0.0
 20
0.0
 30
0.0
  9
$PUCSORGLEFT
 10
0.0
 20
0.0
 30
0.0
  9
$PUCSORGRIGHT
 10
0.0
 20
0.0
 30
0.0
  9
$PUCSORGFRONT
 10
0.0
 20
0.0
 30
0.0
  9
$PUCSORGBACK
 10
0.0
 20
0.0
 30
0.0
  9
$USERI1
 70
     0
  9
$USERI2
 70
     0
  9
$USERI3
 70
     0
  9
$USERI4
 70
     0
  9
$USERI5
 70
     0
  9
$USERR1
 40
0.0
  9
$USERR2
 40
0.0
  9
$USERR3
 40
0.0
  9
$USERR4
 40
0.0
  9
$USERR5
 40
0.0
  9
$WORLDVIEW
 70
     1
  9
$SHADEDGE
 70
     3
  9
$SHADEDIF
 70
    70
  9
$TILEMODE
 70
     1
  9
$MAXACTVP
 70
    64
  9
$PINSBASE
 10
0.0
 20
0.0
 30
0.0
  9
$PLIMCHECK
 70
     0
  9
$PEXTMIN
 10
1.000000000000000E+20
 20
1.000000000000000E+20
 30
1.000000000000000E+20
  9
$PEXTMAX
 10
-1.000000000000000E+20
 20
-1.000000000000000E+20
 30
-1.000000000000000E+20
  9
$PLIMMIN
 10
0.0
 20
0.0
  9
$PLIMMAX
 10
420.0
 20
297.0
  9
$UNITMODE
 70
     0
  9
$VISRETAIN
 70
     1
  9
$PLINEGEN
 70
     0
  9
$PSLTSCALE
 70
     1
  9
$TREEDEPTH
 70
  3020
  9
$CMLSTYLE
  2
Standard
  9
$CMLJUST
 70
     0
  9
$CMLSCALE
 40
20.0
  9
$PROXYGRAPHICS
 70
     1
  9
$MEASUREMENT
 70
     1
  9
$CELWEIGHT
370
    18
  9
$ENDCAPS
280
     0
  9
$JOINSTYLE
280
     0
  9
$LWDISPLAY
290
     1
  9
$INSUNITS
 70
     4
  9
$HYPERLINKBASE
  1

  9
$STYLESHEET
  1

  9
$XEDIT
290
     1
  9
$CEPSNTYPE
380
     0
  9
$PSTYLEMODE
290
     1
  9
$FINGERPRINTGUID
  2
{37DD5FD8-D439-40C7-AB83-504ADEB29FA2}
  9
$VERSIONGUID
  2
{A7A1BD95-E86C-4749-9284-46002D546657}
  9
$EXTNAMES
290
     1
  9
$PSVPSCALE
 40
0.0
  9
$OLESTARTUP
290
     0
  0
ENDSEC
  0
SECTION
  2
CLASSES
  0
CLASS
  1
ACDBDICTIONARYWDFLT
  2
AcDbDictionaryWithDefault
  3
ObjectDBX Classes
 90
        0
280
     0
281
     0
  0
CLASS
  1
MATERIAL
  2
AcDbMaterial
  3
ObjectDBX Classes
 90
     1153
280
     0
281
     0
  0
CLASS
  1
VISUALSTYLE
  2
AcDbVisualStyle
  3
ObjectDBX Classes
 90
     4095
280
     0
281
     0
  0
CLASS
  1
TABLESTYLE
  2
AcDbTableStyle
  3
ObjectDBX Classes
 90
     4095
280
     0
281
     0
  0
CLASS
  1
SORTENTSTABLE
  2
AcDbSortentsTable
  3
ObjectDBX Classes
 90
        0
280
     0
281
     0
  0
CLASS
  1
DICTIONARYVAR
  2
AcDbDictionaryVar
  3
ObjectDBX Classes
 90
        0
280
     0
281
     0
  0
CLASS
  1
ACDBPLACEHOLDER
  2
AcDbPlaceHolder
  3
ObjectDBX Classes
 90
        0
280
     0
281
     0
  0
CLASS
  1
LAYOUT
  2
AcDbLayout
  3
ObjectDBX Classes
 90
        0
280
     0
281
     0
  0
CLASS
  1
DIMASSOC
  2
AcDbDimAssoc
  3
"AcDbDimAssoc|Product Desc:     AcDim ARX App For Dimension|Company:          Autodesk, Inc.|WEB Address:      www.autodesk.com"
 90
        0
280
     0
281
     0
  0
ENDSEC
  0
SECTION
  2
TABLES
  0
TABLE
  2
VPORT
  5
8
330
0
100
AcDbSymbolTable
 70
     1
  0
VPORT
  5
28
330
8
100
AcDbSymbolTableRecord
100
AcDbViewportTableRecord
  2
*Active
 70
     0
 10
0.0
 20
0.0
 11
1.0
 21
1.0
 12
100.0010384422536
 22
143.6358074758286
 13
0.0
 23
0.0
 14
10.0
 24
10.0
 15
10.0
 25
10.0
 16
0.0
 26
0.0
 36
1.0
 17
0.0
 27
0.0
 37
0.0
 40
333.074004701866
 41
1.67461430575035
 42
50.0
 43
0.0
 44
0.0
 50
0.0
 51
0.0
 71
     0
 72
  1000
 73
     1
 74
     3
 75
     0
 76
     0
 77
     0
 78
     0
281
     0
 65
     1
110
0.0
120
0.0
130
0.0
111
1.0
121
0.0
131
0.0
112
0.0
122
1.0
132
0.0
 79
     0
146
0.0
  0
ENDTAB
  0
TABLE
  2
LTYPE
  5
5
330
0
100
AcDbSymbolTable
 70
     4
  0
LTYPE
  5
29
330
5
100
AcDbSymbolTableRecord
100
AcDbLinetypeTableRecord
  2
ByBlock
 70
     0
  3

 72
    65
 73
     0
 40
0.0
  0
LTYPE
  5
2A
330
5
100
AcDbSymbolTableRecord
100
AcDbLinetypeTableRecord
  2
ByLayer
 70
     0
  3

 72
    65
 73
     0
 40
0.0
  0
LTYPE
  5
2B
330
5
100
AcDbSymbolTableRecord
100
AcDbLinetypeTableRecord
  2
Continuous
 70
     0
  3
Solid line
 72
    65
 73
     0
 40
0.0
  0
LTYPE
  5
101
330
5
100
AcDbSymbolTableRecord
100
AcDbLinetypeTableRecord
  2
AM_DIN_G_W050
 70
     0
  3
____ . ____ . ____ . ____ . ____ . ____ . ____
 72
    65
 73
     4
 40
13.75
 49
9.75
 74
     0
 49
-1.5
 74
     0
 49
1.0
 74
     0
 49
-1.5
 74
     0
  0
LTYPE
  5
102
330
5
100
AcDbSymbolTableRecord
100
AcDbLinetypeTableRecord
  2
AM_DIN_K_W050
 70
     0
  3
_____ . . _____ . . _____ . . ____ .. ____
 72
    65
 73
     6
 40
16.25
 49
9.75
 74
     0
 49
-1.5
 74
     0
 49
1.0
 74
     0
 49
-1.5
 74
     0
 49
1.0
 74
     0
 49
-1.5
 74
     0
  0
LTYPE
  5
9BD2
330
5
100
AcDbSymbolTableRecord
100
AcDbLinetypeTableRecord
  2
CENTER
 70
     0
  3
____ _ ____ _ ____ _ ____ _ ____ _ ____ _ ____
 72
    65
 73
     4
 40
0.6
 49
0.375
 74
     0
 49
-0.075
 74
     0
 49
0.075
 74
     0
 49
-0.075
 74
     0
  0
ENDTAB
  0
TABLE
  2
LAYER
  5
2
330
0
100
AcDbSymbolTable
 70
    15
  0
LAYER
  5
25
330
2
100
AcDbSymbolTableRecord
100
AcDbLayerTableRecord
  2
0
 70
     0
 62
     7
  6
Continuous
370
    -3
390
F
  0
LAYER
  5
10B
330
2
100
AcDbSymbolTableRecord
100
AcDbLayerTableRecord
  2
90100_FRAME_THICK
 70
     0
 62
     7
  6
Continuous
370
    50
390
F
  0
LAYER
  5
10C
330
2
100
AcDbSymbolTableRecord
100
AcDbLayerTableRecord
  2
90000_FRAME_THIN
 70
     0
 62
     7
  6
Continuous
370
    13
390
F
  0
LAYER
  5
10D
330
2
100
AcDbSymbolTableRecord
100
AcDbLayerTableRecord
  2
90200_FRAME_SIZE
 70
     0
 62
     3
  6
AM_DIN_K_W050
370
    13
390
F
  0
LAYER
  5
10E
330
2
100
AcDbSymbolTableRecord
100
AcDbLayerTableRecord
  2
92000_TITLE
 70
     0
 62
     7
  6
Continuous
370
    13
390
F
  0
LAYER
  5
10F
330
2
100
AcDbSymbolTableRecord
100
AcDbLayerTableRecord
  2
91100_TIP_SYM
 70
     0
 62
     7
  6
AM_DIN_G_W050
370
    25
390
F
  0
LAYER
  5
110
330
2
100
AcDbSymbolTableRecord
100
AcDbLayerTableRecord
  2
Defpoints
 70
     0
 62
     7
  6
Continuous
290
     0
370
    -3
390
F
  0
LAYER
  5
111
330
2
100
AcDbSymbolTableRecord
100
AcDbLayerTableRecord
  2
91000_TIP
 70
     0
 62
     7
  6
Continuous
370
    13
390
F
  0
LAYER
  5
112
330
2
100
AcDbSymbolTableRecord
100
AcDbLayerTableRecord
  2
91200_TIP_SYMB
 70
     0
 62
     7
  6
Continuous
370
    -3
390
F
  0
LAYER
  5
113
330
2
100
AcDbSymbolTableRecord
100
AcDbLayerTableRecord
  2
10000_FRONT
 70
     0
 62
     7
  6
Continuous
370
    50
390
F
  0
LAYER
  5
11C
330
2
100
AcDbSymbolTableRecord
100
AcDbLayerTableRecord
  2
10100_FRONT_DIM
 70
     0
 62
     7
  6
Continuous
370
    13
390
F
  0
LAYER
  5
9BD4
330
2
100
AcDbSymbolTableRecord
100
AcDbLayerTableRecord
  2
11000_LEFT
 70
     0
 62
     7
  6
Continuous
370
    -3
390
F
  0
LAYER
  5
9BD5
330
2
100
AcDbSymbolTableRecord
100
AcDbLayerTableRecord
  2
11100_LEFT_DIM
 70
     0
 62
     7
  6
Continuous
370
    -3
390
F
  0
LAYER
  5
9BD6
330
2
100
AcDbSymbolTableRecord
100
AcDbLayerTableRecord
  2
11200_LEFT_SYM
 70
     0
 62
     7
  6
Continuous
370
    -3
390
F
1001
AcAecLayerStandard
1000

1000

  0
LAYER
  5
9BD7
330
2
100
AcDbSymbolTableRecord
100
AcDbLayerTableRecord
  2
10200_FRONT_SYM
 70
     0
 62
     7
  6
CENTER
370
    13
390
F
1001
AcAecLayerStandard
1000

1000

  0
ENDTAB
  0
TABLE
  2
STYLE
  5
3
330
0
100
AcDbSymbolTable
 70
     2
  0
STYLE
  5
26
330
3
100
AcDbSymbolTableRecord
100
AcDbTextStyleTableRecord
  2
Standard
 70
     0
 40
0.0
 41
1.0
 50
0.0
 71
     0
 42
2.5
  3
txt
  4

  0
STYLE
  5
9BD8
330
3
100
AcDbSymbolTableRecord
100
AcDbTextStyleTableRecord
  2
TXT
 70
     0
 40
0.0
 41
1.0
 50
0.0
 71
     0
 42
0.0
  3
txt
  4

  0
ENDTAB
  0
TABLE
  2
VIEW
  5
6
330
0
100
AcDbSymbolTable
 70
     0
  0
ENDTAB
  0
TABLE
  2
UCS
  5
7
330
0
100
AcDbSymbolTable
 70
     0
  0
ENDTAB
  0
TABLE
  2
APPID
  5
9
330
0
100
AcDbSymbolTable
 70
    22
  0
APPID
  5
27
330
9
100
AcDbSymbolTableRecord
100
AcDbRegAppTableRecord
  2
ACAD
 70
     0
  0
APPID
  5
14F
330
9
100
AcDbSymbolTableRecord
100
AcDbRegAppTableRecord
  2
MCAD_NO_VIS
 70
     0
  0
APPID
  5
150
330
9
100
AcDbSymbolTableRecord
100
AcDbRegAppTableRecord
  2
ACAD_TEMP_GRAPHIC
 70
     0
  0
APPID
  5
151
330
9
100
AcDbSymbolTableRecord
100
AcDbRegAppTableRecord
  2
AD_DRAW
 70
     0
  0
APPID
  5
152
330
9
100
AcDbSymbolTableRecord
100
AcDbRegAppTableRecord
  2
ACATTRIBSERVICES
 70
     0
  0
APPID
  5
153
330
9
100
AcDbSymbolTableRecord
100
AcDbRegAppTableRecord
  2
GENIUS_GENDIM_13
 70
     0
  0
APPID
  5
154
330
9
100
AcDbSymbolTableRecord
100
AcDbRegAppTableRecord
  2
GENIUS_GENDTOL_13
 70
     0
  0
APPID
  5
155
330
9
100
AcDbSymbolTableRecord
100
AcDbRegAppTableRecord
  2
GENIUS_GE3DTOL_13
 70
     0
  0
APPID
  5
156
330
9
100
AcDbSymbolTableRecord
100
AcDbRegAppTableRecord
  2
ASURF_PCURVE_APPNAME
 70
     0
  0
APPID
  5
157
330
9
100
AcDbSymbolTableRecord
100
AcDbRegAppTableRecord
  2
AMG_3D2D_5.0
 70
     0
  0
APPID
  5
158
330
9
100
AcDbSymbolTableRecord
100
AcDbRegAppTableRecord
  2
DESIGNERASSEMBLIES
 70
     0
  0
APPID
  5
159
330
9
100
AcDbSymbolTableRecord
100
AcDbRegAppTableRecord
  2
ACADM_DIM_EDIT
 70
     0
  0
APPID
  5
15A
330
9
100
AcDbSymbolTableRecord
100
AcDbRegAppTableRecord
  2
AMDT_DM_ADJ
 70
     0
  0
APPID
  5
15B
330
9
100
AcDbSymbolTableRecord
100
AcDbRegAppTableRecord
  2
GENIUS_GENREC_14
 70
     0
  0
APPID
  5
15C
330
9
100
AcDbSymbolTableRecord
100
AcDbRegAppTableRecord
  2
GENIUS_GENODEF_13
 70
     0
  0
APPID
  5
15D
330
9
100
AcDbSymbolTableRecord
100
AcDbRegAppTableRecord
  2
GENIUS_GENOBJ-N-REC_13
 70
     0
  0
APPID
  5
15E
330
9
100
AcDbSymbolTableRecord
100
AcDbRegAppTableRecord
  2
DCO15
 70
     0
  0
APPID
  5
3D4
330
9
100
AcDbSymbolTableRecord
100
AcDbRegAppTableRecord
  2
AUSTER_ANSICHT
 70
     0
  0
APPID
  5
3D5
330
9
100
AcDbSymbolTableRecord
100
AcDbRegAppTableRecord
  2
AUSTER_FOLIE
 70
     0
  0
APPID
  5
31B1
330
9
100
AcDbSymbolTableRecord
100
AcDbRegAppTableRecord
  2
ACAD_DSTYLE_DIMJOGGED_JOGANGLE_SYMBOL
 70
     0
  0
APPID
  5
3237
330
9
100
AcDbSymbolTableRecord
100
AcDbRegAppTableRecord
  2
AcAecLayerStandard
 70
     0
  0
APPID
  5
55E0
330
9
100
AcDbSymbolTableRecord
100
AcDbRegAppTableRecord
  2
ACAD_EXEMPT_FROM_CAD_STANDARDS
 70
     0
  0
ENDTAB
  0
TABLE
  2
DIMSTYLE
  5
A
330
0
100
AcDbSymbolTable
 70
     3
100
AcDbDimStyleTable
 71
     2
340
3D3
340
3F
  0
DIMSTYLE
105
3F
330
A
100
AcDbSymbolTableRecord
100
AcDbDimStyleTableRecord
  2
ISO-25
 70
     0
 41
2.5
 42
0.625
 43
3.75
 44
1.25
 73
     0
 74
     0
 77
     1
 78
     8
140
2.5
141
2.5
143
0.03937007874016
147
0.625
171
     3
172
     1
271
     2
272
     2
274
     3
278
    44
283
     0
284
     8
340
26
1001
ACAD_DSTYLE_DIMJOGGED_JOGANGLE_SYMBOL
1070
   384
1040
1.570796326794896
  0
DIMSTYLE
105
3D1
330
A
100
AcDbSymbolTableRecord
100
AcDbDimStyleTableRecord
  2
STANDARD
 70
     0
340
26
  0
DIMSTYLE
105
3D3
102
{ACAD_REACTORS
330
A36C
330
A36D
330
A36E
330
A36F
330
A370
330
A371
330
A372
330
A373
330
A374
330
A375
330
A376
330
B0AD
330
B0F4
330
B11C
102
}
330
A
100
AcDbSymbolTableRecord
100
AcDbDimStyleTableRecord
  2
H035
 70
     0
 40
0.0
 41
3.5
 42
0.0
 43
3.75
 44
2.0
 73
     0
 74
     0
 77
     1
 78
     8
140
3.5
141
2.5
143
0.039
147
0.5
171
     4
172
     1
176
   256
177
     7
178
     7
340
26
  0
ENDTAB
  0
TABLE
  2
BLOCK_RECORD
  5
1
330
0
100
AcDbSymbolTable
 70
    51
  0
BLOCK_RECORD
  5
37
102
{ACAD_XDICTIONARY
360
211
102
}
330
1
100
AcDbSymbolTableRecord
100
AcDbBlockTableRecord
  2
*Model_Space
340
3A
  0
BLOCK_RECORD
  5
33
330
1
100
AcDbSymbolTableRecord
100
AcDbBlockTableRecord
  2
*Paper_Space
340
36
  0
BLOCK_RECORD
  5
3B
330
1
100
AcDbSymbolTableRecord
100
AcDbBlockTableRecord
  2
*Paper_Space0
340
3E
  0
BLOCK_RECORD
  5
49
330
1
100
AcDbSymbolTableRecord
100
AcDbBlockTableRecord
  2
Title_A4P
340
0
310
2800000020000000200000000100080000000000000400000000000000000000000000000000000000000000000080000080000000808000800000008000800080800000C0C0C000C0DCC000F0CAA6000020400000206000002080000020A0000020C0000020E00000400000004020000040400000406000004080000040A0
310
000040C0000040E00000600000006020000060400000606000006080000060A0000060C0000060E00000800000008020000080400000806000008080000080A0000080C0000080E00000A0000000A0200000A0400000A0600000A0800000A0A00000A0C00000A0E00000C0000000C0200000C0400000C0600000C0800000C0
310
A00000C0C00000C0E00000E0000000E0200000E0400000E0600000E0800000E0A00000E0C00000E0E00040000000400020004000400040006000400080004000A0004000C0004000E00040200000402020004020400040206000402080004020A0004020C0004020E000404000004040200040404000404060004040800040
310
40A0004040C0004040E00040600000406020004060400040606000406080004060A0004060C0004060E00040800000408020004080400040806000408080004080A0004080C0004080E00040A0000040A0200040A0400040A0600040A0800040A0A00040A0C00040A0E00040C0000040C0200040C0400040C0600040C08000
310
40C0A00040C0C00040C0E00040E0000040E0200040E0400040E0600040E0800040E0A00040E0C00040E0E00080000000800020008000400080006000800080008000A0008000C0008000E00080200000802020008020400080206000802080008020A0008020C0008020E00080400000804020008040400080406000804080
310
008040A0008040C0008040E00080600000806020008060400080606000806080008060A0008060C0008060E00080800000808020008080400080806000808080008080A0008080C0008080E00080A0000080A0200080A0400080A0600080A0800080A0A00080A0C00080A0E00080C0000080C0200080C0400080C0600080C0
310
800080C0A00080C0C00080C0E00080E0000080E0200080E0400080E0600080E0800080E0A00080E0C00080E0E000C0000000C0002000C0004000C0006000C0008000C000A000C000C000C000E000C0200000C0202000C0204000C0206000C0208000C020A000C020C000C020E000C0400000C0402000C0404000C0406000C0
310
408000C040A000C040C000C040E000C0600000C0602000C0604000C0606000C0608000C060A000C060C000C060E000C0800000C0802000C0804000C0806000C0808000C080A000C080C000C080E000C0A00000C0A02000C0A04000C0A06000C0A08000C0A0A000C0A0C000C0A0E000C0C00000C0C02000C0C04000C0C06000
310
C0C08000C0C0A000F0FBFF00A4A0A000808080000000FF0000FF000000FFFF00FF000000FF00FF00FFFF0000FFFFFF0000000000000000000000000000000000000000000000000000000000000000000000000000000000000000000000000000000000000000000000000000000000000000000000000000000000000000
310
00000000000000000000000000000000000000000000000000000000000000000000000000000000000000000000000000000000000000000000000000000000000000000000000000000000000000000000000000000000000000000000000000000000000000000000000000000000000000000000000000000000000000
310
00000000000000000000000000000000000000000000000000000000000000000000000000000000000000000000000000000000000000000000000000000000000000000000000000000000000000000000000000000000000000000000000000000000000000000000000000000000000000000000000000000000000000
310
000000000000000000000000000000000000000000000000000000000000000000000000000000000000000000000000000000000000000000000000000000000000000000000000000000000000000000000000000000000000FFFFFFFFFFFFFFFFFFFFFFFFFFFFFFFFFFFFFFFFFFFFFFFF000000FFFFFFFFFFFFFFFFFFFF
310
FFFFFFFFFFFFFFFFFFFFFFFFFFFFFFFFFFFFFF0000FFFFFFFFFFFFFFFFFFFFFFFFFFFFFF00000000FFFFFFFFFFFFFF000000FF00000000FFFFFF00FFFFFFFFFFFFFFFFFFFFFFFFFFFFFFFFFFFFFFFFFFFFFFFF0000000000000000FFFFFFFFFFFFFFFFFFFFFFFFFFFFFFFF00000000000000000000000000000000FFFFFF00
310
0000FFFFFFFFFFFFFF00FF0000000000000000000000000000000000000000000000000000000000000000000000000000000000000000000000000000000000000000000000000000000000000000000000000000000000000000000000000000000000000000000000000000000000000000000000000000000000000000
310
00000000000000000000000000000000000000000000000000000000000000000000000000000000000000000000000000000000000000000000000000000000000000000000000000000000000000000000000000000000000000000000000000000000000000000000000000000000000000000000000000000000000000
310
00000000000000000000000000000000000000000000000000000000000000000000000000000000000000000000000000000000000000000000000000000000000000000000000000000000000000000000000000000000000000000000000000000000000000000000000000000000000000000000000000000000000000
310
0000000000000000000000000000000000000000000000000000000000000000000000000000000000000000000000000000000000000000
102
{BLKREFS
331
1EC
102
}
1001
ACAD
1000
DesignCenter Data
1002
{
1070
     1
1070
     4
1002
}
  0
BLOCK_RECORD
  5
A387
330
1
100
AcDbSymbolTableRecord
100
AcDbBlockTableRecord
  2
*D2
340
0
  0
BLOCK_RECORD
  5
A392
330
1
100
AcDbSymbolTableRecord
100
AcDbBlockTableRecord
  2
*D3
340
0
  0
BLOCK_RECORD
  5
A39E
330
1
100
AcDbSymbolTableRecord
100
AcDbBlockTableRecord
  2
*D4
340
0
  0
BLOCK_RECORD
  5
A3AA
330
1
100
AcDbSymbolTableRecord
100
AcDbBlockTableRecord
  2
*D5
340
0
  0
BLOCK_RECORD
  5
A3B6
330
1
100
AcDbSymbolTableRecord
100
AcDbBlockTableRecord
  2
*D6
340
0
  0
BLOCK_RECORD
  5
A3C2
330
1
100
AcDbSymbolTableRecord
100
AcDbBlockTableRecord
  2
*D7
340
0
  0
BLOCK_RECORD
  5
A3CE
330
1
100
AcDbSymbolTableRecord
100
AcDbBlockTableRecord
  2
*D8
340
0
  0
BLOCK_RECORD
  5
A3DC
330
1
100
AcDbSymbolTableRecord
100
AcDbBlockTableRecord
  2
*D9
340
0
  0
BLOCK_RECORD
  5
A3E8
330
1
100
AcDbSymbolTableRecord
100
AcDbBlockTableRecord
  2
*D10
340
0
  0
BLOCK_RECORD
  5
A3F6
330
1
100
AcDbSymbolTableRecord
100
AcDbBlockTableRecord
  2
*D11
340
0
  0
BLOCK_RECORD
  5
A404
330
1
100
AcDbSymbolTableRecord
100
AcDbBlockTableRecord
  2
*D12
340
0
  0
BLOCK_RECORD
  5
A410
330
1
100
AcDbSymbolTableRecord
100
AcDbBlockTableRecord
  2
*D13
340
0
  0
BLOCK_RECORD
  5
A50E
330
1
100
AcDbSymbolTableRecord
100
AcDbBlockTableRecord
  2
*D14
340
0
  0
BLOCK_RECORD
  5
A51A
330
1
100
AcDbSymbolTableRecord
100
AcDbBlockTableRecord
  2
*D15
340
0
  0
BLOCK_RECORD
  5
A526
330
1
100
AcDbSymbolTableRecord
100
AcDbBlockTableRecord
  2
*D16
340
0
  0
BLOCK_RECORD
  5
A532
330
1
100
AcDbSymbolTableRecord
100
AcDbBlockTableRecord
  2
*D17
340
0
  0
BLOCK_RECORD
  5
A53E
330
1
100
AcDbSymbolTableRecord
100
AcDbBlockTableRecord
  2
*D18
340
0
  0
BLOCK_RECORD
  5
A54A
330
1
100
AcDbSymbolTableRecord
100
AcDbBlockTableRecord
  2
*D19
340
0
  0
BLOCK_RECORD
  5
A558
330
1
100
AcDbSymbolTableRecord
100
AcDbBlockTableRecord
  2
*D20
340
0
  0
BLOCK_RECORD
  5
A564
330
1
100
AcDbSymbolTableRecord
100
AcDbBlockTableRecord
  2
*D21
340
0
  0
BLOCK_RECORD
  5
A570
330
1
100
AcDbSymbolTableRecord
100
AcDbBlockTableRecord
  2
*D22
340
0
  0
BLOCK_RECORD
  5
A57C
330
1
100
AcDbSymbolTableRecord
100
AcDbBlockTableRecord
  2
*D23
340
0
  0
BLOCK_RECORD
  5
A58A
330
1
100
AcDbSymbolTableRecord
100
AcDbBlockTableRecord
  2
*D24
340
0
  0
BLOCK_RECORD
  5
A598
330
1
100
AcDbSymbolTableRecord
100
AcDbBlockTableRecord
  2
*D25
340
0
  0
BLOCK_RECORD
  5
A5A6
330
1
100
AcDbSymbolTableRecord
100
AcDbBlockTableRecord
  2
*D26
340
0
  0
BLOCK_RECORD
  5
A5B2
330
1
100
AcDbSymbolTableRecord
100
AcDbBlockTableRecord
  2
*D27
340
0
  0
BLOCK_RECORD
  5
A5BE
330
1
100
AcDbSymbolTableRecord
100
AcDbBlockTableRecord
  2
*D28
340
0
  0
BLOCK_RECORD
  5
A5CA
330
1
100
AcDbSymbolTableRecord
100
AcDbBlockTableRecord
  2
*D29
340
0
  0
BLOCK_RECORD
  5
A5D6
330
1
100
AcDbSymbolTableRecord
100
AcDbBlockTableRecord
  2
*D30
340
0
  0
BLOCK_RECORD
  5
AE56
330
1
100
AcDbSymbolTableRecord
100
AcDbBlockTableRecord
  2
*D31
340
0
  0
BLOCK_RECORD
  5
AE62
330
1
100
AcDbSymbolTableRecord
100
AcDbBlockTableRecord
  2
*D32
340
0
  0
BLOCK_RECORD
  5
AE6E
330
1
100
AcDbSymbolTableRecord
100
AcDbBlockTableRecord
  2
*D33
340
0
  0
BLOCK_RECORD
  5
AE7A
330
1
100
AcDbSymbolTableRecord
100
AcDbBlockTableRecord
  2
*D34
340
0
  0
BLOCK_RECORD
  5
AE86
330
1
100
AcDbSymbolTableRecord
100
AcDbBlockTableRecord
  2
*D35
340
0
  0
BLOCK_RECORD
  5
AE92
330
1
100
AcDbSymbolTableRecord
100
AcDbBlockTableRecord
  2
*D36
340
0
  0
BLOCK_RECORD
  5
AEA0
330
1
100
AcDbSymbolTableRecord
100
AcDbBlockTableRecord
  2
*D37
340
0
  0
BLOCK_RECORD
  5
AEAC
330
1
100
AcDbSymbolTableRecord
100
AcDbBlockTableRecord
  2
*D38
340
0
  0
BLOCK_RECORD
  5
AEB8
330
1
100
AcDbSymbolTableRecord
100
AcDbBlockTableRecord
  2
*D39
340
0
  0
BLOCK_RECORD
  5
AEC4
330
1
100
AcDbSymbolTableRecord
100
AcDbBlockTableRecord
  2
*D40
340
0
  0
BLOCK_RECORD
  5
AED2
330
1
100
AcDbSymbolTableRecord
100
AcDbBlockTableRecord
  2
*D41
340
0
  0
BLOCK_RECORD
  5
AEE0
330
1
100
AcDbSymbolTableRecord
100
AcDbBlockTableRecord
  2
*D42
340
0
  0
BLOCK_RECORD
  5
AEEE
330
1
100
AcDbSymbolTableRecord
100
AcDbBlockTableRecord
  2
*D43
340
0
  0
BLOCK_RECORD
  5
AEFA
330
1
100
AcDbSymbolTableRecord
100
AcDbBlockTableRecord
  2
*D44
340
0
  0
BLOCK_RECORD
  5
AF06
330
1
100
AcDbSymbolTableRecord
100
AcDbBlockTableRecord
  2
*D45
340
0
  0
BLOCK_RECORD
  5
AF12
330
1
100
AcDbSymbolTableRecord
100
AcDbBlockTableRecord
  2
*D46
340
0
  0
BLOCK_RECORD
  5
AF1E
330
1
100
AcDbSymbolTableRecord
100
AcDbBlockTableRecord
  2
*D47
340
0
  0
BLOCK_RECORD
  5
B0AE
330
1
100
AcDbSymbolTableRecord
100
AcDbBlockTableRecord
  2
*D48
340
0
  0
BLOCK_RECORD
  5
B0F5
330
1
100
AcDbSymbolTableRecord
100
AcDbBlockTableRecord
  2
*D49
340
0
  0
BLOCK_RECORD
  5
B11D
330
1
100
AcDbSymbolTableRecord
100
AcDbBlockTableRecord
  2
*D50
340
0
  0
ENDTAB
  0
ENDSEC
  0
SECTION
  2
BLOCKS
  0
BLOCK
  5
38
330
37
100
AcDbEntity
  8
0
100
AcDbBlockBegin
  2
*Model_Space
 70
     0
 10
0.0
 20
0.0
 30
0.0
  3
*Model_Space
  1

  0
ENDBLK
  5
39
330
37
100
AcDbEntity
  8
0
100
AcDbBlockEnd
  0
BLOCK
  5
34
330
33
100
AcDbEntity
 67
     1
  8
0
100
AcDbBlockBegin
  2
*Paper_Space
 70
     0
 10
0.0
 20
0.0
 30
0.0
  3
*Paper_Space
  1

  0
ENDBLK
  5
35
330
33
100
AcDbEntity
 67
     1
  8
0
100
AcDbBlockEnd
  0
BLOCK
  5
3C
330
3B
100
AcDbEntity
 67
     1
  8
0
100
AcDbBlockBegin
  2
*Paper_Space0
 70
     0
 10
0.0
 20
0.0
 30
0.0
  3
*Paper_Space0
  1

  0
ENDBLK
  5
3D
330
3B
100
AcDbEntity
 67
     1
  8
0
100
AcDbBlockEnd
  0
BLOCK
  5
4A
330
49
100
AcDbEntity
  8
0
100
AcDbBlockBegin
  2
Title_A4P
 70
     2
 10
0.0
 20
0.0
 30
0.0
  3
Title_A4P
  1

  4
Schriftfeld A4 hoch
  0
MTEXT
  5
4B
330
49
100
AcDbEntity
  8
92000_TITLE
100
AcDbMText
 10
-110.0
 20
12.0
 30
0.0
 40
3.5
 41
40.0
 71
     5
 72
     5
  1
{\fSiemens Logo|b0|i0|c0|p2;s}
 73
     1
 44
1.0
1001
ACAD
1000
MTEXTBEGIN
1070
    73
1070
     1
1070
    44
1040
1.0
1070
    74
1070
     0
1000
MTEXTEND
  0
LINE
  5
4C
330
49
100
AcDbEntity
  8
92000_TITLE
100
AcDbLine
 10
0.0
 20
6.0
 30
0.0
 11
-135.0
 21
6.0
 31
0.0
1001
GENIUS_GENREC_14
1002
{
1000
PYDIR
1011
-135.0
1021
18.0
1031
0.0
1002
}
1002
{
1000
PXDIR
1011
0.0
1021
0.0
1031
0.0
1002
}
1002
{
1000
PORI
1011
-135.0
1021
0.0
1031
0.0
1002
}
1002
{
1000
PINS
1011
-135.0
1021
0.0
1031
0.0
1002
}
1002
{
1000
HVAL
1000
18
1002
}
1002
{
1000
H
1070
     2
1002
}
1002
{
1000
WVAL
1000
135
1002
}
1002
{
1000
W
1070
     2
1002
}
1002
{
1000
C
1070
     1
1002
}
1001
GENIUS_GENOBJ-N-REC_13
1002
{
1000
OWNER
1000
GEN
1002
}
1001
GENIUS_GENODEF_13
1002
{
1000
HIER
1070
     0
1002
}
1002
{
1000
MANEDIT
1070
     0
1002
}
1002
{
1000
NOSEL
1070
     0
1002
}
1002
{
1000
BEHIND
1070
     0
1002
}
1002
{
1000
OTHER
1070
     0
1002
}
1002
{
1000
REACTOR
1002
}
  0
LINE
  5
4D
330
49
100
AcDbEntity
  8
92000_TITLE
100
AcDbLine
 10
0.0
 20
18.0
 30
0.0
 11
-135.0
 21
18.0
 31
0.0
1001
GENIUS_GENREC_14
1002
{
1000
PYDIR
1011
-135.0
1021
18.0
1031
0.0
1002
}
1002
{
1000
PXDIR
1011
0.0
1021
0.0
1031
0.0
1002
}
1002
{
1000
PORI
1011
-135.0
1021
0.0
1031
0.0
1002
}
1002
{
1000
PINS
1011
-135.0
1021
0.0
1031
0.0
1002
}
1002
{
1000
HVAL
1000
18
1002
}
1002
{
1000
H
1070
     2
1002
}
1002
{
1000
WVAL
1000
135
1002
}
1002
{
1000
W
1070
     2
1002
}
1002
{
1000
C
1070
     1
1002
}
1001
GENIUS_GENOBJ-N-REC_13
1002
{
1000
OWNER
1000
GEN
1002
}
1001
GENIUS_GENODEF_13
1002
{
1000
HIER
1070
     0
1002
}
1002
{
1000
MANEDIT
1070
     0
1002
}
1002
{
1000
NOSEL
1070
     0
1002
}
1002
{
1000
BEHIND
1070
     0
1002
}
1002
{
1000
OTHER
1070
     0
1002
}
1002
{
1000
REACTOR
1002
}
  0
LINE
  5
4E
330
49
100
AcDbEntity
  8
92000_TITLE
100
AcDbLine
 10
-135.0
 20
0.0
 30
0.0
 11
0.0
 21
0.0
 31
0.0
1001
GENIUS_GENREC_14
1002
{
1000
PYDIR
1011
-135.0
1021
18.0
1031
0.0
1002
}
1002
{
1000
PXDIR
1011
0.0
1021
0.0
1031
0.0
1002
}
1002
{
1000
PORI
1011
-135.0
1021
0.0
1031
0.0
1002
}
1002
{
1000
PINS
1011
-135.0
1021
0.0
1031
0.0
1002
}
1002
{
1000
HVAL
1000
18
1002
}
1002
{
1000
H
1070
     2
1002
}
1002
{
1000
WVAL
1000
135
1002
}
1002
{
1000
W
1070
     2
1002
}
1002
{
1000
C
1070
     1
1002
}
1001
GENIUS_GENOBJ-N-REC_13
1002
{
1000
OWNER
1000
GEN
1002
}
1001
GENIUS_GENODEF_13
1002
{
1000
HIER
1070
     0
1002
}
1002
{
1000
MANEDIT
1070
     0
1002
}
1002
{
1000
NOSEL
1070
     0
1002
}
1002
{
1000
BEHIND
1070
     0
1002
}
1002
{
1000
OTHER
1070
     0
1002
}
1002
{
1000
REACTOR
1002
}
  0
TEXT
  5
4F
330
49
100
AcDbEntity
  8
91000_TIP
  6
Continuous
 62
     7
100
AcDbText
 10
-134.9906185411919
 20
23.07158622517954
 30
0.0
 40
2.2
  1
Alle Bemassungswerte sind in Millimeter (mm) angegeben.
 41
0.825031133249999
 72
     5
 11
-46.65728520789184
 21
23.07158622517954
 31
0.0
100
AcDbText
  0
TEXT
  5
50
330
49
100
AcDbEntity
  8
91000_TIP
  6
Continuous
 62
     7
100
AcDbText
 10
-134.9906185411919
 20
19.9425638213338
 30
0.0
 40
2.2
  1
All dimensions are in millimeters (mm)
 41
0.9608678382598293
 72
     5
 11
-68.05015914242381
 21
19.9425638213338
 31
0.0
100
AcDbText
  0
LINE
  5
51
330
49
100
AcDbEntity
  8
92000_TITLE
100
AcDbLine
 10
-135.0
 20
18.0
 30
0.0
 11
-135.0
 21
0.0
 31
0.0
1001
GENIUS_GENREC_14
1002
{
1000
PYDIR
1011
-135.0
1021
18.0
1031
0.0
1002
}
1002
{
1000
PXDIR
1011
0.0
1021
0.0
1031
0.0
1002
}
1002
{
1000
PORI
1011
-135.0
1021
0.0
1031
0.0
1002
}
1002
{
1000
PINS
1011
-135.0
1021
0.0
1031
0.0
1002
}
1002
{
1000
HVAL
1000
18
1002
}
1002
{
1000
H
1070
     2
1002
}
1002
{
1000
WVAL
1000
135
1002
}
1002
{
1000
W
1070
     2
1002
}
1002
{
1000
C
1070
     1
1002
}
1001
GENIUS_GENOBJ-N-REC_13
1002
{
1000
OWNER
1000
GEN
1002
}
1001
GENIUS_GENODEF_13
1002
{
1000
HIER
1070
     0
1002
}
1002
{
1000
MANEDIT
1070
     0
1002
}
1002
{
1000
NOSEL
1070
     0
1002
}
1002
{
1000
BEHIND
1070
     0
1002
}
1002
{
1000
OTHER
1070
     0
1002
}
1002
{
1000
REACTOR
1002
}
  0
LINE
  5
52
330
49
100
AcDbEntity
  8
91100_TIP_SYM
 48
0.5
100
AcDbLine
 10
-147.5
 20
16.0
 30
0.0
 11
-147.5
 21
2.0
 31
0.0
  0
LINE
  5
53
330
49
100
AcDbEntity
  8
91100_TIP_SYM
 48
0.5
100
AcDbLine
 10
-169.5
 20
9.0
 30
0.0
 11
-140.5
 21
9.0
 31
0.0
  0
LINE
  5
54
330
49
100
AcDbEntity
  8
91200_TIP_SYMB
100
AcDbLine
 10
-167.5
 20
12.5
 30
0.0
 11
-155.0
 21
14.0
 31
0.0
  0
LINE
  5
55
330
49
100
AcDbEntity
  8
91200_TIP_SYMB
100
AcDbLine
 10
-155.0
 20
4.0
 30
0.0
 11
-167.5
 21
5.5
 31
0.0
  0
LINE
  5
56
330
49
100
AcDbEntity
  8
91200_TIP_SYMB
100
AcDbLine
 10
-167.5
 20
5.5
 30
0.0
 11
-167.5
 21
12.5
 31
0.0
  0
CIRCLE
  5
57
330
49
100
AcDbEntity
  8
91200_TIP_SYMB
100
AcDbCircle
 10
-147.5
 20
9.0
 30
0.0
 40
2.0
  0
LINE
  5
58
330
49
100
AcDbEntity
  8
91200_TIP_SYMB
100
AcDbLine
 10
-155.0
 20
14.0
 30
0.0
 11
-155.0
 21
4.0
 31
0.0
  0
CIRCLE
  5
59
330
49
100
AcDbEntity
  8
91200_TIP_SYMB
100
AcDbCircle
 10
-147.5
 20
9.0
 30
0.0
 40
5.0
  0
ATTDEF
  5
5A
330
49
100
AcDbEntity
  8
92000_TITLE
100
AcDbText
 10
-116.9999999999995
 20
1.75
 30
0.0
 40
2.5
  1

 72
     1
 11
-116.9999999999995
 21
3.0
 31
0.0
100
AcDbAttributeDefinition
  3
Datum
  2
DATUM
 70
     0
 74
     2
  0
MTEXT
  5
5B
330
49
100
AcDbEntity
  8
92000_TITLE
100
AcDbMText
 10
-127.75
 20
3.0
 30
0.0
 40
2.5
 41
11.0
 71
     5
 72
     5
  1
Date:
 73
     1
 44
1.0
1001
ACAD
1000
MTEXTBEGIN
1070
    73
1070
     1
1070
    44
1040
1.0
1070
    74
1070
     0
1000
MTEXTEND
  0
MTEXT
  5
5C
330
49
100
AcDbEntity
  8
92000_TITLE
100
AcDbMText
 10
-102.75
 20
3.0
 30
0.0
 40
2.5
 41
11.0
 71
     5
 72
     5
  1
Name:
 73
     1
 44
1.0
1001
ACAD
1000
MTEXTBEGIN
1070
    73
1070
     1
1070
    44
1040
1.0
1070
    74
1070
     0
1000
MTEXTEND
  0
LINE
  5
5D
330
49
100
AcDbEntity
  8
92000_TITLE
100
AcDbLine
 10
-110.0
 20
6.0
 30
0.0
 11
-110.0
 21
0.0
 31
0.0
1001
GENIUS_GENREC_14
1002
{
1000
PYDIR
1011
-135.0
1021
18.0
1031
0.0
1002
}
1002
{
1000
PXDIR
1011
0.0
1021
0.0
1031
0.0
1002
}
1002
{
1000
PORI
1011
-135.0
1021
0.0
1031
0.0
1002
}
1002
{
1000
PINS
1011
-135.0
1021
0.0
1031
0.0
1002
}
1002
{
1000
HVAL
1000
18
1002
}
1002
{
1000
H
1070
     2
1002
}
1002
{
1000
WVAL
1000
135
1002
}
1002
{
1000
W
1070
     2
1002
}
1002
{
1000
C
1070
     1
1002
}
1001
GENIUS_GENOBJ-N-REC_13
1002
{
1000
OWNER
1000
GEN
1002
}
1001
GENIUS_GENODEF_13
1002
{
1000
HIER
1070
     0
1002
}
1002
{
1000
MANEDIT
1070
     0
1002
}
1002
{
1000
NOSEL
1070
     0
1002
}
1002
{
1000
BEHIND
1070
     0
1002
}
1002
{
1000
OTHER
1070
     0
1002
}
1002
{
1000
REACTOR
1002
}
  0
MTEXT
  5
5E
330
49
100
AcDbEntity
  8
92000_TITLE
100
AcDbMText
 10
-21.25
 20
3.0
 30
0.0
 40
2.5
 41
42.5
 71
     5
 72
     5
  1
Massstab/Scale: 1:1
 73
     1
 44
1.0
1001
ACAD
1000
MTEXTBEGIN
1070
    73
1070
     1
1070
    44
1040
1.0
1070
    74
1070
     0
1000
MTEXTEND
  0
LINE
  5
5F
330
49
100
AcDbEntity
  8
92000_TITLE
100
AcDbLine
 10
-85.0
 20
18.0
 30
0.0
 11
-85.0
 21
0.0
 31
0.0
1001
GENIUS_GENREC_14
1002
{
1000
PYDIR
1011
-135.0
1021
18.0
1031
0.0
1002
}
1002
{
1000
PXDIR
1011
0.0
1021
0.0
1031
0.0
1002
}
1002
{
1000
PORI
1011
-135.0
1021
0.0
1031
0.0
1002
}
1002
{
1000
PINS
1011
-135.0
1021
0.0
1031
0.0
1002
}
1002
{
1000
HVAL
1000
18
1002
}
1002
{
1000
H
1070
     2
1002
}
1002
{
1000
WVAL
1000
135
1002
}
1002
{
1000
W
1070
     2
1002
}
1002
{
1000
C
1070
     1
1002
}
1001
GENIUS_GENOBJ-N-REC_13
1002
{
1000
OWNER
1000
GEN
1002
}
1001
GENIUS_GENODEF_13
1002
{
1000
HIER
1070
     0
1002
}
1002
{
1000
MANEDIT
1070
     0
1002
}
1002
{
1000
NOSEL
1070
     0
1002
}
1002
{
1000
BEHIND
1070
     0
1002
}
1002
{
1000
OTHER
1070
     0
1002
}
1002
{
1000
REACTOR
1002
}
  0
MTEXT
  5
60
330
49
100
AcDbEntity
  8
92000_TITLE
100
AcDbMText
 10
-63.75
 20
3.0
 30
0.0
 40
2.5
 41
42.5
 71
     5
 72
     5
  1
Format/Size: DIN A4
 73
     1
 44
1.0
1001
ACAD
1000
MTEXTBEGIN
1070
    73
1070
     1
1070
    44
1040
1.0
1070
    74
1070
     0
1000
MTEXTEND
  0
ATTDEF
  5
61
330
49
100
AcDbEntity
  8
92000_TITLE
100
AcDbText
 10
-42.49999999999952
 20
12.25000000000011
 30
0.0
 40
3.5
  1

 72
     1
 11
-42.49999999999952
 21
14.00000000000011
 31
0.0
100
AcDbAttributeDefinition
  3
Z-Name
  2
ZEICHNUNGSNAME
 70
     0
 74
     2
  0
ATTDEF
  5
62
330
49
100
AcDbEntity
  8
92000_TITLE
100
AcDbText
 10
-91.99999999999954
 20
1.75
 30
0.0
 40
2.5
  1

 72
     1
 11
-91.99999999999954
 21
3.0
 31
0.0
100
AcDbAttributeDefinition
  3
Name
  2
NAME
 70
     0
 74
     2
  0
ATTDEF
  5
63
330
49
100
AcDbEntity
  8
92000_TITLE
100
AcDbText
 10
-42.49999999999952
 20
6.75000000000011
 30
0.0
 40
2.5
  1

 72
     1
 11
-42.49999999999952
 21
8.00000000000011
 31
0.0
100
AcDbAttributeDefinition
  3
A-Name
  2
ARTIKELNAME
 70
     0
 74
     2
  0
LINE
  5
64
330
49
100
AcDbEntity
  8
92000_TITLE
100
AcDbLine
 10
-42.5
 20
0.0
 30
0.0
 11
-42.5
 21
6.0
 31
0.0
1001
GENIUS_GENREC_14
1002
{
1000
PYDIR
1011
-135.0
1021
18.0
1031
0.0
1002
}
1002
{
1000
PXDIR
1011
0.0
1021
0.0
1031
0.0
1002
}
1002
{
1000
PORI
1011
-135.0
1021
0.0
1031
0.0
1002
}
1002
{
1000
PINS
1011
-135.0
1021
0.0
1031
0.0
1002
}
1002
{
1000
HVAL
1000
18
1002
}
1002
{
1000
H
1070
     2
1002
}
1002
{
1000
WVAL
1000
135
1002
}
1002
{
1000
W
1070
     2
1002
}
1002
{
1000
C
1070
     1
1002
}
1001
GENIUS_GENOBJ-N-REC_13
1002
{
1000
OWNER
1000
GEN
1002
}
1001
GENIUS_GENODEF_13
1002
{
1000
HIER
1070
     0
1002
}
1002
{
1000
MANEDIT
1070
     0
1002
}
1002
{
1000
NOSEL
1070
     0
1002
}
1002
{
1000
BEHIND
1070
     0
1002
}
1002
{
1000
OTHER
1070
     0
1002
}
1002
{
1000
REACTOR
1002
}
  0
LINE
  5
65
330
49
100
AcDbEntity
  8
92000_TITLE
100
AcDbLine
 10
0.0
 20
0.0
 30
0.0
 11
0.0
 21
18.0
 31
0.0
1001
GENIUS_GENREC_14
1002
{
1000
PYDIR
1011
-135.0
1021
18.0
1031
0.0
1002
}
1002
{
1000
PXDIR
1011
0.0
1021
0.0
1031
0.0
1002
}
1002
{
1000
PORI
1011
-135.0
1021
0.0
1031
0.0
1002
}
1002
{
1000
PINS
1011
-135.0
1021
0.0
1031
0.0
1002
}
1002
{
1000
HVAL
1000
18
1002
}
1002
{
1000
H
1070
     2
1002
}
1002
{
1000
WVAL
1000
135
1002
}
1002
{
1000
W
1070
     2
1002
}
1002
{
1000
C
1070
     1
1002
}
1001
GENIUS_GENOBJ-N-REC_13
1002
{
1000
OWNER
1000
GEN
1002
}
1001
GENIUS_GENODEF_13
1002
{
1000
HIER
1070
     0
1002
}
1002
{
1000
MANEDIT
1070
     0
1002
}
1002
{
1000
NOSEL
1070
     0
1002
}
1002
{
1000
BEHIND
1070
     0
1002
}
1002
{
1000
OTHER
1070
     0
1002
}
1002
{
1000
REACTOR
1002
}
  0
ENDBLK
  5
66
330
49
100
AcDbEntity
  8
0
100
AcDbBlockEnd
  0
BLOCK
  5
A390
330
A387
100
AcDbEntity
  8
0
100
AcDbBlockBegin
  2
*D2
 70
     1
 10
0.0
 20
0.0
 30
0.0
  3
*D2
  1

  0
LINE
  5
A48D
330
A387
100
AcDbEntity
  8
10100_FRONT_DIM
370
    -2
100
AcDbLine
 10
28.81054762156948
 20
106.6278294062337
 30
0.0
 11
43.59615919002804
 21
124.4651791159462
 31
0.0
  0
LINE
  5
A48E
330
A387
100
AcDbEntity
  8
10100_FRONT_DIM
370
    -2
100
AcDbLine
 10
51.44569680997189
 20
133.9348548840538
 30
0.0
 11
53.6793050758096
 21
136.6294780701007
 31
0.0
  0
MTEXT
  5
A48F
330
A387
100
AcDbEntity
  8
10100_FRONT_DIM
 62
     7
370
    18
100
AcDbMText
 10
30.74778915298697
 20
112.4906013827778
 30
0.0
 40
3.5
 41
0.0
 71
     5
 72
     1
  1
\A1;\U+22055.3
 11
0.6381737902393433
 21
0.7698923388705401
 31
0.0
 73
     1
 44
1.0
1001
ACAD
1000
MTEXTBEGIN
1070
    73
1070
     1
1070
    44
1040
1.0
1070
    74
1070
     0
1000
MTEXTEND
  0
LINE
  5
A490
330
A387
100
AcDbEntity
  8
10100_FRONT_DIM
370
    -2
100
AcDbLine
 10
49.2120885441342
 20
131.2402316980069
 30
0.0
 11
45.82976745586575
 21
127.1598023019931
 31
0.0
  0
SOLID
  5
A491
330
A387
100
AcDbEntity
  8
10100_FRONT_DIM
100
AcDbTrace
 10
50.99659294563075
 20
134.3071229283601
 30
0.0
 11
51.89480067431304
 21
133.5625868397475
 31
0.0
 12
49.2120885441342
 22
131.2402316980069
 32
0.0
 13
49.2120885441342
 23
131.2402316980069
 33
0.0
  0
SOLID
  5
A492
330
A387
100
AcDbEntity
  8
10100_FRONT_DIM
100
AcDbTrace
 10
43.14705532568688
 20
124.8374471602525
 30
0.0
 11
44.04526305436919
 21
124.0929110716399
 31
0.0
 12
45.82976745586575
 22
127.1598023019931
 32
0.0
 13
45.82976745586575
 23
127.1598023019931
 33
0.0
  0
POINT
  5
A493
330
A387
100
AcDbEntity
  8
Defpoints
 62
     0
100
AcDbPoint
 10
45.82976745586575
 20
127.1598023019931
 30
0.0
  0
POINT
  5
A494
330
A387
100
AcDbEntity
  8
Defpoints
 62
     0
100
AcDbPoint
 10
49.2120885441342
 20
131.2402316980069
 30
0.0
  0
ENDBLK
  5
A391
330
A387
100
AcDbEntity
  8
0
100
AcDbBlockEnd
  0
BLOCK
  5
A39C
330
A392
100
AcDbEntity
  8
0
100
AcDbBlockBegin
  2
*D3
 70
     1
 10
0.0
 20
0.0
 30
0.0
  3
*D3
  1

  0
LINE
  5
A495
330
A392
100
AcDbEntity
  8
11100_LEFT_DIM
 62
     7
370
    -2
100
AcDbLine
 10
142.531568
 20
123.700017
 30
0.0
 11
142.531568
 21
108.700018
 31
0.0
  0
LINE
  5
A496
330
A392
100
AcDbEntity
  8
11100_LEFT_DIM
 62
     7
370
    -2
100
AcDbLine
 10
157.831568
 20
123.700017
 30
0.0
 11
157.831568
 21
108.700018
 31
0.0
  0
LINE
  5
A497
330
A392
100
AcDbEntity
  8
11100_LEFT_DIM
370
    -2
100
AcDbLine
 10
146.031568
 20
110.700018
 30
0.0
 11
154.331568
 21
110.700018
 31
0.0
  0
SOLID
  5
A498
330
A392
100
AcDbEntity
  8
11100_LEFT_DIM
100
AcDbTrace
 10
146.031568
 20
111.2833513333333
 30
0.0
 11
146.031568
 21
110.1166846666667
 31
0.0
 12
142.531568
 22
110.700018
 32
0.0
 13
142.531568
 23
110.700018
 33
0.0
  0
SOLID
  5
A499
330
A392
100
AcDbEntity
  8
11100_LEFT_DIM
100
AcDbTrace
 10
154.331568
 20
111.2833513333333
 30
0.0
 11
154.331568
 21
110.1166846666667
 31
0.0
 12
157.831568
 22
110.700018
 32
0.0
 13
157.831568
 23
110.700018
 33
0.0
  0
MTEXT
  5
A49A
330
A392
100
AcDbEntity
  8
11100_LEFT_DIM
 62
     7
370
    18
100
AcDbMText
 10
150.181568
 20
112.950018
 30
0.0
 40
3.5
 41
0.0
 71
     5
 72
     1
  1
\A1;15.3
 73
     1
 44
1.0
1001
ACAD
1000
MTEXTBEGIN
1070
    73
1070
     1
1070
    44
1040
1.0
1070
    74
1070
     0
1000
MTEXTEND
  0
POINT
  5
A49B
330
A392
100
AcDbEntity
  8
Defpoints
 62
     0
100
AcDbPoint
 10
142.531568
 20
123.700017
 30
0.0
  0
POINT
  5
A49C
330
A392
100
AcDbEntity
  8
Defpoints
 62
     0
100
AcDbPoint
 10
157.831568
 20
123.700017
 30
0.0
  0
POINT
  5
A49D
330
A392
100
AcDbEntity
  8
Defpoints
 62
     0
100
AcDbPoint
 10
157.831568
 20
110.700018
 30
0.0
  0
ENDBLK
  5
A39D
330
A392
100
AcDbEntity
  8
0
100
AcDbBlockEnd
  0
BLOCK
  5
A3A8
330
A39E
100
AcDbEntity
  8
0
100
AcDbBlockBegin
  2
*D4
 70
     1
 10
0.0
 20
0.0
 30
0.0
  3
*D4
  1

  0
LINE
  5
A49E
330
A39E
100
AcDbEntity
  8
11100_LEFT_DIM
 62
     7
370
    -2
100
AcDbLine
 10
142.531568
 20
123.700017
 30
0.0
 11
142.531568
 21
98.70001800000002
 31
0.0
  0
LINE
  5
A49F
330
A39E
100
AcDbEntity
  8
11100_LEFT_DIM
 62
     7
370
    -2
100
AcDbLine
 10
179.831568
 20
123.700017
 30
0.0
 11
179.831568
 21
98.70001800000002
 31
0.0
  0
LINE
  5
A4A0
330
A39E
100
AcDbEntity
  8
11100_LEFT_DIM
370
    -2
100
AcDbLine
 10
146.031568
 20
100.700018
 30
0.0
 11
176.331568
 21
100.700018
 31
0.0
  0
SOLID
  5
A4A1
330
A39E
100
AcDbEntity
  8
11100_LEFT_DIM
100
AcDbTrace
 10
146.031568
 20
101.2833513333333
 30
0.0
 11
146.031568
 21
100.1166846666666
 31
0.0
 12
142.531568
 22
100.700018
 32
0.0
 13
142.531568
 23
100.700018
 33
0.0
  0
SOLID
  5
A4A2
330
A39E
100
AcDbEntity
  8
11100_LEFT_DIM
100
AcDbTrace
 10
176.331568
 20
101.2833513333333
 30
0.0
 11
176.331568
 21
100.1166846666666
 31
0.0
 12
179.831568
 22
100.700018
 32
0.0
 13
179.831568
 23
100.700018
 33
0.0
  0
MTEXT
  5
A4A3
330
A39E
100
AcDbEntity
  8
11100_LEFT_DIM
 62
     7
370
    18
100
AcDbMText
 10
161.181568
 20
102.950018
 30
0.0
 40
3.5
 41
0.0
 71
     5
 72
     1
  1
\A1;37.3
 73
     1
 44
1.0
1001
ACAD
1000
MTEXTBEGIN
1070
    73
1070
     1
1070
    44
1040
1.0
1070
    74
1070
     0
1000
MTEXTEND
  0
POINT
  5
A4A4
330
A39E
100
AcDbEntity
  8
Defpoints
 62
     0
100
AcDbPoint
 10
142.531568
 20
123.700017
 30
0.0
  0
POINT
  5
A4A5
330
A39E
100
AcDbEntity
  8
Defpoints
 62
     0
100
AcDbPoint
 10
179.831568
 20
123.700017
 30
0.0
  0
POINT
  5
A4A6
330
A39E
100
AcDbEntity
  8
Defpoints
 62
     0
100
AcDbPoint
 10
179.831568
 20
100.700018
 30
0.0
  0
ENDBLK
  5
A3A9
330
A39E
100
AcDbEntity
  8
0
100
AcDbBlockEnd
  0
BLOCK
  5
A3B4
330
A3AA
100
AcDbEntity
  8
0
100
AcDbBlockBegin
  2
*D5
 70
     1
 10
0.0
 20
0.0
 30
0.0
  3
*D5
  1

  0
LINE
  5
A4A7
330
A3AA
100
AcDbEntity
  8
11100_LEFT_DIM
 62
     7
370
    -2
100
AcDbLine
 10
142.531568
 20
201.700017
 30
0.0
 11
142.531568
 21
224.700924175947
 31
0.0
  0
LINE
  5
A4A8
330
A3AA
100
AcDbEntity
  8
11100_LEFT_DIM
 62
     7
370
    -2
100
AcDbLine
 10
158.831568
 20
209.400017
 30
0.0
 11
158.831568
 21
224.700924175947
 31
0.0
  0
LINE
  5
A4A9
330
A3AA
100
AcDbEntity
  8
11100_LEFT_DIM
370
    -2
100
AcDbLine
 10
146.031568
 20
222.700924175947
 30
0.0
 11
155.331568
 21
222.700924175947
 31
0.0
  0
SOLID
  5
A4AA
330
A3AA
100
AcDbEntity
  8
11100_LEFT_DIM
100
AcDbTrace
 10
146.031568
 20
223.2842575092803
 30
0.0
 11
146.031568
 21
222.1175908426136
 31
0.0
 12
142.531568
 22
222.700924175947
 32
0.0
 13
142.531568
 23
222.700924175947
 33
0.0
  0
SOLID
  5
A4AB
330
A3AA
100
AcDbEntity
  8
11100_LEFT_DIM
100
AcDbTrace
 10
155.331568
 20
223.2842575092803
 30
0.0
 11
155.331568
 21
222.1175908426136
 31
0.0
 12
158.831568
 22
222.700924175947
 32
0.0
 13
158.831568
 23
222.700924175947
 33
0.0
  0
MTEXT
  5
A4AC
330
A3AA
100
AcDbEntity
  8
11100_LEFT_DIM
 62
     7
370
    18
100
AcDbMText
 10
150.681568
 20
224.9509241759469
 30
0.0
 40
3.5
 41
0.0
 71
     5
 72
     1
  1
\A1;16.3
 73
     1
 44
1.0
1001
ACAD
1000
MTEXTBEGIN
1070
    73
1070
     1
1070
    44
1040
1.0
1070
    74
1070
     0
1000
MTEXTEND
  0
POINT
  5
A4AD
330
A3AA
100
AcDbEntity
  8
Defpoints
 62
     0
100
AcDbPoint
 10
142.531568
 20
201.700017
 30
0.0
  0
POINT
  5
A4AE
330
A3AA
100
AcDbEntity
  8
Defpoints
 62
     0
100
AcDbPoint
 10
158.831568
 20
209.400017
 30
0.0
  0
POINT
  5
A4AF
330
A3AA
100
AcDbEntity
  8
Defpoints
 62
     0
100
AcDbPoint
 10
158.831568
 20
222.700924175947
 30
0.0
  0
ENDBLK
  5
A3B5
330
A3AA
100
AcDbEntity
  8
0
100
AcDbBlockEnd
  0
BLOCK
  5
A3C0
330
A3B6
100
AcDbEntity
  8
0
100
AcDbBlockBegin
  2
*D6
 70
     1
 10
0.0
 20
0.0
 30
0.0
  3
*D6
  1

  0
LINE
  5
A4B0
330
A3B6
100
AcDbEntity
  8
10100_FRONT_DIM
 62
     7
370
    -2
100
AcDbLine
 10
42.27092900000002
 20
124.700017
 30
0.0
 11
42.27092900000002
 21
98.70001800000002
 31
0.0
  0
LINE
  5
A4B1
330
A3B6
100
AcDbEntity
  8
10100_FRONT_DIM
 62
     7
370
    -2
100
AcDbLine
 10
82.77092899999997
 20
124.700017
 30
0.0
 11
82.77092899999997
 21
98.70001800000002
 31
0.0
  0
LINE
  5
A4B2
330
A3B6
100
AcDbEntity
  8
10100_FRONT_DIM
370
    -2
100
AcDbLine
 10
45.77092900000002
 20
100.700018
 30
0.0
 11
79.27092899999997
 21
100.700018
 31
0.0
  0
SOLID
  5
A4B3
330
A3B6
100
AcDbEntity
  8
10100_FRONT_DIM
100
AcDbTrace
 10
45.77092900000002
 20
101.2833513333333
 30
0.0
 11
45.77092900000002
 21
100.1166846666666
 31
0.0
 12
42.27092900000002
 22
100.700018
 32
0.0
 13
42.27092900000002
 23
100.700018
 33
0.0
  0
SOLID
  5
A4B4
330
A3B6
100
AcDbEntity
  8
10100_FRONT_DIM
100
AcDbTrace
 10
79.27092899999997
 20
101.2833513333333
 30
0.0
 11
79.27092899999997
 21
100.1166846666666
 31
0.0
 12
82.77092899999997
 22
100.700018
 32
0.0
 13
82.77092899999997
 23
100.700018
 33
0.0
  0
MTEXT
  5
A4B5
330
A3B6
100
AcDbEntity
  8
10100_FRONT_DIM
 62
     7
370
    18
100
AcDbMText
 10
62.520929
 20
102.950018
 30
0.0
 40
3.5
 41
0.0
 71
     5
 72
     1
  1
\A1;40.5
 73
     1
 44
1.0
1001
ACAD
1000
MTEXTBEGIN
1070
    73
1070
     1
1070
    44
1040
1.0
1070
    74
1070
     0
1000
MTEXTEND
  0
POINT
  5
A4B6
330
A3B6
100
AcDbEntity
  8
Defpoints
 62
     0
100
AcDbPoint
 10
42.27092900000002
 20
124.700017
 30
0.0
  0
POINT
  5
A4B7
330
A3B6
100
AcDbEntity
  8
Defpoints
 62
     0
100
AcDbPoint
 10
82.77092899999997
 20
124.700017
 30
0.0
  0
POINT
  5
A4B8
330
A3B6
100
AcDbEntity
  8
Defpoints
 62
     0
100
AcDbPoint
 10
82.77092899999997
 20
100.700018
 30
0.0
  0
ENDBLK
  5
A3C1
330
A3B6
100
AcDbEntity
  8
0
100
AcDbBlockEnd
  0
BLOCK
  5
A3CC
330
A3C2
100
AcDbEntity
  8
0
100
AcDbBlockBegin
  2
*D7
 70
     1
 10
0.0
 20
0.0
 30
0.0
  3
*D7
  1

  0
LINE
  5
A4B9
330
A3C2
100
AcDbEntity
  8
10100_FRONT_DIM
 62
     7
370
    -2
100
AcDbLine
 10
47.52092799999997
 20
126.550017
 30
0.0
 11
47.52092799999997
 21
108.700018
 31
0.0
  0
LINE
  5
A4BA
330
A3C2
100
AcDbEntity
  8
10100_FRONT_DIM
 62
     7
370
    -2
100
AcDbLine
 10
77.52092799999997
 20
125.550017
 30
0.0
 11
77.52092799999997
 21
108.700018
 31
0.0
  0
LINE
  5
A4BB
330
A3C2
100
AcDbEntity
  8
10100_FRONT_DIM
370
    -2
100
AcDbLine
 10
51.02092799999997
 20
110.700018
 30
0.0
 11
74.02092799999997
 21
110.700018
 31
0.0
  0
SOLID
  5
A4BC
330
A3C2
100
AcDbEntity
  8
10100_FRONT_DIM
100
AcDbTrace
 10
51.02092799999997
 20
111.2833513333333
 30
0.0
 11
51.02092799999997
 21
110.1166846666667
 31
0.0
 12
47.52092799999997
 22
110.700018
 32
0.0
 13
47.52092799999997
 23
110.700018
 33
0.0
  0
SOLID
  5
A4BD
330
A3C2
100
AcDbEntity
  8
10100_FRONT_DIM
100
AcDbTrace
 10
74.02092799999997
 20
111.2833513333333
 30
0.0
 11
74.02092799999997
 21
110.1166846666667
 31
0.0
 12
77.52092799999997
 22
110.700018
 32
0.0
 13
77.52092799999997
 23
110.700018
 33
0.0
  0
MTEXT
  5
A4BE
330
A3C2
100
AcDbEntity
  8
10100_FRONT_DIM
 62
     7
370
    18
100
AcDbMText
 10
62.52092799999997
 20
112.950018
 30
0.0
 40
3.5
 41
0.0
 71
     5
 72
     1
  1
\A1;30
 73
     1
 44
1.0
1001
ACAD
1000
MTEXTBEGIN
1070
    73
1070
     1
1070
    44
1040
1.0
1070
    74
1070
     0
1000
MTEXTEND
  0
POINT
  5
A4BF
330
A3C2
100
AcDbEntity
  8
Defpoints
 62
     0
100
AcDbPoint
 10
47.52092799999997
 20
126.550017
 30
0.0
  0
POINT
  5
A4C0
330
A3C2
100
AcDbEntity
  8
Defpoints
 62
     0
100
AcDbPoint
 10
77.52092799999997
 20
125.550017
 30
0.0
  0
POINT
  5
A4C1
330
A3C2
100
AcDbEntity
  8
Defpoints
 62
     0
100
AcDbPoint
 10
77.52092799999997
 20
110.700018
 30
0.0
  0
ENDBLK
  5
A3CD
330
A3C2
100
AcDbEntity
  8
0
100
AcDbBlockEnd
  0
BLOCK
  5
A3DA
330
A3CE
100
AcDbEntity
  8
0
100
AcDbBlockBegin
  2
*D8
 70
     1
 10
0.0
 20
0.0
 30
0.0
  3
*D8
  1

  0
LINE
  5
B0E9
330
A3CE
100
AcDbEntity
  8
10100_FRONT_DIM
 62
     7
370
    -2
100
AcDbLine
 10
62.52092799999997
 20
209.400017
 30
0.0
 11
18.01058100000001
 21
209.400017
 31
0.0
  0
LINE
  5
B0EA
330
A3CE
100
AcDbEntity
  8
10100_FRONT_DIM
 62
     7
370
    -2
100
AcDbLine
 10
46.51899302676517
 20
201.7000170456667
 30
0.0
 11
18.01058100000001
 21
201.7000170456667
 31
0.0
  0
LINE
  5
B0EB
330
A3CE
100
AcDbEntity
  8
10100_FRONT_DIM
370
    -2
100
AcDbLine
 10
20.01058100000001
 20
212.900017
 30
0.0
 11
20.01058100000002
 21
216.400017
 31
0.0
  0
LINE
  5
B0EC
330
A3CE
100
AcDbEntity
  8
10100_FRONT_DIM
370
    -2
100
AcDbLine
 10
20.01058100000001
 20
198.2000170456667
 30
0.0
 11
20.01058100000001
 21
194.7000170456667
 31
0.0
  0
LINE
  5
B0ED
330
A3CE
100
AcDbEntity
  8
10100_FRONT_DIM
370
    -2
100
AcDbLine
 10
20.01058100000001
 20
209.400017
 30
0.0
 11
20.01058100000001
 21
201.7000170456667
 31
0.0
  0
SOLID
  5
B0EE
330
A3CE
100
AcDbEntity
  8
10100_FRONT_DIM
370
    18
100
AcDbTrace
 10
19.42724766666668
 20
212.900017
 30
0.0
 11
20.59391433333335
 21
212.900017
 31
0.0
 12
20.01058100000001
 22
209.400017
 32
0.0
 13
20.01058100000001
 23
209.400017
 33
0.0
  0
SOLID
  5
B0EF
330
A3CE
100
AcDbEntity
  8
10100_FRONT_DIM
370
    18
100
AcDbTrace
 10
19.42724766666668
 20
198.2000170456667
 30
0.0
 11
20.59391433333334
 21
198.2000170456667
 31
0.0
 12
20.01058100000001
 22
201.7000170456667
 32
0.0
 13
20.01058100000001
 23
201.7000170456667
 33
0.0
  0
MTEXT
  5
B0F0
330
A3CE
100
AcDbEntity
  8
10100_FRONT_DIM
 62
     7
370
    18
100
AcDbMText
 10
17.76058099999998
 20
205.5500170228333
 30
0.0
 40
3.5
 41
0.0
 71
     5
 72
     1
  1
\A1;7.7
 11
0.0000000000000001
 21
1.0
 31
0.0
 73
     1
 44
1.0
1001
ACAD
1000
MTEXTBEGIN
1070
    73
1070
     1
1070
    44
1040
1.0
1070
    74
1070
     0
1000
MTEXTEND
  0
POINT
  5
B0F1
330
A3CE
100
AcDbEntity
  8
Defpoints
 62
     0
370
    18
100
AcDbPoint
 10
62.52092799999997
 20
209.400017
 30
0.0
  0
POINT
  5
B0F2
330
A3CE
100
AcDbEntity
  8
Defpoints
 62
     0
370
    18
100
AcDbPoint
 10
46.51899302676517
 20
201.7000170456667
 30
0.0
  0
POINT
  5
B0F3
330
A3CE
100
AcDbEntity
  8
Defpoints
 62
     0
370
    18
100
AcDbPoint
 10
20.01058100000001
 20
201.7000170456667
 30
0.0
  0
ENDBLK
  5
A3DB
330
A3CE
100
AcDbEntity
  8
0
100
AcDbBlockEnd
  0
BLOCK
  5
A3E6
330
A3DC
100
AcDbEntity
  8
0
100
AcDbBlockBegin
  2
*D9
 70
     1
 10
0.0
 20
0.0
 30
0.0
  3
*D9
  1

  0
LINE
  5
B0E0
330
A3DC
100
AcDbEntity
  8
10100_FRONT_DIM
 62
     7
370
    -2
100
AcDbLine
 10
46.51899302676517
 20
201.7000170456667
 30
0.0
 11
18.01058100000001
 21
201.7000170456667
 31
0.0
  0
LINE
  5
B0E1
330
A3DC
100
AcDbEntity
  8
10100_FRONT_DIM
 62
     7
370
    -2
100
AcDbLine
 10
43.27092900000002
 20
123.700017
 30
0.0
 11
18.010581
 21
123.700017
 31
0.0
  0
LINE
  5
B0E2
330
A3DC
100
AcDbEntity
  8
10100_FRONT_DIM
370
    -2
100
AcDbLine
 10
20.01058100000001
 20
198.2000170456667
 30
0.0
 11
20.010581
 21
127.200017
 31
0.0
  0
SOLID
  5
B0E3
330
A3DC
100
AcDbEntity
  8
10100_FRONT_DIM
370
    18
100
AcDbTrace
 10
19.42724766666668
 20
198.2000170456667
 30
0.0
 11
20.59391433333335
 21
198.2000170456667
 31
0.0
 12
20.01058100000002
 22
201.7000170456667
 32
0.0
 13
20.01058100000002
 23
201.7000170456667
 33
0.0
  0
SOLID
  5
B0E4
330
A3DC
100
AcDbEntity
  8
10100_FRONT_DIM
370
    18
100
AcDbTrace
 10
19.42724766666666
 20
127.200017
 30
0.0
 11
20.59391433333333
 21
127.200017
 31
0.0
 12
20.010581
 22
123.700017
 32
0.0
 13
20.010581
 23
123.700017
 33
0.0
  0
MTEXT
  5
B0E5
330
A3DC
100
AcDbEntity
  8
10100_FRONT_DIM
 62
     7
370
    18
100
AcDbMText
 10
17.76058099999998
 20
162.7000170228333
 30
0.0
 40
3.5
 41
0.0
 71
     5
 72
     1
  1
\A1;78
 11
0.0000000000000001
 21
1.0
 31
0.0
 73
     1
 44
1.0
1001
ACAD
1000
MTEXTBEGIN
1070
    73
1070
     1
1070
    44
1040
1.0
1070
    74
1070
     0
1000
MTEXTEND
  0
POINT
  5
B0E6
330
A3DC
100
AcDbEntity
  8
Defpoints
 62
     0
370
    18
100
AcDbPoint
 10
46.51899302676517
 20
201.7000170456667
 30
0.0
  0
POINT
  5
B0E7
330
A3DC
100
AcDbEntity
  8
Defpoints
 62
     0
370
    18
100
AcDbPoint
 10
43.27092900000002
 20
123.700017
 30
0.0
  0
POINT
  5
B0E8
330
A3DC
100
AcDbEntity
  8
Defpoints
 62
     0
370
    18
100
AcDbPoint
 10
20.010581
 20
123.700017
 30
0.0
  0
ENDBLK
  5
A3E7
330
A3DC
100
AcDbEntity
  8
0
100
AcDbBlockEnd
  0
BLOCK
  5
A3F4
330
A3E8
100
AcDbEntity
  8
0
100
AcDbBlockBegin
  2
*D10
 70
     1
 10
0.0
 20
0.0
 30
0.0
  3
*D10
  1

  0
LINE
  5
B141
330
A3E8
100
AcDbEntity
  8
10100_FRONT_DIM
 62
     7
370
    -2
100
AcDbLine
 10
59.04658635146343
 20
208.0581308844744
 30
0.0
 11
59.04658635146343
 21
224.400017
 31
0.0
  0
LINE
  5
B142
330
A3E8
100
AcDbEntity
  8
10100_FRONT_DIM
 62
     7
370
    -2
100
AcDbLine
 10
66.02092800000001
 20
208.0581308844744
 30
0.0
 11
66.02092800000001
 21
224.400017
 31
0.0
  0
LINE
  5
B143
330
A3E8
100
AcDbEntity
  8
10100_FRONT_DIM
370
    -2
100
AcDbLine
 10
55.54658635146343
 20
222.400017
 30
0.0
 11
52.04658635146343
 21
222.400017
 31
0.0
  0
LINE
  5
B144
330
A3E8
100
AcDbEntity
  8
10100_FRONT_DIM
370
    -2
100
AcDbLine
 10
69.52092800000001
 20
222.400017
 30
0.0
 11
73.02092800000001
 21
222.400017
 31
0.0
  0
LINE
  5
B145
330
A3E8
100
AcDbEntity
  8
10100_FRONT_DIM
370
    -2
100
AcDbLine
 10
59.04658635146343
 20
222.400017
 30
0.0
 11
66.02092800000001
 21
222.400017
 31
0.0
  0
SOLID
  5
B146
330
A3E8
100
AcDbEntity
  8
10100_FRONT_DIM
370
    18
100
AcDbTrace
 10
55.54658635146343
 20
222.9833503333333
 30
0.0
 11
55.54658635146343
 21
221.8166836666667
 31
0.0
 12
59.04658635146343
 22
222.400017
 32
0.0
 13
59.04658635146343
 23
222.400017
 33
0.0
  0
SOLID
  5
B147
330
A3E8
100
AcDbEntity
  8
10100_FRONT_DIM
370
    18
100
AcDbTrace
 10
69.52092800000001
 20
222.9833503333333
 30
0.0
 11
69.52092800000001
 21
221.8166836666667
 31
0.0
 12
66.02092800000001
 22
222.400017
 32
0.0
 13
66.02092800000001
 23
222.400017
 33
0.0
  0
MTEXT
  5
B148
330
A3E8
100
AcDbEntity
  8
10100_FRONT_DIM
 62
     7
370
    18
100
AcDbMText
 10
62.53375717573172
 20
224.650017
 30
0.0
 40
3.5
 41
0.0
 71
     5
 72
     1
  1
\A1;%%c7
 73
     1
 44
1.0
1001
ACAD
1000
MTEXTBEGIN
1070
    73
1070
     1
1070
    44
1040
1.0
1070
    74
1070
     0
1000
MTEXTEND
  0
POINT
  5
B149
330
A3E8
100
AcDbEntity
  8
Defpoints
 62
     0
370
    18
100
AcDbPoint
 10
59.04658635146343
 20
208.0581308844744
 30
0.0
  0
POINT
  5
B14A
330
A3E8
100
AcDbEntity
  8
Defpoints
 62
     0
370
    18
100
AcDbPoint
 10
66.02092800000001
 20
208.0581308844744
 30
0.0
  0
POINT
  5
B14B
330
A3E8
100
AcDbEntity
  8
Defpoints
 62
     0
370
    18
100
AcDbPoint
 10
66.02092800000001
 20
222.400017
 30
0.0
  0
ENDBLK
  5
A3F5
330
A3E8
100
AcDbEntity
  8
0
100
AcDbBlockEnd
  0
BLOCK
  5
A402
330
A3F6
100
AcDbEntity
  8
0
100
AcDbBlockBegin
  2
*D11
 70
     1
 10
0.0
 20
0.0
 30
0.0
  3
*D11
  1

  0
LINE
  5
A4E1
330
A3F6
100
AcDbEntity
  8
10100_FRONT_DIM
 62
     7
370
    -2
100
AcDbLine
 10
80.170928
 20
128.200017
 30
0.0
 11
97.77092699999997
 21
128.200017
 31
0.0
  0
LINE
  5
A4E2
330
A3F6
100
AcDbEntity
  8
10100_FRONT_DIM
 62
     7
370
    -2
100
AcDbLine
 10
80.170928
 20
130.200017
 30
0.0
 11
97.77092699999997
 21
130.200017
 31
0.0
  0
LINE
  5
A4E3
330
A3F6
100
AcDbEntity
  8
10100_FRONT_DIM
370
    -2
100
AcDbLine
 10
95.77092699999996
 20
124.700017
 30
0.0
 11
95.77092699999996
 21
121.200017
 31
0.0
  0
LINE
  5
A4E4
330
A3F6
100
AcDbEntity
  8
10100_FRONT_DIM
370
    -2
100
AcDbLine
 10
95.77092699999996
 20
133.700017
 30
0.0
 11
95.77092699999996
 21
140.5333503333334
 31
0.0
  0
LINE
  5
A4E5
330
A3F6
100
AcDbEntity
  8
10100_FRONT_DIM
370
    -2
100
AcDbLine
 10
95.77092699999996
 20
128.200017
 30
0.0
 11
95.77092699999996
 21
130.200017
 31
0.0
  0
SOLID
  5
A4E6
330
A3F6
100
AcDbEntity
  8
10100_FRONT_DIM
100
AcDbTrace
 10
95.18759366666664
 20
124.700017
 30
0.0
 11
96.35426033333331
 21
124.700017
 31
0.0
 12
95.77092699999996
 22
128.200017
 32
0.0
 13
95.77092699999996
 23
128.200017
 33
0.0
  0
SOLID
  5
A4E7
330
A3F6
100
AcDbEntity
  8
10100_FRONT_DIM
100
AcDbTrace
 10
95.18759366666664
 20
133.700017
 30
0.0
 11
96.35426033333331
 21
133.700017
 31
0.0
 12
95.77092699999996
 22
130.200017
 32
0.0
 13
95.77092699999996
 23
130.200017
 33
0.0
  0
MTEXT
  5
A4E8
330
A3F6
100
AcDbEntity
  8
10100_FRONT_DIM
 62
     7
370
    18
100
AcDbMText
 10
93.52092699999996
 20
138.8666836666667
 30
0.0
 40
3.5
 41
0.0
 71
     5
 72
     1
  1
\A1;2
 11
0.0000000000000001
 21
1.0
 31
0.0
 73
     1
 44
1.0
1001
ACAD
1000
MTEXTBEGIN
1070
    73
1070
     1
1070
    44
1040
1.0
1070
    74
1070
     0
1000
MTEXTEND
  0
POINT
  5
A4E9
330
A3F6
100
AcDbEntity
  8
Defpoints
 62
     0
100
AcDbPoint
 10
80.170928
 20
128.200017
 30
0.0
  0
POINT
  5
A4EA
330
A3F6
100
AcDbEntity
  8
Defpoints
 62
     0
100
AcDbPoint
 10
80.170928
 20
130.200017
 30
0.0
  0
POINT
  5
A4EB
330
A3F6
100
AcDbEntity
  8
Defpoints
 62
     0
100
AcDbPoint
 10
95.77092699999996
 20
130.200017
 30
0.0
  0
ENDBLK
  5
A403
330
A3F6
100
AcDbEntity
  8
0
100
AcDbBlockEnd
  0
BLOCK
  5
A40E
330
A404
100
AcDbEntity
  8
0
100
AcDbBlockBegin
  2
*D12
 70
     1
 10
0.0
 20
0.0
 30
0.0
  3
*D12
  1

  0
LINE
  5
A4EC
330
A404
100
AcDbEntity
  8
10100_FRONT_DIM
 62
     7
370
    -2
100
AcDbLine
 10
80.170928
 20
128.200017
 30
0.0
 11
107.7709269999999
 21
128.200017
 31
0.0
  0
LINE
  5
A4ED
330
A404
100
AcDbEntity
  8
10100_FRONT_DIM
 62
     7
370
    -2
100
AcDbLine
 10
80.170928
 20
189.200017
 30
0.0
 11
107.7709269999999
 21
189.200017
 31
0.0
  0
LINE
  5
A4EE
330
A404
100
AcDbEntity
  8
10100_FRONT_DIM
370
    -2
100
AcDbLine
 10
105.7709269999999
 20
131.700017
 30
0.0
 11
105.7709269999999
 21
185.700017
 31
0.0
  0
SOLID
  5
A4EF
330
A404
100
AcDbEntity
  8
10100_FRONT_DIM
100
AcDbTrace
 10
105.1875936666665
 20
131.700017
 30
0.0
 11
106.3542603333332
 21
131.700017
 31
0.0
 12
105.7709269999999
 22
128.200017
 32
0.0
 13
105.7709269999999
 23
128.200017
 33
0.0
  0
SOLID
  5
A4F0
330
A404
100
AcDbEntity
  8
10100_FRONT_DIM
100
AcDbTrace
 10
105.1875936666666
 20
185.700017
 30
0.0
 11
106.3542603333332
 21
185.700017
 31
0.0
 12
105.7709269999999
 22
189.200017
 32
0.0
 13
105.7709269999999
 23
189.200017
 33
0.0
  0
MTEXT
  5
A4F1
330
A404
100
AcDbEntity
  8
10100_FRONT_DIM
 62
     7
370
    18
100
AcDbMText
 10
103.5209269999999
 20
158.700017
 30
0.0
 40
3.5
 41
0.0
 71
     5
 72
     1
  1
\A1;61
 11
0.0000000000000001
 21
1.0
 31
0.0
 73
     1
 44
1.0
1001
ACAD
1000
MTEXTBEGIN
1070
    73
1070
     1
1070
    44
1040
1.0
1070
    74
1070
     0
1000
MTEXTEND
  0
POINT
  5
A4F2
330
A404
100
AcDbEntity
  8
Defpoints
 62
     0
100
AcDbPoint
 10
80.170928
 20
128.200017
 30
0.0
  0
POINT
  5
A4F3
330
A404
100
AcDbEntity
  8
Defpoints
 62
     0
100
AcDbPoint
 10
80.170928
 20
189.200017
 30
0.0
  0
POINT
  5
A4F4
330
A404
100
AcDbEntity
  8
Defpoints
 62
     0
100
AcDbPoint
 10
105.7709269999999
 20
189.200017
 30
0.0
  0
ENDBLK
  5
A40F
330
A404
100
AcDbEntity
  8
0
100
AcDbBlockEnd
  0
BLOCK
  5
A41A
330
A410
100
AcDbEntity
  8
0
100
AcDbBlockBegin
  2
*D13
 70
     1
 10
0.0
 20
0.0
 30
0.0
  3
*D13
  1

  0
LINE
  5
A4F5
330
A410
100
AcDbEntity
  8
10100_FRONT_DIM
 62
     7
370
    -2
100
AcDbLine
 10
80.170928
 20
189.200017
 30
0.0
 11
107.7709269999999
 21
189.200017
 31
0.0
  0
LINE
  5
A4F6
330
A410
100
AcDbEntity
  8
10100_FRONT_DIM
 62
     7
370
    -2
100
AcDbLine
 10
79.04953042253191
 20
201.7000170456668
 30
0.0
 11
107.7709269999999
 21
201.7000170456668
 31
0.0
  0
LINE
  5
A4F7
330
A410
100
AcDbEntity
  8
10100_FRONT_DIM
370
    -2
100
AcDbLine
 10
105.7709269999999
 20
192.700017
 30
0.0
 11
105.7709269999999
 21
198.2000170456668
 31
0.0
  0
SOLID
  5
A4F8
330
A410
100
AcDbEntity
  8
10100_FRONT_DIM
100
AcDbTrace
 10
105.1875936666666
 20
192.700017
 30
0.0
 11
106.3542603333332
 21
192.700017
 31
0.0
 12
105.7709269999999
 22
189.200017
 32
0.0
 13
105.7709269999999
 23
189.200017
 33
0.0
  0
SOLID
  5
A4F9
330
A410
100
AcDbEntity
  8
10100_FRONT_DIM
100
AcDbTrace
 10
105.1875936666666
 20
198.2000170456668
 30
0.0
 11
106.3542603333332
 21
198.2000170456668
 31
0.0
 12
105.7709269999999
 22
201.7000170456668
 32
0.0
 13
105.7709269999999
 23
201.7000170456668
 33
0.0
  0
MTEXT
  5
A4FA
330
A410
100
AcDbEntity
  8
10100_FRONT_DIM
 62
     7
370
    18
100
AcDbMText
 10
103.5209269999999
 20
195.4500170228334
 30
0.0
 40
3.5
 41
0.0
 71
     5
 72
     1
  1
\A1;12.5
 11
0.0000000000000001
 21
1.0
 31
0.0
 73
     1
 44
1.0
1001
ACAD
1000
MTEXTBEGIN
1070
    73
1070
     1
1070
    44
1040
1.0
1070
    74
1070
     0
1000
MTEXTEND
  0
POINT
  5
A4FB
330
A410
100
AcDbEntity
  8
Defpoints
 62
     0
100
AcDbPoint
 10
80.170928
 20
189.200017
 30
0.0
  0
POINT
  5
A4FC
330
A410
100
AcDbEntity
  8
Defpoints
 62
     0
100
AcDbPoint
 10
79.04953042253191
 20
201.7000170456668
 30
0.0
  0
POINT
  5
A4FD
330
A410
100
AcDbEntity
  8
Defpoints
 62
     0
100
AcDbPoint
 10
105.7709269999999
 20
201.7000170456668
 30
0.0
  0
ENDBLK
  5
A41B
330
A410
100
AcDbEntity
  8
0
100
AcDbBlockEnd
  0
BLOCK
  5
A50F
330
A50E
100
AcDbEntity
  8
0
100
AcDbBlockBegin
  2
*D14
 70
     1
 10
0.0
 20
0.0
 30
0.0
  3
*D14
  1

  0
LINE
  5
A510
330
A50E
100
AcDbEntity
  8
10100_FRONT_DIM
 62
     7
370
    -2
100
AcDbLine
 10
44.65383002676526
 20
99.81845425160296
 30
0.0
 11
44.65383002676526
 21
73.8184552972697
 31
0.0
  0
LINE
  5
A511
330
A50E
100
AcDbEntity
  8
10100_FRONT_DIM
 62
     7
370
    -2
100
AcDbLine
 10
85.15383002676527
 20
99.81845425160296
 30
0.0
 11
85.15383002676527
 21
73.8184552972697
 31
0.0
  0
LINE
  5
A512
330
A50E
100
AcDbEntity
  8
10100_FRONT_DIM
370
    -2
100
AcDbLine
 10
48.15383002676526
 20
75.81845529726969
 30
0.0
 11
81.65383002676525
 21
75.81845529726969
 31
0.0
  0
SOLID
  5
A513
330
A50E
100
AcDbEntity
  8
10100_FRONT_DIM
100
AcDbTrace
 10
48.15383002676526
 20
76.40178863060302
 30
0.0
 11
48.15383002676526
 21
75.23512196393635
 31
0.0
 12
44.65383002676526
 22
75.81845529726969
 32
0.0
 13
44.65383002676526
 23
75.81845529726969
 33
0.0
  0
SOLID
  5
A514
330
A50E
100
AcDbEntity
  8
10100_FRONT_DIM
100
AcDbTrace
 10
81.65383002676525
 20
76.40178863060302
 30
0.0
 11
81.65383002676525
 21
75.23512196393635
 31
0.0
 12
85.15383002676527
 22
75.81845529726969
 32
0.0
 13
85.15383002676527
 23
75.81845529726969
 33
0.0
  0
MTEXT
  5
A515
330
A50E
100
AcDbEntity
  8
10100_FRONT_DIM
 62
     7
370
    18
100
AcDbMText
 10
64.90383002676527
 20
78.06845529726969
 30
0.0
 40
3.5
 41
0.0
 71
     5
 72
     1
  1
\A1;40.5
 73
     1
 44
1.0
1001
ACAD
1000
MTEXTBEGIN
1070
    73
1070
     1
1070
    44
1040
1.0
1070
    74
1070
     0
1000
MTEXTEND
  0
POINT
  5
A516
330
A50E
100
AcDbEntity
  8
Defpoints
 62
     0
100
AcDbPoint
 10
44.65383002676526
 20
99.81845425160296
 30
0.0
  0
POINT
  5
A517
330
A50E
100
AcDbEntity
  8
Defpoints
 62
     0
100
AcDbPoint
 10
85.15383002676527
 20
99.81845425160296
 30
0.0
  0
POINT
  5
A518
330
A50E
100
AcDbEntity
  8
Defpoints
 62
     0
100
AcDbPoint
 10
85.15383002676527
 20
75.81845529726969
 30
0.0
  0
ENDBLK
  5
A519
330
A50E
100
AcDbEntity
  8
0
100
AcDbBlockEnd
  0
BLOCK
  5
A51B
330
A51A
100
AcDbEntity
  8
0
100
AcDbBlockBegin
  2
*D15
 70
     1
 10
0.0
 20
0.0
 30
0.0
  3
*D15
  1

  0
LINE
  5
A51C
330
A51A
100
AcDbEntity
  8
10100_FRONT_DIM
 62
     7
370
    -2
100
AcDbLine
 10
49.90382902676525
 20
98.818454251603
 30
0.0
 11
49.90382902676525
 21
83.81845529726971
 31
0.0
  0
LINE
  5
A51D
330
A51A
100
AcDbEntity
  8
10100_FRONT_DIM
 62
     7
370
    -2
100
AcDbLine
 10
79.90382902676526
 20
100.6684542516029
 30
0.0
 11
79.90382902676526
 21
83.81845529726971
 31
0.0
  0
LINE
  5
A51E
330
A51A
100
AcDbEntity
  8
10100_FRONT_DIM
370
    -2
100
AcDbLine
 10
53.40382902676527
 20
85.81845529726967
 30
0.0
 11
76.40382902676527
 21
85.81845529726967
 31
0.0
  0
SOLID
  5
A51F
330
A51A
100
AcDbEntity
  8
10100_FRONT_DIM
100
AcDbTrace
 10
53.40382902676527
 20
86.40178863060301
 30
0.0
 11
53.40382902676527
 21
85.23512196393635
 31
0.0
 12
49.90382902676525
 22
85.81845529726967
 32
0.0
 13
49.90382902676525
 23
85.81845529726967
 33
0.0
  0
SOLID
  5
A520
330
A51A
100
AcDbEntity
  8
10100_FRONT_DIM
100
AcDbTrace
 10
76.40382902676527
 20
86.40178863060301
 30
0.0
 11
76.40382902676527
 21
85.23512196393635
 31
0.0
 12
79.90382902676526
 22
85.81845529726967
 32
0.0
 13
79.90382902676526
 23
85.81845529726967
 33
0.0
  0
MTEXT
  5
A521
330
A51A
100
AcDbEntity
  8
10100_FRONT_DIM
 62
     7
370
    18
100
AcDbMText
 10
64.90382902676526
 20
88.06845529726968
 30
0.0
 40
3.5
 41
0.0
 71
     5
 72
     1
  1
\A1;30
 73
     1
 44
1.0
1001
ACAD
1000
MTEXTBEGIN
1070
    73
1070
     1
1070
    44
1040
1.0
1070
    74
1070
     0
1000
MTEXTEND
  0
POINT
  5
A522
330
A51A
100
AcDbEntity
  8
Defpoints
 62
     0
100
AcDbPoint
 10
49.90382902676525
 20
98.818454251603
 30
0.0
  0
POINT
  5
A523
330
A51A
100
AcDbEntity
  8
Defpoints
 62
     0
100
AcDbPoint
 10
79.90382902676526
 20
100.6684542516029
 30
0.0
  0
POINT
  5
A524
330
A51A
100
AcDbEntity
  8
Defpoints
 62
     0
100
AcDbPoint
 10
79.90382902676526
 20
85.81845529726967
 30
0.0
  0
ENDBLK
  5
A525
330
A51A
100
AcDbEntity
  8
0
100
AcDbBlockEnd
  0
BLOCK
  5
A527
330
A526
100
AcDbEntity
  8
0
100
AcDbBlockBegin
  2
*D16
 70
     1
 10
0.0
 20
0.0
 30
0.0
  3
*D16
  1

  0
LINE
  5
A528
330
A526
100
AcDbEntity
  8
10100_FRONT_DIM
 62
     7
370
    -2
100
AcDbLine
 10
59.22205400000006
 20
205.3184542972696
 30
0.0
 11
29.64348202676539
 21
205.3184542972696
 31
0.0
  0
LINE
  5
A529
330
A526
100
AcDbEntity
  8
10100_FRONT_DIM
 62
     7
370
    -2
100
AcDbLine
 10
49.13549352676522
 20
176.8184542516029
 30
0.0
 11
29.64348202676538
 21
176.8184542516029
 31
0.0
  0
LINE
  5
A52A
330
A526
100
AcDbEntity
  8
10100_FRONT_DIM
370
    -2
100
AcDbLine
 10
31.64348202676539
 20
201.8184542972696
 30
0.0
 11
31.64348202676539
 21
180.3184542516029
 31
0.0
  0
SOLID
  5
A52B
330
A526
100
AcDbEntity
  8
10100_FRONT_DIM
100
AcDbTrace
 10
31.06014869343206
 20
201.8184542972696
 30
0.0
 11
32.22681536009872
 21
201.8184542972696
 31
0.0
 12
31.64348202676539
 22
205.3184542972696
 32
0.0
 13
31.64348202676539
 23
205.3184542972696
 33
0.0
  0
SOLID
  5
A52C
330
A526
100
AcDbEntity
  8
10100_FRONT_DIM
100
AcDbTrace
 10
31.06014869343205
 20
180.3184542516029
 30
0.0
 11
32.22681536009872
 21
180.3184542516029
 31
0.0
 12
31.64348202676539
 22
176.8184542516029
 32
0.0
 13
31.64348202676539
 23
176.8184542516029
 33
0.0
  0
MTEXT
  5
A52D
330
A526
100
AcDbEntity
  8
10100_FRONT_DIM
 62
     7
370
    18
100
AcDbMText
 10
29.39348202676536
 20
191.0684542744363
 30
0.0
 40
3.5
 41
0.0
 71
     5
 72
     1
  1
\A1;28.5
 11
0.0000000000000001
 21
1.0
 31
0.0
 73
     1
 44
1.0
1001
ACAD
1000
MTEXTBEGIN
1070
    73
1070
     1
1070
    44
1040
1.0
1070
    74
1070
     0
1000
MTEXTEND
  0
POINT
  5
A52E
330
A526
100
AcDbEntity
  8
Defpoints
 62
     0
100
AcDbPoint
 10
59.22205400000006
 20
205.3184542972696
 30
0.0
  0
POINT
  5
A52F
330
A526
100
AcDbEntity
  8
Defpoints
 62
     0
100
AcDbPoint
 10
49.13549352676522
 20
176.8184542516029
 30
0.0
  0
POINT
  5
A530
330
A526
100
AcDbEntity
  8
Defpoints
 62
     0
100
AcDbPoint
 10
31.64348202676539
 20
176.8184542516029
 30
0.0
  0
ENDBLK
  5
A531
330
A526
100
AcDbEntity
  8
0
100
AcDbBlockEnd
  0
BLOCK
  5
A533
330
A532
100
AcDbEntity
  8
0
100
AcDbBlockBegin
  2
*D17
 70
     1
 10
0.0
 20
0.0
 30
0.0
  3
*D17
  1

  0
LINE
  5
A534
330
A532
100
AcDbEntity
  8
10100_FRONT_DIM
 62
     7
370
    -2
100
AcDbLine
 10
49.35086902676522
 20
176.8184542516029
 30
0.0
 11
19.64348224078113
 21
176.8184542516029
 31
0.0
  0
LINE
  5
A535
330
A532
100
AcDbEntity
  8
10100_FRONT_DIM
 62
     7
370
    -2
100
AcDbLine
 10
45.65383002676526
 20
98.818454251603
 30
0.0
 11
19.64348224078111
 21
98.818454251603
 31
0.0
  0
LINE
  5
A536
330
A532
100
AcDbEntity
  8
10100_FRONT_DIM
370
    -2
100
AcDbLine
 10
21.64348224078113
 20
173.3184542516029
 30
0.0
 11
21.64348224078111
 21
102.318454251603
 31
0.0
  0
SOLID
  5
A537
330
A532
100
AcDbEntity
  8
10100_FRONT_DIM
100
AcDbTrace
 10
21.0601489074478
 20
173.3184542516029
 30
0.0
 11
22.22681557411446
 21
173.3184542516029
 31
0.0
 12
21.64348224078113
 22
176.8184542516029
 32
0.0
 13
21.64348224078113
 23
176.8184542516029
 33
0.0
  0
SOLID
  5
A538
330
A532
100
AcDbEntity
  8
10100_FRONT_DIM
100
AcDbTrace
 10
21.06014890744778
 20
102.318454251603
 30
0.0
 11
22.22681557411444
 21
102.318454251603
 31
0.0
 12
21.64348224078111
 22
98.818454251603
 32
0.0
 13
21.64348224078111
 23
98.818454251603
 33
0.0
  0
MTEXT
  5
A539
330
A532
100
AcDbEntity
  8
10100_FRONT_DIM
 62
     7
370
    18
100
AcDbMText
 10
19.39348224078109
 20
137.8184542516029
 30
0.0
 40
3.5
 41
0.0
 71
     5
 72
     1
  1
\A1;78
 11
0.0000000000000001
 21
1.0
 31
0.0
 73
     1
 44
1.0
1001
ACAD
1000
MTEXTBEGIN
1070
    73
1070
     1
1070
    44
1040
1.0
1070
    74
1070
     0
1000
MTEXTEND
  0
POINT
  5
A53A
330
A532
100
AcDbEntity
  8
Defpoints
 62
     0
100
AcDbPoint
 10
49.35086902676522
 20
176.8184542516029
 30
0.0
  0
POINT
  5
A53B
330
A532
100
AcDbEntity
  8
Defpoints
 62
     0
100
AcDbPoint
 10
45.65383002676526
 20
98.818454251603
 30
0.0
  0
POINT
  5
A53C
330
A532
100
AcDbEntity
  8
Defpoints
 62
     0
100
AcDbPoint
 10
21.64348224078111
 20
98.818454251603
 30
0.0
  0
ENDBLK
  5
A53D
330
A532
100
AcDbEntity
  8
0
100
AcDbBlockEnd
  0
BLOCK
  5
A53F
330
A53E
100
AcDbEntity
  8
0
100
AcDbBlockBegin
  2
*D18
 70
     1
 10
0.0
 20
0.0
 30
0.0
  3
*D18
  1

  0
LINE
  5
A540
330
A53E
100
AcDbEntity
  8
10100_FRONT_DIM
 62
     7
370
    -2
100
AcDbLine
 10
58.422054
 20
208.6184542972696
 30
0.0
 11
58.422054
 21
230.1184287474476
 31
0.0
  0
LINE
  5
A541
330
A53E
100
AcDbEntity
  8
10100_FRONT_DIM
 62
     7
370
    -2
100
AcDbLine
 10
71.422054
 20
208.6184542972696
 30
0.0
 11
71.422054
 21
230.1184287474476
 31
0.0
  0
LINE
  5
A542
330
A53E
100
AcDbEntity
  8
10100_FRONT_DIM
370
    -2
100
AcDbLine
 10
61.922054
 20
228.1184287474476
 30
0.0
 11
67.922054
 21
228.1184287474476
 31
0.0
  0
SOLID
  5
A543
330
A53E
100
AcDbEntity
  8
10100_FRONT_DIM
100
AcDbTrace
 10
61.922054
 20
228.7017620807809
 30
0.0
 11
61.922054
 21
227.5350954141142
 31
0.0
 12
58.422054
 22
228.1184287474476
 32
0.0
 13
58.422054
 23
228.1184287474476
 33
0.0
  0
SOLID
  5
A544
330
A53E
100
AcDbEntity
  8
10100_FRONT_DIM
100
AcDbTrace
 10
67.922054
 20
228.7017620807809
 30
0.0
 11
67.922054
 21
227.5350954141142
 31
0.0
 12
71.422054
 22
228.1184287474476
 32
0.0
 13
71.422054
 23
228.1184287474476
 33
0.0
  0
MTEXT
  5
A545
330
A53E
100
AcDbEntity
  8
10100_FRONT_DIM
 62
     7
370
    18
100
AcDbMText
 10
64.922054
 20
230.3684287474476
 30
0.0
 40
3.5
 41
0.0
 71
     5
 72
     1
  1
\A1;13
 73
     1
 44
1.0
1001
ACAD
1000
MTEXTBEGIN
1070
    73
1070
     1
1070
    44
1040
1.0
1070
    74
1070
     0
1000
MTEXTEND
  0
POINT
  5
A546
330
A53E
100
AcDbEntity
  8
Defpoints
 62
     0
100
AcDbPoint
 10
58.422054
 20
208.6184542972696
 30
0.0
  0
POINT
  5
A547
330
A53E
100
AcDbEntity
  8
Defpoints
 62
     0
100
AcDbPoint
 10
71.422054
 20
208.6184542972696
 30
0.0
  0
POINT
  5
A548
330
A53E
100
AcDbEntity
  8
Defpoints
 62
     0
100
AcDbPoint
 10
71.422054
 20
228.1184287474476
 30
0.0
  0
ENDBLK
  5
A549
330
A53E
100
AcDbEntity
  8
0
100
AcDbBlockEnd
  0
BLOCK
  5
A54B
330
A54A
100
AcDbEntity
  8
0
100
AcDbBlockBegin
  2
*D19
 70
     1
 10
0.0
 20
0.0
 30
0.0
  3
*D19
  1

  0
LINE
  5
A54C
330
A54A
100
AcDbEntity
  8
10100_FRONT_DIM
 62
     7
370
    -2
100
AcDbLine
 10
82.55382902676522
 20
103.3184542516029
 30
0.0
 11
100.1538280267652
 21
103.3184542516029
 31
0.0
  0
LINE
  5
A54D
330
A54A
100
AcDbEntity
  8
10100_FRONT_DIM
 62
     7
370
    -2
100
AcDbLine
 10
82.55382902676522
 20
105.3184542516029
 30
0.0
 11
100.1538280267652
 21
105.3184542516029
 31
0.0
  0
LINE
  5
A54E
330
A54A
100
AcDbEntity
  8
10100_FRONT_DIM
370
    -2
100
AcDbLine
 10
98.15382802676522
 20
99.8184542516029
 30
0.0
 11
98.15382802676522
 21
96.31845425160292
 31
0.0
  0
LINE
  5
A54F
330
A54A
100
AcDbEntity
  8
10100_FRONT_DIM
370
    -2
100
AcDbLine
 10
98.15382802676522
 20
108.8184542516029
 30
0.0
 11
98.15382802676522
 21
115.6517875849362
 31
0.0
  0
LINE
  5
A550
330
A54A
100
AcDbEntity
  8
10100_FRONT_DIM
370
    -2
100
AcDbLine
 10
98.15382802676522
 20
103.3184542516029
 30
0.0
 11
98.15382802676522
 21
105.3184542516029
 31
0.0
  0
SOLID
  5
A551
330
A54A
100
AcDbEntity
  8
10100_FRONT_DIM
100
AcDbTrace
 10
97.57049469343186
 20
99.8184542516029
 30
0.0
 11
98.73716136009852
 21
99.8184542516029
 31
0.0
 12
98.15382802676522
 22
103.3184542516029
 32
0.0
 13
98.15382802676522
 23
103.3184542516029
 33
0.0
  0
SOLID
  5
A552
330
A54A
100
AcDbEntity
  8
10100_FRONT_DIM
100
AcDbTrace
 10
97.57049469343186
 20
108.8184542516029
 30
0.0
 11
98.73716136009852
 21
108.8184542516029
 31
0.0
 12
98.15382802676522
 22
105.3184542516029
 32
0.0
 13
98.15382802676522
 23
105.3184542516029
 33
0.0
  0
MTEXT
  5
A553
330
A54A
100
AcDbEntity
  8
10100_FRONT_DIM
 62
     7
370
    18
100
AcDbMText
 10
95.9038280267652
 20
113.9851209182696
 30
0.0
 40
3.5
 41
0.0
 71
     5
 72
     1
  1
\A1;2
 11
0.0000000000000001
 21
1.0
 31
0.0
 73
     1
 44
1.0
1001
ACAD
1000
MTEXTBEGIN
1070
    73
1070
     1
1070
    44
1040
1.0
1070
    74
1070
     0
1000
MTEXTEND
  0
POINT
  5
A554
330
A54A
100
AcDbEntity
  8
Defpoints
 62
     0
100
AcDbPoint
 10
82.55382902676522
 20
103.3184542516029
 30
0.0
  0
POINT
  5
A555
330
A54A
100
AcDbEntity
  8
Defpoints
 62
     0
100
AcDbPoint
 10
82.55382902676522
 20
105.3184542516029
 30
0.0
  0
POINT
  5
A556
330
A54A
100
AcDbEntity
  8
Defpoints
 62
     0
100
AcDbPoint
 10
98.15382802676522
 20
105.3184542516029
 30
0.0
  0
ENDBLK
  5
A557
330
A54A
100
AcDbEntity
  8
0
100
AcDbBlockEnd
  0
BLOCK
  5
A559
330
A558
100
AcDbEntity
  8
0
100
AcDbBlockBegin
  2
*D20
 70
     1
 10
0.0
 20
0.0
 30
0.0
  3
*D20
  1

  0
LINE
  5
A55A
330
A558
100
AcDbEntity
  8
10100_FRONT_DIM
  6
ByBlock
 62
     7
370
    -2
100
AcDbLine
 10
82.55382902676522
 20
103.3184542516029
 30
0.0
 11
110.1538280267652
 21
103.3184542516029
 31
0.0
  0
LINE
  5
A55B
330
A558
100
AcDbEntity
  8
10100_FRONT_DIM
  6
ByBlock
 62
     7
370
    -2
100
AcDbLine
 10
82.55382902676522
 20
164.3184542516029
 30
0.0
 11
110.1538280267652
 21
164.3184542516029
 31
0.0
  0
LINE
  5
A55C
330
A558
100
AcDbEntity
  8
10100_FRONT_DIM
  6
ByBlock
370
    -2
100
AcDbLine
 10
108.1538280267652
 20
106.8184542516029
 30
0.0
 11
108.1538280267652
 21
160.8184542516029
 31
0.0
  0
SOLID
  5
A55D
330
A558
100
AcDbEntity
  8
10100_FRONT_DIM
  6
ByBlock
100
AcDbTrace
 10
107.5704946934318
 20
106.8184542516029
 30
0.0
 11
108.7371613600985
 21
106.8184542516029
 31
0.0
 12
108.1538280267652
 22
103.3184542516029
 32
0.0
 13
108.1538280267652
 23
103.3184542516029
 33
0.0
  0
SOLID
  5
A55E
330
A558
100
AcDbEntity
  8
10100_FRONT_DIM
  6
ByBlock
100
AcDbTrace
 10
107.5704946934319
 20
160.8184542516029
 30
0.0
 11
108.7371613600985
 21
160.8184542516029
 31
0.0
 12
108.1538280267652
 22
164.3184542516029
 32
0.0
 13
108.1538280267652
 23
164.3184542516029
 33
0.0
  0
MTEXT
  5
A55F
330
A558
100
AcDbEntity
  8
10100_FRONT_DIM
  6
ByBlock
 62
     7
370
    18
100
AcDbMText
 10
105.9038280267652
 20
133.8184542516029
 30
0.0
 40
3.5
 41
0.0
 71
     5
 72
     1
  1
\A1;61
 11
0.0000000000000001
 21
1.0
 31
0.0
 73
     1
 44
1.0
1001
ACAD
1000
MTEXTBEGIN
1070
    73
1070
     1
1070
    44
1040
1.0
1070
    74
1070
     0
1000
MTEXTEND
  0
POINT
  5
A560
330
A558
100
AcDbEntity
  8
Defpoints
  6
ByBlock
 62
     0
100
AcDbPoint
 10
82.55382902676522
 20
103.3184542516029
 30
0.0
  0
POINT
  5
A561
330
A558
100
AcDbEntity
  8
Defpoints
  6
ByBlock
 62
     0
100
AcDbPoint
 10
82.55382902676522
 20
164.3184542516029
 30
0.0
  0
POINT
  5
A562
330
A558
100
AcDbEntity
  8
Defpoints
  6
ByBlock
 62
     0
100
AcDbPoint
 10
108.1538280267652
 20
164.3184542516029
 30
0.0
  0
ENDBLK
  5
A563
330
A558
100
AcDbEntity
  8
0
100
AcDbBlockEnd
  0
BLOCK
  5
A565
330
A564
100
AcDbEntity
  8
0
100
AcDbBlockBegin
  2
*D21
 70
     1
 10
0.0
 20
0.0
 30
0.0
  3
*D21
  1

  0
LINE
  5
A566
330
A564
100
AcDbEntity
  8
10100_FRONT_DIM
 62
     7
370
    -2
100
AcDbLine
 10
82.55382902676522
 20
164.3184542516029
 30
0.0
 11
110.1538280267652
 21
164.3184542516029
 31
0.0
  0
LINE
  5
A567
330
A564
100
AcDbEntity
  8
10100_FRONT_DIM
 62
     7
370
    -2
100
AcDbLine
 10
81.43243144929716
 20
176.8184542972699
 30
0.0
 11
110.1538280267652
 21
176.8184542972699
 31
0.0
  0
LINE
  5
A568
330
A564
100
AcDbEntity
  8
10100_FRONT_DIM
370
    -2
100
AcDbLine
 10
108.1538280267652
 20
167.8184542516029
 30
0.0
 11
108.1538280267652
 21
173.3184542972699
 31
0.0
  0
SOLID
  5
A569
330
A564
100
AcDbEntity
  8
10100_FRONT_DIM
100
AcDbTrace
 10
107.5704946934319
 20
167.8184542516029
 30
0.0
 11
108.7371613600985
 21
167.8184542516029
 31
0.0
 12
108.1538280267652
 22
164.3184542516029
 32
0.0
 13
108.1538280267652
 23
164.3184542516029
 33
0.0
  0
SOLID
  5
A56A
330
A564
100
AcDbEntity
  8
10100_FRONT_DIM
100
AcDbTrace
 10
107.5704946934319
 20
173.3184542972699
 30
0.0
 11
108.7371613600985
 21
173.3184542972699
 31
0.0
 12
108.1538280267652
 22
176.8184542972699
 32
0.0
 13
108.1538280267652
 23
176.8184542972699
 33
0.0
  0
MTEXT
  5
A56B
330
A564
100
AcDbEntity
  8
10100_FRONT_DIM
 62
     7
370
    18
100
AcDbMText
 10
105.9038280267652
 20
170.5684542744364
 30
0.0
 40
3.5
 41
0.0
 71
     5
 72
     1
  1
\A1;12.5
 11
0.0000000000000001
 21
1.0
 31
0.0
 73
     1
 44
1.0
1001
ACAD
1000
MTEXTBEGIN
1070
    73
1070
     1
1070
    44
1040
1.0
1070
    74
1070
     0
1000
MTEXTEND
  0
POINT
  5
A56C
330
A564
100
AcDbEntity
  8
Defpoints
 62
     0
100
AcDbPoint
 10
82.55382902676522
 20
164.3184542516029
 30
0.0
  0
POINT
  5
A56D
330
A564
100
AcDbEntity
  8
Defpoints
 62
     0
100
AcDbPoint
 10
81.43243144929716
 20
176.8184542972699
 30
0.0
  0
POINT
  5
A56E
330
A564
100
AcDbEntity
  8
Defpoints
 62
     0
100
AcDbPoint
 10
108.1538280267652
 20
176.8184542972699
 30
0.0
  0
ENDBLK
  5
A56F
330
A564
100
AcDbEntity
  8
0
100
AcDbBlockEnd
  0
BLOCK
  5
A571
330
A570
100
AcDbEntity
  8
0
100
AcDbBlockBegin
  2
*D22
 70
     1
 10
0.0
 20
0.0
 30
0.0
  3
*D22
  1

  0
LINE
  5
A572
330
A570
100
AcDbEntity
  8
10100_FRONT_DIM
  6
Continuous
 62
     7
370
    -2
100
AcDbLine
 10
53.40383030939188
 20
176.8184542872722
 30
0.0
 11
19.64348202676529
 21
176.8184542872722
 31
0.0
  0
LINE
  5
A573
330
A570
100
AcDbEntity
  8
10100_FRONT_DIM
  6
Continuous
 62
     7
370
    -2
100
AcDbLine
 10
64.94027890146901
 20
215.1184287474476
 30
0.0
 11
19.6434820267653
 21
215.1184287474476
 31
0.0
  0
LINE
  5
A574
330
A570
100
AcDbEntity
  8
10100_FRONT_DIM
  6
Continuous
370
    -2
100
AcDbLine
 10
21.64348202676529
 20
180.3184542872721
 30
0.0
 11
21.6434820267653
 21
211.6184287474476
 31
0.0
  0
SOLID
  5
A575
330
A570
100
AcDbEntity
  8
10100_FRONT_DIM
  6
Continuous
100
AcDbTrace
 10
21.06014869343196
 20
180.3184542872721
 30
0.0
 11
22.22681536009862
 21
180.3184542872721
 31
0.0
 12
21.64348202676529
 22
176.8184542872722
 32
0.0
 13
21.64348202676529
 23
176.8184542872722
 33
0.0
  0
SOLID
  5
A576
330
A570
100
AcDbEntity
  8
10100_FRONT_DIM
  6
Continuous
100
AcDbTrace
 10
21.06014869343197
 20
211.6184287474476
 30
0.0
 11
22.22681536009863
 21
211.6184287474476
 31
0.0
 12
21.6434820267653
 22
215.1184287474476
 32
0.0
 13
21.6434820267653
 23
215.1184287474476
 33
0.0
  0
MTEXT
  5
A577
330
A570
100
AcDbEntity
  8
10100_FRONT_DIM
  6
Continuous
 62
     7
370
    18
100
AcDbMText
 10
19.39348202676526
 20
195.9684415173599
 30
0.0
 40
3.5
 41
0.0
 71
     5
 72
     1
  1
\A1;38.3
 11
0.0000000000000001
 21
1.0
 31
0.0
 73
     1
 44
1.0
1001
ACAD
1000
MTEXTBEGIN
1070
    73
1070
     1
1070
    44
1040
1.0
1070
    74
1070
     0
1000
MTEXTEND
  0
POINT
  5
A578
330
A570
100
AcDbEntity
  8
Defpoints
  6
Continuous
 62
     0
100
AcDbPoint
 10
53.40383030939188
 20
176.8184542872722
 30
0.0
  0
POINT
  5
A579
330
A570
100
AcDbEntity
  8
Defpoints
  6
Continuous
 62
     0
100
AcDbPoint
 10
64.94027890146901
 20
215.1184287474476
 30
0.0
  0
POINT
  5
A57A
330
A570
100
AcDbEntity
  8
Defpoints
  6
Continuous
 62
     0
100
AcDbPoint
 10
21.6434820267653
 20
215.1184287474476
 30
0.0
  0
ENDBLK
  5
A57B
330
A570
100
AcDbEntity
  8
0
100
AcDbBlockEnd
  0
BLOCK
  5
A57D
330
A57C
100
AcDbEntity
  8
0
100
AcDbBlockBegin
  2
*D23
 70
     1
 10
0.0
 20
0.0
 30
0.0
  3
*D23
  1

  0
LINE
  5
A57E
330
A57C
100
AcDbEntity
  8
10100_FRONT_DIM
 62
     7
370
    -2
100
AcDbLine
 10
40.04001699999998
 20
113.9749902972696
 30
0.0
 11
40.04001699999998
 21
73.8184552972697
 31
0.0
  0
LINE
  5
A57F
330
A57C
100
AcDbEntity
  8
10100_FRONT_DIM
 62
     7
370
    -2
100
AcDbLine
 10
44.65383002676526
 20
99.81845425160296
 30
0.0
 11
44.65383002676526
 21
73.8184552972697
 31
0.0
  0
LINE
  5
A580
330
A57C
100
AcDbEntity
  8
10100_FRONT_DIM
370
    -2
100
AcDbLine
 10
48.15383002676526
 20
75.81845529726969
 30
0.0
 11
51.65383002676526
 21
75.81845529726969
 31
0.0
  0
LINE
  5
A581
330
A57C
100
AcDbEntity
  8
10100_FRONT_DIM
370
    -2
100
AcDbLine
 10
36.54001699999998
 20
75.81845529726969
 30
0.0
 11
25.04001699999998
 21
75.81845529726969
 31
0.0
  0
LINE
  5
A582
330
A57C
100
AcDbEntity
  8
10100_FRONT_DIM
370
    -2
100
AcDbLine
 10
44.65383002676526
 20
75.81845529726969
 30
0.0
 11
40.04001699999998
 21
75.81845529726969
 31
0.0
  0
SOLID
  5
A583
330
A57C
100
AcDbEntity
  8
10100_FRONT_DIM
100
AcDbTrace
 10
48.15383002676526
 20
76.40178863060302
 30
0.0
 11
48.15383002676526
 21
75.23512196393635
 31
0.0
 12
44.65383002676526
 22
75.81845529726969
 32
0.0
 13
44.65383002676526
 23
75.81845529726969
 33
0.0
  0
SOLID
  5
A584
330
A57C
100
AcDbEntity
  8
10100_FRONT_DIM
100
AcDbTrace
 10
36.54001699999998
 20
76.40178863060302
 30
0.0
 11
36.54001699999998
 21
75.23512196393635
 31
0.0
 12
40.04001699999998
 22
75.81845529726969
 32
0.0
 13
40.04001699999998
 23
75.81845529726969
 33
0.0
  0
MTEXT
  5
A585
330
A57C
100
AcDbEntity
  8
10100_FRONT_DIM
 62
     7
370
    18
100
AcDbMText
 10
29.04001699999998
 20
78.06845529726969
 30
0.0
 40
3.5
 41
0.0
 71
     5
 72
     1
  1
\A1;4.6
 73
     1
 44
1.0
1001
ACAD
1000
MTEXTBEGIN
1070
    73
1070
     1
1070
    44
1040
1.0
1070
    74
1070
     0
1000
MTEXTEND
  0
POINT
  5
A586
330
A57C
100
AcDbEntity
  8
Defpoints
 62
     0
100
AcDbPoint
 10
40.04001699999998
 20
113.9749902972696
 30
0.0
  0
POINT
  5
A587
330
A57C
100
AcDbEntity
  8
Defpoints
 62
     0
100
AcDbPoint
 10
44.65383002676526
 20
99.81845425160296
 30
0.0
  0
POINT
  5
A588
330
A57C
100
AcDbEntity
  8
Defpoints
 62
     0
100
AcDbPoint
 10
44.65383002676526
 20
75.81845529726969
 30
0.0
  0
ENDBLK
  5
A589
330
A57C
100
AcDbEntity
  8
0
100
AcDbBlockEnd
  0
BLOCK
  5
A58B
330
A58A
100
AcDbEntity
  8
0
100
AcDbBlockBegin
  2
*D24
 70
     1
 10
0.0
 20
0.0
 30
0.0
  3
*D24
  1

  0
LINE
  5
A58C
330
A58A
100
AcDbEntity
  8
10100_FRONT_DIM
 62
     7
370
    -2
100
AcDbLine
 10
63.922054
 20
93.3313282972697
 30
0.0
 11
19.62411662220178
 21
93.33132829726972
 31
0.0
  0
LINE
  5
A58D
330
A58A
100
AcDbEntity
  8
10100_FRONT_DIM
 62
     7
370
    -2
100
AcDbLine
 10
45.65383002676526
 20
98.818454251603
 30
0.0
 11
19.62411662220178
 21
98.818454251603
 31
0.0
  0
LINE
  5
A58E
330
A58A
100
AcDbEntity
  8
10100_FRONT_DIM
370
    -2
100
AcDbLine
 10
21.62411662220179
 20
102.318454251603
 30
0.0
 11
21.62411662220179
 21
105.818454251603
 31
0.0
  0
LINE
  5
A58F
330
A58A
100
AcDbEntity
  8
10100_FRONT_DIM
370
    -2
100
AcDbLine
 10
21.62411662220179
 20
89.83132829726972
 30
0.0
 11
21.62411662220178
 21
78.33132829726969
 31
0.0
  0
LINE
  5
A590
330
A58A
100
AcDbEntity
  8
10100_FRONT_DIM
370
    -2
100
AcDbLine
 10
21.62411662220179
 20
98.818454251603
 30
0.0
 11
21.62411662220179
 21
93.33132829726972
 31
0.0
  0
SOLID
  5
A591
330
A58A
100
AcDbEntity
  8
10100_FRONT_DIM
100
AcDbTrace
 10
21.04078328886846
 20
102.318454251603
 30
0.0
 11
22.20744995553512
 21
102.318454251603
 31
0.0
 12
21.62411662220179
 22
98.818454251603
 32
0.0
 13
21.62411662220179
 23
98.818454251603
 33
0.0
  0
SOLID
  5
A592
330
A58A
100
AcDbEntity
  8
10100_FRONT_DIM
100
AcDbTrace
 10
21.04078328886846
 20
89.83132829726972
 30
0.0
 11
22.20744995553512
 21
89.83132829726972
 31
0.0
 12
21.62411662220179
 22
93.33132829726972
 32
0.0
 13
21.62411662220179
 23
93.33132829726972
 33
0.0
  0
MTEXT
  5
A593
330
A58A
100
AcDbEntity
  8
10100_FRONT_DIM
 62
     7
370
    18
100
AcDbMText
 10
19.37411662220177
 20
82.33132829726967
 30
0.0
 40
3.5
 41
0.0
 71
     5
 72
     1
  1
\A1;5.5
 11
0.0000000000000001
 21
1.0
 31
0.0
 73
     1
 44
1.0
1001
ACAD
1000
MTEXTBEGIN
1070
    73
1070
     1
1070
    44
1040
1.0
1070
    74
1070
     0
1000
MTEXTEND
  0
POINT
  5
A594
330
A58A
100
AcDbEntity
  8
Defpoints
 62
     0
100
AcDbPoint
 10
63.922054
 20
93.3313282972697
 30
0.0
  0
POINT
  5
A595
330
A58A
100
AcDbEntity
  8
Defpoints
 62
     0
100
AcDbPoint
 10
45.65383002676526
 20
98.818454251603
 30
0.0
  0
POINT
  5
A596
330
A58A
100
AcDbEntity
  8
Defpoints
 62
     0
100
AcDbPoint
 10
21.62411662220179
 20
98.818454251603
 30
0.0
  0
ENDBLK
  5
A597
330
A58A
100
AcDbEntity
  8
0
100
AcDbBlockEnd
  0
BLOCK
  5
A599
330
A598
100
AcDbEntity
  8
0
100
AcDbBlockBegin
  2
*D25
 70
     1
 10
0.0
 20
0.0
 30
0.0
  3
*D25
  1

  0
LINE
  5
A59A
330
A598
100
AcDbEntity
  8
11100_LEFT_DIM
 62
     7
370
    -2
100
AcDbLine
 10
150.932694
 20
120.2184542972696
 30
0.0
 11
150.932694
 21
135.2184542972696
 31
0.0
  0
LINE
  5
A59B
330
A598
100
AcDbEntity
  8
11100_LEFT_DIM
 62
     7
370
    -2
100
AcDbLine
 10
144.9326939999999
 20
121.8184537972696
 30
0.0
 11
144.9326939999999
 21
135.2184542972696
 31
0.0
  0
LINE
  5
A59C
330
A598
100
AcDbEntity
  8
11100_LEFT_DIM
370
    -2
100
AcDbLine
 10
154.4326939999999
 20
133.2184542972696
 30
0.0
 11
157.9326939999999
 21
133.2184542972696
 31
0.0
  0
LINE
  5
A59D
330
A598
100
AcDbEntity
  8
11100_LEFT_DIM
370
    -2
100
AcDbLine
 10
141.432694
 20
133.2184542972696
 30
0.0
 11
137.9326939999999
 21
133.2184542972696
 31
0.0
  0
LINE
  5
A59E
330
A598
100
AcDbEntity
  8
11100_LEFT_DIM
370
    -2
100
AcDbLine
 10
150.932694
 20
133.2184542972696
 30
0.0
 11
144.9326939999999
 21
133.2184542972696
 31
0.0
  0
SOLID
  5
A59F
330
A598
100
AcDbEntity
  8
11100_LEFT_DIM
100
AcDbTrace
 10
154.4326939999999
 20
133.8017876306029
 30
0.0
 11
154.4326939999999
 21
132.6351209639362
 31
0.0
 12
150.932694
 22
133.2184542972696
 32
0.0
 13
150.932694
 23
133.2184542972696
 33
0.0
  0
SOLID
  5
A5A0
330
A598
100
AcDbEntity
  8
11100_LEFT_DIM
100
AcDbTrace
 10
141.432694
 20
133.8017876306029
 30
0.0
 11
141.432694
 21
132.6351209639362
 31
0.0
 12
144.9326939999999
 22
133.2184542972696
 32
0.0
 13
144.9326939999999
 23
133.2184542972696
 33
0.0
  0
MTEXT
  5
A5A1
330
A598
100
AcDbEntity
  8
11100_LEFT_DIM
 62
     7
370
     0
100
AcDbMText
 10
147.9326939999999
 20
135.4684542972696
 30
0.0
 40
3.5
 41
0.0
 71
     5
 72
     1
  1
\A1;6
 73
     1
 44
1.0
1001
ACAD
1000
MTEXTBEGIN
1070
    73
1070
     1
1070
    44
1040
1.0
1070
    74
1070
     0
1000
MTEXTEND
  0
POINT
  5
A5A2
330
A598
100
AcDbEntity
  8
Defpoints
 62
     0
100
AcDbPoint
 10
150.932694
 20
120.2184542972696
 30
0.0
  0
POINT
  5
A5A3
330
A598
100
AcDbEntity
  8
Defpoints
 62
     0
100
AcDbPoint
 10
144.9326939999999
 20
121.8184537972696
 30
0.0
  0
POINT
  5
A5A4
330
A598
100
AcDbEntity
  8
Defpoints
 62
     0
100
AcDbPoint
 10
144.9326939999999
 20
133.2184542972696
 30
0.0
  0
ENDBLK
  5
A5A5
330
A598
100
AcDbEntity
  8
0
100
AcDbBlockEnd
  0
BLOCK
  5
A5A7
330
A5A6
100
AcDbEntity
  8
0
100
AcDbBlockBegin
  2
*D26
 70
     1
 10
0.0
 20
0.0
 30
0.0
  3
*D26
  1

  0
LINE
  5
A5A8
330
A5A6
100
AcDbEntity
  8
11100_LEFT_DIM
 62
     7
370
    -2
100
AcDbLine
 10
147.952816
 20
116.7423262972696
 30
0.0
 11
129.932694
 21
116.7423262972696
 31
0.0
  0
LINE
  5
A5A9
330
A5A6
100
AcDbEntity
  8
11100_LEFT_DIM
 62
     7
370
    -2
100
AcDbLine
 10
144.9326939999999
 20
98.81845429726968
 30
0.0
 11
129.932694
 21
98.81845429726968
 31
0.0
  0
LINE
  5
A5AA
330
A5A6
100
AcDbEntity
  8
11100_LEFT_DIM
370
    -2
100
AcDbLine
 10
131.932694
 20
113.2423262972696
 30
0.0
 11
131.932694
 21
102.3184542972696
 31
0.0
  0
SOLID
  5
A5AB
330
A5A6
100
AcDbEntity
  8
11100_LEFT_DIM
100
AcDbTrace
 10
131.3493606666666
 20
113.2423262972696
 30
0.0
 11
132.5160273333333
 21
113.2423262972696
 31
0.0
 12
131.932694
 22
116.7423262972696
 32
0.0
 13
131.932694
 23
116.7423262972696
 33
0.0
  0
SOLID
  5
A5AC
330
A5A6
100
AcDbEntity
  8
11100_LEFT_DIM
100
AcDbTrace
 10
131.3493606666666
 20
102.3184542972696
 30
0.0
 11
132.5160273333333
 21
102.3184542972696
 31
0.0
 12
131.932694
 22
98.81845429726968
 32
0.0
 13
131.932694
 23
98.81845429726968
 33
0.0
  0
MTEXT
  5
A5AD
330
A5A6
100
AcDbEntity
  8
11100_LEFT_DIM
 62
     7
370
     0
100
AcDbMText
 10
129.6826939999999
 20
107.7803902972696
 30
0.0
 40
3.5
 41
0.0
 71
     5
 72
     1
  1
\A1;18
 11
0.0000000000000001
 21
1.0
 31
0.0
 73
     1
 44
1.0
1001
ACAD
1000
MTEXTBEGIN
1070
    73
1070
     1
1070
    44
1040
1.0
1070
    74
1070
     0
1000
MTEXTEND
  0
POINT
  5
A5AE
330
A5A6
100
AcDbEntity
  8
Defpoints
 62
     0
100
AcDbPoint
 10
147.952816
 20
116.7423262972696
 30
0.0
  0
POINT
  5
A5AF
330
A5A6
100
AcDbEntity
  8
Defpoints
 62
     0
100
AcDbPoint
 10
144.9326939999999
 20
98.81845429726968
 30
0.0
  0
POINT
  5
A5B0
330
A5A6
100
AcDbEntity
  8
Defpoints
 62
     0
100
AcDbPoint
 10
131.932694
 20
98.81845429726968
 30
0.0
  0
ENDBLK
  5
A5B1
330
A5A6
100
AcDbEntity
  8
0
100
AcDbBlockEnd
  0
BLOCK
  5
A5B3
330
A5B2
100
AcDbEntity
  8
0
100
AcDbBlockBegin
  2
*D27
 70
     1
 10
0.0
 20
0.0
 30
0.0
  3
*D27
  1

  0
LINE
  5
A5B4
330
A5B2
100
AcDbEntity
  8
11100_LEFT_DIM
 62
     7
370
    -2
100
AcDbLine
 10
144.9326939999999
 20
98.81845429726968
 30
0.0
 11
144.9326939999999
 21
78.33132829726967
 31
0.0
  0
LINE
  5
A5B5
330
A5B2
100
AcDbEntity
  8
11100_LEFT_DIM
 62
     7
370
    -2
100
AcDbLine
 10
160.232694
 20
93.3313282972697
 30
0.0
 11
160.232694
 21
78.33132829726967
 31
0.0
  0
LINE
  5
A5B6
330
A5B2
100
AcDbEntity
  8
11100_LEFT_DIM
370
    -2
100
AcDbLine
 10
148.4326939999999
 20
80.33132829726964
 30
0.0
 11
156.732694
 21
80.33132829726964
 31
0.0
  0
SOLID
  5
A5B7
330
A5B2
100
AcDbEntity
  8
11100_LEFT_DIM
100
AcDbTrace
 10
148.4326939999999
 20
80.91466163060298
 30
0.0
 11
148.4326939999999
 21
79.74799496393631
 31
0.0
 12
144.9326939999999
 22
80.33132829726964
 32
0.0
 13
144.9326939999999
 23
80.33132829726964
 33
0.0
  0
SOLID
  5
A5B8
330
A5B2
100
AcDbEntity
  8
11100_LEFT_DIM
100
AcDbTrace
 10
156.732694
 20
80.91466163060298
 30
0.0
 11
156.732694
 21
79.74799496393631
 31
0.0
 12
160.232694
 22
80.33132829726964
 32
0.0
 13
160.232694
 23
80.33132829726964
 33
0.0
  0
MTEXT
  5
A5B9
330
A5B2
100
AcDbEntity
  8
11100_LEFT_DIM
 62
     7
370
    18
100
AcDbMText
 10
152.5826939999999
 20
82.58132829726966
 30
0.0
 40
3.5
 41
0.0
 71
     5
 72
     1
  1
\A1;15.3
 73
     1
 44
1.0
1001
ACAD
1000
MTEXTBEGIN
1070
    73
1070
     1
1070
    44
1040
1.0
1070
    74
1070
     0
1000
MTEXTEND
  0
POINT
  5
A5BA
330
A5B2
100
AcDbEntity
  8
Defpoints
 62
     0
100
AcDbPoint
 10
144.9326939999999
 20
98.81845429726968
 30
0.0
  0
POINT
  5
A5BB
330
A5B2
100
AcDbEntity
  8
Defpoints
 62
     0
100
AcDbPoint
 10
160.232694
 20
93.3313282972697
 30
0.0
  0
POINT
  5
A5BC
330
A5B2
100
AcDbEntity
  8
Defpoints
 62
     0
100
AcDbPoint
 10
160.232694
 20
80.33132829726964
 30
0.0
  0
ENDBLK
  5
A5BD
330
A5B2
100
AcDbEntity
  8
0
100
AcDbBlockEnd
  0
BLOCK
  5
A5BF
330
A5BE
100
AcDbEntity
  8
0
100
AcDbBlockBegin
  2
*D28
 70
     1
 10
0.0
 20
0.0
 30
0.0
  3
*D28
  1

  0
LINE
  5
A5C0
330
A5BE
100
AcDbEntity
  8
11100_LEFT_DIM
 62
     7
370
    -2
100
AcDbLine
 10
144.9326939999999
 20
98.81845429726968
 30
0.0
 11
144.9326939999999
 21
68.33132829726968
 31
0.0
  0
LINE
  5
A5C1
330
A5BE
100
AcDbEntity
  8
11100_LEFT_DIM
 62
     7
370
    -2
100
AcDbLine
 10
182.232694
 20
98.81845429726968
 30
0.0
 11
182.232694
 21
68.33132829726968
 31
0.0
  0
LINE
  5
A5C2
330
A5BE
100
AcDbEntity
  8
11100_LEFT_DIM
370
    -2
100
AcDbLine
 10
148.4326939999999
 20
70.33132829726968
 30
0.0
 11
178.7326939999999
 21
70.33132829726968
 31
0.0
  0
SOLID
  5
A5C3
330
A5BE
100
AcDbEntity
  8
11100_LEFT_DIM
100
AcDbTrace
 10
148.4326939999999
 20
70.91466163060298
 30
0.0
 11
148.4326939999999
 21
69.74799496393635
 31
0.0
 12
144.9326939999999
 22
70.33132829726968
 32
0.0
 13
144.9326939999999
 23
70.33132829726968
 33
0.0
  0
SOLID
  5
A5C4
330
A5BE
100
AcDbEntity
  8
11100_LEFT_DIM
100
AcDbTrace
 10
178.7326939999999
 20
70.91466163060298
 30
0.0
 11
178.7326939999999
 21
69.74799496393635
 31
0.0
 12
182.232694
 22
70.33132829726968
 32
0.0
 13
182.232694
 23
70.33132829726968
 33
0.0
  0
MTEXT
  5
A5C5
330
A5BE
100
AcDbEntity
  8
11100_LEFT_DIM
 62
     7
370
    18
100
AcDbMText
 10
163.5826939999999
 20
72.58132829726966
 30
0.0
 40
3.5
 41
0.0
 71
     5
 72
     1
  1
\A1;37.3
 73
     1
 44
1.0
1001
ACAD
1000
MTEXTBEGIN
1070
    73
1070
     1
1070
    44
1040
1.0
1070
    74
1070
     0
1000
MTEXTEND
  0
POINT
  5
A5C6
330
A5BE
100
AcDbEntity
  8
Defpoints
 62
     0
100
AcDbPoint
 10
144.9326939999999
 20
98.81845429726968
 30
0.0
  0
POINT
  5
A5C7
330
A5BE
100
AcDbEntity
  8
Defpoints
 62
     0
100
AcDbPoint
 10
182.232694
 20
98.81845429726968
 30
0.0
  0
POINT
  5
A5C8
330
A5BE
100
AcDbEntity
  8
Defpoints
 62
     0
100
AcDbPoint
 10
182.232694
 20
70.33132829726968
 30
0.0
  0
ENDBLK
  5
A5C9
330
A5BE
100
AcDbEntity
  8
0
100
AcDbBlockEnd
  0
BLOCK
  5
A5CB
330
A5CA
100
AcDbEntity
  8
0
100
AcDbBlockBegin
  2
*D29
 70
     1
 10
0.0
 20
0.0
 30
0.0
  3
*D29
  1

  0
LINE
  5
A5CC
330
A5CA
100
AcDbEntity
  8
11100_LEFT_DIM
 62
     7
370
    -2
100
AcDbLine
 10
144.9326939999999
 20
176.8184542972696
 30
0.0
 11
144.9326939999999
 21
240.1184287474476
 31
0.0
  0
LINE
  5
A5CD
330
A5CA
100
AcDbEntity
  8
11100_LEFT_DIM
 62
     7
370
    -2
100
AcDbLine
 10
161.2326939999999
 20
235.2434287474476
 30
0.0
 11
161.2326939999999
 21
240.1184287474476
 31
0.0
  0
LINE
  5
A5CE
330
A5CA
100
AcDbEntity
  8
11100_LEFT_DIM
370
    -2
100
AcDbLine
 10
148.4326939999999
 20
238.1184287474476
 30
0.0
 11
157.7326939999999
 21
238.1184287474476
 31
0.0
  0
SOLID
  5
A5CF
330
A5CA
100
AcDbEntity
  8
11100_LEFT_DIM
100
AcDbTrace
 10
148.4326939999999
 20
238.7017620807809
 30
0.0
 11
148.4326939999999
 21
237.5350954141143
 31
0.0
 12
144.9326939999999
 22
238.1184287474476
 32
0.0
 13
144.9326939999999
 23
238.1184287474476
 33
0.0
  0
SOLID
  5
A5D0
330
A5CA
100
AcDbEntity
  8
11100_LEFT_DIM
100
AcDbTrace
 10
157.7326939999999
 20
238.7017620807809
 30
0.0
 11
157.7326939999999
 21
237.5350954141143
 31
0.0
 12
161.2326939999999
 22
238.1184287474476
 32
0.0
 13
161.2326939999999
 23
238.1184287474476
 33
0.0
  0
MTEXT
  5
A5D1
330
A5CA
100
AcDbEntity
  8
11100_LEFT_DIM
 62
     7
370
    18
100
AcDbMText
 10
153.0826939999999
 20
240.3684287474476
 30
0.0
 40
3.5
 41
0.0
 71
     5
 72
     1
  1
\A1;16.3
 73
     1
 44
1.0
1001
ACAD
1000
MTEXTBEGIN
1070
    73
1070
     1
1070
    44
1040
1.0
1070
    74
1070
     0
1000
MTEXTEND
  0
POINT
  5
A5D2
330
A5CA
100
AcDbEntity
  8
Defpoints
 62
     0
100
AcDbPoint
 10
144.9326939999999
 20
176.8184542972696
 30
0.0
  0
POINT
  5
A5D3
330
A5CA
100
AcDbEntity
  8
Defpoints
 62
     0
100
AcDbPoint
 10
161.2326939999999
 20
235.2434287474476
 30
0.0
  0
POINT
  5
A5D4
330
A5CA
100
AcDbEntity
  8
Defpoints
 62
     0
100
AcDbPoint
 10
161.2326939999999
 20
238.1184287474476
 30
0.0
  0
ENDBLK
  5
A5D5
330
A5CA
100
AcDbEntity
  8
0
100
AcDbBlockEnd
  0
BLOCK
  5
A5D7
330
A5D6
100
AcDbEntity
  8
0
100
AcDbBlockBegin
  2
*D30
 70
     1
 10
0.0
 20
0.0
 30
0.0
  3
*D30
  1

  0
LINE
  5
A5D8
330
A5D6
100
AcDbEntity
  8
11100_LEFT_DIM
 62
     7
370
    -2
100
AcDbLine
 10
158.697664
 20
214.8184542972697
 30
0.0
 11
158.697664
 21
230.1184287474476
 31
0.0
  0
LINE
  5
A5D9
330
A5D6
100
AcDbEntity
  8
11100_LEFT_DIM
 62
     7
370
    -2
100
AcDbLine
 10
163.697664
 20
214.8184542972697
 30
0.0
 11
163.697664
 21
230.1184287474476
 31
0.0
  0
LINE
  5
A5DA
330
A5D6
100
AcDbEntity
  8
11100_LEFT_DIM
370
    -2
100
AcDbLine
 10
155.197664
 20
228.1184287474476
 30
0.0
 11
151.697664
 21
228.1184287474476
 31
0.0
  0
LINE
  5
A5DB
330
A5D6
100
AcDbEntity
  8
11100_LEFT_DIM
370
    -2
100
AcDbLine
 10
167.197664
 20
228.1184287474476
 30
0.0
 11
170.697664
 21
228.1184287474476
 31
0.0
  0
LINE
  5
A5DC
330
A5D6
100
AcDbEntity
  8
11100_LEFT_DIM
370
    -2
100
AcDbLine
 10
158.697664
 20
228.1184287474476
 30
0.0
 11
163.697664
 21
228.1184287474476
 31
0.0
  0
SOLID
  5
A5DD
330
A5D6
100
AcDbEntity
  8
11100_LEFT_DIM
100
AcDbTrace
 10
155.197664
 20
228.7017620807809
 30
0.0
 11
155.197664
 21
227.5350954141142
 31
0.0
 12
158.697664
 22
228.1184287474476
 32
0.0
 13
158.697664
 23
228.1184287474476
 33
0.0
  0
SOLID
  5
A5DE
330
A5D6
100
AcDbEntity
  8
11100_LEFT_DIM
100
AcDbTrace
 10
167.197664
 20
228.7017620807809
 30
0.0
 11
167.197664
 21
227.5350954141142
 31
0.0
 12
163.697664
 22
228.1184287474476
 32
0.0
 13
163.697664
 23
228.1184287474476
 33
0.0
  0
MTEXT
  5
A5DF
330
A5D6
100
AcDbEntity
  8
11100_LEFT_DIM
 62
     7
370
    18
100
AcDbMText
 10
161.197664
 20
230.3684287474476
 30
0.0
 40
3.5
 41
0.0
 71
     5
 72
     1
  1
\A1;5
 73
     1
 44
1.0
1001
ACAD
1000
MTEXTBEGIN
1070
    73
1070
     1
1070
    44
1040
1.0
1070
    74
1070
     0
1000
MTEXTEND
  0
POINT
  5
A5E0
330
A5D6
100
AcDbEntity
  8
Defpoints
 62
     0
100
AcDbPoint
 10
158.697664
 20
214.8184542972697
 30
0.0
  0
POINT
  5
A5E1
330
A5D6
100
AcDbEntity
  8
Defpoints
 62
     0
100
AcDbPoint
 10
163.697664
 20
214.8184542972697
 30
0.0
  0
POINT
  5
A5E2
330
A5D6
100
AcDbEntity
  8
Defpoints
 62
     0
100
AcDbPoint
 10
163.697664
 20
228.1184287474476
 30
0.0
  0
ENDBLK
  5
A5E3
330
A5D6
100
AcDbEntity
  8
0
100
AcDbBlockEnd
  0
BLOCK
  5
AE60
330
AE56
100
AcDbEntity
  8
0
100
AcDbBlockBegin
  2
*D31
 70
     1
 10
0.0
 20
0.0
 30
0.0
  3
*D31
  1

  0
LINE
  5
AFCF
330
AE56
100
AcDbEntity
  8
10100_FRONT_DIM
 62
     7
370
    -2
100
AcDbLine
 10
273.1306004554078
 20
113.0121003460056
 30
0.0
 11
273.1306004554078
 21
87.01210139167239
 31
0.0
  0
LINE
  5
AFD0
330
AE56
100
AcDbEntity
  8
10100_FRONT_DIM
 62
     7
370
    -2
100
AcDbLine
 10
313.6306004554078
 20
113.0121003460056
 30
0.0
 11
313.6306004554078
 21
87.01210139167239
 31
0.0
  0
LINE
  5
AFD1
330
AE56
100
AcDbEntity
  8
10100_FRONT_DIM
370
    -2
100
AcDbLine
 10
276.6306004554078
 20
89.01210139167238
 30
0.0
 11
310.1306004554079
 21
89.01210139167238
 31
0.0
  0
SOLID
  5
AFD2
330
AE56
100
AcDbEntity
  8
10100_FRONT_DIM
100
AcDbTrace
 10
276.6306004554078
 20
89.5954347250057
 30
0.0
 11
276.6306004554078
 21
88.42876805833904
 31
0.0
 12
273.1306004554078
 22
89.01210139167238
 32
0.0
 13
273.1306004554078
 23
89.01210139167238
 33
0.0
  0
SOLID
  5
AFD3
330
AE56
100
AcDbEntity
  8
10100_FRONT_DIM
100
AcDbTrace
 10
310.1306004554079
 20
89.5954347250057
 30
0.0
 11
310.1306004554079
 21
88.42876805833904
 31
0.0
 12
313.6306004554078
 22
89.01210139167238
 32
0.0
 13
313.6306004554078
 23
89.01210139167238
 33
0.0
  0
MTEXT
  5
AFD4
330
AE56
100
AcDbEntity
  8
10100_FRONT_DIM
 62
     7
370
    18
100
AcDbMText
 10
293.3806004554078
 20
91.26210139167239
 30
0.0
 40
3.5
 41
0.0
 71
     5
 72
     1
  1
\A1;40.5
 73
     1
 44
1.0
1001
ACAD
1000
MTEXTBEGIN
1070
    73
1070
     1
1070
    44
1040
1.0
1070
    74
1070
     0
1000
MTEXTEND
  0
POINT
  5
AFD5
330
AE56
100
AcDbEntity
  8
Defpoints
 62
     0
100
AcDbPoint
 10
273.1306004554078
 20
113.0121003460056
 30
0.0
  0
POINT
  5
AFD6
330
AE56
100
AcDbEntity
  8
Defpoints
 62
     0
100
AcDbPoint
 10
313.6306004554078
 20
113.0121003460056
 30
0.0
  0
POINT
  5
AFD7
330
AE56
100
AcDbEntity
  8
Defpoints
 62
     0
100
AcDbPoint
 10
313.6306004554078
 20
89.01210139167238
 30
0.0
  0
ENDBLK
  5
AE61
330
AE56
100
AcDbEntity
  8
0
100
AcDbBlockEnd
  0
BLOCK
  5
AE6C
330
AE62
100
AcDbEntity
  8
0
100
AcDbBlockBegin
  2
*D32
 70
     1
 10
0.0
 20
0.0
 30
0.0
  3
*D32
  1

  0
LINE
  5
AFD8
330
AE62
100
AcDbEntity
  8
10100_FRONT_DIM
 62
     7
370
    -2
100
AcDbLine
 10
278.3805994554078
 20
112.0121003460056
 30
0.0
 11
278.3805994554078
 21
97.01210139167237
 31
0.0
  0
LINE
  5
AFD9
330
AE62
100
AcDbEntity
  8
10100_FRONT_DIM
 62
     7
370
    -2
100
AcDbLine
 10
308.3805994554078
 20
113.8621003460055
 30
0.0
 11
308.3805994554078
 21
97.01210139167237
 31
0.0
  0
LINE
  5
AFDA
330
AE62
100
AcDbEntity
  8
10100_FRONT_DIM
370
    -2
100
AcDbLine
 10
281.8805994554078
 20
99.01210139167234
 30
0.0
 11
304.8805994554078
 21
99.01210139167234
 31
0.0
  0
SOLID
  5
AFDB
330
AE62
100
AcDbEntity
  8
10100_FRONT_DIM
100
AcDbTrace
 10
281.8805994554078
 20
99.5954347250057
 30
0.0
 11
281.8805994554078
 21
98.42876805833904
 31
0.0
 12
278.3805994554078
 22
99.01210139167234
 32
0.0
 13
278.3805994554078
 23
99.01210139167234
 33
0.0
  0
SOLID
  5
AFDC
330
AE62
100
AcDbEntity
  8
10100_FRONT_DIM
100
AcDbTrace
 10
304.8805994554078
 20
99.5954347250057
 30
0.0
 11
304.8805994554078
 21
98.42876805833904
 31
0.0
 12
308.3805994554078
 22
99.01210139167234
 32
0.0
 13
308.3805994554078
 23
99.01210139167234
 33
0.0
  0
MTEXT
  5
AFDD
330
AE62
100
AcDbEntity
  8
10100_FRONT_DIM
 62
     7
370
    18
100
AcDbMText
 10
293.3805994554078
 20
101.2621013916723
 30
0.0
 40
3.5
 41
0.0
 71
     5
 72
     1
  1
\A1;30
 73
     1
 44
1.0
1001
ACAD
1000
MTEXTBEGIN
1070
    73
1070
     1
1070
    44
1040
1.0
1070
    74
1070
     0
1000
MTEXTEND
  0
POINT
  5
AFDE
330
AE62
100
AcDbEntity
  8
Defpoints
 62
     0
100
AcDbPoint
 10
278.3805994554078
 20
112.0121003460056
 30
0.0
  0
POINT
  5
AFDF
330
AE62
100
AcDbEntity
  8
Defpoints
 62
     0
100
AcDbPoint
 10
308.3805994554078
 20
113.8621003460055
 30
0.0
  0
POINT
  5
AFE0
330
AE62
100
AcDbEntity
  8
Defpoints
 62
     0
100
AcDbPoint
 10
308.3805994554078
 20
99.01210139167234
 30
0.0
  0
ENDBLK
  5
AE6D
330
AE62
100
AcDbEntity
  8
0
100
AcDbBlockEnd
  0
BLOCK
  5
AE78
330
AE6E
100
AcDbEntity
  8
0
100
AcDbBlockBegin
  2
*D33
 70
     1
 10
0.0
 20
0.0
 30
0.0
  3
*D33
  1

  0
LINE
  5
AFE1
330
AE6E
100
AcDbEntity
  8
10100_FRONT_DIM
 62
     7
370
    -2
100
AcDbLine
 10
287.6988244286426
 20
218.5121003916723
 30
0.0
 11
258.1202524554079
 21
218.5121003916723
 31
0.0
  0
LINE
  5
AFE2
330
AE6E
100
AcDbEntity
  8
10100_FRONT_DIM
 62
     7
370
    -2
100
AcDbLine
 10
277.6122639554079
 20
190.0121003460055
 30
0.0
 11
258.1202524554079
 21
190.0121003460055
 31
0.0
  0
LINE
  5
AFE3
330
AE6E
100
AcDbEntity
  8
10100_FRONT_DIM
370
    -2
100
AcDbLine
 10
260.1202524554079
 20
215.0121003916723
 30
0.0
 11
260.1202524554079
 21
193.5121003460056
 31
0.0
  0
SOLID
  5
AFE4
330
AE6E
100
AcDbEntity
  8
10100_FRONT_DIM
100
AcDbTrace
 10
259.5369191220746
 20
215.0121003916723
 30
0.0
 11
260.7035857887412
 21
215.0121003916723
 31
0.0
 12
260.1202524554079
 22
218.5121003916723
 32
0.0
 13
260.1202524554079
 23
218.5121003916723
 33
0.0
  0
SOLID
  5
AFE5
330
AE6E
100
AcDbEntity
  8
10100_FRONT_DIM
100
AcDbTrace
 10
259.5369191220746
 20
193.5121003460056
 30
0.0
 11
260.7035857887412
 21
193.5121003460056
 31
0.0
 12
260.1202524554079
 22
190.0121003460055
 32
0.0
 13
260.1202524554079
 23
190.0121003460055
 33
0.0
  0
MTEXT
  5
AFE6
330
AE6E
100
AcDbEntity
  8
10100_FRONT_DIM
 62
     7
370
    18
100
AcDbMText
 10
257.8702524554079
 20
204.262100368839
 30
0.0
 40
3.5
 41
0.0
 71
     5
 72
     1
  1
\A1;28.5
 11
0.0000000000000001
 21
1.0
 31
0.0
 73
     1
 44
1.0
1001
ACAD
1000
MTEXTBEGIN
1070
    73
1070
     1
1070
    44
1040
1.0
1070
    74
1070
     0
1000
MTEXTEND
  0
POINT
  5
AFE7
330
AE6E
100
AcDbEntity
  8
Defpoints
 62
     0
100
AcDbPoint
 10
287.6988244286426
 20
218.5121003916723
 30
0.0
  0
POINT
  5
AFE8
330
AE6E
100
AcDbEntity
  8
Defpoints
 62
     0
100
AcDbPoint
 10
277.6122639554079
 20
190.0121003460055
 30
0.0
  0
POINT
  5
AFE9
330
AE6E
100
AcDbEntity
  8
Defpoints
 62
     0
100
AcDbPoint
 10
260.1202524554079
 20
190.0121003460055
 30
0.0
  0
ENDBLK
  5
AE79
330
AE6E
100
AcDbEntity
  8
0
100
AcDbBlockEnd
  0
BLOCK
  5
AE84
330
AE7A
100
AcDbEntity
  8
0
100
AcDbBlockBegin
  2
*D34
 70
     1
 10
0.0
 20
0.0
 30
0.0
  3
*D34
  1

  0
LINE
  5
AFEA
330
AE7A
100
AcDbEntity
  8
10100_FRONT_DIM
 62
     7
370
    -2
100
AcDbLine
 10
277.8276394554077
 20
190.0121003460055
 30
0.0
 11
248.1202526694236
 21
190.0121003460055
 31
0.0
  0
LINE
  5
AFEB
330
AE7A
100
AcDbEntity
  8
10100_FRONT_DIM
 62
     7
370
    -2
100
AcDbLine
 10
274.1306004554078
 20
112.0121003460056
 30
0.0
 11
248.1202526694236
 21
112.0121003460056
 31
0.0
  0
LINE
  5
AFEC
330
AE7A
100
AcDbEntity
  8
10100_FRONT_DIM
370
    -2
100
AcDbLine
 10
250.1202526694236
 20
186.5121003460055
 30
0.0
 11
250.1202526694236
 21
115.5121003460056
 31
0.0
  0
SOLID
  5
AFED
330
AE7A
100
AcDbEntity
  8
10100_FRONT_DIM
100
AcDbTrace
 10
249.5369193360903
 20
186.5121003460055
 30
0.0
 11
250.703586002757
 21
186.5121003460055
 31
0.0
 12
250.1202526694236
 22
190.0121003460055
 32
0.0
 13
250.1202526694236
 23
190.0121003460055
 33
0.0
  0
SOLID
  5
AFEE
330
AE7A
100
AcDbEntity
  8
10100_FRONT_DIM
100
AcDbTrace
 10
249.5369193360903
 20
115.5121003460056
 30
0.0
 11
250.703586002757
 21
115.5121003460056
 31
0.0
 12
250.1202526694236
 22
112.0121003460056
 32
0.0
 13
250.1202526694236
 23
112.0121003460056
 33
0.0
  0
MTEXT
  5
AFEF
330
AE7A
100
AcDbEntity
  8
10100_FRONT_DIM
 62
     7
370
    18
100
AcDbMText
 10
247.8702526694236
 20
151.0121003460056
 30
0.0
 40
3.5
 41
0.0
 71
     5
 72
     1
  1
\A1;78
 11
0.0000000000000001
 21
1.0
 31
0.0
 73
     1
 44
1.0
1001
ACAD
1000
MTEXTBEGIN
1070
    73
1070
     1
1070
    44
1040
1.0
1070
    74
1070
     0
1000
MTEXTEND
  0
POINT
  5
AFF0
330
AE7A
100
AcDbEntity
  8
Defpoints
 62
     0
100
AcDbPoint
 10
277.8276394554077
 20
190.0121003460055
 30
0.0
  0
POINT
  5
AFF1
330
AE7A
100
AcDbEntity
  8
Defpoints
 62
     0
100
AcDbPoint
 10
274.1306004554078
 20
112.0121003460056
 30
0.0
  0
POINT
  5
AFF2
330
AE7A
100
AcDbEntity
  8
Defpoints
 62
     0
100
AcDbPoint
 10
250.1202526694236
 20
112.0121003460056
 30
0.0
  0
ENDBLK
  5
AE85
330
AE7A
100
AcDbEntity
  8
0
100
AcDbBlockEnd
  0
BLOCK
  5
AE90
330
AE86
100
AcDbEntity
  8
0
100
AcDbBlockBegin
  2
*D35
 70
     1
 10
0.0
 20
0.0
 30
0.0
  3
*D35
  1

  0
LINE
  5
AFF3
330
AE86
100
AcDbEntity
  8
10100_FRONT_DIM
 62
     7
370
    -2
100
AcDbLine
 10
286.8988244286425
 20
221.8121003916722
 30
0.0
 11
286.8988244286425
 21
243.3120748418502
 31
0.0
  0
LINE
  5
AFF4
330
AE86
100
AcDbEntity
  8
10100_FRONT_DIM
 62
     7
370
    -2
100
AcDbLine
 10
299.8988244286425
 20
221.8121003916722
 30
0.0
 11
299.8988244286425
 21
243.3120748418502
 31
0.0
  0
LINE
  5
AFF5
330
AE86
100
AcDbEntity
  8
10100_FRONT_DIM
370
    -2
100
AcDbLine
 10
290.3988244286425
 20
241.3120748418503
 30
0.0
 11
296.3988244286425
 21
241.3120748418503
 31
0.0
  0
SOLID
  5
AFF6
330
AE86
100
AcDbEntity
  8
10100_FRONT_DIM
100
AcDbTrace
 10
290.3988244286425
 20
241.8954081751836
 30
0.0
 11
290.3988244286425
 21
240.7287415085169
 31
0.0
 12
286.8988244286425
 22
241.3120748418503
 32
0.0
 13
286.8988244286425
 23
241.3120748418503
 33
0.0
  0
SOLID
  5
AFF7
330
AE86
100
AcDbEntity
  8
10100_FRONT_DIM
100
AcDbTrace
 10
296.3988244286425
 20
241.8954081751836
 30
0.0
 11
296.3988244286425
 21
240.7287415085169
 31
0.0
 12
299.8988244286425
 22
241.3120748418503
 32
0.0
 13
299.8988244286425
 23
241.3120748418503
 33
0.0
  0
MTEXT
  5
AFF8
330
AE86
100
AcDbEntity
  8
10100_FRONT_DIM
 62
     7
370
    18
100
AcDbMText
 10
293.3988244286425
 20
243.5620748418503
 30
0.0
 40
3.5
 41
0.0
 71
     5
 72
     1
  1
\A1;13
 73
     1
 44
1.0
1001
ACAD
1000
MTEXTBEGIN
1070
    73
1070
     1
1070
    44
1040
1.0
1070
    74
1070
     0
1000
MTEXTEND
  0
POINT
  5
AFF9
330
AE86
100
AcDbEntity
  8
Defpoints
 62
     0
100
AcDbPoint
 10
286.8988244286425
 20
221.8121003916722
 30
0.0
  0
POINT
  5
AFFA
330
AE86
100
AcDbEntity
  8
Defpoints
 62
     0
100
AcDbPoint
 10
299.8988244286425
 20
221.8121003916722
 30
0.0
  0
POINT
  5
AFFB
330
AE86
100
AcDbEntity
  8
Defpoints
 62
     0
100
AcDbPoint
 10
299.8988244286425
 20
241.3120748418503
 30
0.0
  0
ENDBLK
  5
AE91
330
AE86
100
AcDbEntity
  8
0
100
AcDbBlockEnd
  0
BLOCK
  5
AE9E
330
AE92
100
AcDbEntity
  8
0
100
AcDbBlockBegin
  2
*D36
 70
     1
 10
0.0
 20
0.0
 30
0.0
  3
*D36
  1

  0
LINE
  5
AFFC
330
AE92
100
AcDbEntity
  8
10100_FRONT_DIM
 62
     7
370
    -2
100
AcDbLine
 10
311.0305994554078
 20
116.5121003460056
 30
0.0
 11
328.6305984554076
 21
116.5121003460056
 31
0.0
  0
LINE
  5
AFFD
330
AE92
100
AcDbEntity
  8
10100_FRONT_DIM
 62
     7
370
    -2
100
AcDbLine
 10
311.0305994554078
 20
118.5121003460056
 30
0.0
 11
328.6305984554076
 21
118.5121003460056
 31
0.0
  0
LINE
  5
AFFE
330
AE92
100
AcDbEntity
  8
10100_FRONT_DIM
370
    -2
100
AcDbLine
 10
326.6305984554076
 20
113.0121003460056
 30
0.0
 11
326.6305984554076
 21
109.5121003460056
 31
0.0
  0
LINE
  5
AFFF
330
AE92
100
AcDbEntity
  8
10100_FRONT_DIM
370
    -2
100
AcDbLine
 10
326.6305984554076
 20
122.0121003460056
 30
0.0
 11
326.6305984554078
 21
128.8454336793389
 31
0.0
  0
LINE
  5
B000
330
AE92
100
AcDbEntity
  8
10100_FRONT_DIM
370
    -2
100
AcDbLine
 10
326.6305984554076
 20
116.5121003460056
 30
0.0
 11
326.6305984554076
 21
118.5121003460056
 31
0.0
  0
SOLID
  5
B001
330
AE92
100
AcDbEntity
  8
10100_FRONT_DIM
100
AcDbTrace
 10
326.0472651220744
 20
113.0121003460056
 30
0.0
 11
327.213931788741
 21
113.0121003460056
 31
0.0
 12
326.6305984554076
 22
116.5121003460056
 32
0.0
 13
326.6305984554076
 23
116.5121003460056
 33
0.0
  0
SOLID
  5
B002
330
AE92
100
AcDbEntity
  8
10100_FRONT_DIM
100
AcDbTrace
 10
326.0472651220744
 20
122.0121003460056
 30
0.0
 11
327.213931788741
 21
122.0121003460056
 31
0.0
 12
326.6305984554076
 22
118.5121003460056
 32
0.0
 13
326.6305984554076
 23
118.5121003460056
 33
0.0
  0
MTEXT
  5
B003
330
AE92
100
AcDbEntity
  8
10100_FRONT_DIM
 62
     7
370
    18
100
AcDbMText
 10
324.3805984554076
 20
127.1787670126723
 30
0.0
 40
3.5
 41
0.0
 71
     5
 72
     1
  1
\A1;2
 11
0.0000000000000001
 21
1.0
 31
0.0
 73
     1
 44
1.0
1001
ACAD
1000
MTEXTBEGIN
1070
    73
1070
     1
1070
    44
1040
1.0
1070
    74
1070
     0
1000
MTEXTEND
  0
POINT
  5
B004
330
AE92
100
AcDbEntity
  8
Defpoints
 62
     0
100
AcDbPoint
 10
311.0305994554078
 20
116.5121003460056
 30
0.0
  0
POINT
  5
B005
330
AE92
100
AcDbEntity
  8
Defpoints
 62
     0
100
AcDbPoint
 10
311.0305994554078
 20
118.5121003460056
 30
0.0
  0
POINT
  5
B006
330
AE92
100
AcDbEntity
  8
Defpoints
 62
     0
100
AcDbPoint
 10
326.6305984554076
 20
118.5121003460056
 30
0.0
  0
ENDBLK
  5
AE9F
330
AE92
100
AcDbEntity
  8
0
100
AcDbBlockEnd
  0
BLOCK
  5
AEAA
330
AEA0
100
AcDbEntity
  8
0
100
AcDbBlockBegin
  2
*D37
 70
     1
 10
0.0
 20
0.0
 30
0.0
  3
*D37
  1

  0
LINE
  5
B007
330
AEA0
100
AcDbEntity
  8
10100_FRONT_DIM
  6
ByBlock
 62
     7
370
    -2
100
AcDbLine
 10
311.0305994554078
 20
116.5121003460056
 30
0.0
 11
338.6305984554077
 21
116.5121003460056
 31
0.0
  0
LINE
  5
B008
330
AEA0
100
AcDbEntity
  8
10100_FRONT_DIM
  6
ByBlock
 62
     7
370
    -2
100
AcDbLine
 10
311.0305994554078
 20
177.5121003460055
 30
0.0
 11
338.6305984554077
 21
177.5121003460055
 31
0.0
  0
LINE
  5
B009
330
AEA0
100
AcDbEntity
  8
10100_FRONT_DIM
  6
ByBlock
370
    -2
100
AcDbLine
 10
336.6305984554077
 20
120.0121003460056
 30
0.0
 11
336.6305984554077
 21
174.0121003460055
 31
0.0
  0
SOLID
  5
B00A
330
AEA0
100
AcDbEntity
  8
10100_FRONT_DIM
  6
ByBlock
100
AcDbTrace
 10
336.0472651220744
 20
120.0121003460056
 30
0.0
 11
337.213931788741
 21
120.0121003460056
 31
0.0
 12
336.6305984554077
 22
116.5121003460056
 32
0.0
 13
336.6305984554077
 23
116.5121003460056
 33
0.0
  0
SOLID
  5
B00B
330
AEA0
100
AcDbEntity
  8
10100_FRONT_DIM
  6
ByBlock
100
AcDbTrace
 10
336.0472651220744
 20
174.0121003460055
 30
0.0
 11
337.213931788741
 21
174.0121003460055
 31
0.0
 12
336.6305984554077
 22
177.5121003460055
 32
0.0
 13
336.6305984554077
 23
177.5121003460055
 33
0.0
  0
MTEXT
  5
B00C
330
AEA0
100
AcDbEntity
  8
10100_FRONT_DIM
  6
ByBlock
 62
     7
370
    18
100
AcDbMText
 10
334.3805984554077
 20
147.0121003460056
 30
0.0
 40
3.5
 41
0.0
 71
     5
 72
     1
  1
\A1;61
 11
0.0000000000000001
 21
1.0
 31
0.0
 73
     1
 44
1.0
1001
ACAD
1000
MTEXTBEGIN
1070
    73
1070
     1
1070
    44
1040
1.0
1070
    74
1070
     0
1000
MTEXTEND
  0
POINT
  5
B00D
330
AEA0
100
AcDbEntity
  8
Defpoints
  6
ByBlock
 62
     0
100
AcDbPoint
 10
311.0305994554078
 20
116.5121003460056
 30
0.0
  0
POINT
  5
B00E
330
AEA0
100
AcDbEntity
  8
Defpoints
  6
ByBlock
 62
     0
100
AcDbPoint
 10
311.0305994554078
 20
177.5121003460055
 30
0.0
  0
POINT
  5
B00F
330
AEA0
100
AcDbEntity
  8
Defpoints
  6
ByBlock
 62
     0
100
AcDbPoint
 10
336.6305984554077
 20
177.5121003460055
 30
0.0
  0
ENDBLK
  5
AEAB
330
AEA0
100
AcDbEntity
  8
0
100
AcDbBlockEnd
  0
BLOCK
  5
AEB6
330
AEAC
100
AcDbEntity
  8
0
100
AcDbBlockBegin
  2
*D38
 70
     1
 10
0.0
 20
0.0
 30
0.0
  3
*D38
  1

  0
LINE
  5
B010
330
AEAC
100
AcDbEntity
  8
10100_FRONT_DIM
 62
     7
370
    -2
100
AcDbLine
 10
311.0305994554078
 20
177.5121003460055
 30
0.0
 11
338.6305984554077
 21
177.5121003460055
 31
0.0
  0
LINE
  5
B011
330
AEAC
100
AcDbEntity
  8
10100_FRONT_DIM
 62
     7
370
    -2
100
AcDbLine
 10
309.9092018779397
 20
190.0121003916726
 30
0.0
 11
338.6305984554077
 21
190.0121003916725
 31
0.0
  0
LINE
  5
B012
330
AEAC
100
AcDbEntity
  8
10100_FRONT_DIM
370
    -2
100
AcDbLine
 10
336.6305984554077
 20
181.0121003460055
 30
0.0
 11
336.6305984554077
 21
186.5121003916725
 31
0.0
  0
SOLID
  5
B013
330
AEAC
100
AcDbEntity
  8
10100_FRONT_DIM
100
AcDbTrace
 10
336.0472651220744
 20
181.0121003460055
 30
0.0
 11
337.213931788741
 21
181.0121003460055
 31
0.0
 12
336.6305984554077
 22
177.5121003460055
 32
0.0
 13
336.6305984554077
 23
177.5121003460055
 33
0.0
  0
SOLID
  5
B014
330
AEAC
100
AcDbEntity
  8
10100_FRONT_DIM
100
AcDbTrace
 10
336.0472651220744
 20
186.5121003916725
 30
0.0
 11
337.213931788741
 21
186.5121003916725
 31
0.0
 12
336.6305984554077
 22
190.0121003916725
 32
0.0
 13
336.6305984554077
 23
190.0121003916725
 33
0.0
  0
MTEXT
  5
B015
330
AEAC
100
AcDbEntity
  8
10100_FRONT_DIM
 62
     7
370
    18
100
AcDbMText
 10
334.3805984554077
 20
183.7621003688391
 30
0.0
 40
3.5
 41
0.0
 71
     5
 72
     1
  1
\A1;12.5
 11
0.0000000000000001
 21
1.0
 31
0.0
 73
     1
 44
1.0
1001
ACAD
1000
MTEXTBEGIN
1070
    73
1070
     1
1070
    44
1040
1.0
1070
    74
1070
     0
1000
MTEXTEND
  0
POINT
  5
B016
330
AEAC
100
AcDbEntity
  8
Defpoints
 62
     0
100
AcDbPoint
 10
311.0305994554078
 20
177.5121003460055
 30
0.0
  0
POINT
  5
B017
330
AEAC
100
AcDbEntity
  8
Defpoints
 62
     0
100
AcDbPoint
 10
309.9092018779397
 20
190.0121003916726
 30
0.0
  0
POINT
  5
B018
330
AEAC
100
AcDbEntity
  8
Defpoints
 62
     0
100
AcDbPoint
 10
336.6305984554077
 20
190.0121003916725
 30
0.0
  0
ENDBLK
  5
AEB7
330
AEAC
100
AcDbEntity
  8
0
100
AcDbBlockEnd
  0
BLOCK
  5
AEC2
330
AEB8
100
AcDbEntity
  8
0
100
AcDbBlockBegin
  2
*D39
 70
     1
 10
0.0
 20
0.0
 30
0.0
  3
*D39
  1

  0
LINE
  5
B019
330
AEB8
100
AcDbEntity
  8
10100_FRONT_DIM
  6
Continuous
 62
     7
370
    -2
100
AcDbLine
 10
281.8806007380344
 20
190.0121003816748
 30
0.0
 11
248.1202524554078
 21
190.0121003816748
 31
0.0
  0
LINE
  5
B01A
330
AEB8
100
AcDbEntity
  8
10100_FRONT_DIM
  6
Continuous
 62
     7
370
    -2
100
AcDbLine
 10
293.4170493301115
 20
228.3120748418502
 30
0.0
 11
248.1202524554078
 21
228.3120748418502
 31
0.0
  0
LINE
  5
B01B
330
AEB8
100
AcDbEntity
  8
10100_FRONT_DIM
  6
Continuous
370
    -2
100
AcDbLine
 10
250.1202524554078
 20
193.5121003816748
 30
0.0
 11
250.1202524554078
 21
224.8120748418503
 31
0.0
  0
SOLID
  5
B01C
330
AEB8
100
AcDbEntity
  8
10100_FRONT_DIM
  6
Continuous
100
AcDbTrace
 10
249.5369191220745
 20
193.5121003816748
 30
0.0
 11
250.7035857887411
 21
193.5121003816748
 31
0.0
 12
250.1202524554078
 22
190.0121003816748
 32
0.0
 13
250.1202524554078
 23
190.0121003816748
 33
0.0
  0
SOLID
  5
B01D
330
AEB8
100
AcDbEntity
  8
10100_FRONT_DIM
  6
Continuous
100
AcDbTrace
 10
249.5369191220745
 20
224.8120748418503
 30
0.0
 11
250.7035857887411
 21
224.8120748418503
 31
0.0
 12
250.1202524554078
 22
228.3120748418502
 32
0.0
 13
250.1202524554078
 23
228.3120748418502
 33
0.0
  0
MTEXT
  5
B01E
330
AEB8
100
AcDbEntity
  8
10100_FRONT_DIM
  6
Continuous
 62
     7
370
    18
100
AcDbMText
 10
247.8702524554079
 20
209.1620876117626
 30
0.0
 40
3.5
 41
0.0
 71
     5
 72
     1
  1
\A1;38.3
 11
0.0000000000000001
 21
1.0
 31
0.0
 73
     1
 44
1.0
1001
ACAD
1000
MTEXTBEGIN
1070
    73
1070
     1
1070
    44
1040
1.0
1070
    74
1070
     0
1000
MTEXTEND
  0
POINT
  5
B01F
330
AEB8
100
AcDbEntity
  8
Defpoints
  6
Continuous
 62
     0
100
AcDbPoint
 10
281.8806007380344
 20
190.0121003816748
 30
0.0
  0
POINT
  5
B020
330
AEB8
100
AcDbEntity
  8
Defpoints
  6
Continuous
 62
     0
100
AcDbPoint
 10
293.4170493301115
 20
228.3120748418502
 30
0.0
  0
POINT
  5
B021
330
AEB8
100
AcDbEntity
  8
Defpoints
  6
Continuous
 62
     0
100
AcDbPoint
 10
250.1202524554078
 20
228.3120748418502
 30
0.0
  0
ENDBLK
  5
AEC3
330
AEB8
100
AcDbEntity
  8
0
100
AcDbBlockEnd
  0
BLOCK
  5
AED0
330
AEC4
100
AcDbEntity
  8
0
100
AcDbBlockBegin
  2
*D40
 70
     1
 10
0.0
 20
0.0
 30
0.0
  3
*D40
  1

  0
LINE
  5
B022
330
AEC4
100
AcDbEntity
  8
10100_FRONT_DIM
 62
     7
370
    -2
100
AcDbLine
 10
268.5167874286425
 20
127.1686363916723
 30
0.0
 11
268.5167874286425
 21
87.01210139167239
 31
0.0
  0
LINE
  5
B023
330
AEC4
100
AcDbEntity
  8
10100_FRONT_DIM
 62
     7
370
    -2
100
AcDbLine
 10
273.1306004554078
 20
113.0121003460056
 30
0.0
 11
273.1306004554078
 21
87.01210139167239
 31
0.0
  0
LINE
  5
B024
330
AEC4
100
AcDbEntity
  8
10100_FRONT_DIM
370
    -2
100
AcDbLine
 10
276.6306004554078
 20
89.01210139167238
 30
0.0
 11
280.1306004554078
 21
89.01210139167238
 31
0.0
  0
LINE
  5
B025
330
AEC4
100
AcDbEntity
  8
10100_FRONT_DIM
370
    -2
100
AcDbLine
 10
265.0167874286425
 20
89.01210139167238
 30
0.0
 11
253.5167874286425
 21
89.01210139167238
 31
0.0
  0
LINE
  5
B026
330
AEC4
100
AcDbEntity
  8
10100_FRONT_DIM
370
    -2
100
AcDbLine
 10
273.1306004554078
 20
89.01210139167238
 30
0.0
 11
268.5167874286425
 21
89.01210139167238
 31
0.0
  0
SOLID
  5
B027
330
AEC4
100
AcDbEntity
  8
10100_FRONT_DIM
100
AcDbTrace
 10
276.6306004554078
 20
89.5954347250057
 30
0.0
 11
276.6306004554078
 21
88.42876805833904
 31
0.0
 12
273.1306004554078
 22
89.01210139167238
 32
0.0
 13
273.1306004554078
 23
89.01210139167238
 33
0.0
  0
SOLID
  5
B028
330
AEC4
100
AcDbEntity
  8
10100_FRONT_DIM
100
AcDbTrace
 10
265.0167874286425
 20
89.5954347250057
 30
0.0
 11
265.0167874286425
 21
88.42876805833904
 31
0.0
 12
268.5167874286425
 22
89.01210139167238
 32
0.0
 13
268.5167874286425
 23
89.01210139167238
 33
0.0
  0
MTEXT
  5
B029
330
AEC4
100
AcDbEntity
  8
10100_FRONT_DIM
 62
     7
370
    18
100
AcDbMText
 10
257.5167874286425
 20
91.26210139167239
 30
0.0
 40
3.5
 41
0.0
 71
     5
 72
     1
  1
\A1;4.6
 73
     1
 44
1.0
1001
ACAD
1000
MTEXTBEGIN
1070
    73
1070
     1
1070
    44
1040
1.0
1070
    74
1070
     0
1000
MTEXTEND
  0
POINT
  5
B02A
330
AEC4
100
AcDbEntity
  8
Defpoints
 62
     0
100
AcDbPoint
 10
268.5167874286425
 20
127.1686363916723
 30
0.0
  0
POINT
  5
B02B
330
AEC4
100
AcDbEntity
  8
Defpoints
 62
     0
100
AcDbPoint
 10
273.1306004554078
 20
113.0121003460056
 30
0.0
  0
POINT
  5
B02C
330
AEC4
100
AcDbEntity
  8
Defpoints
 62
     0
100
AcDbPoint
 10
273.1306004554078
 20
89.01210139167238
 30
0.0
  0
ENDBLK
  5
AED1
330
AEC4
100
AcDbEntity
  8
0
100
AcDbBlockEnd
  0
BLOCK
  5
AEDE
330
AED2
100
AcDbEntity
  8
0
100
AcDbBlockBegin
  2
*D41
 70
     1
 10
0.0
 20
0.0
 30
0.0
  3
*D41
  1

  0
LINE
  5
B02D
330
AED2
100
AcDbEntity
  8
10100_FRONT_DIM
 62
     7
370
    -2
100
AcDbLine
 10
292.3988244286425
 20
106.5249743916724
 30
0.0
 11
248.1008870508443
 21
106.5249743916724
 31
0.0
  0
LINE
  5
B02E
330
AED2
100
AcDbEntity
  8
10100_FRONT_DIM
 62
     7
370
    -2
100
AcDbLine
 10
274.1306004554078
 20
112.0121003460056
 30
0.0
 11
248.1008870508443
 21
112.0121003460056
 31
0.0
  0
LINE
  5
B02F
330
AED2
100
AcDbEntity
  8
10100_FRONT_DIM
370
    -2
100
AcDbLine
 10
250.1008870508443
 20
115.5121003460056
 30
0.0
 11
250.1008870508443
 21
119.0121003460056
 31
0.0
  0
LINE
  5
B030
330
AED2
100
AcDbEntity
  8
10100_FRONT_DIM
370
    -2
100
AcDbLine
 10
250.1008870508443
 20
103.0249743916724
 30
0.0
 11
250.1008870508443
 21
91.5249743916723
 31
0.0
  0
LINE
  5
B031
330
AED2
100
AcDbEntity
  8
10100_FRONT_DIM
370
    -2
100
AcDbLine
 10
250.1008870508443
 20
112.0121003460056
 30
0.0
 11
250.1008870508443
 21
106.5249743916724
 31
0.0
  0
SOLID
  5
B032
330
AED2
100
AcDbEntity
  8
10100_FRONT_DIM
100
AcDbTrace
 10
249.517553717511
 20
115.5121003460056
 30
0.0
 11
250.6842203841777
 21
115.5121003460056
 31
0.0
 12
250.1008870508443
 22
112.0121003460056
 32
0.0
 13
250.1008870508443
 23
112.0121003460056
 33
0.0
  0
SOLID
  5
B033
330
AED2
100
AcDbEntity
  8
10100_FRONT_DIM
100
AcDbTrace
 10
249.517553717511
 20
103.0249743916724
 30
0.0
 11
250.6842203841777
 21
103.0249743916724
 31
0.0
 12
250.1008870508443
 22
106.5249743916724
 32
0.0
 13
250.1008870508443
 23
106.5249743916724
 33
0.0
  0
MTEXT
  5
B034
330
AED2
100
AcDbEntity
  8
10100_FRONT_DIM
 62
     7
370
    18
100
AcDbMText
 10
247.8508870508443
 20
95.52497439167234
 30
0.0
 40
3.5
 41
0.0
 71
     5
 72
     1
  1
\A1;5.5
 11
0.0000000000000001
 21
1.0
 31
0.0
 73
     1
 44
1.0
1001
ACAD
1000
MTEXTBEGIN
1070
    73
1070
     1
1070
    44
1040
1.0
1070
    74
1070
     0
1000
MTEXTEND
  0
POINT
  5
B035
330
AED2
100
AcDbEntity
  8
Defpoints
 62
     0
100
AcDbPoint
 10
292.3988244286425
 20
106.5249743916724
 30
0.0
  0
POINT
  5
B036
330
AED2
100
AcDbEntity
  8
Defpoints
 62
     0
100
AcDbPoint
 10
274.1306004554078
 20
112.0121003460056
 30
0.0
  0
POINT
  5
B037
330
AED2
100
AcDbEntity
  8
Defpoints
 62
     0
100
AcDbPoint
 10
250.1008870508443
 20
112.0121003460056
 30
0.0
  0
ENDBLK
  5
AEDF
330
AED2
100
AcDbEntity
  8
0
100
AcDbBlockEnd
  0
BLOCK
  5
AEEC
330
AEE0
100
AcDbEntity
  8
0
100
AcDbBlockBegin
  2
*D42
 70
     1
 10
0.0
 20
0.0
 30
0.0
  3
*D42
  1

  0
LINE
  5
B038
330
AEE0
100
AcDbEntity
  8
11100_LEFT_DIM
 62
     7
370
    -2
100
AcDbLine
 10
379.4094644286425
 20
133.4121003916723
 30
0.0
 11
379.4094644286425
 21
148.4121003916722
 31
0.0
  0
LINE
  5
B039
330
AEE0
100
AcDbEntity
  8
11100_LEFT_DIM
 62
     7
370
    -2
100
AcDbLine
 10
373.4094644286424
 20
135.0120998916723
 30
0.0
 11
373.4094644286424
 21
148.4121003916722
 31
0.0
  0
LINE
  5
B03A
330
AEE0
100
AcDbEntity
  8
11100_LEFT_DIM
370
    -2
100
AcDbLine
 10
382.9094644286425
 20
146.4121003916723
 30
0.0
 11
386.4094644286425
 21
146.4121003916723
 31
0.0
  0
LINE
  5
B03B
330
AEE0
100
AcDbEntity
  8
11100_LEFT_DIM
370
    -2
100
AcDbLine
 10
369.9094644286424
 20
146.4121003916723
 30
0.0
 11
366.4094644286424
 21
146.4121003916723
 31
0.0
  0
LINE
  5
B03C
330
AEE0
100
AcDbEntity
  8
11100_LEFT_DIM
370
    -2
100
AcDbLine
 10
379.4094644286425
 20
146.4121003916723
 30
0.0
 11
373.4094644286424
 21
146.4121003916723
 31
0.0
  0
SOLID
  5
B03D
330
AEE0
100
AcDbEntity
  8
11100_LEFT_DIM
100
AcDbTrace
 10
382.9094644286425
 20
146.9954337250056
 30
0.0
 11
382.9094644286425
 21
145.8287670583389
 31
0.0
 12
379.4094644286425
 22
146.4121003916723
 32
0.0
 13
379.4094644286425
 23
146.4121003916723
 33
0.0
  0
SOLID
  5
B03E
330
AEE0
100
AcDbEntity
  8
11100_LEFT_DIM
100
AcDbTrace
 10
369.9094644286424
 20
146.9954337250056
 30
0.0
 11
369.9094644286424
 21
145.8287670583389
 31
0.0
 12
373.4094644286424
 22
146.4121003916723
 32
0.0
 13
373.4094644286424
 23
146.4121003916723
 33
0.0
  0
MTEXT
  5
B03F
330
AEE0
100
AcDbEntity
  8
11100_LEFT_DIM
 62
     7
370
     0
100
AcDbMText
 10
376.4094644286424
 20
148.6621003916723
 30
0.0
 40
3.5
 41
0.0
 71
     5
 72
     1
  1
\A1;6
 73
     1
 44
1.0
1001
ACAD
1000
MTEXTBEGIN
1070
    73
1070
     1
1070
    44
1040
1.0
1070
    74
1070
     0
1000
MTEXTEND
  0
POINT
  5
B040
330
AEE0
100
AcDbEntity
  8
Defpoints
 62
     0
100
AcDbPoint
 10
379.4094644286425
 20
133.4121003916723
 30
0.0
  0
POINT
  5
B041
330
AEE0
100
AcDbEntity
  8
Defpoints
 62
     0
100
AcDbPoint
 10
373.4094644286424
 20
135.0120998916723
 30
0.0
  0
POINT
  5
B042
330
AEE0
100
AcDbEntity
  8
Defpoints
 62
     0
100
AcDbPoint
 10
373.4094644286424
 20
146.4121003916723
 30
0.0
  0
ENDBLK
  5
AEED
330
AEE0
100
AcDbEntity
  8
0
100
AcDbBlockEnd
  0
BLOCK
  5
AEF8
330
AEEE
100
AcDbEntity
  8
0
100
AcDbBlockBegin
  2
*D43
 70
     1
 10
0.0
 20
0.0
 30
0.0
  3
*D43
  1

  0
LINE
  5
B043
330
AEEE
100
AcDbEntity
  8
11100_LEFT_DIM
 62
     7
370
    -2
100
AcDbLine
 10
376.4295864286425
 20
129.9359723916722
 30
0.0
 11
358.4094644286425
 21
129.9359723916722
 31
0.0
  0
LINE
  5
B044
330
AEEE
100
AcDbEntity
  8
11100_LEFT_DIM
 62
     7
370
    -2
100
AcDbLine
 10
373.4094644286424
 20
112.0121003916723
 30
0.0
 11
358.4094644286424
 21
112.0121003916723
 31
0.0
  0
LINE
  5
B045
330
AEEE
100
AcDbEntity
  8
11100_LEFT_DIM
370
    -2
100
AcDbLine
 10
360.4094644286424
 20
126.4359723916722
 30
0.0
 11
360.4094644286424
 21
115.5121003916723
 31
0.0
  0
SOLID
  5
B046
330
AEEE
100
AcDbEntity
  8
11100_LEFT_DIM
100
AcDbTrace
 10
359.8261310953092
 20
126.4359723916722
 30
0.0
 11
360.9927977619757
 21
126.4359723916722
 31
0.0
 12
360.4094644286425
 22
129.9359723916722
 32
0.0
 13
360.4094644286425
 23
129.9359723916722
 33
0.0
  0
SOLID
  5
B047
330
AEEE
100
AcDbEntity
  8
11100_LEFT_DIM
100
AcDbTrace
 10
359.8261310953092
 20
115.5121003916723
 30
0.0
 11
360.9927977619757
 21
115.5121003916723
 31
0.0
 12
360.4094644286424
 22
112.0121003916723
 32
0.0
 13
360.4094644286424
 23
112.0121003916723
 33
0.0
  0
MTEXT
  5
B048
330
AEEE
100
AcDbEntity
  8
11100_LEFT_DIM
 62
     7
370
     0
100
AcDbMText
 10
358.1594644286424
 20
120.9740363916723
 30
0.0
 40
3.5
 41
0.0
 71
     5
 72
     1
  1
\A1;18
 11
0.0000000000000001
 21
1.0
 31
0.0
 73
     1
 44
1.0
1001
ACAD
1000
MTEXTBEGIN
1070
    73
1070
     1
1070
    44
1040
1.0
1070
    74
1070
     0
1000
MTEXTEND
  0
POINT
  5
B049
330
AEEE
100
AcDbEntity
  8
Defpoints
 62
     0
100
AcDbPoint
 10
376.4295864286425
 20
129.9359723916722
 30
0.0
  0
POINT
  5
B04A
330
AEEE
100
AcDbEntity
  8
Defpoints
 62
     0
100
AcDbPoint
 10
373.4094644286424
 20
112.0121003916723
 30
0.0
  0
POINT
  5
B04B
330
AEEE
100
AcDbEntity
  8
Defpoints
 62
     0
100
AcDbPoint
 10
360.4094644286424
 20
112.0121003916723
 30
0.0
  0
ENDBLK
  5
AEF9
330
AEEE
100
AcDbEntity
  8
0
100
AcDbBlockEnd
  0
BLOCK
  5
AF04
330
AEFA
100
AcDbEntity
  8
0
100
AcDbBlockBegin
  2
*D44
 70
     1
 10
0.0
 20
0.0
 30
0.0
  3
*D44
  1

  0
LINE
  5
B04C
330
AEFA
100
AcDbEntity
  8
11100_LEFT_DIM
 62
     7
370
    -2
100
AcDbLine
 10
373.4094644286424
 20
112.0121003916723
 30
0.0
 11
373.4094644286424
 21
91.5249743916723
 31
0.0
  0
LINE
  5
B04D
330
AEFA
100
AcDbEntity
  8
11100_LEFT_DIM
 62
     7
370
    -2
100
AcDbLine
 10
388.7094644286425
 20
106.5249743916724
 30
0.0
 11
388.7094644286425
 21
91.5249743916723
 31
0.0
  0
LINE
  5
B04E
330
AEFA
100
AcDbEntity
  8
11100_LEFT_DIM
370
    -2
100
AcDbLine
 10
376.9094644286424
 20
93.5249743916723
 30
0.0
 11
385.2094644286425
 21
93.5249743916723
 31
0.0
  0
SOLID
  5
B04F
330
AEFA
100
AcDbEntity
  8
11100_LEFT_DIM
100
AcDbTrace
 10
376.9094644286424
 20
94.10830772500565
 30
0.0
 11
376.9094644286424
 21
92.94164105833898
 31
0.0
 12
373.4094644286424
 22
93.5249743916723
 32
0.0
 13
373.4094644286424
 23
93.5249743916723
 33
0.0
  0
SOLID
  5
B050
330
AEFA
100
AcDbEntity
  8
11100_LEFT_DIM
100
AcDbTrace
 10
385.2094644286425
 20
94.10830772500565
 30
0.0
 11
385.2094644286425
 21
92.94164105833898
 31
0.0
 12
388.7094644286425
 22
93.5249743916723
 32
0.0
 13
388.7094644286425
 23
93.5249743916723
 33
0.0
  0
MTEXT
  5
B051
330
AEFA
100
AcDbEntity
  8
11100_LEFT_DIM
 62
     7
370
    18
100
AcDbMText
 10
381.0594644286425
 20
95.77497439167229
 30
0.0
 40
3.5
 41
0.0
 71
     5
 72
     1
  1
\A1;15.3
 73
     1
 44
1.0
1001
ACAD
1000
MTEXTBEGIN
1070
    73
1070
     1
1070
    44
1040
1.0
1070
    74
1070
     0
1000
MTEXTEND
  0
POINT
  5
B052
330
AEFA
100
AcDbEntity
  8
Defpoints
 62
     0
100
AcDbPoint
 10
373.4094644286424
 20
112.0121003916723
 30
0.0
  0
POINT
  5
B053
330
AEFA
100
AcDbEntity
  8
Defpoints
 62
     0
100
AcDbPoint
 10
388.7094644286425
 20
106.5249743916724
 30
0.0
  0
POINT
  5
B054
330
AEFA
100
AcDbEntity
  8
Defpoints
 62
     0
100
AcDbPoint
 10
388.7094644286425
 20
93.5249743916723
 30
0.0
  0
ENDBLK
  5
AF05
330
AEFA
100
AcDbEntity
  8
0
100
AcDbBlockEnd
  0
BLOCK
  5
AF10
330
AF06
100
AcDbEntity
  8
0
100
AcDbBlockBegin
  2
*D45
 70
     1
 10
0.0
 20
0.0
 30
0.0
  3
*D45
  1

  0
LINE
  5
B055
330
AF06
100
AcDbEntity
  8
11100_LEFT_DIM
 62
     7
370
    -2
100
AcDbLine
 10
373.4094644286424
 20
112.0121003916723
 30
0.0
 11
373.4094644286424
 21
81.52497439167236
 31
0.0
  0
LINE
  5
B056
330
AF06
100
AcDbEntity
  8
11100_LEFT_DIM
 62
     7
370
    -2
100
AcDbLine
 10
410.7094644286425
 20
112.0121003916723
 30
0.0
 11
410.7094644286425
 21
81.52497439167236
 31
0.0
  0
LINE
  5
B057
330
AF06
100
AcDbEntity
  8
11100_LEFT_DIM
370
    -2
100
AcDbLine
 10
376.9094644286424
 20
83.52497439167235
 30
0.0
 11
407.2094644286424
 21
83.52497439167235
 31
0.0
  0
SOLID
  5
B058
330
AF06
100
AcDbEntity
  8
11100_LEFT_DIM
100
AcDbTrace
 10
376.9094644286424
 20
84.10830772500569
 30
0.0
 11
376.9094644286424
 21
82.94164105833903
 31
0.0
 12
373.4094644286424
 22
83.52497439167235
 32
0.0
 13
373.4094644286424
 23
83.52497439167235
 33
0.0
  0
SOLID
  5
B059
330
AF06
100
AcDbEntity
  8
11100_LEFT_DIM
100
AcDbTrace
 10
407.2094644286424
 20
84.10830772500569
 30
0.0
 11
407.2094644286424
 21
82.94164105833903
 31
0.0
 12
410.7094644286425
 22
83.52497439167235
 32
0.0
 13
410.7094644286425
 23
83.52497439167235
 33
0.0
  0
MTEXT
  5
B05A
330
AF06
100
AcDbEntity
  8
11100_LEFT_DIM
 62
     7
370
    18
100
AcDbMText
 10
392.0594644286424
 20
85.77497439167236
 30
0.0
 40
3.5
 41
0.0
 71
     5
 72
     1
  1
\A1;37.3
 73
     1
 44
1.0
1001
ACAD
1000
MTEXTBEGIN
1070
    73
1070
     1
1070
    44
1040
1.0
1070
    74
1070
     0
1000
MTEXTEND
  0
POINT
  5
B05B
330
AF06
100
AcDbEntity
  8
Defpoints
 62
     0
100
AcDbPoint
 10
373.4094644286424
 20
112.0121003916723
 30
0.0
  0
POINT
  5
B05C
330
AF06
100
AcDbEntity
  8
Defpoints
 62
     0
100
AcDbPoint
 10
410.7094644286425
 20
112.0121003916723
 30
0.0
  0
POINT
  5
B05D
330
AF06
100
AcDbEntity
  8
Defpoints
 62
     0
100
AcDbPoint
 10
410.7094644286425
 20
83.52497439167235
 30
0.0
  0
ENDBLK
  5
AF11
330
AF06
100
AcDbEntity
  8
0
100
AcDbBlockEnd
  0
BLOCK
  5
AF1C
330
AF12
100
AcDbEntity
  8
0
100
AcDbBlockBegin
  2
*D46
 70
     1
 10
0.0
 20
0.0
 30
0.0
  3
*D46
  1

  0
LINE
  5
B05E
330
AF12
100
AcDbEntity
  8
11100_LEFT_DIM
 62
     7
370
    -2
100
AcDbLine
 10
373.4094644286424
 20
190.0121003916723
 30
0.0
 11
373.4094644286424
 21
253.3120748418502
 31
0.0
  0
LINE
  5
B05F
330
AF12
100
AcDbEntity
  8
11100_LEFT_DIM
 62
     7
370
    -2
100
AcDbLine
 10
389.7094644286424
 20
248.4370748418502
 30
0.0
 11
389.7094644286424
 21
253.3120748418502
 31
0.0
  0
LINE
  5
B060
330
AF12
100
AcDbEntity
  8
11100_LEFT_DIM
370
    -2
100
AcDbLine
 10
376.9094644286424
 20
251.3120748418502
 30
0.0
 11
386.2094644286425
 21
251.3120748418502
 31
0.0
  0
SOLID
  5
B061
330
AF12
100
AcDbEntity
  8
11100_LEFT_DIM
100
AcDbTrace
 10
376.9094644286424
 20
251.8954081751836
 30
0.0
 11
376.9094644286424
 21
250.7287415085169
 31
0.0
 12
373.4094644286424
 22
251.3120748418502
 32
0.0
 13
373.4094644286424
 23
251.3120748418502
 33
0.0
  0
SOLID
  5
B062
330
AF12
100
AcDbEntity
  8
11100_LEFT_DIM
100
AcDbTrace
 10
386.2094644286425
 20
251.8954081751836
 30
0.0
 11
386.2094644286425
 21
250.7287415085169
 31
0.0
 12
389.7094644286424
 22
251.3120748418502
 32
0.0
 13
389.7094644286424
 23
251.3120748418502
 33
0.0
  0
MTEXT
  5
B063
330
AF12
100
AcDbEntity
  8
11100_LEFT_DIM
 62
     7
370
    18
100
AcDbMText
 10
381.5594644286424
 20
253.5620748418502
 30
0.0
 40
3.5
 41
0.0
 71
     5
 72
     1
  1
\A1;16.3
 73
     1
 44
1.0
1001
ACAD
1000
MTEXTBEGIN
1070
    73
1070
     1
1070
    44
1040
1.0
1070
    74
1070
     0
1000
MTEXTEND
  0
POINT
  5
B064
330
AF12
100
AcDbEntity
  8
Defpoints
 62
     0
100
AcDbPoint
 10
373.4094644286424
 20
190.0121003916723
 30
0.0
  0
POINT
  5
B065
330
AF12
100
AcDbEntity
  8
Defpoints
 62
     0
100
AcDbPoint
 10
389.7094644286424
 20
248.4370748418502
 30
0.0
  0
POINT
  5
B066
330
AF12
100
AcDbEntity
  8
Defpoints
 62
     0
100
AcDbPoint
 10
389.7094644286424
 20
251.3120748418502
 30
0.0
  0
ENDBLK
  5
AF1D
330
AF12
100
AcDbEntity
  8
0
100
AcDbBlockEnd
  0
BLOCK
  5
AF2A
330
AF1E
100
AcDbEntity
  8
0
100
AcDbBlockBegin
  2
*D47
 70
     1
 10
0.0
 20
0.0
 30
0.0
  3
*D47
  1

  0
LINE
  5
B067
330
AF1E
100
AcDbEntity
  8
11100_LEFT_DIM
 62
     7
370
    -2
100
AcDbLine
 10
387.1744344286426
 20
228.0121003916724
 30
0.0
 11
387.1744344286426
 21
243.3120748418502
 31
0.0
  0
LINE
  5
B068
330
AF1E
100
AcDbEntity
  8
11100_LEFT_DIM
 62
     7
370
    -2
100
AcDbLine
 10
392.1744344286425
 20
228.0121003916724
 30
0.0
 11
392.1744344286425
 21
243.3120748418502
 31
0.0
  0
LINE
  5
B069
330
AF1E
100
AcDbEntity
  8
11100_LEFT_DIM
370
    -2
100
AcDbLine
 10
383.6744344286426
 20
241.3120748418503
 30
0.0
 11
380.1744344286425
 21
241.3120748418503
 31
0.0
  0
LINE
  5
B06A
330
AF1E
100
AcDbEntity
  8
11100_LEFT_DIM
370
    -2
100
AcDbLine
 10
395.6744344286425
 20
241.3120748418503
 30
0.0
 11
399.1744344286425
 21
241.3120748418503
 31
0.0
  0
LINE
  5
B06B
330
AF1E
100
AcDbEntity
  8
11100_LEFT_DIM
370
    -2
100
AcDbLine
 10
387.1744344286426
 20
241.3120748418503
 30
0.0
 11
392.1744344286425
 21
241.3120748418503
 31
0.0
  0
SOLID
  5
B06C
330
AF1E
100
AcDbEntity
  8
11100_LEFT_DIM
100
AcDbTrace
 10
383.6744344286426
 20
241.8954081751836
 30
0.0
 11
383.6744344286426
 21
240.7287415085169
 31
0.0
 12
387.1744344286426
 22
241.3120748418503
 32
0.0
 13
387.1744344286426
 23
241.3120748418503
 33
0.0
  0
SOLID
  5
B06D
330
AF1E
100
AcDbEntity
  8
11100_LEFT_DIM
100
AcDbTrace
 10
395.6744344286425
 20
241.8954081751836
 30
0.0
 11
395.6744344286425
 21
240.7287415085169
 31
0.0
 12
392.1744344286425
 22
241.3120748418503
 32
0.0
 13
392.1744344286425
 23
241.3120748418503
 33
0.0
  0
MTEXT
  5
B06E
330
AF1E
100
AcDbEntity
  8
11100_LEFT_DIM
 62
     7
370
    18
100
AcDbMText
 10
389.6744344286426
 20
243.5620748418503
 30
0.0
 40
3.5
 41
0.0
 71
     5
 72
     1
  1
\A1;5
 73
     1
 44
1.0
1001
ACAD
1000
MTEXTBEGIN
1070
    73
1070
     1
1070
    44
1040
1.0
1070
    74
1070
     0
1000
MTEXTEND
  0
POINT
  5
B06F
330
AF1E
100
AcDbEntity
  8
Defpoints
 62
     0
100
AcDbPoint
 10
387.1744344286426
 20
228.0121003916724
 30
0.0
  0
POINT
  5
B070
330
AF1E
100
AcDbEntity
  8
Defpoints
 62
     0
100
AcDbPoint
 10
392.1744344286425
 20
228.0121003916724
 30
0.0
  0
POINT
  5
B071
330
AF1E
100
AcDbEntity
  8
Defpoints
 62
     0
100
AcDbPoint
 10
392.1744344286425
 20
241.3120748418503
 30
0.0
  0
ENDBLK
  5
AF2B
330
AF1E
100
AcDbEntity
  8
0
100
AcDbBlockEnd
  0
BLOCK
  5
B0B8
330
B0AE
100
AcDbEntity
  8
0
 62
     7
370
    18
100
AcDbBlockBegin
  2
*D48
 70
     1
 10
0.0
 20
0.0
 30
0.0
  3
*D48
  1

  0
LINE
  5
B0D7
330
B0AE
100
AcDbEntity
  8
10100_FRONT_DIM
 62
     7
370
    -2
100
AcDbLine
 10
47.276625
 20
189.209954
 30
0.0
 11
27.26058100000001
 21
189.209954
 31
0.0
  0
LINE
  5
B0D8
330
B0AE
100
AcDbEntity
  8
10100_FRONT_DIM
 62
     7
370
    -2
100
AcDbLine
 10
47.52092799999998
 20
129.200017
 30
0.0
 11
27.260581
 21
129.200017
 31
0.0
  0
LINE
  5
B0D9
330
B0AE
100
AcDbEntity
  8
10100_FRONT_DIM
370
    -2
100
AcDbLine
 10
29.26058100000001
 20
185.709954
 30
0.0
 11
29.260581
 21
132.700017
 31
0.0
  0
SOLID
  5
B0DA
330
B0AE
100
AcDbEntity
  8
10100_FRONT_DIM
370
    18
100
AcDbTrace
 10
28.67724766666668
 20
185.709954
 30
0.0
 11
29.84391433333335
 21
185.709954
 31
0.0
 12
29.26058100000001
 22
189.209954
 32
0.0
 13
29.26058100000001
 23
189.209954
 33
0.0
  0
SOLID
  5
B0DB
330
B0AE
100
AcDbEntity
  8
10100_FRONT_DIM
370
    18
100
AcDbTrace
 10
28.67724766666667
 20
132.700017
 30
0.0
 11
29.84391433333333
 21
132.700017
 31
0.0
 12
29.260581
 22
129.200017
 32
0.0
 13
29.260581
 23
129.200017
 33
0.0
  0
MTEXT
  5
B0DC
330
B0AE
100
AcDbEntity
  8
10100_FRONT_DIM
 62
     7
370
    18
100
AcDbMText
 10
27.01058099999998
 20
159.2049855
 30
0.0
 40
3.5
 41
0.0
 71
     5
 72
     1
  1
\A1;60
 11
0.0000000000000001
 21
1.0
 31
0.0
 73
     1
 44
1.0
1001
ACAD
1000
MTEXTBEGIN
1070
    73
1070
     1
1070
    44
1040
1.0
1070
    74
1070
     0
1000
MTEXTEND
  0
POINT
  5
B0DD
330
B0AE
100
AcDbEntity
  8
Defpoints
 62
     0
370
    18
100
AcDbPoint
 10
47.276625
 20
189.209954
 30
0.0
  0
POINT
  5
B0DE
330
B0AE
100
AcDbEntity
  8
Defpoints
 62
     0
370
    18
100
AcDbPoint
 10
47.52092799999998
 20
129.200017
 30
0.0
  0
POINT
  5
B0DF
330
B0AE
100
AcDbEntity
  8
Defpoints
 62
     0
370
    18
100
AcDbPoint
 10
29.260581
 20
129.200017
 30
0.0
  0
ENDBLK
  5
B0B9
330
B0AE
100
AcDbEntity
  8
0
 62
     7
370
    18
100
AcDbBlockEnd
  0
BLOCK
  5
B0FB
330
B0F5
100
AcDbEntity
  8
0
 62
     7
370
    18
100
AcDbBlockBegin
  2
*D49
 70
     1
 10
0.0
 20
0.0
 30
0.0
  3
*D49
  1

  0
LINE
  5
B114
330
B0F5
100
AcDbEntity
  8
10100_FRONT_DIM
  6
Continuous
370
    -2
100
AcDbLine
 10
23.38939907299174
 20
196.5766501280086
 30
0.0
 11
41.7110081802206
 21
190.2167796751145
 31
0.0
  0
LINE
  5
B115
330
B0F5
100
AcDbEntity
  8
10100_FRONT_DIM
  6
Continuous
370
    -2
100
AcDbLine
 10
53.33084781977933
 20
186.1832543248854
 30
0.0
 11
56.6373062538001
 21
185.0355032089666
 31
0.0
  0
MTEXT
  5
B116
330
B0F5
100
AcDbEntity
  8
10100_FRONT_DIM
  6
Continuous
 62
     7
370
    18
100
AcDbMText
 10
29.55927793197369
 20
196.8166394308695
 30
0.0
 40
3.5
 41
0.0
 71
     5
 72
     1
  1
\A1;\U+22055.3
 11
0.944702409720217
 21
-0.3279288902625312
 31
0.0
 73
     1
 44
1.0
1001
ACAD
1000
MTEXTBEGIN
1070
    73
1070
     1
1070
    44
1040
1.0
1070
    74
1070
     0
1000
MTEXTEND
  0
LINE
  5
B117
330
B0F5
100
AcDbEntity
  8
10100_FRONT_DIM
  6
Continuous
370
    -2
100
AcDbLine
 10
50.02438938575856
 20
187.3310054408043
 30
0.0
 11
45.01746661424138
 21
189.0690285591956
 31
0.0
  0
SOLID
  5
B118
330
B0F5
100
AcDbEntity
  8
10100_FRONT_DIM
  6
Continuous
370
    18
100
AcDbTrace
 10
53.52213967243248
 20
186.7343307305555
 30
0.0
 11
53.13955596712617
 21
185.6321779192153
 31
0.0
 12
50.02438938575856
 22
187.3310054408043
 32
0.0
 13
50.02438938575856
 23
187.3310054408043
 33
0.0
  0
SOLID
  5
B119
330
B0F5
100
AcDbEntity
  8
10100_FRONT_DIM
  6
Continuous
370
    18
100
AcDbTrace
 10
41.90230003287378
 20
190.7678560807847
 30
0.0
 11
41.51971632756747
 21
189.6657032694444
 31
0.0
 12
45.01746661424138
 22
189.0690285591956
 32
0.0
 13
45.01746661424138
 23
189.0690285591956
 33
0.0
  0
POINT
  5
B11A
330
B0F5
100
AcDbEntity
  8
Defpoints
  6
Continuous
 62
     0
370
    18
100
AcDbPoint
 10
45.01746661424138
 20
189.0690285591956
 30
0.0
  0
POINT
  5
B11B
330
B0F5
100
AcDbEntity
  8
Defpoints
  6
Continuous
 62
     0
370
    18
100
AcDbPoint
 10
50.02438938575856
 20
187.3310054408043
 30
0.0
  0
ENDBLK
  5
B0FC
330
B0F5
100
AcDbEntity
  8
0
 62
     7
370
    18
100
AcDbBlockEnd
  0
BLOCK
  5
B126
330
B11D
100
AcDbEntity
  8
0
 62
     7
370
    18
100
AcDbBlockBegin
  2
*D50
 70
     1
 10
0.0
 20
0.0
 30
0.0
  3
*D50
  1

  0
LINE
  5
B129
330
B11D
100
AcDbEntity
  8
10100_FRONT_DIM
  6
Continuous
370
    -2
100
AcDbLine
 10
28.77625563803891
 20
109.9849852173124
 30
0.0
 11
43.2264358735521
 21
124.7977633299036
 31
0.0
  0
LINE
  5
B12A
330
B11D
100
AcDbEntity
  8
10100_FRONT_DIM
  6
Continuous
370
    -2
100
AcDbLine
 10
51.81542012644783
 20
133.6022706700964
 30
0.0
 11
54.2594400358084
 21
136.1076182872244
 31
0.0
  0
MTEXT
  5
B12B
330
B11D
100
AcDbEntity
  8
10100_FRONT_DIM
  6
Continuous
 62
     7
370
    18
100
AcDbMText
 10
31.18085059240613
 20
115.6720691014688
 30
0.0
 40
3.5
 41
0.0
 71
     5
 72
     1
  1
\A1;\U+22055.3
 11
0.6982914026744513
 21
0.7158136048937235
 31
0.0
 73
     1
 44
1.0
1001
ACAD
1000
MTEXTBEGIN
1070
    73
1070
     1
1070
    44
1040
1.0
1070
    74
1070
     0
1000
MTEXTEND
  0
LINE
  5
B12C
330
B11D
100
AcDbEntity
  8
10100_FRONT_DIM
  6
Continuous
370
    -2
100
AcDbLine
 10
49.37140021708724
 20
131.0969230529683
 30
0.0
 11
45.67045578291267
 21
127.3031109470316
 31
0.0
  0
SOLID
  5
B12D
330
B11D
100
AcDbEntity
  8
10100_FRONT_DIM
  6
Continuous
370
    18
100
AcDbTrace
 10
51.39786219025982
 20
134.0096073216564
 30
0.0
 11
52.23297806263584
 21
133.1949340185362
 31
0.0
 12
49.37140021708724
 22
131.0969230529683
 32
0.0
 13
49.37140021708724
 23
131.0969230529683
 33
0.0
  0
SOLID
  5
B12E
330
B11D
100
AcDbEntity
  8
10100_FRONT_DIM
  6
Continuous
370
    18
100
AcDbTrace
 10
42.80887793736408
 20
125.2050999814637
 30
0.0
 11
43.6439938097401
 21
124.3904266783435
 31
0.0
 12
45.67045578291267
 22
127.3031109470316
 32
0.0
 13
45.67045578291267
 23
127.3031109470316
 33
0.0
  0
POINT
  5
B12F
330
B11D
100
AcDbEntity
  8
Defpoints
  6
Continuous
 62
     0
370
    18
100
AcDbPoint
 10
45.67045578291267
 20
127.3031109470316
 30
0.0
  0
POINT
  5
B130
330
B11D
100
AcDbEntity
  8
Defpoints
  6
Continuous
 62
     0
370
    18
100
AcDbPoint
 10
49.37140021708724
 20
131.0969230529683
 30
0.0
  0
ENDBLK
  5
B127
330
B11D
100
AcDbEntity
  8
0
 62
     7
370
    18
100
AcDbBlockEnd
  0
ENDSEC
  0
SECTION
  2
ENTITIES
  0
LWPOLYLINE
  5
1C1
330
37
100
AcDbEntity
  8
90200_FRAME_SIZE
100
AcDbPolyline
 90
        4
 70
     1
 43
0.0
 10
-20.0
 20
-21.5
 10
220.0
 20
-21.5
 10
220.0
 20
308.5
 10
-20.0
 20
308.5000000000001
1001
GENIUS_GENREC_14
1002
{
1000
PYDIR
1011
-20.0
1021
308.5
1031
0.0
1002
}
1002
{
1000
PXDIR
1011
220.0
1021
-21.5
1031
0.0
1002
}
1002
{
1000
PORI
1011
-20.0
1021
-21.5
1031
0.0
1002
}
1002
{
1000
PINS
1011
-20.0
1021
-21.5
1031
0.0
1002
}
1002
{
1000
HVAL
1000
330
1002
}
1002
{
1000
H
1070
     2
1002
}
1002
{
1000
WVAL
1000
240
1002
}
1002
{
1000
W
1070
     2
1002
}
1002
{
1000
C
1070
     1
1002
}
1001
GENIUS_GENODEF_13
1002
{
1000
HIER
1070
     0
1002
}
1002
{
1000
MANEDIT
1070
     0
1002
}
1002
{
1000
NOSEL
1070
     0
1002
}
1002
{
1000
BEHIND
1070
     0
1002
}
1002
{
1000
OTHER
1070
     0
1002
}
1002
{
1000
REACTOR
1002
}
1001
GENIUS_GENOBJ-N-REC_13
1002
{
1000
OWNER
1000
GEN
1002
}
  0
LWPOLYLINE
  5
1C9
330
37
100
AcDbEntity
  8
90100_FRAME_THICK
100
AcDbPolyline
 90
        4
 70
     1
 43
0.0
 10
-5.0
 20
-5.0
 10
205.0
 20
-5.0
 10
205.0
 20
292.0
 10
-5.0
 20
292.0
1001
GENIUS_GENREC_14
1002
{
1000
PYDIR
1011
-5.0
1021
292.0
1031
0.0
1002
}
1002
{
1000
PXDIR
1011
205.0
1021
-5.0
1031
0.0
1002
}
1002
{
1000
PORI
1011
-5.0
1021
-5.0
1031
0.0
1002
}
1002
{
1000
PINS
1011
-5.0
1021
-5.0
1031
0.0
1002
}
1002
{
1000
HVAL
1000
297
1002
}
1002
{
1000
H
1070
     2
1002
}
1002
{
1000
WVAL
1000
210
1002
}
1002
{
1000
W
1070
     2
1002
}
1002
{
1000
C
1070
     1
1002
}
1001
GENIUS_GENODEF_13
1002
{
1000
HIER
1070
     0
1002
}
1002
{
1000
MANEDIT
1070
     0
1002
}
1002
{
1000
NOSEL
1070
     0
1002
}
1002
{
1000
BEHIND
1070
     0
1002
}
1002
{
1000
OTHER
1070
     0
1002
}
1002
{
1000
REACTOR
1002
}
1001
GENIUS_GENOBJ-N-REC_13
1002
{
1000
OWNER
1000
GEN
1002
}
  0
LWPOLYLINE
  5
1CD
330
37
100
AcDbEntity
  8
90000_FRAME_THIN
100
AcDbPolyline
 90
        4
 70
     1
 43
0.0
 10
0.0
 20
0.0
 10
200.0
 20
0.0
 10
200.0
 20
287.0
 10
0.0
 20
287.0
1001
GENIUS_GENREC_14
1002
{
1000
PYDIR
1011
-5.0
1021
292.0
1031
0.0
1002
}
1002
{
1000
PXDIR
1011
205.0
1021
-5.0
1031
0.0
1002
}
1002
{
1000
PORI
1011
-5.0
1021
-5.0
1031
0.0
1002
}
1002
{
1000
PINS
1011
-5.0
1021
-5.0
1031
0.0
1002
}
1002
{
1000
HVAL
1000
297
1002
}
1002
{
1000
H
1070
     2
1002
}
1002
{
1000
WVAL
1000
210
1002
}
1002
{
1000
W
1070
     2
1002
}
1002
{
1000
C
1070
     1
1002
}
1001
GENIUS_GENODEF_13
1002
{
1000
HIER
1070
     0
1002
}
1002
{
1000
MANEDIT
1070
     0
1002
}
1002
{
1000
NOSEL
1070
     0
1002
}
1002
{
1000
BEHIND
1070
     0
1002
}
1002
{
1000
OTHER
1070
     0
1002
}
1002
{
1000
REACTOR
1002
}
1001
GENIUS_GENOBJ-N-REC_13
1002
{
1000
OWNER
1000
GEN
1002
}
  0
INSERT
  5
1EC
330
37
100
AcDbEntity
  8
0
100
AcDbBlockReference
 66
     1
  2
Title_A4P
 10
195.0
 20
5.0
 30
0.0
  0
ATTRIB
  5
1ED
330
1EC
100
AcDbEntity
  8
92000_TITLE
100
AcDbText
 10
78.00000000000046
 20
6.75
 30
0.0
 40
2.5
  1

 72
     1
 11
78.00000000000046
 21
8.0
 31
0.0
100
AcDbAttribute
  2
DATUM
 70
     0
 74
     2
  0
ATTRIB
  5
1EE
330
1EC
100
AcDbEntity
  8
92000_TITLE
100
AcDbText
 10
103.0000000000004
 20
6.75
 30
0.0
 40
2.5
  1

 72
     1
 11
103.0000000000004
 21
8.0
 31
0.0
100
AcDbAttribute
  2
NAME
 70
     0
 74
     2
  0
ATTRIB
  5
1EF
330
1EC
100
AcDbEntity
  8
92000_TITLE
100
AcDbText
 10
114.5833333333337
 20
17.25000000000011
 30
0.0
 40
3.5
  1
3SE5000_00002214_000_ALL
 72
     1
 11
152.5000000000004
 21
19.00000000000011
 31
0.0
100
AcDbAttribute
  2
ZEICHNUNGSNAME
 70
     0
 74
     2
  0
ATTRIB
  5
1F0
330
1EC
100
AcDbEntity
  8
92000_TITLE
100
AcDbText
 10
124.7916666666671
 20
11.75000000000011
 30
0.0
 40
2.5
  1
Positionsschalter Metall 
 72
     1
 11
152.5000000000004
 21
13.00000000000011
 31
0.0
100
AcDbAttribute
  2
ARTIKELNAME
 70
     0
 74
     2
  0
SEQEND
  5
1F1
330
1EC
100
AcDbEntity
  8
0
  0
LINE
  5
9FB7
330
37
100
AcDbEntity
  8
10000_FRONT
  6
Continuous
 62
     7
370
    35
100
AcDbLine
 10
81.77092899999996
 20
123.700017
 30
0.0
 11
72.52092799999997
 21
123.700017
 31
0.0
  0
ARC
  5
9FB8
330
37
100
AcDbEntity
  8
10000_FRONT
  6
Continuous
 62
     7
370
    35
100
AcDbCircle
 10
81.77092899999996
 20
124.700017
 30
0.0
 40
1.0
100
AcDbArc
 50
270.0
 51
0.0
  0
LINE
  5
9FB9
330
37
100
AcDbEntity
  8
10000_FRONT
  6
Continuous
 62
     7
370
    35
100
AcDbLine
 10
82.77092899999997
 20
134.699357
 30
0.0
 11
82.77092899999997
 21
124.700017
 31
0.0
  0
LINE
  5
9FBA
330
37
100
AcDbEntity
  8
10000_FRONT
  6
Continuous
 62
     7
370
    35
100
AcDbLine
 10
80.170928
 20
128.200017
 30
0.0
 11
80.170928
 21
130.200017
 31
0.0
  0
ARC
  5
9FBB
330
37
100
AcDbEntity
  8
10000_FRONT
  6
Continuous
 62
     7
370
    35
100
AcDbCircle
 10
77.52092799999997
 20
128.200017
 30
0.0
 40
2.649999999999999
100
AcDbArc
 50
180.0
 51
0.0
  0
LINE
  5
9FBC
330
37
100
AcDbEntity
  8
10000_FRONT
  6
Continuous
 62
     7
370
    35
100
AcDbLine
 10
74.87092799999998
 20
130.200017
 30
0.0
 11
74.87092799999998
 21
128.200017
 31
0.0
  0
ARC
  5
9FBD
330
37
100
AcDbEntity
  8
10000_FRONT
  6
Continuous
 62
     7
370
    35
100
AcDbCircle
 10
77.52092799999997
 20
130.200017
 30
0.0
 40
2.649999999999999
100
AcDbArc
 50
0.0
 51
180.0
  0
LINE
  5
9FBE
330
37
100
AcDbEntity
  8
10000_FRONT
  6
Continuous
 62
     7
370
    35
100
AcDbLine
 10
72.52092799999997
 20
123.700017
 30
0.0
 11
52.52092799999997
 21
123.700017
 31
0.0
  0
LINE
  5
9FBF
330
37
100
AcDbEntity
  8
10000_FRONT
  6
Continuous
 62
     7
370
    35
100
AcDbLine
 10
52.52092799999997
 20
123.700017
 30
0.0
 11
43.27092900000002
 21
123.700017
 31
0.0
  0
LINE
  5
9FC1
330
37
100
AcDbEntity
  8
10000_FRONT
  6
Continuous
 62
     7
370
    35
100
AcDbLine
 10
42.27092900000002
 20
124.700017
 30
0.0
 11
42.27092900000002
 21
134.699358
 31
0.0
  0
ARC
  5
9FC2
330
37
100
AcDbEntity
  8
10000_FRONT
  6
Continuous
 62
     7
370
    35
100
AcDbCircle
 10
43.27092900000002
 20
124.700017
 30
0.0
 40
1.0
100
AcDbArc
 50
180.0
 51
270.0
  0
CIRCLE
  5
9FC3
102
{ACAD_REACTORS
330
B131
102
}
330
37
100
AcDbEntity
  8
10000_FRONT
  6
Continuous
 62
     7
370
    35
100
AcDbCircle
 10
47.52092799999997
 20
129.200017
 30
0.0
 40
2.649999999999999
  0
LINE
  5
9FC4
330
37
100
AcDbEntity
  8
10000_FRONT
  6
Continuous
 62
     7
370
    35
100
AcDbLine
 10
42.27092900000002
 20
183.754933
 30
0.0
 11
42.27092900000002
 21
194.664975
 31
0.0
  0
CIRCLE
  5
9FC5
330
37
100
AcDbEntity
  8
10000_FRONT
  6
Continuous
 62
     7
370
    35
100
AcDbCircle
 10
77.52092799999997
 20
189.200017
 30
0.0
 40
2.649999999999999
  0
LINE
  5
9FC6
330
37
100
AcDbEntity
  8
10000_FRONT
  6
Continuous
 62
     7
370
    35
100
AcDbLine
 10
50.170928
 20
190.200017
 30
0.0
 11
50.170928
 21
188.200017
 31
0.0
  0
ARC
  5
9FC7
330
37
100
AcDbEntity
  8
10000_FRONT
  6
Continuous
 62
     7
370
    35
100
AcDbCircle
 10
47.52092799999997
 20
188.200017
 30
0.0
 40
2.649999999999999
100
AcDbArc
 50
180.0
 51
0.0
  0
LINE
  5
9FC8
330
37
100
AcDbEntity
  8
10000_FRONT
  6
Continuous
 62
     7
370
    35
100
AcDbLine
 10
44.87092799999999
 20
188.200017
 30
0.0
 11
44.87092799999999
 21
190.200017
 31
0.0
  0
ARC
  5
9FC9
330
37
100
AcDbEntity
  8
10000_FRONT
  6
Continuous
 62
     7
370
    35
100
AcDbCircle
 10
47.52092799999997
 20
190.200017
 30
0.0
 40
2.649999999999999
100
AcDbArc
 50
0.0
 51
180.0
  0
LINE
  5
9FCA
330
37
100
AcDbEntity
  8
10000_FRONT
  6
Continuous
 62
     7
370
    35
100
AcDbLine
 10
82.77092899999997
 20
194.6649739999999
 30
0.0
 11
82.77092899999997
 21
183.754932
 31
0.0
  0
LINE
  5
9FCC
330
37
100
AcDbEntity
  8
10000_FRONT
  6
Continuous
 62
     7
370
    35
100
AcDbLine
 10
82.77092899999997
 20
158.700017
 30
0.0
 11
82.77092899999997
 21
134.699357
 31
0.0
  0
LINE
  5
A016
330
37
100
AcDbEntity
  8
10000_FRONT
  6
Continuous
 62
     7
370
    35
100
AcDbLine
 10
72.52226799999998
 20
126.399317
 30
0.0
 11
72.52092799999997
 21
123.700017
 31
0.0
  0
LINE
  5
A017
330
37
100
AcDbEntity
  8
10000_FRONT
  6
Continuous
 62
     7
370
    35
100
AcDbLine
 10
52.52033100000002
 20
126.399317
 30
0.0
 11
72.52226799999998
 21
126.399317
 31
0.0
  0
LINE
  5
A018
330
37
100
AcDbEntity
  8
10000_FRONT
  6
Continuous
 62
     7
370
    35
100
AcDbLine
 10
52.52033100000002
 20
123.700017
 30
0.0
 11
52.52033100000002
 21
126.399317
 31
0.0
  0
LINE
  5
A019
330
37
100
AcDbEntity
  8
10000_FRONT
  6
Continuous
 62
     7
370
    35
100
AcDbLine
 10
47.11212299999998
 20
134.6985919999999
 30
0.0
 11
42.27092900000002
 21
134.699358
 31
0.0
  0
LINE
  5
A085
330
37
100
AcDbEntity
  8
10000_FRONT
  6
Continuous
 62
     7
370
    35
100
AcDbLine
 10
78.07251200000002
 20
158.007888
 30
0.0
 11
78.07388700000001
 21
158.700017
 31
0.0
  0
LINE
  5
A0A9
330
37
100
AcDbEntity
  8
10000_FRONT
  6
Continuous
 62
     7
370
    35
100
AcDbLine
 10
82.77092899999997
 20
134.699357
 30
0.0
 11
78.021525
 21
134.699357
 31
0.0
  0
LINE
  5
A0AA
330
37
100
AcDbEntity
  8
10000_FRONT
  6
Continuous
 62
     7
370
    35
100
AcDbLine
 10
72.521525
 20
129.199357
 30
0.0
 11
72.52226799999998
 21
126.399317
 31
0.0
  0
LINE
  5
A0AC
330
37
100
AcDbEntity
  8
10000_FRONT
  6
Continuous
 62
     7
370
    35
100
AcDbLine
 10
82.78096800000003
 20
183.754932
 30
0.0
 11
82.781274
 21
158.700017
 31
0.0
  0
LINE
  5
A0AE
330
37
100
AcDbEntity
  8
10000_FRONT
  6
Continuous
 62
     7
370
    35
100
AcDbLine
 10
46.96796799999996
 20
183.754933
 30
0.0
 11
46.96796799999996
 21
158.700017
 31
0.0
  0
LINE
  5
A0AF
330
37
100
AcDbEntity
  8
10000_FRONT
  6
Continuous
 62
     7
370
    35
100
AcDbLine
 10
42.27092700000002
 20
183.754933
 30
0.0
 11
46.96796799999996
 21
183.754933
 31
0.0
  0
LINE
  5
A0B0
330
37
100
AcDbEntity
  8
10000_FRONT
  6
Continuous
 62
     7
370
    35
100
AcDbLine
 10
42.27092700000002
 20
183.754933
 30
0.0
 11
42.27092700000002
 21
158.700017
 31
0.0
  0
LINE
  5
A0B1
330
37
100
AcDbEntity
  8
10000_FRONT
  6
Continuous
 62
     7
370
    35
100
AcDbLine
 10
42.85600299999996
 20
194.664975
 30
0.0
 11
42.27092700000002
 21
194.664975
 31
0.0
  0
LINE
  5
A0F8
330
37
100
AcDbEntity
  8
10000_FRONT
  6
Continuous
 62
     7
370
    35
100
AcDbLine
 10
42.27092700000002
 20
198.644604
 30
0.0
 11
42.27092700000002
 21
194.664975
 31
0.0
  0
LINE
  5
A120
330
37
100
AcDbEntity
  8
10000_FRONT
  6
Continuous
 62
     7
370
    35
100
AcDbLine
 10
78.07388700000001
 20
201.700017
 30
0.0
 11
78.52286400000003
 21
201.700017
 31
0.0
  0
LINE
  5
A121
330
37
100
AcDbEntity
  8
10000_FRONT
  6
Continuous
 62
     7
370
    35
100
AcDbLine
 10
78.07388700000001
 20
194.6649739999999
 30
0.0
 11
78.07388700000001
 21
201.700017
 31
0.0
  0
LINE
  5
A122
330
37
100
AcDbEntity
  8
10000_FRONT
  6
Continuous
 62
     7
370
    35
100
AcDbLine
 10
82.77092700000002
 20
194.6649739999999
 30
0.0
 11
78.07388700000001
 21
194.6649739999999
 31
0.0
  0
LINE
  5
A123
330
37
100
AcDbEntity
  8
10000_FRONT
  6
Continuous
 62
     7
370
    35
100
AcDbLine
 10
78.07388700000001
 20
158.700017
 30
0.0
 11
78.07388700000001
 21
183.754932
 31
0.0
  0
LINE
  5
A124
330
37
100
AcDbEntity
  8
10000_FRONT
  6
Continuous
 62
     7
370
    35
100
AcDbLine
 10
78.07388700000001
 20
183.754932
 30
0.0
 11
82.77092700000002
 21
183.754932
 31
0.0
  0
LINE
  5
A126
330
37
100
AcDbEntity
  8
10000_FRONT
  6
Continuous
 62
     7
370
    35
100
AcDbLine
 10
82.77092700000002
 20
198.644608
 30
0.0
 11
82.77092700000002
 21
194.6649739999999
 31
0.0
  0
LINE
  5
A127
330
37
100
AcDbEntity
  8
10000_FRONT
  6
Continuous
 62
     7
370
    35
100
AcDbLine
 10
82.78096899999997
 20
194.6649739999999
 30
0.0
 11
82.77092700000002
 21
194.6649739999999
 31
0.0
  0
LINE
  5
A128
330
37
100
AcDbEntity
  8
10000_FRONT
  6
Continuous
 62
     7
370
    35
100
AcDbLine
 10
82.78096899999997
 20
198.503251
 30
0.0
 11
82.78096899999997
 21
194.6649739999999
 31
0.0
  0
LINE
  5
A129
330
37
100
AcDbEntity
  8
10000_FRONT
  6
Continuous
 62
     7
370
    35
100
AcDbLine
 10
82.77092700000002
 20
183.754932
 30
0.0
 11
82.78096800000003
 21
183.754932
 31
0.0
  0
LINE
  5
A12A
330
37
100
AcDbEntity
  8
10000_FRONT
  6
Continuous
 62
     7
370
    35
100
AcDbLine
 10
82.77092700000002
 20
183.754932
 30
0.0
 11
82.77092700000002
 21
158.700017
 31
0.0
  0
LINE
  5
A173
330
37
100
AcDbEntity
  8
10000_FRONT
  6
Continuous
 62
     7
370
    35
100
AcDbLine
 10
46.96796799999996
 20
194.664975
 30
0.0
 11
42.85600299999996
 21
194.664975
 31
0.0
  0
LINE
  5
A174
330
37
100
AcDbEntity
  8
10000_FRONT
  6
Continuous
 62
     7
370
    35
100
AcDbLine
 10
46.96796799999996
 20
201.700017
 30
0.0
 11
46.96796799999996
 21
194.664975
 31
0.0
  0
LINE
  5
A199
330
37
100
AcDbEntity
  8
10000_FRONT
  6
Continuous
 62
     7
370
    35
100
AcDbLine
 10
47.276625
 20
194.664975
 30
0.0
 11
46.96796799999996
 21
194.664975
 31
0.0
  0
LINE
  5
A19A
330
37
100
AcDbEntity
  8
10000_FRONT
  6
Continuous
 62
     7
370
    35
100
AcDbLine
 10
77.76523099999997
 20
183.754932
 30
0.0
 11
78.07388700000001
 21
183.754932
 31
0.0
  0
ARC
  5
A19B
330
37
100
AcDbEntity
  8
10000_FRONT
  6
Continuous
 62
     7
370
    35
100
AcDbCircle
 10
78.021525
 20
129.199357
 30
0.0
 40
5.499999999999971
100
AcDbArc
 50
90.0
 51
180.0000000000003
  0
ARC
  5
A19C
330
37
100
AcDbEntity
  8
10000_FRONT
  6
Continuous
 62
     7
370
    35
100
AcDbCircle
 10
77.76523099999997
 20
189.209953
 30
0.0
 40
5.455021
100
AcDbArc
 50
90.0
 51
270.0
  0
LINE
  5
A19D
330
37
100
AcDbEntity
  8
10000_FRONT
  6
Continuous
 62
     7
370
    35
100
AcDbLine
 10
78.07388700000001
 20
194.6649739999999
 30
0.0
 11
77.76523099999997
 21
194.6649739999999
 31
0.0
  0
LINE
  5
A19E
330
37
100
AcDbEntity
  8
10000_FRONT
  6
Continuous
 62
     7
370
    35
100
AcDbLine
 10
52.52033100000002
 20
126.399317
 30
0.0
 11
52.52033100000002
 21
129.199358
 31
0.0
  0
ARC
  5
A19F
330
37
100
AcDbEntity
  8
10000_FRONT
  6
Continuous
 62
     7
370
    35
100
AcDbCircle
 10
47.02033095030609
 20
129.1993579836804
 30
0.0
 40
5.500000049693908
100
AcDbArc
 50
0.0000001700080713
 51
89.04371978619732
  0
LINE
  5
A1A0
330
37
100
AcDbEntity
  8
10000_FRONT
  6
Continuous
 62
     7
370
    35
100
AcDbLine
 10
46.96796799999996
 20
183.754933
 30
0.0
 11
47.276625
 21
183.754933
 31
0.0
  0
ARC
  5
A1A1
102
{ACAD_REACTORS
330
B0C4
102
}
330
37
100
AcDbEntity
  8
10000_FRONT
  6
Continuous
 62
     7
370
    35
100
AcDbCircle
 10
47.276625
 20
189.209954
 30
0.0
 40
5.455021
100
AcDbArc
 50
270.0
 51
90.0
  0
LINE
  5
A1A2
330
37
100
AcDbEntity
  8
10000_FRONT
  6
Continuous
 62
     7
370
    35
100
AcDbLine
 10
46.51899302676517
 20
201.7000170456667
 30
0.0
 11
78.07388700000001
 21
201.700017
 31
0.0
  0
LINE
  5
A1A3
330
37
100
AcDbEntity
  8
10000_FRONT
  6
Continuous
 62
     7
370
    35
100
AcDbLine
 10
82.77092899999997
 20
134.699357
 30
0.0
 11
82.77092899999997
 21
158.700017
 31
0.0
  0
LINE
  5
A1A4
330
37
100
AcDbEntity
  8
10000_FRONT
  6
Continuous
 62
     7
370
    35
100
AcDbLine
 10
42.27092900000002
 20
158.700017
 30
0.0
 11
42.27092900000002
 21
134.699358
 31
0.0
  0
LINE
  5
A1A5
330
37
100
AcDbEntity
  8
10000_FRONT
  6
Continuous
 62
     7
370
    35
100
AcDbLine
 10
63.52092800000002
 20
209.400017
 30
0.0
 11
61.52092800000001
 21
209.400017
 31
0.0
  0
LINE
  5
A1A6
330
37
100
AcDbEntity
  8
10000_FRONT
  6
Continuous
 62
     7
370
    35
100
AcDbLine
 10
66.02092800000001
 20
202.100017
 30
0.0
 11
59.02092800000001
 21
202.100017
 31
0.0
  0
ARC
  5
A1A7
330
37
100
AcDbEntity
  8
10000_FRONT
  6
Continuous
 62
     7
370
    35
100
AcDbCircle
 10
61.52092800000001
 20
206.400017
 30
0.0
 40
3.0
100
AcDbArc
 50
90.0
 51
143.1301020000002
  0
ARC
  5
A1A8
330
37
100
AcDbEntity
  8
10000_FRONT
  6
Continuous
 62
     7
370
    35
100
AcDbCircle
 10
63.52092800000002
 20
206.400017
 30
0.0
 40
3.0
100
AcDbArc
 50
36.86989799999981
 51
90.0
  0
ARC
  5
A1A9
330
37
100
AcDbEntity
  8
10000_FRONT
  6
Continuous
 62
     7
370
    35
100
AcDbCircle
 10
59.52092799999997
 20
207.900017
 30
0.0
 40
0.5
100
AcDbArc
 50
143.1301020000002
 51
180.0
  0
ARC
  5
A1AA
330
37
100
AcDbEntity
  8
10000_FRONT
  6
Continuous
 62
     7
370
    35
100
AcDbCircle
 10
65.52092800000003
 20
207.900017
 30
0.0
 40
0.5
100
AcDbArc
 50
0.0
 51
36.86989799999981
  0
LINE
  5
A1AB
330
37
100
AcDbEntity
  8
10000_FRONT
  6
Continuous
 62
     7
370
    35
100
AcDbLine
 10
66.02092800000001
 20
202.100017
 30
0.0
 11
66.02092800000001
 21
207.900017
 31
0.0
  0
LINE
  5
A1AC
330
37
100
AcDbEntity
  8
10000_FRONT
  6
Continuous
 62
     7
370
    35
100
AcDbLine
 10
59.02092800000001
 20
207.900017
 30
0.0
 11
59.02092800000001
 21
202.100017
 31
0.0
  0
LINE
  5
A1AD
330
37
100
AcDbEntity
  8
10000_FRONT
  6
Continuous
 62
     7
370
    35
100
AcDbLine
 10
65.22092800000002
 20
201.700017
 30
0.0
 11
65.22092800000002
 21
202.100017
 31
0.0
  0
LINE
  5
A1AE
330
37
100
AcDbEntity
  8
10000_FRONT
  6
Continuous
 62
     7
370
    35
100
AcDbLine
 10
59.82092799999998
 20
202.100017
 30
0.0
 11
59.82092799999998
 21
201.700017
 31
0.0
  0
LINE
  5
A1AF
330
37
100
AcDbEntity
  8
10200_FRONT_SYM
  6
CENTER
 62
     7
 48
10.0
370
    18
100
AcDbLine
 10
62.52092799999997
 20
120.23519066346
 30
0.0
 11
62.52092799999997
 21
129.46760383173
 31
0.0
  0
LINE
  5
A1B6
330
37
100
AcDbEntity
  8
11000_LEFT
  6
Continuous
 62
     7
370
    35
100
AcDbLine
 10
172.831568
 20
194.664975
 30
0.0
 11
172.831568
 21
183.754933
 31
0.0
  0
LINE
  5
A1B8
330
37
100
AcDbEntity
  8
11000_LEFT
  6
Continuous
 62
     7
370
    35
100
AcDbLine
 10
142.531568
 20
123.700017
 30
0.0
 11
179.5937129999999
 21
123.7000179999999
 31
0.0
  0
LINE
  5
A1BA
330
37
100
AcDbEntity
  8
11000_LEFT
  6
Continuous
 62
     7
370
    35
100
AcDbLine
 10
169.531568
 20
123.700017
 30
0.0
 11
169.531568
 21
134.700017
 31
0.0
  0
LINE
  5
A1BB
330
37
100
AcDbEntity
  8
11000_LEFT
  6
Continuous
 62
     7
370
    35
100
AcDbLine
 10
169.531568
 20
134.700017
 30
0.0
 11
179.831568
 21
134.700017
 31
0.0
  0
LINE
  5
A1BE
330
37
100
AcDbEntity
  8
11000_LEFT
  6
Continuous
 62
     7
370
    35
100
AcDbLine
 10
171.531568
 20
183.750017
 30
0.0
 11
171.531568
 21
194.7500169999999
 31
0.0
  0
LINE
  5
A1BF
330
37
100
AcDbEntity
  8
11000_LEFT
  6
Continuous
 62
     7
370
    35
100
AcDbLine
 10
171.531568
 20
194.7500169999999
 30
0.0
 11
172.831568
 21
194.7500169999999
 31
0.0
  0
LINE
  5
A1C1
330
37
100
AcDbEntity
  8
11000_LEFT
  6
Continuous
 62
     7
370
    35
100
AcDbLine
 10
142.531568
 20
201.700017
 30
0.0
 11
142.5315680269816
 21
123.700017
 31
0.0
  0
LINE
  5
A1C2
330
37
100
AcDbEntity
  8
11000_LEFT
  6
Continuous
 62
     7
370
    35
100
AcDbLine
 10
142.531568
 20
201.700017
 30
0.0
 11
179.831568
 21
201.700017
 31
0.0
  0
ARC
  5
A1E8
330
37
100
AcDbEntity
  8
11000_LEFT
  6
Continuous
 62
     7
370
    35
100
AcDbCircle
 10
-202.1561368558768
 20
158.6989635866494
 30
0.0
 40
383.3508498192767
100
AcDbArc
 50
354.761748592257
 51
355.1667510515306
  0
LINE
  5
A20D
330
37
100
AcDbEntity
  8
11000_LEFT
  6
Continuous
 62
     7
370
    35
100
AcDbLine
 10
179.831568
 20
158.700017
 30
0.0
 11
179.831568
 21
134.4511419999999
 31
0.0
  0
ARC
  5
A20F
330
37
100
AcDbEntity
  8
11000_LEFT
  6
Continuous
 62
     7
370
    35
100
AcDbCircle
 10
-202.168432
 20
158.700017
 30
0.0
 40
379.214951
100
AcDbArc
 50
356.3713029999998
 51
0.0
  0
LINE
  5
A211
330
37
100
AcDbEntity
  8
11000_LEFT
  6
Continuous
 62
     7
370
    35
100
AcDbLine
 10
177.046519
 20
158.700017
 30
0.0
 11
177.046519
 21
183.754933
 31
0.0
  0
LINE
  5
A212
330
37
100
AcDbEntity
  8
11000_LEFT
  6
Continuous
 62
     7
370
    35
100
AcDbLine
 10
171.531568
 20
183.754933
 30
0.0
 11
179.831568
 21
183.754933
 31
0.0
  0
LINE
  5
A213
330
37
100
AcDbEntity
  8
11000_LEFT
  6
Continuous
 62
     7
370
    35
100
AcDbLine
 10
172.831568
 20
183.754933
 30
0.0
 11
172.831568
 21
158.700017
 31
0.0
  0
ARC
  5
A214
330
37
100
AcDbEntity
  8
11000_LEFT
  6
Continuous
 62
     7
370
    35
100
AcDbCircle
 10
-202.168432
 20
158.700017
 30
0.0
 40
375.0
100
AcDbArc
 50
356.3304610000001
 51
0.0
  0
LINE
  5
A217
330
37
100
AcDbEntity
  8
11000_LEFT
  6
Continuous
 62
     7
370
    35
100
AcDbLine
 10
179.831568
 20
183.754933
 30
0.0
 11
179.831568
 21
158.700017
 31
0.0
  0
LINE
  5
A261
330
37
100
AcDbEntity
  8
11000_LEFT
  6
Continuous
 62
     7
370
    35
100
AcDbLine
 10
177.046519
 20
194.664975
 30
0.0
 11
177.046519
 21
198.6446039999999
 31
0.0
  0
LINE
  5
A263
330
37
100
AcDbEntity
  8
11000_LEFT
  6
Continuous
 62
     7
370
    35
100
AcDbLine
 10
179.831568
 20
201.700017
 30
0.0
 11
179.831568
 21
194.664975
 31
0.0
  0
LINE
  5
A288
330
37
100
AcDbEntity
  8
11000_LEFT
  6
Continuous
 62
     7
370
    35
100
AcDbLine
 10
172.831568
 20
194.664975
 30
0.0
 11
179.831568
 21
194.664975
 31
0.0
  0
LINE
  5
A289
330
37
100
AcDbEntity
  8
11000_LEFT
  6
Continuous
 62
     7
370
    35
100
AcDbLine
 10
172.831568
 20
201.700017
 30
0.0
 11
172.831568
 21
194.664975
 31
0.0
  0
ARC
  5
A2AE
330
37
100
AcDbEntity
  8
11000_LEFT
  6
Continuous
 62
     7
370
    35
100
AcDbCircle
 10
-202.166174740605
 20
158.699832033724
 30
0.0
 40
374.9977351852141
100
AcDbArc
 50
354.6445954865526
 51
355.4879700417182
  0
LINE
  5
A2AF
330
37
100
AcDbEntity
  8
11000_LEFT
  6
Continuous
 62
     7
370
    35
100
AcDbLine
 10
172.0627379999999
 20
134.699358
 30
0.0
 11
172.062405
 21
134.694172
 31
0.0
  0
LINE
  5
A2B0
330
37
100
AcDbEntity
  8
11000_LEFT
  6
Continuous
 62
     7
370
    35
100
AcDbLine
 10
172.062405
 20
134.694172
 30
0.0
 11
172.0613899999999
 21
134.678349
 31
0.0
  0
LINE
  5
A2B1
330
37
100
AcDbEntity
  8
11000_LEFT
  6
Continuous
 62
     7
370
    35
100
AcDbLine
 10
172.0613899999999
 20
134.678349
 30
0.0
 11
172.0596699999999
 21
134.651566
 31
0.0
  0
LINE
  5
A2B2
330
37
100
AcDbEntity
  8
11000_LEFT
  6
Continuous
 62
     7
370
    35
100
AcDbLine
 10
172.0596699999999
 20
134.651566
 30
0.0
 11
172.057228
 21
134.613606
 31
0.0
  0
LINE
  5
A2B3
330
37
100
AcDbEntity
  8
11000_LEFT
  6
Continuous
 62
     7
370
    35
100
AcDbLine
 10
172.057228
 20
134.613606
 30
0.0
 11
172.054055
 21
134.564351
 31
0.0
  0
LINE
  5
A2B4
330
37
100
AcDbEntity
  8
11000_LEFT
  6
Continuous
 62
     7
370
    35
100
AcDbLine
 10
172.054055
 20
134.564351
 30
0.0
 11
172.050143
 21
134.503773
 31
0.0
  0
LINE
  5
A2B5
330
37
100
AcDbEntity
  8
11000_LEFT
  6
Continuous
 62
     7
370
    35
100
AcDbLine
 10
172.050143
 20
134.503773
 30
0.0
 11
172.0454919999999
 21
134.431943
 31
0.0
  0
LINE
  5
A2B6
330
37
100
AcDbEntity
  8
11000_LEFT
  6
Continuous
 62
     7
370
    35
100
AcDbLine
 10
172.0454919999999
 20
134.431943
 30
0.0
 11
172.040105
 21
134.349027
 31
0.0
  0
LINE
  5
A2B7
330
37
100
AcDbEntity
  8
11000_LEFT
  6
Continuous
 62
     7
370
    35
100
AcDbLine
 10
172.040105
 20
134.349027
 30
0.0
 11
172.0339929999999
 21
134.255277
 31
0.0
  0
LINE
  5
A2B8
330
37
100
AcDbEntity
  8
11000_LEFT
  6
Continuous
 62
     7
370
    35
100
AcDbLine
 10
172.0339929999999
 20
134.255277
 30
0.0
 11
172.0271639999999
 21
134.150972
 31
0.0
  0
LINE
  5
A2B9
330
37
100
AcDbEntity
  8
11000_LEFT
  6
Continuous
 62
     7
370
    35
100
AcDbLine
 10
172.0271639999999
 20
134.150972
 30
0.0
 11
172.019636
 21
134.036492
 31
0.0
  0
LINE
  5
A2BA
330
37
100
AcDbEntity
  8
11000_LEFT
  6
Continuous
 62
     7
370
    35
100
AcDbLine
 10
172.019636
 20
134.036492
 30
0.0
 11
172.011432
 21
133.912331
 31
0.0
  0
LINE
  5
A2BB
330
37
100
AcDbEntity
  8
11000_LEFT
  6
Continuous
 62
     7
370
    35
100
AcDbLine
 10
172.011432
 20
133.912331
 30
0.0
 11
172.0025799999999
 21
133.779061
 31
0.0
  0
LINE
  5
A2BC
330
37
100
AcDbEntity
  8
11000_LEFT
  6
Continuous
 62
     7
370
    35
100
AcDbLine
 10
172.0025799999999
 20
133.779061
 30
0.0
 11
171.993113
 21
133.637333
 31
0.0
  0
LINE
  5
A2BD
330
37
100
AcDbEntity
  8
11000_LEFT
  6
Continuous
 62
     7
370
    35
100
AcDbLine
 10
171.993113
 20
133.637333
 30
0.0
 11
171.983072
 21
133.487872
 31
0.0
  0
LINE
  5
A2BE
330
37
100
AcDbEntity
  8
11000_LEFT
  6
Continuous
 62
     7
370
    35
100
AcDbLine
 10
171.983072
 20
133.487872
 30
0.0
 11
171.9725009999999
 21
133.331493
 31
0.0
  0
LINE
  5
A2BF
330
37
100
AcDbEntity
  8
11000_LEFT
  6
Continuous
 62
     7
370
    35
100
AcDbLine
 10
171.9725009999999
 20
133.331493
 30
0.0
 11
171.961455
 21
133.169096
 31
0.0
  0
LINE
  5
A2C0
330
37
100
AcDbEntity
  8
11000_LEFT
  6
Continuous
 62
     7
370
    35
100
AcDbLine
 10
171.961455
 20
133.169096
 30
0.0
 11
171.9499399999999
 21
133.0009099999999
 31
0.0
  0
LINE
  5
A2C1
330
37
100
AcDbEntity
  8
11000_LEFT
  6
Continuous
 62
     7
370
    35
100
AcDbLine
 10
171.9499399999999
 20
133.0009099999999
 30
0.0
 11
171.937725
 21
132.823703
 31
0.0
  0
LINE
  5
A2C2
330
37
100
AcDbEntity
  8
11000_LEFT
  6
Continuous
 62
     7
370
    35
100
AcDbLine
 10
171.937725
 20
132.823703
 30
0.0
 11
171.924787
 21
132.637335
 31
0.0
  0
LINE
  5
A2C3
330
37
100
AcDbEntity
  8
11000_LEFT
  6
Continuous
 62
     7
370
    35
100
AcDbLine
 10
171.924787
 20
132.637335
 30
0.0
 11
171.91115
 21
132.442322
 31
0.0
  0
LINE
  5
A2C4
330
37
100
AcDbEntity
  8
11000_LEFT
  6
Continuous
 62
     7
370
    35
100
AcDbLine
 10
171.91115
 20
132.442322
 30
0.0
 11
171.896839
 21
132.239234
 31
0.0
  0
LINE
  5
A2C5
330
37
100
AcDbEntity
  8
11000_LEFT
  6
Continuous
 62
     7
370
    35
100
AcDbLine
 10
171.896839
 20
132.239234
 30
0.0
 11
171.881886
 21
132.028686
 31
0.0
  0
LINE
  5
A2C6
330
37
100
AcDbEntity
  8
11000_LEFT
  6
Continuous
 62
     7
370
    35
100
AcDbLine
 10
171.881886
 20
132.028686
 30
0.0
 11
171.8663249999999
 21
131.811348
 31
0.0
  0
LINE
  5
A2C7
330
37
100
AcDbEntity
  8
11000_LEFT
  6
Continuous
 62
     7
370
    35
100
AcDbLine
 10
171.8663249999999
 20
131.811348
 30
0.0
 11
171.850199
 21
131.587953
 31
0.0
  0
LINE
  5
A2C8
330
37
100
AcDbEntity
  8
11000_LEFT
  6
Continuous
 62
     7
370
    35
100
AcDbLine
 10
171.850199
 20
131.587953
 30
0.0
 11
171.833552
 21
131.359279
 31
0.0
  0
LINE
  5
A2C9
330
37
100
AcDbEntity
  8
11000_LEFT
  6
Continuous
 62
     7
370
    35
100
AcDbLine
 10
171.833552
 20
131.359279
 30
0.0
 11
171.8164309999999
 21
131.126081
 31
0.0
  0
LINE
  5
A2CA
330
37
100
AcDbEntity
  8
11000_LEFT
  6
Continuous
 62
     7
370
    35
100
AcDbLine
 10
171.8164309999999
 20
131.126081
 30
0.0
 11
171.798881
 21
130.889072
 31
0.0
  0
LINE
  5
A2CB
330
37
100
AcDbEntity
  8
11000_LEFT
  6
Continuous
 62
     7
370
    35
100
AcDbLine
 10
171.798881
 20
130.889072
 30
0.0
 11
171.780959
 21
130.649117
 31
0.0
  0
LINE
  5
A2CC
330
37
100
AcDbEntity
  8
11000_LEFT
  6
Continuous
 62
     7
370
    35
100
AcDbLine
 10
171.780959
 20
130.649117
 30
0.0
 11
171.762728
 21
130.407124
 31
0.0
  0
LINE
  5
A2CD
330
37
100
AcDbEntity
  8
11000_LEFT
  6
Continuous
 62
     7
370
    35
100
AcDbLine
 10
171.762728
 20
130.407124
 30
0.0
 11
171.744254
 21
130.164015
 31
0.0
  0
LINE
  5
A2CE
330
37
100
AcDbEntity
  8
11000_LEFT
  6
Continuous
 62
     7
370
    35
100
AcDbLine
 10
171.744254
 20
130.164015
 30
0.0
 11
171.7256059999999
 21
129.920717
 31
0.0
  0
LINE
  5
A2CF
330
37
100
AcDbEntity
  8
11000_LEFT
  6
Continuous
 62
     7
370
    35
100
AcDbLine
 10
171.7256059999999
 20
129.920717
 30
0.0
 11
171.706859
 21
129.678186
 31
0.0
  0
LINE
  5
A2D0
330
37
100
AcDbEntity
  8
11000_LEFT
  6
Continuous
 62
     7
370
    35
100
AcDbLine
 10
171.706859
 20
129.678186
 30
0.0
 11
171.688091
 21
129.437404
 31
0.0
  0
LINE
  5
A2D1
330
37
100
AcDbEntity
  8
11000_LEFT
  6
Continuous
 62
     7
370
    35
100
AcDbLine
 10
171.688091
 20
129.437404
 30
0.0
 11
171.669382
 21
129.199358
 31
0.0
  0
LINE
  5
A2D2
330
37
100
AcDbEntity
  8
11000_LEFT
  6
Continuous
 62
     7
370
    35
100
AcDbLine
 10
172.831568
 20
194.664975
 30
0.0
 11
172.831568
 21
183.754933
 31
0.0
  0
LINE
  5
A2D4
330
37
100
AcDbEntity
  8
11000_LEFT
  6
Continuous
 62
     7
370
    35
100
AcDbLine
 10
179.831568
 20
126.399317
 30
0.0
 11
179.831568
 21
129.199358
 31
0.0
  0
LINE
  5
A2D5
330
37
100
AcDbEntity
  8
11000_LEFT
  6
Continuous
 62
     7
370
    35
100
AcDbLine
 10
179.831568
 20
129.199358
 30
0.0
 11
179.831568
 21
134.4511419999999
 31
0.0
  0
LINE
  5
A2D6
330
37
100
AcDbEntity
  8
11000_LEFT
  6
Continuous
 62
     7
370
    35
100
AcDbLine
 10
179.831568
 20
183.754933
 30
0.0
 11
179.831568
 21
194.664975
 31
0.0
  0
LINE
  5
A2D8
330
37
100
AcDbEntity
  8
11000_LEFT
  6
Continuous
 62
     7
370
    35
100
AcDbLine
 10
159.831568
 20
209.400017
 30
0.0
 11
158.831568
 21
209.400017
 31
0.0
  0
LINE
  5
A2D9
330
37
100
AcDbEntity
  8
11000_LEFT
  6
Continuous
 62
     7
370
    35
100
AcDbLine
 10
158.831568
 20
209.400017
 30
0.0
 11
157.831568
 21
209.400017
 31
0.0
  0
LINE
  5
A2DA
330
37
100
AcDbEntity
  8
11000_LEFT
  6
Continuous
 62
     7
370
    35
100
AcDbLine
 10
162.331568
 20
202.100017
 30
0.0
 11
158.831568
 21
202.100017
 31
0.0
  0
LINE
  5
A2DB
330
37
100
AcDbEntity
  8
11000_LEFT
  6
Continuous
 62
     7
370
    35
100
AcDbLine
 10
158.831568
 20
202.100017
 30
0.0
 11
155.331568
 21
202.100017
 31
0.0
  0
ARC
  5
A2DC
330
37
100
AcDbEntity
  8
11000_LEFT
  6
Continuous
 62
     7
370
    35
100
AcDbCircle
 10
157.831568
 20
206.400017
 30
0.0
 40
3.0
100
AcDbArc
 50
90.0
 51
143.1301020000002
  0
ARC
  5
A2DD
330
37
100
AcDbEntity
  8
11000_LEFT
  6
Continuous
 62
     7
370
    35
100
AcDbCircle
 10
159.831568
 20
206.400017
 30
0.0
 40
3.0
100
AcDbArc
 50
36.86989799999981
 51
90.0
  0
ARC
  5
A2DE
330
37
100
AcDbEntity
  8
11000_LEFT
  6
Continuous
 62
     7
370
    35
100
AcDbCircle
 10
155.831568
 20
207.900017
 30
0.0
 40
0.5
100
AcDbArc
 50
143.1301020000002
 51
180.0
  0
ARC
  5
A2DF
330
37
100
AcDbEntity
  8
11000_LEFT
  6
Continuous
 62
     7
370
    35
100
AcDbCircle
 10
161.831568
 20
207.900017
 30
0.0
 40
0.5
100
AcDbArc
 50
0.0
 51
36.86989799999981
  0
LINE
  5
A2E0
330
37
100
AcDbEntity
  8
11000_LEFT
  6
Continuous
 62
     7
370
    35
100
AcDbLine
 10
162.331568
 20
202.100017
 30
0.0
 11
162.331568
 21
207.900017
 31
0.0
  0
LINE
  5
A2E1
330
37
100
AcDbEntity
  8
11000_LEFT
  6
Continuous
 62
     7
370
    35
100
AcDbLine
 10
155.331568
 20
207.900017
 30
0.0
 11
155.331568
 21
202.100017
 31
0.0
  0
LINE
  5
A2E2
330
37
100
AcDbEntity
  8
11000_LEFT
  6
Continuous
 62
     7
370
    35
100
AcDbLine
 10
161.531568
 20
201.700017
 30
0.0
 11
161.531568
 21
202.100017
 31
0.0
  0
LINE
  5
A2E3
330
37
100
AcDbEntity
  8
11000_LEFT
  6
Continuous
 62
     7
370
    35
100
AcDbLine
 10
156.131568
 20
202.100017
 30
0.0
 11
156.131568
 21
201.700017
 31
0.0
  0
LINE
  5
A2E6
330
37
100
AcDbEntity
  8
11100_LEFT_DIM
  6
Continuous
 62
     7
370
    18
100
AcDbLine
 10
179.831568
 20
105.700017
 30
0.0
 11
179.831568
 21
123.700017
 31
0.0
  0
MTEXT
  5
A36B
330
37
100
AcDbEntity
  8
10100_FRONT_DIM
  6
Continuous
 62
     7
370
    18
100
AcDbMText
 10
53.05564691529887
 20
138.8454742649168
 30
0.0
 40
3.5
 41
1.0
 71
     1
 72
     1
  1
\A1;M20x1,5
 73
     1
 44
1.0
1001
ACAD
1000
MTEXTBEGIN
1070
    73
1070
     1
1070
    44
1040
1.0
1070
    74
1070
     0
1000
MTEXTEND
  0
DIMENSION
  5
A36C
330
37
100
AcDbEntity
  8
11100_LEFT_DIM
370
    18
100
AcDbDimension
  2
*D3
 10
157.831568
 20
110.700018
 30
0.0
 11
150.181568
 21
112.950018
 31
0.0
 70
    32
 71
     5
 42
15.30000000000001
  3
H035
100
AcDbAlignedDimension
 13
142.531568
 23
123.700017
 33
0.0
 14
157.831568
 24
123.700017
 34
0.0
100
AcDbRotatedDimension
1001
ACAD
1000
DSTYLE
1002
{
1070
    40
1040
1.0
1002
}
  0
DIMENSION
  5
A36D
330
37
100
AcDbEntity
  8
11100_LEFT_DIM
370
    18
100
AcDbDimension
  2
*D4
 10
179.831568
 20
100.700018
 30
0.0
 11
161.181568
 21
102.950018
 31
0.0
 70
    32
 71
     5
 42
37.30000000000001
  3
H035
100
AcDbAlignedDimension
 13
142.531568
 23
123.700017
 33
0.0
 14
179.831568
 24
123.700017
 34
0.0
100
AcDbRotatedDimension
1001
ACAD
1000
DSTYLE
1002
{
1070
    40
1040
1.0
1002
}
  0
DIMENSION
  5
A36E
330
37
100
AcDbEntity
  8
11100_LEFT_DIM
370
    18
100
AcDbDimension
  2
*D5
 10
158.831568
 20
222.700924175947
 30
0.0
 11
150.681568
 21
224.9509241759469
 31
0.0
 70
    32
 71
     5
 42
16.3
  3
H035
100
AcDbAlignedDimension
 13
142.531568
 23
201.700017
 33
0.0
 14
158.831568
 24
209.400017
 34
0.0
100
AcDbRotatedDimension
1001
ACAD
1000
DSTYLE
1002
{
1070
    40
1040
1.0
1002
}
  0
DIMENSION
  5
A36F
330
37
100
AcDbEntity
  8
10100_FRONT_DIM
370
    18
100
AcDbDimension
  2
*D6
 10
82.77092899999997
 20
100.700018
 30
0.0
 11
62.520929
 21
102.950018
 31
0.0
 70
    32
 71
     5
 42
40.49999999999992
  3
H035
100
AcDbAlignedDimension
 13
42.27092900000002
 23
124.700017
 33
0.0
 14
82.77092899999997
 24
124.700017
 34
0.0
100
AcDbRotatedDimension
1001
ACAD
1000
DSTYLE
1002
{
1070
    40
1040
1.0
1002
}
  0
DIMENSION
  5
A370
330
37
100
AcDbEntity
  8
10100_FRONT_DIM
370
    18
100
AcDbDimension
  2
*D7
 10
77.52092799999997
 20
110.700018
 30
0.0
 11
62.52092799999997
 21
112.950018
 31
0.0
 70
    32
 71
     5
 42
30.0
  3
H035
100
AcDbAlignedDimension
 13
47.52092799999997
 23
126.550017
 33
0.0
 14
77.52092799999997
 24
125.550017
 34
0.0
100
AcDbRotatedDimension
1001
ACAD
1000
DSTYLE
1002
{
1070
    40
1040
1.0
1002
}
  0
DIMENSION
  5
A371
330
37
100
AcDbEntity
  8
10100_FRONT_DIM
370
    18
100
AcDbDimension
  2
*D8
 10
20.01058100000001
 20
201.7000170456667
 30
0.0
 11
20.01058099999998
 21
205.5500170228333
 31
0.0
 70
   160
 71
     5
 42
7.699999954333293
  3
H035
100
AcDbAlignedDimension
 13
62.52092799999997
 23
209.400017
 33
0.0
 14
46.51899302676517
 24
201.7000170456667
 34
0.0
 50
90.0
100
AcDbRotatedDimension
1001
ACAD
1000
DSTYLE
1002
{
1070
    40
1040
1.0
1002
}
  0
DIMENSION
  5
A372
330
37
100
AcDbEntity
  8
10100_FRONT_DIM
370
    18
100
AcDbDimension
  2
*D9
 10
20.010581
 20
123.700017
 30
0.0
 11
20.01058099999998
 21
162.7000170228333
 31
0.0
 70
   160
 71
     5
 42
78.00000004566668
  3
H035
100
AcDbAlignedDimension
 13
46.51899302676517
 23
201.7000170456667
 33
0.0
 14
43.27092900000002
 24
123.700017
 34
0.0
 50
90.0
100
AcDbRotatedDimension
1001
ACAD
1000
DSTYLE
1002
{
1070
    40
1040
1.0
1002
}
  0
DIMENSION
  5
A373
330
37
100
AcDbEntity
  8
10100_FRONT_DIM
370
    18
100
AcDbDimension
  2
*D10
 10
66.02092800000001
 20
222.400017
 30
0.0
 11
62.53375717573172
 21
224.650017
 31
0.0
 70
    32
  1
%%c7
 71
     5
 42
6.974341648536579
  3
H035
100
AcDbAlignedDimension
 13
59.04658635146343
 23
208.0581308844744
 33
0.0
 14
66.02092800000001
 24
208.0581308844744
 34
0.0
100
AcDbRotatedDimension
1001
ACAD
1000
DSTYLE
1002
{
1070
   271
1070
     1
1070
    40
1040
1.0
1002
}
  0
DIMENSION
  5
A374
330
37
100
AcDbEntity
  8
10100_FRONT_DIM
370
    18
100
AcDbDimension
  2
*D11
 10
95.77092699999996
 20
130.200017
 30
0.0
 11
93.52092699999996
 21
138.8666836666667
 31
0.0
 70
    32
 71
     5
 42
2.0
  3
H035
100
AcDbAlignedDimension
 13
80.170928
 23
128.200017
 33
0.0
 14
80.170928
 24
130.200017
 34
0.0
 50
90.0
100
AcDbRotatedDimension
1001
ACAD
1000
DSTYLE
1002
{
1070
    40
1040
1.0
1002
}
  0
DIMENSION
  5
A375
330
37
100
AcDbEntity
  8
10100_FRONT_DIM
370
    18
100
AcDbDimension
  2
*D12
 10
105.7709269999999
 20
189.200017
 30
0.0
 11
103.5209269999999
 21
158.700017
 31
0.0
 70
    32
 71
     5
 42
61.0
  3
H035
100
AcDbAlignedDimension
 13
80.170928
 23
128.200017
 33
0.0
 14
80.170928
 24
189.200017
 34
0.0
 50
90.0
100
AcDbRotatedDimension
1001
ACAD
1000
DSTYLE
1002
{
1070
    40
1040
1.0
1002
}
  0
DIMENSION
  5
A376
330
37
100
AcDbEntity
  8
10100_FRONT_DIM
370
    18
100
AcDbDimension
  2
*D13
 10
105.7709269999999
 20
201.7000170456668
 30
0.0
 11
103.5209269999999
 21
195.4500170228334
 31
0.0
 70
    32
 71
     5
 42
12.50000004566681
  3
H035
100
AcDbAlignedDimension
 13
80.170928
 23
189.200017
 33
0.0
 14
79.04953042253191
 24
201.7000170456668
 34
0.0
 50
90.0
100
AcDbRotatedDimension
1001
ACAD
1000
DSTYLE
1002
{
1070
    40
1040
1.0
1002
}
  0
LINE
  5
A377
330
37
100
AcDbEntity
  8
10200_FRONT_SYM
  6
CENTER
 62
     7
 48
10.0
370
    18
100
AcDbLine
 10
77.52092799999997
 20
193.4661445676969
 30
0.0
 11
77.52092799999997
 21
184.9338894323031
 31
0.0
  0
LINE
  5
A378
330
37
100
AcDbEntity
  8
10200_FRONT_SYM
  6
CENTER
 62
     7
 48
10.0
370
    18
100
AcDbLine
 10
81.78705556769694
 20
189.200017
 30
0.0
 11
73.25480043230307
 21
189.200017
 31
0.0
  0
LINE
  5
A379
330
37
100
AcDbEntity
  8
10200_FRONT_SYM
  6
CENTER
 62
     7
 48
10.0
370
    18
100
AcDbLine
 10
77.52092799999997
 20
132.4661445676969
 30
0.0
 11
77.52092799999997
 21
123.9338894323031
 31
0.0
  0
LINE
  5
A37A
330
37
100
AcDbEntity
  8
10200_FRONT_SYM
  6
CENTER
 62
     7
 48
10.0
370
    18
100
AcDbLine
 10
81.78705556769694
 20
128.200017
 30
0.0
 11
73.25480043230307
 21
128.200017
 31
0.0
  0
LINE
  5
A37B
330
37
100
AcDbEntity
  8
10200_FRONT_SYM
  6
CENTER
 62
     7
 48
10.0
370
    18
100
AcDbLine
 10
77.52092799999997
 20
134.4661445676969
 30
0.0
 11
77.52092799999997
 21
125.9338894323031
 31
0.0
  0
LINE
  5
A37C
330
37
100
AcDbEntity
  8
10200_FRONT_SYM
  6
CENTER
 62
     7
 48
10.0
370
    18
100
AcDbLine
 10
81.78705556769694
 20
130.200017
 30
0.0
 11
73.25480043230307
 21
130.200017
 31
0.0
  0
LINE
  5
A37D
330
37
100
AcDbEntity
  8
10200_FRONT_SYM
  6
CENTER
 62
     7
 48
10.0
370
    18
100
AcDbLine
 10
47.52092799999997
 20
133.4661445676969
 30
0.0
 11
47.52092799999997
 21
124.9338894323031
 31
0.0
  0
LINE
  5
A37E
102
{ACAD_REACTORS
330
B0C4
102
}
330
37
100
AcDbEntity
  8
10200_FRONT_SYM
  6
CENTER
 62
     7
 48
10.0
370
    18
100
AcDbLine
 10
51.78705556769688
 20
129.200017
 30
0.0
 11
43.25480043230306
 21
129.200017
 31
0.0
  0
LINE
  5
A37F
330
37
100
AcDbEntity
  8
10200_FRONT_SYM
  6
CENTER
 62
     7
 48
10.0
370
    18
100
AcDbLine
 10
47.52092799999997
 20
192.4661445676969
 30
0.0
 11
47.52092799999997
 21
183.9338894323031
 31
0.0
  0
LINE
  5
A380
330
37
100
AcDbEntity
  8
10200_FRONT_SYM
  6
CENTER
 62
     7
 48
10.0
370
    18
100
AcDbLine
 10
51.78705556769688
 20
188.200017
 30
0.0
 11
43.25480043230306
 21
188.200017
 31
0.0
  0
LINE
  5
A381
330
37
100
AcDbEntity
  8
10200_FRONT_SYM
  6
CENTER
 62
     7
 48
10.0
370
    18
100
AcDbLine
 10
47.52092799999997
 20
194.4661445676969
 30
0.0
 11
47.52092799999997
 21
185.9338894323031
 31
0.0
  0
LINE
  5
A382
330
37
100
AcDbEntity
  8
10200_FRONT_SYM
  6
CENTER
 62
     7
 48
10.0
370
    18
100
AcDbLine
 10
51.78705556769688
 20
190.200017
 30
0.0
 11
43.25480043230306
 21
190.200017
 31
0.0
  0
LINE
  5
A383
330
37
100
AcDbEntity
  8
11200_LEFT_SYM
  6
CENTER
 62
     7
 48
10.0
370
    18
100
AcDbLine
 10
175.7476955676969
 20
189.209954
 30
0.0
 11
167.2154404323031
 21
189.209954
 31
0.0
  0
LINE
  5
A384
330
37
100
AcDbEntity
  8
11200_LEFT_SYM
  6
CENTER
 62
     7
 48
10.0
370
    18
100
AcDbLine
 10
173.7976955676969
 20
129.200017
 30
0.0
 11
165.2654404323031
 21
129.200017
 31
0.0
  0
LINE
  5
A385
330
37
100
AcDbEntity
  8
10200_FRONT_SYM
  6
CENTER
 62
     7
 48
10.0
370
    18
100
AcDbLine
 10
62.46016769635907
 20
212.1777754581715
 30
0.0
 11
62.46016769635907
 21
198.5900739204503
 31
0.0
  0
LINE
  5
A386
330
37
100
AcDbEntity
  8
11200_LEFT_SYM
  6
CENTER
 62
     7
 48
10.0
370
    18
100
AcDbLine
 10
158.770807696359
 20
212.1777754581715
 30
0.0
 11
158.770807696359
 21
198.5900739204503
 31
0.0
  0
ARC
  5
B078
330
37
100
AcDbEntity
  8
10000_FRONT
  6
Continuous
 62
     7
370
    35
100
AcDbCircle
 10
71.52306289745928
 20
124.7074163290943
 30
0.0
 40
1.007398387451925
100
AcDbArc
 50
269.9804977079058
 51
352.1113738696864
  0
ARC
  5
B079
330
37
100
AcDbEntity
  8
10000_FRONT
  6
Continuous
 62
     7
370
    35
100
AcDbCircle
 10
53.5199881025406
 20
124.7074163290943
 30
0.0
 40
1.007398387451925
100
AcDbArc
 50
187.8886261303144
 51
270.0195022920942
  0
ARC
  5
B07A
330
37
100
AcDbEntity
  8
11000_LEFT
  6
Continuous
 62
     7
370
    35
100
AcDbCircle
 10
185.8284004763953
 20
195.268135984635
 30
0.0
 40
8.928923798703971
100
AcDbArc
 50
133.9172559425689
 51
152.4489841673051
  0
ARC
  5
B07B
330
37
100
AcDbEntity
  8
11000_LEFT
  6
Continuous
 62
     7
370
    35
100
AcDbCircle
 10
176.0866889515325
 20
200.621368734984
 30
0.0
 40
2.197469576448713
100
AcDbArc
 50
295.8991712569119
 51
326.5577630279485
  0
ARC
  5
B07C
330
37
100
AcDbEntity
  8
10000_FRONT
  6
Continuous
 62
     7
370
    35
100
AcDbCircle
 10
73.38847444451278
 20
189.4000192675989
 30
0.0
 40
13.32861209295883
100
AcDbArc
 50
47.93083920665085
 51
67.3428732065378
  0
ARC
  5
B07D
330
37
100
AcDbEntity
  8
10000_FRONT
  6
Continuous
 62
     7
370
    35
100
AcDbCircle
 10
81.84234472562442
 20
198.4836026196629
 30
0.0
 40
0.9404757097471796
100
AcDbArc
 50
5.522307155220153
 51
59.54705896437357
  0
ARC
  5
B07E
330
37
100
AcDbEntity
  8
10000_FRONT
  6
Continuous
 62
     7
370
    35
100
AcDbCircle
 10
52.56611010467072
 20
187.648212084177
 30
0.0
 40
15.29773995169363
100
AcDbArc
 50
113.284361343274
 51
130.0124022325138
  0
ARC
  5
B07F
330
37
100
AcDbEntity
  8
10000_FRONT
  6
Continuous
 62
     7
370
    35
100
AcDbCircle
 10
43.2070377804506
 20
198.5540989319177
 30
0.0
 40
0.9404757097471796
100
AcDbArc
 50
120.4529410356264
 51
174.4776928447798
  0
ARC
  5
B094
330
37
100
AcDbEntity
  8
10000_FRONT
370
    35
100
AcDbCircle
 10
-98.05912434896805
 20
158.071057910908
 30
0.0
 40
176.1316476769657
100
AcDbArc
 50
352.302849225622
 51
359.9794507721209
  0
ARC
  5
B095
330
37
100
AcDbEntity
  8
10000_FRONT
370
    35
100
AcDbCircle
 10
223.1969195313497
 20
158.0809686681952
 30
0.0
 40
176.2300388091539
100
AcDbArc
 50
179.7987350515816
 51
187.6958792745582
  0
LINE
  5
B0AC
330
37
100
AcDbEntity
  8
10100_FRONT_DIM
  6
Continuous
 62
     7
370
    18
100
AcDbLine
 10
62.52092799999997
 20
123.700017
 30
0.0
 11
65.90145204304531
 21
134.1422022914377
 31
0.0
  0
DIMENSION
  5
B0AD
102
{ACAD_XDICTIONARY
360
B0BA
102
}
102
{ACAD_REACTORS
330
B0C4
102
}
330
37
100
AcDbEntity
  8
10100_FRONT_DIM
370
    18
100
AcDbDimension
  2
*D48
 10
29.260581
 20
129.200017
 30
0.0
 11
27.01058099999998
 21
159.2049855
 31
0.0
 70
    32
 71
     5
 42
60.00993700000001
  3
H035
100
AcDbAlignedDimension
 13
47.276625
 23
189.209954
 33
0.0
 14
47.52092799999998
 24
129.200017
 34
0.0
 50
90.0
100
AcDbRotatedDimension
1001
ACAD
1000
DSTYLE
1002
{
1070
   271
1070
     1
1070
    40
1040
1.0
1002
}
  0
DIMENSION
  5
B0F4
330
37
100
AcDbEntity
  8
10100_FRONT_DIM
  6
Continuous
 62
     7
370
    18
100
AcDbDimension
  2
*D49
 10
50.02438938575856
 20
187.3310054408043
 30
0.0
 11
28.821437928883
 21
194.6910590089991
 31
0.0
 70
   163
 71
     5
 42
5.300000000000031
  3
H035
100
AcDbDiametricDimension
 15
45.01746661424138
 25
189.0690285591956
 35
0.0
 40
0.0
1001
ACAD
1000
DSTYLE
1002
{
1070
    40
1040
1.0
1070
   279
1070
     1
1070
   288
1070
     1
1002
}
  0
DIMENSION
  5
B11C
102
{ACAD_XDICTIONARY
360
B128
102
}
102
{ACAD_REACTORS
330
B131
102
}
330
37
100
AcDbEntity
  8
10100_FRONT_DIM
  6
Continuous
 62
     7
370
    18
100
AcDbDimension
  2
*D50
 10
49.37140021708724
 20
131.0969230529683
 30
0.0
 11
32.791431203417
 21
114.1009134454513
 31
0.0
 70
   163
 71
     5
 42
5.299999999999967
  3
H035
100
AcDbDiametricDimension
 15
45.67045578291267
 25
127.3031109470316
 35
0.0
 40
0.0
1001
ACAD
1000
DSTYLE
1002
{
1070
    40
1040
1.0
1070
   288
1070
     1
1002
}
  0
LINE
  5
B132
330
37
100
AcDbEntity
  8
11200_LEFT_SYM
  6
CENTER
 62
     7
 48
10.0
370
    18
100
AcDbLine
 10
157.831568
 20
127.9661445676969
 30
0.0
 11
157.831568
 21
119.4338894323031
 31
0.0
  0
ENDSEC
  0
SECTION
  2
OBJECTS
  0
DICTIONARY
  5
C
330
0
100
AcDbDictionary
281
     1
  3
ACAD_2007HEADERVARS_RT
350
B14F
  3
ACAD_COLOR
350
30
  3
ACAD_GROUP
350
D
  3
ACAD_LAYOUT
350
2F
  3
ACAD_MATERIAL
350
10
  3
ACAD_MLINESTYLE
350
2C
  3
ACAD_PLOTSETTINGS
350
2E
  3
ACAD_PLOTSTYLENAME
350
E
  3
ACAD_TABLESTYLE
350
31
  3
ACAD_VISUALSTYLE
350
14
  3
AcDbVariableDictionary
350
319A
  3
ASE_INDEX_DICTIONARY
350
B14C
  3
DWGPROPS
350
B14E
  0
DICTIONARY
  5
211
330
37
100
AcDbDictionary
280
     1
281
     1
  3
ACAD_SORTENTS
360
212
  0
DICTIONARY
  5
B0BA
330
B0AD
100
AcDbDictionary
280
     1
281
     1
  3
ACAD_DIMASSOC
360
B0C4
  0
DICTIONARY
  5
B128
330
B11C
100
AcDbDictionary
280
     1
281
     1
  3
ACAD_DIMASSOC
360
B131
  0
DICTIONARY
  5
B14F
102
{ACAD_REACTORS
330
C
102
}
330
C
100
AcDbDictionary
281
     1
  3
DIMJOGANG
350
B150
  0
DICTIONARY
  5
30
102
{ACAD_REACTORS
330
C
102
}
330
C
100
AcDbDictionary
281
     1
  0
DICTIONARY
  5
D
102
{ACAD_REACTORS
330
C
102
}
330
C
100
AcDbDictionary
281
     1
  0
DICTIONARY
  5
2F
102
{ACAD_REACTORS
330
C
102
}
330
C
100
AcDbDictionary
281
     1
  3
Layout1
350
36
  3
Layout2
350
3E
  3
Model
350
3A
  0
DICTIONARY
  5
10
102
{ACAD_REACTORS
330
C
102
}
330
C
100
AcDbDictionary
281
     1
  3
ByBlock
350
12
  3
ByLayer
350
11
  3
Global
350
13
  0
DICTIONARY
  5
2C
102
{ACAD_REACTORS
330
C
102
}
330
C
100
AcDbDictionary
281
     1
  3
Standard
350
2D
  0
DICTIONARY
  5
2E
102
{ACAD_REACTORS
330
C
102
}
330
C
100
AcDbDictionary
281
     1
  0
ACDBDICTIONARYWDFLT
  5
E
102
{ACAD_REACTORS
330
C
102
}
330
C
100
AcDbDictionary
281
     1
  3
Normal
350
F
100
AcDbDictionaryWithDefault
340
F
  0
DICTIONARY
  5
31
102
{ACAD_REACTORS
330
C
102
}
330
C
100
AcDbDictionary
281
     1
  3
Standard
350
32
  0
DICTIONARY
  5
14
102
{ACAD_REACTORS
330
C
102
}
330
C
100
AcDbDictionary
281
     1
  3
2dWireframe
350
1A
  3
3D Hidden
350
1C
  3
3dWireframe
350
1B
  3
Basic
350
19
  3
Brighten
350
20
  3
ColorChange
350
24
  3
Conceptual
350
1D
  3
Dim
350
1F
  3
Facepattern
350
23
  3
Flat
350
15
  3
FlatWithEdges
350
16
  3
Gouraud
350
17
  3
GouraudWithEdges
350
18
  3
Linepattern
350
22
  3
Realistic
350
1E
  3
Thicken
350
21
  0
DICTIONARY
  5
319A
102
{ACAD_REACTORS
330
C
102
}
330
C
100
AcDbDictionary
281
     1
  3
CTABLESTYLE
350
319B
  3
DIMASSOC
350
319F
  3
HIDETEXT
350
319E
  3
INDEXCTL
350
319D
  3
SORTENTS
350
319C
  0
DICTIONARY
  5
B14C
102
{ACAD_REACTORS
330
C
102
}
330
C
100
AcDbDictionary
281
     1
  3
ASEBlockHierarchyIndexRecord
350
B14D
1001
DCO15
1040
1599910560.365
  0
XRECORD
  5
B14E
102
{ACAD_REACTORS
330
C
102
}
330
C
100
AcDbXrecord
280
     1
  1
DWGPROPS COOKIE
  2

  3

  4

  6

  7

  8
adfize1
  9

300
=
301
=
302
=
303
=
304
=
305
=
306
=
307
=
308
=
309
=
 40
0.1930400694444444
 41
2454295.653872604
 42
2454320.69518941
  1

 90
        0
  0
SORTENTSTABLE
  5
212
102
{ACAD_REACTORS
330
211
102
}
330
211
100
AcDbSortentsTable
330
37
331
A2BF
  5
A2BF
331
A2C7
  5
A2C7
331
A2CF
  5
A2CF
331
A173
  5
A173
331
A19B
  5
A19B
331
1CD
  5
1CD
331
A1A3
  5
A1A3
331
A212
  5
A212
331
A0AC
  5
A0AC
331
A36B
  5
A36B
331
A2DF
  5
A2DF
331
A37F
  5
A37F
331
9FBD
  5
9FBD
331
A1AB
  5
A1AB
331
9FC5
  5
9FC5
331
A124
  5
A124
331
A1BB
  5
A1BB
331
A2B2
  5
A2B2
331
A373
  5
A373
331
A382
  5
A382
331
A2B8
  5
A2B8
331
A2C0
  5
A2C0
331
A2C8
  5
A2C8
331
A2D0
  5
A2D0
331
A174
  5
A174
331
A085
  5
A085
331
A19C
  5
A19C
331
A213
  5
A213
331
A1A4
  5
A1A4
331
A263
  5
A263
331
A36C
  5
A36C
331
A2D8
  5
A2D8
331
A2E0
  5
A2E0
331
A378
  5
A378
331
A1AC
  5
A1AC
331
9FBE
  5
9FBE
331
9FC6
  5
9FC6
331
A2B3
  5
A2B3
331
A016
  5
A016
331
A383
  5
A383
331
A374
  5
A374
331
A2B9
  5
A2B9
331
A2C1
  5
A2C1
331
A2C9
  5
A2C9
331
A2D1
  5
A2D1
331
A19D
  5
A19D
331
A0AE
  5
A0AE
331
A1A5
  5
A1A5
331
A214
  5
A214
331
9FB7
  5
9FB7
331
1EC
  5
1EC
331
A36D
  5
A36D
331
A2D9
  5
A2D9
331
A2E1
  5
A2E1
331
A379
  5
A379
331
9FBF
  5
9FBF
331
A1AD
  5
A1AD
331
9FC7
  5
9FC7
331
A126
  5
A126
331
A2B4
  5
A2B4
331
A017
  5
A017
331
A375
  5
A375
331
A384
  5
A384
331
A2BA
  5
A2BA
331
A2C2
  5
A2C2
331
A2CA
  5
A2CA
331
A2D2
  5
A2D2
331
A20D
  5
A20D
331
A19E
  5
A19E
331
A0AF
  5
A0AF
331
A1A6
  5
A1A6
331
A36E
  5
A36E
331
A2DA
  5
A2DA
331
A2E2
  5
A2E2
331
A37A
  5
A37A
331
9FB8
  5
9FB8
331
A1AE
  5
A1AE
331
A127
  5
A127
331
A1B6
  5
A1B6
331
9FC8
  5
9FC8
331
A2B5
  5
A2B5
331
A1BE
  5
A1BE
331
A376
  5
A376
331
A385
  5
A385
331
A2BB
  5
A2BB
331
A2C3
  5
A2C3
331
A2CB
  5
A2CB
331
1C1
  5
1C1
331
A018
  5
A018
331
1C9
  5
1C9
331
A19F
  5
A19F
331
A0B0
  5
A0B0
331
A1A7
  5
A1A7
331
A36F
  5
A36F
331
A2DB
  5
A2DB
331
A2E3
  5
A2E3
331
A37B
  5
A37B
331
A0F8
  5
A0F8
331
9FB9
  5
9FB9
331
9FC1
  5
9FC1
331
A120
  5
A120
331
A1AF
  5
A1AF
331
A2AE
  5
A2AE
331
9FC9
  5
9FC9
331
A128
  5
A128
331
A1BF
  5
A1BF
331
A2B6
  5
A2B6
331
A377
  5
A377
331
A386
  5
A386
331
A2BC
  5
A2BC
331
A2C4
  5
A2C4
331
A2CC
  5
A2CC
331
A2D4
  5
A2D4
331
A019
  5
A019
331
A20F
  5
A20F
331
A0A9
  5
A0A9
331
A1A0
  5
A1A0
331
A217
  5
A217
331
A0B1
  5
A0B1
331
A2DC
  5
A2DC
331
A37C
  5
A37C
331
A1A8
  5
A1A8
331
9FBA
  5
9FBA
331
A121
  5
A121
331
9FC2
  5
9FC2
331
A2AF
  5
A2AF
331
A129
  5
A129
331
A1B8
  5
A1B8
331
9FCA
  5
9FCA
331
A2B7
  5
A2B7
331
A370
  5
A370
331
A2BD
  5
A2BD
331
A2C5
  5
A2C5
331
A2CD
  5
A2CD
331
A2D5
  5
A2D5
331
A1E8
  5
A1E8
331
A199
  5
A199
331
A1A1
  5
A1A1
331
A0AA
  5
A0AA
331
A2DD
  5
A2DD
331
A37D
  5
A37D
331
A288
  5
A288
331
9FBB
  5
9FBB
331
A1A9
  5
A1A9
331
9FC3
  5
9FC3
331
A122
  5
A122
331
A2B0
  5
A2B0
331
A12A
  5
A12A
331
A1C1
  5
A1C1
331
A371
  5
A371
331
A380
  5
A380
331
A2BE
  5
A2BE
331
A2C6
  5
A2C6
331
A2CE
  5
A2CE
331
A2D6
  5
A2D6
331
A19A
  5
A19A
331
A211
  5
A211
331
A1A2
  5
A1A2
331
A261
  5
A261
331
A2DE
  5
A2DE
331
A2E6
  5
A2E6
331
A37E
  5
A37E
331
A1AA
  5
A1AA
331
9FBC
  5
9FBC
331
A289
  5
A289
331
A123
  5
A123
331
9FC4
  5
9FC4
331
A2B1
  5
A2B1
331
9FCC
  5
9FCC
331
A1BA
  5
A1BA
331
A1C2
  5
A1C2
331
A381
  5
A381
331
A372
  5
A372
  0
DIMASSOC
  5
B0C4
102
{ACAD_REACTORS
330
B0BA
102
}
330
B0BA
100
AcDbDimAssoc
330
B0AD
 90
        3
 70
     0
 71
     0
  1
AcDbOsnapPointRef
 72
     3
331
A1A1
 73
     2
 91
        0
 40
4.712388980384688
 10
0.0
 20
0.0
 30
0.0
 75
     0
  1
AcDbOsnapPointRef
 72
     2
331
A37E
 73
     2
 91
        0
 40
0.5
 10
0.0
 20
0.0
 30
0.0
 75
     0
  0
DIMASSOC
  5
B131
102
{ACAD_REACTORS
330
B128
102
}
330
B128
100
AcDbDimAssoc
330
B11C
 90
        2
 70
     0
 71
     0
  1
AcDbOsnapPointRef
 72
     3
331
9FC3
 73
     2
 91
        0
 40
0.0
 10
0.0
 20
0.0
 30
0.0
 75
     0
  0
XRECORD
  5
B150
102
{ACAD_REACTORS
330
B14F
102
}
330
B14F
100
AcDbXrecord
280
     1
 40
1.570796326794896
  0
LAYOUT
  5
36
102
{ACAD_XDICTIONARY
360
B153
102
}
102
{ACAD_REACTORS
330
2F
102
}
330
2F
100
AcDbPlotSettings
  1

  2
Microsoft Office Document Image Writer
  4

  6

 40
0.0
 41
0.0
 42
0.0
 43
0.0
 44
0.0
 45
0.0
 46
0.0
 47
0.0
 48
0.0
 49
0.0
140
0.0
141
0.0
142
1.0
143
1.0
 70
   688
 72
     0
 73
     0
 74
     5
  7

 75
    16
147
1.0
148
0.0
149
0.0
100
AcDbLayout
  1
Layout1
 70
     1
 71
     1
 10
0.0
 20
0.0
 11
420.0
 21
297.0
 12
0.0
 22
0.0
 32
0.0
 14
1.000000000000000E+20
 24
1.000000000000000E+20
 34
1.000000000000000E+20
 15
-1.000000000000000E+20
 25
-1.000000000000000E+20
 35
-1.000000000000000E+20
146
0.0
 13
0.0
 23
0.0
 33
0.0
 16
1.0
 26
0.0
 36
0.0
 17
0.0
 27
1.0
 37
0.0
 76
     0
330
33
  0
LAYOUT
  5
3E
102
{ACAD_XDICTIONARY
360
B157
102
}
102
{ACAD_REACTORS
330
2F
102
}
330
2F
100
AcDbPlotSettings
  1

  2
Microsoft Office Document Image Writer
  4

  6

 40
0.0
 41
0.0
 42
0.0
 43
0.0
 44
0.0
 45
0.0
 46
0.0
 47
0.0
 48
0.0
 49
0.0
140
0.0
141
0.0
142
1.0
143
1.0
 70
   688
 72
     0
 73
     0
 74
     5
  7

 75
    16
147
1.0
148
0.0
149
0.0
100
AcDbLayout
  1
Layout2
 70
     1
 71
     2
 10
0.0
 20
0.0
 11
12.0
 21
9.0
 12
0.0
 22
0.0
 32
0.0
 14
0.0
 24
0.0
 34
0.0
 15
0.0
 25
0.0
 35
0.0
146
0.0
 13
0.0
 23
0.0
 33
0.0
 16
1.0
 26
0.0
 36
0.0
 17
0.0
 27
1.0
 37
0.0
 76
     0
330
3B
  0
LAYOUT
  5
3A
102
{ACAD_XDICTIONARY
360
B155
102
}
102
{ACAD_REACTORS
330
2F
102
}
330
2F
100
AcDbPlotSettings
  1

  2
Microsoft Office Document Image Writer
  4

  6

 40
0.0
 41
0.0
 42
0.0
 43
0.0
 44
0.0
 45
0.0
 46
0.0
 47
0.0
 48
0.0
 49
0.0
140
0.0
141
0.0
142
1.0
143
1.0
 70
  1712
 72
     0
 73
     0
 74
     0
  7

 75
     0
147
1.0
148
0.0
149
0.0
100
AcDbLayout
  1
Model
 70
     1
 71
     0
 10
0.0
 20
0.0
 11
12.0
 21
9.0
 12
0.0
 22
0.0
 32
0.0
 14
0.0
 24
0.0
 34
0.0
 15
0.0
 25
0.0
 35
0.0
146
0.0
 13
0.0
 23
0.0
 33
0.0
 16
1.0
 26
0.0
 36
0.0
 17
0.0
 27
1.0
 37
0.0
 76
     0
330
37
331
28
  0
MATERIAL
  5
12
102
{ACAD_XDICTIONARY
360
31A5
102
}
102
{ACAD_REACTORS
330
10
102
}
330
10
100
AcDbMaterial
  1
ByBlock
  0
MATERIAL
  5
11
102
{ACAD_XDICTIONARY
360
31A3
102
}
102
{ACAD_REACTORS
330
10
102
}
330
10
100
AcDbMaterial
  1
ByLayer
  0
MATERIAL
  5
13
102
{ACAD_XDICTIONARY
360
31A7
102
}
102
{ACAD_REACTORS
330
10
102
}
330
10
100
AcDbMaterial
  1
Global
  0
MLINESTYLE
  5
2D
102
{ACAD_REACTORS
330
2C
102
}
330
2C
100
AcDbMlineStyle
  2
STANDARD
 70
     0
  3

 62
   256
 51
90.0
 52
90.0
 71
     2
 49
0.5
 62
   256
  6
BYLAYER
 49
-0.5
 62
   256
  6
BYLAYER
  0
ACDBPLACEHOLDER
  5
F
102
{ACAD_REACTORS
330
E
102
}
330
E
  0
TABLESTYLE
  5
32
102
{ACAD_XDICTIONARY
360
B151
102
}
102
{ACAD_REACTORS
330
31
102
}
330
31
100
AcDbTableStyle
  3
Standard
 70
     0
 71
     0
 40
1.5
 41
1.5
280
     0
281
     0
  7
Standard
140
4.5
170
     2
 62
     0
 63
     7
283
     0
274
    -2
284
     1
 64
     0
275
    -2
285
     1
 65
     0
276
    -2
286
     1
 66
     0
277
    -2
287
     1
 67
     0
278
    -2
288
     1
 68
     0
279
    -2
289
     1
 69
     0
  7
Standard
140
6.0
170
     5
 62
     0
 63
     7
283
     0
274
    -2
284
     1
 64
     0
275
    -2
285
     1
 65
     0
276
    -2
286
     1
 66
     0
277
    -2
287
     1
 67
     0
278
    -2
288
     1
 68
     0
279
    -2
289
     1
 69
     0
  7
Standard
140
4.5
170
     5
 62
     0
 63
     7
283
     0
274
    -2
284
     1
 64
     0
275
    -2
285
     1
 65
     0
276
    -2
286
     1
 66
     0
277
    -2
287
     1
 67
     0
278
    -2
288
     1
 68
     0
279
    -2
289
     1
 69
     0
  0
VISUALSTYLE
  5
1A
102
{ACAD_REACTORS
330
14
102
}
330
14
100
AcDbVisualStyle
  2
2dWireframe
 70
     4
 71
     0
 72
     2
 73
     0
 90
        0
 40
-0.6
 41
-30.0
 62
     5
 63
     7
 74
     1
 91
        4
 64
     7
 65
   257
 75
     1
175
     1
 42
1.0
 92
        0
 66
   257
 43
1.0
 76
     1
 77
     6
 78
     2
 67
     7
 79
     5
170
     0
171
     0
290
     0
174
     0
 93
        1
 44
0.0
173
     0
291
     0
 45
0.0
1001
ACAD
1000
AcDbSavedByObjectVersion
1070
     0
1000
AcDbSavedByObjectVersion
1070
     0
1000
AcDbSavedByObjectVersion
1070
     0
1000
AcDbSavedByObjectVersion
1070
     0
1000
AcDbSavedByObjectVersion
1070
     0
  0
VISUALSTYLE
  5
1C
102
{ACAD_REACTORS
330
14
102
}
330
14
100
AcDbVisualStyle
  2
3D Hidden
 70
     6
 71
     1
 72
     2
 73
     2
 90
        0
 40
-0.6
 41
-30.0
 62
     5
 63
     7
 74
     2
 91
        2
 64
     7
 65
   257
 75
     2
175
     1
 42
40.0
 92
        0
 66
   257
 43
1.0
 76
     1
 77
     6
 78
     2
 67
     7
 79
     3
170
     0
171
     0
290
     0
174
     0
 93
        1
 44
0.0
173
     0
291
     0
 45
0.0
1001
ACAD
1000
AcDbSavedByObjectVersion
1070
     0
1000
AcDbSavedByObjectVersion
1070
     0
1000
AcDbSavedByObjectVersion
1070
     0
1000
AcDbSavedByObjectVersion
1070
     0
1000
AcDbSavedByObjectVersion
1070
     0
  0
VISUALSTYLE
  5
1B
102
{ACAD_REACTORS
330
14
102
}
330
14
100
AcDbVisualStyle
  2
3dWireframe
 70
     5
 71
     0
 72
     2
 73
     0
 90
        0
 40
-0.6
 41
-30.0
 62
     5
 63
     7
 74
     1
 91
        4
 64
     7
 65
   257
 75
     1
175
     1
 42
1.0
 92
        0
 66
   257
 43
1.0
 76
     1
 77
     6
 78
     2
 67
     7
 79
     5
170
     0
171
     0
290
     0
174
     0
 93
        1
 44
0.0
173
     0
291
     0
 45
0.0
1001
ACAD
1000
AcDbSavedByObjectVersion
1070
     0
1000
AcDbSavedByObjectVersion
1070
     0
1000
AcDbSavedByObjectVersion
1070
     0
1000
AcDbSavedByObjectVersion
1070
     0
1000
AcDbSavedByObjectVersion
1070
     0
  0
VISUALSTYLE
  5
19
102
{ACAD_REACTORS
330
14
102
}
330
14
100
AcDbVisualStyle
  2
Basic
 70
     7
 71
     1
 72
     0
 73
     1
 90
        0
 40
-0.6
 41
-30.0
 62
     5
 63
     7
 74
     0
 91
        4
 64
     7
 65
   257
 75
     1
175
     1
 42
1.0
 92
        8
 66
     7
 43
1.0
 76
     1
 77
     6
 78
     2
 67
     7
 79
     5
170
     0
171
     0
290
     0
174
     0
 93
        1
 44
0.0
173
     0
291
     1
 45
0.0
1001
ACAD
1000
AcDbSavedByObjectVersion
1070
     0
1000
AcDbSavedByObjectVersion
1070
     0
1000
AcDbSavedByObjectVersion
1070
     0
1000
AcDbSavedByObjectVersion
1070
     0
1000
AcDbSavedByObjectVersion
1070
     0
  0
VISUALSTYLE
  5
20
102
{ACAD_REACTORS
330
14
102
}
330
14
100
AcDbVisualStyle
  2
Brighten
 70
    12
 71
     2
 72
     2
 73
     0
 90
        0
 40
-0.6
 41
-30.0
 62
     5
 63
     7
 74
     1
 91
        4
 64
     7
 65
   257
 75
     1
175
     1
 42
1.0
 92
        8
 66
     7
 43
1.0
 76
     1
 77
     6
 78
     2
 67
     7
 79
     5
170
     0
171
     0
290
     0
174
     0
 93
        1
 44
50.0
173
     0
291
     1
 45
0.0
1001
ACAD
1000
AcDbSavedByObjectVersion
1070
     0
1000
AcDbSavedByObjectVersion
1070
     0
1000
AcDbSavedByObjectVersion
1070
     0
1000
AcDbSavedByObjectVersion
1070
     0
1000
AcDbSavedByObjectVersion
1070
     0
  0
VISUALSTYLE
  5
24
102
{ACAD_REACTORS
330
14
102
}
330
14
100
AcDbVisualStyle
  2
ColorChange
 70
    16
 71
     2
 72
     2
 73
     3
 90
        0
 40
-0.6
 41
-30.0
 62
     5
 63
     8
 74
     1
 91
        4
 64
     7
 65
   257
 75
     1
175
     1
 42
1.0
 92
        8
 66
     8
 43
1.0
 76
     1
 77
     6
 78
     2
 67
     7
 79
     5
170
     0
171
     0
290
     0
174
     0
 93
        1
 44
0.0
173
     0
291
     1
 45
0.0
1001
ACAD
1000
AcDbSavedByObjectVersion
1070
     0
1000
AcDbSavedByObjectVersion
1070
     0
1000
AcDbSavedByObjectVersion
1070
     0
1000
AcDbSavedByObjectVersion
1070
     0
1000
AcDbSavedByObjectVersion
1070
     0
  0
VISUALSTYLE
  5
1D
102
{ACAD_REACTORS
330
14
102
}
330
14
100
AcDbVisualStyle
  2
Conceptual
 70
     9
 71
     3
 72
     2
 73
     0
 90
        0
 40
-0.6
 41
-30.0
 62
     5
 63
     7
 74
     2
 91
        2
 64
     7
 65
   257
 75
     1
175
     1
 42
40.0
 92
        8
 66
     7
 43
1.0
 76
     1
 77
     6
 78
     2
 67
     7
 79
     3
170
     0
171
     0
290
     0
174
     0
 93
        1
 44
0.0
173
     0
291
     0
 45
0.0
1001
ACAD
1000
AcDbSavedByObjectVersion
1070
     0
1000
AcDbSavedByObjectVersion
1070
     0
1000
AcDbSavedByObjectVersion
1070
     0
1000
AcDbSavedByObjectVersion
1070
     0
1000
AcDbSavedByObjectVersion
1070
     0
  0
VISUALSTYLE
  5
1F
102
{ACAD_REACTORS
330
14
102
}
330
14
100
AcDbVisualStyle
  2
Dim
 70
    11
 71
     2
 72
     2
 73
     0
 90
        0
 40
-0.6
 41
-30.0
 62
     5
 63
     7
 74
     1
 91
        4
 64
     7
 65
   257
 75
     1
175
     1
 42
1.0
 92
        8
 66
     7
 43
1.0
 76
     1
 77
     6
 78
     2
 67
     7
 79
     5
170
     0
171
     0
290
     0
174
     0
 93
        1
 44
-50.0
173
     0
291
     1
 45
0.0
1001
ACAD
1000
AcDbSavedByObjectVersion
1070
     0
1000
AcDbSavedByObjectVersion
1070
     0
1000
AcDbSavedByObjectVersion
1070
     0
1000
AcDbSavedByObjectVersion
1070
     0
1000
AcDbSavedByObjectVersion
1070
     0
  0
VISUALSTYLE
  5
23
102
{ACAD_REACTORS
330
14
102
}
330
14
100
AcDbVisualStyle
  2
Facepattern
 70
    15
 71
     2
 72
     2
 73
     0
 90
        0
 40
-0.6
 41
-30.0
 62
     5
 63
     7
 74
     1
 91
        4
 64
     7
 65
   257
 75
     1
175
     1
 42
1.0
 92
        8
 66
     7
 43
1.0
 76
     1
 77
     6
 78
     2
 67
     7
 79
     5
170
     0
171
     0
290
     0
174
     0
 93
        1
 44
0.0
173
     0
291
     1
 45
0.0
1001
ACAD
1000
AcDbSavedByObjectVersion
1070
     0
1000
AcDbSavedByObjectVersion
1070
     0
1000
AcDbSavedByObjectVersion
1070
     0
1000
AcDbSavedByObjectVersion
1070
     0
1000
AcDbSavedByObjectVersion
1070
     0
  0
VISUALSTYLE
  5
15
102
{ACAD_REACTORS
330
14
102
}
330
14
100
AcDbVisualStyle
  2
Flat
 70
     0
 71
     2
 72
     1
 73
     1
 90
        2
 40
-0.6
 41
30.0
 62
     5
 63
     7
 74
     0
 91
        4
 64
     7
 65
   257
 75
     1
175
     1
 42
1.0
 92
        8
 66
     7
 43
1.0
 76
     1
 77
     6
 78
     2
 67
     7
 79
     5
170
     0
171
     0
290
     0
174
     0
 93
       13
 44
0.0
173
     0
291
     1
 45
0.0
1001
ACAD
1000
AcDbSavedByObjectVersion
1070
     0
1000
AcDbSavedByObjectVersion
1070
     0
1000
AcDbSavedByObjectVersion
1070
     0
1000
AcDbSavedByObjectVersion
1070
     0
1000
AcDbSavedByObjectVersion
1070
     0
  0
VISUALSTYLE
  5
16
102
{ACAD_REACTORS
330
14
102
}
330
14
100
AcDbVisualStyle
  2
FlatWithEdges
 70
     1
 71
     2
 72
     1
 73
     1
 90
        2
 40
-0.6
 41
30.0
 62
     5
 63
     7
 74
     1
 91
        4
 64
     7
 65
   257
 75
     1
175
     1
 42
1.0
 92
        0
 66
   257
 43
1.0
 76
     1
 77
     6
 78
     2
 67
     7
 79
     5
170
     0
171
     0
290
     0
174
     0
 93
       13
 44
0.0
173
     0
291
     1
 45
0.0
1001
ACAD
1000
AcDbSavedByObjectVersion
1070
     0
1000
AcDbSavedByObjectVersion
1070
     0
1000
AcDbSavedByObjectVersion
1070
     0
1000
AcDbSavedByObjectVersion
1070
     0
1000
AcDbSavedByObjectVersion
1070
     0
  0
VISUALSTYLE
  5
17
102
{ACAD_REACTORS
330
14
102
}
330
14
100
AcDbVisualStyle
  2
Gouraud
 70
     2
 71
     2
 72
     2
 73
     1
 90
        2
 40
-0.6
 41
30.0
 62
     5
 63
     7
 74
     0
 91
        4
 64
     7
 65
   257
 75
     1
175
     1
 42
1.0
 92
        0
 66
     7
 43
1.0
 76
     1
 77
     6
 78
     2
 67
     7
 79
     5
170
     0
171
     0
290
     0
174
     0
 93
       13
 44
0.0
173
     0
291
     1
 45
0.0
1001
ACAD
1000
AcDbSavedByObjectVersion
1070
     0
1000
AcDbSavedByObjectVersion
1070
     0
1000
AcDbSavedByObjectVersion
1070
     0
1000
AcDbSavedByObjectVersion
1070
     0
1000
AcDbSavedByObjectVersion
1070
     0
  0
VISUALSTYLE
  5
18
102
{ACAD_REACTORS
330
14
102
}
330
14
100
AcDbVisualStyle
  2
GouraudWithEdges
 70
     3
 71
     2
 72
     2
 73
     1
 90
        2
 40
-0.6
 41
30.0
 62
     5
 63
     7
 74
     1
 91
        4
 64
     7
 65
   257
 75
     1
175
     1
 42
1.0
 92
        0
 66
   257
 43
1.0
 76
     1
 77
     6
 78
     2
 67
     7
 79
     5
170
     0
171
     0
290
     0
174
     0
 93
       13
 44
0.0
173
     0
291
     1
 45
0.0
1001
ACAD
1000
AcDbSavedByObjectVersion
1070
     0
1000
AcDbSavedByObjectVersion
1070
     0
1000
AcDbSavedByObjectVersion
1070
     0
1000
AcDbSavedByObjectVersion
1070
     0
1000
AcDbSavedByObjectVersion
1070
     0
  0
VISUALSTYLE
  5
22
102
{ACAD_REACTORS
330
14
102
}
330
14
100
AcDbVisualStyle
  2
Linepattern
 70
    14
 71
     2
 72
     2
 73
     0
 90
        0
 40
-0.6
 41
-30.0
 62
     5
 63
     7
 74
     1
 91
        4
 64
     7
 65
   257
 75
     7
175
     7
 42
1.0
 92
        8
 66
     7
 43
1.0
 76
     1
 77
     6
 78
     2
 67
     7
 79
     5
170
     0
171
     0
290
     0
174
     0
 93
        1
 44
0.0
173
     0
291
     1
 45
0.0
1001
ACAD
1000
AcDbSavedByObjectVersion
1070
     0
1000
AcDbSavedByObjectVersion
1070
     0
1000
AcDbSavedByObjectVersion
1070
     0
1000
AcDbSavedByObjectVersion
1070
     0
1000
AcDbSavedByObjectVersion
1070
     0
  0
VISUALSTYLE
  5
1E
102
{ACAD_REACTORS
330
14
102
}
330
14
100
AcDbVisualStyle
  2
Realistic
 70
     8
 71
     2
 72
     2
 73
     0
 90
        0
 40
-0.6
 41
-30.0
 62
     5
 63
     7
 74
     1
 91
        0
 64
     7
 65
   257
 75
     1
175
     1
 42
1.0
 92
        8
 66
     8
 43
1.0
 76
     1
 77
     6
 78
     2
 67
     7
 79
     5
170
     0
171
     0
290
     0
174
     0
 93
       13
 44
0.0
173
     0
291
     0
 45
0.0
1001
ACAD
1000
AcDbSavedByObjectVersion
1070
     0
1000
AcDbSavedByObjectVersion
1070
     0
1000
AcDbSavedByObjectVersion
1070
     0
1000
AcDbSavedByObjectVersion
1070
     0
1000
AcDbSavedByObjectVersion
1070
     0
  0
VISUALSTYLE
  5
21
102
{ACAD_REACTORS
330
14
102
}
330
14
100
AcDbVisualStyle
  2
Thicken
 70
    13
 71
     2
 72
     2
 73
     0
 90
        0
 40
-0.6
 41
-30.0
 62
     5
 63
     7
 74
     1
 91
        4
 64
     7
 65
   257
 75
     1
175
     1
 42
1.0
 92
       12
 66
     7
 43
1.0
 76
     1
 77
     6
 78
     2
 67
     7
 79
     5
170
     0
171
     0
290
     0
174
     0
 93
        1
 44
0.0
173
     0
291
     1
 45
0.0
1001
ACAD
1000
AcDbSavedByObjectVersion
1070
     0
1000
AcDbSavedByObjectVersion
1070
     0
1000
AcDbSavedByObjectVersion
1070
     0
1000
AcDbSavedByObjectVersion
1070
     0
1000
AcDbSavedByObjectVersion
1070
     0
  0
DICTIONARYVAR
  5
319B
102
{ACAD_REACTORS
330
319A
102
}
330
319A
100
DictionaryVariables
280
     0
  1
STANDARD
  0
DICTIONARYVAR
  5
319F
102
{ACAD_REACTORS
330
319A
102
}
330
319A
100
DictionaryVariables
280
     0
  1
2
  0
DICTIONARYVAR
  5
319E
102
{ACAD_REACTORS
330
319A
102
}
330
319A
100
DictionaryVariables
280
     0
  1
1
  0
DICTIONARYVAR
  5
319D
102
{ACAD_REACTORS
330
319A
102
}
330
319A
100
DictionaryVariables
280
     0
  1
0
  0
DICTIONARYVAR
  5
319C
102
{ACAD_REACTORS
330
319A
102
}
330
319A
100
DictionaryVariables
280
     0
  1
127
  0
XRECORD
  5
B14D
102
{ACAD_REACTORS
330
B14C
102
}
330
B14C
100
AcDbXrecord
280
     1
330
1EC
  0
DICTIONARY
  5
B153
330
36
100
AcDbDictionary
280
     1
281
     1
  3
ACAD_XREC_ROUNDTRIP
360
B154
  0
DICTIONARY
  5
B157
330
3E
100
AcDbDictionary
280
     1
281
     1
  3
ACAD_XREC_ROUNDTRIP
360
B158
  0
DICTIONARY
  5
B155
330
3A
100
AcDbDictionary
280
     1
281
     1
  3
ACAD_XREC_ROUNDTRIP
360
B156
  0
DICTIONARY
  5
31A5
330
12
100
AcDbDictionary
280
     1
281
     1
  3
ACAD_XREC_ROUNDTRIP
360
31A6
  0
DICTIONARY
  5
31A3
330
11
100
AcDbDictionary
280
     1
281
     1
  3
ACAD_XREC_ROUNDTRIP
360
31A4
  0
DICTIONARY
  5
31A7
330
13
100
AcDbDictionary
280
     1
281
     1
  3
ACAD_XREC_ROUNDTRIP
360
31A8
  0
DICTIONARY
  5
B151
330
32
100
AcDbDictionary
280
     1
281
     1
  3
ACAD_XREC_ROUNDTRIP
360
B152
  0
XRECORD
  5
B154
102
{ACAD_REACTORS
330
B153
102
}
330
B153
100
AcDbXrecord
280
     1
102
SHADEPLOT
 70
     0
102
SHADEPLOTRESLEVEL
 70
     2
102
SHADEPLOTCUSTOMDPI
 70
   300
  0
XRECORD
  5
B158
102
{ACAD_REACTORS
330
B157
102
}
330
B157
100
AcDbXrecord
280
     1
102
SHADEPLOT
 70
     0
102
SHADEPLOTRESLEVEL
 70
     2
102
SHADEPLOTCUSTOMDPI
 70
   300
  0
XRECORD
  5
B156
102
{ACAD_REACTORS
330
B155
102
}
330
B155
100
AcDbXrecord
280
     1
102
SHADEPLOT
 70
     0
102
SHADEPLOTRESLEVEL
 70
     2
102
SHADEPLOTCUSTOMDPI
 70
   300
  0
XRECORD
  5
31A6
102
{ACAD_REACTORS
330
31A5
102
}
330
31A5
100
AcDbXrecord
280
     1
102
MATERIAL
148
0.0
149
0.0
149
0.0
 93
        0
 94
       63
282
     0
 72
     1
 77
     1
171
     1
175
     1
179
     1
273
     0
  0
XRECORD
  5
31A4
102
{ACAD_REACTORS
330
31A3
102
}
330
31A3
100
AcDbXrecord
280
     1
102
MATERIAL
148
0.0
149
0.0
149
0.0
 93
        0
 94
       63
282
     0
 72
     1
 77
     1
171
     1
175
     1
179
     1
273
     0
  0
XRECORD
  5
31A8
102
{ACAD_REACTORS
330
31A7
102
}
330
31A7
100
AcDbXrecord
280
     1
102
MATERIAL
148
0.0
149
0.0
149
0.0
 93
        0
 94
       63
282
     0
 72
     1
 77
     1
171
     1
175
     1
179
     1
273
     0
  0
XRECORD
  5
B152
102
{ACAD_REACTORS
330
B151
102
}
330
B151
100
AcDbXrecord
280
     1
102
ACAD_ROUNDTRIP_PRE2007_TABLESTYLE
 90
      512
 91
        0
  1

 92
      512
 93
        0
  2

 94
      512
 95
        0
  3

  0
ENDSEC
  0
EOF
