  0
SECTION
  2
HEADER
  9
$ACADVER
  1
AC1015
  9
$ACADMAINTVER
 70
    20
  9
$DWGCODEPAGE
  3
ANSI_1252
  9
$INSBASE
 10
0.0
 20
0.0
 30
0.0
  9
$EXTMIN
 10
-70.60458337769119
 20
288.7994897070327
 30
-1.000000000000055
  9
$EXTMAX
 10
339.3954166223088
 20
558.7994897070326
 30
0.7
  9
$LIMMIN
 10
0.0
 20
0.0
  9
$LIMMAX
 10
420.0
 20
297.0
  9
$ORTHOMODE
 70
     1
  9
$REGENMODE
 70
     1
  9
$FILLMODE
 70
     1
  9
$QTEXTMODE
 70
     0
  9
$MIRRTEXT
 70
     0
  9
$LTSCALE
 40
23.1
  9
$ATTMODE
 70
     1
  9
$TEXTSIZE
 40
0.2
  9
$TRACEWID
 40
0.05
  9
$TEXTSTYLE
  7
Standard
  9
$CLAYER
  8
0
  9
$CELTYPE
  6
ByLayer
  9
$CECOLOR
 62
   256
  9
$CELTSCALE
 40
1.0
  9
$DISPSILH
 70
     0
  9
$DIMSCALE
 40
0.0
  9
$DIMASZ
 40
3.5
  9
$DIMEXO
 40
0.0
  9
$DIMDLI
 40
3.75
  9
$DIMRND
 40
0.0
  9
$DIMDLE
 40
0.0
  9
$DIMEXE
 40
2.0
  9
$DIMTP
 40
0.0
  9
$DIMTM
 40
0.0
  9
$DIMTXT
 40
3.5
  9
$DIMCEN
 40
2.5
  9
$DIMTSZ
 40
0.0
  9
$DIMTOL
 70
     0
  9
$DIMLIM
 70
     0
  9
$DIMTIH
 70
     0
  9
$DIMTOH
 70
     0
  9
$DIMSE1
 70
     0
  9
$DIMSE2
 70
     0
  9
$DIMTAD
 70
     1
  9
$DIMZIN
 70
     8
  9
$DIMBLK
  1

  9
$DIMASO
 70
     1
  9
$DIMSHO
 70
     1
  9
$DIMPOST
  1

  9
$DIMAPOST
  1

  9
$DIMALT
 70
     0
  9
$DIMALTD
 70
     4
  9
$DIMALTF
 40
0.039
  9
$DIMLFAC
 40
1.0
  9
$DIMTOFL
 70
     1
  9
$DIMTVP
 40
0.0
  9
$DIMTIX
 70
     0
  9
$DIMSOXD
 70
     0
  9
$DIMSAH
 70
     0
  9
$DIMBLK1
  1

  9
$DIMBLK2
  1

  9
$DIMSTYLE
  2
H035
  9
$DIMCLRD
 70
   256
  9
$DIMCLRE
 70
     7
  9
$DIMCLRT
 70
     7
  9
$DIMTFAC
 40
1.0
  9
$DIMGAP
 40
0.5
  9
$DIMJUST
 70
     0
  9
$DIMSD1
 70
     0
  9
$DIMSD2
 70
     0
  9
$DIMTOLJ
 70
     1
  9
$DIMTZIN
 70
     0
  9
$DIMALTZ
 70
     0
  9
$DIMALTTZ
 70
     0
  9
$DIMUPT
 70
     0
  9
$DIMDEC
 70
     0
  9
$DIMTDEC
 70
     2
  9
$DIMALTU
 70
     8
  9
$DIMALTTD
 70
     4
  9
$DIMTXSTY
  7
Standard
  9
$DIMAUNIT
 70
     0
  9
$DIMADEC
 70
     0
  9
$DIMALTRND
 40
0.0
  9
$DIMAZIN
 70
     0
  9
$DIMDSEP
 70
    46
  9
$DIMATFIT
 70
     3
  9
$DIMFRAC
 70
     0
  9
$DIMLDRBLK
  1

  9
$DIMLUNIT
 70
     2
  9
$DIMLWD
 70
    -2
  9
$DIMLWE
 70
    -2
  9
$DIMTMOVE
 70
     0
  9
$LUNITS
 70
     2
  9
$LUPREC
 70
     4
  9
$SKETCHINC
 40
0.1
  9
$FILLETRAD
 40
0.5
  9
$AUNITS
 70
     0
  9
$AUPREC
 70
     0
  9
$MENU
  1
.
  9
$ELEVATION
 40
0.0
  9
$PELEVATION
 40
0.0
  9
$THICKNESS
 40
0.0
  9
$LIMCHECK
 70
     0
  9
$CHAMFERA
 40
0.0
  9
$CHAMFERB
 40
0.0
  9
$CHAMFERC
 40
0.0
  9
$CHAMFERD
 40
0.0
  9
$SKPOLY
 70
     0
  9
$TDCREATE
 40
2452829.417613079
  9
$TDUCREATE
 40
2452829.375946412
  9
$TDUPDATE
 40
2453425.343782616
  9
$TDUUPDATE
 40
2453425.302115949
  9
$TDINDWG
 40
2.7736201157
  9
$TDUSRTIMER
 40
2.7736078356
  9
$USRTIMER
 70
     1
  9
$ANGBASE
 50
0.0
  9
$ANGDIR
 70
     0
  9
$PDMODE
 70
     0
  9
$PDSIZE
 40
0.0
  9
$PLINEWID
 40
0.0
  9
$SPLFRAME
 70
     0
  9
$SPLINETYPE
 70
     6
  9
$SPLINESEGS
 70
     8
  9
$HANDSEED
  5
27067
  9
$SURFTAB1
 70
     6
  9
$SURFTAB2
 70
     6
  9
$SURFTYPE
 70
     6
  9
$SURFU
 70
     6
  9
$SURFV
 70
     6
  9
$UCSBASE
  2

  9
$UCSNAME
  2

  9
$UCSORG
 10
0.0
 20
0.0
 30
0.0
  9
$UCSXDIR
 10
1.0
 20
0.0
 30
0.0
  9
$UCSYDIR
 10
0.0
 20
1.0
 30
0.0
  9
$UCSORTHOREF
  2

  9
$UCSORTHOVIEW
 70
     0
  9
$UCSORGTOP
 10
0.0
 20
0.0
 30
0.0
  9
$UCSORGBOTTOM
 10
0.0
 20
0.0
 30
0.0
  9
$UCSORGLEFT
 10
0.0
 20
0.0
 30
0.0
  9
$UCSORGRIGHT
 10
0.0
 20
0.0
 30
0.0
  9
$UCSORGFRONT
 10
0.0
 20
0.0
 30
0.0
  9
$UCSORGBACK
 10
0.0
 20
0.0
 30
0.0
  9
$PUCSBASE
  2

  9
$PUCSNAME
  2

  9
$PUCSORG
 10
0.0
 20
0.0
 30
0.0
  9
$PUCSXDIR
 10
1.0
 20
0.0
 30
0.0
  9
$PUCSYDIR
 10
0.0
 20
1.0
 30
0.0
  9
$PUCSORTHOREF
  2

  9
$PUCSORTHOVIEW
 70
     0
  9
$PUCSORGTOP
 10
0.0
 20
0.0
 30
0.0
  9
$PUCSORGBOTTOM
 10
0.0
 20
0.0
 30
0.0
  9
$PUCSORGLEFT
 10
0.0
 20
0.0
 30
0.0
  9
$PUCSORGRIGHT
 10
0.0
 20
0.0
 30
0.0
  9
$PUCSORGFRONT
 10
0.0
 20
0.0
 30
0.0
  9
$PUCSORGBACK
 10
0.0
 20
0.0
 30
0.0
  9
$USERI1
 70
     0
  9
$USERI2
 70
     0
  9
$USERI3
 70
     0
  9
$USERI4
 70
     0
  9
$USERI5
 70
     0
  9
$USERR1
 40
0.0
  9
$USERR2
 40
0.0
  9
$USERR3
 40
0.0
  9
$USERR4
 40
0.0
  9
$USERR5
 40
0.0
  9
$WORLDVIEW
 70
     1
  9
$SHADEDGE
 70
     3
  9
$SHADEDIF
 70
    70
  9
$TILEMODE
 70
     1
  9
$MAXACTVP
 70
    64
  9
$PINSBASE
 10
0.0
 20
0.0
 30
0.0
  9
$PLIMCHECK
 70
     0
  9
$PEXTMIN
 10
1.000000000000000E+20
 20
1.000000000000000E+20
 30
1.000000000000000E+20
  9
$PEXTMAX
 10
-1.000000000000000E+20
 20
-1.000000000000000E+20
 30
-1.000000000000000E+20
  9
$PLIMMIN
 10
0.0
 20
0.0
  9
$PLIMMAX
 10
12.0
 20
9.0
  9
$UNITMODE
 70
     0
  9
$VISRETAIN
 70
     1
  9
$PLINEGEN
 70
     0
  9
$PSLTSCALE
 70
     1
  9
$TREEDEPTH
 70
  3020
  9
$CMLSTYLE
  2
Standard
  9
$CMLJUST
 70
     0
  9
$CMLSCALE
 40
1.0
  9
$PROXYGRAPHICS
 70
     1
  9
$MEASUREMENT
 70
     0
  9
$CELWEIGHT
370
    -1
  9
$ENDCAPS
280
     0
  9
$JOINSTYLE
280
     0
  9
$LWDISPLAY
290
     0
  9
$INSUNITS
 70
     0
  9
$HYPERLINKBASE
  1

  9
$STYLESHEET
  1
MONOCHROME.CTB
  9
$XEDIT
290
     1
  9
$CEPSNTYPE
380
     0
  9
$PSTYLEMODE
290
     1
  9
$FINGERPRINTGUID
  2
{D88032C4-1185-41D3-97DD-7638FCF99E3F}
  9
$VERSIONGUID
  2
{E2EAB77D-44BE-4009-AE30-554B02EE1FDA}
  9
$EXTNAMES
290
     1
  9
$PSVPSCALE
 40
0.0
  9
$OLESTARTUP
290
     0
  0
ENDSEC
  0
SECTION
  2
CLASSES
  0
CLASS
  1
ACDBDICTIONARYWDFLT
  2
AcDbDictionaryWithDefault
  3
ObjectDBX Classes
 90
        0
280
     0
281
     0
  0
CLASS
  1
DICTIONARYVAR
  2
AcDbDictionaryVar
  3
ObjectDBX Classes
 90
        0
280
     0
281
     0
  0
CLASS
  1
ACDBPLACEHOLDER
  2
AcDbPlaceHolder
  3
ObjectDBX Classes
 90
        0
280
     0
281
     0
  0
CLASS
  1
LAYOUT
  2
AcDbLayout
  3
ObjectDBX Classes
 90
        0
280
     0
281
     0
  0
CLASS
  1
DIMASSOC
  2
AcDbDimAssoc
  3
"AcDbDimAssoc|Product Desc:     AcDim ARX App For Dimension|Company:          Autodesk, Inc.|WEB Address:      www.autodesk.com"
 90
    32768
280
     0
281
     0
  0
ENDSEC
  0
SECTION
  2
TABLES
  0
TABLE
  2
VPORT
  5
8
330
0
100
AcDbSymbolTable
 70
     2
  0
VPORT
  5
2705E
330
8
100
AcDbSymbolTableRecord
100
AcDbViewportTableRecord
  2
*Active
 70
     0
 10
0.0
 20
0.0
 11
1.0
 21
1.0
 12
136.1139211561209
 22
423.8049346871518
 13
0.0
 23
0.0
 14
1.0
 24
1.0
 15
0.0
 25
0.0
 16
0.0
 26
0.0
 36
1.0
 17
0.0
 27
0.0
 37
0.0
 40
272.1087430885516
 41
1.571994715984147
 42
50.0
 43
0.0
 44
0.0
 50
0.0
 51
0.0
 71
     0
 72
   100
 73
     1
 74
     1
 75
     0
 76
     0
 77
     0
 78
     0
281
     0
 65
     1
110
0.0
120
0.0
130
0.0
111
1.0
121
0.0
131
0.0
112
0.0
122
1.0
132
0.0
 79
     0
146
0.0
  0
ENDTAB
  0
TABLE
  2
LTYPE
  5
5
330
0
100
AcDbSymbolTable
 70
     3
  0
LTYPE
  5
13
330
5
100
AcDbSymbolTableRecord
100
AcDbLinetypeTableRecord
  2
ByBlock
 70
     0
  3

 72
    65
 73
     0
 40
0.0
  0
LTYPE
  5
14
330
5
100
AcDbSymbolTableRecord
100
AcDbLinetypeTableRecord
  2
ByLayer
 70
     0
  3

 72
    65
 73
     0
 40
0.0
  0
LTYPE
  5
15
330
5
100
AcDbSymbolTableRecord
100
AcDbLinetypeTableRecord
  2
CONTINUOUS
 70
     0
  3
Solid line
 72
    65
 73
     0
 40
0.0
  0
LTYPE
  5
26
330
5
100
AcDbSymbolTableRecord
100
AcDbLinetypeTableRecord
  2
CENTER
 70
     0
  3
____ _ ____ _ ____ _ ____ _ ____ _ ____ _ ____
 72
    65
 73
     4
 40
0.6
 49
0.375
 74
     0
 49
-0.075
 74
     0
 49
0.075
 74
     0
 49
-0.075
 74
     0
  0
LTYPE
  5
4F7A
330
5
100
AcDbSymbolTableRecord
100
AcDbLinetypeTableRecord
  2
DASHED
 70
     0
  3
_ _ _ _ _ _ _ _ _ _ _ _ _ _ _ _ _ _ _ _ _ _ _ _
 72
    65
 73
     2
 40
0.375
 49
0.25
 74
     0
 49
-0.125
 74
     0
  0
ENDTAB
  0
TABLE
  2
LAYER
  5
2
330
0
100
AcDbSymbolTable
 70
    10
  0
LAYER
  5
10
330
2
100
AcDbSymbolTableRecord
100
AcDbLayerTableRecord
  2
0
 70
     0
 62
     7
  6
CONTINUOUS
370
    -3
390
F
  0
LAYER
  5
1D8
330
2
100
AcDbSymbolTableRecord
100
AcDbLayerTableRecord
  2
Defpoints
 70
     0
 62
     7
  6
CONTINUOUS
290
     0
370
    -3
390
F
  0
LAYER
  5
1D9
330
2
100
AcDbSymbolTableRecord
100
AcDbLayerTableRecord
  2
91000_TIP
 70
     0
 62
     7
  6
CONTINUOUS
370
    -3
390
F
  0
LAYER
  5
1DA
330
2
100
AcDbSymbolTableRecord
100
AcDbLayerTableRecord
  2
11000_Left
 70
     0
 62
     7
  6
CONTINUOUS
370
    -3
390
F
  0
LAYER
  5
1DB
330
2
100
AcDbSymbolTableRecord
100
AcDbLayerTableRecord
  2
10000_FRONT
 70
     0
 62
     7
  6
CONTINUOUS
370
    -3
390
F
  0
LAYER
  5
1DC
330
2
100
AcDbSymbolTableRecord
100
AcDbLayerTableRecord
  2
10100_FRONT_DIM
 70
     0
 62
     7
  6
CONTINUOUS
370
    -3
390
F
  0
LAYER
  5
1DD
330
2
100
AcDbSymbolTableRecord
100
AcDbLayerTableRecord
  2
90000_FRAME
 70
     0
 62
     7
  6
CONTINUOUS
370
    -3
390
F
  0
LAYER
  5
1DE
330
2
100
AcDbSymbolTableRecord
100
AcDbLayerTableRecord
  2
11100_LEFT_DIM
 70
     0
 62
     7
  6
CONTINUOUS
370
    -3
390
F
  0
LAYER
  5
218FB
330
2
100
AcDbSymbolTableRecord
100
AcDbLayerTableRecord
  2
13000_Top
 70
     0
 62
     7
  6
CONTINUOUS
370
    -3
390
F
  0
LAYER
  5
218FC
330
2
100
AcDbSymbolTableRecord
100
AcDbLayerTableRecord
  2
13100_Top_Dim
 70
     0
 62
     7
  6
CONTINUOUS
370
    -3
390
F
  0
ENDTAB
  0
TABLE
  2
STYLE
  5
3
330
0
100
AcDbSymbolTable
 70
     1
  0
STYLE
  5
11
330
3
100
AcDbSymbolTableRecord
100
AcDbTextStyleTableRecord
  2
Standard
 70
     0
 40
0.0
 41
1.0
 50
0.0
 71
     0
 42
0.2
  3
txt
  4

  0
ENDTAB
  0
TABLE
  2
VIEW
  5
6
330
0
100
AcDbSymbolTable
 70
     0
  0
ENDTAB
  0
TABLE
  2
UCS
  5
7
330
0
100
AcDbSymbolTable
 70
     0
  0
ENDTAB
  0
TABLE
  2
APPID
  5
9
330
0
100
AcDbSymbolTable
 70
     3
  0
APPID
  5
12
330
9
100
AcDbSymbolTableRecord
100
AcDbRegAppTableRecord
  2
ACAD
 70
     0
  0
APPID
  5
1E8
330
9
100
AcDbSymbolTableRecord
100
AcDbRegAppTableRecord
  2
AUSTER_ANSICHT
 70
     0
  0
APPID
  5
1E9
330
9
100
AcDbSymbolTableRecord
100
AcDbRegAppTableRecord
  2
AUSTER_FOLIE
 70
     0
  0
ENDTAB
  0
TABLE
  2
DIMSTYLE
  5
A
330
0
100
AcDbSymbolTable
 70
     3
100
AcDbDimStyleTable
 71
     3
340
1E7
340
3A1A
340
BA
  0
DIMSTYLE
105
BA
330
A
100
AcDbSymbolTableRecord
100
AcDbDimStyleTableRecord
  2
Standard
 70
     0
340
11
  0
DIMSTYLE
105
1E7
102
{ACAD_REACTORS
330
26CEB
330
26CF8
330
26CDC
102
}
330
A
100
AcDbSymbolTableRecord
100
AcDbDimStyleTableRecord
  2
DSTYLE1
 70
     0
 41
3.0
 42
0.0
 44
1.0
 73
     0
 74
     0
 77
     1
 78
     3
140
2.5
143
0.039370079
147
1.0
271
     3
272
     3
274
     0
279
     2
340
11
  0
DIMSTYLE
105
3A1A
102
{ACAD_REACTORS
330
26B97
330
26B67
330
26B74
330
26B81
330
26D15
330
26D08
102
}
330
A
100
AcDbSymbolTableRecord
100
AcDbDimStyleTableRecord
  2
H035
 70
     0
 40
0.0
 41
3.5
 42
0.0
 43
3.75
 44
2.0
 73
     0
 74
     0
 77
     1
 78
     8
140
3.5
141
2.5
143
0.039
147
0.5
171
     4
172
     1
176
   256
177
     7
178
     7
271
     0
272
     2
273
     8
274
     4
340
11
  0
ENDTAB
  0
TABLE
  2
BLOCK_RECORD
  5
1
330
0
100
AcDbSymbolTable
 70
    10
  0
BLOCK_RECORD
  5
20
330
1
100
AcDbSymbolTableRecord
100
AcDbBlockTableRecord
  2
*Model_Space
340
23
  0
BLOCK_RECORD
  5
1C
330
1
100
AcDbSymbolTableRecord
100
AcDbBlockTableRecord
  2
*Paper_Space
340
1F
  0
BLOCK_RECORD
  5
3A
330
1
100
AcDbSymbolTableRecord
100
AcDbBlockTableRecord
  2
SIEMENS_OUTLINE_BL0
340
0
102
{BLKREFS
331
8CC5
102
}
  0
BLOCK_RECORD
  5
26B68
330
1
100
AcDbSymbolTableRecord
100
AcDbBlockTableRecord
  2
*D1
340
0
  0
BLOCK_RECORD
  5
26B75
330
1
100
AcDbSymbolTableRecord
100
AcDbBlockTableRecord
  2
*D2
340
0
  0
BLOCK_RECORD
  5
26B82
330
1
100
AcDbSymbolTableRecord
100
AcDbBlockTableRecord
  2
*D3
340
0
  0
BLOCK_RECORD
  5
26B98
330
1
100
AcDbSymbolTableRecord
100
AcDbBlockTableRecord
  2
*D4
340
0
  0
BLOCK_RECORD
  5
26CDD
330
1
100
AcDbSymbolTableRecord
100
AcDbBlockTableRecord
  2
*D5
340
0
  0
BLOCK_RECORD
  5
26CEC
330
1
100
AcDbSymbolTableRecord
100
AcDbBlockTableRecord
  2
*D6
340
0
  0
BLOCK_RECORD
  5
26CF9
330
1
100
AcDbSymbolTableRecord
100
AcDbBlockTableRecord
  2
*D7
340
0
  0
BLOCK_RECORD
  5
26D09
330
1
100
AcDbSymbolTableRecord
100
AcDbBlockTableRecord
  2
*D8
340
0
  0
BLOCK_RECORD
  5
26D16
330
1
100
AcDbSymbolTableRecord
100
AcDbBlockTableRecord
  2
*D9
340
0
  0
ENDTAB
  0
ENDSEC
  0
SECTION
  2
BLOCKS
  0
BLOCK
  5
21
330
20
100
AcDbEntity
  8
0
100
AcDbBlockBegin
  2
*Model_Space
 70
     0
 10
0.0
 20
0.0
 30
0.0
  3
*Model_Space
  1

  0
ENDBLK
  5
22
330
20
100
AcDbEntity
  8
0
100
AcDbBlockEnd
  0
BLOCK
  5
1D
330
1C
100
AcDbEntity
 67
     1
  8
0
100
AcDbBlockBegin
  2
*Paper_Space
 70
     0
 10
0.0
 20
0.0
 30
0.0
  3
*Paper_Space
  1

  0
ENDBLK
  5
1E
330
1C
100
AcDbEntity
 67
     1
  8
0
100
AcDbBlockEnd
  0
BLOCK
  5
3B
330
3A
100
AcDbEntity
  8
0
  6
Continuous
 62
     7
100
AcDbBlockBegin
  2
SIEMENS_OUTLINE_BL0
 70
     0
 10
0.0
 20
0.0
 30
0.0
  3
SIEMENS_OUTLINE_BL0
  1

  0
LINE
  5
3C
330
3A
100
AcDbEntity
  8
0
  6
Continuous
 62
     7
100
AcDbLine
 10
289.1235341257
 20
21.4969115175
 30
0.0
 11
289.1235341257
 21
16.7436424342
 31
0.0
  0
LINE
  5
3D
330
3A
100
AcDbEntity
  8
0
  6
Continuous
 62
     7
100
AcDbLine
 10
290.5495148507
 20
21.4969115175
 30
0.0
 11
290.5495148507
 21
16.7436424342
 31
0.0
  0
LINE
  5
3E
330
3A
100
AcDbEntity
  8
0
  6
Continuous
 62
     7
100
AcDbLine
 10
289.1235341257
 20
16.7436424342
 30
0.0
 11
290.5495148507
 21
16.7436424342
 31
0.0
  0
LINE
  5
3F
330
3A
100
AcDbEntity
  8
0
  6
Continuous
 62
     7
100
AcDbLine
 10
289.1235341257
 20
21.4969115175
 30
0.0
 11
290.5495148507
 21
21.4969115175
 31
0.0
  0
LINE
  5
40
330
3A
100
AcDbEntity
  8
0
  6
Continuous
 62
     7
100
AcDbLine
 10
291.6427667399
 20
21.4969115175
 30
0.0
 11
291.6427667399
 21
16.7436424342
 31
0.0
  0
LINE
  5
41
330
3A
100
AcDbEntity
  8
0
  6
Continuous
 62
     7
100
AcDbLine
 10
291.6427667399
 20
16.7436424342
 30
0.0
 11
295.2077185523
 21
16.7436424342
 31
0.0
  0
LINE
  5
42
330
3A
100
AcDbEntity
  8
0
  6
Continuous
 62
     7
100
AcDbLine
 10
295.2077185523
 20
17.64676356
 30
0.0
 11
293.021214774
 21
17.64676356
 31
0.0
  0
LINE
  5
43
330
3A
100
AcDbEntity
  8
0
  6
Continuous
 62
     7
100
AcDbLine
 10
295.2077185523
 20
17.64676356
 30
0.0
 11
295.2077185523
 21
16.7436424342
 31
0.0
  0
LINE
  5
44
330
3A
100
AcDbEntity
  8
0
  6
Continuous
 62
     7
100
AcDbLine
 10
295.1601858615
 20
21.4969115175
 30
0.0
 11
291.6427667399
 21
21.4969115175
 31
0.0
  0
LINE
  5
45
330
3A
100
AcDbEntity
  8
0
  6
Continuous
 62
     7
100
AcDbLine
 10
295.1601858615
 20
20.6175567371
 30
0.0
 11
293.021214774
 21
20.6175567371
 31
0.0
  0
LINE
  5
46
330
3A
100
AcDbEntity
  8
0
  6
Continuous
 62
     7
100
AcDbLine
 10
295.1601858615
 20
21.4969115175
 30
0.0
 11
295.1601858615
 21
20.6175567371
 31
0.0
  0
LINE
  5
47
330
3A
100
AcDbEntity
  8
0
  6
Continuous
 62
     7
100
AcDbLine
 10
294.8749897165
 20
18.7637817946
 30
0.0
 11
293.021214774
 21
18.7637817946
 31
0.0
  0
LINE
  5
48
330
3A
100
AcDbEntity
  8
0
  6
Continuous
 62
     7
100
AcDbLine
 10
294.8749897165
 20
19.5480711933
 30
0.0
 11
294.8749897165
 21
18.7637817946
 31
0.0
  0
LINE
  5
49
330
3A
100
AcDbEntity
  8
0
  6
Continuous
 62
     7
100
AcDbLine
 10
294.8749897165
 20
19.5480711933
 30
0.0
 11
293.021214774
 21
19.5480711933
 31
0.0
  0
LINE
  5
4A
330
3A
100
AcDbEntity
  8
0
  6
Continuous
 62
     7
100
AcDbLine
 10
293.021214774
 20
20.6175567371
 30
0.0
 11
293.021214774
 21
19.5480711933
 31
0.0
  0
LINE
  5
4B
330
3A
100
AcDbEntity
  8
0
  6
Continuous
 62
     7
100
AcDbLine
 10
293.021214774
 20
18.7637817946
 30
0.0
 11
293.021214774
 21
17.64676356
 31
0.0
  0
LINE
  5
4C
330
3A
100
AcDbEntity
  8
0
  6
Continuous
 62
     7
100
AcDbLine
 10
296.0157742965
 20
16.7436424342
 30
0.0
 11
296.0157742965
 21
21.4969115175
 31
0.0
  0
LINE
  5
4D
330
3A
100
AcDbEntity
  8
0
  6
Continuous
 62
     7
100
AcDbLine
 10
296.0157742965
 20
16.7436424342
 30
0.0
 11
296.9664281131
 21
16.7436424342
 31
0.0
  0
LINE
  5
4E
330
3A
100
AcDbEntity
  8
0
  6
Continuous
 62
     7
100
AcDbLine
 10
301.8622952689
 20
21.4969115175
 30
0.0
 11
301.8622952689
 21
16.7436424342
 31
0.0
  0
LINE
  5
4F
330
3A
100
AcDbEntity
  8
0
  6
Continuous
 62
     7
100
AcDbLine
 10
301.8622952689
 20
16.7436424342
 30
0.0
 11
300.4838472348
 21
16.7436424342
 31
0.0
  0
LINE
  5
50
330
3A
100
AcDbEntity
  8
0
  6
Continuous
 62
     7
100
AcDbLine
 10
298.2973434565
 20
16.6961097434
 30
0.0
 11
299.1529318914
 21
16.6961097434
 31
0.0
  0
LINE
  5
51
330
3A
100
AcDbEntity
  8
0
  6
Continuous
 62
     7
100
AcDbLine
 10
298.2973434565
 20
16.6961097434
 30
0.0
 11
296.9664281131
 21
19.7857346475
 31
0.0
  0
LINE
  5
52
330
3A
100
AcDbEntity
  8
0
  6
Continuous
 62
     7
100
AcDbLine
 10
296.9664281131
 20
16.7436424342
 30
0.0
 11
296.9664281131
 21
19.7857346475
 31
0.0
  0
LINE
  5
53
330
3A
100
AcDbEntity
  8
0
  6
Continuous
 62
     7
100
AcDbLine
 10
300.4838472348
 20
19.8332673383
 30
0.0
 11
299.1529318914
 21
16.6961097434
 31
0.0
  0
LINE
  5
54
330
3A
100
AcDbEntity
  8
0
  6
Continuous
 62
     7
100
AcDbLine
 10
297.7269511665
 20
21.4969115175
 30
0.0
 11
296.0157742965
 21
21.4969115175
 31
0.0
  0
LINE
  5
55
330
3A
100
AcDbEntity
  8
0
  6
Continuous
 62
     7
100
AcDbLine
 10
301.8622952689
 20
21.4969115175
 30
0.0
 11
300.1511183989
 21
21.4969115175
 31
0.0
  0
LINE
  5
56
330
3A
100
AcDbEntity
  8
0
  6
Continuous
 62
     7
100
AcDbLine
 10
297.7269511665
 20
21.4969115175
 30
0.0
 11
298.9628011281
 21
18.5974173767
 31
0.0
  0
LINE
  5
57
330
3A
100
AcDbEntity
  8
0
  6
Continuous
 62
     7
100
AcDbLine
 10
300.1511183989
 20
21.4969115175
 30
0.0
 11
298.9628011281
 21
18.5974173767
 31
0.0
  0
LINE
  5
58
330
3A
100
AcDbEntity
  8
0
  6
Continuous
 62
     7
100
AcDbLine
 10
300.4838472348
 20
19.8332673383
 30
0.0
 11
300.4838472348
 21
16.7436424342
 31
0.0
  0
LINE
  5
59
330
3A
100
AcDbEntity
  8
0
  6
Continuous
 62
     7
100
AcDbLine
 10
302.9555471581
 20
21.4969115175
 30
0.0
 11
302.9555471581
 21
16.7436424342
 31
0.0
  0
LINE
  5
5A
330
3A
100
AcDbEntity
  8
0
  6
Continuous
 62
     7
100
AcDbLine
 10
302.9555471581
 20
16.7436424342
 30
0.0
 11
306.5204989705
 21
16.7436424342
 31
0.0
  0
LINE
  5
5B
330
3A
100
AcDbEntity
  8
0
  6
Continuous
 62
     7
100
AcDbLine
 10
306.5204989705
 20
17.64676356
 30
0.0
 11
304.3339951922
 21
17.64676356
 31
0.0
  0
LINE
  5
5C
330
3A
100
AcDbEntity
  8
0
  6
Continuous
 62
     7
100
AcDbLine
 10
306.5204989705
 20
17.64676356
 30
0.0
 11
306.5204989705
 21
16.7436424342
 31
0.0
  0
LINE
  5
5D
330
3A
100
AcDbEntity
  8
0
  6
Continuous
 62
     7
100
AcDbLine
 10
306.4729662797
 20
21.4969115175
 30
0.0
 11
302.9555471581
 21
21.4969115175
 31
0.0
  0
LINE
  5
5E
330
3A
100
AcDbEntity
  8
0
  6
Continuous
 62
     7
100
AcDbLine
 10
306.4729662797
 20
20.6175567371
 30
0.0
 11
304.3339951922
 21
20.6175567371
 31
0.0
  0
LINE
  5
5F
330
3A
100
AcDbEntity
  8
0
  6
Continuous
 62
     7
100
AcDbLine
 10
306.4729662797
 20
21.4969115175
 30
0.0
 11
306.4729662797
 21
20.6175567371
 31
0.0
  0
LINE
  5
60
330
3A
100
AcDbEntity
  8
0
  6
Continuous
 62
     7
100
AcDbLine
 10
306.1877701347
 20
18.7637817946
 30
0.0
 11
304.3339951922
 21
18.7637817946
 31
0.0
  0
LINE
  5
61
330
3A
100
AcDbEntity
  8
0
  6
Continuous
 62
     7
100
AcDbLine
 10
306.1877701347
 20
19.5480711933
 30
0.0
 11
306.1877701347
 21
18.7637817946
 31
0.0
  0
LINE
  5
62
330
3A
100
AcDbEntity
  8
0
  6
Continuous
 62
     7
100
AcDbLine
 10
306.1877701347
 20
19.5480711933
 30
0.0
 11
304.3339951922
 21
19.5480711933
 31
0.0
  0
LINE
  5
63
330
3A
100
AcDbEntity
  8
0
  6
Continuous
 62
     7
100
AcDbLine
 10
304.3339951922
 20
20.6175567371
 30
0.0
 11
304.3339951922
 21
19.5480711933
 31
0.0
  0
LINE
  5
64
330
3A
100
AcDbEntity
  8
0
  6
Continuous
 62
     7
100
AcDbLine
 10
304.3339951922
 20
18.7637817946
 30
0.0
 11
304.3339951922
 21
17.64676356
 31
0.0
  0
LINE
  5
65
330
3A
100
AcDbEntity
  8
0
  6
Continuous
 62
     7
100
AcDbLine
 10
307.3047883693
 20
16.7436424342
 30
0.0
 11
307.3047883693
 21
21.4969115175
 31
0.0
  0
LINE
  5
66
330
3A
100
AcDbEntity
  8
0
  6
Continuous
 62
     7
100
AcDbLine
 10
311.4876651625
 20
21.4969115175
 30
0.0
 11
311.4876651625
 21
16.7436424342
 31
0.0
  0
LINE
  5
67
330
3A
100
AcDbEntity
  8
0
  6
Continuous
 62
     7
100
AcDbLine
 10
307.3047883693
 20
16.7436424342
 30
0.0
 11
308.2554421859
 21
16.7436424342
 31
0.0
  0
LINE
  5
68
330
3A
100
AcDbEntity
  8
0
  6
Continuous
 62
     7
100
AcDbLine
 10
311.4876651625
 20
21.4969115175
 30
0.0
 11
310.5370113459
 21
21.4969115175
 31
0.0
  0
LINE
  5
69
330
3A
100
AcDbEntity
  8
0
  6
Continuous
 62
     7
100
AcDbLine
 10
308.8496008213
 20
21.4969115175
 30
0.0
 11
307.3047883693
 21
21.4969115175
 31
0.0
  0
LINE
  5
6A
330
3A
100
AcDbEntity
  8
0
  6
Continuous
 62
     7
100
AcDbLine
 10
311.4876651625
 20
16.7436424342
 30
0.0
 11
309.9666190559
 21
16.7436424342
 31
0.0
  0
LINE
  5
6B
330
3A
100
AcDbEntity
  8
0
  6
Continuous
 62
     7
100
AcDbLine
 10
309.9666190559
 20
16.7436424342
 30
0.0
 11
308.2554421859
 21
19.7857346475
 31
0.0
  0
LINE
  5
6C
330
3A
100
AcDbEntity
  8
0
  6
Continuous
 62
     7
100
AcDbLine
 10
308.8496008213
 20
21.4969115175
 30
0.0
 11
310.5370113459
 21
18.5498846858
 31
0.0
  0
LINE
  5
6D
330
3A
100
AcDbEntity
  8
0
  6
Continuous
 62
     7
100
AcDbLine
 10
310.5370113459
 20
21.4969115175
 30
0.0
 11
310.5370113459
 21
18.5498846858
 31
0.0
  0
LINE
  5
6E
330
3A
100
AcDbEntity
  8
0
  6
Continuous
 62
     7
100
AcDbLine
 10
308.2554421859
 20
16.7436424342
 30
0.0
 11
308.2554421859
 21
19.7857346475
 31
0.0
  0
LINE
  5
6F
330
3A
100
AcDbEntity
  8
0
  6
Continuous
 62
     7
100
AcDbLine
 10
312.2957209067
 20
16.8387078159
 30
0.0
 11
312.2957209067
 21
17.7893616325
 31
0.0
  0
LINE
  5
70
330
3A
100
AcDbEntity
  8
0
  6
Continuous
 62
     7
100
AcDbLine
 10
315.623009265
 20
20.49872501
 30
0.0
 11
315.623009265
 21
21.4493788266
 31
0.0
  0
ARC
  5
71
330
3A
100
AcDbEntity
  8
0
  6
Continuous
 62
     7
100
AcDbCircle
 10
314.0003620317
 20
18.7008009792
 30
0.0
 40
1.111619360599997
100
AcDbArc
 50
277.7099956934
 51
295.6884927746
  0
ARC
  5
72
330
3A
100
AcDbEntity
  8
0
  6
Continuous
 62
     7
100
AcDbCircle
 10
314.2846720145
 20
17.9759752156
 30
0.0
 40
0.3401689265
100
AcDbArc
 50
305.503221255
 51
72.46528985229999
  0
ARC
  5
73
330
3A
100
AcDbEntity
  8
0
  6
Continuous
 62
     7
100
AcDbCircle
 10
313.7186782063
 20
21.3776821252
 30
0.0
 40
4.756794641099999
100
AcDbArc
 50
252.5939200548001
 51
280.9816604256
  0
ARC
  5
74
330
3A
100
AcDbEntity
  8
0
  6
Continuous
 62
     7
100
AcDbCircle
 10
314.1735135694
 20
18.7596683887
 30
0.0
 40
2.100726595299998
100
AcDbArc
 50
282.405835852
 51
311.8644433928
  0
ARC
  5
75
330
3A
100
AcDbEntity
  8
0
  6
Continuous
 62
     7
100
AcDbCircle
 10
313.8999492223
 20
20.3680101102
 30
0.0
 40
0.3029626476
100
AcDbArc
 50
154.4400348282
 51
221.8201698801
  0
ARC
  5
76
330
3A
100
AcDbEntity
  8
0
  6
Continuous
 62
     7
100
AcDbCircle
 10
313.9791703737
 20
20.2887889588
 30
0.0
 40
0.4103089737
100
AcDbArc
 50
102.8287828681
 51
149.2259639003
  0
ARC
  5
77
330
3A
100
AcDbEntity
  8
0
  6
Continuous
 62
     7
100
AcDbCircle
 10
314.3961972093
 20
18.546453629
 30
0.0
 40
2.201836557
100
AcDbArc
 50
84.0400061857
 51
103.3427657870999
  0
ARC
  5
78
330
3A
100
AcDbEntity
  8
0
  6
Continuous
 62
     7
100
AcDbCircle
 10
314.0552333846
 20
16.1290897051
 30
0.0
 40
4.642373736499997
100
AcDbArc
 50
70.2625858546
 51
82.95241863799999
  0
ARC
  5
79
330
3A
100
AcDbEntity
  8
0
  6
Continuous
 62
     7
100
AcDbCircle
 10
313.5412151824001
 20
20.8007125947
 30
0.0
 40
3.258755990899997
100
AcDbArc
 50
247.5300206145
 51
280.7579522143
  0
ARC
  5
7A
330
3A
100
AcDbEntity
  8
0
  6
Continuous
 62
     7
100
AcDbCircle
 10
307.1562487104
 20
2.5491926343
 30
0.0
 40
17.3316084133
100
AcDbArc
 50
65.34146746500001
 51
67.39977707359999
  0
ARC
  5
7B
330
3A
100
AcDbEntity
  8
0
  6
Continuous
 62
     7
100
AcDbCircle
 10
317.9521111158
 20
28.3416189974
 30
0.0
 40
10.6291642039
100
AcDbArc
 50
242.8620101252001
 51
247.1042029186
  0
ARC
  5
7C
330
3A
100
AcDbEntity
  8
0
  6
Continuous
 62
     7
100
AcDbCircle
 10
314.0972098893
 20
20.8076875004
 30
0.0
 40
2.166291629199998
100
AcDbArc
 50
227.3119280794
 51
242.7040315235
  0
ARC
  5
7D
330
3A
100
AcDbEntity
  8
0
  6
Continuous
 62
     7
100
AcDbCircle
 10
313.4931790796
 20
20.1020098596
 30
0.0
 40
1.238521734
100
AcDbArc
 50
194.7952194236
 51
225.7176549047
  0
ARC
  5
7E
330
3A
100
AcDbEntity
  8
0
  6
Continuous
 62
     7
100
AcDbCircle
 10
313.5553372138
 20
20.1422298287
 30
0.0
 40
1.309092072899999
100
AcDbArc
 50
164.1974860461
 51
195.8025139539
  0
ARC
  5
7F
330
3A
100
AcDbEntity
  8
0
  6
Continuous
 62
     7
100
AcDbCircle
 10
314.1123609345001
 20
19.2539626688
 30
0.0
 40
2.366924815299999
100
AcDbArc
 50
86.22180229280001
 51
120.4272602309
  0
ARC
  5
80
330
3A
100
AcDbEntity
  8
0
  6
Continuous
 62
     7
100
AcDbCircle
 10
313.8435041519
 20
12.5577948477
 30
0.0
 40
9.0679051661
100
AcDbArc
 50
78.68270492259998
 51
87.3147599624
  0
ARC
  5
81
330
3A
100
AcDbEntity
  8
0
  6
Continuous
 62
     7
100
AcDbCircle
 10
313.3874349735
 20
20.2497375912
 30
0.0
 40
1.119747444
100
AcDbArc
 50
142.813917903
 51
167.1522951417
  0
ARC
  5
82
330
3A
100
AcDbEntity
  8
0
  6
Continuous
 62
     7
100
AcDbCircle
 10
313.7327443151
 20
19.9431558946
 30
0.0
 40
1.580546684499998
100
AcDbArc
 50
121.2140948535
 51
141.5254768286
  0
ARC
  5
83
330
3A
100
AcDbEntity
  8
0
  6
Continuous
 62
     7
100
AcDbCircle
 10
314.3099186807
 20
20.7542132232
 30
0.0
 40
0.8661276051999998
100
AcDbArc
 50
222.7760387596
 51
239.0362434679
  0
ARC
  5
84
330
3A
100
AcDbEntity
  8
0
  6
Continuous
 62
     7
100
AcDbCircle
 10
311.8032091024
 20
13.4239410246
 30
0.0
 40
6.858773576299999
100
AcDbArc
 50
59.90202725600001
 51
68.2036481279
  0
ARC
  5
85
330
3A
100
AcDbEntity
  8
0
  6
Continuous
 62
     7
100
AcDbCircle
 10
315.2117035963
 20
22.3498275319
 30
0.0
 40
2.698741017099999
100
AcDbArc
 50
240.0481997804
 51
251.3779673736999
  0
ARC
  5
86
330
3A
100
AcDbEntity
  8
0
  6
Continuous
 62
     7
100
AcDbCircle
 10
314.5462464295
 20
18.1929289165
 30
0.0
 40
1.4334474881
100
AcDbArc
 50
315.8904553224
 51
333.5229264373
  0
ARC
  5
87
330
3A
100
AcDbEntity
  8
0
  6
Continuous
 62
     7
100
AcDbCircle
 10
314.5508846732
 20
18.1395217664
 30
0.0
 40
1.406228711899998
100
AcDbArc
 50
335.3867972702
 51
24.3915119402
  0
ARC
  5
88
330
3A
100
AcDbEntity
  8
0
  6
Continuous
 62
     7
100
AcDbCircle
 10
314.4786797697
 20
18.0616650746
 30
0.0
 40
1.504702514799999
100
AcDbArc
 50
25.95629166050001
 51
59.4834829668
  0
LINE
  5
89
330
3A
100
AcDbEntity
  8
0
  6
Continuous
 62
     7
100
AcDbLine
 10
284.7029938783
 20
16.8387078159
 30
0.0
 11
284.7029938783
 21
17.7893616325
 31
0.0
  0
LINE
  5
8A
330
3A
100
AcDbEntity
  8
0
  6
Continuous
 62
     7
100
AcDbLine
 10
288.0302822366
 20
20.49872501
 30
0.0
 11
288.0302822366
 21
21.4493788266
 31
0.0
  0
ARC
  5
8B
330
3A
100
AcDbEntity
  8
0
  6
Continuous
 62
     7
100
AcDbCircle
 10
286.4076350033
 20
18.7008009792
 30
0.0
 40
1.111619360599997
100
AcDbArc
 50
277.7099956934
 51
295.6884927746
  0
ARC
  5
8C
330
3A
100
AcDbEntity
  8
0
  6
Continuous
 62
     7
100
AcDbCircle
 10
286.691944986
 20
17.9759752156
 30
0.0
 40
0.3401689265
100
AcDbArc
 50
305.5032212556
 51
72.4652898515
  0
ARC
  5
8D
330
3A
100
AcDbEntity
  8
0
  6
Continuous
 62
     7
100
AcDbCircle
 10
286.1259511779
 20
21.3776821252
 30
0.0
 40
4.756794641099999
100
AcDbArc
 50
252.5939200545
 51
280.9816604253
  0
ARC
  5
8E
330
3A
100
AcDbEntity
  8
0
  6
Continuous
 62
     7
100
AcDbCircle
 10
286.580786541
 20
18.7596683887
 30
0.0
 40
2.100726595299998
100
AcDbArc
 50
282.4058358513
 51
311.8644433923
  0
ARC
  5
8F
330
3A
100
AcDbEntity
  8
0
  6
Continuous
 62
     7
100
AcDbCircle
 10
286.3072221939
 20
20.3680101102
 30
0.0
 40
0.3029626476
100
AcDbArc
 50
154.4400348282
 51
221.8201698801
  0
ARC
  5
90
330
3A
100
AcDbEntity
  8
0
  6
Continuous
 62
     7
100
AcDbCircle
 10
286.3864433453
 20
20.2887889588
 30
0.0
 40
0.4103089737
100
AcDbArc
 50
102.8287828727
 51
149.2259639027
  0
ARC
  5
91
330
3A
100
AcDbEntity
  8
0
  6
Continuous
 62
     7
100
AcDbCircle
 10
286.8034701809
 20
18.546453629
 30
0.0
 40
2.201836557
100
AcDbArc
 50
84.0400061859
 51
103.3427657872
  0
ARC
  5
92
330
3A
100
AcDbEntity
  8
0
  6
Continuous
 62
     7
100
AcDbCircle
 10
286.4625063562
 20
16.1290897051
 30
0.0
 40
4.642373736499997
100
AcDbArc
 50
70.2625858546
 51
82.9524186379
  0
ARC
  5
93
330
3A
100
AcDbEntity
  8
0
  6
Continuous
 62
     7
100
AcDbCircle
 10
285.948488154
 20
20.8007125947
 30
0.0
 40
3.258755990899997
100
AcDbArc
 50
247.5300206148
 51
280.7579522145
  0
ARC
  5
94
330
3A
100
AcDbEntity
  8
0
  6
Continuous
 62
     7
100
AcDbCircle
 10
279.563521682
 20
2.5491926343
 30
0.0
 40
17.3316084133
100
AcDbArc
 50
65.34146746500001
 51
67.39977707359999
  0
ARC
  5
95
330
3A
100
AcDbEntity
  8
0
  6
Continuous
 62
     7
100
AcDbCircle
 10
290.3593840874
 20
28.3416189974
 30
0.0
 40
10.6291642039
100
AcDbArc
 50
242.8620101252001
 51
247.1042029185
  0
ARC
  5
96
330
3A
100
AcDbEntity
  8
0
  6
Continuous
 62
     7
100
AcDbCircle
 10
286.5044828608
 20
20.8076875004
 30
0.0
 40
2.166291629199998
100
AcDbArc
 50
227.3119280794
 51
242.7040315235
  0
ARC
  5
97
330
3A
100
AcDbEntity
  8
0
  6
Continuous
 62
     7
100
AcDbCircle
 10
285.9004520512
 20
20.1020098596
 30
0.0
 40
1.238521734
100
AcDbArc
 50
194.7952194234
 51
225.7176549042
  0
ARC
  5
98
330
3A
100
AcDbEntity
  8
0
  6
Continuous
 62
     7
100
AcDbCircle
 10
286.519633906
 20
19.2539626688
 30
0.0
 40
2.366924815299999
100
AcDbArc
 50
86.22180229280001
 51
120.4272602309
  0
ARC
  5
99
330
3A
100
AcDbEntity
  8
0
  6
Continuous
 62
     7
100
AcDbCircle
 10
286.2507771235
 20
12.5577948477
 30
0.0
 40
9.0679051661
100
AcDbArc
 50
78.68270492259998
 51
87.3147599624
  0
ARC
  5
9A
330
3A
100
AcDbEntity
  8
0
  6
Continuous
 62
     7
100
AcDbCircle
 10
286.1400172867
 20
19.9431558946
 30
0.0
 40
1.580546684599998
100
AcDbArc
 50
121.2140948541
 51
141.525476829
  0
ARC
  5
9B
330
3A
100
AcDbEntity
  8
0
  6
Continuous
 62
     7
100
AcDbCircle
 10
286.7171916523
 20
20.7542132232
 30
0.0
 40
0.8661276051999998
100
AcDbArc
 50
222.7760387596
 51
239.0362434679
  0
ARC
  5
9C
330
3A
100
AcDbEntity
  8
0
  6
Continuous
 62
     7
100
AcDbCircle
 10
284.210482074
 20
13.4239410246
 30
0.0
 40
6.858773576299999
100
AcDbArc
 50
59.90202725620001
 51
68.20364812820002
  0
ARC
  5
9D
330
3A
100
AcDbEntity
  8
0
  6
Continuous
 62
     7
100
AcDbCircle
 10
287.6189765678
 20
22.3498275319
 30
0.0
 40
2.698741017099999
100
AcDbArc
 50
240.0481997804
 51
251.3779673734
  0
ARC
  5
9E
330
3A
100
AcDbEntity
  8
0
  6
Continuous
 62
     7
100
AcDbCircle
 10
286.953519401
 20
18.1929289165
 30
0.0
 40
1.4334474881
100
AcDbArc
 50
315.8904553226
 51
333.5229264375
  0
ARC
  5
9F
330
3A
100
AcDbEntity
  8
0
  6
Continuous
 62
     7
100
AcDbCircle
 10
286.9581576447
 20
18.1395217664
 30
0.0
 40
1.406228711899998
100
AcDbArc
 50
335.3867972703
 51
24.3915119403
  0
ARC
  5
A0
330
3A
100
AcDbEntity
  8
0
  6
Continuous
 62
     7
100
AcDbCircle
 10
286.8859527412
 20
18.0616650746
 30
0.0
 40
1.504702514699999
100
AcDbArc
 50
25.9562916611
 51
59.4834829676
  0
LINE
  5
A1
330
3A
100
AcDbEntity
  8
0
  6
Continuous
 62
     7
100
AcDbLine
 10
284.8948224676
 20
20.9161059766
 30
0.0
 11
285.1688882922
 21
21.1901790542
 31
0.0
  0
ARC
  5
A2
330
3A
100
AcDbEntity
  8
0
  6
Continuous
 62
     7
100
AcDbCircle
 10
285.9626101853
 20
20.1422298287
 30
0.0
 40
1.309092072899999
100
AcDbArc
 50
164.1974860461
 51
195.8025139539
  0
ARC
  5
A3
330
3A
100
AcDbEntity
  8
0
  6
Continuous
 62
     7
100
AcDbCircle
 10
285.7947079451
 20
20.2497375912
 30
0.0
 40
1.119747444
100
AcDbArc
 50
142.813917903
 51
167.1522951417
  0
ENDBLK
  5
A4
330
3A
100
AcDbEntity
  8
0
100
AcDbBlockEnd
  0
BLOCK
  5
26B72
330
26B68
100
AcDbEntity
  8
0
100
AcDbBlockBegin
  2
*D1
 70
     1
 10
0.0
 20
0.0
 30
0.0
  3
*D1
  1

  0
LINE
  5
26E95
330
26B68
100
AcDbEntity
  8
10100_FRONT_DIM
  6
Continuous
 62
     7
370
    -2
100
AcDbLine
 10
47.76909891941634
 20
517.6016403668859
 30
0.0
 11
57.97682312700089
 21
517.6016403668859
 31
0.0
  0
LINE
  5
26E96
330
26B68
100
AcDbEntity
  8
10100_FRONT_DIM
  6
Continuous
 62
     7
370
    -2
100
AcDbLine
 10
47.76909891941634
 20
449.5516403668855
 30
0.0
 11
57.97682312700089
 21
449.5516403668855
 31
0.0
  0
LINE
  5
26E97
330
26B68
100
AcDbEntity
  8
10100_FRONT_DIM
  6
Continuous
370
    -2
100
AcDbLine
 10
55.97682312700089
 20
514.1016403668859
 30
0.0
 11
55.97682312700089
 21
487.9933070335524
 31
0.0
  0
LINE
  5
26E98
330
26B68
100
AcDbEntity
  8
10100_FRONT_DIM
  6
Continuous
370
    -2
100
AcDbLine
 10
55.97682312700089
 20
453.0516403668856
 30
0.0
 11
55.97682312700089
 21
479.1599737002191
 31
0.0
  0
SOLID
  5
26E99
330
26B68
100
AcDbEntity
  8
10100_FRONT_DIM
  6
Continuous
100
AcDbTrace
 10
55.39348979366757
 20
514.1016403668859
 30
0.0
 11
56.56015646033424
 21
514.1016403668859
 31
0.0
 12
55.97682312700089
 22
517.6016403668859
 32
0.0
 13
55.97682312700089
 23
517.6016403668859
 33
0.0
  0
SOLID
  5
26E9A
330
26B68
100
AcDbEntity
  8
10100_FRONT_DIM
  6
Continuous
100
AcDbTrace
 10
55.39348979366756
 20
453.0516403668856
 30
0.0
 11
56.56015646033424
 21
453.0516403668856
 31
0.0
 12
55.97682312700089
 22
449.5516403668855
 32
0.0
 13
55.97682312700089
 23
449.5516403668855
 33
0.0
  0
MTEXT
  5
26E9B
330
26B68
100
AcDbEntity
  8
10100_FRONT_DIM
  6
Continuous
 62
     7
370
    13
100
AcDbMText
 10
55.97682312700083
 20
483.5766403668858
 30
0.0
 40
3.5
 41
0.0
 71
     5
 72
     1
  1
\A1;68
 11
0.0000000000000001
 21
1.0
 31
0.0
 73
     1
 44
1.0
1001
ACAD
1000
MTEXTBEGIN
1070
    73
1070
     1
1070
    44
1040
1.0
1070
    74
1070
     0
1000
MTEXTEND
  0
POINT
  5
26E9C
330
26B68
100
AcDbEntity
  8
Defpoints
  6
Continuous
 62
     0
100
AcDbPoint
 10
47.76909891941634
 20
517.6016403668859
 30
0.0
  0
POINT
  5
26E9D
330
26B68
100
AcDbEntity
  8
Defpoints
  6
Continuous
 62
     0
100
AcDbPoint
 10
47.76909891941634
 20
449.5516403668855
 30
0.0
  0
POINT
  5
26E9E
330
26B68
100
AcDbEntity
  8
Defpoints
  6
Continuous
 62
     0
100
AcDbPoint
 10
55.97682312700089
 20
449.5516403668855
 30
0.0
  0
ENDBLK
  5
26B73
330
26B68
100
AcDbEntity
  8
0
100
AcDbBlockEnd
  0
BLOCK
  5
26B7F
330
26B75
100
AcDbEntity
  8
0
100
AcDbBlockBegin
  2
*D2
 70
     1
 10
0.0
 20
0.0
 30
0.0
  3
*D2
  1

  0
LINE
  5
26E89
330
26B75
100
AcDbEntity
  8
10100_FRONT_DIM
  6
Continuous
 62
     7
370
    -2
100
AcDbLine
 10
47.76909891941634
 20
517.6016403668859
 30
0.0
 11
57.97682312700089
 21
517.6016403668859
 31
0.0
  0
LINE
  5
26E8A
330
26B75
100
AcDbEntity
  8
10100_FRONT_DIM
  6
Continuous
 62
     7
370
    -2
100
AcDbLine
 10
47.76909891941634
 20
527.1516403668859
 30
0.0
 11
57.97682312700089
 21
527.1516403668859
 31
0.0
  0
LINE
  5
26E8B
330
26B75
100
AcDbEntity
  8
10100_FRONT_DIM
  6
Continuous
370
    -2
100
AcDbLine
 10
55.97682312700089
 20
514.1016403668859
 30
0.0
 11
55.97682312700089
 21
510.6016403668859
 31
0.0
  0
LINE
  5
26E8C
330
26B75
100
AcDbEntity
  8
10100_FRONT_DIM
  6
Continuous
370
    -2
100
AcDbLine
 10
55.97682312700094
 20
530.6516403668858
 30
0.0
 11
55.97682312700094
 21
534.1516403668858
 31
0.0
  0
LINE
  5
26E8D
330
26B75
100
AcDbEntity
  8
10100_FRONT_DIM
  6
Continuous
370
    -2
100
AcDbLine
 10
55.97682312700089
 20
517.6016403668859
 30
0.0
 11
55.97682312700089
 21
518.8349737002194
 31
0.0
  0
LINE
  5
26E8E
330
26B75
100
AcDbEntity
  8
10100_FRONT_DIM
  6
Continuous
370
    -2
100
AcDbLine
 10
55.97682312700089
 20
527.1516403668859
 30
0.0
 11
55.97682312700089
 21
525.9183070335524
 31
0.0
  0
SOLID
  5
26E8F
330
26B75
100
AcDbEntity
  8
10100_FRONT_DIM
  6
Continuous
100
AcDbTrace
 10
55.39348979366757
 20
514.1016403668859
 30
0.0
 11
56.56015646033424
 21
514.1016403668859
 31
0.0
 12
55.97682312700089
 22
517.6016403668859
 32
0.0
 13
55.97682312700089
 23
517.6016403668859
 33
0.0
  0
SOLID
  5
26E90
330
26B75
100
AcDbEntity
  8
10100_FRONT_DIM
  6
Continuous
100
AcDbTrace
 10
55.39348979366757
 20
530.6516403668858
 30
0.0
 11
56.56015646033425
 21
530.6516403668858
 31
0.0
 12
55.97682312700089
 22
527.1516403668859
 32
0.0
 13
55.97682312700089
 23
527.1516403668859
 33
0.0
  0
MTEXT
  5
26E91
330
26B75
100
AcDbEntity
  8
10100_FRONT_DIM
  6
Continuous
 62
     7
370
    13
100
AcDbMText
 10
55.97682312700083
 20
522.3766403668859
 30
0.0
 40
3.5
 41
0.0
 71
     5
 72
     1
  1
\A1;10
 11
0.0000000000000001
 21
1.0
 31
0.0
 73
     1
 44
1.0
1001
ACAD
1000
MTEXTBEGIN
1070
    73
1070
     1
1070
    44
1040
1.0
1070
    74
1070
     0
1000
MTEXTEND
  0
POINT
  5
26E92
330
26B75
100
AcDbEntity
  8
Defpoints
  6
Continuous
 62
     0
100
AcDbPoint
 10
47.76909891941634
 20
517.6016403668859
 30
0.0
  0
POINT
  5
26E93
330
26B75
100
AcDbEntity
  8
Defpoints
  6
Continuous
 62
     0
100
AcDbPoint
 10
47.76909891941634
 20
527.1516403668859
 30
0.0
  0
POINT
  5
26E94
330
26B75
100
AcDbEntity
  8
Defpoints
  6
Continuous
 62
     0
100
AcDbPoint
 10
55.97682312700089
 20
527.1516403668859
 30
0.0
  0
ENDBLK
  5
26B80
330
26B75
100
AcDbEntity
  8
0
100
AcDbBlockEnd
  0
BLOCK
  5
26B8C
330
26B82
100
AcDbEntity
  8
0
100
AcDbBlockBegin
  2
*D3
 70
     1
 10
0.0
 20
0.0
 30
0.0
  3
*D3
  1

  0
LINE
  5
26E7D
330
26B82
100
AcDbEntity
  8
10100_FRONT_DIM
  6
Continuous
 62
     7
370
    -2
100
AcDbLine
 10
26.21909891941634
 20
534.1516403668858
 30
0.0
 11
26.21909891941634
 21
544.617076594604
 31
0.0
  0
LINE
  5
26E7E
330
26B82
100
AcDbEntity
  8
10100_FRONT_DIM
  6
Continuous
 62
     7
370
    -2
100
AcDbLine
 10
48.71909891941635
 20
534.1516403668856
 30
0.0
 11
48.71909891941635
 21
544.617076594604
 31
0.0
  0
LINE
  5
26E7F
330
26B82
100
AcDbEntity
  8
10100_FRONT_DIM
  6
Continuous
370
    -2
100
AcDbLine
 10
22.71909891941634
 20
542.6170765946038
 30
0.0
 11
19.21909891941634
 21
542.6170765946038
 31
0.0
  0
LINE
  5
26E80
330
26B82
100
AcDbEntity
  8
10100_FRONT_DIM
  6
Continuous
370
    -2
100
AcDbLine
 10
52.21909891941635
 20
542.6170765946038
 30
0.0
 11
55.71909891941635
 21
542.6170765946038
 31
0.0
  0
LINE
  5
26E81
330
26B82
100
AcDbEntity
  8
10100_FRONT_DIM
  6
Continuous
370
    -2
100
AcDbLine
 10
26.21909891941634
 20
542.6170765946038
 30
0.0
 11
30.71909891941635
 21
542.6170765946038
 31
0.0
  0
LINE
  5
26E82
330
26B82
100
AcDbEntity
  8
10100_FRONT_DIM
  6
Continuous
370
    -2
100
AcDbLine
 10
48.71909891941635
 20
542.6170765946038
 30
0.0
 11
44.21909891941633
 21
542.6170765946038
 31
0.0
  0
SOLID
  5
26E83
330
26B82
100
AcDbEntity
  8
10100_FRONT_DIM
  6
Continuous
100
AcDbTrace
 10
22.71909891941634
 20
543.2004099279374
 30
0.0
 11
22.71909891941634
 21
542.0337432612706
 31
0.0
 12
26.21909891941634
 22
542.6170765946038
 32
0.0
 13
26.21909891941634
 23
542.6170765946038
 33
0.0
  0
SOLID
  5
26E84
330
26B82
100
AcDbEntity
  8
10100_FRONT_DIM
  6
Continuous
100
AcDbTrace
 10
52.21909891941635
 20
543.2004099279374
 30
0.0
 11
52.21909891941635
 21
542.0337432612706
 31
0.0
 12
48.71909891941635
 22
542.6170765946038
 32
0.0
 13
48.71909891941635
 23
542.6170765946038
 33
0.0
  0
MTEXT
  5
26E85
330
26B82
100
AcDbEntity
  8
10100_FRONT_DIM
  6
Continuous
 62
     7
370
    13
100
AcDbMText
 10
37.46909891941636
 20
542.6170765946038
 30
0.0
 40
3.5
 41
0.0
 71
     5
 72
     1
  1
\A1;22.5
 73
     1
 44
1.0
1001
ACAD
1000
MTEXTBEGIN
1070
    73
1070
     1
1070
    44
1040
1.0
1070
    74
1070
     0
1000
MTEXTEND
  0
POINT
  5
26E86
330
26B82
100
AcDbEntity
  8
Defpoints
  6
Continuous
 62
     0
100
AcDbPoint
 10
26.21909891941634
 20
534.1516403668858
 30
0.0
  0
POINT
  5
26E87
330
26B82
100
AcDbEntity
  8
Defpoints
  6
Continuous
 62
     0
100
AcDbPoint
 10
48.71909891941635
 20
534.1516403668856
 30
0.0
  0
POINT
  5
26E88
330
26B82
100
AcDbEntity
  8
Defpoints
  6
Continuous
 62
     0
100
AcDbPoint
 10
48.71909891941635
 20
542.6170765946038
 30
0.0
  0
ENDBLK
  5
26B8D
330
26B82
100
AcDbEntity
  8
0
100
AcDbBlockEnd
  0
BLOCK
  5
26BA2
330
26B98
100
AcDbEntity
  8
0
100
AcDbBlockBegin
  2
*D4
 70
     1
 10
0.0
 20
0.0
 30
0.0
  3
*D4
  1

  0
LINE
  5
26E73
330
26B98
100
AcDbEntity
  8
10100_FRONT_DIM
  6
Continuous
 62
     7
370
    -2
100
AcDbLine
 10
48.51909691941634
 20
534.3516403668859
 30
0.0
 11
64.95536389651284
 21
534.3516403668859
 31
0.0
  0
LINE
  5
26E74
330
26B98
100
AcDbEntity
  8
10100_FRONT_DIM
  6
Continuous
 62
     7
370
    -2
100
AcDbLine
 10
48.5190989237736
 20
442.3516403668855
 30
0.0
 11
64.95536389651284
 21
442.3516403668855
 31
0.0
  0
LINE
  5
26E75
330
26B98
100
AcDbEntity
  8
10100_FRONT_DIM
  6
Continuous
370
    -2
100
AcDbLine
 10
62.95536389651285
 20
530.8516403668859
 30
0.0
 11
62.95536389651284
 21
492.7683070335524
 31
0.0
  0
LINE
  5
26E76
330
26B98
100
AcDbEntity
  8
10100_FRONT_DIM
  6
Continuous
370
    -2
100
AcDbLine
 10
62.95536389651283
 20
445.8516403668856
 30
0.0
 11
62.95536389651284
 21
483.9349737002191
 31
0.0
  0
SOLID
  5
26E77
330
26B98
100
AcDbEntity
  8
10100_FRONT_DIM
  6
Continuous
100
AcDbTrace
 10
62.37203056317952
 20
530.8516403668859
 30
0.0
 11
63.53869722984619
 21
530.8516403668859
 31
0.0
 12
62.95536389651285
 22
534.3516403668859
 32
0.0
 13
62.95536389651285
 23
534.3516403668859
 33
0.0
  0
SOLID
  5
26E78
330
26B98
100
AcDbEntity
  8
10100_FRONT_DIM
  6
Continuous
100
AcDbTrace
 10
62.3720305631795
 20
445.8516403668856
 30
0.0
 11
63.53869722984617
 21
445.8516403668856
 31
0.0
 12
62.95536389651283
 22
442.3516403668855
 32
0.0
 13
62.95536389651283
 23
442.3516403668855
 33
0.0
  0
MTEXT
  5
26E79
330
26B98
100
AcDbEntity
  8
10100_FRONT_DIM
  6
Continuous
 62
     7
370
    13
100
AcDbMText
 10
62.95536389651275
 20
488.3516403668858
 30
0.0
 40
3.5
 41
0.0
 71
     5
 72
     1
  1
\A1;92
 11
0.0000000000000001
 21
1.0
 31
0.0
 73
     1
 44
1.0
1001
ACAD
1000
MTEXTBEGIN
1070
    73
1070
     1
1070
    44
1040
1.0
1070
    74
1070
     0
1000
MTEXTEND
  0
POINT
  5
26E7A
330
26B98
100
AcDbEntity
  8
Defpoints
  6
Continuous
 62
     0
100
AcDbPoint
 10
48.51909691941634
 20
534.3516403668859
 30
0.0
  0
POINT
  5
26E7B
330
26B98
100
AcDbEntity
  8
Defpoints
  6
Continuous
 62
     0
100
AcDbPoint
 10
48.5190989237736
 20
442.3516403668855
 30
0.0
  0
POINT
  5
26E7C
330
26B98
100
AcDbEntity
  8
Defpoints
  6
Continuous
 62
     0
100
AcDbPoint
 10
62.95536389651283
 20
442.3516403668855
 30
0.0
  0
ENDBLK
  5
26BA3
330
26B98
100
AcDbEntity
  8
0
100
AcDbBlockEnd
  0
BLOCK
  5
26CE9
330
26CDD
100
AcDbEntity
  8
0
100
AcDbBlockBegin
  2
*D5
 70
     1
 10
0.0
 20
0.0
 30
0.0
  3
*D5
  1

  0
LINE
  5
26E67
330
26CDD
100
AcDbEntity
  8
11100_LEFT_DIM
  6
Continuous
 62
     0
370
    -2
100
AcDbLine
 10
87.04366452000574
 20
445.8516403668858
 30
0.0
 11
87.04366452000574
 21
432.0318724409987
 31
0.0
  0
LINE
  5
26E68
330
26CDD
100
AcDbEntity
  8
11100_LEFT_DIM
  6
Continuous
 62
     0
370
    -2
100
AcDbLine
 10
92.14366452000573
 20
465.4016403668858
 30
0.0
 11
92.14366452000573
 21
432.0318724409987
 31
0.0
  0
LINE
  5
26E69
330
26CDD
100
AcDbEntity
  8
11100_LEFT_DIM
  6
Continuous
 62
     0
370
    -2
100
AcDbLine
 10
84.04366452000573
 20
433.0318724409987
 30
0.0
 11
81.04366452000574
 21
433.0318724409987
 31
0.0
  0
LINE
  5
26E6A
330
26CDD
100
AcDbEntity
  8
11100_LEFT_DIM
  6
Continuous
 62
     0
370
    -2
100
AcDbLine
 10
95.14366452000574
 20
433.0318724409987
 30
0.0
 11
98.14366452000577
 21
433.0318724409987
 31
0.0
  0
LINE
  5
26E6B
330
26CDD
100
AcDbEntity
  8
11100_LEFT_DIM
  6
Continuous
 62
     0
370
    -2
100
AcDbLine
 10
87.04366452000574
 20
433.0318724409987
 30
0.0
 11
87.42699785333908
 21
433.0318724409987
 31
0.0
  0
LINE
  5
26E6C
330
26CDD
100
AcDbEntity
  8
11100_LEFT_DIM
  6
Continuous
 62
     0
370
    -2
100
AcDbLine
 10
92.14366452000573
 20
433.0318724409987
 30
0.0
 11
91.76033118667239
 21
433.0318724409987
 31
0.0
  0
SOLID
  5
26E6D
330
26CDD
100
AcDbEntity
  8
11100_LEFT_DIM
  6
Continuous
 62
     0
100
AcDbTrace
 10
84.04366452000573
 20
433.5318724409987
 30
0.0
 11
84.04366452000573
 21
432.5318724409987
 31
0.0
 12
87.04366452000574
 22
433.0318724409987
 32
0.0
 13
87.04366452000574
 23
433.0318724409987
 33
0.0
  0
SOLID
  5
26E6E
330
26CDD
100
AcDbEntity
  8
11100_LEFT_DIM
  6
Continuous
 62
     0
100
AcDbTrace
 10
95.14366452000574
 20
433.5318724409987
 30
0.0
 11
95.14366452000574
 21
432.5318724409987
 31
0.0
 12
92.14366452000573
 22
433.0318724409987
 32
0.0
 13
92.14366452000573
 23
433.0318724409987
 33
0.0
  0
MTEXT
  5
26E6F
330
26CDD
100
AcDbEntity
  8
11100_LEFT_DIM
  6
Continuous
 62
     0
370
    13
100
AcDbMText
 10
89.59366452000574
 20
433.0318724409987
 30
0.0
 40
3.5
 41
0.0
 71
     5
 72
     1
  1
\A1;5
 73
     1
 44
1.0
1001
ACAD
1000
MTEXTBEGIN
1070
    73
1070
     1
1070
    44
1040
1.0
1070
    74
1070
     0
1000
MTEXTEND
  0
POINT
  5
26E70
330
26CDD
100
AcDbEntity
  8
Defpoints
  6
Continuous
 62
     0
100
AcDbPoint
 10
87.04366452000574
 20
446.8516403668858
 30
0.0
  0
POINT
  5
26E71
330
26CDD
100
AcDbEntity
  8
Defpoints
  6
Continuous
 62
     0
100
AcDbPoint
 10
92.14366452000573
 20
466.4016403668858
 30
0.0
  0
POINT
  5
26E72
330
26CDD
100
AcDbEntity
  8
Defpoints
  6
Continuous
 62
     0
100
AcDbPoint
 10
92.14366452000573
 20
433.0318724409987
 30
0.0
  0
ENDBLK
  5
26CEA
330
26CDD
100
AcDbEntity
  8
0
100
AcDbBlockEnd
  0
BLOCK
  5
26CF6
330
26CEC
100
AcDbEntity
  8
0
100
AcDbBlockBegin
  2
*D6
 70
     1
 10
0.0
 20
0.0
 30
0.0
  3
*D6
  1

  0
LINE
  5
26E5D
330
26CEC
100
AcDbEntity
  8
11100_LEFT_DIM
  6
Continuous
 62
     0
370
    -2
100
AcDbLine
 10
92.14366452000573
 20
445.8516403668858
 30
0.0
 11
92.14366452000573
 21
432.0318724409987
 31
0.0
  0
LINE
  5
26E5E
330
26CEC
100
AcDbEntity
  8
11100_LEFT_DIM
  6
Continuous
 62
     0
370
    -2
100
AcDbLine
 10
207.1435243689263
 20
441.5441543272486
 30
0.0
 11
207.1435243689263
 21
432.0318724409987
 31
0.0
  0
LINE
  5
26E5F
330
26CEC
100
AcDbEntity
  8
11100_LEFT_DIM
  6
Continuous
 62
     0
370
    -2
100
AcDbLine
 10
95.14366452000574
 20
433.0318724409987
 30
0.0
 11
145.143594444466
 21
433.0318724409987
 31
0.0
  0
LINE
  5
26E60
330
26CEC
100
AcDbEntity
  8
11100_LEFT_DIM
  6
Continuous
 62
     0
370
    -2
100
AcDbLine
 10
204.1435243689263
 20
433.0318724409987
 30
0.0
 11
154.143594444466
 21
433.0318724409987
 31
0.0
  0
SOLID
  5
26E61
330
26CEC
100
AcDbEntity
  8
11100_LEFT_DIM
  6
Continuous
 62
     0
100
AcDbTrace
 10
95.14366452000574
 20
433.5318724409987
 30
0.0
 11
95.14366452000574
 21
432.5318724409987
 31
0.0
 12
92.14366452000573
 22
433.0318724409987
 32
0.0
 13
92.14366452000573
 23
433.0318724409987
 33
0.0
  0
SOLID
  5
26E62
330
26CEC
100
AcDbEntity
  8
11100_LEFT_DIM
  6
Continuous
 62
     0
100
AcDbTrace
 10
204.1435243689263
 20
433.5318724409987
 30
0.0
 11
204.1435243689263
 21
432.5318724409987
 31
0.0
 12
207.1435243689263
 22
433.0318724409987
 32
0.0
 13
207.1435243689263
 23
433.0318724409987
 33
0.0
  0
MTEXT
  5
26E63
330
26CEC
100
AcDbEntity
  8
11100_LEFT_DIM
  6
Continuous
 62
     0
370
    13
100
AcDbMText
 10
149.643594444466
 20
433.0318724409987
 30
0.0
 40
3.5
 41
0.0
 71
     5
 72
     1
  1
\A1;115
 73
     1
 44
1.0
1001
ACAD
1000
MTEXTBEGIN
1070
    73
1070
     1
1070
    44
1040
1.0
1070
    74
1070
     0
1000
MTEXTEND
  0
POINT
  5
26E64
330
26CEC
100
AcDbEntity
  8
Defpoints
  6
Continuous
 62
     0
100
AcDbPoint
 10
92.14366452000573
 20
446.8516403668858
 30
0.0
  0
POINT
  5
26E65
330
26CEC
100
AcDbEntity
  8
Defpoints
  6
Continuous
 62
     0
100
AcDbPoint
 10
207.1435243689263
 20
442.5441543272484
 30
0.0
  0
POINT
  5
26E66
330
26CEC
100
AcDbEntity
  8
Defpoints
  6
Continuous
 62
     0
100
AcDbPoint
 10
207.1435243689263
 20
433.0318724409987
 30
0.0
  0
ENDBLK
  5
26CF7
330
26CEC
100
AcDbEntity
  8
0
100
AcDbBlockEnd
  0
BLOCK
  5
26D05
330
26CF9
100
AcDbEntity
  8
0
100
AcDbBlockBegin
  2
*D7
 70
     1
 10
0.0
 20
0.0
 30
0.0
  3
*D7
  1

  0
LINE
  5
26E53
330
26CF9
100
AcDbEntity
  8
11100_LEFT_DIM
  6
Continuous
 62
     0
370
    -2
100
AcDbLine
 10
211.1436645200058
 20
478.6766403668858
 30
0.0
 11
211.1436645200058
 21
432.0318724409987
 31
0.0
  0
LINE
  5
26E54
330
26CF9
100
AcDbEntity
  8
11100_LEFT_DIM
  6
Continuous
 62
     0
370
    -2
100
AcDbLine
 10
207.1436645200057
 20
441.5516403668858
 30
0.0
 11
207.1436645200057
 21
432.0318724409987
 31
0.0
  0
LINE
  5
26E55
330
26CF9
100
AcDbEntity
  8
11100_LEFT_DIM
  6
Continuous
 62
     0
370
    -2
100
AcDbLine
 10
214.1436645200057
 20
433.0318724409987
 30
0.0
 11
217.1436645200058
 21
433.0318724409987
 31
0.0
  0
LINE
  5
26E56
330
26CF9
100
AcDbEntity
  8
11100_LEFT_DIM
  6
Continuous
 62
     0
370
    -2
100
AcDbLine
 10
204.1436645200057
 20
433.0318724409987
 30
0.0
 11
201.1436645200057
 21
433.0318724409987
 31
0.0
  0
SOLID
  5
26E57
330
26CF9
100
AcDbEntity
  8
11100_LEFT_DIM
  6
Continuous
 62
     0
100
AcDbTrace
 10
214.1436645200057
 20
433.5318724409987
 30
0.0
 11
214.1436645200057
 21
432.5318724409987
 31
0.0
 12
211.1436645200058
 22
433.0318724409987
 32
0.0
 13
211.1436645200058
 23
433.0318724409987
 33
0.0
  0
SOLID
  5
26E58
330
26CF9
100
AcDbEntity
  8
11100_LEFT_DIM
  6
Continuous
 62
     0
100
AcDbTrace
 10
204.1436645200057
 20
433.5318724409987
 30
0.0
 11
204.1436645200057
 21
432.5318724409987
 31
0.0
 12
207.1436645200057
 22
433.0318724409987
 32
0.0
 13
207.1436645200057
 23
433.0318724409987
 33
0.0
  0
MTEXT
  5
26E59
330
26CF9
100
AcDbEntity
  8
11100_LEFT_DIM
  6
Continuous
 62
     0
370
    13
100
AcDbMText
 10
209.1436645200057
 20
433.0318724409987
 30
0.0
 40
3.5
 41
0.0
 71
     5
 72
     1
  1
\A1;4
 73
     1
 44
1.0
1001
ACAD
1000
MTEXTBEGIN
1070
    73
1070
     1
1070
    44
1040
1.0
1070
    74
1070
     0
1000
MTEXTEND
  0
POINT
  5
26E5A
330
26CF9
100
AcDbEntity
  8
Defpoints
  6
Continuous
 62
     0
100
AcDbPoint
 10
211.1436645200058
 20
479.6766403668858
 30
0.0
  0
POINT
  5
26E5B
330
26CF9
100
AcDbEntity
  8
Defpoints
  6
Continuous
 62
     0
100
AcDbPoint
 10
207.1436645200057
 20
442.5516403668858
 30
0.0
  0
POINT
  5
26E5C
330
26CF9
100
AcDbEntity
  8
Defpoints
  6
Continuous
 62
     0
100
AcDbPoint
 10
207.1436645200057
 20
433.0318724409987
 30
0.0
  0
ENDBLK
  5
26D06
330
26CF9
100
AcDbEntity
  8
0
100
AcDbBlockEnd
  0
BLOCK
  5
26D13
330
26D09
100
AcDbEntity
  8
0
100
AcDbBlockBegin
  2
*D8
 70
     1
 10
0.0
 20
0.0
 30
0.0
  3
*D8
  1

  0
LINE
  5
26E49
330
26D09
100
AcDbEntity
  8
13100_Top_Dim
  6
Continuous
 62
     7
370
    -2
100
AcDbLine
 10
48.71909891941635
 20
423.8628556385538
 30
0.0
 11
61.06263751210851
 21
423.8628556385538
 31
0.0
  0
LINE
  5
26E4A
330
26D09
100
AcDbEntity
  8
13100_Top_Dim
  6
Continuous
 62
     7
370
    -2
100
AcDbLine
 10
47.71909891941635
 20
362.362855638554
 30
0.0
 11
61.0626375121085
 21
362.362855638554
 31
0.0
  0
LINE
  5
26E4B
330
26D09
100
AcDbEntity
  8
13100_Top_Dim
  6
Continuous
370
    -2
100
AcDbLine
 10
59.0626375121085
 20
420.3628556385538
 30
0.0
 11
59.0626375121085
 21
396.9461889718872
 31
0.0
  0
LINE
  5
26E4C
330
26D09
100
AcDbEntity
  8
13100_Top_Dim
  6
Continuous
370
    -2
100
AcDbLine
 10
59.0626375121085
 20
365.862855638554
 30
0.0
 11
59.0626375121085
 21
389.2795223052207
 31
0.0
  0
SOLID
  5
26E4D
330
26D09
100
AcDbEntity
  8
13100_Top_Dim
  6
Continuous
100
AcDbTrace
 10
58.47930417877517
 20
420.3628556385538
 30
0.0
 11
59.64597084544184
 21
420.3628556385538
 31
0.0
 12
59.0626375121085
 22
423.8628556385538
 32
0.0
 13
59.0626375121085
 23
423.8628556385538
 33
0.0
  0
SOLID
  5
26E4E
330
26D09
100
AcDbEntity
  8
13100_Top_Dim
  6
Continuous
100
AcDbTrace
 10
58.47930417877516
 20
365.862855638554
 30
0.0
 11
59.64597084544183
 21
365.862855638554
 31
0.0
 12
59.0626375121085
 22
362.362855638554
 32
0.0
 13
59.0626375121085
 23
362.362855638554
 33
0.0
  0
MTEXT
  5
26E4F
330
26D09
100
AcDbEntity
  8
13100_Top_Dim
  6
Continuous
 62
     7
370
    13
100
AcDbMText
 10
59.06263751210843
 20
393.1128556385539
 30
0.0
 40
3.5
 41
0.0
 71
     5
 72
     1
  1
\A1;61
 11
0.0000000000000001
 21
1.0
 31
0.0
 73
     1
 44
1.0
1001
ACAD
1000
MTEXTBEGIN
1070
    73
1070
     1
1070
    44
1040
1.0
1070
    74
1070
     0
1000
MTEXTEND
  0
POINT
  5
26E50
330
26D09
100
AcDbEntity
  8
Defpoints
  6
Continuous
 62
     0
100
AcDbPoint
 10
48.71909891941635
 20
423.8628556385538
 30
0.0
  0
POINT
  5
26E51
330
26D09
100
AcDbEntity
  8
Defpoints
  6
Continuous
 62
     0
100
AcDbPoint
 10
47.71909891941635
 20
362.362855638554
 30
0.0
  0
POINT
  5
26E52
330
26D09
100
AcDbEntity
  8
Defpoints
  6
Continuous
 62
     0
100
AcDbPoint
 10
59.0626375121085
 20
362.362855638554
 30
0.0
  0
ENDBLK
  5
26D14
330
26D09
100
AcDbEntity
  8
0
100
AcDbBlockEnd
  0
BLOCK
  5
26D20
330
26D16
100
AcDbEntity
  8
0
100
AcDbBlockBegin
  2
*D9
 70
     1
 10
0.0
 20
0.0
 30
0.0
  3
*D9
  1

  0
LINE
  5
26EB2
330
26D16
100
AcDbEntity
  8
13100_Top_Dim
  6
Continuous
 62
     7
370
    -2
100
AcDbLine
 10
48.71909891941635
 20
362.362855638554
 30
0.0
 11
61.0626375121085
 21
362.362855638554
 31
0.0
  0
LINE
  5
26EB3
330
26D16
100
AcDbEntity
  8
13100_Top_Dim
  6
Continuous
 62
     7
370
    -2
100
AcDbLine
 10
47.57802744536774
 20
330.0628556385539
 30
0.0
 11
61.06263751210849
 21
330.0628556385539
 31
0.0
  0
LINE
  5
26EB4
330
26D16
100
AcDbEntity
  8
13100_Top_Dim
  6
Continuous
370
    -2
100
AcDbLine
 10
59.0626375121085
 20
358.862855638554
 30
0.0
 11
59.0626375121085
 21
350.6295223052206
 31
0.0
  0
LINE
  5
26EB5
330
26D16
100
AcDbEntity
  8
13100_Top_Dim
  6
Continuous
370
    -2
100
AcDbLine
 10
59.06263751210849
 20
333.5628556385539
 30
0.0
 11
59.0626375121085
 21
341.7961889718873
 31
0.0
  0
SOLID
  5
26EB6
330
26D16
100
AcDbEntity
  8
13100_Top_Dim
  6
Continuous
100
AcDbTrace
 10
58.47930417877516
 20
358.862855638554
 30
0.0
 11
59.64597084544183
 21
358.862855638554
 31
0.0
 12
59.0626375121085
 22
362.362855638554
 32
0.0
 13
59.0626375121085
 23
362.362855638554
 33
0.0
  0
SOLID
  5
26EB7
330
26D16
100
AcDbEntity
  8
13100_Top_Dim
  6
Continuous
100
AcDbTrace
 10
58.47930417877513
 20
333.5628556385539
 30
0.0
 11
59.6459708454418
 21
333.5628556385539
 31
0.0
 12
59.06263751210849
 22
330.0628556385539
 32
0.0
 13
59.06263751210849
 23
330.0628556385539
 33
0.0
  0
MTEXT
  5
26EB8
330
26D16
100
AcDbEntity
  8
13100_Top_Dim
  6
Continuous
 62
     7
370
    13
100
AcDbMText
 10
59.06263751210843
 20
346.212855638554
 30
0.0
 40
3.5
 41
0.0
 71
     5
 72
     1
  1
\A1;32
 11
0.0000000000000001
 21
1.0
 31
0.0
 73
     1
 44
1.0
1001
ACAD
1000
MTEXTBEGIN
1070
    73
1070
     1
1070
    44
1040
1.0
1070
    74
1070
     0
1000
MTEXTEND
  0
POINT
  5
26EB9
330
26D16
100
AcDbEntity
  8
Defpoints
  6
Continuous
 62
     0
100
AcDbPoint
 10
48.71909891941635
 20
362.362855638554
 30
0.0
  0
POINT
  5
26EBA
330
26D16
100
AcDbEntity
  8
Defpoints
  6
Continuous
 62
     0
100
AcDbPoint
 10
47.57802744536774
 20
330.0628556385539
 30
0.0
  0
POINT
  5
26EBB
330
26D16
100
AcDbEntity
  8
Defpoints
  6
Continuous
 62
     0
100
AcDbPoint
 10
59.06263751210849
 20
330.0628556385539
 30
0.0
  0
ENDBLK
  5
26D21
330
26D16
100
AcDbEntity
  8
0
100
AcDbBlockEnd
  0
ENDSEC
  0
SECTION
  2
ENTITIES
  0
TEXT
  5
8CAC
330
20
100
AcDbEntity
  8
91000_TIP
  6
Continuous
 62
     7
100
AcDbText
 10
-66.55123359502733
 20
297.5317263287093
 30
0.0
 40
2.5
  1
Alle Bemassungswerte sind in Millimeter (mm) angegeben.
 41
0.6056311217924567
 72
     5
 11
7.133886223054927
 21
297.5317263287093
 31
0.0
100
AcDbText
  0
TEXT
  5
8CAD
330
20
100
AcDbEntity
  8
91000_TIP
  6
Continuous
 62
     7
100
AcDbText
 10
-66.55123359502733
 20
292.2817263287094
 30
0.0
 40
2.5
  1
All dimensions are in millimeters (mm).
 41
0.7513350295680265
 72
     5
 11
-6.444431229585262
 21
292.2817263287094
 31
0.0
100
AcDbText
  0
LINE
  5
8CAE
330
20
100
AcDbEntity
  8
90000_FRAME
  6
Continuous
 62
     7
100
AcDbLine
 10
329.3954166223081
 20
298.7994897070328
 30
0.0
 11
329.3954166223081
 21
316.7994897070327
 31
0.0
  0
LINE
  5
8CB1
330
20
100
AcDbEntity
  8
90000_FRAME
  6
Continuous
 62
     7
100
AcDbLine
 10
-70.60458337769119
 20
288.7994897070327
 30
0.0
 11
339.3954166223088
 21
288.7994897070327
 31
0.0
  0
LINE
  5
8CB2
330
20
100
AcDbEntity
  8
90000_FRAME
  6
Continuous
 62
     7
100
AcDbLine
 10
339.3954166223088
 20
288.7994897070327
 30
0.0
 11
339.3954166223088
 21
558.7994897070326
 31
0.0
  0
TEXT
  5
8CB3
330
20
100
AcDbEntity
  8
90000_FRAME
  6
Continuous
 62
     7
100
AcDbText
 10
257.7013411462589
 20
309.0494897070328
 30
0.0
 40
3.5
  1
3UF7300_00000286_000_ALL
 41
0.7261321223270518
 72
     5
 11
313.6135145654419
 21
309.0494897070328
 31
0.0
100
AcDbText
  0
CIRCLE
  5
8CB4
330
20
100
AcDbEntity
  8
91000_TIP
  6
Continuous
 62
     7
100
AcDbCircle
 10
185.710086389334
 20
307.6232272805033
 30
0.0
 40
2.499999948899997
  0
CIRCLE
  5
8CB5
330
20
100
AcDbEntity
  8
91000_TIP
  6
Continuous
 62
     7
100
AcDbCircle
 10
185.710086389334
 20
307.6232272805033
 30
0.0
 40
4.9999998979
  0
LINE
  5
8CB6
330
20
100
AcDbEntity
  8
91000_TIP
  6
CENTER
 62
     7
100
AcDbLine
 10
185.710086389334
 20
301.9017460741033
 30
0.0
 11
185.710086389334
 21
313.1851320741033
 31
0.0
  0
LINE
  5
8CB7
330
20
100
AcDbEntity
  8
91000_TIP
  6
Continuous
 62
     7
100
AcDbLine
 10
179.2100865221341
 20
312.6232271784033
 30
0.0
 11
179.2100865221341
 21
302.6232273826032
 31
0.0
  0
LINE
  5
8CB8
330
20
100
AcDbEntity
  8
91000_TIP
  6
Continuous
 62
     7
100
AcDbLine
 10
169.210086726334
 20
310.1232272294034
 30
0.0
 11
169.210086726334
 21
305.1232273316033
 31
0.0
  0
LINE
  5
8CB9
330
20
100
AcDbEntity
  8
91000_TIP
  6
Continuous
 62
     7
100
AcDbLine
 10
169.210086726334
 20
305.1232273316033
 30
0.0
 11
179.2100865221341
 21
302.6232273826032
 31
0.0
  0
LINE
  5
8CBA
330
20
100
AcDbEntity
  8
91000_TIP
  6
CENTER
 62
     7
100
AcDbLine
 10
167.930576254333
 20
307.6232272805033
 30
0.0
 11
191.532565518433
 21
307.6232272805033
 31
0.0
  0
LINE
  5
8CBB
330
20
100
AcDbEntity
  8
91000_TIP
  6
Continuous
 62
     7
100
AcDbLine
 10
169.210086726334
 20
310.1232272294034
 30
0.0
 11
179.2100865221341
 21
312.6232271784033
 31
0.0
  0
TEXT
  5
8CBC
330
20
100
AcDbEntity
  8
90000_FRAME
  6
Continuous
 62
     7
100
AcDbText
 10
287.5554166223082
 20
300.6994897070327
 30
0.0
 40
2.2
  1
Massstab / Scale: 1:1
 41
0.7732634338148463
 72
     5
 11
318.4601785271082
 21
300.6994897070327
 31
0.0
100
AcDbText
  0
TEXT
  5
8CBD
330
20
100
AcDbEntity
  8
90000_FRAME
  6
Continuous
 62
     7
100
AcDbText
 10
245.0554166223081
 20
300.6994897070327
 30
0.0
 40
2.2
  1
Format / Size: DIN A3
 41
0.7994987468660266
 72
     5
 11
278.474464241308
 21
300.6994897070327
 31
0.0
100
AcDbText
  0
LINE
  5
8CBE
330
20
100
AcDbEntity
  8
90000_FRAME
  6
Continuous
 62
     7
100
AcDbLine
 10
329.3954166223081
 20
298.7994897070328
 30
0.0
 11
329.3954166223081
 21
316.7994897070327
 31
0.0
  0
LINE
  5
8CBF
330
20
100
AcDbEntity
  8
90000_FRAME
  6
Continuous
 62
     7
100
AcDbLine
 10
286.8954166223081
 20
298.7994897070328
 30
0.0
 11
286.8954166223081
 21
304.7994897070328
 31
0.0
  0
LINE
  5
8CC0
330
20
100
AcDbEntity
  8
90000_FRAME
  6
Continuous
 62
     7
100
AcDbLine
 10
244.3954166223081
 20
298.7994897070328
 30
0.0
 11
244.3954166223081
 21
316.7994897070327
 31
0.0
  0
LINE
  5
8CC1
330
20
100
AcDbEntity
  8
90000_FRAME
  6
Continuous
 62
     7
100
AcDbLine
 10
194.395416622308
 20
316.7994897070327
 30
0.0
 11
329.3954166223081
 21
316.7994897070327
 31
0.0
  0
LINE
  5
8CC2
330
20
100
AcDbEntity
  8
90000_FRAME
  6
Continuous
 62
     7
100
AcDbLine
 10
244.3954166223081
 20
304.7994897070328
 30
0.0
 11
329.3954166223081
 21
304.7994897070328
 31
0.0
  0
LINE
  5
8CC3
330
20
100
AcDbEntity
  8
90000_FRAME
  6
Continuous
 62
     7
100
AcDbLine
 10
194.395416622308
 20
298.7994897070328
 30
0.0
 11
194.395416622308
 21
316.7994897070327
 31
0.0
  0
LINE
  5
8CC4
330
20
100
AcDbEntity
  8
90000_FRAME
  6
Continuous
 62
     7
100
AcDbLine
 10
194.395416622308
 20
298.7994897070328
 30
0.0
 11
329.3954166223081
 21
298.7994897070328
 31
0.0
  0
INSERT
  5
8CC5
330
20
100
AcDbEntity
  8
90000_FRAME
  6
Continuous
 62
     7
100
AcDbBlockReference
  2
SIEMENS_OUTLINE_BL0
 10
-80.60458337769194
 20
288.7994897070327
 30
0.0
  0
LINE
  5
2548F
330
20
100
AcDbEntity
  8
90000_FRAME
  6
Continuous
 62
     7
100
AcDbLine
 10
-70.60458337769119
 20
288.7994897070327
 30
0.0
 11
-70.60458337769119
 21
558.7994897070326
 31
0.0
  0
LINE
  5
25490
330
20
100
AcDbEntity
  8
90000_FRAME
  6
Continuous
 62
     7
100
AcDbLine
 10
-70.60458337769119
 20
558.7994897070326
 30
0.0
 11
339.3954166223088
 21
558.7994897070326
 31
0.0
  0
LINE
  5
25D0A
330
20
100
AcDbEntity
  8
10000_FRONT
  6
Continuous
 62
     7
370
    13
100
AcDbLine
 10
47.94785262503054
 20
483.9701890089588
 30
0.0
 11
46.86909891941633
 21
483.9701890089588
 31
0.0
  0
LINE
  5
25D0B
330
20
100
AcDbEntity
  8
10000_FRONT
  6
Continuous
 62
     7
370
    13
100
AcDbLine
 10
47.94785273031329
 20
500.7830914474141
 30
0.0
 11
46.86725701604085
 21
500.7830914474141
 31
0.0
  0
LINE
  5
25D0C
330
20
100
AcDbEntity
  8
10000_FRONT
  6
Continuous
 62
     7
370
    13
100
AcDbLine
 10
46.86909891941633
 20
500.7830914474141
 30
0.0
 11
46.86909891941633
 21
483.9701890089588
 31
0.0
  0
LINE
  5
25D0D
330
20
100
AcDbEntity
  8
10000_FRONT
  6
Continuous
 62
     7
370
    13
100
AcDbLine
 10
48.71909891941633
 20
485.3766403668858
 30
0.0
 11
46.86909891941633
 21
485.3766403668858
 31
0.0
  0
LINE
  5
25D0E
330
20
100
AcDbEntity
  8
10000_FRONT
  6
Continuous
 62
     7
370
    13
100
AcDbLine
 10
46.86909891941633
 20
499.3766403668858
 30
0.0
 11
48.71909891941633
 21
499.3766403668858
 31
0.0
  0
LINE
  5
25D0F
330
20
100
AcDbEntity
  8
10000_FRONT
  6
Continuous
 62
     7
370
    13
100
AcDbLine
 10
39.24409891941633
 20
483.7075653668858
 30
0.0
 11
44.14409891941653
 21
483.7075653668858
 31
0.0
  0
LINE
  5
25D10
330
20
100
AcDbEntity
  8
10000_FRONT
  6
Continuous
 62
     7
370
    13
100
AcDbLine
 10
30.64409891941634
 20
483.7660503668858
 30
0.0
 11
35.54409891941654
 21
483.7660503668858
 31
0.0
  0
LINE
  5
25D11
330
20
100
AcDbEntity
  8
10000_FRONT
  6
Continuous
 62
     7
370
    13
100
AcDbLine
 10
39.24409891941633
 20
501.1042153668858
 30
0.0
 11
44.14409891941653
 21
501.1042153668858
 31
0.0
  0
LINE
  5
25D12
330
20
100
AcDbEntity
  8
10000_FRONT
  6
Continuous
 62
     7
370
    13
100
AcDbLine
 10
30.64409891941634
 20
501.1042153668858
 30
0.0
 11
35.54409891941654
 21
501.1042153668858
 31
0.0
  0
LINE
  5
260C9
330
20
100
AcDbEntity
  8
13000_Top
  6
Continuous
 62
     7
370
    20
100
AcDbLine
 10
48.71909891941635
 20
369.8628556385539
 30
0.0
 11
26.21909891941636
 21
369.8628556385539
 31
0.0
  0
LINE
  5
260CA
330
20
100
AcDbEntity
  8
13000_Top
  6
Continuous
 62
     7
370
    20
100
AcDbLine
 10
48.71909891941635
 20
366.3628556385539
 30
0.0
 11
26.21909891941636
 21
366.3628556385539
 31
0.0
  0
LINE
  5
260CB
330
20
100
AcDbEntity
  8
13000_Top
  6
Continuous
 62
     7
370
    20
100
AcDbLine
 10
43.06909891941635
 20
358.1628556385538
 30
0.0
 11
43.06909891941635
 21
362.362855638554
 31
0.0
  0
LINE
  5
260CC
330
20
100
AcDbEntity
  8
13000_Top
  6
Continuous
 62
     7
370
    20
100
AcDbLine
 10
43.06909891941635
 20
358.1628556385538
 30
0.0
 11
46.26909891941632
 21
358.1628556385538
 31
0.0
  0
LINE
  5
260CD
330
20
100
AcDbEntity
  8
13000_Top
  6
Continuous
 62
     7
370
    20
100
AcDbLine
 10
46.26909891941632
 20
358.1628556385538
 30
0.0
 11
46.26909891941632
 21
362.362855638554
 31
0.0
  0
LINE
  5
260CE
330
20
100
AcDbEntity
  8
13000_Top
  6
Continuous
 62
     7
370
    20
100
AcDbLine
 10
43.06909891941635
 20
362.362855638554
 30
0.0
 11
46.26909891941632
 21
362.362855638554
 31
0.0
  0
LINE
  5
260CF
330
20
100
AcDbEntity
  8
13000_Top
  6
Continuous
 62
     7
370
    20
100
AcDbLine
 10
28.66909891941634
 20
358.1628556385538
 30
0.0
 11
31.86909891941636
 21
358.1628556385538
 31
0.0
  0
LINE
  5
260D0
330
20
100
AcDbEntity
  8
13000_Top
  6
Continuous
 62
     7
370
    20
100
AcDbLine
 10
31.86909891941636
 20
358.1628556385538
 30
0.0
 11
31.86909891941636
 21
362.362855638554
 31
0.0
  0
LINE
  5
260D1
330
20
100
AcDbEntity
  8
13000_Top
  6
Continuous
 62
     7
370
    20
100
AcDbLine
 10
28.66909891941634
 20
362.362855638554
 30
0.0
 11
31.86909891941636
 21
362.362855638554
 31
0.0
  0
LINE
  5
260D2
330
20
100
AcDbEntity
  8
13000_Top
  6
Continuous
 62
     7
370
    20
100
AcDbLine
 10
28.66909891941634
 20
358.1628556385538
 30
0.0
 11
28.66909891941634
 21
362.362855638554
 31
0.0
  0
LINE
  5
260D3
330
20
100
AcDbEntity
  8
13000_Top
  6
Continuous
 62
     7
370
    20
100
AcDbLine
 10
35.86909891941636
 20
358.1628556385538
 30
0.0
 11
39.06909891941635
 21
358.1628556385538
 31
0.0
  0
LINE
  5
260D4
330
20
100
AcDbEntity
  8
13000_Top
  6
Continuous
 62
     7
370
    20
100
AcDbLine
 10
39.06909891941635
 20
358.1628556385538
 30
0.0
 11
39.06909891941635
 21
362.362855638554
 31
0.0
  0
LINE
  5
260D5
330
20
100
AcDbEntity
  8
13000_Top
  6
Continuous
 62
     7
370
    20
100
AcDbLine
 10
35.86909891941636
 20
362.362855638554
 30
0.0
 11
39.06909891941635
 21
362.362855638554
 31
0.0
  0
LINE
  5
260D6
330
20
100
AcDbEntity
  8
13000_Top
  6
Continuous
 62
     7
370
    20
100
AcDbLine
 10
35.86909891941636
 20
358.1628556385538
 30
0.0
 11
35.86909891941636
 21
362.362855638554
 31
0.0
  0
LINE
  5
260D7
330
20
100
AcDbEntity
  8
10000_FRONT
  6
Continuous
 62
     7
370
    20
100
AcDbLine
 39
0.25
 10
47.45479891941648
 20
450.1559403668855
 30
0.0
 11
45.18409891941643
 21
450.1559403668858
 31
0.0
1001
AUSTER_ANSICHT
1002
{
1000
Det03
1002
}
1001
AUSTER_FOLIE
1002
{
1000
NSB01341_3RS10_24POL
1002
}
  0
LINE
  5
260D8
330
20
100
AcDbEntity
  8
10000_FRONT
  6
Continuous
 62
     7
370
    20
100
AcDbLine
 39
0.25
 10
44.15409891941645
 20
450.1559403668858
 30
0.0
 11
41.88339891941644
 21
450.1559403668861
 31
0.0
1001
AUSTER_ANSICHT
1002
{
1000
Det03
1002
}
1001
AUSTER_FOLIE
1002
{
1000
NSB01341_3RS10_24POL
1002
}
  0
LINE
  5
260D9
330
20
100
AcDbEntity
  8
10000_FRONT
  6
Continuous
 62
     7
370
    20
100
AcDbLine
 39
0.25
 10
41.88339891941637
 20
448.947240366886
 30
0.0
 11
44.1540989194164
 21
448.9472403668855
 31
0.0
1001
AUSTER_ANSICHT
1002
{
1000
Det03
1002
}
1001
AUSTER_FOLIE
1002
{
1000
NSB01341_3RS10_24POL
1002
}
  0
LINE
  5
260DA
330
20
100
AcDbEntity
  8
10000_FRONT
  6
Continuous
 62
     7
370
    20
100
AcDbLine
 39
0.25
 10
45.18409891941638
 20
448.9472403668855
 30
0.0
 11
47.4547989194164
 21
448.9472403668854
 31
0.0
1001
AUSTER_ANSICHT
1002
{
1000
Det03
1002
}
1001
AUSTER_FOLIE
1002
{
1000
NSB01341_3RS10_24POL
1002
}
  0
LINE
  5
260DB
330
20
100
AcDbEntity
  8
10000_FRONT
  6
Continuous
 62
     7
370
    20
100
AcDbLine
 39
0.25
 10
45.18409891941632
 20
447.7747403668858
 30
0.0
 11
45.18409891941638
 21
448.7670403668857
 31
0.0
1001
AUSTER_ANSICHT
1002
{
1000
Det03
1002
}
1001
AUSTER_FOLIE
1002
{
1000
NSB01341_3RS10_24POL
1002
}
  0
LINE
  5
260DC
330
20
100
AcDbEntity
  8
10000_FRONT
  6
Continuous
 62
     7
370
    20
100
AcDbLine
 39
0.25
 10
44.1540989194164
 20
448.7670403668857
 30
0.0
 11
44.15409891941634
 21
447.7747403668858
 31
0.0
1001
AUSTER_ANSICHT
1002
{
1000
Det03
1002
}
1001
AUSTER_FOLIE
1002
{
1000
NSB01341_3RS10_24POL
1002
}
  0
LINE
  5
260DD
330
20
100
AcDbEntity
  8
10000_FRONT
  6
Continuous
 62
     7
370
    20
100
AcDbLine
 39
0.25
 10
44.15409891941652
 20
451.3284403668857
 30
0.0
 11
44.15409891941645
 21
450.3361403668859
 31
0.0
1001
AUSTER_ANSICHT
1002
{
1000
Det03
1002
}
1001
AUSTER_FOLIE
1002
{
1000
NSB01341_3RS10_24POL
1002
}
  0
LINE
  5
260DE
330
20
100
AcDbEntity
  8
10000_FRONT
  6
Continuous
 62
     7
370
    20
100
AcDbLine
 39
0.25
 10
45.18409891941643
 20
450.3361403668858
 30
0.0
 11
45.1840989194165
 21
451.3284403668857
 31
0.0
1001
AUSTER_ANSICHT
1002
{
1000
Det03
1002
}
1001
AUSTER_FOLIE
1002
{
1000
NSB01341_3RS10_24POL
1002
}
  0
LINE
  5
260DF
330
20
100
AcDbEntity
  8
10000_FRONT
  6
Continuous
 62
     7
370
    20
100
AcDbLine
 39
0.25
 10
44.1540989194164
 20
448.7670403668857
 30
0.0
 11
44.1540989194164
 21
448.9472403668855
 31
0.0
1001
AUSTER_ANSICHT
1002
{
1000
Det03
1002
}
1001
AUSTER_FOLIE
1002
{
1000
NSB01341_3RS10_24POL
1002
}
  0
LINE
  5
260E0
330
20
100
AcDbEntity
  8
10000_FRONT
  6
Continuous
 62
     7
370
    20
100
AcDbLine
 39
0.25
 10
44.15409891941645
 20
450.3361403668859
 30
0.0
 11
44.15409891941645
 21
450.1559403668858
 31
0.0
1001
AUSTER_ANSICHT
1002
{
1000
Det03
1002
}
1001
AUSTER_FOLIE
1002
{
1000
NSB01341_3RS10_24POL
1002
}
  0
LINE
  5
260E1
330
20
100
AcDbEntity
  8
10000_FRONT
  6
Continuous
 62
     7
370
    20
100
AcDbLine
 39
0.25
 10
45.18409891941638
 20
448.7670403668857
 30
0.0
 11
45.18409891941638
 21
448.9472403668855
 31
0.0
1001
AUSTER_ANSICHT
1002
{
1000
Det03
1002
}
1001
AUSTER_FOLIE
1002
{
1000
NSB01341_3RS10_24POL
1002
}
  0
LINE
  5
260E2
330
20
100
AcDbEntity
  8
10000_FRONT
  6
Continuous
 62
     7
370
    20
100
AcDbLine
 39
0.25
 10
45.18409891941643
 20
450.3361403668858
 30
0.0
 11
45.18409891941643
 21
450.1559403668858
 31
0.0
1001
AUSTER_ANSICHT
1002
{
1000
Det03
1002
}
1001
AUSTER_FOLIE
1002
{
1000
NSB01341_3RS10_24POL
1002
}
  0
CIRCLE
  5
260E3
330
20
100
AcDbEntity
  8
10000_FRONT
  6
Continuous
 62
     7
370
    20
100
AcDbCircle
 39
0.25
 10
44.66909891941634
 20
449.5516403668855
 30
0.0
 40
3.1
1001
AUSTER_ANSICHT
1002
{
1000
Det03
1002
}
1001
AUSTER_FOLIE
1002
{
1000
NSB01341_3RS10_24POL
1002
}
  0
ARC
  5
260E4
330
20
100
AcDbEntity
  8
10000_FRONT
  6
Continuous
 62
     7
370
    20
100
AcDbCircle
 39
0.25
 10
44.66909891941634
 20
449.5516403668855
 30
0.0
 40
2.850490999999998
100
AcDbArc
 50
347.7604000000052
 51
12.23959999999451
1001
AUSTER_ANSICHT
1002
{
1000
Det03
1002
}
1001
AUSTER_FOLIE
1002
{
1000
NSB01341_3RS10_24POL
1002
}
  0
ARC
  5
260E5
330
20
100
AcDbEntity
  8
10000_FRONT
  6
Continuous
 62
     7
370
    20
100
AcDbCircle
 39
0.25
 10
44.66909891941634
 20
449.5516403668855
 30
0.0
 40
1.85
100
AcDbArc
 50
253.8365499999936
 51
286.1633999999956
1001
AUSTER_ANSICHT
1002
{
1000
Det03
1002
}
1001
AUSTER_FOLIE
1002
{
1000
NSB01341_3RS10_24POL
1002
}
  0
ARC
  5
260E6
330
20
100
AcDbEntity
  8
10000_FRONT
  6
Continuous
 62
     7
370
    20
100
AcDbCircle
 39
0.25
 10
44.66909891941634
 20
449.5516403668855
 30
0.0
 40
1.85
100
AcDbArc
 50
73.83659999999832
 51
106.1633999999958
1001
AUSTER_ANSICHT
1002
{
1000
Det03
1002
}
1001
AUSTER_FOLIE
1002
{
1000
NSB01341_3RS10_24POL
1002
}
  0
ARC
  5
260E7
330
20
100
AcDbEntity
  8
10000_FRONT
  6
Continuous
 62
     7
370
    20
100
AcDbCircle
 39
0.25
 10
44.66909891941634
 20
449.5516403668855
 30
0.0
 40
2.850490999999998
100
AcDbArc
 50
167.7604000000052
 51
192.2395999999945
1001
AUSTER_ANSICHT
1002
{
1000
Det03
1002
}
1001
AUSTER_FOLIE
1002
{
1000
NSB01341_3RS10_24POL
1002
}
  0
CIRCLE
  5
260E8
330
20
100
AcDbEntity
  8
10000_FRONT
  6
Continuous
 62
     7
370
    20
100
AcDbCircle
 39
0.25
 10
44.66909891941634
 20
449.5516403668855
 30
0.0
 40
3.1
1001
AUSTER_ANSICHT
1002
{
1000
Det03
1002
}
1001
AUSTER_FOLIE
1002
{
1000
NSB01341_3RS10_24POL
1002
}
  0
CIRCLE
  5
260E9
330
20
100
AcDbEntity
  8
10000_FRONT
  6
Continuous
 62
     7
370
    20
100
AcDbCircle
 39
0.25
 10
37.46909891941636
 20
449.5516403668855
 30
0.0
 40
3.1
1001
AUSTER_ANSICHT
1002
{
1000
Det03
1002
}
1001
AUSTER_FOLIE
1002
{
1000
NSB01341_3RS10_24POL
1002
}
  0
ARC
  5
260EA
330
20
100
AcDbEntity
  8
10000_FRONT
  6
Continuous
 62
     7
370
    20
100
AcDbCircle
 39
0.25
 10
37.46909891941636
 20
449.5516403668855
 30
0.0
 40
2.850490999999998
100
AcDbArc
 50
167.7604000000052
 51
192.2395999999945
1001
AUSTER_ANSICHT
1002
{
1000
Det03
1002
}
1001
AUSTER_FOLIE
1002
{
1000
NSB01341_3RS10_24POL
1002
}
  0
ARC
  5
260EB
330
20
100
AcDbEntity
  8
10000_FRONT
  6
Continuous
 62
     7
370
    20
100
AcDbCircle
 39
0.25
 10
37.46909891941636
 20
449.5516403668855
 30
0.0
 40
1.85
100
AcDbArc
 50
73.83659999999832
 51
106.1633999999958
1001
AUSTER_ANSICHT
1002
{
1000
Det03
1002
}
1001
AUSTER_FOLIE
1002
{
1000
NSB01341_3RS10_24POL
1002
}
  0
ARC
  5
260EC
330
20
100
AcDbEntity
  8
10000_FRONT
  6
Continuous
 62
     7
370
    20
100
AcDbCircle
 39
0.25
 10
37.46909891941636
 20
449.5516403668855
 30
0.0
 40
1.85
100
AcDbArc
 50
253.8365499999936
 51
286.1633999999956
1001
AUSTER_ANSICHT
1002
{
1000
Det03
1002
}
1001
AUSTER_FOLIE
1002
{
1000
NSB01341_3RS10_24POL
1002
}
  0
ARC
  5
260ED
330
20
100
AcDbEntity
  8
10000_FRONT
  6
Continuous
 62
     7
370
    20
100
AcDbCircle
 39
0.25
 10
37.46909891941636
 20
449.5516403668855
 30
0.0
 40
2.850490999999998
100
AcDbArc
 50
347.7604000000052
 51
12.23959999999451
1001
AUSTER_ANSICHT
1002
{
1000
Det03
1002
}
1001
AUSTER_FOLIE
1002
{
1000
NSB01341_3RS10_24POL
1002
}
  0
CIRCLE
  5
260EE
330
20
100
AcDbEntity
  8
10000_FRONT
  6
Continuous
 62
     7
370
    20
100
AcDbCircle
 39
0.25
 10
37.46909891941636
 20
449.5516403668855
 30
0.0
 40
3.1
1001
AUSTER_ANSICHT
1002
{
1000
Det03
1002
}
1001
AUSTER_FOLIE
1002
{
1000
NSB01341_3RS10_24POL
1002
}
  0
LINE
  5
260EF
330
20
100
AcDbEntity
  8
10000_FRONT
  6
Continuous
 62
     7
370
    20
100
AcDbLine
 39
0.25
 10
37.98409891941645
 20
450.3361403668858
 30
0.0
 11
37.98409891941643
 21
450.1559403668858
 31
0.0
1001
AUSTER_ANSICHT
1002
{
1000
Det03
1002
}
1001
AUSTER_FOLIE
1002
{
1000
NSB01341_3RS10_24POL
1002
}
  0
LINE
  5
260F0
330
20
100
AcDbEntity
  8
10000_FRONT
  6
Continuous
 62
     7
370
    20
100
AcDbLine
 39
0.25
 10
37.98409891941637
 20
448.7670403668857
 30
0.0
 11
37.98409891941637
 21
448.9472403668855
 31
0.0
1001
AUSTER_ANSICHT
1002
{
1000
Det03
1002
}
1001
AUSTER_FOLIE
1002
{
1000
NSB01341_3RS10_24POL
1002
}
  0
LINE
  5
260F1
330
20
100
AcDbEntity
  8
10000_FRONT
  6
Continuous
 62
     7
370
    20
100
AcDbLine
 39
0.25
 10
36.95409891941647
 20
450.3361403668858
 30
0.0
 11
36.95409891941646
 21
450.1559403668858
 31
0.0
1001
AUSTER_ANSICHT
1002
{
1000
Det03
1002
}
1001
AUSTER_FOLIE
1002
{
1000
NSB01341_3RS10_24POL
1002
}
  0
LINE
  5
260F2
330
20
100
AcDbEntity
  8
10000_FRONT
  6
Continuous
 62
     7
370
    20
100
AcDbLine
 39
0.25
 10
36.9540989194164
 20
448.7670403668857
 30
0.0
 11
36.9540989194164
 21
448.9472403668855
 31
0.0
1001
AUSTER_ANSICHT
1002
{
1000
Det03
1002
}
1001
AUSTER_FOLIE
1002
{
1000
NSB01341_3RS10_24POL
1002
}
  0
LINE
  5
260F3
330
20
100
AcDbEntity
  8
10000_FRONT
  6
Continuous
 62
     7
370
    20
100
AcDbLine
 39
0.25
 10
37.98409891941645
 20
450.3361403668858
 30
0.0
 11
37.98409891941648
 21
451.3284403668857
 31
0.0
1001
AUSTER_ANSICHT
1002
{
1000
Det03
1002
}
1001
AUSTER_FOLIE
1002
{
1000
NSB01341_3RS10_24POL
1002
}
  0
LINE
  5
260F4
330
20
100
AcDbEntity
  8
10000_FRONT
  6
Continuous
 62
     7
370
    20
100
AcDbLine
 39
0.25
 10
36.95409891941651
 20
451.3284403668857
 30
0.0
 11
36.95409891941647
 21
450.3361403668858
 31
0.0
1001
AUSTER_ANSICHT
1002
{
1000
Det03
1002
}
1001
AUSTER_FOLIE
1002
{
1000
NSB01341_3RS10_24POL
1002
}
  0
LINE
  5
260F5
330
20
100
AcDbEntity
  8
10000_FRONT
  6
Continuous
 62
     7
370
    20
100
AcDbLine
 39
0.25
 10
36.9540989194164
 20
448.7670403668857
 30
0.0
 11
36.95409891941634
 21
447.7747403668858
 31
0.0
1001
AUSTER_ANSICHT
1002
{
1000
Det03
1002
}
1001
AUSTER_FOLIE
1002
{
1000
NSB01341_3RS10_24POL
1002
}
  0
LINE
  5
260F6
330
20
100
AcDbEntity
  8
10000_FRONT
  6
Continuous
 62
     7
370
    20
100
AcDbLine
 39
0.25
 10
37.98409891941631
 20
447.7747403668858
 30
0.0
 11
37.98409891941637
 21
448.7670403668857
 31
0.0
1001
AUSTER_ANSICHT
1002
{
1000
Det03
1002
}
1001
AUSTER_FOLIE
1002
{
1000
NSB01341_3RS10_24POL
1002
}
  0
LINE
  5
260F7
330
20
100
AcDbEntity
  8
10000_FRONT
  6
Continuous
 62
     7
370
    20
100
AcDbLine
 39
0.25
 10
37.98409891941637
 20
448.9472403668855
 30
0.0
 11
40.2547989194164
 21
448.9472403668854
 31
0.0
1001
AUSTER_ANSICHT
1002
{
1000
Det03
1002
}
1001
AUSTER_FOLIE
1002
{
1000
NSB01341_3RS10_24POL
1002
}
  0
LINE
  5
260F8
330
20
100
AcDbEntity
  8
10000_FRONT
  6
Continuous
 62
     7
370
    20
100
AcDbLine
 39
0.25
 10
34.68339891941636
 20
448.9472403668858
 30
0.0
 11
36.9540989194164
 21
448.9472403668855
 31
0.0
1001
AUSTER_ANSICHT
1002
{
1000
Det03
1002
}
1001
AUSTER_FOLIE
1002
{
1000
NSB01341_3RS10_24POL
1002
}
  0
LINE
  5
260F9
330
20
100
AcDbEntity
  8
10000_FRONT
  6
Continuous
 62
     7
370
    20
100
AcDbLine
 39
0.25
 10
36.95409891941646
 20
450.1559403668858
 30
0.0
 11
34.68339891941643
 21
450.155940366886
 31
0.0
1001
AUSTER_ANSICHT
1002
{
1000
Det03
1002
}
1001
AUSTER_FOLIE
1002
{
1000
NSB01341_3RS10_24POL
1002
}
  0
LINE
  5
260FA
330
20
100
AcDbEntity
  8
10000_FRONT
  6
Continuous
 62
     7
370
    20
100
AcDbLine
 39
0.25
 10
40.25479891941645
 20
450.1559403668855
 30
0.0
 11
37.98409891941643
 21
450.1559403668858
 31
0.0
1001
AUSTER_ANSICHT
1002
{
1000
Det03
1002
}
1001
AUSTER_FOLIE
1002
{
1000
NSB01341_3RS10_24POL
1002
}
  0
LINE
  5
260FB
330
20
100
AcDbEntity
  8
10000_FRONT
  6
Continuous
 62
     7
370
    20
100
AcDbLine
 39
0.25
 10
33.05479891941644
 20
450.1559403668855
 30
0.0
 11
30.78409891941641
 21
450.1559403668858
 31
0.0
1001
AUSTER_ANSICHT
1002
{
1000
Det03
1002
}
1001
AUSTER_FOLIE
1002
{
1000
NSB01341_3RS10_24POL
1002
}
  0
LINE
  5
260FC
330
20
100
AcDbEntity
  8
10000_FRONT
  6
Continuous
 62
     7
370
    20
100
AcDbLine
 39
0.25
 10
29.75409891941644
 20
450.1559403668858
 30
0.0
 11
27.4833989194164
 21
450.155940366886
 31
0.0
1001
AUSTER_ANSICHT
1002
{
1000
Det03
1002
}
1001
AUSTER_FOLIE
1002
{
1000
NSB01341_3RS10_24POL
1002
}
  0
LINE
  5
260FD
330
20
100
AcDbEntity
  8
10000_FRONT
  6
Continuous
 62
     7
370
    20
100
AcDbLine
 39
0.25
 10
27.48339891941635
 20
448.9472403668858
 30
0.0
 11
29.75409891941638
 21
448.9472403668855
 31
0.0
1001
AUSTER_ANSICHT
1002
{
1000
Det03
1002
}
1001
AUSTER_FOLIE
1002
{
1000
NSB01341_3RS10_24POL
1002
}
  0
LINE
  5
260FE
330
20
100
AcDbEntity
  8
10000_FRONT
  6
Continuous
 62
     7
370
    20
100
AcDbLine
 39
0.25
 10
30.78409891941635
 20
448.9472403668855
 30
0.0
 11
33.05479891941639
 21
448.9472403668854
 31
0.0
1001
AUSTER_ANSICHT
1002
{
1000
Det03
1002
}
1001
AUSTER_FOLIE
1002
{
1000
NSB01341_3RS10_24POL
1002
}
  0
LINE
  5
260FF
330
20
100
AcDbEntity
  8
10000_FRONT
  6
Continuous
 62
     7
370
    20
100
AcDbLine
 39
0.25
 10
30.7840989194163
 20
447.7747403668858
 30
0.0
 11
30.78409891941635
 21
448.7670403668857
 31
0.0
1001
AUSTER_ANSICHT
1002
{
1000
Det03
1002
}
1001
AUSTER_FOLIE
1002
{
1000
NSB01341_3RS10_24POL
1002
}
  0
LINE
  5
26100
330
20
100
AcDbEntity
  8
10000_FRONT
  6
Continuous
 62
     7
370
    20
100
AcDbLine
 39
0.25
 10
29.75409891941638
 20
448.7670403668857
 30
0.0
 11
29.75409891941632
 21
447.7747403668858
 31
0.0
1001
AUSTER_ANSICHT
1002
{
1000
Det03
1002
}
1001
AUSTER_FOLIE
1002
{
1000
NSB01341_3RS10_24POL
1002
}
  0
LINE
  5
26101
330
20
100
AcDbEntity
  8
10000_FRONT
  6
Continuous
 62
     7
370
    20
100
AcDbLine
 39
0.25
 10
29.75409891941649
 20
451.3284403668857
 30
0.0
 11
29.75409891941649
 21
450.3361403668858
 31
0.0
1001
AUSTER_ANSICHT
1002
{
1000
Det03
1002
}
1001
AUSTER_FOLIE
1002
{
1000
NSB01341_3RS10_24POL
1002
}
  0
LINE
  5
26102
330
20
100
AcDbEntity
  8
10000_FRONT
  6
Continuous
 62
     7
370
    20
100
AcDbLine
 39
0.25
 10
30.78409891941646
 20
450.3361403668858
 30
0.0
 11
30.78409891941646
 21
451.3284403668857
 31
0.0
1001
AUSTER_ANSICHT
1002
{
1000
Det03
1002
}
1001
AUSTER_FOLIE
1002
{
1000
NSB01341_3RS10_24POL
1002
}
  0
LINE
  5
26103
330
20
100
AcDbEntity
  8
10000_FRONT
  6
Continuous
 62
     7
370
    20
100
AcDbLine
 39
0.25
 10
29.75409891941638
 20
448.7670403668857
 30
0.0
 11
29.75409891941638
 21
448.9472403668855
 31
0.0
1001
AUSTER_ANSICHT
1002
{
1000
Det03
1002
}
1001
AUSTER_FOLIE
1002
{
1000
NSB01341_3RS10_24POL
1002
}
  0
LINE
  5
26104
330
20
100
AcDbEntity
  8
10000_FRONT
  6
Continuous
 62
     7
370
    20
100
AcDbLine
 39
0.25
 10
29.75409891941649
 20
450.3361403668858
 30
0.0
 11
29.75409891941644
 21
450.1559403668858
 31
0.0
1001
AUSTER_ANSICHT
1002
{
1000
Det03
1002
}
1001
AUSTER_FOLIE
1002
{
1000
NSB01341_3RS10_24POL
1002
}
  0
LINE
  5
26105
330
20
100
AcDbEntity
  8
10000_FRONT
  6
Continuous
 62
     7
370
    20
100
AcDbLine
 39
0.25
 10
30.78409891941635
 20
448.7670403668857
 30
0.0
 11
30.78409891941635
 21
448.9472403668855
 31
0.0
1001
AUSTER_ANSICHT
1002
{
1000
Det03
1002
}
1001
AUSTER_FOLIE
1002
{
1000
NSB01341_3RS10_24POL
1002
}
  0
LINE
  5
26106
330
20
100
AcDbEntity
  8
10000_FRONT
  6
Continuous
 62
     7
370
    20
100
AcDbLine
 39
0.25
 10
30.78409891941646
 20
450.3361403668858
 30
0.0
 11
30.78409891941641
 21
450.1559403668858
 31
0.0
1001
AUSTER_ANSICHT
1002
{
1000
Det03
1002
}
1001
AUSTER_FOLIE
1002
{
1000
NSB01341_3RS10_24POL
1002
}
  0
CIRCLE
  5
26107
330
20
100
AcDbEntity
  8
10000_FRONT
  6
Continuous
 62
     7
370
    20
100
AcDbCircle
 39
0.25
 10
30.26909891941634
 20
449.5516403668855
 30
0.0
 40
3.1
1001
AUSTER_ANSICHT
1002
{
1000
Det03
1002
}
1001
AUSTER_FOLIE
1002
{
1000
NSB01341_3RS10_24POL
1002
}
  0
ARC
  5
26108
330
20
100
AcDbEntity
  8
10000_FRONT
  6
Continuous
 62
     7
370
    20
100
AcDbCircle
 39
0.25
 10
30.26909891941634
 20
449.5516403668855
 30
0.0
 40
2.850490999999998
100
AcDbArc
 50
347.7604000000052
 51
12.23959999999451
1001
AUSTER_ANSICHT
1002
{
1000
Det03
1002
}
1001
AUSTER_FOLIE
1002
{
1000
NSB01341_3RS10_24POL
1002
}
  0
ARC
  5
26109
330
20
100
AcDbEntity
  8
10000_FRONT
  6
Continuous
 62
     7
370
    20
100
AcDbCircle
 39
0.25
 10
30.26909891941634
 20
449.5516403668855
 30
0.0
 40
1.85
100
AcDbArc
 50
253.8365499999936
 51
286.1633999999956
1001
AUSTER_ANSICHT
1002
{
1000
Det03
1002
}
1001
AUSTER_FOLIE
1002
{
1000
NSB01341_3RS10_24POL
1002
}
  0
ARC
  5
2610A
330
20
100
AcDbEntity
  8
10000_FRONT
  6
Continuous
 62
     7
370
    20
100
AcDbCircle
 39
0.25
 10
30.26909891941634
 20
449.5516403668855
 30
0.0
 40
1.85
100
AcDbArc
 50
73.83659999999832
 51
106.1633999999958
1001
AUSTER_ANSICHT
1002
{
1000
Det03
1002
}
1001
AUSTER_FOLIE
1002
{
1000
NSB01341_3RS10_24POL
1002
}
  0
ARC
  5
2610B
330
20
100
AcDbEntity
  8
10000_FRONT
  6
Continuous
 62
     7
370
    20
100
AcDbCircle
 39
0.25
 10
30.26909891941634
 20
449.5516403668855
 30
0.0
 40
2.850490999999998
100
AcDbArc
 50
167.7604000000052
 51
192.2395999999945
1001
AUSTER_ANSICHT
1002
{
1000
Det03
1002
}
1001
AUSTER_FOLIE
1002
{
1000
NSB01341_3RS10_24POL
1002
}
  0
CIRCLE
  5
2610C
330
20
100
AcDbEntity
  8
10000_FRONT
  6
Continuous
 62
     7
370
    20
100
AcDbCircle
 39
0.25
 10
30.26909891941634
 20
449.5516403668855
 30
0.0
 40
3.1
1001
AUSTER_ANSICHT
1002
{
1000
Det03
1002
}
1001
AUSTER_FOLIE
1002
{
1000
NSB01341_3RS10_24POL
1002
}
  0
CIRCLE
  5
2610D
330
20
100
AcDbEntity
  8
10000_FRONT
  6
Continuous
 62
     7
370
    20
100
AcDbCircle
 39
0.25
 10
30.26909891941634
 20
517.6016403668859
 30
0.0
 40
3.1
1001
AUSTER_ANSICHT
1002
{
1000
Det03
1002
}
1001
AUSTER_FOLIE
1002
{
1000
NSB01341_3RS10_24POL
1002
}
  0
ARC
  5
2610E
330
20
100
AcDbEntity
  8
10000_FRONT
  6
Continuous
 62
     7
370
    20
100
AcDbCircle
 39
0.25
 10
30.26909891941634
 20
517.6016403668859
 30
0.0
 40
2.850490999999998
100
AcDbArc
 50
167.7604000000052
 51
192.2395999999945
1001
AUSTER_ANSICHT
1002
{
1000
Det03
1002
}
1001
AUSTER_FOLIE
1002
{
1000
NSB01341_3RS10_24POL
1002
}
  0
ARC
  5
2610F
330
20
100
AcDbEntity
  8
10000_FRONT
  6
Continuous
 62
     7
370
    20
100
AcDbCircle
 39
0.25
 10
30.26909891941634
 20
517.6016403668859
 30
0.0
 40
1.85
100
AcDbArc
 50
73.83659999999832
 51
106.1633999999958
1001
AUSTER_ANSICHT
1002
{
1000
Det03
1002
}
1001
AUSTER_FOLIE
1002
{
1000
NSB01341_3RS10_24POL
1002
}
  0
ARC
  5
26110
330
20
100
AcDbEntity
  8
10000_FRONT
  6
Continuous
 62
     7
370
    20
100
AcDbCircle
 39
0.25
 10
30.26909891941634
 20
517.6016403668859
 30
0.0
 40
1.85
100
AcDbArc
 50
253.8365499999936
 51
286.1633999999956
1001
AUSTER_ANSICHT
1002
{
1000
Det03
1002
}
1001
AUSTER_FOLIE
1002
{
1000
NSB01341_3RS10_24POL
1002
}
  0
ARC
  5
26111
330
20
100
AcDbEntity
  8
10000_FRONT
  6
Continuous
 62
     7
370
    20
100
AcDbCircle
 39
0.25
 10
30.26909891941634
 20
517.6016403668859
 30
0.0
 40
2.850490999999998
100
AcDbArc
 50
347.7604000000052
 51
12.23959999999451
1001
AUSTER_ANSICHT
1002
{
1000
Det03
1002
}
1001
AUSTER_FOLIE
1002
{
1000
NSB01341_3RS10_24POL
1002
}
  0
CIRCLE
  5
26112
330
20
100
AcDbEntity
  8
10000_FRONT
  6
Continuous
 62
     7
370
    20
100
AcDbCircle
 39
0.25
 10
30.26909891941634
 20
517.6016403668859
 30
0.0
 40
3.1
1001
AUSTER_ANSICHT
1002
{
1000
Det03
1002
}
1001
AUSTER_FOLIE
1002
{
1000
NSB01341_3RS10_24POL
1002
}
  0
LINE
  5
26113
330
20
100
AcDbEntity
  8
10000_FRONT
  6
Continuous
 62
     7
370
    20
100
AcDbLine
 39
0.25
 10
30.78409891941646
 20
518.3861403668859
 30
0.0
 11
30.78409891941645
 21
518.2059403668858
 31
0.0
1001
AUSTER_ANSICHT
1002
{
1000
Det03
1002
}
1001
AUSTER_FOLIE
1002
{
1000
NSB01341_3RS10_24POL
1002
}
  0
LINE
  5
26114
330
20
100
AcDbEntity
  8
10000_FRONT
  6
Continuous
 62
     7
370
    20
100
AcDbLine
 39
0.25
 10
30.78409891941638
 20
516.8170403668856
 30
0.0
 11
30.78409891941638
 21
516.9972403668857
 31
0.0
1001
AUSTER_ANSICHT
1002
{
1000
Det03
1002
}
1001
AUSTER_FOLIE
1002
{
1000
NSB01341_3RS10_24POL
1002
}
  0
LINE
  5
26115
330
20
100
AcDbEntity
  8
10000_FRONT
  6
Continuous
 62
     7
370
    20
100
AcDbLine
 39
0.25
 10
29.75409891941649
 20
518.3861403668859
 30
0.0
 11
29.75409891941647
 21
518.2059403668858
 31
0.0
1001
AUSTER_ANSICHT
1002
{
1000
Det03
1002
}
1001
AUSTER_FOLIE
1002
{
1000
NSB01341_3RS10_24POL
1002
}
  0
LINE
  5
26116
330
20
100
AcDbEntity
  8
10000_FRONT
  6
Continuous
 62
     7
370
    20
100
AcDbLine
 39
0.25
 10
29.75409891941641
 20
516.8170403668856
 30
0.0
 11
29.75409891941641
 21
516.9972403668857
 31
0.0
1001
AUSTER_ANSICHT
1002
{
1000
Det03
1002
}
1001
AUSTER_FOLIE
1002
{
1000
NSB01341_3RS10_24POL
1002
}
  0
LINE
  5
26117
330
20
100
AcDbEntity
  8
10000_FRONT
  6
Continuous
 62
     7
370
    20
100
AcDbLine
 39
0.25
 10
30.78409891941646
 20
518.3861403668859
 30
0.0
 11
30.7840989194165
 21
519.3784403668858
 31
0.0
1001
AUSTER_ANSICHT
1002
{
1000
Det03
1002
}
1001
AUSTER_FOLIE
1002
{
1000
NSB01341_3RS10_24POL
1002
}
  0
LINE
  5
26118
330
20
100
AcDbEntity
  8
10000_FRONT
  6
Continuous
 62
     7
370
    20
100
AcDbLine
 39
0.25
 10
29.75409891941652
 20
519.3784403668858
 30
0.0
 11
29.75409891941649
 21
518.3861403668859
 31
0.0
1001
AUSTER_ANSICHT
1002
{
1000
Det03
1002
}
1001
AUSTER_FOLIE
1002
{
1000
NSB01341_3RS10_24POL
1002
}
  0
LINE
  5
26119
330
20
100
AcDbEntity
  8
10000_FRONT
  6
Continuous
 62
     7
370
    20
100
AcDbLine
 39
0.25
 10
29.75409891941641
 20
516.8170403668856
 30
0.0
 11
29.75409891941635
 21
515.8247403668858
 31
0.0
1001
AUSTER_ANSICHT
1002
{
1000
Det03
1002
}
1001
AUSTER_FOLIE
1002
{
1000
NSB01341_3RS10_24POL
1002
}
  0
LINE
  5
2611A
330
20
100
AcDbEntity
  8
10000_FRONT
  6
Continuous
 62
     7
370
    20
100
AcDbLine
 39
0.25
 10
30.78409891941632
 20
515.8247403668858
 30
0.0
 11
30.78409891941638
 21
516.8170403668856
 31
0.0
1001
AUSTER_ANSICHT
1002
{
1000
Det03
1002
}
1001
AUSTER_FOLIE
1002
{
1000
NSB01341_3RS10_24POL
1002
}
  0
LINE
  5
2611B
330
20
100
AcDbEntity
  8
10000_FRONT
  6
Continuous
 62
     7
370
    20
100
AcDbLine
 39
0.25
 10
30.78409891941638
 20
516.9972403668857
 30
0.0
 11
33.05479891941641
 21
516.9972403668857
 31
0.0
1001
AUSTER_ANSICHT
1002
{
1000
Det03
1002
}
1001
AUSTER_FOLIE
1002
{
1000
NSB01341_3RS10_24POL
1002
}
  0
LINE
  5
2611C
330
20
100
AcDbEntity
  8
10000_FRONT
  6
Continuous
 62
     7
370
    20
100
AcDbLine
 39
0.25
 10
27.48339891941637
 20
516.9972403668858
 30
0.0
 11
29.75409891941641
 21
516.9972403668857
 31
0.0
1001
AUSTER_ANSICHT
1002
{
1000
Det03
1002
}
1001
AUSTER_FOLIE
1002
{
1000
NSB01341_3RS10_24POL
1002
}
  0
LINE
  5
2611D
330
20
100
AcDbEntity
  8
10000_FRONT
  6
Continuous
 62
     7
370
    20
100
AcDbLine
 39
0.25
 10
29.75409891941647
 20
518.2059403668858
 30
0.0
 11
27.48339891941643
 21
518.2059403668861
 31
0.0
1001
AUSTER_ANSICHT
1002
{
1000
Det03
1002
}
1001
AUSTER_FOLIE
1002
{
1000
NSB01341_3RS10_24POL
1002
}
  0
LINE
  5
2611E
330
20
100
AcDbEntity
  8
10000_FRONT
  6
Continuous
 62
     7
370
    20
100
AcDbLine
 39
0.25
 10
33.05479891941647
 20
518.2059403668858
 30
0.0
 11
30.78409891941645
 21
518.2059403668858
 31
0.0
1001
AUSTER_ANSICHT
1002
{
1000
Det03
1002
}
1001
AUSTER_FOLIE
1002
{
1000
NSB01341_3RS10_24POL
1002
}
  0
LINE
  5
2611F
330
20
100
AcDbEntity
  8
10000_FRONT
  6
Continuous
 62
     7
370
    20
100
AcDbLine
 39
0.25
 10
40.25479891941649
 20
518.2059403668858
 30
0.0
 11
37.98409891941645
 21
518.2059403668858
 31
0.0
1001
AUSTER_ANSICHT
1002
{
1000
Det03
1002
}
1001
AUSTER_FOLIE
1002
{
1000
NSB01341_3RS10_24POL
1002
}
  0
LINE
  5
26120
330
20
100
AcDbEntity
  8
10000_FRONT
  6
Continuous
 62
     7
370
    20
100
AcDbLine
 39
0.25
 10
36.95409891941647
 20
518.2059403668858
 30
0.0
 11
34.68339891941646
 21
518.2059403668861
 31
0.0
1001
AUSTER_ANSICHT
1002
{
1000
Det03
1002
}
1001
AUSTER_FOLIE
1002
{
1000
NSB01341_3RS10_24POL
1002
}
  0
LINE
  5
26121
330
20
100
AcDbEntity
  8
10000_FRONT
  6
Continuous
 62
     7
370
    20
100
AcDbLine
 39
0.25
 10
34.68339891941639
 20
516.9972403668858
 30
0.0
 11
36.95409891941642
 21
516.9972403668857
 31
0.0
1001
AUSTER_ANSICHT
1002
{
1000
Det03
1002
}
1001
AUSTER_FOLIE
1002
{
1000
NSB01341_3RS10_24POL
1002
}
  0
LINE
  5
26122
330
20
100
AcDbEntity
  8
10000_FRONT
  6
Continuous
 62
     7
370
    20
100
AcDbLine
 39
0.25
 10
37.9840989194164
 20
516.9972403668857
 30
0.0
 11
40.25479891941643
 21
516.9972403668857
 31
0.0
1001
AUSTER_ANSICHT
1002
{
1000
Det03
1002
}
1001
AUSTER_FOLIE
1002
{
1000
NSB01341_3RS10_24POL
1002
}
  0
LINE
  5
26123
330
20
100
AcDbEntity
  8
10000_FRONT
  6
Continuous
 62
     7
370
    20
100
AcDbLine
 39
0.25
 10
37.98409891941634
 20
515.8247403668858
 30
0.0
 11
37.9840989194164
 21
516.8170403668856
 31
0.0
1001
AUSTER_ANSICHT
1002
{
1000
Det03
1002
}
1001
AUSTER_FOLIE
1002
{
1000
NSB01341_3RS10_24POL
1002
}
  0
LINE
  5
26124
330
20
100
AcDbEntity
  8
10000_FRONT
  6
Continuous
 62
     7
370
    20
100
AcDbLine
 39
0.25
 10
36.95409891941642
 20
516.8170403668856
 30
0.0
 11
36.95409891941637
 21
515.8247403668858
 31
0.0
1001
AUSTER_ANSICHT
1002
{
1000
Det03
1002
}
1001
AUSTER_FOLIE
1002
{
1000
NSB01341_3RS10_24POL
1002
}
  0
LINE
  5
26125
330
20
100
AcDbEntity
  8
10000_FRONT
  6
Continuous
 62
     7
370
    20
100
AcDbLine
 39
0.25
 10
36.95409891941654
 20
519.3784403668858
 30
0.0
 11
36.95409891941647
 21
518.3861403668859
 31
0.0
1001
AUSTER_ANSICHT
1002
{
1000
Det03
1002
}
1001
AUSTER_FOLIE
1002
{
1000
NSB01341_3RS10_24POL
1002
}
  0
LINE
  5
26126
330
20
100
AcDbEntity
  8
10000_FRONT
  6
Continuous
 62
     7
370
    20
100
AcDbLine
 39
0.25
 10
37.98409891941645
 20
518.3861403668859
 30
0.0
 11
37.98409891941651
 21
519.3784403668858
 31
0.0
1001
AUSTER_ANSICHT
1002
{
1000
Det03
1002
}
1001
AUSTER_FOLIE
1002
{
1000
NSB01341_3RS10_24POL
1002
}
  0
LINE
  5
26127
330
20
100
AcDbEntity
  8
10000_FRONT
  6
Continuous
 62
     7
370
    20
100
AcDbLine
 39
0.25
 10
36.95409891941642
 20
516.8170403668856
 30
0.0
 11
36.95409891941642
 21
516.9972403668857
 31
0.0
1001
AUSTER_ANSICHT
1002
{
1000
Det03
1002
}
1001
AUSTER_FOLIE
1002
{
1000
NSB01341_3RS10_24POL
1002
}
  0
LINE
  5
26128
330
20
100
AcDbEntity
  8
10000_FRONT
  6
Continuous
 62
     7
370
    20
100
AcDbLine
 39
0.25
 10
36.95409891941647
 20
518.3861403668859
 30
0.0
 11
36.95409891941647
 21
518.2059403668858
 31
0.0
1001
AUSTER_ANSICHT
1002
{
1000
Det03
1002
}
1001
AUSTER_FOLIE
1002
{
1000
NSB01341_3RS10_24POL
1002
}
  0
LINE
  5
26129
330
20
100
AcDbEntity
  8
10000_FRONT
  6
Continuous
 62
     7
370
    20
100
AcDbLine
 39
0.25
 10
37.9840989194164
 20
516.8170403668856
 30
0.0
 11
37.9840989194164
 21
516.9972403668857
 31
0.0
1001
AUSTER_ANSICHT
1002
{
1000
Det03
1002
}
1001
AUSTER_FOLIE
1002
{
1000
NSB01341_3RS10_24POL
1002
}
  0
LINE
  5
2612A
330
20
100
AcDbEntity
  8
10000_FRONT
  6
Continuous
 62
     7
370
    20
100
AcDbLine
 39
0.25
 10
37.98409891941645
 20
518.3861403668859
 30
0.0
 11
37.98409891941645
 21
518.2059403668858
 31
0.0
1001
AUSTER_ANSICHT
1002
{
1000
Det03
1002
}
1001
AUSTER_FOLIE
1002
{
1000
NSB01341_3RS10_24POL
1002
}
  0
CIRCLE
  5
2612B
330
20
100
AcDbEntity
  8
10000_FRONT
  6
Continuous
 62
     7
370
    20
100
AcDbCircle
 39
0.25
 10
37.46909891941636
 20
517.6016403668859
 30
0.0
 40
3.1
1001
AUSTER_ANSICHT
1002
{
1000
Det03
1002
}
1001
AUSTER_FOLIE
1002
{
1000
NSB01341_3RS10_24POL
1002
}
  0
ARC
  5
2612C
330
20
100
AcDbEntity
  8
10000_FRONT
  6
Continuous
 62
     7
370
    20
100
AcDbCircle
 39
0.25
 10
37.46909891941636
 20
517.6016403668859
 30
0.0
 40
2.850490999999998
100
AcDbArc
 50
347.7604000000052
 51
12.23959999999451
1001
AUSTER_ANSICHT
1002
{
1000
Det03
1002
}
1001
AUSTER_FOLIE
1002
{
1000
NSB01341_3RS10_24POL
1002
}
  0
ARC
  5
2612D
330
20
100
AcDbEntity
  8
10000_FRONT
  6
Continuous
 62
     7
370
    20
100
AcDbCircle
 39
0.25
 10
37.46909891941636
 20
517.6016403668859
 30
0.0
 40
1.85
100
AcDbArc
 50
253.8365499999936
 51
286.1633999999956
1001
AUSTER_ANSICHT
1002
{
1000
Det03
1002
}
1001
AUSTER_FOLIE
1002
{
1000
NSB01341_3RS10_24POL
1002
}
  0
ARC
  5
2612E
330
20
100
AcDbEntity
  8
10000_FRONT
  6
Continuous
 62
     7
370
    20
100
AcDbCircle
 39
0.25
 10
37.46909891941636
 20
517.6016403668859
 30
0.0
 40
1.85
100
AcDbArc
 50
73.83659999999832
 51
106.1633999999958
1001
AUSTER_ANSICHT
1002
{
1000
Det03
1002
}
1001
AUSTER_FOLIE
1002
{
1000
NSB01341_3RS10_24POL
1002
}
  0
ARC
  5
2612F
330
20
100
AcDbEntity
  8
10000_FRONT
  6
Continuous
 62
     7
370
    20
100
AcDbCircle
 39
0.25
 10
37.46909891941636
 20
517.6016403668859
 30
0.0
 40
2.850490999999998
100
AcDbArc
 50
167.7604000000052
 51
192.2395999999945
1001
AUSTER_ANSICHT
1002
{
1000
Det03
1002
}
1001
AUSTER_FOLIE
1002
{
1000
NSB01341_3RS10_24POL
1002
}
  0
CIRCLE
  5
26130
330
20
100
AcDbEntity
  8
10000_FRONT
  6
Continuous
 62
     7
370
    20
100
AcDbCircle
 39
0.25
 10
37.46909891941636
 20
517.6016403668859
 30
0.0
 40
3.1
1001
AUSTER_ANSICHT
1002
{
1000
Det03
1002
}
1001
AUSTER_FOLIE
1002
{
1000
NSB01341_3RS10_24POL
1002
}
  0
CIRCLE
  5
26131
330
20
100
AcDbEntity
  8
10000_FRONT
  6
Continuous
 62
     7
370
    20
100
AcDbCircle
 39
0.25
 10
44.66909891941634
 20
517.6016403668859
 30
0.0
 40
3.1
1001
AUSTER_ANSICHT
1002
{
1000
Det03
1002
}
1001
AUSTER_FOLIE
1002
{
1000
NSB01341_3RS10_24POL
1002
}
  0
ARC
  5
26132
330
20
100
AcDbEntity
  8
10000_FRONT
  6
Continuous
 62
     7
370
    20
100
AcDbCircle
 39
0.25
 10
44.66909891941634
 20
517.6016403668859
 30
0.0
 40
2.850490999999998
100
AcDbArc
 50
167.7604000000052
 51
192.2395999999945
1001
AUSTER_ANSICHT
1002
{
1000
Det03
1002
}
1001
AUSTER_FOLIE
1002
{
1000
NSB01341_3RS10_24POL
1002
}
  0
ARC
  5
26133
330
20
100
AcDbEntity
  8
10000_FRONT
  6
Continuous
 62
     7
370
    20
100
AcDbCircle
 39
0.25
 10
44.66909891941634
 20
517.6016403668859
 30
0.0
 40
1.85
100
AcDbArc
 50
73.83659999999832
 51
106.1633999999958
1001
AUSTER_ANSICHT
1002
{
1000
Det03
1002
}
1001
AUSTER_FOLIE
1002
{
1000
NSB01341_3RS10_24POL
1002
}
  0
ARC
  5
26134
330
20
100
AcDbEntity
  8
10000_FRONT
  6
Continuous
 62
     7
370
    20
100
AcDbCircle
 39
0.25
 10
44.66909891941634
 20
517.6016403668859
 30
0.0
 40
1.85
100
AcDbArc
 50
253.8365499999936
 51
286.1633999999956
1001
AUSTER_ANSICHT
1002
{
1000
Det03
1002
}
1001
AUSTER_FOLIE
1002
{
1000
NSB01341_3RS10_24POL
1002
}
  0
ARC
  5
26135
330
20
100
AcDbEntity
  8
10000_FRONT
  6
Continuous
 62
     7
370
    20
100
AcDbCircle
 39
0.25
 10
44.66909891941634
 20
517.6016403668859
 30
0.0
 40
2.850490999999998
100
AcDbArc
 50
347.7604000000052
 51
12.23959999999451
1001
AUSTER_ANSICHT
1002
{
1000
Det03
1002
}
1001
AUSTER_FOLIE
1002
{
1000
NSB01341_3RS10_24POL
1002
}
  0
CIRCLE
  5
26136
330
20
100
AcDbEntity
  8
10000_FRONT
  6
Continuous
 62
     7
370
    20
100
AcDbCircle
 39
0.25
 10
44.66909891941634
 20
517.6016403668859
 30
0.0
 40
3.1
1001
AUSTER_ANSICHT
1002
{
1000
Det03
1002
}
1001
AUSTER_FOLIE
1002
{
1000
NSB01341_3RS10_24POL
1002
}
  0
LINE
  5
26137
330
20
100
AcDbEntity
  8
10000_FRONT
  6
Continuous
 62
     7
370
    20
100
AcDbLine
 39
0.25
 10
45.18409891941645
 20
518.3861403668859
 30
0.0
 11
45.18409891941643
 21
518.2059403668858
 31
0.0
1001
AUSTER_ANSICHT
1002
{
1000
Det03
1002
}
1001
AUSTER_FOLIE
1002
{
1000
NSB01341_3RS10_24POL
1002
}
  0
LINE
  5
26138
330
20
100
AcDbEntity
  8
10000_FRONT
  6
Continuous
 62
     7
370
    20
100
AcDbLine
 39
0.25
 10
45.18409891941638
 20
516.8170403668856
 30
0.0
 11
45.18409891941638
 21
516.9972403668857
 31
0.0
1001
AUSTER_ANSICHT
1002
{
1000
Det03
1002
}
1001
AUSTER_FOLIE
1002
{
1000
NSB01341_3RS10_24POL
1002
}
  0
LINE
  5
26139
330
20
100
AcDbEntity
  8
10000_FRONT
  6
Continuous
 62
     7
370
    20
100
AcDbLine
 39
0.25
 10
44.15409891941649
 20
518.3861403668859
 30
0.0
 11
44.15409891941645
 21
518.2059403668858
 31
0.0
1001
AUSTER_ANSICHT
1002
{
1000
Det03
1002
}
1001
AUSTER_FOLIE
1002
{
1000
NSB01341_3RS10_24POL
1002
}
  0
LINE
  5
2613A
330
20
100
AcDbEntity
  8
10000_FRONT
  6
Continuous
 62
     7
370
    20
100
AcDbLine
 39
0.25
 10
44.1540989194164
 20
516.8170403668856
 30
0.0
 11
44.1540989194164
 21
516.9972403668857
 31
0.0
1001
AUSTER_ANSICHT
1002
{
1000
Det03
1002
}
1001
AUSTER_FOLIE
1002
{
1000
NSB01341_3RS10_24POL
1002
}
  0
LINE
  5
2613B
330
20
100
AcDbEntity
  8
10000_FRONT
  6
Continuous
 62
     7
370
    20
100
AcDbLine
 39
0.25
 10
45.18409891941645
 20
518.3861403668859
 30
0.0
 11
45.1840989194165
 21
519.3784403668858
 31
0.0
1001
AUSTER_ANSICHT
1002
{
1000
Det03
1002
}
1001
AUSTER_FOLIE
1002
{
1000
NSB01341_3RS10_24POL
1002
}
  0
LINE
  5
2613C
330
20
100
AcDbEntity
  8
10000_FRONT
  6
Continuous
 62
     7
370
    20
100
AcDbLine
 39
0.25
 10
44.15409891941652
 20
519.3784403668858
 30
0.0
 11
44.15409891941649
 21
518.3861403668859
 31
0.0
1001
AUSTER_ANSICHT
1002
{
1000
Det03
1002
}
1001
AUSTER_FOLIE
1002
{
1000
NSB01341_3RS10_24POL
1002
}
  0
LINE
  5
2613D
330
20
100
AcDbEntity
  8
10000_FRONT
  6
Continuous
 62
     7
370
    20
100
AcDbLine
 39
0.25
 10
44.1540989194164
 20
516.8170403668856
 30
0.0
 11
44.15409891941634
 21
515.8247403668858
 31
0.0
1001
AUSTER_ANSICHT
1002
{
1000
Det03
1002
}
1001
AUSTER_FOLIE
1002
{
1000
NSB01341_3RS10_24POL
1002
}
  0
LINE
  5
2613E
330
20
100
AcDbEntity
  8
10000_FRONT
  6
Continuous
 62
     7
370
    20
100
AcDbLine
 39
0.25
 10
45.18409891941632
 20
515.8247403668858
 30
0.0
 11
45.18409891941638
 21
516.8170403668856
 31
0.0
1001
AUSTER_ANSICHT
1002
{
1000
Det03
1002
}
1001
AUSTER_FOLIE
1002
{
1000
NSB01341_3RS10_24POL
1002
}
  0
LINE
  5
2613F
330
20
100
AcDbEntity
  8
10000_FRONT
  6
Continuous
 62
     7
370
    20
100
AcDbLine
 39
0.25
 10
45.18409891941638
 20
516.9972403668857
 30
0.0
 11
47.4547989194164
 21
516.9972403668857
 31
0.0
1001
AUSTER_ANSICHT
1002
{
1000
Det03
1002
}
1001
AUSTER_FOLIE
1002
{
1000
NSB01341_3RS10_24POL
1002
}
  0
LINE
  5
26140
330
20
100
AcDbEntity
  8
10000_FRONT
  6
Continuous
 62
     7
370
    20
100
AcDbLine
 39
0.25
 10
41.88339891941637
 20
516.9972403668858
 30
0.0
 11
44.1540989194164
 21
516.9972403668857
 31
0.0
1001
AUSTER_ANSICHT
1002
{
1000
Det03
1002
}
1001
AUSTER_FOLIE
1002
{
1000
NSB01341_3RS10_24POL
1002
}
  0
LINE
  5
26141
330
20
100
AcDbEntity
  8
10000_FRONT
  6
Continuous
 62
     7
370
    20
100
AcDbLine
 39
0.25
 10
44.15409891941645
 20
518.2059403668858
 30
0.0
 11
41.88339891941644
 21
518.2059403668861
 31
0.0
1001
AUSTER_ANSICHT
1002
{
1000
Det03
1002
}
1001
AUSTER_FOLIE
1002
{
1000
NSB01341_3RS10_24POL
1002
}
  0
LINE
  5
26142
330
20
100
AcDbEntity
  8
10000_FRONT
  6
Continuous
 62
     7
370
    20
100
AcDbLine
 39
0.25
 10
47.45479891941648
 20
518.2059403668858
 30
0.0
 11
45.18409891941643
 21
518.2059403668858
 31
0.0
1001
AUSTER_ANSICHT
1002
{
1000
Det03
1002
}
1001
AUSTER_FOLIE
1002
{
1000
NSB01341_3RS10_24POL
1002
}
  0
LINE
  5
26143
330
20
100
AcDbEntity
  8
10000_FRONT
  6
Continuous
 62
     7
370
    20
100
AcDbLine
 39
0.25
 10
27.48339891941617
 20
526.5473403668859
 30
0.0
 11
29.75409891941621
 21
526.5473403668859
 31
0.0
1001
AUSTER_ANSICHT
1002
{
1000
Det03
1002
}
1001
AUSTER_FOLIE
1002
{
1000
NSB01341_3RS10_24POL
1002
}
  0
LINE
  5
26144
330
20
100
AcDbEntity
  8
10000_FRONT
  6
Continuous
 62
     7
370
    20
100
AcDbLine
 39
0.25
 10
30.78409891941618
 20
526.5473403668859
 30
0.0
 11
33.05479891941621
 21
526.5473403668859
 31
0.0
1001
AUSTER_ANSICHT
1002
{
1000
Det03
1002
}
1001
AUSTER_FOLIE
1002
{
1000
NSB01341_3RS10_24POL
1002
}
  0
LINE
  5
26145
330
20
100
AcDbEntity
  8
10000_FRONT
  6
Continuous
 62
     7
370
    20
100
AcDbLine
 39
0.25
 10
33.05479891941621
 20
527.7560403668859
 30
0.0
 11
30.78409891941618
 21
527.7560403668859
 31
0.0
1001
AUSTER_ANSICHT
1002
{
1000
Det03
1002
}
1001
AUSTER_FOLIE
1002
{
1000
NSB01341_3RS10_24POL
1002
}
  0
LINE
  5
26146
330
20
100
AcDbEntity
  8
10000_FRONT
  6
Continuous
 62
     7
370
    20
100
AcDbLine
 39
0.25
 10
29.75409891941621
 20
527.7560403668859
 30
0.0
 11
27.48339891941617
 21
527.7560403668859
 31
0.0
1001
AUSTER_ANSICHT
1002
{
1000
Det03
1002
}
1001
AUSTER_FOLIE
1002
{
1000
NSB01341_3RS10_24POL
1002
}
  0
LINE
  5
26147
330
20
100
AcDbEntity
  8
10000_FRONT
  6
Continuous
 62
     7
370
    20
100
AcDbLine
 39
0.25
 10
29.75409891941621
 20
528.9285403668859
 30
0.0
 11
29.75409891941621
 21
527.936240366886
 31
0.0
1001
AUSTER_ANSICHT
1002
{
1000
Det03
1002
}
1001
AUSTER_FOLIE
1002
{
1000
NSB01341_3RS10_24POL
1002
}
  0
LINE
  5
26148
330
20
100
AcDbEntity
  8
10000_FRONT
  6
Continuous
 62
     7
370
    20
100
AcDbLine
 39
0.25
 10
30.78409891941618
 20
527.936240366886
 30
0.0
 11
30.78409891941618
 21
528.9285403668859
 31
0.0
1001
AUSTER_ANSICHT
1002
{
1000
Det03
1002
}
1001
AUSTER_FOLIE
1002
{
1000
NSB01341_3RS10_24POL
1002
}
  0
LINE
  5
26149
330
20
100
AcDbEntity
  8
10000_FRONT
  6
Continuous
 62
     7
370
    20
100
AcDbLine
 39
0.25
 10
30.78409891941618
 20
525.3748403668859
 30
0.0
 11
30.78409891941618
 21
526.3671403668856
 31
0.0
1001
AUSTER_ANSICHT
1002
{
1000
Det03
1002
}
1001
AUSTER_FOLIE
1002
{
1000
NSB01341_3RS10_24POL
1002
}
  0
LINE
  5
2614A
330
20
100
AcDbEntity
  8
10000_FRONT
  6
Continuous
 62
     7
370
    20
100
AcDbLine
 39
0.25
 10
29.75409891941621
 20
526.3671403668856
 30
0.0
 11
29.75409891941621
 21
525.3748403668859
 31
0.0
1001
AUSTER_ANSICHT
1002
{
1000
Det03
1002
}
1001
AUSTER_FOLIE
1002
{
1000
NSB01341_3RS10_24POL
1002
}
  0
LINE
  5
2614B
330
20
100
AcDbEntity
  8
10000_FRONT
  6
Continuous
 62
     7
370
    20
100
AcDbLine
 39
0.25
 10
30.78409891941618
 20
527.936240366886
 30
0.0
 11
30.78409891941618
 21
527.7560403668859
 31
0.0
1001
AUSTER_ANSICHT
1002
{
1000
Det03
1002
}
1001
AUSTER_FOLIE
1002
{
1000
NSB01341_3RS10_24POL
1002
}
  0
LINE
  5
2614C
330
20
100
AcDbEntity
  8
10000_FRONT
  6
Continuous
 62
     7
370
    20
100
AcDbLine
 39
0.25
 10
30.78409891941618
 20
526.3671403668856
 30
0.0
 11
30.78409891941618
 21
526.5473403668859
 31
0.0
1001
AUSTER_ANSICHT
1002
{
1000
Det03
1002
}
1001
AUSTER_FOLIE
1002
{
1000
NSB01341_3RS10_24POL
1002
}
  0
LINE
  5
2614D
330
20
100
AcDbEntity
  8
10000_FRONT
  6
Continuous
 62
     7
370
    20
100
AcDbLine
 39
0.25
 10
29.75409891941621
 20
527.936240366886
 30
0.0
 11
29.75409891941621
 21
527.7560403668859
 31
0.0
1001
AUSTER_ANSICHT
1002
{
1000
Det03
1002
}
1001
AUSTER_FOLIE
1002
{
1000
NSB01341_3RS10_24POL
1002
}
  0
LINE
  5
2614E
330
20
100
AcDbEntity
  8
10000_FRONT
  6
Continuous
 62
     7
370
    20
100
AcDbLine
 39
0.25
 10
29.75409891941621
 20
526.3671403668856
 30
0.0
 11
29.75409891941621
 21
526.5473403668859
 31
0.0
1001
AUSTER_ANSICHT
1002
{
1000
Det03
1002
}
1001
AUSTER_FOLIE
1002
{
1000
NSB01341_3RS10_24POL
1002
}
  0
ARC
  5
2614F
330
20
100
AcDbEntity
  8
10000_FRONT
  6
Continuous
 62
     7
370
    20
100
AcDbCircle
 39
0.25
 10
30.26909891941634
 20
527.1516403668859
 30
0.0
 40
2.850490999999998
100
AcDbArc
 50
167.7604000000053
 51
192.2395999999947
1001
AUSTER_ANSICHT
1002
{
1000
Det03
1002
}
1001
AUSTER_FOLIE
1002
{
1000
NSB01341_3RS10_24POL
1002
}
  0
ARC
  5
26150
330
20
100
AcDbEntity
  8
10000_FRONT
  6
Continuous
 62
     7
370
    20
100
AcDbCircle
 39
0.25
 10
30.26909891941634
 20
527.1516403668859
 30
0.0
 40
1.85
100
AcDbArc
 50
73.83654999999653
 51
106.1633999999987
1001
AUSTER_ANSICHT
1002
{
1000
Det03
1002
}
1001
AUSTER_FOLIE
1002
{
1000
NSB01341_3RS10_24POL
1002
}
  0
ARC
  5
26151
330
20
100
AcDbEntity
  8
10000_FRONT
  6
Continuous
 62
     7
370
    20
100
AcDbCircle
 39
0.25
 10
30.26909891941634
 20
527.1516403668859
 30
0.0
 40
1.85
100
AcDbArc
 50
253.8366000000013
 51
286.1633999999988
1001
AUSTER_ANSICHT
1002
{
1000
Det03
1002
}
1001
AUSTER_FOLIE
1002
{
1000
NSB01341_3RS10_24POL
1002
}
  0
ARC
  5
26152
330
20
100
AcDbEntity
  8
10000_FRONT
  6
Continuous
 62
     7
370
    20
100
AcDbCircle
 39
0.25
 10
30.26909891941634
 20
527.1516403668859
 30
0.0
 40
2.850490999999998
100
AcDbArc
 50
347.7604000000054
 51
12.23959999999468
1001
AUSTER_ANSICHT
1002
{
1000
Det03
1002
}
1001
AUSTER_FOLIE
1002
{
1000
NSB01341_3RS10_24POL
1002
}
  0
ARC
  5
26153
330
20
100
AcDbEntity
  8
10000_FRONT
  6
Continuous
 62
     7
370
    20
100
AcDbCircle
 39
0.25
 10
30.26909891941634
 20
527.1516403668859
 30
0.0
 40
3.1
100
AcDbArc
 50
293.1680547357652
 51
246.8319452642348
1001
AUSTER_ANSICHT
1002
{
1000
Det03
1002
}
1001
AUSTER_FOLIE
1002
{
1000
NSB01341_3RS10_24POL
1002
}
  0
ARC
  5
26154
330
20
100
AcDbEntity
  8
10000_FRONT
  6
Continuous
 62
     7
370
    20
100
AcDbCircle
 39
0.25
 10
37.46909891941636
 20
527.1516403668859
 30
0.0
 40
3.1
100
AcDbArc
 50
293.1680547357652
 51
246.8319452642348
1001
AUSTER_ANSICHT
1002
{
1000
Det03
1002
}
1001
AUSTER_FOLIE
1002
{
1000
NSB01341_3RS10_24POL
1002
}
  0
ARC
  5
26155
330
20
100
AcDbEntity
  8
10000_FRONT
  6
Continuous
 62
     7
370
    20
100
AcDbCircle
 39
0.25
 10
37.46909891941636
 20
527.1516403668859
 30
0.0
 40
2.850490999999998
100
AcDbArc
 50
347.7604000000054
 51
12.23959999999468
1001
AUSTER_ANSICHT
1002
{
1000
Det03
1002
}
1001
AUSTER_FOLIE
1002
{
1000
NSB01341_3RS10_24POL
1002
}
  0
ARC
  5
26156
330
20
100
AcDbEntity
  8
10000_FRONT
  6
Continuous
 62
     7
370
    20
100
AcDbCircle
 39
0.25
 10
37.46909891941636
 20
527.1516403668859
 30
0.0
 40
1.85
100
AcDbArc
 50
253.8366000000013
 51
286.1633999999988
1001
AUSTER_ANSICHT
1002
{
1000
Det03
1002
}
1001
AUSTER_FOLIE
1002
{
1000
NSB01341_3RS10_24POL
1002
}
  0
ARC
  5
26157
330
20
100
AcDbEntity
  8
10000_FRONT
  6
Continuous
 62
     7
370
    20
100
AcDbCircle
 39
0.25
 10
37.46909891941636
 20
527.1516403668859
 30
0.0
 40
1.85
100
AcDbArc
 50
73.83654999999653
 51
106.1633999999987
1001
AUSTER_ANSICHT
1002
{
1000
Det03
1002
}
1001
AUSTER_FOLIE
1002
{
1000
NSB01341_3RS10_24POL
1002
}
  0
ARC
  5
26158
330
20
100
AcDbEntity
  8
10000_FRONT
  6
Continuous
 62
     7
370
    20
100
AcDbCircle
 39
0.25
 10
37.46909891941636
 20
527.1516403668859
 30
0.0
 40
2.850490999999998
100
AcDbArc
 50
167.7604000000053
 51
192.2395999999947
1001
AUSTER_ANSICHT
1002
{
1000
Det03
1002
}
1001
AUSTER_FOLIE
1002
{
1000
NSB01341_3RS10_24POL
1002
}
  0
LINE
  5
26159
330
20
100
AcDbEntity
  8
10000_FRONT
  6
Continuous
 62
     7
370
    20
100
AcDbLine
 39
0.25
 10
36.95409891941622
 20
526.3671403668856
 30
0.0
 11
36.95409891941622
 21
526.5473403668859
 31
0.0
1001
AUSTER_ANSICHT
1002
{
1000
Det03
1002
}
1001
AUSTER_FOLIE
1002
{
1000
NSB01341_3RS10_24POL
1002
}
  0
LINE
  5
2615A
330
20
100
AcDbEntity
  8
10000_FRONT
  6
Continuous
 62
     7
370
    20
100
AcDbLine
 39
0.25
 10
36.95409891941622
 20
527.936240366886
 30
0.0
 11
36.95409891941622
 21
527.7560403668859
 31
0.0
1001
AUSTER_ANSICHT
1002
{
1000
Det03
1002
}
1001
AUSTER_FOLIE
1002
{
1000
NSB01341_3RS10_24POL
1002
}
  0
LINE
  5
2615B
330
20
100
AcDbEntity
  8
10000_FRONT
  6
Continuous
 62
     7
370
    20
100
AcDbLine
 39
0.25
 10
37.9840989194162
 20
526.3671403668856
 30
0.0
 11
37.9840989194162
 21
526.5473403668859
 31
0.0
1001
AUSTER_ANSICHT
1002
{
1000
Det03
1002
}
1001
AUSTER_FOLIE
1002
{
1000
NSB01341_3RS10_24POL
1002
}
  0
LINE
  5
2615C
330
20
100
AcDbEntity
  8
10000_FRONT
  6
Continuous
 62
     7
370
    20
100
AcDbLine
 39
0.25
 10
37.9840989194162
 20
527.936240366886
 30
0.0
 11
37.9840989194162
 21
527.7560403668859
 31
0.0
1001
AUSTER_ANSICHT
1002
{
1000
Det03
1002
}
1001
AUSTER_FOLIE
1002
{
1000
NSB01341_3RS10_24POL
1002
}
  0
LINE
  5
2615D
330
20
100
AcDbEntity
  8
10000_FRONT
  6
Continuous
 62
     7
370
    20
100
AcDbLine
 39
0.25
 10
36.95409891941622
 20
526.3671403668856
 30
0.0
 11
36.95409891941622
 21
525.3748403668859
 31
0.0
1001
AUSTER_ANSICHT
1002
{
1000
Det03
1002
}
1001
AUSTER_FOLIE
1002
{
1000
NSB01341_3RS10_24POL
1002
}
  0
LINE
  5
2615E
330
20
100
AcDbEntity
  8
10000_FRONT
  6
Continuous
 62
     7
370
    20
100
AcDbLine
 39
0.25
 10
37.9840989194162
 20
525.3748403668859
 30
0.0
 11
37.9840989194162
 21
526.3671403668856
 31
0.0
1001
AUSTER_ANSICHT
1002
{
1000
Det03
1002
}
1001
AUSTER_FOLIE
1002
{
1000
NSB01341_3RS10_24POL
1002
}
  0
LINE
  5
2615F
330
20
100
AcDbEntity
  8
10000_FRONT
  6
Continuous
 62
     7
370
    20
100
AcDbLine
 39
0.25
 10
37.9840989194162
 20
527.936240366886
 30
0.0
 11
37.9840989194162
 21
528.9285403668859
 31
0.0
1001
AUSTER_ANSICHT
1002
{
1000
Det03
1002
}
1001
AUSTER_FOLIE
1002
{
1000
NSB01341_3RS10_24POL
1002
}
  0
LINE
  5
26160
330
20
100
AcDbEntity
  8
10000_FRONT
  6
Continuous
 62
     7
370
    20
100
AcDbLine
 39
0.25
 10
36.95409891941622
 20
528.9285403668859
 30
0.0
 11
36.95409891941622
 21
527.936240366886
 31
0.0
1001
AUSTER_ANSICHT
1002
{
1000
Det03
1002
}
1001
AUSTER_FOLIE
1002
{
1000
NSB01341_3RS10_24POL
1002
}
  0
LINE
  5
26161
330
20
100
AcDbEntity
  8
10000_FRONT
  6
Continuous
 62
     7
370
    20
100
AcDbLine
 39
0.25
 10
36.95409891941622
 20
527.7560403668859
 30
0.0
 11
34.68339891941619
 21
527.7560403668859
 31
0.0
1001
AUSTER_ANSICHT
1002
{
1000
Det03
1002
}
1001
AUSTER_FOLIE
1002
{
1000
NSB01341_3RS10_24POL
1002
}
  0
LINE
  5
26162
330
20
100
AcDbEntity
  8
10000_FRONT
  6
Continuous
 62
     7
370
    20
100
AcDbLine
 39
0.25
 10
40.25479891941621
 20
527.7560403668859
 30
0.0
 11
37.9840989194162
 21
527.7560403668859
 31
0.0
1001
AUSTER_ANSICHT
1002
{
1000
Det03
1002
}
1001
AUSTER_FOLIE
1002
{
1000
NSB01341_3RS10_24POL
1002
}
  0
LINE
  5
26163
330
20
100
AcDbEntity
  8
10000_FRONT
  6
Continuous
 62
     7
370
    20
100
AcDbLine
 39
0.25
 10
37.9840989194162
 20
526.5473403668859
 30
0.0
 11
40.25479891941621
 21
526.5473403668859
 31
0.0
1001
AUSTER_ANSICHT
1002
{
1000
Det03
1002
}
1001
AUSTER_FOLIE
1002
{
1000
NSB01341_3RS10_24POL
1002
}
  0
LINE
  5
26164
330
20
100
AcDbEntity
  8
10000_FRONT
  6
Continuous
 62
     7
370
    20
100
AcDbLine
 39
0.25
 10
34.68339891941619
 20
526.5473403668859
 30
0.0
 11
36.95409891941622
 21
526.5473403668859
 31
0.0
1001
AUSTER_ANSICHT
1002
{
1000
Det03
1002
}
1001
AUSTER_FOLIE
1002
{
1000
NSB01341_3RS10_24POL
1002
}
  0
LINE
  5
26165
330
20
100
AcDbEntity
  8
10000_FRONT
  6
Continuous
 62
     7
370
    20
100
AcDbLine
 39
0.25
 10
41.88339891941618
 20
526.5473403668859
 30
0.0
 11
44.1540989194162
 21
526.5473403668859
 31
0.0
1001
AUSTER_ANSICHT
1002
{
1000
Det03
1002
}
1001
AUSTER_FOLIE
1002
{
1000
NSB01341_3RS10_24POL
1002
}
  0
LINE
  5
26166
330
20
100
AcDbEntity
  8
10000_FRONT
  6
Continuous
 62
     7
370
    20
100
AcDbLine
 39
0.25
 10
45.18409891941618
 20
526.5473403668859
 30
0.0
 11
47.45479891941622
 21
526.5473403668859
 31
0.0
1001
AUSTER_ANSICHT
1002
{
1000
Det03
1002
}
1001
AUSTER_FOLIE
1002
{
1000
NSB01341_3RS10_24POL
1002
}
  0
LINE
  5
26167
330
20
100
AcDbEntity
  8
10000_FRONT
  6
Continuous
 62
     7
370
    20
100
AcDbLine
 39
0.25
 10
47.45479891941622
 20
527.7560403668859
 30
0.0
 11
45.18409891941618
 21
527.7560403668859
 31
0.0
1001
AUSTER_ANSICHT
1002
{
1000
Det03
1002
}
1001
AUSTER_FOLIE
1002
{
1000
NSB01341_3RS10_24POL
1002
}
  0
LINE
  5
26168
330
20
100
AcDbEntity
  8
10000_FRONT
  6
Continuous
 62
     7
370
    20
100
AcDbLine
 39
0.25
 10
44.1540989194162
 20
527.7560403668859
 30
0.0
 11
41.88339891941618
 21
527.7560403668859
 31
0.0
1001
AUSTER_ANSICHT
1002
{
1000
Det03
1002
}
1001
AUSTER_FOLIE
1002
{
1000
NSB01341_3RS10_24POL
1002
}
  0
LINE
  5
26169
330
20
100
AcDbEntity
  8
10000_FRONT
  6
Continuous
 62
     7
370
    20
100
AcDbLine
 39
0.25
 10
44.1540989194162
 20
528.9285403668859
 30
0.0
 11
44.1540989194162
 21
527.936240366886
 31
0.0
1001
AUSTER_ANSICHT
1002
{
1000
Det03
1002
}
1001
AUSTER_FOLIE
1002
{
1000
NSB01341_3RS10_24POL
1002
}
  0
LINE
  5
2616A
330
20
100
AcDbEntity
  8
10000_FRONT
  6
Continuous
 62
     7
370
    20
100
AcDbLine
 39
0.25
 10
45.18409891941618
 20
527.936240366886
 30
0.0
 11
45.18409891941618
 21
528.9285403668859
 31
0.0
1001
AUSTER_ANSICHT
1002
{
1000
Det03
1002
}
1001
AUSTER_FOLIE
1002
{
1000
NSB01341_3RS10_24POL
1002
}
  0
LINE
  5
2616B
330
20
100
AcDbEntity
  8
10000_FRONT
  6
Continuous
 62
     7
370
    20
100
AcDbLine
 39
0.25
 10
45.18409891941618
 20
525.3748403668859
 30
0.0
 11
45.18409891941618
 21
526.3671403668856
 31
0.0
1001
AUSTER_ANSICHT
1002
{
1000
Det03
1002
}
1001
AUSTER_FOLIE
1002
{
1000
NSB01341_3RS10_24POL
1002
}
  0
LINE
  5
2616C
330
20
100
AcDbEntity
  8
10000_FRONT
  6
Continuous
 62
     7
370
    20
100
AcDbLine
 39
0.25
 10
44.1540989194162
 20
526.3671403668856
 30
0.0
 11
44.1540989194162
 21
525.3748403668859
 31
0.0
1001
AUSTER_ANSICHT
1002
{
1000
Det03
1002
}
1001
AUSTER_FOLIE
1002
{
1000
NSB01341_3RS10_24POL
1002
}
  0
LINE
  5
2616D
330
20
100
AcDbEntity
  8
10000_FRONT
  6
Continuous
 62
     7
370
    20
100
AcDbLine
 39
0.25
 10
45.18409891941618
 20
527.936240366886
 30
0.0
 11
45.18409891941618
 21
527.7560403668859
 31
0.0
1001
AUSTER_ANSICHT
1002
{
1000
Det03
1002
}
1001
AUSTER_FOLIE
1002
{
1000
NSB01341_3RS10_24POL
1002
}
  0
LINE
  5
2616E
330
20
100
AcDbEntity
  8
10000_FRONT
  6
Continuous
 62
     7
370
    20
100
AcDbLine
 39
0.25
 10
45.18409891941618
 20
526.3671403668856
 30
0.0
 11
45.18409891941618
 21
526.5473403668859
 31
0.0
1001
AUSTER_ANSICHT
1002
{
1000
Det03
1002
}
1001
AUSTER_FOLIE
1002
{
1000
NSB01341_3RS10_24POL
1002
}
  0
LINE
  5
2616F
330
20
100
AcDbEntity
  8
10000_FRONT
  6
Continuous
 62
     7
370
    20
100
AcDbLine
 39
0.25
 10
44.1540989194162
 20
527.936240366886
 30
0.0
 11
44.1540989194162
 21
527.7560403668859
 31
0.0
1001
AUSTER_ANSICHT
1002
{
1000
Det03
1002
}
1001
AUSTER_FOLIE
1002
{
1000
NSB01341_3RS10_24POL
1002
}
  0
LINE
  5
26170
330
20
100
AcDbEntity
  8
10000_FRONT
  6
Continuous
 62
     7
370
    20
100
AcDbLine
 39
0.25
 10
44.1540989194162
 20
526.3671403668856
 30
0.0
 11
44.1540989194162
 21
526.5473403668859
 31
0.0
1001
AUSTER_ANSICHT
1002
{
1000
Det03
1002
}
1001
AUSTER_FOLIE
1002
{
1000
NSB01341_3RS10_24POL
1002
}
  0
ARC
  5
26171
330
20
100
AcDbEntity
  8
10000_FRONT
  6
Continuous
 62
     7
370
    20
100
AcDbCircle
 39
0.25
 10
44.66909891941634
 20
527.1516403668859
 30
0.0
 40
2.850490999999998
100
AcDbArc
 50
167.7604000000053
 51
192.2395999999947
1001
AUSTER_ANSICHT
1002
{
1000
Det03
1002
}
1001
AUSTER_FOLIE
1002
{
1000
NSB01341_3RS10_24POL
1002
}
  0
ARC
  5
26172
330
20
100
AcDbEntity
  8
10000_FRONT
  6
Continuous
 62
     7
370
    20
100
AcDbCircle
 39
0.25
 10
44.66909891941634
 20
527.1516403668859
 30
0.0
 40
1.85
100
AcDbArc
 50
73.83654999999653
 51
106.1633999999987
1001
AUSTER_ANSICHT
1002
{
1000
Det03
1002
}
1001
AUSTER_FOLIE
1002
{
1000
NSB01341_3RS10_24POL
1002
}
  0
ARC
  5
26173
330
20
100
AcDbEntity
  8
10000_FRONT
  6
Continuous
 62
     7
370
    20
100
AcDbCircle
 39
0.25
 10
44.66909891941634
 20
527.1516403668859
 30
0.0
 40
1.85
100
AcDbArc
 50
253.8366000000013
 51
286.1633999999988
1001
AUSTER_ANSICHT
1002
{
1000
Det03
1002
}
1001
AUSTER_FOLIE
1002
{
1000
NSB01341_3RS10_24POL
1002
}
  0
ARC
  5
26174
330
20
100
AcDbEntity
  8
10000_FRONT
  6
Continuous
 62
     7
370
    20
100
AcDbCircle
 39
0.25
 10
44.66909891941634
 20
527.1516403668859
 30
0.0
 40
2.850490999999998
100
AcDbArc
 50
347.7604000000054
 51
12.23959999999468
1001
AUSTER_ANSICHT
1002
{
1000
Det03
1002
}
1001
AUSTER_FOLIE
1002
{
1000
NSB01341_3RS10_24POL
1002
}
  0
ARC
  5
26175
330
20
100
AcDbEntity
  8
10000_FRONT
  6
Continuous
 62
     7
370
    20
100
AcDbCircle
 39
0.25
 10
44.66909891941634
 20
527.1516403668859
 30
0.0
 40
3.1
100
AcDbArc
 50
293.1680547357652
 51
246.8319452642348
1001
AUSTER_ANSICHT
1002
{
1000
Det03
1002
}
1001
AUSTER_FOLIE
1002
{
1000
NSB01341_3RS10_24POL
1002
}
  0
LINE
  5
26176
330
20
100
AcDbEntity
  8
13000_Top
  6
Continuous
 62
     7
370
    13
100
AcDbLine
 10
47.96736991941637
 20
306.7628656385539
 30
0.0
 11
47.96736991941637
 21
308.7628556385539
 31
0.0
  0
ARC
  5
26177
330
20
100
AcDbEntity
  8
13000_Top
  6
Continuous
 62
     7
370
    13
100
AcDbCircle
 10
43.35061921982478
 20
306.7605487436273
 30
0.0
 40
4.616751280953033
100
AcDbArc
 50
352.459408660556
 51
0.0287536188031458
  0
ARC
  5
26178
330
20
100
AcDbEntity
  8
13000_Top
  6
Continuous
 62
     7
370
    13
100
AcDbCircle
 10
46.28518387020281
 20
306.4256759895241
 30
0.0
 40
1.66446737940353
100
AcDbArc
 50
267.4509030520543
 51
350.6304905892839
  0
LINE
  5
26179
330
20
100
AcDbEntity
  8
13000_Top
  6
Continuous
 62
     7
370
    20
100
AcDbLine
 10
35.86909891941636
 20
325.8628556385539
 30
0.0
 11
35.86909891941636
 21
330.0628556385539
 31
0.0
  0
LINE
  5
2617A
330
20
100
AcDbEntity
  8
13000_Top
  6
Continuous
 62
     7
370
    20
100
AcDbLine
 10
35.86909891941636
 20
330.0628556385539
 30
0.0
 11
39.06909891941635
 21
330.0628556385539
 31
0.0
  0
LINE
  5
2617B
330
20
100
AcDbEntity
  8
13000_Top
  6
Continuous
 62
     7
370
    20
100
AcDbLine
 10
39.06909891941635
 20
325.8628556385539
 30
0.0
 11
39.06909891941635
 21
330.0628556385539
 31
0.0
  0
LINE
  5
2617C
330
20
100
AcDbEntity
  8
13000_Top
  6
Continuous
 62
     7
370
    20
100
AcDbLine
 10
35.86909891941636
 20
325.8628556385539
 30
0.0
 11
39.06909891941635
 21
325.8628556385539
 31
0.0
  0
LINE
  5
2617D
330
20
100
AcDbEntity
  8
13000_Top
  6
Continuous
 62
     7
370
    20
100
AcDbLine
 10
28.66909891941634
 20
325.8628556385539
 30
0.0
 11
28.66909891941634
 21
330.0628556385539
 31
0.0
  0
LINE
  5
2617E
330
20
100
AcDbEntity
  8
13000_Top
  6
Continuous
 62
     7
370
    20
100
AcDbLine
 10
28.66909891941634
 20
330.0628556385539
 30
0.0
 11
31.86909891941636
 21
330.0628556385539
 31
0.0
  0
LINE
  5
2617F
330
20
100
AcDbEntity
  8
13000_Top
  6
Continuous
 62
     7
370
    20
100
AcDbLine
 10
31.86909891941636
 20
325.8628556385539
 30
0.0
 11
31.86909891941636
 21
330.0628556385539
 31
0.0
  0
LINE
  5
26180
330
20
100
AcDbEntity
  8
13000_Top
  6
Continuous
 62
     7
370
    20
100
AcDbLine
 10
28.66909891941634
 20
325.8628556385539
 30
0.0
 11
31.86909891941636
 21
325.8628556385539
 31
0.0
  0
LINE
  5
26182
330
20
100
AcDbEntity
  8
13000_Top
  6
Continuous
 62
     7
370
    20
100
AcDbLine
 10
43.06909891941635
 20
330.0628556385539
 30
0.0
 11
46.26909891941632
 21
330.0628556385539
 31
0.0
  0
LINE
  5
26183
330
20
100
AcDbEntity
  8
13000_Top
  6
Continuous
 62
     7
370
    20
100
AcDbLine
 10
46.26909891941632
 20
325.8628556385539
 30
0.0
 11
46.26909891941632
 21
330.0628556385539
 31
0.0
  0
LINE
  5
26184
330
20
100
AcDbEntity
  8
13000_Top
  6
Continuous
 62
     7
370
    20
100
AcDbLine
 10
43.06909891941635
 20
325.8628556385539
 30
0.0
 11
46.26909891941632
 21
325.8628556385539
 31
0.0
  0
LINE
  5
26185
330
20
100
AcDbEntity
  8
13000_Top
  6
Continuous
 62
     7
370
    20
100
AcDbLine
 10
43.06909891941635
 20
325.8628556385539
 30
0.0
 11
43.06909891941635
 21
330.0628556385539
 31
0.0
  0
LINE
  5
26186
330
20
100
AcDbEntity
  8
13000_Top
  6
Continuous
 62
     7
370
    50
100
AcDbLine
 10
47.91909891941637
 20
308.7628556385539
 30
0.0
 11
46.86909891941636
 21
308.7628556385539
 31
0.0
  0
LINE
  5
26187
330
20
100
AcDbEntity
  8
13000_Top
  6
Continuous
 62
     7
370
    50
100
AcDbLine
 10
42.46909891941635
 20
308.7628556385539
 30
0.0
 11
46.86909891941636
 21
308.7628556385539
 31
0.0
  0
LINE
  5
26188
330
20
100
AcDbEntity
  8
13000_Top
  6
Continuous
 62
     7
370
    50
100
AcDbLine
 10
42.46909891941635
 20
308.7628556385539
 30
0.0
 11
39.66909891941634
 21
308.7628556385539
 31
0.0
  0
LINE
  5
26189
330
20
100
AcDbEntity
  8
13000_Top
  6
Continuous
 62
     7
370
    50
100
AcDbLine
 10
35.26909891941635
 20
308.7628556385539
 30
0.0
 11
39.66909891941634
 21
308.7628556385539
 31
0.0
  0
LINE
  5
2618A
330
20
100
AcDbEntity
  8
13000_Top
  6
Continuous
 62
     7
370
    50
100
AcDbLine
 10
35.26909891941635
 20
308.7628556385539
 30
0.0
 11
32.46909891941636
 21
308.7628556385539
 31
0.0
  0
LINE
  5
2618B
330
20
100
AcDbEntity
  8
13000_Top
  6
Continuous
 62
     7
370
    50
100
AcDbLine
 10
28.06909891941635
 20
308.7628556385539
 30
0.0
 11
32.46909891941636
 21
308.7628556385539
 31
0.0
  0
LINE
  5
2618C
330
20
100
AcDbEntity
  8
13000_Top
  6
Continuous
 62
     7
370
    50
100
AcDbLine
 10
28.06909891941635
 20
308.7628556385539
 30
0.0
 11
27.01909891941634
 21
308.7628556385539
 31
0.0
  0
LINE
  5
2618D
330
20
100
AcDbEntity
  8
13000_Top
  6
Continuous
 62
     7
370
    20
100
AcDbLine
 10
26.21909891941636
 20
337.5628556385539
 30
0.0
 11
48.71909891941635
 21
337.5628556385539
 31
0.0
  0
LINE
  5
2618E
330
20
100
AcDbEntity
  8
13000_Top
  6
Continuous
 62
     7
370
    13
100
AcDbLine
 10
33.96909891941636
 20
381.5628556385539
 30
0.0
 11
27.96909891941635
 21
381.5628556385539
 31
0.0
  0
LINE
  5
2618F
330
20
100
AcDbEntity
  8
13000_Top
  6
Continuous
 62
     7
370
    13
100
AcDbLine
 10
33.96909891941636
 20
375.5628556385539
 30
0.0
 11
33.96909891941636
 21
381.5628556385539
 31
0.0
  0
LINE
  5
26190
330
20
100
AcDbEntity
  8
13000_Top
  6
Continuous
 62
     7
370
    13
100
AcDbLine
 10
27.96909891941635
 20
375.5628556385539
 30
0.0
 11
33.96909891941636
 21
375.5628556385539
 31
0.0
  0
LINE
  5
26191
330
20
100
AcDbEntity
  8
13000_Top
  6
Continuous
 62
     7
370
    13
100
AcDbLine
 10
27.96909891941635
 20
381.5628556385539
 30
0.0
 11
27.96909891941635
 21
375.5628556385539
 31
0.0
  0
LINE
  5
26192
330
20
100
AcDbEntity
  8
13000_Top
  6
Continuous
 62
     7
370
    13
100
AcDbLine
 10
33.96909891941636
 20
388.0628556385539
 30
0.0
 11
27.96909891941635
 21
388.0628556385539
 31
0.0
  0
LINE
  5
26193
330
20
100
AcDbEntity
  8
13000_Top
  6
Continuous
 62
     7
370
    13
100
AcDbLine
 10
33.96909891941636
 20
382.0628556385539
 30
0.0
 11
33.96909891941636
 21
388.0628556385539
 31
0.0
  0
LINE
  5
26194
330
20
100
AcDbEntity
  8
13000_Top
  6
Continuous
 62
     7
370
    13
100
AcDbLine
 10
27.96909891941635
 20
382.0628556385539
 30
0.0
 11
33.96909891941636
 21
382.0628556385539
 31
0.0
  0
LINE
  5
26195
330
20
100
AcDbEntity
  8
13000_Top
  6
Continuous
 62
     7
370
    13
100
AcDbLine
 10
27.96909891941635
 20
388.0628556385539
 30
0.0
 11
27.96909891941635
 21
382.0628556385539
 31
0.0
  0
LINE
  5
26196
330
20
100
AcDbEntity
  8
13000_Top
  6
Continuous
 62
     7
370
    13
100
AcDbLine
 10
33.96909891941636
 20
394.5628556385539
 30
0.0
 11
27.96909891941635
 21
394.5628556385539
 31
0.0
  0
LINE
  5
26197
330
20
100
AcDbEntity
  8
13000_Top
  6
Continuous
 62
     7
370
    13
100
AcDbLine
 10
33.96909891941636
 20
388.5628556385539
 30
0.0
 11
33.96909891941636
 21
394.5628556385539
 31
0.0
  0
LINE
  5
26198
330
20
100
AcDbEntity
  8
13000_Top
  6
Continuous
 62
     7
370
    13
100
AcDbLine
 10
27.96909891941635
 20
388.5628556385539
 30
0.0
 11
33.96909891941636
 21
388.5628556385539
 31
0.0
  0
LINE
  5
26199
330
20
100
AcDbEntity
  8
13000_Top
  6
Continuous
 62
     7
370
    13
100
AcDbLine
 10
27.96909891941635
 20
394.5628556385539
 30
0.0
 11
27.96909891941635
 21
388.5628556385539
 31
0.0
  0
LINE
  5
2619A
330
20
100
AcDbEntity
  8
13000_Top
  6
Continuous
 62
     7
370
    13
100
AcDbLine
 10
33.96909891941636
 20
401.0628556385539
 30
0.0
 11
27.96909891941635
 21
401.0628556385539
 31
0.0
  0
LINE
  5
2619B
330
20
100
AcDbEntity
  8
13000_Top
  6
Continuous
 62
     7
370
    13
100
AcDbLine
 10
33.96909891941636
 20
395.0628556385538
 30
0.0
 11
33.96909891941636
 21
401.0628556385539
 31
0.0
  0
LINE
  5
2619C
330
20
100
AcDbEntity
  8
13000_Top
  6
Continuous
 62
     7
370
    13
100
AcDbLine
 10
27.96909891941635
 20
395.0628556385538
 30
0.0
 11
33.96909891941636
 21
395.0628556385538
 31
0.0
  0
LINE
  5
2619D
330
20
100
AcDbEntity
  8
13000_Top
  6
Continuous
 62
     7
370
    13
100
AcDbLine
 10
27.96909891941635
 20
401.0628556385539
 30
0.0
 11
27.96909891941635
 21
395.0628556385538
 31
0.0
  0
LINE
  5
2619E
330
20
100
AcDbEntity
  8
13000_Top
  6
Continuous
 62
     7
370
    13
100
AcDbLine
 10
33.96909891941636
 20
407.5628556385538
 30
0.0
 11
27.96909891941635
 21
407.5628556385538
 31
0.0
  0
LINE
  5
2619F
330
20
100
AcDbEntity
  8
13000_Top
  6
Continuous
 62
     7
370
    13
100
AcDbLine
 10
33.96909891941636
 20
401.5628556385538
 30
0.0
 11
33.96909891941636
 21
407.5628556385538
 31
0.0
  0
LINE
  5
261A0
330
20
100
AcDbEntity
  8
13000_Top
  6
Continuous
 62
     7
370
    13
100
AcDbLine
 10
27.96909891941635
 20
401.5628556385538
 30
0.0
 11
33.96909891941636
 21
401.5628556385538
 31
0.0
  0
LINE
  5
261A1
330
20
100
AcDbEntity
  8
13000_Top
  6
Continuous
 62
     7
370
    13
100
AcDbLine
 10
27.96909891941635
 20
407.5628556385538
 30
0.0
 11
27.96909891941635
 21
401.5628556385538
 31
0.0
  0
LINE
  5
261A2
330
20
100
AcDbEntity
  8
13000_Top
  6
Continuous
 62
     7
370
    13
100
AcDbLine
 10
33.96909891941636
 20
414.0628556385538
 30
0.0
 11
27.96909891941635
 21
414.0628556385538
 31
0.0
  0
LINE
  5
261A3
330
20
100
AcDbEntity
  8
13000_Top
  6
Continuous
 62
     7
370
    13
100
AcDbLine
 10
33.96909891941636
 20
408.0628556385538
 30
0.0
 11
33.96909891941636
 21
414.0628556385538
 31
0.0
  0
LINE
  5
261A4
330
20
100
AcDbEntity
  8
13000_Top
  6
Continuous
 62
     7
370
    13
100
AcDbLine
 10
27.96909891941635
 20
408.0628556385538
 30
0.0
 11
33.96909891941636
 21
408.0628556385538
 31
0.0
  0
LINE
  5
261A5
330
20
100
AcDbEntity
  8
13000_Top
  6
Continuous
 62
     7
370
    13
100
AcDbLine
 10
27.96909891941635
 20
414.0628556385538
 30
0.0
 11
27.96909891941635
 21
408.0628556385538
 31
0.0
  0
LINE
  5
261A6
330
20
100
AcDbEntity
  8
13000_Top
  6
Continuous
 62
     7
370
    13
100
AcDbLine
 10
33.96909891941636
 20
420.5628556385538
 30
0.0
 11
27.96909891941635
 21
420.5628556385538
 31
0.0
  0
LINE
  5
261A7
330
20
100
AcDbEntity
  8
13000_Top
  6
Continuous
 62
     7
370
    13
100
AcDbLine
 10
33.96909891941636
 20
414.5628556385538
 30
0.0
 11
33.96909891941636
 21
420.5628556385538
 31
0.0
  0
LINE
  5
261A8
330
20
100
AcDbEntity
  8
13000_Top
  6
Continuous
 62
     7
370
    13
100
AcDbLine
 10
27.96909891941635
 20
414.5628556385538
 30
0.0
 11
33.96909891941636
 21
414.5628556385538
 31
0.0
  0
LINE
  5
261A9
330
20
100
AcDbEntity
  8
13000_Top
  6
Continuous
 62
     7
370
    13
100
AcDbLine
 10
27.96909891941635
 20
420.5628556385538
 30
0.0
 11
27.96909891941635
 21
414.5628556385538
 31
0.0
  0
LINE
  5
261AA
330
20
100
AcDbEntity
  8
13000_Top
  6
Continuous
 62
     7
370
    13
100
AcDbLine
 10
40.46909891941635
 20
381.5628556385539
 30
0.0
 11
34.46909891941635
 21
381.5628556385539
 31
0.0
  0
LINE
  5
261AB
330
20
100
AcDbEntity
  8
13000_Top
  6
Continuous
 62
     7
370
    13
100
AcDbLine
 10
40.46909891941635
 20
375.5628556385539
 30
0.0
 11
40.46909891941635
 21
381.5628556385539
 31
0.0
  0
LINE
  5
261AC
330
20
100
AcDbEntity
  8
13000_Top
  6
Continuous
 62
     7
370
    13
100
AcDbLine
 10
34.46909891941635
 20
375.5628556385539
 30
0.0
 11
40.46909891941635
 21
375.5628556385539
 31
0.0
  0
LINE
  5
261AD
330
20
100
AcDbEntity
  8
13000_Top
  6
Continuous
 62
     7
370
    13
100
AcDbLine
 10
34.46909891941635
 20
381.5628556385539
 30
0.0
 11
34.46909891941635
 21
375.5628556385539
 31
0.0
  0
LINE
  5
261AE
330
20
100
AcDbEntity
  8
13000_Top
  6
Continuous
 62
     7
370
    13
100
AcDbLine
 10
40.46909891941635
 20
388.0628556385539
 30
0.0
 11
34.46909891941635
 21
388.0628556385539
 31
0.0
  0
LINE
  5
261AF
330
20
100
AcDbEntity
  8
13000_Top
  6
Continuous
 62
     7
370
    13
100
AcDbLine
 10
40.46909891941635
 20
382.0628556385539
 30
0.0
 11
40.46909891941635
 21
388.0628556385539
 31
0.0
  0
LINE
  5
261B0
330
20
100
AcDbEntity
  8
13000_Top
  6
Continuous
 62
     7
370
    13
100
AcDbLine
 10
34.46909891941635
 20
382.0628556385539
 30
0.0
 11
40.46909891941635
 21
382.0628556385539
 31
0.0
  0
LINE
  5
261B1
330
20
100
AcDbEntity
  8
13000_Top
  6
Continuous
 62
     7
370
    13
100
AcDbLine
 10
34.46909891941635
 20
388.0628556385539
 30
0.0
 11
34.46909891941635
 21
382.0628556385539
 31
0.0
  0
LINE
  5
261B2
330
20
100
AcDbEntity
  8
13000_Top
  6
Continuous
 62
     7
370
    13
100
AcDbLine
 10
40.46909891941635
 20
394.5628556385539
 30
0.0
 11
34.46909891941635
 21
394.5628556385539
 31
0.0
  0
LINE
  5
261B3
330
20
100
AcDbEntity
  8
13000_Top
  6
Continuous
 62
     7
370
    13
100
AcDbLine
 10
40.46909891941635
 20
388.5628556385539
 30
0.0
 11
40.46909891941635
 21
394.5628556385539
 31
0.0
  0
LINE
  5
261B4
330
20
100
AcDbEntity
  8
13000_Top
  6
Continuous
 62
     7
370
    13
100
AcDbLine
 10
34.46909891941635
 20
388.5628556385539
 30
0.0
 11
40.46909891941635
 21
388.5628556385539
 31
0.0
  0
LINE
  5
261B5
330
20
100
AcDbEntity
  8
13000_Top
  6
Continuous
 62
     7
370
    13
100
AcDbLine
 10
34.46909891941635
 20
394.5628556385539
 30
0.0
 11
34.46909891941635
 21
388.5628556385539
 31
0.0
  0
LINE
  5
261B6
330
20
100
AcDbEntity
  8
13000_Top
  6
Continuous
 62
     7
370
    13
100
AcDbLine
 10
40.46909891941635
 20
401.0628556385539
 30
0.0
 11
34.46909891941635
 21
401.0628556385539
 31
0.0
  0
LINE
  5
261B7
330
20
100
AcDbEntity
  8
13000_Top
  6
Continuous
 62
     7
370
    13
100
AcDbLine
 10
40.46909891941635
 20
395.0628556385538
 30
0.0
 11
40.46909891941635
 21
401.0628556385539
 31
0.0
  0
LINE
  5
261B8
330
20
100
AcDbEntity
  8
13000_Top
  6
Continuous
 62
     7
370
    13
100
AcDbLine
 10
34.46909891941635
 20
395.0628556385538
 30
0.0
 11
40.46909891941635
 21
395.0628556385538
 31
0.0
  0
LINE
  5
261B9
330
20
100
AcDbEntity
  8
13000_Top
  6
Continuous
 62
     7
370
    13
100
AcDbLine
 10
34.46909891941635
 20
401.0628556385539
 30
0.0
 11
34.46909891941635
 21
395.0628556385538
 31
0.0
  0
LINE
  5
261BA
330
20
100
AcDbEntity
  8
13000_Top
  6
Continuous
 62
     7
370
    13
100
AcDbLine
 10
40.46909891941635
 20
407.5628556385538
 30
0.0
 11
34.46909891941635
 21
407.5628556385538
 31
0.0
  0
LINE
  5
261BB
330
20
100
AcDbEntity
  8
13000_Top
  6
Continuous
 62
     7
370
    13
100
AcDbLine
 10
40.46909891941635
 20
401.5628556385538
 30
0.0
 11
40.46909891941635
 21
407.5628556385538
 31
0.0
  0
LINE
  5
261BC
330
20
100
AcDbEntity
  8
13000_Top
  6
Continuous
 62
     7
370
    13
100
AcDbLine
 10
34.46909891941635
 20
401.5628556385538
 30
0.0
 11
40.46909891941635
 21
401.5628556385538
 31
0.0
  0
LINE
  5
261BD
330
20
100
AcDbEntity
  8
13000_Top
  6
Continuous
 62
     7
370
    13
100
AcDbLine
 10
34.46909891941635
 20
407.5628556385538
 30
0.0
 11
34.46909891941635
 21
401.5628556385538
 31
0.0
  0
LINE
  5
261BE
330
20
100
AcDbEntity
  8
13000_Top
  6
Continuous
 62
     7
370
    13
100
AcDbLine
 10
40.46909891941635
 20
414.0628556385538
 30
0.0
 11
34.46909891941635
 21
414.0628556385538
 31
0.0
  0
LINE
  5
261BF
330
20
100
AcDbEntity
  8
13000_Top
  6
Continuous
 62
     7
370
    13
100
AcDbLine
 10
40.46909891941635
 20
408.0628556385538
 30
0.0
 11
40.46909891941635
 21
414.0628556385538
 31
0.0
  0
LINE
  5
261C0
330
20
100
AcDbEntity
  8
13000_Top
  6
Continuous
 62
     7
370
    13
100
AcDbLine
 10
34.46909891941635
 20
408.0628556385538
 30
0.0
 11
40.46909891941635
 21
408.0628556385538
 31
0.0
  0
LINE
  5
261C1
330
20
100
AcDbEntity
  8
13000_Top
  6
Continuous
 62
     7
370
    13
100
AcDbLine
 10
34.46909891941635
 20
414.0628556385538
 30
0.0
 11
34.46909891941635
 21
408.0628556385538
 31
0.0
  0
LINE
  5
261C2
330
20
100
AcDbEntity
  8
13000_Top
  6
Continuous
 62
     7
370
    13
100
AcDbLine
 10
40.46909891941635
 20
420.5628556385538
 30
0.0
 11
34.46909891941635
 21
420.5628556385538
 31
0.0
  0
LINE
  5
261C3
330
20
100
AcDbEntity
  8
13000_Top
  6
Continuous
 62
     7
370
    13
100
AcDbLine
 10
40.46909891941635
 20
414.5628556385538
 30
0.0
 11
40.46909891941635
 21
420.5628556385538
 31
0.0
  0
LINE
  5
261C4
330
20
100
AcDbEntity
  8
13000_Top
  6
Continuous
 62
     7
370
    13
100
AcDbLine
 10
34.46909891941635
 20
414.5628556385538
 30
0.0
 11
40.46909891941635
 21
414.5628556385538
 31
0.0
  0
LINE
  5
261C5
330
20
100
AcDbEntity
  8
13000_Top
  6
Continuous
 62
     7
370
    13
100
AcDbLine
 10
34.46909891941635
 20
420.5628556385538
 30
0.0
 11
34.46909891941635
 21
414.5628556385538
 31
0.0
  0
LINE
  5
261C6
330
20
100
AcDbEntity
  8
13000_Top
  6
Continuous
 62
     7
370
    13
100
AcDbLine
 10
46.96909891941635
 20
381.5628556385539
 30
0.0
 11
40.96909891941635
 21
381.5628556385539
 31
0.0
  0
LINE
  5
261C7
330
20
100
AcDbEntity
  8
13000_Top
  6
Continuous
 62
     7
370
    13
100
AcDbLine
 10
46.96909891941635
 20
375.5628556385539
 30
0.0
 11
46.96909891941635
 21
381.5628556385539
 31
0.0
  0
LINE
  5
261C8
330
20
100
AcDbEntity
  8
13000_Top
  6
Continuous
 62
     7
370
    13
100
AcDbLine
 10
40.96909891941635
 20
375.5628556385539
 30
0.0
 11
46.96909891941635
 21
375.5628556385539
 31
0.0
  0
LINE
  5
261C9
330
20
100
AcDbEntity
  8
13000_Top
  6
Continuous
 62
     7
370
    13
100
AcDbLine
 10
40.96909891941635
 20
381.5628556385539
 30
0.0
 11
40.96909891941635
 21
375.5628556385539
 31
0.0
  0
LINE
  5
261CA
330
20
100
AcDbEntity
  8
13000_Top
  6
Continuous
 62
     7
370
    13
100
AcDbLine
 10
46.96909891941635
 20
388.0628556385539
 30
0.0
 11
40.96909891941635
 21
388.0628556385539
 31
0.0
  0
LINE
  5
261CB
330
20
100
AcDbEntity
  8
13000_Top
  6
Continuous
 62
     7
370
    13
100
AcDbLine
 10
46.96909891941635
 20
382.0628556385539
 30
0.0
 11
46.96909891941635
 21
388.0628556385539
 31
0.0
  0
LINE
  5
261CC
330
20
100
AcDbEntity
  8
13000_Top
  6
Continuous
 62
     7
370
    13
100
AcDbLine
 10
40.96909891941635
 20
382.0628556385539
 30
0.0
 11
46.96909891941635
 21
382.0628556385539
 31
0.0
  0
LINE
  5
261CD
330
20
100
AcDbEntity
  8
13000_Top
  6
Continuous
 62
     7
370
    13
100
AcDbLine
 10
40.96909891941635
 20
388.0628556385539
 30
0.0
 11
40.96909891941635
 21
382.0628556385539
 31
0.0
  0
LINE
  5
261CE
330
20
100
AcDbEntity
  8
13000_Top
  6
Continuous
 62
     7
370
    13
100
AcDbLine
 10
46.96909891941635
 20
394.5628556385539
 30
0.0
 11
40.96909891941635
 21
394.5628556385539
 31
0.0
  0
LINE
  5
261CF
330
20
100
AcDbEntity
  8
13000_Top
  6
Continuous
 62
     7
370
    13
100
AcDbLine
 10
46.96909891941635
 20
388.5628556385539
 30
0.0
 11
46.96909891941635
 21
394.5628556385539
 31
0.0
  0
LINE
  5
261D0
330
20
100
AcDbEntity
  8
13000_Top
  6
Continuous
 62
     7
370
    13
100
AcDbLine
 10
40.96909891941635
 20
388.5628556385539
 30
0.0
 11
46.96909891941635
 21
388.5628556385539
 31
0.0
  0
LINE
  5
261D1
330
20
100
AcDbEntity
  8
13000_Top
  6
Continuous
 62
     7
370
    13
100
AcDbLine
 10
40.96909891941635
 20
394.5628556385539
 30
0.0
 11
40.96909891941635
 21
388.5628556385539
 31
0.0
  0
LINE
  5
261D2
330
20
100
AcDbEntity
  8
13000_Top
  6
Continuous
 62
     7
370
    13
100
AcDbLine
 10
46.96909891941635
 20
401.0628556385539
 30
0.0
 11
40.96909891941635
 21
401.0628556385539
 31
0.0
  0
LINE
  5
261D3
330
20
100
AcDbEntity
  8
13000_Top
  6
Continuous
 62
     7
370
    13
100
AcDbLine
 10
46.96909891941635
 20
395.0628556385538
 30
0.0
 11
46.96909891941635
 21
401.0628556385539
 31
0.0
  0
LINE
  5
261D4
330
20
100
AcDbEntity
  8
13000_Top
  6
Continuous
 62
     7
370
    13
100
AcDbLine
 10
40.96909891941635
 20
395.0628556385538
 30
0.0
 11
46.96909891941635
 21
395.0628556385538
 31
0.0
  0
LINE
  5
261D5
330
20
100
AcDbEntity
  8
13000_Top
  6
Continuous
 62
     7
370
    13
100
AcDbLine
 10
40.96909891941635
 20
401.0628556385539
 30
0.0
 11
40.96909891941635
 21
395.0628556385538
 31
0.0
  0
LINE
  5
261D6
330
20
100
AcDbEntity
  8
13000_Top
  6
Continuous
 62
     7
370
    13
100
AcDbLine
 10
46.96909891941635
 20
407.5628556385538
 30
0.0
 11
40.96909891941635
 21
407.5628556385538
 31
0.0
  0
LINE
  5
261D7
330
20
100
AcDbEntity
  8
13000_Top
  6
Continuous
 62
     7
370
    13
100
AcDbLine
 10
46.96909891941635
 20
401.5628556385538
 30
0.0
 11
46.96909891941635
 21
407.5628556385538
 31
0.0
  0
LINE
  5
261D8
330
20
100
AcDbEntity
  8
13000_Top
  6
Continuous
 62
     7
370
    13
100
AcDbLine
 10
40.96909891941635
 20
401.5628556385538
 30
0.0
 11
46.96909891941635
 21
401.5628556385538
 31
0.0
  0
LINE
  5
261D9
330
20
100
AcDbEntity
  8
13000_Top
  6
Continuous
 62
     7
370
    13
100
AcDbLine
 10
40.96909891941635
 20
407.5628556385538
 30
0.0
 11
40.96909891941635
 21
401.5628556385538
 31
0.0
  0
LINE
  5
261DA
330
20
100
AcDbEntity
  8
13000_Top
  6
Continuous
 62
     7
370
    13
100
AcDbLine
 10
46.96909891941635
 20
414.0628556385538
 30
0.0
 11
40.96909891941635
 21
414.0628556385538
 31
0.0
  0
LINE
  5
261DB
330
20
100
AcDbEntity
  8
13000_Top
  6
Continuous
 62
     7
370
    13
100
AcDbLine
 10
46.96909891941635
 20
408.0628556385538
 30
0.0
 11
46.96909891941635
 21
414.0628556385538
 31
0.0
  0
LINE
  5
261DC
330
20
100
AcDbEntity
  8
13000_Top
  6
Continuous
 62
     7
370
    13
100
AcDbLine
 10
40.96909891941635
 20
408.0628556385538
 30
0.0
 11
46.96909891941635
 21
408.0628556385538
 31
0.0
  0
LINE
  5
261DD
330
20
100
AcDbEntity
  8
13000_Top
  6
Continuous
 62
     7
370
    13
100
AcDbLine
 10
40.96909891941635
 20
414.0628556385538
 30
0.0
 11
40.96909891941635
 21
408.0628556385538
 31
0.0
  0
LINE
  5
261DE
330
20
100
AcDbEntity
  8
13000_Top
  6
Continuous
 62
     7
370
    13
100
AcDbLine
 10
46.96909891941635
 20
420.5628556385538
 30
0.0
 11
40.96909891941635
 21
420.5628556385538
 31
0.0
  0
LINE
  5
261DF
330
20
100
AcDbEntity
  8
13000_Top
  6
Continuous
 62
     7
370
    13
100
AcDbLine
 10
46.96909891941635
 20
414.5628556385538
 30
0.0
 11
46.96909891941635
 21
420.5628556385538
 31
0.0
  0
LINE
  5
261E0
330
20
100
AcDbEntity
  8
13000_Top
  6
Continuous
 62
     7
370
    13
100
AcDbLine
 10
40.96909891941635
 20
414.5628556385538
 30
0.0
 11
46.96909891941635
 21
414.5628556385538
 31
0.0
  0
LINE
  5
261E1
330
20
100
AcDbEntity
  8
13000_Top
  6
Continuous
 62
     7
370
    13
100
AcDbLine
 10
40.96909891941635
 20
420.5628556385538
 30
0.0
 11
40.96909891941635
 21
414.5628556385538
 31
0.0
  0
LINE
  5
261E2
330
20
100
AcDbEntity
  8
13000_Top
  6
Continuous
 62
     7
370
    13
100
AcDbLine
 10
47.46909891941635
 20
425.1628556385538
 30
0.0
 11
27.46909891941636
 21
425.1628556385538
 31
0.0
  0
LINE
  5
261E3
330
20
100
AcDbEntity
  8
13000_Top
  6
Continuous
 62
     7
370
    13
100
AcDbLine
 10
27.46909891941636
 20
422.6628556385538
 30
0.0
 11
47.46909891941635
 21
422.6628556385538
 31
0.0
  0
LINE
  5
261E4
330
20
100
AcDbEntity
  8
13000_Top
  6
Continuous
 62
     7
370
    13
100
AcDbLine
 10
47.46909891941635
 20
422.6628556385538
 30
0.0
 11
47.46909891941635
 21
425.1628556385538
 31
0.0
  0
LINE
  5
261E5
330
20
100
AcDbEntity
  8
13000_Top
  6
Continuous
 62
     7
370
    13
100
AcDbLine
 10
27.46909891941636
 20
425.1628556385538
 30
0.0
 11
27.46909891941636
 21
422.6628556385538
 31
0.0
  0
LINE
  5
261E6
330
20
100
AcDbEntity
  8
13000_Top
  6
Continuous
 62
     7
370
    50
100
AcDbLine
 10
26.21909891941636
 20
428.8628556385538
 30
0.0
 11
26.21909891941636
 21
309.5628556385539
 31
0.0
  0
LINE
  5
261E7
330
20
100
AcDbEntity
  8
13000_Top
  6
Continuous
 62
     7
370
    50
100
AcDbLine
 10
26.21909891941636
 20
428.8628556385538
 30
0.0
 11
27.21909891941635
 21
428.8628556385538
 31
0.0
  0
LINE
  5
261E8
330
20
100
AcDbEntity
  8
13000_Top
  6
Continuous
 62
     7
370
    50
100
AcDbLine
 10
27.21909891941635
 20
428.8628556385538
 30
0.0
 11
47.71909891941635
 21
428.8628556385538
 31
0.0
  0
LINE
  5
261E9
330
20
100
AcDbEntity
  8
13000_Top
  6
Continuous
 62
     7
370
    50
100
AcDbLine
 10
47.71909891941635
 20
428.8628556385538
 30
0.0
 11
48.71909891941635
 21
428.8628556385538
 31
0.0
  0
LINE
  5
261EA
330
20
100
AcDbEntity
  8
13000_Top
  6
Continuous
 62
     7
370
    50
100
AcDbLine
 10
48.71909891941635
 20
309.5628556385539
 30
0.0
 11
48.71909891941635
 21
428.8628556385538
 31
0.0
  0
POLYLINE
  5
261EB
330
20
100
AcDbEntity
  8
13000_Top
  6
Continuous
 62
     7
370
    13
100
AcDb2dPolyline
 66
     1
 10
0.0
 20
0.0
 30
0.0
 70
     2
  0
VERTEX
  5
261EC
330
261EB
100
AcDbEntity
  8
13000_Top
  6
Continuous
 62
     7
370
    13
100
AcDbVertex
100
AcDb2dVertex
 10
46.21115891941636
 20
304.762855638554
 30
0.0
  0
VERTEX
  5
261ED
330
261EB
100
AcDbEntity
  8
13000_Top
  6
Continuous
 62
     7
370
    13
100
AcDbVertex
100
AcDb2dVertex
 10
46.21121291941634
 20
304.762855638554
 30
0.0
 42
-0.0000532619
 70
     1
  0
VERTEX
  5
261EE
330
261EB
100
AcDbEntity
  8
13000_Top
  6
Continuous
 62
     7
370
    13
100
AcDbVertex
100
AcDb2dVertex
 10
46.21126691941634
 20
304.762855638554
 30
0.0
 42
-0.0000528581
  0
VERTEX
  5
261EF
330
261EB
100
AcDbEntity
  8
13000_Top
  6
Continuous
 62
     7
370
    13
100
AcDbVertex
100
AcDb2dVertex
 10
46.21132091941634
 20
304.762855638554
 30
0.0
 42
-0.0000531909
 70
     1
  0
VERTEX
  5
261F0
330
261EB
100
AcDbEntity
  8
13000_Top
  6
Continuous
 62
     7
370
    13
100
AcDbVertex
100
AcDb2dVertex
 10
46.21137491941635
 20
304.762855638554
 30
0.0
 42
-0.0000543513
  0
VERTEX
  5
261F1
330
261EB
100
AcDbEntity
  8
13000_Top
  6
Continuous
 62
     7
370
    13
100
AcDbVertex
100
AcDb2dVertex
 10
46.21142891941636
 20
304.762855638554
 30
0.0
 42
-0.0000551986
 70
     1
  0
VERTEX
  5
261F2
330
261EB
100
AcDbEntity
  8
13000_Top
  6
Continuous
 62
     7
370
    13
100
AcDbVertex
100
AcDb2dVertex
 10
46.21148291941634
 20
304.762855638554
 30
0.0
 42
-0.0000559608
  0
VERTEX
  5
261F3
330
261EB
100
AcDbEntity
  8
13000_Top
  6
Continuous
 62
     7
370
    13
100
AcDbVertex
100
AcDb2dVertex
 10
46.21153791941634
 20
304.762855638554
 30
0.0
 42
-0.0000566764
 70
     1
  0
VERTEX
  5
261F4
330
261EB
100
AcDbEntity
  8
13000_Top
  6
Continuous
 62
     7
370
    13
100
AcDbVertex
100
AcDb2dVertex
 10
46.21159191941635
 20
304.762855638554
 30
0.0
 42
-0.000057537
  0
VERTEX
  5
261F5
330
261EB
100
AcDbEntity
  8
13000_Top
  6
Continuous
 62
     7
370
    13
100
AcDbVertex
100
AcDb2dVertex
 10
46.21164591941634
 20
304.762855638554
 30
0.0
 42
-0.000058281
 70
     1
  0
VERTEX
  5
261F6
330
261EB
100
AcDbEntity
  8
13000_Top
  6
Continuous
 62
     7
370
    13
100
AcDbVertex
100
AcDb2dVertex
 10
46.21169991941636
 20
304.762855638554
 30
0.0
 42
-0.0000591151
  0
VERTEX
  5
261F7
330
261EB
100
AcDbEntity
  8
13000_Top
  6
Continuous
 62
     7
370
    13
100
AcDbVertex
100
AcDb2dVertex
 10
46.21175491941634
 20
304.762855638554
 30
0.0
 42
-0.0000598497
 70
     1
  0
VERTEX
  5
261F8
330
261EB
100
AcDbEntity
  8
13000_Top
  6
Continuous
 62
     7
370
    13
100
AcDbVertex
100
AcDb2dVertex
 10
46.21180891941636
 20
304.762855638554
 30
0.0
 42
-0.0000606862
  0
VERTEX
  5
261F9
330
261EB
100
AcDbEntity
  8
13000_Top
  6
Continuous
 62
     7
370
    13
100
AcDbVertex
100
AcDb2dVertex
 10
46.21186291941635
 20
304.762855638554
 30
0.0
 42
-0.0000614216
 70
     1
  0
VERTEX
  5
261FA
330
261EB
100
AcDbEntity
  8
13000_Top
  6
Continuous
 62
     7
370
    13
100
AcDbVertex
100
AcDb2dVertex
 10
46.21191691941635
 20
304.762855638554
 30
0.0
 42
-0.0000622543
  0
VERTEX
  5
261FB
330
261EB
100
AcDbEntity
  8
13000_Top
  6
Continuous
 62
     7
370
    13
100
AcDbVertex
100
AcDb2dVertex
 10
46.21197191941635
 20
304.762855638554
 30
0.0
 42
-0.0000629864
 70
     1
  0
VERTEX
  5
261FC
330
261EB
100
AcDbEntity
  8
13000_Top
  6
Continuous
 62
     7
370
    13
100
AcDbVertex
100
AcDb2dVertex
 10
46.21202591941633
 20
304.762855638554
 30
0.0
 42
-0.000063818
  0
VERTEX
  5
261FD
330
261EB
100
AcDbEntity
  8
13000_Top
  6
Continuous
 62
     7
370
    13
100
AcDbVertex
100
AcDb2dVertex
 10
46.21207991941637
 20
304.762855638554
 30
0.0
 42
-0.000064547
 70
     1
  0
VERTEX
  5
261FE
330
261EB
100
AcDbEntity
  8
13000_Top
  6
Continuous
 62
     7
370
    13
100
AcDbVertex
100
AcDb2dVertex
 10
46.21213491941634
 20
304.762855638554
 30
0.0
 42
-0.0000653731
  0
VERTEX
  5
261FF
330
261EB
100
AcDbEntity
  8
13000_Top
  6
Continuous
 62
     7
370
    13
100
AcDbVertex
100
AcDb2dVertex
 10
46.21218891941635
 20
304.762855638554
 30
0.0
 42
-0.0000661038
 70
     1
  0
VERTEX
  5
26200
330
261EB
100
AcDbEntity
  8
13000_Top
  6
Continuous
 62
     7
370
    13
100
AcDbVertex
100
AcDb2dVertex
 10
46.21224391941635
 20
304.762855638554
 30
0.0
 42
-0.0000669412
  0
VERTEX
  5
26201
330
261EB
100
AcDbEntity
  8
13000_Top
  6
Continuous
 62
     7
370
    13
100
AcDbVertex
100
AcDb2dVertex
 10
46.21229791941632
 20
304.762855638554
 30
0.0
 42
-0.0000676504
 70
     1
  0
VERTEX
  5
26202
330
261EB
100
AcDbEntity
  8
13000_Top
  6
Continuous
 62
     7
370
    13
100
AcDbVertex
100
AcDb2dVertex
 10
46.21235191941636
 20
304.762855638554
 30
0.0
 42
-0.0000684367
  0
VERTEX
  5
26203
330
261EB
100
AcDbEntity
  8
13000_Top
  6
Continuous
 62
     7
370
    13
100
AcDbVertex
100
AcDb2dVertex
 10
46.21240691941634
 20
304.762855638554
 30
0.0
 42
-0.0000692129
 70
     1
  0
VERTEX
  5
26204
330
261EB
100
AcDbEntity
  8
13000_Top
  6
Continuous
 62
     7
370
    13
100
AcDbVertex
100
AcDb2dVertex
 10
46.21246091941634
 20
304.762855638554
 30
0.0
 42
-0.000070171
  0
VERTEX
  5
26205
330
261EB
100
AcDbEntity
  8
13000_Top
  6
Continuous
 62
     7
370
    13
100
AcDbVertex
100
AcDb2dVertex
 10
46.21251591941635
 20
304.762855638554
 30
0.0
 42
-0.0000707004
 70
     1
  0
VERTEX
  5
26206
330
261EB
100
AcDbEntity
  8
13000_Top
  6
Continuous
 62
     7
370
    13
100
AcDbVertex
100
AcDb2dVertex
 10
46.21256991941635
 20
304.762855638554
 30
0.0
 42
-0.0000710479
  0
VERTEX
  5
26207
330
261EB
100
AcDbEntity
  8
13000_Top
  6
Continuous
 62
     7
370
    13
100
AcDbVertex
100
AcDb2dVertex
 10
46.21262491941634
 20
304.762855638554
 30
0.0
 42
-0.0000724283
 70
     1
  0
VERTEX
  5
26208
330
261EB
100
AcDbEntity
  8
13000_Top
  6
Continuous
 62
     7
370
    13
100
AcDbVertex
100
AcDb2dVertex
 10
46.21267891941633
 20
304.762855638554
 30
0.0
 42
-0.0000748307
  0
VERTEX
  5
26209
330
261EB
100
AcDbEntity
  8
13000_Top
  6
Continuous
 62
     7
370
    13
100
AcDbVertex
100
AcDb2dVertex
 10
46.21273391941635
 20
304.762855638554
 30
0.0
 42
-0.0000732886
 70
     1
  0
VERTEX
  5
2620A
330
261EB
100
AcDbEntity
  8
13000_Top
  6
Continuous
 62
     7
370
    13
100
AcDbVertex
100
AcDb2dVertex
 10
46.21278891941634
 20
304.762855638554
 30
0.0
 42
-0.000068916
  0
VERTEX
  5
2620B
330
261EB
100
AcDbEntity
  8
13000_Top
  6
Continuous
 62
     7
370
    13
100
AcDbVertex
100
AcDb2dVertex
 10
46.21284291941633
 20
304.762855638554
 30
0.0
 42
-0.0000771727
 70
     1
  0
VERTEX
  5
2620C
330
261EB
100
AcDbEntity
  8
13000_Top
  6
Continuous
 62
     7
370
    13
100
AcDbVertex
100
AcDb2dVertex
 10
46.21289791941634
 20
304.762855638554
 30
0.0
 42
-0.000093614
  0
VERTEX
  5
2620D
330
261EB
100
AcDbEntity
  8
13000_Top
  6
Continuous
 62
     7
370
    13
100
AcDbVertex
100
AcDb2dVertex
 10
46.21295391941635
 20
304.762855638554
 30
0.0
 42
-0.00007105
 70
     1
  0
VERTEX
  5
2620E
330
261EB
100
AcDbEntity
  8
13000_Top
  6
Continuous
 62
     7
370
    13
100
AcDbVertex
100
AcDb2dVertex
 10
46.21300691941636
 20
304.762855638554
 30
0.0
 42
-0.0000230224
  0
VERTEX
  5
2620F
330
261EB
100
AcDbEntity
  8
13000_Top
  6
Continuous
 62
     7
370
    13
100
AcDbVertex
100
AcDb2dVertex
 10
46.21305491941635
 20
304.762855638554
 30
0.0
 42
-0.0001027543
 70
     1
  0
VERTEX
  5
26210
330
261EB
100
AcDbEntity
  8
13000_Top
  6
Continuous
 62
     7
370
    13
100
AcDbVertex
100
AcDb2dVertex
 10
46.21311591941636
 20
304.762855638554
 30
0.0
 42
-0.0001801008
  0
VERTEX
  5
26211
330
261EB
100
AcDbEntity
  8
13000_Top
  6
Continuous
 62
     7
370
    13
100
AcDbVertex
100
AcDb2dVertex
 10
46.21321091941635
 20
304.762855638554
 30
0.0
 42
-0.000088171
 70
     1
  0
VERTEX
  5
26212
330
261EB
100
AcDbEntity
  8
13000_Top
  6
Continuous
 62
     7
370
    13
100
AcDbVertex
100
AcDb2dVertex
 10
46.21333591941635
 20
304.762855638554
 30
0.0
 42
-0.000046511
  0
SEQEND
  5
26213
330
261EB
100
AcDbEntity
  8
13000_Top
  6
Continuous
 62
     7
370
    13
  0
LINE
  5
26214
330
20
100
AcDbEntity
  8
13000_Top
  6
Continuous
 62
     7
370
    50
100
AcDbLine
 10
26.21909891941636
 20
309.5628556385539
 30
0.0
 11
26.21909891941636
 21
309.262855638554
 31
0.0
  0
LINE
  5
26215
330
20
100
AcDbEntity
  8
13000_Top
  6
Continuous
 62
     7
370
    50
100
AcDbLine
 10
48.71909891941635
 20
309.262855638554
 30
0.0
 11
48.71909891941635
 21
309.5628556385539
 31
0.0
  0
LINE
  5
26216
330
20
100
AcDbEntity
  8
13000_Top
  6
Continuous
 62
     7
370
    13
100
AcDbLine
 10
31.91909891941634
 20
306.1128556385539
 30
0.0
 11
29.76909891941634
 21
306.1128556385539
 31
0.0
  0
LINE
  5
26217
330
20
100
AcDbEntity
  8
13000_Top
  6
Continuous
 62
     7
370
    13
100
AcDbLine
 10
31.91909891941634
 20
306.1128556385539
 30
0.0
 11
31.91909891941634
 21
307.0128556385538
 31
0.0
  0
LINE
  5
26218
330
20
100
AcDbEntity
  8
13000_Top
  6
Continuous
 62
     7
370
    13
100
AcDbLine
 10
28.86909891941636
 20
304.762855638554
 30
0.0
 11
29.46909891941635
 21
304.762855638554
 31
0.0
  0
LINE
  5
26219
330
20
100
AcDbEntity
  8
13000_Top
  6
Continuous
 62
     7
370
    13
100
AcDbLine
 10
45.91909891941637
 20
304.762855638554
 30
0.0
 11
46.21115591941637
 21
304.762855638554
 31
0.0
  0
LINE
  5
2621A
330
20
100
AcDbEntity
  8
13000_Top
  6
Continuous
 62
     7
370
    13
100
AcDbLine
 10
45.31909891941634
 20
304.762855638554
 30
0.0
 11
45.91909891941637
 21
304.762855638554
 31
0.0
  0
LINE
  5
2621B
330
20
100
AcDbEntity
  8
13000_Top
  6
Continuous
 62
     7
370
    13
100
AcDbLine
 10
43.01909891941632
 20
306.1128556385539
 30
0.0
 11
43.01909891941632
 21
307.0128556385538
 31
0.0
  0
LINE
  5
2621C
330
20
100
AcDbEntity
  8
13000_Top
  6
Continuous
 62
     7
370
    13
100
AcDbLine
 10
40.51909891941631
 20
307.0128556385538
 30
0.0
 11
40.51909891941631
 21
306.1128556385539
 31
0.0
  0
LINE
  5
2621D
330
20
100
AcDbEntity
  8
13000_Top
  6
Continuous
 62
     7
370
    13
100
AcDbLine
 10
45.01909891941632
 20
306.1128556385539
 30
0.0
 11
43.01909891941632
 21
306.1128556385539
 31
0.0
  0
LINE
  5
2621E
330
20
100
AcDbEntity
  8
13000_Top
  6
Continuous
 62
     7
370
    13
100
AcDbLine
 10
46.21909891941635
 20
305.0628556385539
 30
0.0
 11
46.21909891941635
 21
308.7628556385539
 31
0.0
  0
LINE
  5
2621F
330
20
100
AcDbEntity
  8
13000_Top
  6
Continuous
 62
     7
370
    13
100
AcDbLine
 10
28.56909891941635
 20
308.7628556385539
 30
0.0
 11
28.56909891941635
 21
305.0628556385539
 31
0.0
  0
LINE
  5
26220
330
20
100
AcDbEntity
  8
13000_Top
  6
Continuous
 62
     7
370
    50
100
AcDbLine
 10
47.91910691941635
 20
308.7628556385539
 30
0.0
 11
48.21909891941635
 21
308.7628556385539
 31
0.0
  0
LINE
  5
26221
330
20
100
AcDbEntity
  8
13000_Top
  6
Continuous
 62
     7
370
    50
100
AcDbLine
 10
26.71909891941635
 20
308.7628556385539
 30
0.0
 11
27.01909291941635
 21
308.7628556385539
 31
0.0
  0
LINE
  5
26222
330
20
100
AcDbEntity
  8
13000_Top
  6
Continuous
 62
     7
370
    13
100
AcDbLine
 10
35.54409891941634
 20
304.762855638554
 30
0.0
 11
30.64409891941634
 21
304.762855638554
 31
0.0
  0
LINE
  5
26223
330
20
100
AcDbEntity
  8
13000_Top
  6
Continuous
 62
     7
370
    13
100
AcDbLine
 10
44.14409891941633
 20
304.762855638554
 30
0.0
 11
39.24409891941636
 21
304.762855638554
 31
0.0
  0
ARC
  5
26224
330
20
100
AcDbEntity
  8
13000_Top
  6
Continuous
 62
     7
370
    13
100
AcDbCircle
 10
29.46909891941635
 20
305.0628556385539
 30
0.0
 40
0.3
100
AcDbArc
 50
270.0
 51
0.0
  0
ARC
  5
26225
330
20
100
AcDbEntity
  8
13000_Top
  6
Continuous
 62
     7
370
    13
100
AcDbCircle
 10
45.91909891941637
 20
305.0628556385539
 30
0.0
 40
0.3
100
AcDbArc
 50
270.0
 51
0.0
  0
ARC
  5
26226
330
20
100
AcDbEntity
  8
13000_Top
  6
Continuous
 62
     7
370
    13
100
AcDbCircle
 10
28.86909891941636
 20
305.0628556385539
 30
0.0
 40
0.3
100
AcDbArc
 50
180.0
 51
270.0
  0
ARC
  5
26227
330
20
100
AcDbEntity
  8
13000_Top
  6
Continuous
 62
     7
370
    13
100
AcDbCircle
 10
45.31909891941634
 20
305.0628556385539
 30
0.0
 40
0.3
100
AcDbArc
 50
180.0
 51
270.0
  0
LINE
  5
26228
330
20
100
AcDbEntity
  8
13000_Top
  6
Continuous
 62
     7
370
    13
100
AcDbLine
 10
34.41909891941634
 20
306.1128556385539
 30
0.0
 11
34.41909891941634
 21
307.0128556385538
 31
0.0
  0
LINE
  5
26229
330
20
100
AcDbEntity
  8
13000_Top
  6
Continuous
 62
     7
370
    13
100
AcDbLine
 10
45.01909891941632
 20
305.0628556385539
 30
0.0
 11
45.01909891941635
 21
307.0128556385538
 31
0.0
  0
ARC
  5
2622A
330
20
100
AcDbEntity
  8
13000_Top
  6
Continuous
 62
     7
370
    50
100
AcDbCircle
 10
26.71909891941635
 20
309.262855638554
 30
0.0
 40
0.5
100
AcDbArc
 50
180.0
 51
270.0
  0
ARC
  5
2622B
330
20
100
AcDbEntity
  8
13000_Top
  6
Continuous
 62
     7
370
    50
100
AcDbCircle
 10
48.21909891941635
 20
309.262855638554
 30
0.0
 40
0.5
100
AcDbArc
 50
270.0
 51
0.0
  0
LINE
  5
2622C
330
20
100
AcDbEntity
  8
13000_Top
  6
Continuous
 62
     7
370
    13
100
AcDbLine
 10
44.14409891941633
 20
306.1128556385539
 30
0.0
 11
44.14409891941633
 21
304.762855638554
 31
0.0
  0
LINE
  5
2622D
330
20
100
AcDbEntity
  8
13000_Top
  6
Continuous
 62
     7
370
    13
100
AcDbLine
 10
39.24409891941636
 20
304.762855638554
 30
0.0
 11
39.24409891941636
 21
306.1128556385539
 31
0.0
  0
LINE
  5
2622E
330
20
100
AcDbEntity
  8
13000_Top
  6
Continuous
 62
     7
370
    13
100
AcDbLine
 10
29.76909891941634
 20
307.0128556385538
 30
0.0
 11
29.76909891941634
 21
305.0628556385539
 31
0.0
  0
LINE
  5
2622F
330
20
100
AcDbEntity
  8
13000_Top
  6
Continuous
 62
     7
370
    13
100
AcDbLine
 10
35.54409891941634
 20
306.1128556385539
 30
0.0
 11
35.54409891941634
 21
304.762855638554
 31
0.0
  0
LINE
  5
26230
330
20
100
AcDbEntity
  8
13000_Top
  6
Continuous
 62
     7
370
    13
100
AcDbLine
 10
30.64409891941634
 20
304.762855638554
 30
0.0
 11
30.64409891941634
 21
306.1128556385539
 31
0.0
  0
LINE
  5
26231
330
20
100
AcDbEntity
  8
13000_Top
  6
Continuous
 62
     7
370
    13
100
AcDbLine
 10
40.51909891941631
 20
306.1128556385539
 30
0.0
 11
34.41909891941634
 21
306.1128556385539
 31
0.0
  0
LINE
  5
26232
330
20
100
AcDbEntity
  8
13000_Top
  6
Continuous
 62
     7
370
    13
100
AcDbLine
 10
45.01909891941635
 20
307.0128556385538
 30
0.0
 11
29.76909891941634
 21
307.0128556385538
 31
0.0
  0
LINE
  5
26233
330
20
100
AcDbEntity
  8
13000_Top
  6
Continuous
 62
     7
370
    13
100
AcDbLine
 10
45.31909891941634
 20
381.5628556385539
 30
0.0
 11
45.31909891941634
 21
375.5628556385539
 31
0.0
  0
LINE
  5
26234
330
20
100
AcDbEntity
  8
13000_Top
  6
Continuous
 62
     7
370
    13
100
AcDbLine
 10
45.31909891941634
 20
388.0628556385539
 30
0.0
 11
45.31909891941634
 21
382.0628556385539
 31
0.0
  0
LINE
  5
26235
330
20
100
AcDbEntity
  8
13000_Top
  6
Continuous
 62
     7
370
    13
100
AcDbLine
 10
45.31909891941634
 20
394.5628556385539
 30
0.0
 11
45.31909891941634
 21
388.5628556385539
 31
0.0
  0
LINE
  5
26236
330
20
100
AcDbEntity
  8
13000_Top
  6
Continuous
 62
     7
370
    13
100
AcDbLine
 10
45.31909891941634
 20
401.0628556385539
 30
0.0
 11
45.31909891941634
 21
395.0628556385538
 31
0.0
  0
LINE
  5
26237
330
20
100
AcDbEntity
  8
13000_Top
  6
Continuous
 62
     7
370
    13
100
AcDbLine
 10
45.31909891941634
 20
407.5628556385538
 30
0.0
 11
45.31909891941634
 21
401.5628556385538
 31
0.0
  0
LINE
  5
26238
330
20
100
AcDbEntity
  8
13000_Top
  6
Continuous
 62
     7
370
    13
100
AcDbLine
 10
45.31909891941634
 20
414.0628556385538
 30
0.0
 11
45.31909891941634
 21
408.0628556385538
 31
0.0
  0
LINE
  5
26239
330
20
100
AcDbEntity
  8
13000_Top
  6
Continuous
 62
     7
370
    13
100
AcDbLine
 10
45.31909891941634
 20
420.5628556385538
 30
0.0
 11
45.31909891941634
 21
414.5628556385538
 31
0.0
  0
LINE
  5
2623A
330
20
100
AcDbEntity
  8
13000_Top
  6
Continuous
 62
     7
370
    13
100
AcDbLine
 10
44.31909891941635
 20
414.5628556385538
 30
0.0
 11
44.31909891941635
 21
420.5628556385538
 31
0.0
  0
LINE
  5
2623B
330
20
100
AcDbEntity
  8
13000_Top
  6
Continuous
 62
     7
370
    13
100
AcDbLine
 10
44.31909891941635
 20
408.0628556385538
 30
0.0
 11
44.31909891941635
 21
414.0628556385538
 31
0.0
  0
LINE
  5
2623C
330
20
100
AcDbEntity
  8
13000_Top
  6
Continuous
 62
     7
370
    13
100
AcDbLine
 10
44.31909891941635
 20
401.5628556385538
 30
0.0
 11
44.31909891941635
 21
407.5628556385538
 31
0.0
  0
LINE
  5
2623D
330
20
100
AcDbEntity
  8
13000_Top
  6
Continuous
 62
     7
370
    13
100
AcDbLine
 10
44.31909891941635
 20
395.0628556385538
 30
0.0
 11
44.31909891941635
 21
401.0628556385539
 31
0.0
  0
LINE
  5
2623E
330
20
100
AcDbEntity
  8
13000_Top
  6
Continuous
 62
     7
370
    13
100
AcDbLine
 10
44.31909891941635
 20
388.5628556385539
 30
0.0
 11
44.31909891941635
 21
394.5628556385539
 31
0.0
  0
LINE
  5
2623F
330
20
100
AcDbEntity
  8
13000_Top
  6
Continuous
 62
     7
370
    13
100
AcDbLine
 10
44.31909891941635
 20
382.0628556385539
 30
0.0
 11
44.31909891941635
 21
388.0628556385539
 31
0.0
  0
LINE
  5
26240
330
20
100
AcDbEntity
  8
13000_Top
  6
Continuous
 62
     7
370
    13
100
AcDbLine
 10
44.31909891941635
 20
375.5628556385539
 30
0.0
 11
44.31909891941635
 21
381.5628556385539
 31
0.0
  0
LINE
  5
26241
330
20
100
AcDbEntity
  8
10000_FRONT
  6
Continuous
 62
     7
370
    13
100
AcDbLine
 10
31.57909691941632
 20
497.8016403668859
 30
0.0
 11
32.21909691941633
 21
497.8016403668859
 31
0.0
  0
LINE
  5
26242
330
20
100
AcDbEntity
  8
10000_FRONT
  6
Continuous
 62
     7
370
    13
100
AcDbLine
 10
31.57909691941632
 20
497.1616403668858
 30
0.0
 11
31.57909691941632
 21
497.8016403668859
 31
0.0
  0
LINE
  5
26243
330
20
100
AcDbEntity
  8
10000_FRONT
  6
Continuous
 62
     7
370
    13
100
AcDbLine
 10
32.21909691941633
 20
497.1616403668858
 30
0.0
 11
31.57909691941632
 21
497.1616403668858
 31
0.0
  0
LINE
  5
26244
330
20
100
AcDbEntity
  8
10000_FRONT
  6
Continuous
 62
     7
370
    13
100
AcDbLine
 10
32.21909691941633
 20
497.8016403668859
 30
0.0
 11
32.21909691941633
 21
497.1616403668858
 31
0.0
  0
LINE
  5
26245
330
20
100
AcDbEntity
  8
10000_FRONT
  6
Continuous
 62
     7
370
    13
100
AcDbLine
 10
31.57909691941632
 20
495.261640366886
 30
0.0
 11
32.21909691941633
 21
495.261640366886
 31
0.0
  0
LINE
  5
26246
330
20
100
AcDbEntity
  8
10000_FRONT
  6
Continuous
 62
     7
370
    13
100
AcDbLine
 10
31.57909691941632
 20
494.6216403668858
 30
0.0
 11
31.57909691941632
 21
495.261640366886
 31
0.0
  0
LINE
  5
26247
330
20
100
AcDbEntity
  8
10000_FRONT
  6
Continuous
 62
     7
370
    13
100
AcDbLine
 10
32.21909691941633
 20
494.6216403668858
 30
0.0
 11
31.57909691941632
 21
494.6216403668858
 31
0.0
  0
LINE
  5
26248
330
20
100
AcDbEntity
  8
10000_FRONT
  6
Continuous
 62
     7
370
    13
100
AcDbLine
 10
32.21909691941633
 20
495.261640366886
 30
0.0
 11
32.21909691941633
 21
494.6216403668858
 31
0.0
  0
LINE
  5
26249
330
20
100
AcDbEntity
  8
10000_FRONT
  6
Continuous
 62
     7
370
    13
100
AcDbLine
 10
31.57909691941632
 20
492.7216403668857
 30
0.0
 11
32.21909691941633
 21
492.7216403668857
 31
0.0
  0
LINE
  5
2624A
330
20
100
AcDbEntity
  8
10000_FRONT
  6
Continuous
 62
     7
370
    13
100
AcDbLine
 10
31.57909691941632
 20
492.0816403668858
 30
0.0
 11
31.57909691941632
 21
492.7216403668857
 31
0.0
  0
LINE
  5
2624B
330
20
100
AcDbEntity
  8
10000_FRONT
  6
Continuous
 62
     7
370
    13
100
AcDbLine
 10
32.21909691941633
 20
492.0816403668858
 30
0.0
 11
31.57909691941632
 21
492.0816403668858
 31
0.0
  0
LINE
  5
2624C
330
20
100
AcDbEntity
  8
10000_FRONT
  6
Continuous
 62
     7
370
    13
100
AcDbLine
 10
32.21909691941633
 20
492.7216403668857
 30
0.0
 11
32.21909691941633
 21
492.0816403668858
 31
0.0
  0
LINE
  5
2624D
330
20
100
AcDbEntity
  8
10000_FRONT
  6
Continuous
 62
     7
370
    13
100
AcDbLine
 10
31.57909691941632
 20
490.1816403668858
 30
0.0
 11
32.21909691941633
 21
490.1816403668858
 31
0.0
  0
LINE
  5
2624E
330
20
100
AcDbEntity
  8
10000_FRONT
  6
Continuous
 62
     7
370
    13
100
AcDbLine
 10
31.57909691941632
 20
489.5416403668859
 30
0.0
 11
31.57909691941632
 21
490.1816403668858
 31
0.0
  0
LINE
  5
2624F
330
20
100
AcDbEntity
  8
10000_FRONT
  6
Continuous
 62
     7
370
    13
100
AcDbLine
 10
32.21909691941633
 20
489.5416403668859
 30
0.0
 11
31.57909691941632
 21
489.5416403668859
 31
0.0
  0
LINE
  5
26250
330
20
100
AcDbEntity
  8
10000_FRONT
  6
Continuous
 62
     7
370
    13
100
AcDbLine
 10
32.21909691941633
 20
490.1816403668858
 30
0.0
 11
32.21909691941633
 21
489.5416403668859
 31
0.0
  0
LINE
  5
26251
330
20
100
AcDbEntity
  8
10000_FRONT
  6
Continuous
 62
     7
370
    13
100
AcDbLine
 10
31.57909691941632
 20
487.6416403668858
 30
0.0
 11
32.21909691941633
 21
487.6416403668858
 31
0.0
  0
LINE
  5
26252
330
20
100
AcDbEntity
  8
10000_FRONT
  6
Continuous
 62
     7
370
    13
100
AcDbLine
 10
31.57909691941632
 20
487.0016403668858
 30
0.0
 11
31.57909691941632
 21
487.6416403668858
 31
0.0
  0
LINE
  5
26253
330
20
100
AcDbEntity
  8
10000_FRONT
  6
Continuous
 62
     7
370
    13
100
AcDbLine
 10
32.21909691941633
 20
487.0016403668858
 30
0.0
 11
31.57909691941632
 21
487.0016403668858
 31
0.0
  0
LINE
  5
26254
330
20
100
AcDbEntity
  8
10000_FRONT
  6
Continuous
 62
     7
370
    13
100
AcDbLine
 10
32.21909691941633
 20
487.6416403668858
 30
0.0
 11
32.21909691941633
 21
487.0016403668858
 31
0.0
  0
LINE
  5
26255
330
20
100
AcDbEntity
  8
10000_FRONT
  6
Continuous
 62
     7
370
    13
100
AcDbLine
 10
34.11909691941634
 20
497.8016403668859
 30
0.0
 11
34.75909691941633
 21
497.8016403668859
 31
0.0
  0
LINE
  5
26256
330
20
100
AcDbEntity
  8
10000_FRONT
  6
Continuous
 62
     7
370
    13
100
AcDbLine
 10
34.11909691941634
 20
497.1616403668858
 30
0.0
 11
34.11909691941634
 21
497.8016403668859
 31
0.0
  0
LINE
  5
26257
330
20
100
AcDbEntity
  8
10000_FRONT
  6
Continuous
 62
     7
370
    13
100
AcDbLine
 10
34.75909691941633
 20
497.1616403668858
 30
0.0
 11
34.11909691941634
 21
497.1616403668858
 31
0.0
  0
LINE
  5
26258
330
20
100
AcDbEntity
  8
10000_FRONT
  6
Continuous
 62
     7
370
    13
100
AcDbLine
 10
34.75909691941633
 20
497.8016403668859
 30
0.0
 11
34.75909691941633
 21
497.1616403668858
 31
0.0
  0
LINE
  5
26259
330
20
100
AcDbEntity
  8
10000_FRONT
  6
Continuous
 62
     7
370
    13
100
AcDbLine
 10
34.11909691941634
 20
495.261640366886
 30
0.0
 11
34.75909691941633
 21
495.261640366886
 31
0.0
  0
LINE
  5
2625A
330
20
100
AcDbEntity
  8
10000_FRONT
  6
Continuous
 62
     7
370
    13
100
AcDbLine
 10
34.11909691941634
 20
494.6216403668858
 30
0.0
 11
34.11909691941634
 21
495.261640366886
 31
0.0
  0
LINE
  5
2625B
330
20
100
AcDbEntity
  8
10000_FRONT
  6
Continuous
 62
     7
370
    13
100
AcDbLine
 10
34.75909691941633
 20
494.6216403668858
 30
0.0
 11
34.11909691941634
 21
494.6216403668858
 31
0.0
  0
LINE
  5
2625C
330
20
100
AcDbEntity
  8
10000_FRONT
  6
Continuous
 62
     7
370
    13
100
AcDbLine
 10
34.75909691941633
 20
495.261640366886
 30
0.0
 11
34.75909691941633
 21
494.6216403668858
 31
0.0
  0
LINE
  5
2625D
330
20
100
AcDbEntity
  8
10000_FRONT
  6
Continuous
 62
     7
370
    13
100
AcDbLine
 10
34.11909691941634
 20
492.7216403668857
 30
0.0
 11
34.75909691941633
 21
492.7216403668857
 31
0.0
  0
LINE
  5
2625E
330
20
100
AcDbEntity
  8
10000_FRONT
  6
Continuous
 62
     7
370
    13
100
AcDbLine
 10
34.11909691941634
 20
492.0816403668858
 30
0.0
 11
34.11909691941634
 21
492.7216403668857
 31
0.0
  0
LINE
  5
2625F
330
20
100
AcDbEntity
  8
10000_FRONT
  6
Continuous
 62
     7
370
    13
100
AcDbLine
 10
34.75909691941633
 20
492.0816403668858
 30
0.0
 11
34.11909691941634
 21
492.0816403668858
 31
0.0
  0
LINE
  5
26260
330
20
100
AcDbEntity
  8
10000_FRONT
  6
Continuous
 62
     7
370
    13
100
AcDbLine
 10
34.75909691941633
 20
492.7216403668857
 30
0.0
 11
34.75909691941633
 21
492.0816403668858
 31
0.0
  0
LINE
  5
26261
330
20
100
AcDbEntity
  8
10000_FRONT
  6
Continuous
 62
     7
370
    13
100
AcDbLine
 10
34.11909691941634
 20
490.1816403668858
 30
0.0
 11
34.75909691941633
 21
490.1816403668858
 31
0.0
  0
LINE
  5
26262
330
20
100
AcDbEntity
  8
10000_FRONT
  6
Continuous
 62
     7
370
    13
100
AcDbLine
 10
34.11909691941634
 20
489.5416403668859
 30
0.0
 11
34.11909691941634
 21
490.1816403668858
 31
0.0
  0
LINE
  5
26263
330
20
100
AcDbEntity
  8
10000_FRONT
  6
Continuous
 62
     7
370
    13
100
AcDbLine
 10
34.75909691941633
 20
489.5416403668859
 30
0.0
 11
34.11909691941634
 21
489.5416403668859
 31
0.0
  0
LINE
  5
26264
330
20
100
AcDbEntity
  8
10000_FRONT
  6
Continuous
 62
     7
370
    13
100
AcDbLine
 10
34.75909691941633
 20
490.1816403668858
 30
0.0
 11
34.75909691941633
 21
489.5416403668859
 31
0.0
  0
LINE
  5
26265
330
20
100
AcDbEntity
  8
10000_FRONT
  6
Continuous
 62
     7
370
    13
100
AcDbLine
 10
34.11909691941634
 20
487.6416403668858
 30
0.0
 11
34.75909691941633
 21
487.6416403668858
 31
0.0
  0
LINE
  5
26266
330
20
100
AcDbEntity
  8
10000_FRONT
  6
Continuous
 62
     7
370
    13
100
AcDbLine
 10
34.11909691941634
 20
487.0016403668858
 30
0.0
 11
34.11909691941634
 21
487.6416403668858
 31
0.0
  0
LINE
  5
26267
330
20
100
AcDbEntity
  8
10000_FRONT
  6
Continuous
 62
     7
370
    13
100
AcDbLine
 10
34.75909691941633
 20
487.0016403668858
 30
0.0
 11
34.11909691941634
 21
487.0016403668858
 31
0.0
  0
LINE
  5
26268
330
20
100
AcDbEntity
  8
10000_FRONT
  6
Continuous
 62
     7
370
    13
100
AcDbLine
 10
34.75909691941633
 20
487.6416403668858
 30
0.0
 11
34.75909691941633
 21
487.0016403668858
 31
0.0
  0
LINE
  5
26269
330
20
100
AcDbEntity
  8
10000_FRONT
  6
Continuous
 62
     7
370
    13
100
AcDbLine
 10
30.62909691941633
 20
498.6816403668859
 30
0.0
 11
35.70909691941634
 21
498.6816403668859
 31
0.0
  0
LINE
  5
2626A
330
20
100
AcDbEntity
  8
10000_FRONT
  6
Continuous
 62
     7
370
    13
100
AcDbLine
 10
30.62909691941633
 20
498.6816403668859
 30
0.0
 11
30.62909691941633
 21
486.1216403668858
 31
0.0
  0
LINE
  5
2626B
330
20
100
AcDbEntity
  8
10000_FRONT
  6
Continuous
 62
     7
370
    13
100
AcDbLine
 10
30.62909691941633
 20
486.1216403668858
 30
0.0
 11
35.70909691941634
 21
486.1216403668858
 31
0.0
  0
LINE
  5
2626C
330
20
100
AcDbEntity
  8
10000_FRONT
  6
Continuous
 62
     7
370
    13
100
AcDbLine
 10
35.70909691941634
 20
486.1216403668858
 30
0.0
 11
35.70909691941634
 21
498.6816403668859
 31
0.0
  0
LINE
  5
2626D
330
20
100
AcDbEntity
  8
10000_FRONT
  6
Continuous
 62
     7
370
    13
100
AcDbLine
 10
40.17909691941635
 20
497.8016403668859
 30
0.0
 11
40.81909691941631
 21
497.8016403668859
 31
0.0
  0
LINE
  5
2626E
330
20
100
AcDbEntity
  8
10000_FRONT
  6
Continuous
 62
     7
370
    13
100
AcDbLine
 10
40.17909691941635
 20
497.1616403668858
 30
0.0
 11
40.17909691941635
 21
497.8016403668859
 31
0.0
  0
LINE
  5
2626F
330
20
100
AcDbEntity
  8
10000_FRONT
  6
Continuous
 62
     7
370
    13
100
AcDbLine
 10
40.81909691941631
 20
497.1616403668858
 30
0.0
 11
40.17909691941635
 21
497.1616403668858
 31
0.0
  0
LINE
  5
26270
330
20
100
AcDbEntity
  8
10000_FRONT
  6
Continuous
 62
     7
370
    13
100
AcDbLine
 10
40.81909691941631
 20
497.8016403668859
 30
0.0
 11
40.81909691941631
 21
497.1616403668858
 31
0.0
  0
LINE
  5
26271
330
20
100
AcDbEntity
  8
10000_FRONT
  6
Continuous
 62
     7
370
    13
100
AcDbLine
 10
40.17909691941635
 20
495.261640366886
 30
0.0
 11
40.81909691941631
 21
495.261640366886
 31
0.0
  0
LINE
  5
26272
330
20
100
AcDbEntity
  8
10000_FRONT
  6
Continuous
 62
     7
370
    13
100
AcDbLine
 10
40.17909691941635
 20
494.6216403668858
 30
0.0
 11
40.17909691941635
 21
495.261640366886
 31
0.0
  0
LINE
  5
26273
330
20
100
AcDbEntity
  8
10000_FRONT
  6
Continuous
 62
     7
370
    13
100
AcDbLine
 10
40.81909691941631
 20
494.6216403668858
 30
0.0
 11
40.17909691941635
 21
494.6216403668858
 31
0.0
  0
LINE
  5
26274
330
20
100
AcDbEntity
  8
10000_FRONT
  6
Continuous
 62
     7
370
    13
100
AcDbLine
 10
40.81909691941631
 20
495.261640366886
 30
0.0
 11
40.81909691941631
 21
494.6216403668858
 31
0.0
  0
LINE
  5
26275
330
20
100
AcDbEntity
  8
10000_FRONT
  6
Continuous
 62
     7
370
    13
100
AcDbLine
 10
40.17909691941635
 20
492.7216403668857
 30
0.0
 11
40.81909691941631
 21
492.7216403668857
 31
0.0
  0
LINE
  5
26276
330
20
100
AcDbEntity
  8
10000_FRONT
  6
Continuous
 62
     7
370
    13
100
AcDbLine
 10
40.17909691941635
 20
492.0816403668858
 30
0.0
 11
40.17909691941635
 21
492.7216403668857
 31
0.0
  0
LINE
  5
26277
330
20
100
AcDbEntity
  8
10000_FRONT
  6
Continuous
 62
     7
370
    13
100
AcDbLine
 10
40.81909691941631
 20
492.0816403668858
 30
0.0
 11
40.17909691941635
 21
492.0816403668858
 31
0.0
  0
LINE
  5
26278
330
20
100
AcDbEntity
  8
10000_FRONT
  6
Continuous
 62
     7
370
    13
100
AcDbLine
 10
40.81909691941631
 20
492.7216403668857
 30
0.0
 11
40.81909691941631
 21
492.0816403668858
 31
0.0
  0
LINE
  5
26279
330
20
100
AcDbEntity
  8
10000_FRONT
  6
Continuous
 62
     7
370
    13
100
AcDbLine
 10
40.17909691941635
 20
490.1816403668858
 30
0.0
 11
40.81909691941631
 21
490.1816403668858
 31
0.0
  0
LINE
  5
2627A
330
20
100
AcDbEntity
  8
10000_FRONT
  6
Continuous
 62
     7
370
    13
100
AcDbLine
 10
40.17909691941635
 20
489.5416403668859
 30
0.0
 11
40.17909691941635
 21
490.1816403668858
 31
0.0
  0
LINE
  5
2627B
330
20
100
AcDbEntity
  8
10000_FRONT
  6
Continuous
 62
     7
370
    13
100
AcDbLine
 10
40.81909691941631
 20
489.5416403668859
 30
0.0
 11
40.17909691941635
 21
489.5416403668859
 31
0.0
  0
LINE
  5
2627C
330
20
100
AcDbEntity
  8
10000_FRONT
  6
Continuous
 62
     7
370
    13
100
AcDbLine
 10
40.81909691941631
 20
490.1816403668858
 30
0.0
 11
40.81909691941631
 21
489.5416403668859
 31
0.0
  0
LINE
  5
2627D
330
20
100
AcDbEntity
  8
10000_FRONT
  6
Continuous
 62
     7
370
    13
100
AcDbLine
 10
40.17909691941635
 20
487.6416403668858
 30
0.0
 11
40.81909691941631
 21
487.6416403668858
 31
0.0
  0
LINE
  5
2627E
330
20
100
AcDbEntity
  8
10000_FRONT
  6
Continuous
 62
     7
370
    13
100
AcDbLine
 10
40.17909691941635
 20
487.0016403668858
 30
0.0
 11
40.17909691941635
 21
487.6416403668858
 31
0.0
  0
LINE
  5
2627F
330
20
100
AcDbEntity
  8
10000_FRONT
  6
Continuous
 62
     7
370
    13
100
AcDbLine
 10
40.81909691941631
 20
487.0016403668858
 30
0.0
 11
40.17909691941635
 21
487.0016403668858
 31
0.0
  0
LINE
  5
26280
330
20
100
AcDbEntity
  8
10000_FRONT
  6
Continuous
 62
     7
370
    13
100
AcDbLine
 10
40.81909691941631
 20
487.6416403668858
 30
0.0
 11
40.81909691941631
 21
487.0016403668858
 31
0.0
  0
LINE
  5
26281
330
20
100
AcDbEntity
  8
10000_FRONT
  6
Continuous
 62
     7
370
    13
100
AcDbLine
 10
42.71909691941631
 20
497.8016403668859
 30
0.0
 11
43.35909691941634
 21
497.8016403668859
 31
0.0
  0
LINE
  5
26282
330
20
100
AcDbEntity
  8
10000_FRONT
  6
Continuous
 62
     7
370
    13
100
AcDbLine
 10
42.71909691941631
 20
497.1616403668858
 30
0.0
 11
42.71909691941631
 21
497.8016403668859
 31
0.0
  0
LINE
  5
26283
330
20
100
AcDbEntity
  8
10000_FRONT
  6
Continuous
 62
     7
370
    13
100
AcDbLine
 10
43.35909691941634
 20
497.1616403668858
 30
0.0
 11
42.71909691941631
 21
497.1616403668858
 31
0.0
  0
LINE
  5
26284
330
20
100
AcDbEntity
  8
10000_FRONT
  6
Continuous
 62
     7
370
    13
100
AcDbLine
 10
43.35909691941634
 20
497.8016403668859
 30
0.0
 11
43.35909691941634
 21
497.1616403668858
 31
0.0
  0
LINE
  5
26285
330
20
100
AcDbEntity
  8
10000_FRONT
  6
Continuous
 62
     7
370
    13
100
AcDbLine
 10
42.71909691941631
 20
495.261640366886
 30
0.0
 11
43.35909691941634
 21
495.261640366886
 31
0.0
  0
LINE
  5
26286
330
20
100
AcDbEntity
  8
10000_FRONT
  6
Continuous
 62
     7
370
    13
100
AcDbLine
 10
42.71909691941631
 20
494.6216403668858
 30
0.0
 11
42.71909691941631
 21
495.261640366886
 31
0.0
  0
LINE
  5
26287
330
20
100
AcDbEntity
  8
10000_FRONT
  6
Continuous
 62
     7
370
    13
100
AcDbLine
 10
43.35909691941634
 20
494.6216403668858
 30
0.0
 11
42.71909691941631
 21
494.6216403668858
 31
0.0
  0
LINE
  5
26288
330
20
100
AcDbEntity
  8
10000_FRONT
  6
Continuous
 62
     7
370
    13
100
AcDbLine
 10
43.35909691941634
 20
495.261640366886
 30
0.0
 11
43.35909691941634
 21
494.6216403668858
 31
0.0
  0
LINE
  5
26289
330
20
100
AcDbEntity
  8
10000_FRONT
  6
Continuous
 62
     7
370
    13
100
AcDbLine
 10
42.71909691941631
 20
492.7216403668857
 30
0.0
 11
43.35909691941634
 21
492.7216403668857
 31
0.0
  0
LINE
  5
2628A
330
20
100
AcDbEntity
  8
10000_FRONT
  6
Continuous
 62
     7
370
    13
100
AcDbLine
 10
42.71909691941631
 20
492.0816403668858
 30
0.0
 11
42.71909691941631
 21
492.7216403668857
 31
0.0
  0
LINE
  5
2628B
330
20
100
AcDbEntity
  8
10000_FRONT
  6
Continuous
 62
     7
370
    13
100
AcDbLine
 10
43.35909691941634
 20
492.0816403668858
 30
0.0
 11
42.71909691941631
 21
492.0816403668858
 31
0.0
  0
LINE
  5
2628C
330
20
100
AcDbEntity
  8
10000_FRONT
  6
Continuous
 62
     7
370
    13
100
AcDbLine
 10
43.35909691941634
 20
492.7216403668857
 30
0.0
 11
43.35909691941634
 21
492.0816403668858
 31
0.0
  0
LINE
  5
2628D
330
20
100
AcDbEntity
  8
10000_FRONT
  6
Continuous
 62
     7
370
    13
100
AcDbLine
 10
42.71909691941631
 20
490.1816403668858
 30
0.0
 11
43.35909691941634
 21
490.1816403668858
 31
0.0
  0
LINE
  5
2628E
330
20
100
AcDbEntity
  8
10000_FRONT
  6
Continuous
 62
     7
370
    13
100
AcDbLine
 10
42.71909691941631
 20
489.5416403668859
 30
0.0
 11
42.71909691941631
 21
490.1816403668858
 31
0.0
  0
LINE
  5
2628F
330
20
100
AcDbEntity
  8
10000_FRONT
  6
Continuous
 62
     7
370
    13
100
AcDbLine
 10
43.35909691941634
 20
489.5416403668859
 30
0.0
 11
42.71909691941631
 21
489.5416403668859
 31
0.0
  0
LINE
  5
26290
330
20
100
AcDbEntity
  8
10000_FRONT
  6
Continuous
 62
     7
370
    13
100
AcDbLine
 10
43.35909691941634
 20
490.1816403668858
 30
0.0
 11
43.35909691941634
 21
489.5416403668859
 31
0.0
  0
LINE
  5
26291
330
20
100
AcDbEntity
  8
10000_FRONT
  6
Continuous
 62
     7
370
    13
100
AcDbLine
 10
42.71909691941631
 20
487.6416403668858
 30
0.0
 11
43.35909691941634
 21
487.6416403668858
 31
0.0
  0
LINE
  5
26292
330
20
100
AcDbEntity
  8
10000_FRONT
  6
Continuous
 62
     7
370
    13
100
AcDbLine
 10
42.71909691941631
 20
487.0016403668858
 30
0.0
 11
42.71909691941631
 21
487.6416403668858
 31
0.0
  0
LINE
  5
26293
330
20
100
AcDbEntity
  8
10000_FRONT
  6
Continuous
 62
     7
370
    13
100
AcDbLine
 10
43.35909691941634
 20
487.0016403668858
 30
0.0
 11
42.71909691941631
 21
487.0016403668858
 31
0.0
  0
LINE
  5
26294
330
20
100
AcDbEntity
  8
10000_FRONT
  6
Continuous
 62
     7
370
    13
100
AcDbLine
 10
43.35909691941634
 20
487.6416403668858
 30
0.0
 11
43.35909691941634
 21
487.0016403668858
 31
0.0
  0
LINE
  5
26295
330
20
100
AcDbEntity
  8
10000_FRONT
  6
Continuous
 62
     7
370
    13
100
AcDbLine
 10
39.22909691941632
 20
498.6816403668859
 30
0.0
 11
44.30909691941633
 21
498.6816403668859
 31
0.0
  0
LINE
  5
26296
330
20
100
AcDbEntity
  8
10000_FRONT
  6
Continuous
 62
     7
370
    13
100
AcDbLine
 10
39.22909691941632
 20
498.6816403668859
 30
0.0
 11
39.22909691941632
 21
486.1216403668858
 31
0.0
  0
LINE
  5
26297
330
20
100
AcDbEntity
  8
10000_FRONT
  6
Continuous
 62
     7
370
    13
100
AcDbLine
 10
39.22909691941632
 20
486.1216403668858
 30
0.0
 11
44.30909691941633
 21
486.1216403668858
 31
0.0
  0
LINE
  5
26298
330
20
100
AcDbEntity
  8
10000_FRONT
  6
Continuous
 62
     7
370
    13
100
AcDbLine
 10
44.30909691941633
 20
486.1216403668858
 30
0.0
 11
44.30909691941633
 21
498.6816403668859
 31
0.0
  0
LINE
  5
26299
330
20
100
AcDbEntity
  8
10000_FRONT
  6
Continuous
 62
     7
370
    20
100
AcDbLine
 10
27.46909891941633
 20
459.7016403668859
 30
0.0
 11
27.46909891941633
 21
466.7016403668859
 31
0.0
  0
LINE
  5
2629A
330
20
100
AcDbEntity
  8
10000_FRONT
  6
Continuous
 62
     7
370
    20
100
AcDbLine
 10
47.46909891941633
 20
466.7016403668859
 30
0.0
 11
47.46909891941633
 21
459.7016403668859
 31
0.0
  0
LINE
  5
2629B
330
20
100
AcDbEntity
  8
10000_FRONT
  6
Continuous
 62
     7
370
    20
100
AcDbLine
 10
27.46909891941633
 20
466.7016403668859
 30
0.0
 11
47.46909891941633
 21
466.7016403668859
 31
0.0
  0
LINE
  5
2629C
330
20
100
AcDbEntity
  8
10000_FRONT
  6
Continuous
 62
     7
370
    20
100
AcDbLine
 10
47.46909891941633
 20
459.7016403668859
 30
0.0
 11
27.46909891941633
 21
459.7016403668859
 31
0.0
  0
LINE
  5
2629D
330
20
100
AcDbEntity
  8
10000_FRONT
  6
Continuous
 62
     7
370
    13
100
AcDbLine
 10
28.06909891941632
 20
495.3337503668858
 30
0.0
 11
28.06909891941632
 21
489.4195403668859
 31
0.0
  0
LINE
  5
2629E
330
20
100
AcDbEntity
  8
10000_FRONT
  6
Continuous
 62
     7
370
    13
100
AcDbLine
 10
29.81909891941632
 20
474.2766403668858
 30
0.0
 11
27.61909891941633
 21
474.2766403668858
 31
0.0
  0
LINE
  5
2629F
330
20
100
AcDbEntity
  8
10000_FRONT
  6
Continuous
 62
     7
370
    13
100
AcDbLine
 10
29.81909891941632
 20
477.8766403668858
 30
0.0
 11
29.81909891941632
 21
474.2766403668858
 31
0.0
  0
LINE
  5
262A0
330
20
100
AcDbEntity
  8
10000_FRONT
  6
Continuous
 62
     7
370
    13
100
AcDbLine
 10
27.61909891941633
 20
477.8766403668858
 30
0.0
 11
29.81909891941632
 21
477.8766403668858
 31
0.0
  0
LINE
  5
262A1
330
20
100
AcDbEntity
  8
10000_FRONT
  6
Continuous
 62
     7
370
    13
100
AcDbLine
 10
27.61909891941633
 20
474.2766403668858
 30
0.0
 11
27.61909891941633
 21
477.8766403668858
 31
0.0
  0
LINE
  5
262A2
330
20
100
AcDbEntity
  8
10000_FRONT
  6
Continuous
 62
     7
370
    13
100
AcDbLine
 10
26.71909891941633
 20
499.3766403668858
 30
0.0
 11
28.56909891941632
 21
499.3766403668858
 31
0.0
  0
LINE
  5
262A3
330
20
100
AcDbEntity
  8
10000_FRONT
  6
Continuous
 62
     7
370
    13
100
AcDbLine
 10
28.56909891941632
 20
485.3766403668858
 30
0.0
 11
26.71909891941633
 21
485.3766403668858
 31
0.0
  0
LINE
  5
262A4
330
20
100
AcDbEntity
  8
10000_FRONT
  6
Continuous
 62
     7
370
    13
100
AcDbLine
 10
26.71909891941633
 20
485.3766403668858
 30
0.0
 11
26.21909891941633
 21
485.3766403668858
 31
0.0
  0
LINE
  5
262A5
330
20
100
AcDbEntity
  8
10000_FRONT
  6
Continuous
 62
     7
370
    13
100
AcDbLine
 10
26.21909891941633
 20
499.3766403668858
 30
0.0
 11
26.71909891941633
 21
499.3766403668858
 31
0.0
  0
LINE
  5
262A6
330
20
100
AcDbEntity
  8
10000_FRONT
  6
Continuous
 62
     7
370
    13
100
AcDbLine
 10
29.26909891941634
 20
495.3337503668858
 30
0.0
 11
28.06909891941632
 21
495.3337503668858
 31
0.0
  0
LINE
  5
262A7
330
20
100
AcDbEntity
  8
10000_FRONT
  6
Continuous
 62
     7
370
    13
100
AcDbLine
 10
28.06909891941632
 20
489.4195403668859
 30
0.0
 11
29.26909891941634
 21
489.4195403668859
 31
0.0
  0
LINE
  5
262A8
330
20
100
AcDbEntity
  8
10000_FRONT
  6
Continuous
 62
     7
370
    13
100
AcDbLine
 10
29.26909891941634
 20
495.3337503668858
 30
0.0
 11
29.76909891941634
 21
495.3337503668858
 31
0.0
  0
LINE
  5
262A9
330
20
100
AcDbEntity
  8
10000_FRONT
  6
Continuous
 62
     7
370
    13
100
AcDbLine
 10
29.76909891941634
 20
489.4195403668859
 30
0.0
 11
29.26909891941634
 21
489.4195403668859
 31
0.0
  0
LINE
  5
262AA
330
20
100
AcDbEntity
  8
10000_FRONT
  6
Continuous
 62
     7
370
    50
100
AcDbLine
 39
0.7
 10
48.71909891941633
 20
466.2266403668859
 30
0.0
 11
48.71909891941633
 21
456.4266403668859
 31
0.0
  0
LINE
  5
262AB
330
20
100
AcDbEntity
  8
10000_FRONT
  6
Continuous
 62
     7
370
    50
100
AcDbLine
 39
0.7
 10
48.71909891941633
 20
485.3766403668858
 30
0.0
 11
48.71909891941633
 21
466.2266403668859
 31
0.0
  0
LINE
  5
262AC
330
20
100
AcDbEntity
  8
10000_FRONT
  6
Continuous
 62
     7
370
    50
100
AcDbLine
 39
0.7
 10
48.71909891941633
 20
499.3766403668858
 30
0.0
 11
48.71909891941633
 21
485.3766403668858
 31
0.0
  0
LINE
  5
262AD
330
20
100
AcDbEntity
  8
10000_FRONT
  6
Continuous
 62
     7
370
    50
100
AcDbLine
 39
0.7
 10
48.71909891941635
 20
510.7266403668859
 30
0.0
 11
48.71909891941633
 21
499.3766403668858
 31
0.0
  0
LINE
  5
262AE
330
20
100
AcDbEntity
  8
10000_FRONT
  6
Continuous
 62
     7
370
    50
100
AcDbLine
 39
0.7
 10
26.21909891941633
 20
499.3766403668858
 30
0.0
 11
26.21909891941633
 21
510.7266403668859
 31
0.0
  0
LINE
  5
262AF
330
20
100
AcDbEntity
  8
10000_FRONT
  6
Continuous
 62
     7
370
    50
100
AcDbLine
 39
0.7
 10
26.21909891941633
 20
485.3766403668858
 30
0.0
 11
26.21909891941633
 21
499.3766403668858
 31
0.0
  0
LINE
  5
262B0
330
20
100
AcDbEntity
  8
10000_FRONT
  6
Continuous
 62
     7
370
    50
100
AcDbLine
 39
0.7
 10
26.21909891941633
 20
456.3516403668859
 30
0.0
 11
26.21909891941633
 21
485.3766403668858
 31
0.0
  0
LINE
  5
262B1
330
20
100
AcDbEntity
  8
10000_FRONT
  6
Continuous
 62
     7
370
    20
100
AcDbLine
 10
48.21909891941635
 20
510.7266403668859
 30
0.0
 11
48.71909891941635
 21
510.7266403668859
 31
0.0
  0
LINE
  5
262B2
330
20
100
AcDbEntity
  8
10000_FRONT
  6
Continuous
 62
     7
370
    20
100
AcDbLine
 10
48.21909891941635
 20
510.7266403668859
 30
0.0
 11
26.71909891941633
 21
510.7266403668859
 31
0.0
  0
LINE
  5
262B3
330
20
100
AcDbEntity
  8
10000_FRONT
  6
Continuous
 62
     7
370
    20
100
AcDbLine
 10
26.21909891941633
 20
510.7266403668859
 30
0.0
 11
26.71909891941633
 21
510.7266403668859
 31
0.0
  0
LINE
  5
262B4
330
20
100
AcDbEntity
  8
10000_FRONT
  6
Continuous
 62
     7
370
    13
100
AcDbLine
 10
28.86909891941633
 20
505.3766403668856
 30
0.0
 11
29.46909891941635
 21
505.3766403668856
 31
0.0
  0
LINE
  5
262B5
330
20
100
AcDbEntity
  8
10000_FRONT
  6
Continuous
 62
     7
370
    13
100
AcDbLine
 10
45.31909891941632
 20
505.3766403668856
 30
0.0
 11
45.91909891941634
 21
505.3766403668856
 31
0.0
  0
LINE
  5
262B6
330
20
100
AcDbEntity
  8
10000_FRONT
  6
Continuous
 62
     7
370
    13
100
AcDbLine
 10
29.46909891941635
 20
505.3766403668856
 30
0.0
 11
45.31909891941632
 21
505.3766403668856
 31
0.0
  0
ARC
  5
262B7
330
20
100
AcDbEntity
  8
10000_FRONT
  6
Continuous
 62
     7
370
    13
100
AcDbCircle
 10
47.01909891941634
 20
503.1231203668858
 30
0.0
 40
0.8
100
AcDbArc
 50
222.735549999999
 51
237.6076300000003
  0
ARC
  5
262B8
330
20
100
AcDbEntity
  8
10000_FRONT
  6
Continuous
 62
     7
370
    13
100
AcDbCircle
 10
47.01909891941634
 20
503.1231203668858
 30
0.0
 40
0.8
100
AcDbArc
 50
180.0
 51
222.735549999999
  0
ARC
  5
262B9
330
20
100
AcDbEntity
  8
10000_FRONT
  6
Continuous
 62
     7
370
    13
100
AcDbCircle
 10
47.01909891941634
 20
481.6301703668858
 30
0.0
 40
0.8
100
AcDbArc
 50
137.2644500000009
 51
180.0
  0
ARC
  5
262BA
330
20
100
AcDbEntity
  8
10000_FRONT
  6
Continuous
 62
     7
370
    13
100
AcDbCircle
 10
47.01909891941634
 20
481.6301703668858
 30
0.0
 40
0.8
100
AcDbArc
 50
122.3923699999997
 51
137.2644500000009
  0
LINE
  5
262BB
330
20
100
AcDbEntity
  8
10000_FRONT
  6
Continuous
 62
     7
370
    13
100
AcDbLine
 10
28.56909891941632
 20
500.8766403668858
 30
0.0
 11
28.56909891941632
 21
505.0766403668858
 31
0.0
  0
LINE
  5
262BC
330
20
100
AcDbEntity
  8
10000_FRONT
  6
Continuous
 62
     7
370
    13
100
AcDbLine
 10
28.56909891941632
 20
499.1766403668859
 30
0.0
 11
28.56909891941632
 21
500.8766403668858
 31
0.0
  0
LINE
  5
262BD
330
20
100
AcDbEntity
  8
10000_FRONT
  6
Continuous
 62
     7
370
    13
100
AcDbLine
 10
46.21909891941635
 20
505.0766403668858
 30
0.0
 11
46.21909891941635
 21
503.1231203668858
 31
0.0
  0
ARC
  5
262BE
330
20
100
AcDbEntity
  8
10000_FRONT
  6
Continuous
 62
     7
370
    13
100
AcDbCircle
 10
44.76909891941633
 20
499.5766403668858
 30
0.0
 40
3.399999999999999
100
AcDbArc
 50
20.7835499999981
 51
57.60764000000127
  0
ARC
  5
262BF
330
20
100
AcDbEntity
  8
10000_FRONT
  6
Continuous
 62
     7
370
    13
100
AcDbCircle
 10
44.76909891941633
 20
485.1766403668857
 30
0.0
 40
3.399999999999999
100
AcDbArc
 50
302.3923599999987
 51
339.2164450000024
  0
LINE
  5
262C0
330
20
100
AcDbEntity
  8
10000_FRONT
  6
Continuous
 62
     7
370
    13
100
AcDbLine
 10
46.21909891941633
 20
481.6301703668859
 30
0.0
 11
46.21909891941633
 21
479.6766403668859
 31
0.0
  0
LINE
  5
262C1
330
20
100
AcDbEntity
  8
10000_FRONT
  6
Continuous
 62
     7
370
    13
100
AcDbLine
 10
28.56909891941632
 20
483.8766403668858
 30
0.0
 11
28.56909891941632
 21
485.5766403668859
 31
0.0
  0
LINE
  5
262C2
330
20
100
AcDbEntity
  8
10000_FRONT
  6
Continuous
 62
     7
370
    13
100
AcDbLine
 10
28.56909891941632
 20
479.6766403668859
 30
0.0
 11
28.56909891941632
 21
483.8766403668858
 31
0.0
  0
LINE
  5
262C3
330
20
100
AcDbEntity
  8
10000_FRONT
  6
Continuous
 62
     7
370
    13
100
AcDbLine
 10
28.86909891941633
 20
498.8766403668858
 30
0.0
 11
29.46909891941633
 21
498.8766403668858
 31
0.0
  0
LINE
  5
262C4
330
20
100
AcDbEntity
  8
10000_FRONT
  6
Continuous
 62
     7
370
    13
100
AcDbLine
 10
29.46909891941633
 20
485.8766403668858
 30
0.0
 11
28.86909891941633
 21
485.8766403668858
 31
0.0
  0
LINE
  5
262C5
330
20
100
AcDbEntity
  8
10000_FRONT
  6
Continuous
 62
     7
370
    13
100
AcDbLine
 10
30.64409891941634
 20
480.6766403668857
 30
0.0
 11
35.54409891941634
 21
480.6766403668857
 31
0.0
  0
LINE
  5
262C6
330
20
100
AcDbEntity
  8
10000_FRONT
  6
Continuous
 62
     7
370
    13
100
AcDbLine
 10
35.54409891941634
 20
485.0766403668859
 30
0.0
 11
30.64409891941634
 21
485.0766403668859
 31
0.0
  0
LINE
  5
262C7
330
20
100
AcDbEntity
  8
10000_FRONT
  6
Continuous
 62
     7
370
    13
100
AcDbLine
 10
30.64409891941634
 20
504.0766403668858
 30
0.0
 11
35.54409891941634
 21
504.0766403668858
 31
0.0
  0
LINE
  5
262C8
330
20
100
AcDbEntity
  8
10000_FRONT
  6
Continuous
 62
     7
370
    13
100
AcDbLine
 10
35.54409891941634
 20
499.6766403668859
 30
0.0
 11
30.64409891941634
 21
499.6766403668859
 31
0.0
  0
LINE
  5
262C9
330
20
100
AcDbEntity
  8
10000_FRONT
  6
Continuous
 62
     7
370
    13
100
AcDbLine
 10
39.24409891941633
 20
480.6766403668857
 30
0.0
 11
44.14409891941633
 21
480.6766403668857
 31
0.0
  0
LINE
  5
262CA
330
20
100
AcDbEntity
  8
10000_FRONT
  6
Continuous
 62
     7
370
    13
100
AcDbLine
 10
44.14409891941633
 20
485.0766403668859
 30
0.0
 11
39.24409891941633
 21
485.0766403668859
 31
0.0
  0
LINE
  5
262CB
330
20
100
AcDbEntity
  8
10000_FRONT
  6
Continuous
 62
     7
370
    13
100
AcDbLine
 10
39.24409891941633
 20
504.0766403668858
 30
0.0
 11
44.14409891941633
 21
504.0766403668858
 31
0.0
  0
LINE
  5
262CC
330
20
100
AcDbEntity
  8
10000_FRONT
  6
Continuous
 62
     7
370
    13
100
AcDbLine
 10
44.14409891941633
 20
499.6766403668859
 30
0.0
 11
39.24409891941633
 21
499.6766403668859
 31
0.0
  0
ARC
  5
262CD
330
20
100
AcDbEntity
  8
10000_FRONT
  6
Continuous
 62
     7
370
    13
100
AcDbCircle
 10
28.86909891941636
 20
505.0766403668858
 30
0.0
 40
0.3
100
AcDbArc
 50
90.0
 51
180.0
  0
ARC
  5
262CE
330
20
100
AcDbEntity
  8
10000_FRONT
  6
Continuous
 62
     7
370
    13
100
AcDbCircle
 10
29.46909891941635
 20
499.1766403668858
 30
0.0
 40
0.3
100
AcDbArc
 50
270.0
 51
0.0
  0
ARC
  5
262CF
330
20
100
AcDbEntity
  8
10000_FRONT
  6
Continuous
 62
     7
370
    13
100
AcDbCircle
 10
29.46909891941635
 20
505.0766403668858
 30
0.0
 40
0.3
100
AcDbArc
 50
0.0
 51
90.0
  0
ARC
  5
262D0
330
20
100
AcDbEntity
  8
10000_FRONT
  6
Continuous
 62
     7
370
    13
100
AcDbCircle
 10
29.46909891941635
 20
485.5766403668859
 30
0.0
 40
0.3
100
AcDbArc
 50
0.0
 51
90.0
  0
ARC
  5
262D1
330
20
100
AcDbEntity
  8
10000_FRONT
  6
Continuous
 62
     7
370
    13
100
AcDbCircle
 10
29.46909891941635
 20
479.6766403668858
 30
0.0
 40
0.3
100
AcDbArc
 50
270.0
 51
0.0
  0
ARC
  5
262D2
330
20
100
AcDbEntity
  8
10000_FRONT
  6
Continuous
 62
     7
370
    13
100
AcDbCircle
 10
45.91909891941634
 20
505.0766403668858
 30
0.0
 40
0.3
100
AcDbArc
 50
0.0
 51
90.0
  0
ARC
  5
262D3
330
20
100
AcDbEntity
  8
10000_FRONT
  6
Continuous
 62
     7
370
    13
100
AcDbCircle
 10
28.86909891941636
 20
499.1766403668858
 30
0.0
 40
0.3
100
AcDbArc
 50
180.0
 51
270.0
  0
ARC
  5
262D4
330
20
100
AcDbEntity
  8
10000_FRONT
  6
Continuous
 62
     7
370
    13
100
AcDbCircle
 10
45.91909891941634
 20
479.6766403668858
 30
0.0
 40
0.3
100
AcDbArc
 50
270.0
 51
0.0
  0
ARC
  5
262D5
330
20
100
AcDbEntity
  8
10000_FRONT
  6
Continuous
 62
     7
370
    13
100
AcDbCircle
 10
28.86909891941636
 20
479.6766403668858
 30
0.0
 40
0.3
100
AcDbArc
 50
180.0
 51
270.0
  0
ARC
  5
262D6
330
20
100
AcDbEntity
  8
10000_FRONT
  6
Continuous
 62
     7
370
    13
100
AcDbCircle
 10
28.86909891941636
 20
485.5766403668859
 30
0.0
 40
0.3
100
AcDbArc
 50
90.0
 51
180.0
  0
LINE
  5
262D7
330
20
100
AcDbEntity
  8
10000_FRONT
  6
Continuous
 62
     7
370
    20
100
AcDbLine
 10
26.71909891941633
 20
456.4266403668859
 30
0.0
 11
26.21909891941633
 21
456.4266403668859
 31
0.0
  0
LINE
  5
262D8
330
20
100
AcDbEntity
  8
10000_FRONT
  6
Continuous
 62
     7
370
    20
100
AcDbLine
 10
26.71909891941633
 20
456.4266403668859
 30
0.0
 11
48.21909891941633
 21
456.4266403668859
 31
0.0
  0
LINE
  5
262D9
330
20
100
AcDbEntity
  8
10000_FRONT
  6
Continuous
 62
     7
370
    20
100
AcDbLine
 10
48.71909891941633
 20
456.4266403668859
 30
0.0
 11
48.21909891941633
 21
456.4266403668859
 31
0.0
  0
LINE
  5
262DA
330
20
100
AcDbEntity
  8
10000_FRONT
  6
Continuous
 62
     7
370
    13
100
AcDbLine
 10
44.14409891941633
 20
499.7936203668859
 30
0.0
 11
44.14409891941633
 21
499.6766403668859
 31
0.0
  0
LINE
  5
262DB
330
20
100
AcDbEntity
  8
10000_FRONT
  6
Continuous
 62
     7
370
    13
100
AcDbLine
 10
44.14409891941633
 20
500.3178703668858
 30
0.0
 11
44.14409891941633
 21
499.7936203668859
 31
0.0
  0
LINE
  5
262DC
330
20
100
AcDbEntity
  8
10000_FRONT
  6
Continuous
 62
     7
370
    13
100
AcDbLine
 10
44.14409891941633
 20
501.4669303668858
 30
0.0
 11
44.14409891941633
 21
500.3178703668858
 31
0.0
  0
LINE
  5
262DD
330
20
100
AcDbEntity
  8
10000_FRONT
  6
Continuous
 62
     7
370
    13
100
AcDbLine
 10
44.14409891941633
 20
503.5766403668858
 30
0.0
 11
44.14409891941633
 21
501.4669303668858
 31
0.0
  0
LINE
  5
262DE
330
20
100
AcDbEntity
  8
10000_FRONT
  6
Continuous
 62
     7
370
    13
100
AcDbLine
 10
44.14409891941633
 20
504.0766403668858
 30
0.0
 11
44.14409891941633
 21
503.5766403668858
 31
0.0
  0
LINE
  5
262DF
330
20
100
AcDbEntity
  8
10000_FRONT
  6
Continuous
 62
     7
370
    13
100
AcDbLine
 10
39.24409891941633
 20
503.5766403668858
 30
0.0
 11
39.24409891941633
 21
504.0766403668858
 31
0.0
  0
LINE
  5
262E0
330
20
100
AcDbEntity
  8
10000_FRONT
  6
Continuous
 62
     7
370
    13
100
AcDbLine
 10
39.24409891941633
 20
501.4669303668858
 30
0.0
 11
39.24409891941633
 21
503.5766403668858
 31
0.0
  0
LINE
  5
262E1
330
20
100
AcDbEntity
  8
10000_FRONT
  6
Continuous
 62
     7
370
    13
100
AcDbLine
 10
39.24409891941633
 20
500.3178703668858
 30
0.0
 11
39.24409891941633
 21
501.4669303668858
 31
0.0
  0
LINE
  5
262E2
330
20
100
AcDbEntity
  8
10000_FRONT
  6
Continuous
 62
     7
370
    13
100
AcDbLine
 10
39.24409891941633
 20
499.7936203668859
 30
0.0
 11
39.24409891941633
 21
500.3178703668858
 31
0.0
  0
LINE
  5
262E3
330
20
100
AcDbEntity
  8
10000_FRONT
  6
Continuous
 62
     7
370
    13
100
AcDbLine
 10
39.24409891941633
 20
499.6766403668859
 30
0.0
 11
39.24409891941633
 21
499.7936203668859
 31
0.0
  0
LINE
  5
262E4
330
20
100
AcDbEntity
  8
10000_FRONT
  6
Continuous
 62
     7
370
    13
100
AcDbLine
 10
44.14409891941633
 20
484.9596703668858
 30
0.0
 11
44.14409891941633
 21
485.0766403668859
 31
0.0
  0
LINE
  5
262E5
330
20
100
AcDbEntity
  8
10000_FRONT
  6
Continuous
 62
     7
370
    13
100
AcDbLine
 10
44.14409891941633
 20
484.4354203668856
 30
0.0
 11
44.14409891941633
 21
484.9596703668858
 31
0.0
  0
LINE
  5
262E6
330
20
100
AcDbEntity
  8
10000_FRONT
  6
Continuous
 62
     7
370
    13
100
AcDbLine
 10
44.14409891941633
 20
483.2863503668859
 30
0.0
 11
44.14409891941633
 21
484.4354203668856
 31
0.0
  0
LINE
  5
262E7
330
20
100
AcDbEntity
  8
10000_FRONT
  6
Continuous
 62
     7
370
    13
100
AcDbLine
 10
44.14409891941633
 20
481.1766403668859
 30
0.0
 11
44.14409891941633
 21
483.2863503668859
 31
0.0
  0
LINE
  5
262E8
330
20
100
AcDbEntity
  8
10000_FRONT
  6
Continuous
 62
     7
370
    13
100
AcDbLine
 10
44.14409891941633
 20
480.6766403668857
 30
0.0
 11
44.14409891941633
 21
481.1766403668859
 31
0.0
  0
LINE
  5
262E9
330
20
100
AcDbEntity
  8
10000_FRONT
  6
Continuous
 62
     7
370
    13
100
AcDbLine
 10
39.24409891941633
 20
481.1766403668859
 30
0.0
 11
39.24409891941633
 21
480.6766403668857
 31
0.0
  0
LINE
  5
262EA
330
20
100
AcDbEntity
  8
10000_FRONT
  6
Continuous
 62
     7
370
    13
100
AcDbLine
 10
39.24409891941633
 20
483.2863503668859
 30
0.0
 11
39.24409891941633
 21
481.1766403668859
 31
0.0
  0
LINE
  5
262EB
330
20
100
AcDbEntity
  8
10000_FRONT
  6
Continuous
 62
     7
370
    13
100
AcDbLine
 10
39.24409891941633
 20
484.4354203668856
 30
0.0
 11
39.24409891941633
 21
483.2863503668859
 31
0.0
  0
LINE
  5
262EC
330
20
100
AcDbEntity
  8
10000_FRONT
  6
Continuous
 62
     7
370
    13
100
AcDbLine
 10
39.24409891941633
 20
484.9596703668858
 30
0.0
 11
39.24409891941633
 21
484.4354203668856
 31
0.0
  0
LINE
  5
262ED
330
20
100
AcDbEntity
  8
10000_FRONT
  6
Continuous
 62
     7
370
    13
100
AcDbLine
 10
39.24409891941633
 20
485.0766403668859
 30
0.0
 11
39.24409891941633
 21
484.9596703668858
 31
0.0
  0
LINE
  5
262EE
330
20
100
AcDbEntity
  8
10000_FRONT
  6
Continuous
 62
     7
370
    13
100
AcDbLine
 10
35.54409891941634
 20
499.7936203668859
 30
0.0
 11
35.54409891941634
 21
499.6766403668859
 31
0.0
  0
LINE
  5
262EF
330
20
100
AcDbEntity
  8
10000_FRONT
  6
Continuous
 62
     7
370
    13
100
AcDbLine
 10
35.54409891941634
 20
500.3178703668858
 30
0.0
 11
35.54409891941634
 21
499.7936203668859
 31
0.0
  0
LINE
  5
262F0
330
20
100
AcDbEntity
  8
10000_FRONT
  6
Continuous
 62
     7
370
    13
100
AcDbLine
 10
35.54409891941634
 20
501.4669303668858
 30
0.0
 11
35.54409891941634
 21
500.3178703668858
 31
0.0
  0
LINE
  5
262F1
330
20
100
AcDbEntity
  8
10000_FRONT
  6
Continuous
 62
     7
370
    13
100
AcDbLine
 10
35.54409891941634
 20
503.5766403668858
 30
0.0
 11
35.54409891941634
 21
501.4669303668858
 31
0.0
  0
LINE
  5
262F2
330
20
100
AcDbEntity
  8
10000_FRONT
  6
Continuous
 62
     7
370
    13
100
AcDbLine
 10
35.54409891941634
 20
504.0766403668858
 30
0.0
 11
35.54409891941634
 21
503.5766403668858
 31
0.0
  0
LINE
  5
262F3
330
20
100
AcDbEntity
  8
10000_FRONT
  6
Continuous
 62
     7
370
    13
100
AcDbLine
 10
30.64409891941634
 20
503.5766403668858
 30
0.0
 11
30.64409891941634
 21
504.0766403668858
 31
0.0
  0
LINE
  5
262F4
330
20
100
AcDbEntity
  8
10000_FRONT
  6
Continuous
 62
     7
370
    13
100
AcDbLine
 10
30.64409891941634
 20
501.4669303668858
 30
0.0
 11
30.64409891941634
 21
503.5766403668858
 31
0.0
  0
LINE
  5
262F5
330
20
100
AcDbEntity
  8
10000_FRONT
  6
Continuous
 62
     7
370
    13
100
AcDbLine
 10
30.64409891941634
 20
500.3178703668858
 30
0.0
 11
30.64409891941634
 21
501.4669303668858
 31
0.0
  0
LINE
  5
262F6
330
20
100
AcDbEntity
  8
10000_FRONT
  6
Continuous
 62
     7
370
    13
100
AcDbLine
 10
30.64409891941634
 20
499.7936203668859
 30
0.0
 11
30.64409891941634
 21
500.3178703668858
 31
0.0
  0
LINE
  5
262F7
330
20
100
AcDbEntity
  8
10000_FRONT
  6
Continuous
 62
     7
370
    13
100
AcDbLine
 10
30.64409891941634
 20
499.6766403668859
 30
0.0
 11
30.64409891941634
 21
499.7936203668859
 31
0.0
  0
LINE
  5
262F8
330
20
100
AcDbEntity
  8
10000_FRONT
  6
Continuous
 62
     7
370
    13
100
AcDbLine
 10
29.76909891941634
 20
500.8766403668858
 30
0.0
 11
29.76909891941634
 21
505.0766403668858
 31
0.0
  0
LINE
  5
262F9
330
20
100
AcDbEntity
  8
10000_FRONT
  6
Continuous
 62
     7
370
    13
100
AcDbLine
 10
29.76909891941634
 20
499.1766403668859
 30
0.0
 11
29.76909891941634
 21
500.8766403668858
 31
0.0
  0
LINE
  5
262FA
330
20
100
AcDbEntity
  8
10000_FRONT
  6
Continuous
 62
     7
370
    13
100
AcDbLine
 10
29.76909891941634
 20
494.6266403668858
 30
0.0
 11
29.76909891941634
 21
495.3337503668858
 31
0.0
  0
LINE
  5
262FB
330
20
100
AcDbEntity
  8
10000_FRONT
  6
Continuous
 62
     7
370
    13
100
AcDbLine
 10
29.76909891941634
 20
494.6266403668858
 30
0.0
 11
29.76909891941634
 21
490.1266403668858
 31
0.0
  0
LINE
  5
262FC
330
20
100
AcDbEntity
  8
10000_FRONT
  6
Continuous
 62
     7
370
    13
100
AcDbLine
 10
29.76909891941634
 20
489.4195403668859
 30
0.0
 11
29.76909891941634
 21
490.1266403668858
 31
0.0
  0
LINE
  5
262FD
330
20
100
AcDbEntity
  8
10000_FRONT
  6
Continuous
 62
     7
370
    13
100
AcDbLine
 10
29.76909891941634
 20
483.8766403668858
 30
0.0
 11
29.76909891941634
 21
485.5766403668859
 31
0.0
  0
LINE
  5
262FE
330
20
100
AcDbEntity
  8
10000_FRONT
  6
Continuous
 62
     7
370
    13
100
AcDbLine
 10
29.76909891941634
 20
479.6766403668859
 30
0.0
 11
29.76909891941634
 21
483.8766403668858
 31
0.0
  0
LINE
  5
262FF
330
20
100
AcDbEntity
  8
10000_FRONT
  6
Continuous
 62
     7
370
    13
100
AcDbLine
 10
35.54409891941634
 20
484.9596703668858
 30
0.0
 11
35.54409891941634
 21
485.0766403668859
 31
0.0
  0
LINE
  5
26300
330
20
100
AcDbEntity
  8
10000_FRONT
  6
Continuous
 62
     7
370
    13
100
AcDbLine
 10
35.54409891941634
 20
484.4354203668856
 30
0.0
 11
35.54409891941634
 21
484.9596703668858
 31
0.0
  0
LINE
  5
26301
330
20
100
AcDbEntity
  8
10000_FRONT
  6
Continuous
 62
     7
370
    13
100
AcDbLine
 10
35.54409891941634
 20
483.2863503668859
 30
0.0
 11
35.54409891941634
 21
484.4354203668856
 31
0.0
  0
LINE
  5
26302
330
20
100
AcDbEntity
  8
10000_FRONT
  6
Continuous
 62
     7
370
    13
100
AcDbLine
 10
35.54409891941634
 20
481.1766403668859
 30
0.0
 11
35.54409891941634
 21
483.2863503668859
 31
0.0
  0
LINE
  5
26303
330
20
100
AcDbEntity
  8
10000_FRONT
  6
Continuous
 62
     7
370
    13
100
AcDbLine
 10
35.54409891941634
 20
480.6766403668857
 30
0.0
 11
35.54409891941634
 21
481.1766403668859
 31
0.0
  0
LINE
  5
26304
330
20
100
AcDbEntity
  8
10000_FRONT
  6
Continuous
 62
     7
370
    13
100
AcDbLine
 10
30.64409891941634
 20
481.1766403668859
 30
0.0
 11
30.64409891941634
 21
480.6766403668857
 31
0.0
  0
LINE
  5
26305
330
20
100
AcDbEntity
  8
10000_FRONT
  6
Continuous
 62
     7
370
    13
100
AcDbLine
 10
30.64409891941634
 20
483.2863503668859
 30
0.0
 11
30.64409891941634
 21
481.1766403668859
 31
0.0
  0
LINE
  5
26306
330
20
100
AcDbEntity
  8
10000_FRONT
  6
Continuous
 62
     7
370
    13
100
AcDbLine
 10
30.64409891941634
 20
484.4354203668856
 30
0.0
 11
30.64409891941634
 21
483.2863503668859
 31
0.0
  0
LINE
  5
26307
330
20
100
AcDbEntity
  8
10000_FRONT
  6
Continuous
 62
     7
370
    13
100
AcDbLine
 10
30.64409891941634
 20
484.9596703668858
 30
0.0
 11
30.64409891941634
 21
484.4354203668856
 31
0.0
  0
LINE
  5
26308
330
20
100
AcDbEntity
  8
10000_FRONT
  6
Continuous
 62
     7
370
    13
100
AcDbLine
 10
30.64409891941634
 20
485.0766403668859
 30
0.0
 11
30.64409891941634
 21
484.9596703668858
 31
0.0
  0
LINE
  5
26309
330
20
100
AcDbEntity
  8
10000_FRONT
  6
Continuous
 62
     7
370
    13
100
AcDbLine
 10
45.91909891941634
 20
479.3766403668858
 30
0.0
 11
45.31909891941632
 21
479.3766403668858
 31
0.0
  0
LINE
  5
2630A
330
20
100
AcDbEntity
  8
10000_FRONT
  6
Continuous
 62
     7
370
    13
100
AcDbLine
 10
29.46909891941633
 20
479.3766403668858
 30
0.0
 11
28.86909891941633
 21
479.3766403668858
 31
0.0
  0
LINE
  5
2630B
330
20
100
AcDbEntity
  8
10000_FRONT
  6
Continuous
 62
     7
370
    13
100
AcDbLine
 10
45.31909891941632
 20
479.3766403668858
 30
0.0
 11
29.46909891941633
 21
479.3766403668858
 31
0.0
  0
LINE
  5
2630C
330
20
100
AcDbEntity
  8
10000_FRONT
  6
Continuous
 62
     7
370
    20
100
AcDbLine
 10
46.86909891941633
 20
524.8016403668859
 30
0.0
 11
46.86909891941633
 21
524.8016403668859
 31
0.0
  0
LINE
  5
2630D
330
20
100
AcDbEntity
  8
10000_FRONT
  6
Continuous
 62
     7
370
    20
100
AcDbLine
 10
26.41909991941635
 20
524.8016403668859
 30
0.0
 11
26.41909991941635
 21
524.8016503668859
 31
0.0
  0
LINE
  5
26311
330
20
100
AcDbEntity
  8
10000_FRONT
  6
Continuous
 62
     7
370
    20
100
AcDbLine
 10
32.46909891941636
 20
524.301640366886
 30
0.0
 11
28.06909891941635
 21
524.301640366886
 31
0.0
  0
LINE
  5
26312
330
20
100
AcDbEntity
  8
10000_FRONT
  6
Continuous
 62
     7
370
    20
100
AcDbLine
 10
39.66909891941634
 20
524.301640366886
 30
0.0
 11
35.26909891941635
 21
524.301640366886
 31
0.0
  0
LINE
  5
26313
330
20
100
AcDbEntity
  8
10000_FRONT
  6
Continuous
 62
     7
370
    20
100
AcDbLine
 10
46.86909891941633
 20
524.301640366886
 30
0.0
 11
42.46909891941635
 21
524.301640366886
 31
0.0
  0
ARC
  5
26314
330
20
100
AcDbEntity
  8
10000_FRONT
  6
Continuous
 62
     7
370
    20
100
AcDbCircle
 10
48.51909891941634
 20
524.6016403668859
 30
0.0
 40
0.2
100
AcDbArc
 50
0.0
 51
90.00044000000031
  0
LINE
  5
26315
330
20
100
AcDbEntity
  8
10000_FRONT
  6
Continuous
 62
     7
370
    20
100
AcDbLine
 10
48.71909891941635
 20
510.7266503668859
 30
0.0
 11
48.71909891941635
 21
510.801640366886
 31
0.0
  0
LINE
  5
26316
330
20
100
AcDbEntity
  8
10000_FRONT
  6
Continuous
 62
     7
370
    50
100
AcDbLine
 39
0.7
 10
48.71909891941635
 20
510.801640366886
 30
0.0
 11
48.71909891941635
 21
524.6016403668859
 31
0.0
  0
LINE
  5
26317
330
20
100
AcDbEntity
  8
10000_FRONT
  6
Continuous
 62
     7
370
    20
100
AcDbLine
 10
46.86909891941633
 20
524.8016403668859
 30
0.0
 11
46.86909891941633
 21
524.6016403668859
 31
0.0
  0
LINE
  5
26318
330
20
100
AcDbEntity
  8
10000_FRONT
  6
Continuous
 62
     7
370
    20
100
AcDbLine
 10
46.86909891941633
 20
524.301640366886
 30
0.0
 11
46.86909891941633
 21
524.6016403668859
 31
0.0
  0
LINE
  5
26319
330
20
100
AcDbEntity
  8
10000_FRONT
  6
Continuous
 62
     7
370
    20
100
AcDbLine
 10
42.46909891941635
 20
524.6016403668859
 30
0.0
 11
42.46909891941635
 21
524.8016403668859
 31
0.0
  0
LINE
  5
2631A
330
20
100
AcDbEntity
  8
10000_FRONT
  6
Continuous
 62
     7
370
    20
100
AcDbLine
 10
42.46909891941635
 20
524.301640366886
 30
0.0
 11
42.46909891941635
 21
524.6016403668859
 31
0.0
  0
LINE
  5
2631B
330
20
100
AcDbEntity
  8
10000_FRONT
  6
Continuous
 62
     7
370
    20
100
AcDbLine
 10
39.66909891941634
 20
524.8016403668859
 30
0.0
 11
39.66909891941634
 21
524.6016403668859
 31
0.0
  0
LINE
  5
2631C
330
20
100
AcDbEntity
  8
10000_FRONT
  6
Continuous
 62
     7
370
    20
100
AcDbLine
 10
39.66909891941634
 20
524.301640366886
 30
0.0
 11
39.66909891941634
 21
524.6016403668859
 31
0.0
  0
LINE
  5
2631D
330
20
100
AcDbEntity
  8
10000_FRONT
  6
Continuous
 62
     7
370
    20
100
AcDbLine
 10
35.26909891941635
 20
524.6016403668859
 30
0.0
 11
35.26909891941635
 21
524.8016403668859
 31
0.0
  0
LINE
  5
2631E
330
20
100
AcDbEntity
  8
10000_FRONT
  6
Continuous
 62
     7
370
    20
100
AcDbLine
 10
35.26909891941635
 20
524.301640366886
 30
0.0
 11
35.26909891941635
 21
524.6016403668859
 31
0.0
  0
LINE
  5
2631F
330
20
100
AcDbEntity
  8
10000_FRONT
  6
Continuous
 62
     7
370
    20
100
AcDbLine
 10
32.46909891941636
 20
524.8016403668859
 30
0.0
 11
32.46909891941636
 21
524.6016403668859
 31
0.0
  0
LINE
  5
26320
330
20
100
AcDbEntity
  8
10000_FRONT
  6
Continuous
 62
     7
370
    20
100
AcDbLine
 10
32.46909891941636
 20
524.301640366886
 30
0.0
 11
32.46909891941636
 21
524.6016403668859
 31
0.0
  0
ARC
  5
26321
330
20
100
AcDbEntity
  8
10000_FRONT
  6
Continuous
 62
     7
370
    20
100
AcDbCircle
 10
26.41909891941634
 20
524.6016403668859
 30
0.0
 40
0.2
100
AcDbArc
 50
90.0
 51
180.0
  0
LINE
  5
26322
330
20
100
AcDbEntity
  8
10000_FRONT
  6
Continuous
 62
     7
370
    20
100
AcDbLine
 10
26.21909891941633
 20
510.7266503668859
 30
0.0
 11
26.21909891941633
 21
510.801640366886
 31
0.0
  0
LINE
  5
26323
330
20
100
AcDbEntity
  8
10000_FRONT
  6
Continuous
 62
     7
370
    50
100
AcDbLine
 39
0.7
 10
26.21909891941633
 20
524.6016403668859
 30
0.0
 11
26.21909891941633
 21
510.801640366886
 31
0.0
  0
LINE
  5
26324
330
20
100
AcDbEntity
  8
10000_FRONT
  6
Continuous
 62
     7
370
    20
100
AcDbLine
 10
28.06909891941635
 20
524.6016403668859
 30
0.0
 11
28.06909891941635
 21
524.8016403668859
 31
0.0
  0
LINE
  5
26325
330
20
100
AcDbEntity
  8
10000_FRONT
  6
Continuous
 62
     7
370
    20
100
AcDbLine
 10
28.06909891941635
 20
524.301640366886
 30
0.0
 11
28.06909891941635
 21
524.6016403668859
 31
0.0
  0
LINE
  5
26326
330
20
100
AcDbEntity
  8
10000_FRONT
  6
Continuous
 62
     7
370
    20
100
AcDbLine
 10
28.06909891941635
 20
524.8016403668859
 30
0.0
 11
27.01909891941634
 21
524.8016403668859
 31
0.0
  0
LINE
  5
26327
330
20
100
AcDbEntity
  8
10000_FRONT
  6
Continuous
 62
     7
370
    20
100
AcDbLine
 10
27.01909891941634
 20
524.8016403668859
 30
0.0
 11
26.41910091941634
 21
524.8016403668859
 31
0.0
  0
LINE
  5
26328
330
20
100
AcDbEntity
  8
10000_FRONT
  6
Continuous
 62
     7
370
    20
100
AcDbLine
 10
48.51909691941634
 20
524.8016403668859
 30
0.0
 11
47.91909891941634
 21
524.8016403668859
 31
0.0
  0
LINE
  5
26329
330
20
100
AcDbEntity
  8
10000_FRONT
  6
Continuous
 62
     7
370
    20
100
AcDbLine
 10
47.91909891941634
 20
524.8016403668859
 30
0.0
 11
46.86909891941633
 21
524.8016403668859
 31
0.0
  0
LINE
  5
2632A
330
20
100
AcDbEntity
  8
10000_FRONT
  6
Continuous
 62
     7
370
    20
100
AcDbLine
 10
35.26909891941635
 20
524.8016403668859
 30
0.0
 11
32.46909891941636
 21
524.8016403668859
 31
0.0
  0
LINE
  5
2632B
330
20
100
AcDbEntity
  8
10000_FRONT
  6
Continuous
 62
     7
370
    20
100
AcDbLine
 10
42.46909891941635
 20
524.8016403668859
 30
0.0
 11
39.66909891941634
 21
524.8016403668859
 31
0.0
  0
LINE
  5
2632C
330
20
100
AcDbEntity
  8
10000_FRONT
  6
Continuous
 62
     7
370
    50
100
AcDbLine
 39
0.7
 10
46.86909891941633
 20
534.3516403668859
 30
0.0
 11
46.86909891941633
 21
534.3516403668859
 31
0.0
  0
LINE
  5
2632E
330
20
100
AcDbEntity
  8
10000_FRONT
  6
Continuous
 62
     7
370
    50
100
AcDbLine
 39
0.7
 10
32.46909891941636
 20
533.8516403668859
 30
0.0
 11
28.06909891941635
 21
533.8516403668859
 31
0.0
  0
LINE
  5
2632F
330
20
100
AcDbEntity
  8
10000_FRONT
  6
Continuous
 62
     7
370
    50
100
AcDbLine
 39
0.7
 10
39.66909891941634
 20
533.8516403668859
 30
0.0
 11
35.26909891941635
 21
533.8516403668859
 31
0.0
  0
LINE
  5
26330
330
20
100
AcDbEntity
  8
10000_FRONT
  6
Continuous
 62
     7
370
    50
100
AcDbLine
 39
0.7
 10
46.86909891941633
 20
533.8516403668859
 30
0.0
 11
42.46909891941635
 21
533.8516403668859
 31
0.0
  0
ARC
  5
26331
330
20
100
AcDbEntity
  8
10000_FRONT
  6
Continuous
 62
     7
370
    50
100
AcDbCircle
 39
0.7
 10
48.51909891941634
 20
534.1516403668858
 30
0.0
 40
0.2
100
AcDbArc
 50
0.0
 51
90.00044000000031
  0
LINE
  5
26332
330
20
100
AcDbEntity
  8
10000_FRONT
  6
Continuous
 62
     7
370
    50
100
AcDbLine
 39
0.7
 10
48.71909891941635
 20
524.6016403668859
 30
0.0
 11
48.71909891941635
 21
534.1516403668858
 31
0.0
  0
LINE
  5
26333
330
20
100
AcDbEntity
  8
10000_FRONT
  6
Continuous
 62
     7
370
    50
100
AcDbLine
 39
0.7
 10
46.86909891941633
 20
534.3516403668859
 30
0.0
 11
46.86909891941633
 21
534.1516403668858
 31
0.0
  0
LINE
  5
26334
330
20
100
AcDbEntity
  8
10000_FRONT
  6
Continuous
 62
     7
370
    50
100
AcDbLine
 39
0.7
 10
46.86909891941633
 20
533.8516403668859
 30
0.0
 11
46.86909891941633
 21
534.1516403668858
 31
0.0
  0
LINE
  5
26335
330
20
100
AcDbEntity
  8
10000_FRONT
  6
Continuous
 62
     7
370
    50
100
AcDbLine
 39
0.7
 10
42.46909891941635
 20
534.1516403668858
 30
0.0
 11
42.46909891941635
 21
534.3516403668859
 31
0.0
  0
LINE
  5
26336
330
20
100
AcDbEntity
  8
10000_FRONT
  6
Continuous
 62
     7
370
    50
100
AcDbLine
 39
0.7
 10
42.46909891941635
 20
533.8516403668859
 30
0.0
 11
42.46909891941635
 21
534.1516403668858
 31
0.0
  0
LINE
  5
26337
330
20
100
AcDbEntity
  8
10000_FRONT
  6
Continuous
 62
     7
370
    50
100
AcDbLine
 39
0.7
 10
39.66909891941634
 20
534.3516403668859
 30
0.0
 11
39.66909891941634
 21
534.1516403668858
 31
0.0
  0
LINE
  5
26338
330
20
100
AcDbEntity
  8
10000_FRONT
  6
Continuous
 62
     7
370
    50
100
AcDbLine
 39
0.7
 10
39.66909891941634
 20
533.8516403668859
 30
0.0
 11
39.66909891941634
 21
534.1516403668858
 31
0.0
  0
LINE
  5
26339
330
20
100
AcDbEntity
  8
10000_FRONT
  6
Continuous
 62
     7
370
    50
100
AcDbLine
 39
0.7
 10
35.26909891941635
 20
534.1516403668858
 30
0.0
 11
35.26909891941635
 21
534.3516403668859
 31
0.0
  0
LINE
  5
2633A
330
20
100
AcDbEntity
  8
10000_FRONT
  6
Continuous
 62
     7
370
    50
100
AcDbLine
 39
0.7
 10
35.26909891941635
 20
533.8516403668859
 30
0.0
 11
35.26909891941635
 21
534.1516403668858
 31
0.0
  0
LINE
  5
2633B
330
20
100
AcDbEntity
  8
10000_FRONT
  6
Continuous
 62
     7
370
    50
100
AcDbLine
 39
0.7
 10
32.46909891941636
 20
534.3516403668859
 30
0.0
 11
32.46909891941636
 21
534.1516403668858
 31
0.0
  0
LINE
  5
2633C
330
20
100
AcDbEntity
  8
10000_FRONT
  6
Continuous
 62
     7
370
    50
100
AcDbLine
 39
0.7
 10
32.46909891941636
 20
533.8516403668859
 30
0.0
 11
32.46909891941636
 21
534.1516403668858
 31
0.0
  0
ARC
  5
2633D
330
20
100
AcDbEntity
  8
10000_FRONT
  6
Continuous
 62
     7
370
    50
100
AcDbCircle
 39
0.7
 10
26.41909891941634
 20
534.1516403668858
 30
0.0
 40
0.2
100
AcDbArc
 50
90.0
 51
180.0
  0
LINE
  5
2633E
330
20
100
AcDbEntity
  8
10000_FRONT
  6
Continuous
 62
     7
370
    50
100
AcDbLine
 39
0.7
 10
26.21909891941636
 20
534.1516403668858
 30
0.0
 11
26.21909891941633
 21
524.6016403668859
 31
0.0
  0
LINE
  5
2633F
330
20
100
AcDbEntity
  8
10000_FRONT
  6
Continuous
 62
     7
370
    50
100
AcDbLine
 39
0.7
 10
28.06909891941635
 20
534.1516403668858
 30
0.0
 11
28.06909891941635
 21
534.3516403668859
 31
0.0
  0
LINE
  5
26340
330
20
100
AcDbEntity
  8
10000_FRONT
  6
Continuous
 62
     7
370
    50
100
AcDbLine
 39
0.7
 10
28.06909891941635
 20
533.8516403668859
 30
0.0
 11
28.06909891941635
 21
534.1516403668858
 31
0.0
  0
LINE
  5
26341
330
20
100
AcDbEntity
  8
10000_FRONT
  6
Continuous
 62
     7
370
    50
100
AcDbLine
 39
0.7
 10
28.06909891941635
 20
534.3516403668859
 30
0.0
 11
27.01909891941634
 21
534.3516403668859
 31
0.0
  0
LINE
  5
26342
330
20
100
AcDbEntity
  8
10000_FRONT
  6
Continuous
 62
     7
370
    50
100
AcDbLine
 39
0.7
 10
27.01909891941634
 20
534.3516403668859
 30
0.0
 11
26.41910091941634
 21
534.3516403668859
 31
0.0
  0
LINE
  5
26343
330
20
100
AcDbEntity
  8
10000_FRONT
  6
Continuous
 62
     7
370
    50
100
AcDbLine
 39
0.7
 10
48.51909691941634
 20
534.3516403668859
 30
0.0
 11
47.91909891941634
 21
534.3516403668859
 31
0.0
  0
LINE
  5
26344
330
20
100
AcDbEntity
  8
10000_FRONT
  6
Continuous
 62
     7
370
    50
100
AcDbLine
 39
0.7
 10
47.91909891941634
 20
534.3516403668859
 30
0.0
 11
46.86909891941633
 21
534.3516403668859
 31
0.0
  0
LINE
  5
26345
330
20
100
AcDbEntity
  8
10000_FRONT
  6
Continuous
 62
     7
370
    50
100
AcDbLine
 39
0.7
 10
35.26909891941635
 20
534.3516403668859
 30
0.0
 11
32.46909891941636
 21
534.3516403668859
 31
0.0
  0
LINE
  5
26346
330
20
100
AcDbEntity
  8
10000_FRONT
  6
Continuous
 62
     7
370
    50
100
AcDbLine
 39
0.7
 10
42.46909891941635
 20
534.3516403668859
 30
0.0
 11
39.66909891941634
 21
534.3516403668859
 31
0.0
  0
LINE
  5
26347
330
20
100
AcDbEntity
  8
10000_FRONT
  6
Continuous
 62
     7
370
    13
100
AcDbLine
 10
48.81909891941631
 20
486.1016403668858
 30
0.0
 11
48.81909891941631
 21
487.1016403668859
 31
0.0
  0
LINE
  5
26348
330
20
100
AcDbEntity
  8
10000_FRONT
  6
Continuous
 62
     7
370
    13
100
AcDbLine
 10
48.81909891941631
 20
487.1016403668859
 30
0.0
 11
48.71909891941633
 21
487.1016403668859
 31
0.0
  0
LINE
  5
26349
330
20
100
AcDbEntity
  8
10000_FRONT
  6
Continuous
 62
     7
370
    13
100
AcDbLine
 10
48.81909891941631
 20
486.1016403668858
 30
0.0
 11
48.71909891941633
 21
485.8238703668859
 31
0.0
  0
LINE
  5
2634A
330
20
100
AcDbEntity
  8
10000_FRONT
  6
Continuous
 62
     7
370
    50
100
AcDbLine
 39
0.7
 10
46.86908991941632
 20
442.3516403668858
 30
0.0
 11
46.86909891941633
 21
442.3516403668858
 31
0.0
  0
LINE
  5
2634E
330
20
100
AcDbEntity
  8
10000_FRONT
  6
Continuous
 62
     7
370
    50
100
AcDbLine
 39
0.7
 10
42.46909891941633
 20
442.8516403668858
 30
0.0
 11
46.86909891941633
 21
442.8516403668858
 31
0.0
  0
LINE
  5
2634F
330
20
100
AcDbEntity
  8
10000_FRONT
  6
Continuous
 62
     7
370
    50
100
AcDbLine
 39
0.7
 10
35.26909891941631
 20
442.8516403668858
 30
0.0
 11
39.66909891941631
 21
442.8516403668858
 31
0.0
  0
LINE
  5
26350
330
20
100
AcDbEntity
  8
10000_FRONT
  6
Continuous
 62
     7
370
    50
100
AcDbLine
 39
0.7
 10
28.06909891941632
 20
442.8516403668858
 30
0.0
 11
32.46909891941633
 21
442.8516403668858
 31
0.0
  0
ARC
  5
26351
330
20
100
AcDbEntity
  8
10000_FRONT
  6
Continuous
 62
     7
370
    50
100
AcDbCircle
 39
0.7
 10
26.41909891941632
 20
442.5516403668858
 30
0.0
 40
0.2
100
AcDbArc
 50
180.0
 51
270.0004400000003
  0
LINE
  5
26352
330
20
100
AcDbEntity
  8
10000_FRONT
  6
Continuous
 62
     7
370
    20
100
AcDbLine
 10
26.21909891941633
 20
456.4266403668859
 30
0.0
 11
26.21909891941633
 21
456.3516403668859
 31
0.0
  0
LINE
  5
26353
330
20
100
AcDbEntity
  8
10000_FRONT
  6
Continuous
 62
     7
370
    50
100
AcDbLine
 39
0.7
 10
26.21909891941633
 20
456.3516403668859
 30
0.0
 11
26.21909891941633
 21
442.5516403668859
 31
0.0
  0
LINE
  5
26354
330
20
100
AcDbEntity
  8
10000_FRONT
  6
Continuous
 62
     7
370
    50
100
AcDbLine
 39
0.7
 10
28.06909891941632
 20
442.3516403668858
 30
0.0
 11
28.06909891941632
 21
442.5516403668859
 31
0.0
  0
LINE
  5
26355
330
20
100
AcDbEntity
  8
10000_FRONT
  6
Continuous
 62
     7
370
    50
100
AcDbLine
 39
0.7
 10
28.06909891941632
 20
442.8516403668858
 30
0.0
 11
28.06909891941632
 21
442.5516403668859
 31
0.0
  0
LINE
  5
26356
330
20
100
AcDbEntity
  8
10000_FRONT
  6
Continuous
 62
     7
370
    50
100
AcDbLine
 39
0.7
 10
32.46909891941633
 20
442.5516403668859
 30
0.0
 11
32.46909891941633
 21
442.3516403668858
 31
0.0
  0
LINE
  5
26357
330
20
100
AcDbEntity
  8
10000_FRONT
  6
Continuous
 62
     7
370
    50
100
AcDbLine
 39
0.7
 10
32.46909891941633
 20
442.8516403668858
 30
0.0
 11
32.46909891941633
 21
442.5516403668859
 31
0.0
  0
LINE
  5
26358
330
20
100
AcDbEntity
  8
10000_FRONT
  6
Continuous
 62
     7
370
    50
100
AcDbLine
 39
0.7
 10
35.26909891941631
 20
442.3516403668858
 30
0.0
 11
35.26909891941631
 21
442.5516403668859
 31
0.0
  0
LINE
  5
26359
330
20
100
AcDbEntity
  8
10000_FRONT
  6
Continuous
 62
     7
370
    50
100
AcDbLine
 39
0.7
 10
35.26909891941631
 20
442.8516403668858
 30
0.0
 11
35.26909891941631
 21
442.5516403668859
 31
0.0
  0
LINE
  5
2635A
330
20
100
AcDbEntity
  8
10000_FRONT
  6
Continuous
 62
     7
370
    50
100
AcDbLine
 39
0.7
 10
39.66909891941631
 20
442.5516403668859
 30
0.0
 11
39.66909891941631
 21
442.3516403668858
 31
0.0
  0
LINE
  5
2635B
330
20
100
AcDbEntity
  8
10000_FRONT
  6
Continuous
 62
     7
370
    50
100
AcDbLine
 39
0.7
 10
39.66909891941631
 20
442.8516403668858
 30
0.0
 11
39.66909891941631
 21
442.5516403668859
 31
0.0
  0
LINE
  5
2635C
330
20
100
AcDbEntity
  8
10000_FRONT
  6
Continuous
 62
     7
370
    50
100
AcDbLine
 39
0.7
 10
42.46909891941633
 20
442.3516403668858
 30
0.0
 11
42.46909891941633
 21
442.5516403668859
 31
0.0
  0
LINE
  5
2635D
330
20
100
AcDbEntity
  8
10000_FRONT
  6
Continuous
 62
     7
370
    50
100
AcDbLine
 39
0.7
 10
42.46909891941633
 20
442.8516403668858
 30
0.0
 11
42.46909891941633
 21
442.5516403668859
 31
0.0
  0
ARC
  5
2635E
330
20
100
AcDbEntity
  8
10000_FRONT
  6
Continuous
 62
     7
370
    50
100
AcDbCircle
 39
0.7
 10
48.51909891941629
 20
442.5516403668858
 30
0.0
 40
0.2
100
AcDbArc
 50
270.0
 51
0.0
  0
LINE
  5
2635F
330
20
100
AcDbEntity
  8
10000_FRONT
  6
Continuous
 62
     7
370
    20
100
AcDbLine
 10
48.71909891941633
 20
456.4266403668859
 30
0.0
 11
48.71909891941633
 21
456.3516403668859
 31
0.0
  0
LINE
  5
26360
330
20
100
AcDbEntity
  8
10000_FRONT
  6
Continuous
 62
     7
370
    50
100
AcDbLine
 39
0.7
 10
48.71909891941633
 20
442.5516403668859
 30
0.0
 11
48.71909891941633
 21
456.3516403668859
 31
0.0
  0
LINE
  5
26361
330
20
100
AcDbEntity
  8
10000_FRONT
  6
Continuous
 62
     7
370
    50
100
AcDbLine
 39
0.7
 10
46.86909891941633
 20
442.5516403668859
 30
0.0
 11
46.86909891941633
 21
442.3516403668858
 31
0.0
  0
LINE
  5
26362
330
20
100
AcDbEntity
  8
10000_FRONT
  6
Continuous
 62
     7
370
    50
100
AcDbLine
 39
0.7
 10
46.86909891941633
 20
442.8516403668858
 30
0.0
 11
46.86909891941633
 21
442.5516403668859
 31
0.0
  0
LINE
  5
26363
330
20
100
AcDbEntity
  8
10000_FRONT
  6
Continuous
 62
     7
370
    50
100
AcDbLine
 39
0.7
 10
46.86909891941633
 20
442.3516403668858
 30
0.0
 11
47.91909891941631
 21
442.3516403668858
 31
0.0
  0
LINE
  5
26364
330
20
100
AcDbEntity
  8
10000_FRONT
  6
Continuous
 62
     7
370
    50
100
AcDbLine
 39
0.7
 10
47.91909891941631
 20
442.3516403668858
 30
0.0
 11
48.51909691941632
 21
442.3516403668858
 31
0.0
  0
LINE
  5
26365
330
20
100
AcDbEntity
  8
10000_FRONT
  6
Continuous
 62
     7
370
    50
100
AcDbLine
 39
0.7
 10
26.41910091941634
 20
442.3516403668858
 30
0.0
 11
27.01909891941631
 21
442.3516403668858
 31
0.0
  0
LINE
  5
26366
330
20
100
AcDbEntity
  8
10000_FRONT
  6
Continuous
 62
     7
370
    50
100
AcDbLine
 39
0.7
 10
27.01909891941631
 20
442.3516403668858
 30
0.0
 11
28.06909891941632
 21
442.3516403668858
 31
0.0
  0
LINE
  5
26367
330
20
100
AcDbEntity
  8
10000_FRONT
  6
Continuous
 62
     7
370
    50
100
AcDbLine
 39
0.7
 10
39.66909891941631
 20
442.3516403668858
 30
0.0
 11
42.46909891941633
 21
442.3516403668858
 31
0.0
  0
LINE
  5
26368
330
20
100
AcDbEntity
  8
10000_FRONT
  6
Continuous
 62
     7
370
    50
100
AcDbLine
 39
0.7
 10
32.46909891941633
 20
442.3516403668858
 30
0.0
 11
35.26909891941631
 21
442.3516403668858
 31
0.0
  0
LINE
  5
26369
330
20
100
AcDbEntity
  8
11000_Left
  6
Continuous
 62
     7
370
    20
100
AcDbLine
 10
205.7436545200058
 20
442.3516403668858
 30
0.0
 11
205.7436645200057
 21
442.3516403668858
 31
0.0
  0
LINE
  5
2636A
330
20
100
AcDbEntity
  8
11000_Left
  6
Continuous
 62
     7
370
    20
100
AcDbLine
 10
206.9436645200057
 20
442.3516403668858
 30
0.0
 11
206.9436645200057
 21
442.3516403668858
 31
0.0
  0
LINE
  5
2636B
330
20
100
AcDbEntity
  8
11000_Left
  6
Continuous
 62
     7
370
    13
100
AcDbLine
 10
181.5221245200057
 20
444.8516403668858
 30
0.0
 11
205.7436645200057
 21
443.5822503668858
 31
0.0
  0
LINE
  5
2636C
330
20
100
AcDbEntity
  8
11000_Left
  6
Continuous
 62
     7
370
    13
100
AcDbLine
 10
179.4436645200057
 20
443.6516403668858
 30
0.0
 11
181.5221245200057
 21
444.8516403668858
 31
0.0
  0
LINE
  5
2636D
330
20
100
AcDbEntity
  8
11000_Left
  6
Continuous
 62
     7
370
    13
100
AcDbLine
 10
179.4436645200057
 20
442.5516403668858
 30
0.0
 11
179.4436645200057
 21
443.6516403668858
 31
0.0
  0
LINE
  5
2636E
330
20
100
AcDbEntity
  8
11000_Left
  6
Continuous
 62
     7
370
    20
100
AcDbLine
 10
179.4436645200057
 20
442.3516403668858
 30
0.0
 11
179.4436645200057
 21
442.5516403668858
 31
0.0
  0
LINE
  5
2636F
330
20
100
AcDbEntity
  8
11000_Left
  6
Continuous
 62
     7
370
    20
100
AcDbLine
 10
205.7436645200057
 20
442.5516403668858
 30
0.0
 11
205.7436645200057
 21
442.3516403668858
 31
0.0
  0
LINE
  5
26370
330
20
100
AcDbEntity
  8
11000_Left
  6
Continuous
 62
     7
370
    13
100
AcDbLine
 10
205.7436645200057
 20
443.5822503668858
 30
0.0
 11
205.7436645200057
 21
442.5516403668858
 31
0.0
  0
ARC
  5
26371
330
20
100
AcDbEntity
  8
11000_Left
  6
Continuous
 62
     7
370
    50
100
AcDbCircle
 39
0.7
 10
206.9436645200057
 20
442.5516403668858
 30
0.0
 40
0.2
100
AcDbArc
 50
269.99979
 51
0.0
  0
LINE
  5
26372
330
20
100
AcDbEntity
  8
11000_Left
  6
Continuous
 62
     7
370
    13
100
AcDbLine
 10
194.8436645200057
 20
460.3516403668859
 30
0.0
 11
194.8436645200057
 21
456.3516403668859
 31
0.0
  0
ARC
  5
26374
330
20
100
AcDbEntity
  8
11000_Left
  6
Continuous
 62
     7
370
    50
100
AcDbCircle
 39
0.7
 10
178.5436645200056
 20
442.5516403668858
 30
0.0
 40
0.2
100
AcDbArc
 50
180.0
 51
270.0
  0
LINE
  5
26375
330
20
100
AcDbEntity
  8
11000_Left
  6
Continuous
 62
     7
370
    13
100
AcDbLine
 10
207.1436645200057
 20
456.3516403668859
 30
0.0
 11
206.3436645200058
 21
456.3516403668859
 31
0.0
  0
LINE
  5
26376
330
20
100
AcDbEntity
  8
11000_Left
  6
Continuous
 62
     7
370
    13
100
AcDbLine
 10
206.3436645200058
 20
456.3516403668859
 30
0.0
 11
194.8436645200057
 21
456.3516403668859
 31
0.0
  0
LINE
  5
26377
330
20
100
AcDbEntity
  8
11000_Left
  6
Continuous
 62
     7
370
    50
100
AcDbLine
 39
0.7
 10
175.8436645200057
 20
446.8516403668858
 30
0.0
 11
178.3436645200057
 21
446.8516403668858
 31
0.0
  0
LINE
  5
26378
330
20
100
AcDbEntity
  8
11000_Left
  6
Continuous
 62
     7
370
    50
100
AcDbLine
 39
0.7
 10
175.5900745200056
 20
446.8516403668858
 30
0.0
 11
175.8436645200057
 21
446.8516403668858
 31
0.0
  0
LINE
  5
26379
330
20
100
AcDbEntity
  8
11000_Left
  6
Continuous
 62
     7
370
    50
100
AcDbLine
 39
0.7
 10
174.8436645200056
 20
446.8516403668858
 30
0.0
 11
175.5900745200056
 21
446.8516403668858
 31
0.0
  0
LINE
  5
2637A
330
20
100
AcDbEntity
  8
11000_Left
  6
Continuous
 62
     7
370
    50
100
AcDbLine
 39
0.7
 10
207.1436645200057
 20
442.5516403668858
 30
0.0
 11
207.1436645200057
 21
456.3516403668859
 31
0.0
  0
LINE
  5
2637B
330
20
100
AcDbEntity
  8
11000_Left
  6
Continuous
 62
     7
370
    20
100
AcDbLine
 10
174.8436645200056
 20
460.4016403668858
 30
0.0
 11
174.8436645200056
 21
447.8516403668859
 31
0.0
  0
LINE
  5
2637C
330
20
100
AcDbEntity
  8
11000_Left
  6
Continuous
 62
     7
370
    50
100
AcDbLine
 39
0.7
 10
178.3436645200057
 20
446.8516403668858
 30
0.0
 11
178.3436645200057
 21
442.5516403668858
 31
0.0
  0
LINE
  5
2637D
330
20
100
AcDbEntity
  8
11000_Left
  6
Continuous
 62
     7
370
    50
100
AcDbLine
 39
0.7
 10
178.5436645200056
 20
442.3516403668858
 30
0.0
 11
179.4436645200057
 21
442.3516403668858
 31
0.0
  0
LINE
  5
2637E
330
20
100
AcDbEntity
  8
11000_Left
  6
Continuous
 62
     7
370
    50
100
AcDbLine
 39
0.7
 10
205.7436645200057
 20
442.3516403668858
 30
0.0
 11
179.4436645200057
 21
442.3516403668858
 31
0.0
  0
LINE
  5
2637F
330
20
100
AcDbEntity
  8
11000_Left
  6
Continuous
 62
     7
370
    50
100
AcDbLine
 39
0.7
 10
205.7436645200057
 20
442.3516403668858
 30
0.0
 11
206.3436645200058
 21
442.3516403668858
 31
0.0
  0
LINE
  5
26380
330
20
100
AcDbEntity
  8
11000_Left
  6
Continuous
 62
     7
370
    50
100
AcDbLine
 39
0.7
 10
206.3436645200058
 20
442.3516403668858
 30
0.0
 11
206.9436545200058
 21
442.3516403668858
 31
0.0
  0
LINE
  5
26381
330
20
100
AcDbEntity
  8
11000_Left
  6
Continuous
 62
     7
370
    20
100
AcDbLine
 10
201.1436645200057
 20
475.7016403668855
 30
0.0
 11
201.1436645200057
 21
506.8016403668855
 31
0.0
  0
LINE
  5
26382
330
20
100
AcDbEntity
  8
11000_Left
  6
Continuous
 62
     7
370
    20
100
AcDbLine
 10
201.1436645200057
 20
506.8016403668855
 30
0.0
 11
174.8436645200056
 21
506.8016403668855
 31
0.0
  0
LINE
  5
26383
330
20
100
AcDbEntity
  8
11000_Left
  6
Continuous
 62
     7
370
    20
100
AcDbLine
 10
127.1436545200057
 20
475.7016403668855
 30
0.0
 11
201.1436645200057
 21
475.7016403668855
 31
0.0
  0
LINE
  5
26384
330
20
100
AcDbEntity
  8
11000_Left
  6
Continuous
 62
     7
370
    20
100
AcDbLine
 10
92.1436645200057
 20
475.7016403668859
 30
0.0
 11
97.1436645200057
 21
475.7016403668859
 31
0.0
  0
LINE
  5
26385
330
20
100
AcDbEntity
  8
11000_Left
  6
Continuous
 62
     7
370
    20
100
AcDbLine
 10
174.8436645200056
 20
506.8016403668855
 30
0.0
 11
174.8436645200056
 21
519.3516403668859
 31
0.0
  0
LINE
  5
26386
330
20
100
AcDbEntity
  8
11000_Left
  6
Continuous
 62
     7
370
    20
100
AcDbLine
 10
174.8436645200056
 20
520.3516403668859
 30
0.0
 11
174.8436645200056
 21
519.3516403668859
 31
0.0
  0
LINE
  5
26387
330
20
100
AcDbEntity
  8
11000_Left
  6
Continuous
 62
     7
370
    13
100
AcDbLine
 10
172.4436645200056
 20
520.3516403668859
 30
0.0
 11
172.4436645200056
 21
516.3016403668856
 31
0.0
  0
LINE
  5
26389
330
20
100
AcDbEntity
  8
11000_Left
  6
Continuous
 62
     7
370
    20
100
AcDbLine
 10
164.5436645200057
 20
484.2016403668856
 30
0.0
 11
171.5436645200057
 21
484.2016403668856
 31
0.0
  0
LINE
  5
2638A
330
20
100
AcDbEntity
  8
11000_Left
  6
Continuous
 62
     7
370
    20
100
AcDbLine
 10
171.5436645200057
 20
484.2016403668856
 30
0.0
 11
171.5436645200057
 21
480.0016403668855
 31
0.0
  0
LINE
  5
2638B
330
20
100
AcDbEntity
  8
11000_Left
  6
Continuous
 62
     7
370
    20
100
AcDbLine
 10
164.5436645200057
 20
480.0016403668855
 30
0.0
 11
164.5436645200057
 21
484.2016403668856
 31
0.0
  0
LINE
  5
2638C
330
20
100
AcDbEntity
  8
11000_Left
  6
Continuous
 62
     7
370
    20
100
AcDbLine
 10
171.5436645200057
 20
480.0016403668855
 30
0.0
 11
164.5436645200057
 21
480.0016403668855
 31
0.0
  0
LINE
  5
2638D
330
20
100
AcDbEntity
  8
11000_Left
  6
Continuous
 62
     7
370
    50
100
AcDbLine
 39
0.7
 10
88.54366452000574
 20
498.2016403668858
 30
0.0
 11
89.44366452000576
 21
498.2016403668858
 31
0.0
  0
LINE
  5
2638E
330
20
100
AcDbEntity
  8
11000_Left
  6
Continuous
 62
     7
370
    50
100
AcDbLine
 39
0.7
 10
90.28506452000575
 20
498.2016403668858
 30
0.0
 11
89.44366452000576
 21
498.2016403668858
 31
0.0
  0
LINE
  5
2638F
330
20
100
AcDbEntity
  8
11000_Left
  6
Continuous
 62
     7
370
    50
100
AcDbLine
 39
0.7
 10
91.54366452000571
 20
499.7016403668856
 30
0.0
 11
92.1436645200057
 21
499.7016403668856
 31
0.0
  0
LINE
  5
26390
330
20
100
AcDbEntity
  8
11000_Left
  6
Continuous
 62
     7
370
    50
100
AcDbLine
 39
0.7
 10
90.74366452000573
 20
499.7016403668856
 30
0.0
 11
91.54366452000571
 21
499.7016403668856
 31
0.0
  0
LINE
  5
26391
330
20
100
AcDbEntity
  8
11000_Left
  6
Continuous
 62
     7
370
    50
100
AcDbLine
 39
0.7
 10
90.28506452000575
 20
498.2016403668858
 30
0.0
 11
90.74366452000573
 21
499.7016403668856
 31
0.0
  0
LINE
  5
26392
330
20
100
AcDbEntity
  8
11000_Left
  6
Continuous
 62
     7
370
    50
100
AcDbLine
 39
0.7
 10
87.04366452000574
 20
499.4016403668858
 30
0.0
 11
88.54366452000574
 21
498.2016403668858
 31
0.0
  0
LINE
  5
26393
330
20
100
AcDbEntity
  8
11000_Left
  6
Continuous
 62
     7
370
    50
100
AcDbLine
 39
0.7
 10
87.04366452000574
 20
519.3516403668859
 30
0.0
 11
87.04366452000574
 21
500.9516403668857
 31
0.0
  0
LINE
  5
26394
330
20
100
AcDbEntity
  8
11000_Left
  6
Continuous
 62
     7
370
    50
100
AcDbLine
 39
0.7
 10
87.04366452000574
 20
500.4160003668858
 30
0.0
 11
87.04366452000574
 21
500.9516403668857
 31
0.0
  0
LINE
  5
26395
330
20
100
AcDbEntity
  8
11000_Left
  6
Continuous
 62
     7
370
    50
100
AcDbLine
 39
0.7
 10
87.04366452000574
 20
499.4016403668858
 30
0.0
 11
87.04366452000574
 21
500.4160003668858
 31
0.0
  0
LINE
  5
26396
330
20
100
AcDbEntity
  8
11000_Left
  6
Continuous
 62
     7
370
    50
100
AcDbLine
 39
0.7
 10
87.04366452000574
 20
519.3516403668859
 30
0.0
 11
87.04366452000574
 21
520.3516403668859
 31
0.0
  0
LINE
  5
26397
330
20
100
AcDbEntity
  8
11000_Left
  6
Continuous
 62
     7
370
    50
100
AcDbLine
 39
0.7
 10
92.1436645200057
 20
499.7016403668856
 30
0.0
 11
92.1436645200057
 21
475.7016403668859
 31
0.0
  0
LINE
  5
26398
330
20
100
AcDbEntity
  8
11000_Left
  6
Continuous
 62
     7
370
    20
100
AcDbLine
 10
91.39366452000572
 20
511.5016403668859
 30
0.0
 11
92.89366452000569
 21
511.5016403668859
 31
0.0
  0
LINE
  5
26399
330
20
100
AcDbEntity
  8
11000_Left
  6
Continuous
 62
     7
370
    20
100
AcDbLine
 10
91.39366452000572
 20
507.0016403668858
 30
0.0
 11
91.39366452000572
 21
511.5016403668859
 31
0.0
  0
LINE
  5
2639A
330
20
100
AcDbEntity
  8
11000_Left
  6
Continuous
 62
     7
370
    20
100
AcDbLine
 10
92.89366452000569
 20
507.0016403668858
 30
0.0
 11
91.39366452000572
 21
507.0016403668858
 31
0.0
  0
LINE
  5
2639B
330
20
100
AcDbEntity
  8
11000_Left
  6
Continuous
 62
     7
370
    20
100
AcDbLine
 10
92.89366452000569
 20
511.5016403668859
 30
0.0
 11
92.89366452000569
 21
507.0016403668858
 31
0.0
  0
LINE
  5
2639C
330
20
100
AcDbEntity
  8
11000_Left
  6
Continuous
 62
     7
370
    13
100
AcDbLine
 10
146.0436645200057
 20
516.3016403668856
 30
0.0
 11
146.0436645200057
 21
520.3516403668859
 31
0.0
  0
LINE
  5
2639D
330
20
100
AcDbEntity
  8
11000_Left
  6
Continuous
 62
     7
370
    13
100
AcDbLine
 10
172.4436645200056
 20
516.3016403668856
 30
0.0
 11
146.0436645200057
 21
516.3016403668856
 31
0.0
  0
LINE
  5
2639F
330
20
100
AcDbEntity
  8
11000_Left
  6
Continuous
 62
     7
370
    50
100
AcDbLine
 39
0.7
 10
87.04366452000574
 20
520.3516403668859
 30
0.0
 11
92.14366452000575
 21
520.3516403668859
 31
0.0
  0
LINE
  5
263A0
330
20
100
AcDbEntity
  8
11000_Left
  6
Continuous
 62
     7
370
    50
100
AcDbLine
 39
0.7
 10
92.14366452000575
 20
520.3516403668859
 30
0.0
 11
146.0436645200058
 21
520.3516403668859
 31
0.0
  0
LINE
  5
263A2
330
20
100
AcDbEntity
  8
11000_Left
  6
Continuous
 62
     7
370
    20
100
AcDbLine
 10
166.0436645200056
 20
516.3516403668859
 30
0.0
 11
166.0436645200058
 21
520.3516403668859
 31
0.0
  0
LINE
  5
263A3
330
20
100
AcDbEntity
  8
11000_Left
  6
Continuous
 62
     7
370
    13
100
AcDbLine
 10
176.9436645200057
 20
533.1210403668858
 30
0.0
 11
152.7221245200057
 21
531.8516403668859
 31
0.0
  0
ARC
  5
263A4
330
20
100
AcDbEntity
  8
11000_Left
  6
Continuous
 62
     7
370
    50
100
AcDbCircle
 39
0.7
 10
178.1436645200057
 20
534.1516403668858
 30
0.0
 40
0.2
100
AcDbArc
 50
0.0
 51
90.00044000000031
  0
LINE
  5
263A5
330
20
100
AcDbEntity
  8
11000_Left
  6
Continuous
 62
     7
370
    13
100
AcDbLine
 10
176.9436645200057
 20
534.1516403668858
 30
0.0
 11
176.9436645200057
 21
533.1210403668858
 31
0.0
  0
LINE
  5
263A6
330
20
100
AcDbEntity
  8
11000_Left
  6
Continuous
 62
     7
370
    20
100
AcDbLine
 10
176.9436645200057
 20
534.3516403668859
 30
0.0
 11
176.9436645200057
 21
534.1516403668858
 31
0.0
  0
LINE
  5
263A7
330
20
100
AcDbEntity
  8
11000_Left
  6
Continuous
 62
     7
370
    13
100
AcDbLine
 10
152.7221245200057
 20
531.8516403668859
 30
0.0
 11
150.6436645200057
 21
533.0516403668856
 31
0.0
  0
LINE
  5
263A8
330
20
100
AcDbEntity
  8
11000_Left
  6
Continuous
 62
     7
370
    20
100
AcDbLine
 10
150.6436645200057
 20
534.1516403668858
 30
0.0
 11
150.6436645200057
 21
534.3516403668859
 31
0.0
  0
LINE
  5
263A9
330
20
100
AcDbEntity
  8
11000_Left
  6
Continuous
 62
     7
370
    13
100
AcDbLine
 10
150.6436645200057
 20
534.1516403668858
 30
0.0
 11
150.6436645200057
 21
533.0516403668856
 31
0.0
  0
ARC
  5
263AA
330
20
100
AcDbEntity
  8
11000_Left
  6
Continuous
 62
     7
370
    50
100
AcDbCircle
 39
0.7
 10
149.7436645200058
 20
534.1516403668858
 30
0.0
 40
0.2
100
AcDbArc
 50
90.0
 51
180.0
  0
LINE
  5
263AB
330
20
100
AcDbEntity
  8
11000_Left
  6
Continuous
 62
     7
370
    20
100
AcDbLine
 10
177.5436645200058
 20
520.3516403668859
 30
0.0
 11
166.0436645200058
 21
520.3516403668859
 31
0.0
  0
LINE
  5
263AC
330
20
100
AcDbEntity
  8
11000_Left
  6
Continuous
 62
     7
370
    20
100
AcDbLine
 10
177.5436645200058
 20
520.3516403668859
 30
0.0
 11
178.3436645200057
 21
520.3516403668859
 31
0.0
  0
LINE
  5
263AD
330
20
100
AcDbEntity
  8
11000_Left
  6
Continuous
 62
     7
370
    50
100
AcDbLine
 39
0.7
 10
147.0436645200058
 20
529.8516403668859
 30
0.0
 11
149.5436645200058
 21
529.8516403668859
 31
0.0
  0
LINE
  5
263AE
330
20
100
AcDbEntity
  8
11000_Left
  6
Continuous
 62
     7
370
    50
100
AcDbLine
 39
0.7
 10
146.7900745200056
 20
529.8516403668859
 30
0.0
 11
146.0436645200058
 21
529.8516403668859
 31
0.0
  0
LINE
  5
263AF
330
20
100
AcDbEntity
  8
11000_Left
  6
Continuous
 62
     7
370
    50
100
AcDbLine
 39
0.7
 10
147.0436645200058
 20
529.8516403668859
 30
0.0
 11
146.7900745200056
 21
529.8516403668859
 31
0.0
  0
LINE
  5
263B0
330
20
100
AcDbEntity
  8
11000_Left
  6
Continuous
 62
     7
370
    50
100
AcDbLine
 39
0.7
 10
178.3436645200057
 20
524.6016403668859
 30
0.0
 11
178.3436645200057
 21
534.1516403668858
 31
0.0
  0
LINE
  5
263B1
330
20
100
AcDbEntity
  8
11000_Left
  6
Continuous
 62
     7
370
    50
100
AcDbLine
 39
0.7
 10
146.0436645200058
 20
520.3516403668859
 30
0.0
 11
146.0436645200058
 21
529.8516403668859
 31
0.0
  0
LINE
  5
263B3
330
20
100
AcDbEntity
  8
11000_Left
  6
Continuous
 62
     7
370
    50
100
AcDbLine
 39
0.7
 10
149.5436645200058
 20
534.1516403668858
 30
0.0
 11
149.5436645200058
 21
529.8516403668859
 31
0.0
  0
LINE
  5
263B4
330
20
100
AcDbEntity
  8
11000_Left
  6
Continuous
 62
     7
370
    50
100
AcDbLine
 39
0.7
 10
150.6436645200057
 20
534.3516403668859
 30
0.0
 11
149.7436645200057
 21
534.3516403668859
 31
0.0
  0
LINE
  5
263B5
330
20
100
AcDbEntity
  8
11000_Left
  6
Continuous
 62
     7
370
    50
100
AcDbLine
 39
0.7
 10
178.1436545200057
 20
534.3516403668859
 30
0.0
 11
177.5436645200058
 21
534.3516403668859
 31
0.0
  0
LINE
  5
263B6
330
20
100
AcDbEntity
  8
11000_Left
  6
Continuous
 62
     7
370
    50
100
AcDbLine
 39
0.7
 10
177.5436645200058
 20
534.3516403668859
 30
0.0
 11
176.9436645200057
 21
534.3516403668859
 31
0.0
  0
LINE
  5
263B7
330
20
100
AcDbEntity
  8
11000_Left
  6
Continuous
 62
     7
370
    50
100
AcDbLine
 39
0.7
 10
176.9436645200057
 20
534.3516403668859
 30
0.0
 11
150.6436645200057
 21
534.3516403668859
 31
0.0
  0
LINE
  5
263B9
330
20
100
AcDbEntity
  8
11000_Left
  6
Continuous
 62
     7
370
    20
100
AcDbLine
 10
194.8436645200057
 20
506.8016403668855
 30
0.0
 11
194.8436645200057
 21
510.8016403668855
 31
0.0
  0
LINE
  5
263BA
330
20
100
AcDbEntity
  8
11000_Left
  6
Continuous
 62
     7
370
    13
100
AcDbLine
 10
205.7436645200057
 20
523.5710403668859
 30
0.0
 11
181.5221245200057
 21
522.3016403668856
 31
0.0
  0
ARC
  5
263BB
330
20
100
AcDbEntity
  8
11000_Left
  6
Continuous
 62
     7
370
    50
100
AcDbCircle
 39
0.7
 10
206.9436645200058
 20
524.6016403668857
 30
0.0
 40
0.2
100
AcDbArc
 50
0.0
 51
90.00044000000031
  0
LINE
  5
263BC
330
20
100
AcDbEntity
  8
11000_Left
  6
Continuous
 62
     7
370
    13
100
AcDbLine
 10
205.7436645200057
 20
524.6016403668859
 30
0.0
 11
205.7436645200057
 21
523.5710403668859
 31
0.0
  0
LINE
  5
263BD
330
20
100
AcDbEntity
  8
11000_Left
  6
Continuous
 62
     7
370
    20
100
AcDbLine
 10
205.7436645200057
 20
524.8016403668856
 30
0.0
 11
205.7436645200057
 21
524.6016403668859
 31
0.0
  0
LINE
  5
263BE
330
20
100
AcDbEntity
  8
11000_Left
  6
Continuous
 62
     7
370
    13
100
AcDbLine
 10
181.5221245200057
 20
522.3016403668856
 30
0.0
 11
179.4436645200057
 21
523.5016403668858
 31
0.0
  0
LINE
  5
263BF
330
20
100
AcDbEntity
  8
11000_Left
  6
Continuous
 62
     7
370
    20
100
AcDbLine
 10
179.4436645200057
 20
524.6016403668859
 30
0.0
 11
179.4436645200057
 21
524.8016403668856
 31
0.0
  0
LINE
  5
263C0
330
20
100
AcDbEntity
  8
11000_Left
  6
Continuous
 62
     7
370
    13
100
AcDbLine
 10
179.4436645200057
 20
524.6016403668859
 30
0.0
 11
179.4436645200057
 21
523.5016403668858
 31
0.0
  0
ARC
  5
263C1
330
20
100
AcDbEntity
  8
11000_Left
  6
Continuous
 62
     7
370
    50
100
AcDbCircle
 39
0.7
 10
178.5436645200058
 20
524.6016403668859
 30
0.0
 40
0.2
100
AcDbArc
 50
90.0
 51
180.0
  0
LINE
  5
263C2
330
20
100
AcDbEntity
  8
11000_Left
  6
Continuous
 62
     7
370
    20
100
AcDbLine
 10
206.3436645200058
 20
510.8016403668855
 30
0.0
 11
194.8436645200057
 21
510.8016403668855
 31
0.0
  0
LINE
  5
263C3
330
20
100
AcDbEntity
  8
11000_Left
  6
Continuous
 62
     7
370
    20
100
AcDbLine
 10
206.3436645200058
 20
510.8016403668855
 30
0.0
 11
207.1436645200057
 21
510.8016403668855
 31
0.0
  0
LINE
  5
263C4
330
20
100
AcDbEntity
  8
11000_Left
  6
Continuous
 62
     7
370
    50
100
AcDbLine
 39
0.7
 10
207.1436645200057
 20
510.8016403668855
 30
0.0
 11
207.1436645200058
 21
524.6016403668859
 31
0.0
  0
LINE
  5
263C5
330
20
100
AcDbEntity
  8
11000_Left
  6
Continuous
 62
     7
370
    20
100
AcDbLine
 10
178.3436645200057
 20
524.6016403668859
 30
0.0
 11
178.3436645200057
 21
520.3516403668859
 31
0.0
  0
LINE
  5
263C6
330
20
100
AcDbEntity
  8
11000_Left
  6
Continuous
 62
     7
370
    50
100
AcDbLine
 39
0.7
 10
179.4436645200057
 20
524.8016403668856
 30
0.0
 11
178.5436645200058
 21
524.8016403668856
 31
0.0
  0
LINE
  5
263C7
330
20
100
AcDbEntity
  8
11000_Left
  6
Continuous
 62
     7
370
    50
100
AcDbLine
 39
0.7
 10
206.9436545200058
 20
524.8016403668856
 30
0.0
 11
206.3436645200058
 21
524.8016403668856
 31
0.0
  0
LINE
  5
263C8
330
20
100
AcDbEntity
  8
11000_Left
  6
Continuous
 62
     7
370
    50
100
AcDbLine
 39
0.7
 10
206.3436645200058
 20
524.8016403668856
 30
0.0
 11
205.7436645200057
 21
524.8016403668856
 31
0.0
  0
LINE
  5
263C9
330
20
100
AcDbEntity
  8
11000_Left
  6
Continuous
 62
     7
370
    50
100
AcDbLine
 39
0.7
 10
205.7436645200057
 20
524.8016403668856
 30
0.0
 11
179.4436645200057
 21
524.8016403668856
 31
0.0
  0
LINE
  5
263CA
330
20
100
AcDbEntity
  8
11000_Left
  6
Continuous
 62
     7
370
    20
100
AcDbLine
 10
201.2436645200057
 20
457.3516403668858
 30
0.0
 11
201.8436645200057
 21
457.3516403668858
 31
0.0
  0
LINE
  5
263CB
330
20
100
AcDbEntity
  8
11000_Left
  6
Continuous
 62
     7
370
    20
100
AcDbLine
 10
201.1436645200057
 20
460.9516403668855
 30
0.0
 11
201.1436645200057
 21
475.7016403668855
 31
0.0
  0
ARC
  5
263CC
330
20
100
AcDbEntity
  8
11000_Left
  6
Continuous
 62
     7
370
    50
100
AcDbCircle
 39
0.7
 10
91.84366452000574
 20
466.4016403668858
 30
0.0
 40
0.3
100
AcDbArc
 50
270.0
 51
0.0
  0
LINE
  5
263CD
330
20
100
AcDbEntity
  8
11000_Left
  6
Continuous
 62
     7
370
    20
100
AcDbLine
 10
93.1436645200057
 20
457.7016403668858
 30
0.0
 11
91.64366452000569
 21
457.7016403668858
 31
0.0
  0
LINE
  5
263CE
330
20
100
AcDbEntity
  8
11000_Left
  6
Continuous
 62
     7
370
    20
100
AcDbLine
 10
93.1436645200057
 20
462.2016403668858
 30
0.0
 11
93.1436645200057
 21
457.7016403668858
 31
0.0
  0
LINE
  5
263CF
330
20
100
AcDbEntity
  8
11000_Left
  6
Continuous
 62
     7
370
    20
100
AcDbLine
 10
91.64366452000569
 20
457.7016403668858
 30
0.0
 11
91.64366452000569
 21
462.2016403668858
 31
0.0
  0
LINE
  5
263D0
330
20
100
AcDbEntity
  8
11000_Left
  6
Continuous
 62
     7
370
    20
100
AcDbLine
 10
91.64366452000569
 20
462.2016403668858
 30
0.0
 11
93.1436645200057
 21
462.2016403668858
 31
0.0
  0
LINE
  5
263D1
330
20
100
AcDbEntity
  8
11000_Left
  6
Continuous
 62
     7
370
    50
100
AcDbLine
 39
0.7
 10
91.84366452000574
 20
466.1016403668859
 30
0.0
 11
91.32385452000574
 21
466.1016403668859
 31
0.0
  0
LINE
  5
263D2
330
20
100
AcDbEntity
  8
11000_Left
  6
Continuous
 62
     7
370
    20
100
AcDbLine
 10
201.5436645200057
 20
456.3516403668859
 30
0.0
 11
201.2436645200057
 21
456.6516403668858
 31
0.0
  0
LINE
  5
263D3
330
20
100
AcDbEntity
  8
11000_Left
  6
Continuous
 62
     7
370
    13
100
AcDbLine
 10
157.3436645200057
 20
447.3516403668859
 30
0.0
 11
157.8436645200057
 21
446.8516403668858
 31
0.0
  0
LINE
  5
263D4
330
20
100
AcDbEntity
  8
11000_Left
  6
Continuous
 62
     7
370
    13
100
AcDbLine
 10
172.9436645200057
 20
446.8516403668858
 30
0.0
 11
172.4436645200056
 21
447.3516403668859
 31
0.0
  0
LINE
  5
263D5
330
20
100
AcDbEntity
  8
11000_Left
  6
Continuous
 62
     7
370
    13
100
AcDbLine
 10
151.7436645200057
 20
446.8516403668858
 30
0.0
 11
152.2436645200057
 21
447.3516403668859
 31
0.0
  0
LINE
  5
263D6
330
20
100
AcDbEntity
  8
11000_Left
  6
Continuous
 62
     7
370
    13
100
AcDbLine
 10
152.2436645200057
 20
448.1016403668858
 30
0.0
 11
151.5436645200056
 21
448.8016403668858
 31
0.0
  0
LINE
  5
263D7
330
20
100
AcDbEntity
  8
11000_Left
  6
Continuous
 62
     7
370
    13
100
AcDbLine
 10
165.7436645200057
 20
446.8516403668858
 30
0.0
 11
166.2436645200057
 21
447.3516403668859
 31
0.0
  0
LINE
  5
263D8
330
20
100
AcDbEntity
  8
11000_Left
  6
Continuous
 62
     7
370
    13
100
AcDbLine
 10
166.2436645200057
 20
448.1016403668858
 30
0.0
 11
165.5436645200057
 21
448.8016403668858
 31
0.0
  0
LINE
  5
263D9
330
20
100
AcDbEntity
  8
11000_Left
  6
Continuous
 62
     7
370
    13
100
AcDbLine
 10
195.5436645200057
 20
456.3516403668859
 30
0.0
 11
196.0436645200056
 21
456.8516403668859
 31
0.0
  0
LINE
  5
263DA
330
20
100
AcDbEntity
  8
11000_Left
  6
Continuous
 62
     7
370
    13
100
AcDbLine
 10
196.0436645200056
 20
457.6016403668858
 30
0.0
 11
195.3436645200057
 21
458.3016403668858
 31
0.0
  0
LINE
  5
263DB
330
20
100
AcDbEntity
  8
11000_Left
  6
Continuous
 62
     7
370
    20
100
AcDbLine
 10
201.8436645200057
 20
457.3516403668858
 30
0.0
 11
201.8436645200057
 21
460.9516403668855
 31
0.0
  0
LINE
  5
263DC
330
20
100
AcDbEntity
  8
11000_Left
  6
Continuous
 62
     7
370
    13
100
AcDbLine
 10
146.0436645200057
 20
447.8516403668859
 30
0.0
 11
146.0436645200057
 21
450.9016403668858
 31
0.0
  0
LINE
  5
263DD
330
20
100
AcDbEntity
  8
11000_Left
  6
Continuous
 62
     7
370
    13
100
AcDbLine
 10
146.0436645200057
 20
446.8516403668858
 30
0.0
 11
146.0436645200057
 21
447.8516403668859
 31
0.0
  0
LINE
  5
263DE
330
20
100
AcDbEntity
  8
11000_Left
  6
Continuous
 62
     7
370
    13
100
AcDbLine
 10
146.0436645200057
 20
450.9016403668858
 30
0.0
 11
172.4436645200056
 21
450.9016403668858
 31
0.0
  0
LINE
  5
263DF
330
20
100
AcDbEntity
  8
11000_Left
  6
Continuous
 62
     7
370
    13
100
AcDbLine
 10
151.5436645200056
 20
448.8016403668858
 30
0.0
 11
146.0436645200057
 21
448.8016403668858
 31
0.0
  0
LINE
  5
263E0
330
20
100
AcDbEntity
  8
11000_Left
  6
Continuous
 62
     7
370
    13
100
AcDbLine
 10
152.2436645200057
 20
447.3516403668859
 30
0.0
 11
152.2436645200057
 21
448.1016403668858
 31
0.0
  0
LINE
  5
263E1
330
20
100
AcDbEntity
  8
11000_Left
  6
Continuous
 62
     7
370
    13
100
AcDbLine
 10
157.3436645200057
 20
450.9016403668858
 30
0.0
 11
157.3436645200057
 21
447.3516403668859
 31
0.0
  0
LINE
  5
263E2
330
20
100
AcDbEntity
  8
11000_Left
  6
Continuous
 62
     7
370
    13
100
AcDbLine
 10
160.1436645200057
 20
448.8016403668858
 30
0.0
 11
160.1436645200057
 21
450.9016403668858
 31
0.0
  0
LINE
  5
263E3
330
20
100
AcDbEntity
  8
11000_Left
  6
Continuous
 62
     7
370
    13
100
AcDbLine
 10
165.5436645200057
 20
448.8016403668858
 30
0.0
 11
160.1436645200057
 21
448.8016403668858
 31
0.0
  0
LINE
  5
263E4
330
20
100
AcDbEntity
  8
11000_Left
  6
Continuous
 62
     7
370
    13
100
AcDbLine
 10
166.2436645200057
 20
447.3516403668859
 30
0.0
 11
166.2436645200057
 21
448.1016403668858
 31
0.0
  0
LINE
  5
263E5
330
20
100
AcDbEntity
  8
11000_Left
  6
Continuous
 62
     7
370
    20
100
AcDbLine
 10
174.8436645200056
 20
447.8516403668859
 30
0.0
 11
174.8436645200056
 21
446.8516403668858
 31
0.0
  0
LINE
  5
263E7
330
20
100
AcDbEntity
  8
11000_Left
  6
Continuous
 62
     7
370
    20
100
AcDbLine
 10
174.8436645200056
 20
460.4016403668858
 30
0.0
 11
201.2436645200057
 21
460.4016403668858
 31
0.0
  0
LINE
  5
263EA
330
20
100
AcDbEntity
  8
11000_Left
  6
Continuous
 62
     7
370
    13
100
AcDbLine
 10
195.3436645200057
 20
458.3016403668858
 30
0.0
 11
194.8436745200057
 21
458.3016403668858
 31
0.0
  0
LINE
  5
263EB
330
20
100
AcDbEntity
  8
11000_Left
  6
Continuous
 62
     7
370
    13
100
AcDbLine
 10
196.0436645200056
 20
456.8516403668859
 30
0.0
 11
196.0436645200056
 21
457.6016403668858
 31
0.0
  0
LINE
  5
263EC
330
20
100
AcDbEntity
  8
11000_Left
  6
Continuous
 62
     7
370
    13
100
AcDbLine
 10
172.4436645200056
 20
450.9016403668858
 30
0.0
 11
172.4436645200056
 21
447.8516403668859
 31
0.0
  0
LINE
  5
263ED
330
20
100
AcDbEntity
  8
11000_Left
  6
Continuous
 62
     7
370
    13
100
AcDbLine
 10
172.4436645200056
 20
447.8516403668859
 30
0.0
 11
172.4436645200056
 21
447.3516403668859
 31
0.0
  0
LINE
  5
263EE
330
20
100
AcDbEntity
  8
11000_Left
  6
Continuous
 62
     7
370
    20
100
AcDbLine
 10
201.8436645200057
 20
460.9516403668855
 30
0.0
 11
201.1436645200057
 21
460.9516403668855
 31
0.0
  0
LINE
  5
263EF
330
20
100
AcDbEntity
  8
11000_Left
  6
Continuous
 62
     7
370
    20
100
AcDbLine
 10
201.2436645200057
 20
460.4016403668858
 30
0.0
 11
201.2436645200057
 21
457.3516403668858
 31
0.0
  0
LINE
  5
263F0
330
20
100
AcDbEntity
  8
11000_Left
  6
Continuous
 62
     7
370
    20
100
AcDbLine
 10
201.2436645200057
 20
457.3516403668858
 30
0.0
 11
201.2436645200057
 21
456.6516403668858
 31
0.0
  0
LINE
  5
263F1
330
20
100
AcDbEntity
  8
11000_Left
  6
Continuous
 62
     7
370
    50
100
AcDbLine
 39
0.7
 10
89.04306452000573
 20
467.5016403668858
 30
0.0
 11
87.25687452000574
 21
466.2509403668859
 31
0.0
  0
ARC
  5
263F2
330
20
100
AcDbEntity
  8
11000_Left
  6
Continuous
 62
     7
370
    50
100
AcDbCircle
 39
0.7
 10
91.32385452000574
 20
466.4016403668858
 30
0.0
 40
0.3
100
AcDbArc
 50
195.0000000000011
 51
270.0
  0
LINE
  5
263F3
330
20
100
AcDbEntity
  8
11000_Left
  6
Continuous
 62
     7
370
    50
100
AcDbLine
 39
0.7
 10
91.03408452000577
 20
466.3240003668859
 30
0.0
 11
90.71853452000572
 21
467.5016403668858
 31
0.0
  0
LINE
  5
263F4
330
20
100
AcDbEntity
  8
11000_Left
  6
Continuous
 62
     7
370
    50
100
AcDbLine
 39
0.7
 10
87.04366452000574
 20
465.8413603668859
 30
0.0
 11
87.04366452000574
 21
447.8516403668859
 31
0.0
  0
LINE
  5
263F5
330
20
100
AcDbEntity
  8
11000_Left
  6
Continuous
 62
     7
370
    50
100
AcDbLine
 39
0.7
 10
87.04366452000574
 20
447.8516403668859
 30
0.0
 11
87.04366452000574
 21
446.8516403668858
 31
0.0
  0
LINE
  5
263F6
330
20
100
AcDbEntity
  8
11000_Left
  6
Continuous
 62
     7
370
    50
100
AcDbLine
 39
0.7
 10
90.71853452000572
 20
467.5016403668858
 30
0.0
 11
89.04306452000573
 21
467.5016403668858
 31
0.0
  0
LINE
  5
263F7
330
20
100
AcDbEntity
  8
11000_Left
  6
Continuous
 62
     7
370
    20
100
AcDbLine
 10
91.84366452000574
 20
469.7516403668858
 30
0.0
 11
91.84366452000574
 21
471.7516403668859
 31
0.0
  0
LINE
  5
263F8
330
20
100
AcDbEntity
  8
11000_Left
  6
Continuous
 62
     7
370
    20
100
AcDbLine
 10
92.1436645200057
 20
472.0516403668859
 30
0.0
 11
91.84366452000574
 21
471.7516403668859
 31
0.0
  0
LINE
  5
263F9
330
20
100
AcDbEntity
  8
11000_Left
  6
Continuous
 62
     7
370
    20
100
AcDbLine
 10
91.84366452000574
 20
469.7516403668858
 30
0.0
 11
92.1436645200057
 21
469.4516403668859
 31
0.0
  0
LINE
  5
263FA
330
20
100
AcDbEntity
  8
11000_Left
  6
Continuous
 62
     7
370
    20
100
AcDbLine
 10
92.1436645200057
 20
475.6016403668859
 30
0.0
 11
92.1436645200057
 21
475.7016303668858
 31
0.0
  0
LINE
  5
263FB
330
20
100
AcDbEntity
  8
11000_Left
  6
Continuous
 62
     7
370
    50
100
AcDbLine
 39
0.7
 10
92.1436645200057
 20
475.6016403668859
 30
0.0
 11
92.1436645200057
 21
466.4016403668858
 31
0.0
  0
ARC
  5
263FC
330
20
100
AcDbEntity
  8
11000_Left
  6
Continuous
 62
     7
370
    50
100
AcDbCircle
 39
0.7
 10
87.54366452000573
 20
465.8413603668858
 30
0.0
 40
0.5
100
AcDbArc
 50
124.9999999999987
 51
180.0
  0
LINE
  5
263FD
330
20
100
AcDbEntity
  8
11000_Left
  6
Continuous
 62
     7
370
    50
100
AcDbLine
 39
0.7
 10
146.0436645200057
 20
446.8516403668858
 30
0.0
 11
87.04366452000574
 21
446.8516403668858
 31
0.0
  0
LINE
  5
263FE
330
20
100
AcDbEntity
  8
11000_Left
  6
Continuous
 62
     7
370
    50
100
AcDbLine
 39
0.7
 10
151.7436645200057
 20
446.8516403668858
 30
0.0
 11
146.0436645200057
 21
446.8516403668858
 31
0.0
  0
LINE
  5
263FF
330
20
100
AcDbEntity
  8
11000_Left
  6
Continuous
 62
     7
370
    50
100
AcDbLine
 39
0.7
 10
157.8436645200057
 20
446.8516403668858
 30
0.0
 11
151.7436645200057
 21
446.8516403668858
 31
0.0
  0
LINE
  5
26400
330
20
100
AcDbEntity
  8
11000_Left
  6
Continuous
 62
     7
370
    50
100
AcDbLine
 39
0.7
 10
165.7436645200057
 20
446.8516403668858
 30
0.0
 11
157.8436645200057
 21
446.8516403668858
 31
0.0
  0
LINE
  5
26401
330
20
100
AcDbEntity
  8
11000_Left
  6
Continuous
 62
     7
370
    50
100
AcDbLine
 39
0.7
 10
172.9436645200057
 20
446.8516403668858
 30
0.0
 11
165.7436645200057
 21
446.8516403668858
 31
0.0
  0
LINE
  5
26402
330
20
100
AcDbEntity
  8
11000_Left
  6
Continuous
 62
     7
370
    50
100
AcDbLine
 39
0.7
 10
174.8436645200056
 20
446.8516403668858
 30
0.0
 11
172.9436645200057
 21
446.8516403668858
 31
0.0
  0
LINE
  5
26403
330
20
100
AcDbEntity
  8
11000_Left
  6
Continuous
 62
     7
370
    13
100
AcDbLine
 10
201.1436645200058
 20
510.8016403668855
 30
0.0
 11
201.1436645200057
 21
506.8016403668855
 31
0.0
  0
LINE
  5
26404
330
20
100
AcDbEntity
  8
11000_Left
  6
Continuous
 62
     7
370
    20
100
AcDbLine
 10
207.1436645200057
 20
505.3766403668856
 30
0.0
 11
210.8436645200058
 21
505.3766403668856
 31
0.0
  0
ARC
  5
26405
330
20
100
AcDbEntity
  8
11000_Left
  6
Continuous
 62
     7
370
    13
100
AcDbCircle
 10
207.0436645200057
 20
457.7266403668859
 30
0.0
 40
2.0
100
AcDbArc
 50
101.5369600000002
 51
182.8659799999971
  0
ARC
  5
26406
330
20
100
AcDbEntity
  8
11000_Left
  6
Continuous
 62
     7
370
    50
100
AcDbCircle
 39
0.7
 10
207.0436645200057
 20
457.7266403668859
 30
0.0
 40
2.0
100
AcDbArc
 50
87.1340199999997
 51
101.5369600000002
  0
LINE
  5
26407
330
20
100
AcDbEntity
  8
11000_Left
  6
Continuous
 62
     7
370
    13
100
AcDbLine
 10
205.0461645200057
 20
457.6266403668856
 30
0.0
 11
201.8436645200057
 21
457.6266403668856
 31
0.0
  0
LINE
  5
26408
330
20
100
AcDbEntity
  8
11000_Left
  6
Continuous
 62
     7
370
    13
100
AcDbLine
 10
202.5936645200058
 20
502.4766403668857
 30
0.0
 11
202.5936645200058
 21
506.4766403668859
 31
0.0
  0
LINE
  5
26409
330
20
100
AcDbEntity
  8
11000_Left
  6
Continuous
 62
     7
370
    13
100
AcDbLine
 10
204.0936645200058
 20
502.4766403668857
 30
0.0
 11
202.5936645200058
 21
502.4766403668857
 31
0.0
  0
LINE
  5
2640A
330
20
100
AcDbEntity
  8
11000_Left
  6
Continuous
 62
     7
370
    13
100
AcDbLine
 10
204.0936645200058
 20
506.4766403668859
 30
0.0
 11
204.0936645200058
 21
502.4766403668857
 31
0.0
  0
LINE
  5
2640B
330
20
100
AcDbEntity
  8
11000_Left
  6
Continuous
 62
     7
370
    13
100
AcDbLine
 10
202.5936645200058
 20
506.4766403668859
 30
0.0
 11
204.0936645200058
 21
506.4766403668859
 31
0.0
  0
ARC
  5
2640C
330
20
100
AcDbEntity
  8
11000_Left
  6
Continuous
 62
     7
370
    20
100
AcDbCircle
 10
209.1436645200057
 20
500.8766403668857
 30
0.0
 40
2.0
100
AcDbArc
 50
270.0
 51
0.0
  0
ARC
  5
2640D
330
20
100
AcDbEntity
  8
11000_Left
  6
Continuous
 62
     7
370
    20
100
AcDbCircle
 10
209.1436645200057
 20
483.8766403668857
 30
0.0
 40
2.0
100
AcDbArc
 50
0.0
 51
90.0
  0
LINE
  5
2640E
330
20
100
AcDbEntity
  8
11000_Left
  6
Continuous
 62
     7
370
    20
100
AcDbLine
 10
211.1436645200057
 20
483.8766403668857
 30
0.0
 11
211.1436645200057
 21
479.6766403668858
 31
0.0
  0
LINE
  5
2640F
330
20
100
AcDbEntity
  8
11000_Left
  6
Continuous
 62
     7
370
    20
100
AcDbLine
 10
211.1436645200057
 20
505.0766403668858
 30
0.0
 11
211.1436645200057
 21
500.8766403668858
 31
0.0
  0
LINE
  5
26410
330
20
100
AcDbEntity
  8
11000_Left
  6
Continuous
 62
     7
370
    50
100
AcDbLine
 39
0.7
 10
205.1436645200057
 20
485.8766403668856
 30
0.0
 11
205.1436645200057
 21
498.8766403668858
 31
0.0
  0
LINE
  5
26411
330
20
100
AcDbEntity
  8
11000_Left
  6
Continuous
 62
     7
370
    50
100
AcDbLine
 39
0.7
 10
207.1436645200057
 20
459.7241403668858
 30
0.0
 11
207.1436645200058
 21
456.3516403668859
 31
0.0
  0
LINE
  5
26412
330
20
100
AcDbEntity
  8
11000_Left
  6
Continuous
 62
     7
370
    50
100
AcDbLine
 39
0.7
 10
207.1436645200057
 20
510.8016403668855
 30
0.0
 11
207.1436645200057
 21
499.3766403668858
 31
0.0
  0
LINE
  5
26413
330
20
100
AcDbEntity
  8
11000_Left
  6
Continuous
 62
     7
370
    20
100
AcDbLine
 10
206.6436645200057
 20
498.8766403668858
 30
0.0
 11
209.1436645200057
 21
498.8766403668858
 31
0.0
  0
LINE
  5
26414
330
20
100
AcDbEntity
  8
11000_Left
  6
Continuous
 62
     7
370
    50
100
AcDbLine
 39
0.7
 10
205.1436645200057
 20
498.8766403668858
 30
0.0
 11
206.6436645200057
 21
498.8766403668858
 31
0.0
  0
LINE
  5
26415
330
20
100
AcDbEntity
  8
11000_Left
  6
Continuous
 62
     7
370
    50
100
AcDbLine
 39
0.7
 10
206.6436645200057
 20
485.8766403668856
 30
0.0
 11
205.1436645200057
 21
485.8766403668856
 31
0.0
  0
LINE
  5
26416
330
20
100
AcDbEntity
  8
11000_Left
  6
Continuous
 62
     7
370
    20
100
AcDbLine
 10
209.1436645200057
 20
485.8766403668856
 30
0.0
 11
206.6436645200057
 21
485.8766403668856
 31
0.0
  0
ARC
  5
26417
330
20
100
AcDbEntity
  8
11000_Left
  6
Continuous
 62
     7
370
    20
100
AcDbCircle
 10
210.8436645200058
 20
505.0766403668858
 30
0.0
 40
0.3
100
AcDbArc
 50
0.0
 51
90.0
  0
ARC
  5
26418
330
20
100
AcDbEntity
  8
11000_Left
  6
Continuous
 62
     7
370
    20
100
AcDbCircle
 10
210.8436645200058
 20
479.6766403668858
 30
0.0
 40
0.3
100
AcDbArc
 50
270.0
 51
0.0
  0
LINE
  5
26419
330
20
100
AcDbEntity
  8
11000_Left
  6
Continuous
 62
     7
370
    13
100
AcDbLine
 10
203.2936645200057
 20
472.2266403668858
 30
0.0
 11
204.7936645200057
 21
472.2266403668858
 31
0.0
  0
LINE
  5
2641A
330
20
100
AcDbEntity
  8
11000_Left
  6
Continuous
 62
     7
370
    13
100
AcDbLine
 10
204.7936645200057
 20
472.2266403668858
 30
0.0
 11
204.7936645200057
 21
467.9266403668858
 31
0.0
  0
LINE
  5
2641B
330
20
100
AcDbEntity
  8
11000_Left
  6
Continuous
 62
     7
370
    13
100
AcDbLine
 10
204.7936645200057
 20
467.9266403668858
 30
0.0
 11
203.2936645200057
 21
467.9266403668858
 31
0.0
  0
LINE
  5
2641C
330
20
100
AcDbEntity
  8
11000_Left
  6
Continuous
 62
     7
370
    13
100
AcDbLine
 10
203.2936645200057
 20
467.9266403668858
 30
0.0
 11
203.2936645200057
 21
472.2266403668858
 31
0.0
  0
LINE
  5
2641D
330
20
100
AcDbEntity
  8
11000_Left
  6
Continuous
 62
     7
370
    13
100
AcDbLine
 10
206.1236645200057
 20
465.7266403668859
 30
0.0
 11
206.6436645200057
 21
465.7266403668859
 31
0.0
  0
LINE
  5
2641E
330
20
100
AcDbEntity
  8
11000_Left
  6
Continuous
 62
     7
370
    13
100
AcDbLine
 10
201.1436645200057
 20
461.7266403668859
 30
0.0
 11
205.8013945200057
 21
461.7266403668859
 31
0.0
  0
LINE
  5
2641F
330
20
100
AcDbEntity
  8
11000_Left
  6
Continuous
 62
     7
370
    13
100
AcDbLine
 10
205.8013945200057
 20
461.7266403668859
 30
0.0
 11
206.1013945200057
 21
461.7266403668859
 31
0.0
  0
LINE
  5
26420
330
20
100
AcDbEntity
  8
11000_Left
  6
Continuous
 62
     7
370
    50
100
AcDbLine
 39
0.7
 10
207.1436645200057
 20
485.3766403668855
 30
0.0
 11
207.1436645200057
 21
466.2266403668859
 31
0.0
  0
ARC
  5
26421
330
20
100
AcDbEntity
  8
11000_Left
  6
Continuous
 62
     7
370
    50
100
AcDbCircle
 39
0.7
 10
206.6436645200057
 20
499.3766403668856
 30
0.0
 40
0.5
100
AcDbArc
 50
270.0
 51
0.0
  0
ARC
  5
26422
330
20
100
AcDbEntity
  8
11000_Left
  6
Continuous
 62
     7
370
    50
100
AcDbCircle
 39
0.7
 10
206.6436645200057
 20
485.3766403668855
 30
0.0
 40
0.5
100
AcDbArc
 50
0.0
 51
90.0
  0
ARC
  5
26423
330
20
100
AcDbEntity
  8
11000_Left
  6
Continuous
 62
     7
370
    50
100
AcDbCircle
 39
0.7
 10
206.6436645200057
 20
466.2266403668859
 30
0.0
 40
0.5
100
AcDbArc
 50
270.0
 51
0.0
  0
LINE
  5
26424
330
20
100
AcDbEntity
  8
11000_Left
  6
Continuous
 62
     7
370
    20
100
AcDbLine
 10
210.8436645200058
 20
479.3766403668857
 30
0.0
 11
207.1436645200057
 21
479.3766403668857
 31
0.0
  0
LINE
  5
26425
330
20
100
AcDbEntity
  8
11000_Left
  6
Continuous
 62
     7
370
    13
100
AcDbLine
 10
206.1236645200057
 20
465.7266403668859
 30
0.0
 11
206.1236645200057
 21
459.7016403668858
 31
0.0
  0
LINE
  5
26426
330
20
100
AcDbEntity
  8
11000_Left
  6
Continuous
 62
     7
370
    50
100
AcDbLine
 39
0.7
 10
207.0436645200057
 20
465.9266403668858
 30
0.0
 11
207.0436645200057
 21
459.8016403668856
 31
0.0
  0
LINE
  5
26427
330
20
100
AcDbEntity
  8
11000_Left
  6
Continuous
 62
     7
370
    50
100
AcDbLine
 39
0.7
 10
206.9641045200057
 20
459.7220903668858
 30
0.0
 11
207.0436645200057
 21
459.8016403668856
 31
0.0
  0
LINE
  5
26428
330
20
100
AcDbEntity
  8
11000_Left
  6
Continuous
 62
     7
370
    13
100
AcDbLine
 10
206.7318345200057
 20
459.7016403668858
 30
0.0
 11
206.1236645200057
 21
459.7016403668858
 31
0.0
  0
ARC
  5
26429
330
20
100
AcDbEntity
  8
11000_Left
  6
Continuous
 62
     7
370
    20
100
AcDbCircle
 10
99.14366452000573
 20
452.1041403668858
 30
0.0
 40
2.0
100
AcDbArc
 50
180.0
 51
270.0
  0
LINE
  5
2642A
330
20
100
AcDbEntity
  8
11000_Left
  6
Continuous
 62
     7
370
    20
100
AcDbLine
 10
97.1436645200057
 20
452.1041403668859
 30
0.0
 11
97.1436645200057
 21
515.1041403668856
 31
0.0
  0
ARC
  5
2642B
330
20
100
AcDbEntity
  8
11000_Left
  6
Continuous
 62
     7
370
    20
100
AcDbCircle
 10
99.14366452000573
 20
515.1041403668856
 30
0.0
 40
2.0
100
AcDbArc
 50
90.0
 51
180.0
  0
LINE
  5
2642C
330
20
100
AcDbEntity
  8
11000_Left
  6
Continuous
 62
     7
370
    20
100
AcDbLine
 10
99.14366452000573
 20
517.1041403668859
 30
0.0
 11
125.1436645200057
 21
517.1041403668859
 31
0.0
  0
ARC
  5
2642D
330
20
100
AcDbEntity
  8
11000_Left
  6
Continuous
 62
     7
370
    20
100
AcDbCircle
 10
125.1436645200057
 20
515.1041403668856
 30
0.0
 40
2.0
100
AcDbArc
 50
0.0
 51
90.0
  0
LINE
  5
2642E
330
20
100
AcDbEntity
  8
11000_Left
  6
Continuous
 62
     7
370
    20
100
AcDbLine
 10
127.1436645200057
 20
515.1041403668856
 30
0.0
 11
127.1436645200057
 21
452.1041403668858
 31
0.0
  0
ARC
  5
2642F
330
20
100
AcDbEntity
  8
11000_Left
  6
Continuous
 62
     7
370
    20
100
AcDbCircle
 10
125.1436645200057
 20
452.1041403668858
 30
0.0
 40
2.0
100
AcDbArc
 50
270.0
 51
0.0
  0
LINE
  5
26430
330
20
100
AcDbEntity
  8
11000_Left
  6
Continuous
 62
     7
370
    20
100
AcDbLine
 10
125.1436645200057
 20
450.1041403668858
 30
0.0
 11
99.14366452000573
 21
450.1041403668859
 31
0.0
  0
DIMENSION
  5
26B67
330
20
100
AcDbEntity
  8
10100_FRONT_DIM
  6
Continuous
 62
     7
370
    13
100
AcDbDimension
  2
*D1
 10
55.97682312700089
 20
449.5516403668855
 30
0.0
 11
55.97682312700083
 21
483.5766403668858
 31
0.0
 70
    32
 71
     5
 42
68.05000000000024
  3
H035
100
AcDbAlignedDimension
 13
47.76909891941634
 23
517.6016403668859
 33
0.0
 14
47.76909891941634
 24
449.5516403668855
 34
0.0
 50
90.0
100
AcDbRotatedDimension
1001
ACAD
1000
DSTYLE
1002
{
1070
    40
1040
1.0
1070
    77
1070
     0
1070
   147
1040
1.5
1070
   272
1070
     0
1070
   279
1070
     1
1070
   288
1070
     1
1002
}
  0
DIMENSION
  5
26B74
330
20
100
AcDbEntity
  8
10100_FRONT_DIM
  6
Continuous
 62
     7
370
    13
100
AcDbDimension
  2
*D2
 10
55.97682312700089
 20
527.1516403668859
 30
0.0
 11
55.97682312700083
 21
522.3766403668859
 31
0.0
 70
    32
 71
     5
 42
9.549999999999952
  3
H035
100
AcDbAlignedDimension
 13
47.76909891941634
 23
517.6016403668859
 33
0.0
 14
47.76909891941634
 24
527.1516403668859
 34
0.0
 50
90.0
100
AcDbRotatedDimension
1001
ACAD
1000
DSTYLE
1002
{
1070
    40
1040
1.0
1070
    77
1070
     0
1070
   147
1040
1.5
1070
   272
1070
     0
1070
   279
1070
     1
1070
   288
1070
     1
1002
}
  0
DIMENSION
  5
26B81
330
20
100
AcDbEntity
  8
10100_FRONT_DIM
  6
Continuous
 62
     7
370
    13
100
AcDbDimension
  2
*D3
 10
48.71909891941635
 20
542.6170765946038
 30
0.0
 11
37.46909891941636
 21
542.6170765946038
 31
0.0
 70
    32
 71
     5
 42
22.50000000000001
  3
H035
100
AcDbAlignedDimension
 13
26.21909891941634
 23
534.1516403668858
 33
0.0
 14
48.71909891941635
 24
534.1516403668856
 34
0.0
100
AcDbRotatedDimension
1001
ACAD
1000
DSTYLE
1002
{
1070
   271
1070
     1
1070
    40
1040
1.0
1070
    77
1070
     0
1070
   147
1040
1.5
1070
   272
1070
     0
1070
   279
1070
     1
1070
   288
1070
     1
1002
}
  0
DIMENSION
  5
26B97
330
20
100
AcDbEntity
  8
10100_FRONT_DIM
  6
Continuous
 62
     7
370
    13
100
AcDbDimension
  2
*D4
 10
62.95536389651283
 20
442.3516403668855
 30
0.0
 11
62.95536389651275
 21
488.3516403668858
 31
0.0
 70
    32
 71
     5
 42
92.00000000000015
  3
H035
100
AcDbAlignedDimension
 13
48.51909691941634
 23
534.3516403668859
 33
0.0
 14
48.5190989237736
 24
442.3516403668855
 34
0.0
 50
90.0
100
AcDbRotatedDimension
1001
ACAD
1000
DSTYLE
1002
{
1070
    40
1040
1.0
1070
    77
1070
     0
1070
   147
1040
1.5
1070
   272
1070
     0
1070
   279
1070
     1
1070
   288
1070
     1
1002
}
  0
LINE
  5
26BBA
330
20
100
AcDbEntity
  8
11000_Left
  6
DASHED
 62
     7
370
    20
100
AcDbLine
 39
0.25
 10
92.14386452000594
 20
494.5516403668859
 30
-1.000000000000055
 11
90.14386452000595
 21
492.5516403668858
 31
-1.000000000000055
1001
AUSTER_ANSICHT
1002
{
1000
Det03
1002
}
1001
AUSTER_FOLIE
1002
{
1000
NSB00753_S0
1002
}
  0
LINE
  5
26BBB
330
20
100
AcDbEntity
  8
11000_Left
  6
DASHED
 62
     7
370
    20
100
AcDbLine
 39
0.25
 10
88.24386452000597
 20
494.5516403668859
 30
-0.0000000000000568
 11
85.64386452000597
 21
494.5516403668859
 31
-0.0000000000000568
1001
AUSTER_ANSICHT
1002
{
1000
Det03
1002
}
1001
AUSTER_FOLIE
1002
{
1000
NSB00753_S0
1002
}
  0
LINE
  5
26BBC
330
20
100
AcDbEntity
  8
11000_Left
  6
DASHED
 62
     7
370
    20
100
AcDbLine
 39
0.25
 10
90.14386452000595
 20
496.4516403668858
 30
-1.000000000000055
 11
90.14386452000595
 21
496.7016403668859
 31
-1.000000000000055
1001
AUSTER_ANSICHT
1002
{
1000
Det03
1002
}
1001
AUSTER_FOLIE
1002
{
1000
NSB00753_S0
1002
}
  0
ARC
  5
26BBD
330
20
100
AcDbEntity
  8
11000_Left
  6
DASHED
 62
     7
370
    20
100
AcDbCircle
 39
0.25
 10
88.24386452000597
 20
496.4516403668858
 30
-1.000000000000055
 40
1.9
100
AcDbArc
 50
270.0
 51
0.0
1001
AUSTER_ANSICHT
1002
{
1000
Det03
1002
}
1001
AUSTER_FOLIE
1002
{
1000
NSB00753_S0
1002
}
  0
LINE
  5
26BBE
330
20
100
AcDbEntity
  8
11000_Left
  6
DASHED
 62
     7
370
    20
100
AcDbLine
 39
0.25
 10
90.64386452000595
 20
496.7016403668859
 30
-1.000000000000055
 11
90.14386452000595
 21
496.7016403668859
 31
-1.000000000000055
1001
AUSTER_ANSICHT
1002
{
1000
Det03
1002
}
1001
AUSTER_FOLIE
1002
{
1000
NSB00753_S0
1002
}
  0
ARC
  5
26BBF
330
20
100
AcDbEntity
  8
11000_Left
  6
DASHED
 62
     7
370
    20
100
AcDbCircle
 39
0.25
 10
90.64386452000595
 20
497.2016403668858
 30
-1.000000000000055
 40
0.5
100
AcDbArc
 50
270.0
 51
0.0
1001
AUSTER_ANSICHT
1002
{
1000
Det03
1002
}
1001
AUSTER_FOLIE
1002
{
1000
NSB00753_S0
1002
}
  0
LINE
  5
26BC0
330
20
100
AcDbEntity
  8
11000_Left
  6
DASHED
 62
     7
370
    20
100
AcDbLine
 39
0.25
 10
91.14386452000587
 20
497.2016403668858
 30
-1.000000000000055
 11
91.14386452000587
 21
499.701640366886
 31
-1.000000000000055
1001
AUSTER_ANSICHT
1002
{
1000
Det03
1002
}
1001
AUSTER_FOLIE
1002
{
1000
NSB00753_S0
1002
}
  0
LINE
  5
26BC1
330
20
100
AcDbEntity
  8
11000_Left
  6
DASHED
 62
     7
370
    20
100
AcDbLine
 39
0.25
 10
84.64386452000599
 20
470.5516403668858
 30
-0.2500000000000568
 11
84.64386452000599
 21
493.5516403668859
 31
-0.2500000000000568
1001
AUSTER_ANSICHT
1002
{
1000
Det03
1002
}
1001
AUSTER_FOLIE
1002
{
1000
NSB00753_S0
1002
}
  0
LINE
  5
26BC2
330
20
100
AcDbEntity
  8
11000_Left
  6
DASHED
 62
     7
370
    20
100
AcDbLine
 39
0.25
 10
88.14386452000578
 20
492.5516403668858
 30
-1.000000000000055
 11
90.14386452000595
 21
492.5516403668858
 31
-1.000000000000055
1001
AUSTER_ANSICHT
1002
{
1000
Det03
1002
}
1001
AUSTER_FOLIE
1002
{
1000
NSB00753_S0
1002
}
  0
ARC
  5
26BC3
330
20
100
AcDbEntity
  8
11000_Left
  6
DASHED
 62
     7
370
    20
100
AcDbCircle
 39
0.25
 10
85.64386452000597
 20
493.5516403668859
 30
-0.0000000000000568
 40
1.0
100
AcDbArc
 50
90.0
 51
180.0
1001
AUSTER_ANSICHT
1002
{
1000
Det03
1002
}
1001
AUSTER_FOLIE
1002
{
1000
NSB00753_S0
1002
}
  0
ARC
  5
26BC4
330
20
100
AcDbEntity
  8
11000_Left
  6
DASHED
 62
     7
370
    20
100
AcDbCircle
 39
0.25
 10
88.14386452000578
 20
491.5516403668858
 30
-1.000000000000055
 40
1.0
100
AcDbArc
 50
90.0
 51
180.0
1001
AUSTER_ANSICHT
1002
{
1000
Det03
1002
}
1001
AUSTER_FOLIE
1002
{
1000
NSB00753_S0
1002
}
  0
LINE
  5
26BC5
330
20
100
AcDbEntity
  8
11000_Left
  6
DASHED
 62
     7
370
    20
100
AcDbLine
 39
0.25
 10
87.14386452000599
 20
472.5516403668858
 30
-1.000000000000055
 11
87.14386452000599
 21
491.5516403668858
 31
-1.000000000000055
1001
AUSTER_ANSICHT
1002
{
1000
Det03
1002
}
1001
AUSTER_FOLIE
1002
{
1000
NSB00753_S0
1002
}
  0
LINE
  5
26BC6
330
20
100
AcDbEntity
  8
11000_Left
  6
DASHED
 62
     7
370
    20
100
AcDbLine
 39
0.25
 10
88.14386452000578
 20
471.5516403668858
 30
-1.000000000000055
 11
90.14386452000595
 21
471.5516403668858
 31
-1.000000000000055
1001
AUSTER_ANSICHT
1002
{
1000
Det03
1002
}
1001
AUSTER_FOLIE
1002
{
1000
NSB00753_S0
1002
}
  0
ARC
  5
26BC7
330
20
100
AcDbEntity
  8
11000_Left
  6
DASHED
 62
     7
370
    20
100
AcDbCircle
 39
0.25
 10
88.14386452000578
 20
472.5516403668858
 30
-1.000000000000055
 40
1.0
100
AcDbArc
 50
180.0
 51
270.0
1001
AUSTER_ANSICHT
1002
{
1000
Det03
1002
}
1001
AUSTER_FOLIE
1002
{
1000
NSB00753_S0
1002
}
  0
LINE
  5
26BC8
330
20
100
AcDbEntity
  8
11000_Left
  6
DASHED
 62
     7
370
    20
100
AcDbLine
 39
0.25
 10
88.24386452000597
 20
469.5516403668859
 30
-0.0000000000000568
 11
85.64386452000597
 21
469.5516403668859
 31
-0.0000000000000568
1001
AUSTER_ANSICHT
1002
{
1000
Det03
1002
}
1001
AUSTER_FOLIE
1002
{
1000
NSB00753_S0
1002
}
  0
LINE
  5
26BC9
330
20
100
AcDbEntity
  8
11000_Left
  6
DASHED
 62
     7
370
    20
100
AcDbLine
 39
0.25
 10
92.14386452000594
 20
469.5516403668859
 30
-1.000000000000055
 11
90.14386452000595
 21
471.5516403668858
 31
-1.000000000000055
1001
AUSTER_ANSICHT
1002
{
1000
Det03
1002
}
1001
AUSTER_FOLIE
1002
{
1000
NSB00753_S0
1002
}
  0
LINE
  5
26BCA
330
20
100
AcDbEntity
  8
11000_Left
  6
DASHED
 62
     7
370
    20
100
AcDbLine
 39
0.25
 10
90.14386452000595
 20
467.651640366886
 30
-1.000000000000055
 11
90.14386452000595
 21
467.4016403668858
 31
-1.000000000000055
1001
AUSTER_ANSICHT
1002
{
1000
Det03
1002
}
1001
AUSTER_FOLIE
1002
{
1000
NSB00753_S0
1002
}
  0
ARC
  5
26BCB
330
20
100
AcDbEntity
  8
11000_Left
  6
DASHED
 62
     7
370
    20
100
AcDbCircle
 39
0.25
 10
85.64386452000597
 20
470.5516403668858
 30
-0.0000000000000568
 40
1.0
100
AcDbArc
 50
180.0
 51
270.0
1001
AUSTER_ANSICHT
1002
{
1000
Det03
1002
}
1001
AUSTER_FOLIE
1002
{
1000
NSB00753_S0
1002
}
  0
ARC
  5
26BCC
330
20
100
AcDbEntity
  8
11000_Left
  6
DASHED
 62
     7
370
    20
100
AcDbCircle
 39
0.25
 10
88.24386452000597
 20
467.651640366886
 30
-1.000000000000055
 40
1.9
100
AcDbArc
 50
0.0000000107542442
 51
90.0
1001
AUSTER_ANSICHT
1002
{
1000
Det03
1002
}
1001
AUSTER_FOLIE
1002
{
1000
NSB00753_S0
1002
}
  0
LINE
  5
26BCD
330
20
100
AcDbEntity
  8
11000_Left
  6
DASHED
 62
     7
370
    20
100
AcDbLine
 39
0.25
 10
91.14386452000587
 20
466.9016403668858
 30
-1.000000000000055
 11
91.14386452000587
 21
466.1016403668859
 31
-0.25
1001
AUSTER_ANSICHT
1002
{
1000
Det03
1002
}
1001
AUSTER_FOLIE
1002
{
1000
NSB00753_S0
1002
}
  0
LINE
  5
26BCE
330
20
100
AcDbEntity
  8
11000_Left
  6
DASHED
 62
     7
370
    20
100
AcDbLine
 39
0.25
 10
90.64386452000595
 20
467.4016403668858
 30
-1.000000000000055
 11
90.14386452000595
 21
467.4016403668858
 31
-1.000000000000055
1001
AUSTER_ANSICHT
1002
{
1000
Det03
1002
}
1001
AUSTER_FOLIE
1002
{
1000
NSB00753_S0
1002
}
  0
DIMENSION
  5
26CDC
330
20
100
AcDbEntity
  8
11100_LEFT_DIM
  6
Continuous
 62
     7
370
    13
100
AcDbDimension
  2
*D5
 10
92.14366452000573
 20
433.0318724409987
 30
0.0
 11
89.59366452000574
 21
433.0318724409987
 31
0.0
 70
    32
 71
     5
 42
5.100000000000006
  3
DSTYLE1
100
AcDbAlignedDimension
 13
87.04366452000574
 23
446.8516403668858
 33
0.0
 14
92.14366452000573
 24
466.4016403668858
 34
0.0
100
AcDbRotatedDimension
1001
ACAD
1000
DSTYLE
1002
{
1070
    42
1040
1.0
1070
    43
1040
1.0
1070
    47
1040
0.005
1070
    48
1040
-0.005
1070
    77
1070
     0
1070
    78
1070
     0
1070
   140
1040
3.5
1070
   143
1040
25.4
1070
   171
1070
     0
1070
   172
1070
     1
1070
   271
1070
     0
1070
   272
1070
     1
1070
   277
1070
     6
1070
   279
1070
     0
1002
}
  0
DIMENSION
  5
26CEB
330
20
100
AcDbEntity
  8
11100_LEFT_DIM
  6
Continuous
 62
     7
370
    13
100
AcDbDimension
  2
*D6
 10
207.1435243689263
 20
433.0318724409987
 30
0.0
 11
149.643594444466
 21
433.0318724409987
 31
0.0
 70
    32
 71
     5
 42
114.9998598489205
  3
DSTYLE1
100
AcDbAlignedDimension
 13
92.14366452000573
 23
446.8516403668858
 33
0.0
 14
207.1435243689263
 24
442.5441543272484
 34
0.0
100
AcDbRotatedDimension
1001
ACAD
1000
DSTYLE
1002
{
1070
    42
1040
1.0
1070
    43
1040
1.0
1070
    47
1040
0.005
1070
    48
1040
-0.005
1070
    77
1070
     0
1070
    78
1070
     0
1070
   140
1040
3.5
1070
   143
1040
25.4
1070
   171
1070
     0
1070
   172
1070
     1
1070
   271
1070
     0
1070
   272
1070
     1
1070
   277
1070
     6
1070
   279
1070
     0
1002
}
  0
DIMENSION
  5
26CF8
330
20
100
AcDbEntity
  8
11100_LEFT_DIM
  6
Continuous
 62
     7
370
    13
100
AcDbDimension
  2
*D7
 10
207.1436645200057
 20
433.0318724409987
 30
0.0
 11
209.1436645200057
 21
433.0318724409987
 31
0.0
 70
   160
 71
     5
 42
4.000000000000055
  3
DSTYLE1
100
AcDbAlignedDimension
 13
211.1436645200058
 23
479.6766403668858
 33
0.0
 14
207.1436645200057
 24
442.5516403668858
 34
0.0
100
AcDbRotatedDimension
1001
ACAD
1000
DSTYLE
1002
{
1070
    42
1040
1.0
1070
    43
1040
1.0
1070
    47
1040
0.005
1070
    48
1040
-0.005
1070
    77
1070
     0
1070
    78
1070
     0
1070
   140
1040
3.5
1070
   143
1040
25.4
1070
   171
1070
     0
1070
   172
1070
     0
1070
   271
1070
     0
1070
   272
1070
     1
1070
   277
1070
     6
1070
   279
1070
     0
1002
}
  0
DIMENSION
  5
26D08
330
20
100
AcDbEntity
  8
13100_Top_Dim
  6
Continuous
 62
     7
370
    13
100
AcDbDimension
  2
*D8
 10
59.0626375121085
 20
362.362855638554
 30
0.0
 11
59.06263751210843
 21
393.1128556385539
 31
0.0
 70
    32
 71
     5
 42
61.49999999999988
  3
H035
100
AcDbAlignedDimension
 13
48.71909891941635
 23
423.8628556385538
 33
0.0
 14
47.71909891941635
 24
362.362855638554
 34
0.0
 50
90.0
100
AcDbRotatedDimension
1001
ACAD
1000
DSTYLE
1002
{
1070
    40
1040
1.0
1070
    77
1070
     0
1070
   147
1040
1.5
1070
   272
1070
     0
1070
   279
1070
     1
1070
   288
1070
     1
1002
}
  0
DIMENSION
  5
26D15
330
20
100
AcDbEntity
  8
13100_Top_Dim
  6
Continuous
 62
     7
370
    13
100
AcDbDimension
  2
*D9
 10
59.06263751210849
 20
330.0628556385539
 30
0.0
 11
59.06263751210843
 21
346.212855638554
 31
0.0
 70
    32
 71
     5
 42
32.30000000000007
  3
H035
100
AcDbAlignedDimension
 13
48.71909891941635
 23
362.362855638554
 33
0.0
 14
47.57802744536774
 24
330.0628556385539
 34
0.0
 50
90.0
100
AcDbRotatedDimension
1001
ACAD
1000
DSTYLE
1002
{
1070
    40
1040
1.0
1070
    77
1070
     0
1070
   147
1040
1.5
1070
   272
1070
     0
1070
   279
1070
     1
1070
   288
1070
     1
1002
}
  0
LINE
  5
26F8B
330
20
100
AcDbEntity
  8
10000_FRONT
  6
Continuous
 62
     7
370
    13
100
AcDbLine
 10
29.61719291941631
 20
455.6016403668859
 30
0.0
 11
29.61719291941631
 21
456.4016403668858
 31
0.0
  0
LINE
  5
26F8C
330
20
100
AcDbEntity
  8
10000_FRONT
  6
Continuous
 62
     7
370
    13
100
AcDbLine
 10
27.36719291941631
 20
453.8016403668859
 30
0.0
 11
27.36719291941631
 21
455.6016403668859
 31
0.0
  0
LINE
  5
26F8D
330
20
100
AcDbEntity
  8
10000_FRONT
  6
Continuous
 62
     7
370
    13
100
AcDbLine
 10
40.36718891941632
 20
456.3516503668859
 30
0.0
 11
40.36718891941632
 21
453.8016403668859
 31
0.0
  0
LINE
  5
26F8E
330
20
100
AcDbEntity
  8
10000_FRONT
  6
Continuous
 62
     7
370
    13
100
AcDbLine
 10
34.5671929194163
 20
453.8016403668859
 30
0.0
 11
34.5671929194163
 21
456.3516503668859
 31
0.0
  0
LINE
  5
26F8F
330
20
100
AcDbEntity
  8
10000_FRONT
  6
Continuous
 62
     7
370
    13
100
AcDbLine
 10
41.7671889194163
 20
453.8016403668859
 30
0.0
 11
41.7671889194163
 21
455.6016403668859
 31
0.0
  0
LINE
  5
26F90
330
20
100
AcDbEntity
  8
10000_FRONT
  6
Continuous
 62
     7
370
    13
100
AcDbLine
 10
47.56718891941631
 20
455.6016403668859
 30
0.0
 11
47.56718891941631
 21
453.8016403668859
 31
0.0
  0
LINE
  5
26F91
330
20
100
AcDbEntity
  8
10000_FRONT
  6
Continuous
 62
     7
370
    13
100
AcDbLine
 10
45.31718891941631
 20
456.4016403668858
 30
0.0
 11
45.31718891941631
 21
455.6016403668859
 31
0.0
  0
LINE
  5
26F92
330
20
100
AcDbEntity
  8
10000_FRONT
  6
Continuous
 62
     7
370
    13
100
AcDbLine
 10
42.22392891941631
 20
455.596680366886
 30
0.0
 11
44.71045891941634
 21
455.596680366886
 31
0.0
  0
LINE
  5
26F93
330
20
100
AcDbEntity
  8
10000_FRONT
  6
Continuous
 62
     7
370
    13
100
AcDbLine
 10
44.70957891941629
 20
455.6016403668859
 30
0.0
 11
45.31718891941631
 21
455.6016403668859
 31
0.0
  0
LINE
  5
26F94
330
20
100
AcDbEntity
  8
10000_FRONT
  6
Continuous
 62
     7
370
    13
100
AcDbLine
 10
45.31718891941631
 20
455.6016403668859
 30
0.0
 11
47.56718891941631
 21
455.6016403668859
 31
0.0
  0
LINE
  5
26F95
330
20
100
AcDbEntity
  8
10000_FRONT
  6
Continuous
 62
     7
370
    13
100
AcDbLine
 10
41.7671889194163
 20
455.6016403668859
 30
0.0
 11
42.22480891941631
 21
455.6016403668859
 31
0.0
  0
LINE
  5
26F96
330
20
100
AcDbEntity
  8
10000_FRONT
  6
Continuous
 62
     7
370
    13
100
AcDbLine
 10
39.46719291941633
 20
455.6016403668859
 30
0.0
 11
35.46719291941633
 21
455.6016403668859
 31
0.0
  0
LINE
  5
26F97
330
20
100
AcDbEntity
  8
10000_FRONT
  6
Continuous
 62
     7
370
    13
100
AcDbLine
 10
40.36718891941632
 20
455.6016403668859
 30
0.0
 11
39.46719291941633
 21
455.6016403668859
 31
0.0
  0
LINE
  5
26F98
330
20
100
AcDbEntity
  8
10000_FRONT
  6
Continuous
 62
     7
370
    13
100
AcDbLine
 10
35.46719291941633
 20
455.6016403668859
 30
0.0
 11
34.5671929194163
 21
455.6016403668859
 31
0.0
  0
LINE
  5
26F99
330
20
100
AcDbEntity
  8
10000_FRONT
  6
Continuous
 62
     7
370
    13
100
AcDbLine
 10
38.46719291941634
 20
453.8016403668859
 30
0.0
 11
38.46719291941634
 21
455.1016403668859
 31
0.0
  0
LINE
  5
26F9A
330
20
100
AcDbEntity
  8
10000_FRONT
  6
Continuous
 62
     7
370
    13
100
AcDbLine
 10
38.46719291941634
 20
455.1016403668859
 30
0.0
 11
36.46719291941634
 21
455.1016403668859
 31
0.0
  0
LINE
  5
26F9B
330
20
100
AcDbEntity
  8
10000_FRONT
  6
Continuous
 62
     7
370
    13
100
AcDbLine
 10
36.46719291941634
 20
453.8016403668859
 30
0.0
 11
36.46719291941634
 21
455.1016403668859
 31
0.0
  0
LINE
  5
26F9C
330
20
100
AcDbEntity
  8
10000_FRONT
  6
Continuous
 62
     7
370
    13
100
AcDbLine
 10
47.56718891941631
 20
453.8016403668859
 30
0.0
 11
27.36719291941631
 21
453.8016403668859
 31
0.0
  0
LINE
  5
26F9D
330
20
100
AcDbEntity
  8
10000_FRONT
  6
Continuous
 62
     7
370
    13
100
AcDbLine
 10
33.16719291941633
 20
455.6016403668859
 30
0.0
 11
33.16719291941633
 21
453.8016403668859
 31
0.0
  0
LINE
  5
26F9E
330
20
100
AcDbEntity
  8
10000_FRONT
  6
Continuous
 62
     7
370
    13
100
AcDbLine
 10
32.7095749194163
 20
455.6016403668859
 30
0.0
 11
30.22481091941632
 21
455.6016403668859
 31
0.0
  0
LINE
  5
26F9F
330
20
100
AcDbEntity
  8
10000_FRONT
  6
Continuous
 62
     7
370
    13
100
AcDbLine
 10
32.7095749194163
 20
455.6016403668859
 30
0.0
 11
33.16719291941633
 21
455.6016403668859
 31
0.0
  0
LINE
  5
26FA0
330
20
100
AcDbEntity
  8
10000_FRONT
  6
Continuous
 62
     7
370
    13
100
AcDbLine
 10
27.36719291941631
 20
455.6016403668859
 30
0.0
 11
29.61719291941631
 21
455.6016403668859
 31
0.0
  0
LINE
  5
26FA1
330
20
100
AcDbEntity
  8
10000_FRONT
  6
Continuous
 62
     7
370
    13
100
AcDbLine
 10
29.61719291941631
 20
455.6016403668859
 30
0.0
 11
30.22481091941632
 21
455.6016403668859
 31
0.0
  0
LINE
  5
26FA2
330
20
100
AcDbEntity
  8
10000_FRONT
  6
Continuous
 62
     7
370
    13
100
AcDbLine
 10
33.1670649194163
 20
513.401640366886
 30
0.0
 11
33.1670649194163
 21
513.401640366886
 31
0.0
  0
LINE
  5
26FE0
330
20
100
AcDbEntity
  8
10000_FRONT
  6
Continuous
 62
     7
370
    13
100
AcDbLine
 10
31.74706491941635
 20
513.401110366886
 30
0.0
 11
31.74706491941635
 21
513.401640366886
 31
0.0
  0
LINE
  5
26FE1
330
20
100
AcDbEntity
  8
10000_FRONT
  6
Continuous
 62
     7
370
    13
100
AcDbLine
 10
28.78706491941631
 20
513.401640366886
 30
0.0
 11
28.78706491941631
 21
513.401110366886
 31
0.0
  0
LINE
  5
26FE2
330
20
100
AcDbEntity
  8
10000_FRONT
  6
Continuous
 62
     7
370
    13
100
AcDbLine
 10
40.36706891941634
 20
513.401640366886
 30
0.0
 11
40.36706891941634
 21
513.401640366886
 31
0.0
  0
LINE
  5
26FE3
330
20
100
AcDbEntity
  8
10000_FRONT
  6
Continuous
 62
     7
370
    13
100
AcDbLine
 10
38.94706491941633
 20
513.401110366886
 30
0.0
 11
38.94706491941633
 21
513.401640366886
 31
0.0
  0
LINE
  5
26FE4
330
20
100
AcDbEntity
  8
10000_FRONT
  6
Continuous
 62
     7
370
    13
100
AcDbLine
 10
35.9870649194163
 20
513.401640366886
 30
0.0
 11
35.9870649194163
 21
513.401110366886
 31
0.0
  0
LINE
  5
26FE5
330
20
100
AcDbEntity
  8
10000_FRONT
  6
Continuous
 62
     7
370
    13
100
AcDbLine
 10
47.56706891941631
 20
513.401640366886
 30
0.0
 11
47.56706891941631
 21
513.401640366886
 31
0.0
  0
POLYLINE
  5
26FE6
330
20
100
AcDbEntity
  8
10000_FRONT
  6
Continuous
 62
     7
370
    13
100
AcDb2dPolyline
 66
     1
 10
0.0
 20
0.0
 30
0.0
 70
     2
  0
VERTEX
  5
26FE7
330
26FE6
100
AcDbEntity
  8
10000_FRONT
  6
Continuous
 62
     7
370
    13
100
AcDbVertex
100
AcDb2dVertex
 10
44.44084891941634
 20
511.6045003668859
 30
0.0
  0
VERTEX
  5
26FE8
330
26FE6
100
AcDbEntity
  8
10000_FRONT
  6
Continuous
 62
     7
370
    13
100
AcDbVertex
100
AcDb2dVertex
 10
44.45205891941634
 20
511.6047203668858
 30
0.0
 42
-0.0003477099
 70
     1
  0
VERTEX
  5
26FE9
330
26FE6
100
AcDbEntity
  8
10000_FRONT
  6
Continuous
 62
     7
370
    13
100
AcDbVertex
100
AcDb2dVertex
 10
44.46336891941633
 20
511.6049303668859
 30
0.0
 42
-0.000344955
  0
VERTEX
  5
26FEA
330
26FE6
100
AcDbEntity
  8
10000_FRONT
  6
Continuous
 62
     7
370
    13
100
AcDbVertex
100
AcDb2dVertex
 10
44.47477891941633
 20
511.6051303668859
 30
0.0
 42
-0.0003359663
 70
     1
  0
VERTEX
  5
26FEB
330
26FE6
100
AcDbEntity
  8
10000_FRONT
  6
Continuous
 62
     7
370
    13
100
AcDbVertex
100
AcDb2dVertex
 10
44.48627891941635
 20
511.6053203668859
 30
0.0
 42
-0.0003213582
  0
VERTEX
  5
26FEC
330
26FE6
100
AcDbEntity
  8
10000_FRONT
  6
Continuous
 62
     7
370
    13
100
AcDbVertex
100
AcDb2dVertex
 10
44.49785891941632
 20
511.6054903668859
 30
0.0
 42
-0.0003098679
 70
     1
  0
VERTEX
  5
26FED
330
26FE6
100
AcDbEntity
  8
10000_FRONT
  6
Continuous
 62
     7
370
    13
100
AcDbVertex
100
AcDb2dVertex
 10
44.50951891941634
 20
511.6056503668859
 30
0.0
 42
-0.0002998867
  0
VERTEX
  5
26FEE
330
26FE6
100
AcDbEntity
  8
10000_FRONT
  6
Continuous
 62
     7
370
    13
100
AcDbVertex
100
AcDb2dVertex
 10
44.52125891941636
 20
511.6057903668859
 30
0.0
 42
-0.0002906737
 70
     1
  0
VERTEX
  5
26FEF
330
26FE6
100
AcDbEntity
  8
10000_FRONT
  6
Continuous
 62
     7
370
    13
100
AcDbVertex
100
AcDb2dVertex
 10
44.53306891941632
 20
511.6059203668859
 30
0.0
 42
-0.0002811668
  0
VERTEX
  5
26FF0
330
26FE6
100
AcDbEntity
  8
10000_FRONT
  6
Continuous
 62
     7
370
    13
100
AcDbVertex
100
AcDb2dVertex
 10
44.54493891941632
 20
511.6060403668859
 30
0.0
 42
-0.000272867
 70
     1
  0
VERTEX
  5
26FF1
330
26FE6
100
AcDbEntity
  8
10000_FRONT
  6
Continuous
 62
     7
370
    13
100
AcDbVertex
100
AcDb2dVertex
 10
44.55686891941633
 20
511.6061503668858
 30
0.0
 42
-0.0002646167
  0
VERTEX
  5
26FF2
330
26FE6
100
AcDbEntity
  8
10000_FRONT
  6
Continuous
 62
     7
370
    13
100
AcDbVertex
100
AcDb2dVertex
 10
44.56884891941633
 20
511.6062503668858
 30
0.0
 42
-0.0002573692
 70
     1
  0
VERTEX
  5
26FF3
330
26FE6
100
AcDbEntity
  8
10000_FRONT
  6
Continuous
 62
     7
370
    13
100
AcDbVertex
100
AcDb2dVertex
 10
44.58087891941636
 20
511.6063303668859
 30
0.0
 42
-0.0002500188
  0
VERTEX
  5
26FF4
330
26FE6
100
AcDbEntity
  8
10000_FRONT
  6
Continuous
 62
     7
370
    13
100
AcDbVertex
100
AcDb2dVertex
 10
44.59293891941633
 20
511.6064003668859
 30
0.0
 42
-0.0002436396
 70
     1
  0
VERTEX
  5
26FF5
330
26FE6
100
AcDbEntity
  8
10000_FRONT
  6
Continuous
 62
     7
370
    13
100
AcDbVertex
100
AcDb2dVertex
 10
44.60504891941633
 20
511.6064603668859
 30
0.0
 42
-0.000237145
  0
VERTEX
  5
26FF6
330
26FE6
100
AcDbEntity
  8
10000_FRONT
  6
Continuous
 62
     7
370
    13
100
AcDbVertex
100
AcDb2dVertex
 10
44.61717891941634
 20
511.6065103668859
 30
0.0
 42
-0.000231541
 70
     1
  0
VERTEX
  5
26FF7
330
26FE6
100
AcDbEntity
  8
10000_FRONT
  6
Continuous
 62
     7
370
    13
100
AcDbVertex
100
AcDb2dVertex
 10
44.62932891941636
 20
511.6065503668859
 30
0.0
 42
-0.0002257539
  0
VERTEX
  5
26FF8
330
26FE6
100
AcDbEntity
  8
10000_FRONT
  6
Continuous
 62
     7
370
    13
100
AcDbVertex
100
AcDb2dVertex
 10
44.64149891941633
 20
511.6065803668859
 30
0.0
 42
-0.0002208973
 70
     1
  0
VERTEX
  5
26FF9
330
26FE6
100
AcDbEntity
  8
10000_FRONT
  6
Continuous
 62
     7
370
    13
100
AcDbVertex
100
AcDb2dVertex
 10
44.65367891941633
 20
511.6066003668858
 30
0.0
 42
-0.0002159599
  0
VERTEX
  5
26FFA
330
26FE6
100
AcDbEntity
  8
10000_FRONT
  6
Continuous
 62
     7
370
    13
100
AcDbVertex
100
AcDb2dVertex
 10
44.66586891941631
 20
511.6066003668858
 30
0.0
 42
-0.0002114577
 70
     1
  0
VERTEX
  5
26FFB
330
26FE6
100
AcDbEntity
  8
10000_FRONT
  6
Continuous
 62
     7
370
    13
100
AcDbVertex
100
AcDb2dVertex
 10
44.67806891941632
 20
511.6066003668858
 30
0.0
 42
-0.000206195
  0
VERTEX
  5
26FFC
330
26FE6
100
AcDbEntity
  8
10000_FRONT
  6
Continuous
 62
     7
370
    13
100
AcDbVertex
100
AcDb2dVertex
 10
44.69025891941635
 20
511.6065803668859
 30
0.0
 42
-0.0002011521
 70
     1
  0
VERTEX
  5
26FFD
330
26FE6
100
AcDbEntity
  8
10000_FRONT
  6
Continuous
 62
     7
370
    13
100
AcDbVertex
100
AcDb2dVertex
 10
44.70243891941635
 20
511.6065603668858
 30
0.0
 42
-0.000194903
  0
VERTEX
  5
26FFE
330
26FE6
100
AcDbEntity
  8
10000_FRONT
  6
Continuous
 62
     7
370
    13
100
AcDbVertex
100
AcDb2dVertex
 10
44.71462891941633
 20
511.6065303668859
 30
0.0
 42
-0.0001894781
 70
     1
  0
VERTEX
  5
26FFF
330
26FE6
100
AcDbEntity
  8
10000_FRONT
  6
Continuous
 62
     7
370
    13
100
AcDbVertex
100
AcDb2dVertex
 10
44.72681891941635
 20
511.6064803668859
 30
0.0
 42
-0.0001834982
  0
VERTEX
  5
27000
330
26FE6
100
AcDbEntity
  8
10000_FRONT
  6
Continuous
 62
     7
370
    13
100
AcDbVertex
100
AcDb2dVertex
 10
44.73899891941636
 20
511.6064303668858
 30
0.0
 42
-0.000178202
 70
     1
  0
VERTEX
  5
27001
330
26FE6
100
AcDbEntity
  8
10000_FRONT
  6
Continuous
 62
     7
370
    13
100
AcDbVertex
100
AcDb2dVertex
 10
44.75117891941636
 20
511.6063703668859
 30
0.0
 42
-0.0001722028
  0
VERTEX
  5
27002
330
26FE6
100
AcDbEntity
  8
10000_FRONT
  6
Continuous
 62
     7
370
    13
100
AcDbVertex
100
AcDb2dVertex
 10
44.76335891941636
 20
511.6063103668858
 30
0.0
 42
-0.000166922
 70
     1
  0
VERTEX
  5
27003
330
26FE6
100
AcDbEntity
  8
10000_FRONT
  6
Continuous
 62
     7
370
    13
100
AcDbVertex
100
AcDb2dVertex
 10
44.77552891941633
 20
511.6062303668859
 30
0.0
 42
-0.0001609759
  0
VERTEX
  5
27004
330
26FE6
100
AcDbEntity
  8
10000_FRONT
  6
Continuous
 62
     7
370
    13
100
AcDbVertex
100
AcDb2dVertex
 10
44.78768891941633
 20
511.6061503668858
 30
0.0
 42
-0.0001557341
 70
     1
  0
VERTEX
  5
27005
330
26FE6
100
AcDbEntity
  8
10000_FRONT
  6
Continuous
 62
     7
370
    13
100
AcDbVertex
100
AcDb2dVertex
 10
44.79984891941636
 20
511.6060503668859
 30
0.0
 42
-0.0001498134
  0
VERTEX
  5
27006
330
26FE6
100
AcDbEntity
  8
10000_FRONT
  6
Continuous
 62
     7
370
    13
100
AcDbVertex
100
AcDb2dVertex
 10
44.81200891941637
 20
511.6059603668859
 30
0.0
 42
-0.0001445968
 70
     1
  0
VERTEX
  5
27007
330
26FE6
100
AcDbEntity
  8
10000_FRONT
  6
Continuous
 62
     7
370
    13
100
AcDbVertex
100
AcDb2dVertex
 10
44.82415891941633
 20
511.6058503668859
 30
0.0
 42
-0.0001387011
  0
VERTEX
  5
27008
330
26FE6
100
AcDbEntity
  8
10000_FRONT
  6
Continuous
 62
     7
370
    13
100
AcDbVertex
100
AcDb2dVertex
 10
44.83629891941632
 20
511.6057403668859
 30
0.0
 42
-0.000133506
 70
     1
  0
VERTEX
  5
27009
330
26FE6
100
AcDbEntity
  8
10000_FRONT
  6
Continuous
 62
     7
370
    13
100
AcDbVertex
100
AcDb2dVertex
 10
44.84842891941633
 20
511.6056203668859
 30
0.0
 42
-0.0001276292
  0
VERTEX
  5
2700A
330
26FE6
100
AcDbEntity
  8
10000_FRONT
  6
Continuous
 62
     7
370
    13
100
AcDbVertex
100
AcDb2dVertex
 10
44.86054891941637
 20
511.6055003668859
 30
0.0
 42
-0.0001224476
 70
     1
  0
VERTEX
  5
2700B
330
26FE6
100
AcDbEntity
  8
10000_FRONT
  6
Continuous
 62
     7
370
    13
100
AcDbVertex
100
AcDb2dVertex
 10
44.87266891941636
 20
511.605370366886
 30
0.0
 42
-0.0001165784
  0
VERTEX
  5
2700C
330
26FE6
100
AcDbEntity
  8
10000_FRONT
  6
Continuous
 62
     7
370
    13
100
AcDbVertex
100
AcDb2dVertex
 10
44.88477891941636
 20
511.6052303668858
 30
0.0
 42
-0.0001114114
 70
     1
  0
VERTEX
  5
2700D
330
26FE6
100
AcDbEntity
  8
10000_FRONT
  6
Continuous
 62
     7
370
    13
100
AcDbVertex
100
AcDb2dVertex
 10
44.89686891941629
 20
511.6050903668859
 30
0.0
 42
-0.0001055664
  0
VERTEX
  5
2700E
330
26FE6
100
AcDbEntity
  8
10000_FRONT
  6
Continuous
 62
     7
370
    13
100
AcDbVertex
100
AcDb2dVertex
 10
44.90895891941636
 20
511.6049503668859
 30
0.0
 42
-0.000100379
 70
     1
  0
VERTEX
  5
2700F
330
26FE6
100
AcDbEntity
  8
10000_FRONT
  6
Continuous
 62
     7
370
    13
100
AcDbVertex
100
AcDb2dVertex
 10
44.92102891941636
 20
511.6048003668859
 30
0.0
 42
-0.0000944607
  0
VERTEX
  5
27010
330
26FE6
100
AcDbEntity
  8
10000_FRONT
  6
Continuous
 62
     7
370
    13
100
AcDbVertex
100
AcDb2dVertex
 10
44.93309891941635
 20
511.6046403668859
 30
0.0
 42
-0.0000893647
 70
     1
  0
VERTEX
  5
27011
330
26FE6
100
AcDbEntity
  8
10000_FRONT
  6
Continuous
 62
     7
370
    13
100
AcDbVertex
100
AcDb2dVertex
 10
44.94514891941634
 20
511.6044803668859
 30
0.0
 42
-0.0000837361
  0
VERTEX
  5
27012
330
26FE6
100
AcDbEntity
  8
10000_FRONT
  6
Continuous
 62
     7
370
    13
100
AcDbVertex
100
AcDb2dVertex
 10
44.95718891941635
 20
511.6043203668859
 30
0.0
 42
-0.0000782449
 70
     1
  0
VERTEX
  5
27013
330
26FE6
100
AcDbEntity
  8
10000_FRONT
  6
Continuous
 62
     7
370
    13
100
AcDbVertex
100
AcDb2dVertex
 10
44.96920891941636
 20
511.6041603668859
 30
0.0
 42
-0.0000714014
  0
VERTEX
  5
27014
330
26FE6
100
AcDbEntity
  8
10000_FRONT
  6
Continuous
 62
     7
370
    13
100
AcDbVertex
100
AcDb2dVertex
 10
44.98121891941633
 20
511.6039903668859
 30
0.0
 42
-0.0000606666
 70
     1
  0
VERTEX
  5
27015
330
26FE6
100
AcDbEntity
  8
10000_FRONT
  6
Continuous
 62
     7
370
    13
100
AcDbVertex
100
AcDb2dVertex
 10
44.99321891941633
 20
511.6038203668859
 30
0.0
 42
-0.0000432909
  0
VERTEX
  5
27016
330
26FE6
100
AcDbEntity
  8
10000_FRONT
  6
Continuous
 62
     7
370
    13
100
AcDbVertex
100
AcDb2dVertex
 10
45.00518891941634
 20
511.6036503668858
 30
0.0
 42
-0.000027096
 70
     1
  0
VERTEX
  5
27017
330
26FE6
100
AcDbEntity
  8
10000_FRONT
  6
Continuous
 62
     7
370
    13
100
AcDbVertex
100
AcDb2dVertex
 10
45.01716891941635
 20
511.6034703668859
 30
0.0
 42
-0.0000077977
  0
VERTEX
  5
27018
330
26FE6
100
AcDbEntity
  8
10000_FRONT
  6
Continuous
 62
     7
370
    13
100
AcDbVertex
100
AcDb2dVertex
 10
45.02913891941637
 20
511.6033003668858
 30
0.0
 42
0.0000053337
 70
     1
  0
VERTEX
  5
27019
330
26FE6
100
AcDbEntity
  8
10000_FRONT
  6
Continuous
 62
     7
370
    13
100
AcDbVertex
100
AcDb2dVertex
 10
45.04104891941631
 20
511.6031303668859
 30
0.0
 42
0.0000157991
  0
VERTEX
  5
2701A
330
26FE6
100
AcDbEntity
  8
10000_FRONT
  6
Continuous
 62
     7
370
    13
100
AcDbVertex
100
AcDb2dVertex
 10
45.05286891941636
 20
511.6029603668859
 30
0.0
 42
0.0000412858
 70
     1
  0
VERTEX
  5
2701B
330
26FE6
100
AcDbEntity
  8
10000_FRONT
  6
Continuous
 62
     7
370
    13
100
AcDbVertex
100
AcDb2dVertex
 10
45.06485891941633
 20
511.6027903668859
 30
0.0
 42
0.000084249
  0
VERTEX
  5
2701C
330
26FE6
100
AcDbEntity
  8
10000_FRONT
  6
Continuous
 62
     7
370
    13
100
AcDbVertex
100
AcDb2dVertex
 10
45.07710891941633
 20
511.6026203668859
 30
0.0
 42
0.0000651427
 70
     1
  0
VERTEX
  5
2701D
330
26FE6
100
AcDbEntity
  8
10000_FRONT
  6
Continuous
 62
     7
370
    13
100
AcDbVertex
100
AcDb2dVertex
 10
45.08859891941631
 20
511.6024703668858
 30
0.0
 42
-0.0000057216
  0
VERTEX
  5
2701E
330
26FE6
100
AcDbEntity
  8
10000_FRONT
  6
Continuous
 62
     7
370
    13
100
AcDbVertex
100
AcDb2dVertex
 10
45.09897891941636
 20
511.602330366886
 30
0.0
 42
0.0001463298
 70
     1
  0
VERTEX
  5
2701F
330
26FE6
100
AcDbEntity
  8
10000_FRONT
  6
Continuous
 62
     7
370
    13
100
AcDbVertex
100
AcDb2dVertex
 10
45.11226891941634
 20
511.6021603668859
 30
0.0
 42
0.0003269968
  0
VERTEX
  5
27020
330
26FE6
100
AcDbEntity
  8
10000_FRONT
  6
Continuous
 62
     7
370
    13
100
AcDbVertex
100
AcDb2dVertex
 10
45.13266891941634
 20
511.6019303668859
 30
0.0
 42
0.0001654316
 70
     1
  0
VERTEX
  5
27021
330
26FE6
100
AcDbEntity
  8
10000_FRONT
  6
Continuous
 62
     7
370
    13
100
AcDbVertex
100
AcDb2dVertex
 10
45.15934891941634
 20
511.6016403668859
 30
0.0
 42
0.000083979
  0
SEQEND
  5
27022
330
26FE6
100
AcDbEntity
  8
10000_FRONT
  6
Continuous
 62
     7
370
    13
  0
LINE
  5
27023
330
20
100
AcDbEntity
  8
10000_FRONT
  6
Continuous
 62
     7
370
    13
100
AcDbLine
 10
46.14706891941631
 20
513.401110366886
 30
0.0
 11
46.14706891941631
 21
513.401640366886
 31
0.0
  0
LINE
  5
27024
330
20
100
AcDbEntity
  8
10000_FRONT
  6
Continuous
 62
     7
370
    13
100
AcDbLine
 10
43.18706891941633
 20
513.401640366886
 30
0.0
 11
43.18706891941633
 21
513.401110366886
 31
0.0
  0
LINE
  5
27025
330
20
100
AcDbEntity
  8
10000_FRONT
  6
Continuous
 62
     7
370
    13
100
AcDbLine
 10
45.31718891941631
 20
511.601640366886
 30
0.0
 11
45.31718891941631
 21
510.801640366886
 31
0.0
  0
LINE
  5
27026
330
20
100
AcDbEntity
  8
10000_FRONT
  6
Continuous
 62
     7
370
    13
100
AcDbLine
 10
47.56718891941631
 20
513.1016403668859
 30
0.0
 11
47.56706891941631
 21
513.1016403668859
 31
0.0
  0
LINE
  5
27027
330
20
100
AcDbEntity
  8
10000_FRONT
  6
Continuous
 62
     7
370
    13
100
AcDbLine
 10
47.56718891941631
 20
513.401640366886
 30
0.0
 11
47.56718891941631
 21
511.601640366886
 31
0.0
  0
LINE
  5
27028
330
20
100
AcDbEntity
  8
10000_FRONT
  6
Continuous
 62
     7
370
    13
100
AcDbLine
 10
40.36706891941634
 20
513.1016403668859
 30
0.0
 11
40.36718891941632
 21
513.1016403668859
 31
0.0
  0
LINE
  5
27029
330
20
100
AcDbEntity
  8
10000_FRONT
  6
Continuous
 62
     7
370
    13
100
AcDbLine
 10
34.5671929194163
 20
510.8516503668859
 30
0.0
 11
34.5671929194163
 21
513.401640366886
 31
0.0
  0
LINE
  5
2702A
330
20
100
AcDbEntity
  8
10000_FRONT
  6
Continuous
 62
     7
370
    13
100
AcDbLine
 10
40.36718891941632
 20
513.401640366886
 30
0.0
 11
40.36718891941632
 21
510.8516503668859
 31
0.0
  0
LINE
  5
2702B
330
20
100
AcDbEntity
  8
10000_FRONT
  6
Continuous
 62
     7
370
    13
100
AcDbLine
 10
33.16719291941633
 20
513.401640366886
 30
0.0
 11
33.16719291941633
 21
511.601640366886
 31
0.0
  0
LINE
  5
2702C
330
20
100
AcDbEntity
  8
10000_FRONT
  6
Continuous
 62
     7
370
    13
100
AcDbLine
 10
33.16719291941633
 20
513.1016403668859
 30
0.0
 11
33.1670649194163
 21
513.1016403668859
 31
0.0
  0
LINE
  5
2702D
330
20
100
AcDbEntity
  8
10000_FRONT
  6
Continuous
 62
     7
370
    13
100
AcDbLine
 10
27.36719291941631
 20
511.601640366886
 30
0.0
 11
27.36719291941631
 21
513.401640366886
 31
0.0
  0
LINE
  5
2702E
330
20
100
AcDbEntity
  8
10000_FRONT
  6
Continuous
 62
     7
370
    13
100
AcDbLine
 10
29.61719291941631
 20
510.801640366886
 30
0.0
 11
29.61719291941631
 21
511.601640366886
 31
0.0
  0
LINE
  5
2702F
330
20
100
AcDbEntity
  8
10000_FRONT
  6
Continuous
 62
     7
370
    13
100
AcDbLine
 10
32.71045791941634
 20
511.6066003668858
 30
0.0
 11
29.61719291941631
 21
511.601640366886
 31
0.0
  0
LINE
  5
27031
330
20
100
AcDbEntity
  8
10000_FRONT
  6
Continuous
 62
     7
370
    13
100
AcDbLine
 10
29.61719291941631
 20
511.601640366886
 30
0.0
 11
27.36719291941631
 21
511.601640366886
 31
0.0
  0
LINE
  5
27032
330
20
100
AcDbEntity
  8
10000_FRONT
  6
Continuous
 62
     7
370
    13
100
AcDbLine
 10
33.16719291941633
 20
511.601640366886
 30
0.0
 11
32.7095749194163
 21
511.601640366886
 31
0.0
  0
LINE
  5
27039
330
20
100
AcDbEntity
  8
10000_FRONT
  6
Continuous
 62
     7
370
    13
100
AcDbLine
 10
35.46719291941633
 20
511.601640366886
 30
0.0
 11
39.46719291941633
 21
511.601640366886
 31
0.0
  0
LINE
  5
2703A
330
20
100
AcDbEntity
  8
10000_FRONT
  6
Continuous
 62
     7
370
    13
100
AcDbLine
 10
34.5671929194163
 20
511.601640366886
 30
0.0
 11
35.46719291941633
 21
511.601640366886
 31
0.0
  0
LINE
  5
2703B
330
20
100
AcDbEntity
  8
10000_FRONT
  6
Continuous
 62
     7
370
    13
100
AcDbLine
 10
39.46719291941633
 20
511.601640366886
 30
0.0
 11
40.36718891941632
 21
511.601640366886
 31
0.0
  0
LINE
  5
2703C
330
20
100
AcDbEntity
  8
10000_FRONT
  6
Continuous
 62
     7
370
    13
100
AcDbLine
 10
36.46719291941634
 20
513.401640366886
 30
0.0
 11
36.46719291941634
 21
512.1016403668859
 31
0.0
  0
LINE
  5
2703D
330
20
100
AcDbEntity
  8
10000_FRONT
  6
Continuous
 62
     7
370
    13
100
AcDbLine
 10
36.46719291941634
 20
512.1016403668859
 30
0.0
 11
38.46719291941634
 21
512.1016403668859
 31
0.0
  0
LINE
  5
2703E
330
20
100
AcDbEntity
  8
10000_FRONT
  6
Continuous
 62
     7
370
    13
100
AcDbLine
 10
38.46719291941634
 20
513.401640366886
 30
0.0
 11
38.46719291941634
 21
512.1016403668859
 31
0.0
  0
LINE
  5
2703F
330
20
100
AcDbEntity
  8
10000_FRONT
  6
Continuous
 62
     7
370
    13
100
AcDbLine
 10
27.36719291941631
 20
513.401640366886
 30
0.0
 11
47.56718891941631
 21
513.401640366886
 31
0.0
  0
LINE
  5
27040
330
20
100
AcDbEntity
  8
10000_FRONT
  6
Continuous
 62
     7
370
    13
100
AcDbLine
 10
41.7671889194163
 20
511.601640366886
 30
0.0
 11
41.7671889194163
 21
513.401640366886
 31
0.0
  0
LINE
  5
27041
330
20
100
AcDbEntity
  8
10000_FRONT
  6
Continuous
 62
     7
370
    13
100
AcDbLine
 10
42.22480891941631
 20
511.601640366886
 30
0.0
 11
44.70957891941629
 21
511.601640366886
 31
0.0
  0
LINE
  5
27042
330
20
100
AcDbEntity
  8
10000_FRONT
  6
Continuous
 62
     7
370
    13
100
AcDbLine
 10
42.22480891941631
 20
511.601640366886
 30
0.0
 11
41.7671889194163
 21
511.601640366886
 31
0.0
  0
LINE
  5
27043
330
20
100
AcDbEntity
  8
10000_FRONT
  6
Continuous
 62
     7
370
    13
100
AcDbLine
 10
47.56718891941631
 20
511.601640366886
 30
0.0
 11
45.31718891941631
 21
511.601640366886
 31
0.0
  0
LINE
  5
27044
330
20
100
AcDbEntity
  8
10000_FRONT
  6
Continuous
 62
     7
370
    13
100
AcDbLine
 10
45.31718891941631
 20
511.601640366886
 30
0.0
 11
44.70957891941629
 21
511.601640366886
 31
0.0
  0
ENDSEC
  0
SECTION
  2
OBJECTS
  0
DICTIONARY
  5
C
330
0
100
AcDbDictionary
281
     1
  3
ACAD_COLOR
350
1B
  3
ACAD_GROUP
350
D
  3
ACAD_LAYOUT
350
19
  3
ACAD_MATERIAL
350
1A
  3
ACAD_MLINESTYLE
350
16
  3
ACAD_PLOTSETTINGS
350
18
  3
ACAD_PLOTSTYLENAME
350
E
  3
ACDBHEADERROUNDTRIPXREC
350
27060
  3
AcDbVariableDictionary
350
687E
  3
DWGPROPS
350
2705F
  0
DICTIONARY
  5
1B
102
{ACAD_REACTORS
330
C
102
}
330
C
100
AcDbDictionary
281
     1
  0
DICTIONARY
  5
D
102
{ACAD_REACTORS
330
C
102
}
330
C
100
AcDbDictionary
281
     1
  0
DICTIONARY
  5
19
102
{ACAD_REACTORS
330
C
102
}
330
C
100
AcDbDictionary
281
     1
  3
Layout1
350
1F
  3
Model
350
23
  0
DICTIONARY
  5
1A
102
{ACAD_REACTORS
330
C
102
}
330
C
100
AcDbDictionary
281
     1
  0
DICTIONARY
  5
16
102
{ACAD_REACTORS
330
C
102
}
330
C
100
AcDbDictionary
281
     1
  3
Standard
350
17
  0
DICTIONARY
  5
18
102
{ACAD_REACTORS
330
C
102
}
330
C
100
AcDbDictionary
281
     1
  0
ACDBDICTIONARYWDFLT
  5
E
102
{ACAD_REACTORS
330
C
102
}
330
C
100
AcDbDictionary
281
     1
  3
Normal
350
F
100
AcDbDictionaryWithDefault
340
F
  0
DICTIONARY
  5
27060
102
{ACAD_REACTORS
330
C
102
}
330
C
100
AcDbDictionary
281
     1
  3
COLORDICT
350
27062
  3
MATERIALDICT
350
27061
  0
DICTIONARY
  5
687E
102
{ACAD_REACTORS
330
C
102
}
330
C
100
AcDbDictionary
281
     1
  3
DIMASSOC
350
687F
  3
PROJECTNAME
350
6880
  0
XRECORD
  5
2705F
102
{ACAD_REACTORS
330
C
102
}
330
C
100
AcDbXrecord
280
     1
  1
DWGPROPS COOKIE
  2

  3

  4

  6

  7

  8

  9

300
=
301
=
302
=
303
=
304
=
305
=
306
=
307
=
308
=
309
=
 40
2.773619930555555
 41
2452829.417613079
 42
2453425.343782616
  1

 90
        0
  0
LAYOUT
  5
1F
102
{ACAD_XDICTIONARY
360
27063
102
}
102
{ACAD_REACTORS
330
19
102
}
330
19
100
AcDbPlotSettings
  1

  2
HP LaserJet 5000 Series PS
  4

  6

 40
0.0
 41
0.0
 42
0.0
 43
0.0
 44
0.0
 45
0.0
 46
0.0
 47
0.0
 48
0.0
 49
0.0
140
0.0
141
0.0
142
1.0
143
1.0
 70
   688
 72
     0
 73
     0
 74
     5
  7
monochrome.ctb
 75
    16
147
1.0
148
0.0
149
0.0
100
AcDbLayout
  1
Layout1
 70
     1
 71
     1
 10
0.0
 20
0.0
 11
12.0
 21
9.0
 12
0.0
 22
0.0
 32
0.0
 14
1.000000000000000E+20
 24
1.000000000000000E+20
 34
1.000000000000000E+20
 15
-1.000000000000000E+20
 25
-1.000000000000000E+20
 35
-1.000000000000000E+20
146
0.0
 13
0.0
 23
0.0
 33
0.0
 16
1.0
 26
0.0
 36
0.0
 17
0.0
 27
1.0
 37
0.0
 76
     0
330
1C
  0
LAYOUT
  5
23
102
{ACAD_XDICTIONARY
360
27065
102
}
102
{ACAD_REACTORS
330
19
102
}
330
19
100
AcDbPlotSettings
  1

  2
\\AMBW779A\A_P00873 (Canon iR2200-3300 PCL6)
  4
A3
  6

 40
4.815416812896728
 41
4.815412044525146
 42
4.815399169921875
 43
4.8154296875
 44
296.9259948730469
 45
419.9466552734373
 46
0.0
 47
0.0
 48
0.0
 49
0.0
140
0.0
141
0.0
142
1.0
143
1.0
 70
 11952
 72
     1
 73
     1
 74
     1
  7
monochrome.ctb
 75
    16
147
1.0
148
70.62910629360158
149
-288.7838874837187
100
AcDbLayout
  1
Model
 70
     1
 71
     0
 10
0.0
 20
0.0
 11
12.0
 21
9.0
 12
0.0
 22
0.0
 32
0.0
 14
0.0
 24
0.0
 34
0.0
 15
0.0
 25
0.0
 35
0.0
146
0.0
 13
0.0
 23
0.0
 33
0.0
 16
1.0
 26
0.0
 36
0.0
 17
0.0
 27
1.0
 37
0.0
 76
     0
330
20
  0
MLINESTYLE
  5
17
102
{ACAD_REACTORS
330
16
102
}
330
16
100
AcDbMlineStyle
  2
STANDARD
 70
     0
  3

 62
   256
 51
90.0
 52
90.0
 71
     2
 49
0.5
 62
   256
  6
BYLAYER
 49
-0.5
 62
   256
  6
BYLAYER
  0
ACDBPLACEHOLDER
  5
F
102
{ACAD_REACTORS
330
E
102
}
330
E
  0
XRECORD
  5
27062
102
{ACAD_REACTORS
330
27060
102
}
330
27060
100
AcDbXrecord
280
     1
340
1B
  0
XRECORD
  5
27061
102
{ACAD_REACTORS
330
27060
102
}
330
27060
100
AcDbXrecord
280
     1
340
1A
  0
DICTIONARYVAR
  5
687F
102
{ACAD_REACTORS
330
687E
102
}
330
687E
100
DictionaryVariables
280
     0
  1
1
  0
DICTIONARYVAR
  5
6880
102
{ACAD_REACTORS
330
687E
102
}
330
687E
100
DictionaryVariables
280
     0
  1

  0
DICTIONARY
  5
27063
330
1F
100
AcDbDictionary
280
     1
281
     1
  3
ACAD_XREC_ROUNDTRIP
360
27064
  0
DICTIONARY
  5
27065
330
23
100
AcDbDictionary
280
     1
281
     1
  3
ACAD_XREC_ROUNDTRIP
360
27066
  0
XRECORD
  5
27064
102
{ACAD_REACTORS
330
27063
102
}
330
27063
100
AcDbXrecord
280
     1
102
SHADEPLOT
 70
     0
102
SHADEPLOTRESLEVEL
 70
     2
102
SHADEPLOTCUSTOMDPI
 70
   300
  0
XRECORD
  5
27066
102
{ACAD_REACTORS
330
27065
102
}
330
27065
100
AcDbXrecord
280
     1
102
SHADEPLOT
 70
     1
102
SHADEPLOTRESLEVEL
 70
     2
102
SHADEPLOTCUSTOMDPI
 70
   300
  0
ENDSEC
  0
EOF
