  0
SECTION
  2
HEADER
  9
$ACADVER
  1
AC1015
  9
$ACADMAINTVER
 70
    20
  9
$DWGCODEPAGE
  3
ANSI_1252
  9
$INSBASE
 10
0.0
 20
0.0
 30
0.0
  9
$EXTMIN
 10
238.4231385851073
 20
540.5987426489239
 30
-1.000060081145894
  9
$EXTMAX
 10
508.4415310405209
 20
740.697015114005
 30
0.2500914418544005
  9
$LIMMIN
 10
0.0
 20
0.0
  9
$LIMMAX
 10
0.0
 20
0.0
  9
$ORTHOMODE
 70
     0
  9
$REGENMODE
 70
     1
  9
$FILLMODE
 70
     1
  9
$QTEXTMODE
 70
     0
  9
$MIRRTEXT
 70
     1
  9
$LTSCALE
 40
1.0
  9
$ATTMODE
 70
     1
  9
$TEXTSIZE
 40
1.0
  9
$TRACEWID
 40
0.05
  9
$TEXTSTYLE
  7
STANDARD
  9
$CLAYER
  8
1
  9
$CELTYPE
  6
CONTINUOUS
  9
$CECOLOR
 62
     1
  9
$CELTSCALE
 40
1.0
  9
$DISPSILH
 70
     0
  9
$DIMSCALE
 40
1.0
  9
$DIMASZ
 40
0.125
  9
$DIMEXO
 40
0.0625
  9
$DIMDLI
 40
0.25
  9
$DIMRND
 40
0.0
  9
$DIMDLE
 40
0.0
  9
$DIMEXE
 40
0.125
  9
$DIMTP
 40
0.005
  9
$DIMTM
 40
-0.005
  9
$DIMTXT
 40
3.0
  9
$DIMCEN
 40
0.09
  9
$DIMTSZ
 40
0.0
  9
$DIMTOL
 70
     0
  9
$DIMLIM
 70
     0
  9
$DIMTIH
 70
     1
  9
$DIMTOH
 70
     1
  9
$DIMSE1
 70
     0
  9
$DIMSE2
 70
     0
  9
$DIMTAD
 70
     0
  9
$DIMZIN
 70
     0
  9
$DIMBLK
  1

  9
$DIMASO
 70
     1
  9
$DIMSHO
 70
     1
  9
$DIMPOST
  1

  9
$DIMAPOST
  1

  9
$DIMALT
 70
     0
  9
$DIMALTD
 70
     0
  9
$DIMALTF
 40
25.4
  9
$DIMLFAC
 40
1.0
  9
$DIMTOFL
 70
     1
  9
$DIMTVP
 40
0.0
  9
$DIMTIX
 70
     0
  9
$DIMSOXD
 70
     0
  9
$DIMSAH
 70
     0
  9
$DIMBLK1
  1

  9
$DIMBLK2
  1

  9
$DIMSTYLE
  2
STANDARD
  9
$DIMCLRD
 70
     0
  9
$DIMCLRE
 70
     0
  9
$DIMCLRT
 70
     0
  9
$DIMTFAC
 40
1.0
  9
$DIMGAP
 40
0.0625
  9
$DIMJUST
 70
     0
  9
$DIMSD1
 70
     0
  9
$DIMSD2
 70
     0
  9
$DIMTOLJ
 70
     1
  9
$DIMTZIN
 70
     0
  9
$DIMALTZ
 70
     0
  9
$DIMALTTZ
 70
     0
  9
$DIMUPT
 70
     0
  9
$DIMDEC
 70
     3
  9
$DIMTDEC
 70
     3
  9
$DIMALTU
 70
     2
  9
$DIMALTTD
 70
     0
  9
$DIMTXSTY
  7
STANDARD
  9
$DIMAUNIT
 70
     0
  9
$DIMADEC
 70
     1
  9
$DIMALTRND
 40
0.0
  9
$DIMAZIN
 70
     0
  9
$DIMDSEP
 70
    46
  9
$DIMATFIT
 70
     3
  9
$DIMFRAC
 70
     0
  9
$DIMLDRBLK
  1

  9
$DIMLUNIT
 70
     2
  9
$DIMLWD
 70
    -2
  9
$DIMLWE
 70
    -2
  9
$DIMTMOVE
 70
     2
  9
$LUNITS
 70
     2
  9
$LUPREC
 70
     3
  9
$SKETCHINC
 40
0.1
  9
$FILLETRAD
 40
10.0
  9
$AUNITS
 70
     0
  9
$AUPREC
 70
     1
  9
$MENU
  1
acad
  9
$ELEVATION
 40
0.0
  9
$PELEVATION
 40
0.0
  9
$THICKNESS
 40
0.0
  9
$LIMCHECK
 70
     0
  9
$CHAMFERA
 40
6.0
  9
$CHAMFERB
 40
6.0
  9
$CHAMFERC
 40
0.0
  9
$CHAMFERD
 40
0.0
  9
$SKPOLY
 70
     0
  9
$TDCREATE
 40
2444975.041666666
  9
$TDUCREATE
 40
2444975.000000000
  9
$TDUPDATE
 40
2454092.490520625
  9
$TDUUPDATE
 40
2454092.448853959
  9
$TDINDWG
 40
0.0624670833
  9
$TDUSRTIMER
 40
0.0624668981
  9
$USRTIMER
 70
     1
  9
$ANGBASE
 50
0.0
  9
$ANGDIR
 70
     0
  9
$PDMODE
 70
     2
  9
$PDSIZE
 40
-0.01
  9
$PLINEWID
 40
0.0
  9
$SPLFRAME
 70
     0
  9
$SPLINETYPE
 70
     6
  9
$SPLINESEGS
 70
     8
  9
$HANDSEED
  5
B2C8
  9
$SURFTAB1
 70
     6
  9
$SURFTAB2
 70
     6
  9
$SURFTYPE
 70
     6
  9
$SURFU
 70
     6
  9
$SURFV
 70
     6
  9
$UCSBASE
  2

  9
$UCSNAME
  2

  9
$UCSORG
 10
0.0
 20
0.0
 30
0.0
  9
$UCSXDIR
 10
1.0
 20
0.0
 30
0.0
  9
$UCSYDIR
 10
0.0
 20
1.0
 30
0.0
  9
$UCSORTHOREF
  2

  9
$UCSORTHOVIEW
 70
     0
  9
$UCSORGTOP
 10
0.0
 20
0.0
 30
0.0
  9
$UCSORGBOTTOM
 10
0.0
 20
0.0
 30
0.0
  9
$UCSORGLEFT
 10
0.0
 20
0.0
 30
0.0
  9
$UCSORGRIGHT
 10
0.0
 20
0.0
 30
0.0
  9
$UCSORGFRONT
 10
0.0
 20
0.0
 30
0.0
  9
$UCSORGBACK
 10
0.0
 20
0.0
 30
0.0
  9
$PUCSBASE
  2

  9
$PUCSNAME
  2

  9
$PUCSORG
 10
0.0
 20
0.0
 30
0.0
  9
$PUCSXDIR
 10
1.0
 20
0.0
 30
0.0
  9
$PUCSYDIR
 10
0.0
 20
1.0
 30
0.0
  9
$PUCSORTHOREF
  2

  9
$PUCSORTHOVIEW
 70
     0
  9
$PUCSORGTOP
 10
0.0
 20
0.0
 30
0.0
  9
$PUCSORGBOTTOM
 10
0.0
 20
0.0
 30
0.0
  9
$PUCSORGLEFT
 10
0.0
 20
0.0
 30
0.0
  9
$PUCSORGRIGHT
 10
0.0
 20
0.0
 30
0.0
  9
$PUCSORGFRONT
 10
0.0
 20
0.0
 30
0.0
  9
$PUCSORGBACK
 10
0.0
 20
0.0
 30
0.0
  9
$USERI1
 70
     0
  9
$USERI2
 70
     0
  9
$USERI3
 70
     0
  9
$USERI4
 70
     0
  9
$USERI5
 70
     0
  9
$USERR1
 40
0.0
  9
$USERR2
 40
0.0
  9
$USERR3
 40
0.0
  9
$USERR4
 40
0.0
  9
$USERR5
 40
0.0
  9
$WORLDVIEW
 70
     1
  9
$SHADEDGE
 70
     3
  9
$SHADEDIF
 70
    70
  9
$TILEMODE
 70
     1
  9
$MAXACTVP
 70
    16
  9
$PINSBASE
 10
0.0
 20
0.0
 30
0.0
  9
$PLIMCHECK
 70
     0
  9
$PEXTMIN
 10
0.0
 20
0.0
 30
0.0
  9
$PEXTMAX
 10
1189.0
 20
841.0
 30
0.0
  9
$PLIMMIN
 10
0.0
 20
0.0
  9
$PLIMMAX
 10
1189.0
 20
841.0
  9
$UNITMODE
 70
     0
  9
$VISRETAIN
 70
     0
  9
$PLINEGEN
 70
     1
  9
$PSLTSCALE
 70
     0
  9
$TREEDEPTH
 70
  3020
  9
$CMLSTYLE
  2
Standard
  9
$CMLJUST
 70
     0
  9
$CMLSCALE
 40
1.0
  9
$PROXYGRAPHICS
 70
     1
  9
$MEASUREMENT
 70
     0
  9
$CELWEIGHT
370
    -1
  9
$ENDCAPS
280
     0
  9
$JOINSTYLE
280
     0
  9
$LWDISPLAY
290
     0
  9
$INSUNITS
 70
     0
  9
$HYPERLINKBASE
  1

  9
$STYLESHEET
  1

  9
$XEDIT
290
     1
  9
$CEPSNTYPE
380
     0
  9
$PSTYLEMODE
290
     1
  9
$FINGERPRINTGUID
  2
{D510670F-D075-4B23-8A6F-C1514F174BF6}
  9
$VERSIONGUID
  2
{6C4C2B3D-5D17-4B74-92E5-CCFCD3854926}
  9
$EXTNAMES
290
     1
  9
$PSVPSCALE
 40
0.0
  9
$OLESTARTUP
290
     0
  0
ENDSEC
  0
SECTION
  2
CLASSES
  0
CLASS
  1
ACDBDICTIONARYWDFLT
  2
AcDbDictionaryWithDefault
  3
ObjectDBX Classes
 90
        0
280
     0
281
     0
  0
CLASS
  1
MATERIAL
  2
AcDbMaterial
  3
ObjectDBX Classes
 90
     1024
280
     0
281
     0
  0
CLASS
  1
VISUALSTYLE
  2
AcDbVisualStyle
  3
ObjectDBX Classes
 90
     4095
280
     0
281
     0
  0
CLASS
  1
TABLESTYLE
  2
AcDbTableStyle
  3
ObjectDBX Classes
 90
     4095
280
     0
281
     0
  0
CLASS
  1
DICTIONARYVAR
  2
AcDbDictionaryVar
  3
ObjectDBX Classes
 90
        0
280
     0
281
     0
  0
CLASS
  1
SORTENTSTABLE
  2
AcDbSortentsTable
  3
ObjectDBX Classes
 90
        0
280
     0
281
     0
  0
CLASS
  1
ACDBPLACEHOLDER
  2
AcDbPlaceHolder
  3
ObjectDBX Classes
 90
        0
280
     0
281
     0
  0
CLASS
  1
LAYOUT
  2
AcDbLayout
  3
ObjectDBX Classes
 90
        0
280
     0
281
     0
  0
ENDSEC
  0
SECTION
  2
TABLES
  0
TABLE
  2
VPORT
  5
A9E8
330
0
100
AcDbSymbolTable
 70
     1
  0
VPORT
  5
AA30
330
A9E8
100
AcDbSymbolTableRecord
100
AcDbViewportTableRecord
  2
*ACTIVE
 70
     0
 10
0.0
 20
0.0
 11
1.0
 21
1.0
 12
390.2263267949184
 22
640.6439688891915
 13
0.0
 23
0.0
 14
1.0
 24
1.0
 15
0.0
 25
0.0
 16
0.0
 26
0.0
 36
1.0
 17
0.0
 27
0.0
 37
0.0
 40
201.3324552236199
 41
1.926118626430801
 42
50.0
 43
0.0
 44
0.0
 50
0.0
 51
0.0
 71
     0
 72
   100
 73
     1
 74
     3
 75
     0
 76
     0
 77
     0
 78
     0
281
     0
 65
     1
110
0.0
120
0.0
130
0.0
111
1.0
121
0.0
131
0.0
112
0.0
122
1.0
132
0.0
 79
     0
146
0.0
  0
ENDTAB
  0
TABLE
  2
LTYPE
  5
A9E5
330
0
100
AcDbSymbolTable
 70
     3
  0
LTYPE
  5
AA08
330
A9E5
100
AcDbSymbolTableRecord
100
AcDbLinetypeTableRecord
  2
ByBlock
 70
     0
  3

 72
    65
 73
     0
 40
0.0
  0
LTYPE
  5
AA09
330
A9E5
100
AcDbSymbolTableRecord
100
AcDbLinetypeTableRecord
  2
ByLayer
 70
     0
  3

 72
    65
 73
     0
 40
0.0
  0
LTYPE
  5
AA0A
330
A9E5
100
AcDbSymbolTableRecord
100
AcDbLinetypeTableRecord
  2
CONTINUOUS
 70
     0
  3
Solid line
 72
    65
 73
     0
 40
0.0
  0
LTYPE
  5
AA2B
330
A9E5
100
AcDbSymbolTableRecord
100
AcDbLinetypeTableRecord
  2
HIDDEN
 70
     0
  3
_ 
 72
    65
 73
     3
 40
4.5
 49
1.5
 74
     0
 49
-1.5
 74
     0
 49
1.5
 74
     0
  0
LTYPE
  5
B22A
330
A9E5
100
AcDbSymbolTableRecord
100
AcDbLinetypeTableRecord
  2
CENTER
 70
     0
  3
____ _ ____ _ ____ _ ____ _ ____ _ ____ _ ____
 72
    65
 73
     4
 40
0.6
 49
0.375
 74
     0
 49
-0.075
 74
     0
 49
0.075
 74
     0
 49
-0.075
 74
     0
  0
ENDTAB
  0
TABLE
  2
LAYER
  5
A9E2
330
0
100
AcDbSymbolTable
 70
     9
  0
LAYER
  5
AA05
330
A9E2
100
AcDbSymbolTableRecord
100
AcDbLayerTableRecord
  2
0
 70
     0
 62
     7
  6
CONTINUOUS
370
    -3
390
A9EF
  0
LAYER
  5
AA32
330
A9E2
100
AcDbSymbolTableRecord
100
AcDbLayerTableRecord
  2
1
 70
     0
 62
     7
  6
CONTINUOUS
370
    -3
390
A9EF
  0
LAYER
  5
AB9C
330
A9E2
100
AcDbSymbolTableRecord
100
AcDbLayerTableRecord
  2
Defpoints
 70
     0
 62
     7
  6
CONTINUOUS
290
     0
370
    -3
390
A9EF
  0
LAYER
  5
AB9D
330
A9E2
100
AcDbSymbolTableRecord
100
AcDbLayerTableRecord
  2
11000_Left
 70
     0
 62
     7
  6
CONTINUOUS
370
    -3
390
A9EF
  0
LAYER
  5
AB9E
330
A9E2
100
AcDbSymbolTableRecord
100
AcDbLayerTableRecord
  2
10000_FRONT
 70
     0
 62
     7
  6
CONTINUOUS
370
    -3
390
A9EF
  0
LAYER
  5
AB9F
330
A9E2
100
AcDbSymbolTableRecord
100
AcDbLayerTableRecord
  2
10100_FRONT_DIM
 70
     0
 62
     7
  6
CONTINUOUS
370
    -3
390
A9EF
  0
LAYER
  5
ABA0
330
A9E2
100
AcDbSymbolTableRecord
100
AcDbLayerTableRecord
  2
11100_LEFT_DIM
 70
     0
 62
     7
  6
CONTINUOUS
370
    -3
390
A9EF
  0
LAYER
  5
B22B
330
A9E2
100
AcDbSymbolTableRecord
100
AcDbLayerTableRecord
  2
91000_TIP
 70
     0
 62
     7
  6
CONTINUOUS
370
    -3
390
A9EF
  0
LAYER
  5
B22C
330
A9E2
100
AcDbSymbolTableRecord
100
AcDbLayerTableRecord
  2
90000_FRAME
 70
     0
 62
     7
  6
CONTINUOUS
370
    -3
390
A9EF
  0
ENDTAB
  0
TABLE
  2
STYLE
  5
A9E3
330
0
100
AcDbSymbolTable
 70
     2
  0
STYLE
  5
AA06
330
A9E3
100
AcDbSymbolTableRecord
100
AcDbTextStyleTableRecord
  2
STANDARD
 70
     0
 40
0.0
 41
1.0
 50
0.0
 71
     0
 42
1.0
  3
monotxt.shx
  4

  0
ENDTAB
  0
TABLE
  2
VIEW
  5
A9E6
330
0
100
AcDbSymbolTable
 70
     0
  0
ENDTAB
  0
TABLE
  2
UCS
  5
A9E7
330
0
100
AcDbSymbolTable
 70
     0
  0
ENDTAB
  0
TABLE
  2
APPID
  5
A9E9
330
0
100
AcDbSymbolTable
 70
     4
  0
APPID
  5
AA07
330
A9E9
100
AcDbSymbolTableRecord
100
AcDbRegAppTableRecord
  2
ACAD
 70
     0
  0
APPID
  5
ABA3
330
A9E9
100
AcDbSymbolTableRecord
100
AcDbRegAppTableRecord
  2
AUSTER_ANSICHT
 70
     0
  0
APPID
  5
ABA4
330
A9E9
100
AcDbSymbolTableRecord
100
AcDbRegAppTableRecord
  2
AUSTER_FOLIE
 70
     0
  0
APPID
  5
B2B7
330
A9E9
100
AcDbSymbolTableRecord
100
AcDbRegAppTableRecord
  2
ACAD_PSEXT
 70
     0
  0
ENDTAB
  0
TABLE
  2
DIMSTYLE
  5
A9EA
330
0
100
AcDbSymbolTable
 70
     3
100
AcDbDimStyleTable
 71
     1
340
AA31
  0
DIMSTYLE
105
AA31
330
A9EA
100
AcDbSymbolTableRecord
100
AcDbDimStyleTableRecord
  2
STANDARD
 70
     0
 41
0.125
 43
0.25
 44
0.125
 47
0.005
 48
-0.005
140
3.0
147
0.0625
171
     0
172
     1
271
     3
272
     3
274
     0
279
     2
340
AA06
  0
DIMSTYLE
105
ABA2
102
{ACAD_REACTORS
330
ADD7
330
ADD8
330
ADD9
330
ADDA
330
ADDB
330
ADDC
330
ADDD
330
ADDF
330
ADD5
330
ADD6
102
}
330
A9EA
100
AcDbSymbolTableRecord
100
AcDbDimStyleTableRecord
  2
DSTYLE1
 70
     0
 41
3.0
 42
0.0
 44
1.0
 73
     0
 74
     0
 77
     1
 78
     3
140
2.5
143
0.039370079
147
1.0
271
     3
272
     3
274
     0
279
     2
340
AA06
  0
ENDTAB
  0
TABLE
  2
BLOCK_RECORD
  5
A9E1
330
0
100
AcDbSymbolTable
 70
    12
  0
BLOCK_RECORD
  5
AA16
102
{ACAD_XDICTIONARY
360
B10E
102
}
330
A9E1
100
AcDbSymbolTableRecord
100
AcDbBlockTableRecord
  2
*Model_Space
340
AA19
  0
BLOCK_RECORD
  5
AA12
330
A9E1
100
AcDbSymbolTableRecord
100
AcDbBlockTableRecord
  2
*Paper_Space
340
AA15
  0
BLOCK_RECORD
  5
B001
330
A9E1
100
AcDbSymbolTableRecord
100
AcDbBlockTableRecord
  2
*D0
340
0
  0
BLOCK_RECORD
  5
B00E
330
A9E1
100
AcDbSymbolTableRecord
100
AcDbBlockTableRecord
  2
*D1
340
0
  0
BLOCK_RECORD
  5
B01C
330
A9E1
100
AcDbSymbolTableRecord
100
AcDbBlockTableRecord
  2
*D2
340
0
  0
BLOCK_RECORD
  5
B029
330
A9E1
100
AcDbSymbolTableRecord
100
AcDbBlockTableRecord
  2
*D3
340
0
  0
BLOCK_RECORD
  5
B035
330
A9E1
100
AcDbSymbolTableRecord
100
AcDbBlockTableRecord
  2
*D4
340
0
  0
BLOCK_RECORD
  5
B040
330
A9E1
100
AcDbSymbolTableRecord
100
AcDbBlockTableRecord
  2
*D5
340
0
  0
BLOCK_RECORD
  5
B04D
330
A9E1
100
AcDbSymbolTableRecord
100
AcDbBlockTableRecord
  2
*D6
340
0
  0
BLOCK_RECORD
  5
B067
330
A9E1
100
AcDbSymbolTableRecord
100
AcDbBlockTableRecord
  2
*D7
340
0
  0
BLOCK_RECORD
  5
B074
330
A9E1
100
AcDbSymbolTableRecord
100
AcDbBlockTableRecord
  2
*D8
340
0
  0
BLOCK_RECORD
  5
B081
330
A9E1
100
AcDbSymbolTableRecord
100
AcDbBlockTableRecord
  2
*D9
340
0
  0
BLOCK_RECORD
  5
B1BF
330
A9E1
100
AcDbSymbolTableRecord
100
AcDbBlockTableRecord
  2
SIEMENS_OUTLINE_BL0
340
0
102
{BLKREFS
331
B24A
102
}
  0
ENDTAB
  0
ENDSEC
  0
SECTION
  2
BLOCKS
  0
BLOCK
  5
AB0B
330
AA16
100
AcDbEntity
  8
0
 62
     1
100
AcDbBlockBegin
  2
*Model_Space
 70
     0
 10
0.0
 20
0.0
 30
0.0
  3
*Model_Space
  1

  0
ENDBLK
  5
AB0C
330
AA16
100
AcDbEntity
  8
0
 62
     1
100
AcDbBlockEnd
  0
BLOCK
  5
AB09
330
AA12
100
AcDbEntity
 67
     1
  8
0
 62
     1
100
AcDbBlockBegin
  2
*Paper_Space
 70
     0
 10
0.0
 20
0.0
 30
0.0
  3
*Paper_Space
  1

  0
ENDBLK
  5
AB0A
330
AA12
100
AcDbEntity
 67
     1
  8
0
 62
     1
100
AcDbBlockEnd
  0
BLOCK
  5
B00C
330
B001
100
AcDbEntity
  8
0
 62
     1
100
AcDbBlockBegin
  2
*D0
 70
     1
 10
0.0
 20
0.0
 30
0.0
  3
*D0
  1

  0
LINE
  5
B08E
330
B001
100
AcDbEntity
  8
11100_LEFT_DIM
  6
Continuous
 62
     0
370
    -2
100
AcDbLine
 10
378.0802208962971
 20
678.0356583514718
 30
0.0
 11
378.0802208962971
 21
709.7817981257994
 31
0.0
  0
LINE
  5
B08F
330
B001
100
AcDbEntity
  8
11100_LEFT_DIM
  6
Continuous
 62
     0
370
    -2
100
AcDbLine
 10
442.9802208962971
 20
682.5856583514718
 30
0.0
 11
442.9802208962971
 21
709.7817981257994
 31
0.0
  0
LINE
  5
B090
330
B001
100
AcDbEntity
  8
11100_LEFT_DIM
  6
Continuous
 62
     0
370
    -2
100
AcDbLine
 10
380.0802208962971
 20
708.7817981257992
 30
0.0
 11
406.6135542296304
 21
708.7817981257992
 31
0.0
  0
LINE
  5
B091
330
B001
100
AcDbEntity
  8
11100_LEFT_DIM
  6
Continuous
 62
     0
370
    -2
100
AcDbLine
 10
440.9802208962971
 20
708.7817981257992
 30
0.0
 11
414.4468875629638
 21
708.7817981257992
 31
0.0
  0
SOLID
  5
B092
330
B001
100
AcDbEntity
  8
11100_LEFT_DIM
  6
Continuous
 62
     0
100
AcDbTrace
 10
380.0802208962971
 20
709.1151314591327
 30
0.0
 11
380.0802208962971
 21
708.448464792466
 31
0.0
 12
378.0802208962971
 22
708.7817981257992
 32
0.0
 13
378.0802208962971
 23
708.7817981257992
 33
0.0
  0
SOLID
  5
B093
330
B001
100
AcDbEntity
  8
11100_LEFT_DIM
  6
Continuous
 62
     0
100
AcDbTrace
 10
440.9802208962971
 20
709.1151314591327
 30
0.0
 11
440.9802208962971
 21
708.448464792466
 31
0.0
 12
442.9802208962971
 22
708.7817981257992
 32
0.0
 13
442.9802208962971
 23
708.7817981257992
 33
0.0
  0
MTEXT
  5
B094
330
B001
100
AcDbEntity
  8
11100_LEFT_DIM
  6
Continuous
 62
     0
370
    13
100
AcDbMText
 10
410.5302208962971
 20
708.7817981257992
 30
0.0
 40
3.5
 41
0.0
 71
     5
 72
     1
  1
\A1;65
 73
     1
 44
1.0
1001
ACAD
1000
MTEXTBEGIN
1070
    73
1070
     1
1070
    44
1040
1.0
1070
    74
1070
     0
1000
MTEXTEND
  0
POINT
  5
B095
330
B001
100
AcDbEntity
  8
Defpoints
  6
Continuous
 62
     0
100
AcDbPoint
 10
378.0802208962971
 20
677.0356583514718
 30
0.0
  0
POINT
  5
B096
330
B001
100
AcDbEntity
  8
Defpoints
  6
Continuous
 62
     0
100
AcDbPoint
 10
442.9802208962971
 20
681.5856583514718
 30
0.0
  0
POINT
  5
B097
330
B001
100
AcDbEntity
  8
Defpoints
  6
Continuous
 62
     0
100
AcDbPoint
 10
442.9802208962971
 20
708.7817981257992
 30
0.0
  0
ENDBLK
  5
B00D
330
B001
100
AcDbEntity
  8
0
 62
     1
100
AcDbBlockEnd
  0
BLOCK
  5
B01A
330
B00E
100
AcDbEntity
  8
0
 62
     1
100
AcDbBlockBegin
  2
*D1
 70
     1
 10
0.0
 20
0.0
 30
0.0
  3
*D1
  1

  0
LINE
  5
B110
330
B00E
100
AcDbEntity
  8
11100_LEFT_DIM
  6
Continuous
 62
     0
370
    -2
100
AcDbLine
 10
372.9802208962972
 20
701.0356583514719
 30
0.0
 11
372.9802208962972
 21
709.7817981257994
 31
0.0
  0
LINE
  5
B111
330
B00E
100
AcDbEntity
  8
11100_LEFT_DIM
  6
Continuous
 62
     0
370
    -2
100
AcDbLine
 10
378.0802208962971
 20
679.035658351472
 30
0.0
 11
378.0802208962971
 21
709.7817981257994
 31
0.0
  0
LINE
  5
B112
330
B00E
100
AcDbEntity
  8
11100_LEFT_DIM
  6
Continuous
 62
     0
370
    -2
100
AcDbLine
 10
380.0802208962971
 20
708.7817981257992
 30
0.0
 11
382.0802208962971
 21
708.7817981257992
 31
0.0
  0
LINE
  5
B113
330
B00E
100
AcDbEntity
  8
11100_LEFT_DIM
  6
Continuous
 62
     0
370
    -2
100
AcDbLine
 10
370.9802208962972
 20
708.7817981257992
 30
0.0
 11
366.980220896297
 21
708.7817981257992
 31
0.0
  0
LINE
  5
B114
330
B00E
100
AcDbEntity
  8
11100_LEFT_DIM
  6
Continuous
 62
     0
370
    -2
100
AcDbLine
 10
378.0802208962971
 20
708.7817981257992
 30
0.0
 11
372.9802208962972
 21
708.7817981257992
 31
0.0
  0
SOLID
  5
B115
330
B00E
100
AcDbEntity
  8
11100_LEFT_DIM
  6
Continuous
 62
     0
100
AcDbTrace
 10
380.0802208962971
 20
709.1151314591327
 30
0.0
 11
380.0802208962971
 21
708.448464792466
 31
0.0
 12
378.0802208962971
 22
708.7817981257992
 32
0.0
 13
378.0802208962971
 23
708.7817981257992
 33
0.0
  0
SOLID
  5
B116
330
B00E
100
AcDbEntity
  8
11100_LEFT_DIM
  6
Continuous
 62
     0
100
AcDbTrace
 10
370.9802208962972
 20
709.1151314591327
 30
0.0
 11
370.9802208962972
 21
708.448464792466
 31
0.0
 12
372.9802208962972
 22
708.7817981257992
 32
0.0
 13
372.9802208962972
 23
708.7817981257992
 33
0.0
  0
MTEXT
  5
B117
330
B00E
100
AcDbEntity
  8
11100_LEFT_DIM
  6
Continuous
 62
     0
370
    50
100
AcDbMText
 10
364.8135542296302
 20
708.7817981257992
 30
0.0
 40
3.5
 41
0.0
 71
     5
 72
     1
  1
\A1;5
 73
     1
 44
1.0
1001
ACAD
1000
MTEXTBEGIN
1070
    73
1070
     1
1070
    44
1040
1.0
1070
    74
1070
     0
1000
MTEXTEND
  0
POINT
  5
B118
330
B00E
100
AcDbEntity
  8
Defpoints
  6
Continuous
 62
     0
100
AcDbPoint
 10
372.9802208962972
 20
700.035658351472
 30
0.0
  0
POINT
  5
B119
330
B00E
100
AcDbEntity
  8
Defpoints
  6
Continuous
 62
     0
100
AcDbPoint
 10
378.0802208962971
 20
678.0356583514718
 30
0.0
  0
POINT
  5
B11A
330
B00E
100
AcDbEntity
  8
Defpoints
  6
Continuous
 62
     0
100
AcDbPoint
 10
378.0802208962971
 20
708.7817981257992
 30
0.0
  0
ENDBLK
  5
B01B
330
B00E
100
AcDbEntity
  8
0
 62
     1
100
AcDbBlockEnd
  0
BLOCK
  5
B027
330
B01C
100
AcDbEntity
  8
0
 62
     1
100
AcDbBlockBegin
  2
*D2
 70
     1
 10
0.0
 20
0.0
 30
0.0
  3
*D2
  1

  0
LINE
  5
B0A3
330
B01C
100
AcDbEntity
  8
10100_FRONT_DIM
  6
Continuous
 62
     0
370
    -2
100
AcDbLine
 10
282.4808047377393
 20
673.0921007148629
 30
0.0
 11
272.2921724847485
 21
673.0921007148629
 31
0.0
  0
LINE
  5
B0A4
330
B01C
100
AcDbEntity
  8
10100_FRONT_DIM
  6
Continuous
 62
     0
370
    -2
100
AcDbLine
 10
282.480804737739
 20
604.892100714863
 30
0.0
 11
272.2921724847485
 21
604.892100714863
 31
0.0
  0
LINE
  5
B0A5
330
B01C
100
AcDbEntity
  8
10100_FRONT_DIM
  6
Continuous
 62
     0
370
    -2
100
AcDbLine
 10
273.2921724847485
 20
671.0921007148629
 30
0.0
 11
273.2921724847485
 21
642.9087673815295
 31
0.0
  0
LINE
  5
B0A6
330
B01C
100
AcDbEntity
  8
10100_FRONT_DIM
  6
Continuous
 62
     0
370
    -2
100
AcDbLine
 10
273.2921724847484
 20
606.8921007148628
 30
0.0
 11
273.2921724847484
 21
635.0754340481962
 31
0.0
  0
SOLID
  5
B0A7
330
B01C
100
AcDbEntity
  8
10100_FRONT_DIM
  6
Continuous
 62
     0
100
AcDbTrace
 10
272.9588391514152
 20
671.0921007148629
 30
0.0
 11
273.6255058180818
 21
671.0921007148629
 31
0.0
 12
273.2921724847485
 22
673.0921007148629
 32
0.0
 13
273.2921724847485
 23
673.0921007148629
 33
0.0
  0
SOLID
  5
B0A8
330
B01C
100
AcDbEntity
  8
10100_FRONT_DIM
  6
Continuous
 62
     0
100
AcDbTrace
 10
272.9588391514151
 20
606.8921007148628
 30
0.0
 11
273.6255058180818
 21
606.8921007148628
 31
0.0
 12
273.2921724847484
 22
604.892100714863
 32
0.0
 13
273.2921724847484
 23
604.892100714863
 33
0.0
  0
MTEXT
  5
B0A9
330
B01C
100
AcDbEntity
  8
10100_FRONT_DIM
  6
Continuous
 62
     0
370
    13
100
AcDbMText
 10
273.2921724847484
 20
638.992100714863
 30
0.0
 40
3.5
 41
0.0
 71
     5
 72
     1
  1
\A1;68
 11
0.0000000000000001
 21
1.0
 31
0.0
 73
     1
 44
1.0
1001
ACAD
1000
MTEXTBEGIN
1070
    73
1070
     1
1070
    44
1040
1.0
1070
    74
1070
     0
1000
MTEXTEND
  0
POINT
  5
B0AA
330
B01C
100
AcDbEntity
  8
Defpoints
  6
Continuous
 62
     0
100
AcDbPoint
 10
283.4808047377393
 20
673.0921007148629
 30
0.0
  0
POINT
  5
B0AB
330
B01C
100
AcDbEntity
  8
Defpoints
  6
Continuous
 62
     0
100
AcDbPoint
 10
283.4808047377391
 20
604.892100714863
 30
0.0
  0
POINT
  5
B0AC
330
B01C
100
AcDbEntity
  8
Defpoints
  6
Continuous
 62
     0
100
AcDbPoint
 10
273.2921724847484
 20
604.892100714863
 30
0.0
  0
ENDBLK
  5
B028
330
B01C
100
AcDbEntity
  8
0
 62
     1
100
AcDbBlockEnd
  0
BLOCK
  5
B033
330
B029
100
AcDbEntity
  8
0
 62
     1
100
AcDbBlockBegin
  2
*D3
 70
     1
 10
0.0
 20
0.0
 30
0.0
  3
*D3
  1

  0
LINE
  5
B0AD
330
B029
100
AcDbEntity
  8
10100_FRONT_DIM
  6
Continuous
 62
     0
370
    -2
100
AcDbLine
 10
286.580804737739
 20
679.7921007148629
 30
0.0
 11
286.580804737739
 21
694.5977414458991
 31
0.0
  0
LINE
  5
B0AE
330
B029
100
AcDbEntity
  8
10100_FRONT_DIM
  6
Continuous
 62
     0
370
    -2
100
AcDbLine
 10
293.780804737739
 20
679.7921007148629
 30
0.0
 11
293.780804737739
 21
694.5977414458991
 31
0.0
  0
LINE
  5
B0AF
330
B029
100
AcDbEntity
  8
10100_FRONT_DIM
  6
Continuous
 62
     0
370
    -2
100
AcDbLine
 10
282.5808047377389
 20
693.5977414458991
 30
0.0
 11
293.780804737739
 21
693.5977414458991
 31
0.0
  0
LINE
  5
B0B0
330
B029
100
AcDbEntity
  8
10100_FRONT_DIM
  6
Continuous
 62
     0
370
    -2
100
AcDbLine
 10
295.780804737739
 20
693.5977414458991
 30
0.0
 11
297.780804737739
 21
693.5977414458991
 31
0.0
  0
SOLID
  5
B0B1
330
B029
100
AcDbEntity
  8
10100_FRONT_DIM
  6
Continuous
 62
     0
100
AcDbTrace
 10
295.780804737739
 20
693.9310747792325
 30
0.0
 11
295.780804737739
 21
693.2644081125657
 31
0.0
 12
293.780804737739
 22
693.5977414458991
 32
0.0
 13
293.780804737739
 23
693.5977414458991
 33
0.0
  0
MTEXT
  5
B0B2
330
B029
100
AcDbEntity
  8
10100_FRONT_DIM
  6
Continuous
 62
     0
370
    13
100
AcDbMText
 10
290.180804737739
 20
693.5977414458991
 30
0.0
 40
3.5
 41
0.0
 71
     5
 72
     1
  1
\A1;7
 73
     1
 44
1.0
1001
ACAD
1000
MTEXTBEGIN
1070
    73
1070
     1
1070
    44
1040
1.0
1070
    74
1070
     0
1000
MTEXTEND
  0
POINT
  5
B0B3
330
B029
100
AcDbEntity
  8
Defpoints
  6
Continuous
 62
     0
100
AcDbPoint
 10
286.580804737739
 20
678.792100714863
 30
0.0
  0
POINT
  5
B0B4
330
B029
100
AcDbEntity
  8
Defpoints
  6
Continuous
 62
     0
100
AcDbPoint
 10
293.780804737739
 20
678.792100714863
 30
0.0
  0
POINT
  5
B0B5
330
B029
100
AcDbEntity
  8
Defpoints
  6
Continuous
 62
     0
100
AcDbPoint
 10
293.780804737739
 20
693.5977414458991
 30
0.0
  0
ENDBLK
  5
B034
330
B029
100
AcDbEntity
  8
0
 62
     1
100
AcDbBlockEnd
  0
BLOCK
  5
B03E
330
B035
100
AcDbEntity
  8
0
 62
     1
100
AcDbBlockBegin
  2
*D4
 70
     1
 10
0.0
 20
0.0
 30
0.0
  3
*D4
  1

  0
LINE
  5
B0B6
330
B035
100
AcDbEntity
  8
10100_FRONT_DIM
  6
Continuous
 62
     0
370
    -2
100
AcDbLine
 10
282.5308047377388
 20
683.6921007148629
 30
0.0
 11
282.5308047377388
 21
694.5977414458991
 31
0.0
  0
LINE
  5
B0B7
330
B035
100
AcDbEntity
  8
10100_FRONT_DIM
  6
Continuous
 62
     0
370
    -2
100
AcDbLine
 10
286.580804737739
 20
679.7921007148629
 30
0.0
 11
286.580804737739
 21
694.5977414458991
 31
0.0
  0
LINE
  5
B0B8
330
B035
100
AcDbEntity
  8
10100_FRONT_DIM
  6
Continuous
 62
     0
370
    -2
100
AcDbLine
 10
280.5308047377388
 20
693.5977414458991
 30
0.0
 11
276.5308047377387
 21
693.5977414458991
 31
0.0
  0
SOLID
  5
B0B9
330
B035
100
AcDbEntity
  8
10100_FRONT_DIM
  6
Continuous
 62
     0
100
AcDbTrace
 10
280.5308047377388
 20
693.9310747792325
 30
0.0
 11
280.5308047377388
 21
693.2644081125657
 31
0.0
 12
282.5308047377388
 22
693.5977414458991
 32
0.0
 13
282.5308047377388
 23
693.5977414458991
 33
0.0
  0
MTEXT
  5
B0BA
330
B035
100
AcDbEntity
  8
10100_FRONT_DIM
  6
Continuous
 62
     0
370
    13
100
AcDbMText
 10
274.364138071072
 20
693.5977414458991
 30
0.0
 40
3.5
 41
0.0
 71
     5
 72
     1
  1
\A1;4
 73
     1
 44
1.0
1001
ACAD
1000
MTEXTBEGIN
1070
    73
1070
     1
1070
    44
1040
1.0
1070
    74
1070
     0
1000
MTEXTEND
  0
POINT
  5
B0BB
330
B035
100
AcDbEntity
  8
Defpoints
  6
Continuous
 62
     0
100
AcDbPoint
 10
282.5308047377388
 20
682.6921007148629
 30
0.0
  0
POINT
  5
B0BC
330
B035
100
AcDbEntity
  8
Defpoints
  6
Continuous
 62
     0
100
AcDbPoint
 10
286.580804737739
 20
678.792100714863
 30
0.0
  0
POINT
  5
B0BD
330
B035
100
AcDbEntity
  8
Defpoints
  6
Continuous
 62
     0
100
AcDbPoint
 10
286.580804737739
 20
693.5977414458991
 30
0.0
  0
ENDBLK
  5
B03F
330
B035
100
AcDbEntity
  8
0
 62
     1
100
AcDbBlockEnd
  0
BLOCK
  5
B04B
330
B040
100
AcDbEntity
  8
0
 62
     1
100
AcDbBlockBegin
  2
*D5
 70
     1
 10
0.0
 20
0.0
 30
0.0
  3
*D5
  1

  0
LINE
  5
B0BE
330
B040
100
AcDbEntity
  8
10100_FRONT_DIM
  6
Continuous
 62
     0
370
    -2
100
AcDbLine
 10
282.5308027377388
 20
683.6921007148629
 30
0.0
 11
282.5308027377388
 21
704.8518568466175
 31
0.0
  0
LINE
  5
B0BF
330
B040
100
AcDbEntity
  8
10100_FRONT_DIM
  6
Continuous
 62
     0
370
    -2
100
AcDbLine
 10
305.0308047377388
 20
690.8421007148631
 30
0.0
 11
305.0308047377388
 21
704.8518568466175
 31
0.0
  0
LINE
  5
B0C0
330
B040
100
AcDbEntity
  8
10100_FRONT_DIM
  6
Continuous
 62
     0
370
    -2
100
AcDbLine
 10
284.5308027377388
 20
703.8518568466174
 30
0.0
 11
286.3641370710721
 21
703.8518568466174
 31
0.0
  0
LINE
  5
B0C1
330
B040
100
AcDbEntity
  8
10100_FRONT_DIM
  6
Continuous
 62
     0
370
    -2
100
AcDbLine
 10
303.0308047377388
 20
703.8518568466174
 30
0.0
 11
301.1974704044054
 21
703.8518568466174
 31
0.0
  0
SOLID
  5
B0C2
330
B040
100
AcDbEntity
  8
10100_FRONT_DIM
  6
Continuous
 62
     0
100
AcDbTrace
 10
284.5308027377388
 20
704.1851901799507
 30
0.0
 11
284.5308027377388
 21
703.5185235132841
 31
0.0
 12
282.5308027377388
 22
703.8518568466174
 32
0.0
 13
282.5308027377388
 23
703.8518568466174
 33
0.0
  0
SOLID
  5
B0C3
330
B040
100
AcDbEntity
  8
10100_FRONT_DIM
  6
Continuous
 62
     0
100
AcDbTrace
 10
303.0308047377388
 20
704.1851901799507
 30
0.0
 11
303.0308047377388
 21
703.5185235132841
 31
0.0
 12
305.0308047377388
 22
703.8518568466174
 32
0.0
 13
305.0308047377388
 23
703.8518568466174
 33
0.0
  0
MTEXT
  5
B0C4
330
B040
100
AcDbEntity
  8
10100_FRONT_DIM
  6
Continuous
 62
     0
370
    13
100
AcDbMText
 10
293.7808037377388
 20
703.8518568466174
 30
0.0
 40
3.5
 41
0.0
 71
     5
 72
     1
  1
\A1;22,5
 73
     1
 44
1.0
1001
ACAD
1000
MTEXTBEGIN
1070
    73
1070
     1
1070
    44
1040
1.0
1070
    74
1070
     0
1000
MTEXTEND
  0
POINT
  5
B0C5
330
B040
100
AcDbEntity
  8
Defpoints
  6
Continuous
 62
     0
100
AcDbPoint
 10
282.5308027377388
 20
682.6921007148629
 30
0.0
  0
POINT
  5
B0C6
330
B040
100
AcDbEntity
  8
Defpoints
  6
Continuous
 62
     0
100
AcDbPoint
 10
305.0308047377388
 20
689.8421007148631
 30
0.0
  0
POINT
  5
B0C7
330
B040
100
AcDbEntity
  8
Defpoints
  6
Continuous
 62
     0
100
AcDbPoint
 10
305.0308047377388
 20
703.8518568466174
 30
0.0
  0
ENDBLK
  5
B04C
330
B040
100
AcDbEntity
  8
0
 62
     1
100
AcDbBlockEnd
  0
BLOCK
  5
B058
330
B04D
100
AcDbEntity
  8
0
 62
     1
100
AcDbBlockBegin
  2
*D6
 70
     1
 10
0.0
 20
0.0
 30
0.0
  3
*D6
  1

  0
LINE
  5
B0C8
330
B04D
100
AcDbEntity
  8
11100_LEFT_DIM
  6
Continuous
 62
     0
370
    -2
100
AcDbLine
 10
371.980220896297
 20
603.5356583514718
 30
0.0
 11
361.8129834477246
 21
603.5356583514718
 31
0.0
  0
LINE
  5
B0C9
330
B04D
100
AcDbEntity
  8
11100_LEFT_DIM
  6
Continuous
 62
     0
370
    -2
100
AcDbLine
 10
371.980220896297
 20
677.0356583514718
 30
0.0
 11
361.8129834477247
 21
677.0356583514718
 31
0.0
  0
LINE
  5
B0CA
330
B04D
100
AcDbEntity
  8
11100_LEFT_DIM
  6
Continuous
 62
     0
370
    -2
100
AcDbLine
 10
362.8129834477246
 20
605.5356583514718
 30
0.0
 11
362.8129834477246
 21
636.3689916848053
 31
0.0
  0
LINE
  5
B0CB
330
B04D
100
AcDbEntity
  8
11100_LEFT_DIM
  6
Continuous
 62
     0
370
    -2
100
AcDbLine
 10
362.8129834477247
 20
675.035658351472
 30
0.0
 11
362.8129834477247
 21
644.2023250181387
 31
0.0
  0
SOLID
  5
B0CC
330
B04D
100
AcDbEntity
  8
11100_LEFT_DIM
  6
Continuous
 62
     0
100
AcDbTrace
 10
362.4796501143913
 20
605.5356583514718
 30
0.0
 11
363.1463167810579
 21
605.5356583514718
 31
0.0
 12
362.8129834477246
 22
603.5356583514718
 32
0.0
 13
362.8129834477246
 23
603.5356583514718
 33
0.0
  0
SOLID
  5
B0CD
330
B04D
100
AcDbEntity
  8
11100_LEFT_DIM
  6
Continuous
 62
     0
100
AcDbTrace
 10
362.4796501143913
 20
675.035658351472
 30
0.0
 11
363.146316781058
 21
675.035658351472
 31
0.0
 12
362.8129834477247
 22
677.0356583514718
 32
0.0
 13
362.8129834477247
 23
677.0356583514718
 33
0.0
  0
MTEXT
  5
B0CE
330
B04D
100
AcDbEntity
  8
11100_LEFT_DIM
  6
Continuous
 62
     0
370
    13
100
AcDbMText
 10
362.8129834477245
 20
640.285658351472
 30
0.0
 40
3.5
 41
0.0
 71
     5
 72
     1
  1
\A1;74
 11
0.0000000000000001
 21
1.0
 31
0.0
 73
     1
 44
1.0
1001
ACAD
1000
MTEXTBEGIN
1070
    73
1070
     1
1070
    44
1040
1.0
1070
    74
1070
     0
1000
MTEXTEND
  0
POINT
  5
B0CF
330
B04D
100
AcDbEntity
  8
Defpoints
  6
Continuous
 62
     0
100
AcDbPoint
 10
372.980220896297
 20
603.5356583514718
 30
0.0
  0
POINT
  5
B0D0
330
B04D
100
AcDbEntity
  8
Defpoints
  6
Continuous
 62
     0
100
AcDbPoint
 10
372.980220896297
 20
677.0356583514718
 30
0.0
  0
POINT
  5
B0D1
330
B04D
100
AcDbEntity
  8
Defpoints
  6
Continuous
 62
     0
100
AcDbPoint
 10
362.8129834477247
 20
677.0356583514718
 30
0.0
  0
ENDBLK
  5
B059
330
B04D
100
AcDbEntity
  8
0
 62
     1
100
AcDbBlockEnd
  0
BLOCK
  5
B072
330
B067
100
AcDbEntity
  8
0
 62
     1
100
AcDbBlockBegin
  2
*D7
 70
     1
 10
0.0
 20
0.0
 30
0.0
  3
*D7
  1

  0
LINE
  5
B0DC
330
B067
100
AcDbEntity
  8
10100_FRONT_DIM
  6
Continuous
 62
     0
370
    -2
100
AcDbLine
 10
304.780804737739
 20
694.234140714863
 30
0.0
 11
311.5701235776275
 21
694.234140714863
 31
0.0
  0
LINE
  5
B0DD
330
B067
100
AcDbEntity
  8
10100_FRONT_DIM
  6
Continuous
 62
     0
370
    -2
100
AcDbLine
 10
289.780804737739
 20
584.2341407148627
 30
0.0
 11
311.5701235776275
 21
584.2341407148627
 31
0.0
  0
LINE
  5
B0DE
330
B067
100
AcDbEntity
  8
10100_FRONT_DIM
  6
Continuous
 62
     0
370
    -2
100
AcDbLine
 10
310.5701235776276
 20
692.2341407148628
 30
0.0
 11
310.5701235776276
 21
650.1508073815297
 31
0.0
  0
LINE
  5
B0DF
330
B067
100
AcDbEntity
  8
10100_FRONT_DIM
  6
Continuous
 62
     0
370
    -2
100
AcDbLine
 10
310.5701235776275
 20
586.2341407148627
 30
0.0
 11
310.5701235776275
 21
628.3174740481964
 31
0.0
  0
SOLID
  5
B0E0
330
B067
100
AcDbEntity
  8
10100_FRONT_DIM
  6
Continuous
 62
     0
100
AcDbTrace
 10
310.2367902442943
 20
692.2341407148628
 30
0.0
 11
310.9034569109609
 21
692.2341407148628
 31
0.0
 12
310.5701235776276
 22
694.234140714863
 32
0.0
 13
310.5701235776276
 23
694.234140714863
 33
0.0
  0
SOLID
  5
B0E1
330
B067
100
AcDbEntity
  8
10100_FRONT_DIM
  6
Continuous
 62
     0
100
AcDbTrace
 10
310.2367902442942
 20
586.2341407148627
 30
0.0
 11
310.9034569109608
 21
586.2341407148627
 31
0.0
 12
310.5701235776275
 22
584.2341407148627
 32
0.0
 13
310.5701235776275
 23
584.2341407148627
 33
0.0
  0
MTEXT
  5
B0E2
330
B067
100
AcDbEntity
  8
10100_FRONT_DIM
  6
Continuous
 62
     0
370
    13
100
AcDbMText
 10
310.5701235776274
 20
639.2341407148633
 30
0.0
 40
3.5
 41
0.0
 71
     5
 72
     1
  1
\A1;110x15
 11
0.0000000000000001
 21
1.0
 31
0.0
 73
     1
 44
1.0
1001
ACAD
1000
MTEXTBEGIN
1070
    73
1070
     1
1070
    44
1040
1.0
1070
    74
1070
     0
1000
MTEXTEND
  0
POINT
  5
B0E3
330
B067
100
AcDbEntity
  8
Defpoints
  6
Continuous
 62
     0
100
AcDbPoint
 10
303.780804737739
 20
694.234140714863
 30
0.0
  0
POINT
  5
B0E4
330
B067
100
AcDbEntity
  8
Defpoints
  6
Continuous
 62
     0
100
AcDbPoint
 10
288.780804737739
 20
584.2341407148627
 30
0.0
  0
POINT
  5
B0E5
330
B067
100
AcDbEntity
  8
Defpoints
  6
Continuous
 62
     0
100
AcDbPoint
 10
310.5701235776275
 20
584.2341407148627
 30
0.0
  0
ENDBLK
  5
B073
330
B067
100
AcDbEntity
  8
0
 62
     1
100
AcDbBlockEnd
  0
BLOCK
  5
B07F
330
B074
100
AcDbEntity
  8
0
 62
     1
100
AcDbBlockBegin
  2
*D8
 70
     1
 10
0.0
 20
0.0
 30
0.0
  3
*D8
  1

  0
LINE
  5
B0E6
330
B074
100
AcDbEntity
  8
10100_FRONT_DIM
  6
Continuous
 62
     0
370
    -2
100
AcDbLine
 10
304.030804737739
 20
699.2341407148629
 30
0.0
 11
318.9896431812432
 21
699.2341407148629
 31
0.0
  0
LINE
  5
B0E7
330
B074
100
AcDbEntity
  8
10100_FRONT_DIM
  6
Continuous
 62
     0
370
    -2
100
AcDbLine
 10
289.030804737739
 20
579.2341407148627
 30
0.0
 11
318.9896431812432
 21
579.2341407148627
 31
0.0
  0
LINE
  5
B0E8
330
B074
100
AcDbEntity
  8
10100_FRONT_DIM
  6
Continuous
 62
     0
370
    -2
100
AcDbLine
 10
317.9896431812433
 20
697.2341407148628
 30
0.0
 11
317.9896431812433
 21
644.9008073815295
 31
0.0
  0
LINE
  5
B0E9
330
B074
100
AcDbEntity
  8
10100_FRONT_DIM
  6
Continuous
 62
     0
370
    -2
100
AcDbLine
 10
317.9896431812432
 20
581.2341407148627
 30
0.0
 11
317.9896431812432
 21
633.5674740481962
 31
0.0
  0
SOLID
  5
B0EA
330
B074
100
AcDbEntity
  8
10100_FRONT_DIM
  6
Continuous
 62
     0
100
AcDbTrace
 10
317.6563098479099
 20
697.2341407148628
 30
0.0
 11
318.3229765145766
 21
697.2341407148628
 31
0.0
 12
317.9896431812433
 22
699.2341407148629
 32
0.0
 13
317.9896431812433
 23
699.2341407148629
 33
0.0
  0
SOLID
  5
B0EB
330
B074
100
AcDbEntity
  8
10100_FRONT_DIM
  6
Continuous
 62
     0
100
AcDbTrace
 10
317.6563098479099
 20
581.2341407148627
 30
0.0
 11
318.3229765145765
 21
581.2341407148627
 31
0.0
 12
317.9896431812432
 22
579.2341407148627
 32
0.0
 13
317.9896431812432
 23
579.2341407148627
 33
0.0
  0
MTEXT
  5
B0EC
330
B074
100
AcDbEntity
  8
10100_FRONT_DIM
  6
Continuous
 62
     0
370
    13
100
AcDbMText
 10
317.9896431812431
 20
639.2341407148628
 30
0.0
 40
3.5
 41
0.0
 71
     5
 72
     1
  1
\A1;120
 11
0.0000000000000001
 21
1.0
 31
0.0
 73
     1
 44
1.0
1001
ACAD
1000
MTEXTBEGIN
1070
    73
1070
     1
1070
    44
1040
1.0
1070
    74
1070
     0
1000
MTEXTEND
  0
POINT
  5
B0ED
330
B074
100
AcDbEntity
  8
Defpoints
  6
Continuous
 62
     0
100
AcDbPoint
 10
303.030804737739
 20
699.2341407148629
 30
0.0
  0
POINT
  5
B0EE
330
B074
100
AcDbEntity
  8
Defpoints
  6
Continuous
 62
     0
100
AcDbPoint
 10
288.030804737739
 20
579.2341407148627
 30
0.0
  0
POINT
  5
B0EF
330
B074
100
AcDbEntity
  8
Defpoints
  6
Continuous
 62
     0
100
AcDbPoint
 10
317.9896431812432
 20
579.2341407148627
 30
0.0
  0
ENDBLK
  5
B080
330
B074
100
AcDbEntity
  8
0
 62
     1
100
AcDbBlockEnd
  0
BLOCK
  5
B08C
330
B081
100
AcDbEntity
  8
0
 62
     1
100
AcDbBlockBegin
  2
*D9
 70
     1
 10
0.0
 20
0.0
 30
0.0
  3
*D9
  1

  0
LINE
  5
B0F0
330
B081
100
AcDbEntity
  8
11100_LEFT_DIM
  6
Continuous
 62
     0
370
    -2
100
AcDbLine
 10
378.0802208962971
 20
678.0356583514718
 30
0.0
 11
378.0802208962971
 21
716.3224802158772
 31
0.0
  0
LINE
  5
B0F1
330
B081
100
AcDbEntity
  8
11100_LEFT_DIM
  6
Continuous
 62
     0
370
    -2
100
AcDbLine
 10
464.0802208962971
 20
682.385658351472
 30
0.0
 11
464.0802208962971
 21
716.3224802158772
 31
0.0
  0
LINE
  5
B0F2
330
B081
100
AcDbEntity
  8
11100_LEFT_DIM
  6
Continuous
 62
     0
370
    -2
100
AcDbLine
 10
380.0802208962971
 20
715.3224802158772
 30
0.0
 11
417.1635542296303
 21
715.3224802158772
 31
0.0
  0
LINE
  5
B0F3
330
B081
100
AcDbEntity
  8
11100_LEFT_DIM
  6
Continuous
 62
     0
370
    -2
100
AcDbLine
 10
462.0802208962971
 20
715.3224802158772
 30
0.0
 11
424.9968875629638
 21
715.3224802158772
 31
0.0
  0
SOLID
  5
B0F4
330
B081
100
AcDbEntity
  8
11100_LEFT_DIM
  6
Continuous
 62
     0
100
AcDbTrace
 10
380.0802208962971
 20
715.6558135492108
 30
0.0
 11
380.0802208962971
 21
714.989146882544
 31
0.0
 12
378.0802208962971
 22
715.3224802158772
 32
0.0
 13
378.0802208962971
 23
715.3224802158772
 33
0.0
  0
SOLID
  5
B0F5
330
B081
100
AcDbEntity
  8
11100_LEFT_DIM
  6
Continuous
 62
     0
100
AcDbTrace
 10
462.0802208962971
 20
715.6558135492108
 30
0.0
 11
462.0802208962971
 21
714.989146882544
 31
0.0
 12
464.0802208962971
 22
715.3224802158772
 32
0.0
 13
464.0802208962971
 23
715.3224802158772
 33
0.0
  0
MTEXT
  5
B0F6
330
B081
100
AcDbEntity
  8
11100_LEFT_DIM
  6
Continuous
 62
     0
370
    13
100
AcDbMText
 10
421.0802208962971
 20
715.3224802158772
 30
0.0
 40
3.5
 41
0.0
 71
     5
 72
     1
  1
\A1;86
 73
     1
 44
1.0
1001
ACAD
1000
MTEXTBEGIN
1070
    73
1070
     1
1070
    44
1040
1.0
1070
    74
1070
     0
1000
MTEXTEND
  0
POINT
  5
B0F7
330
B081
100
AcDbEntity
  8
Defpoints
  6
Continuous
 62
     0
100
AcDbPoint
 10
378.0802208962971
 20
677.0356583514718
 30
0.0
  0
POINT
  5
B0F8
330
B081
100
AcDbEntity
  8
Defpoints
  6
Continuous
 62
     0
100
AcDbPoint
 10
464.0802208962971
 20
681.385658351472
 30
0.0
  0
POINT
  5
B0F9
330
B081
100
AcDbEntity
  8
Defpoints
  6
Continuous
 62
     0
100
AcDbPoint
 10
464.0802208962971
 20
715.3224802158772
 30
0.0
  0
ENDBLK
  5
B08D
330
B081
100
AcDbEntity
  8
0
 62
     1
100
AcDbBlockEnd
  0
BLOCK
  5
B1C0
330
B1BF
100
AcDbEntity
  8
0
  6
Continuous
 62
     7
100
AcDbBlockBegin
  2
SIEMENS_OUTLINE_BL0
 70
     0
 10
0.0
 20
0.0
 30
0.0
  3
SIEMENS_OUTLINE_BL0
  1

  0
LINE
  5
B1C1
330
B1BF
100
AcDbEntity
  8
0
  6
Continuous
 62
     7
100
AcDbLine
 10
79.186200508
 20
21.4145478991
 30
0.0
 11
79.186200508
 21
16.6612788158
 31
0.0
  0
LINE
  5
B1C2
330
B1BF
100
AcDbEntity
  8
0
  6
Continuous
 62
     7
100
AcDbLine
 10
80.61218123299999
 20
21.4145478991
 30
0.0
 11
80.61218123299999
 21
16.6612788158
 31
0.0
  0
LINE
  5
B1C3
330
B1BF
100
AcDbEntity
  8
0
  6
Continuous
 62
     7
100
AcDbLine
 10
79.186200508
 20
16.6612788158
 30
0.0
 11
80.61218123299999
 21
16.6612788158
 31
0.0
  0
LINE
  5
B1C4
330
B1BF
100
AcDbEntity
  8
0
  6
Continuous
 62
     7
100
AcDbLine
 10
79.186200508
 20
21.4145478991
 30
0.0
 11
80.61218123299999
 21
21.4145478991
 31
0.0
  0
LINE
  5
B1C5
330
B1BF
100
AcDbEntity
  8
0
  6
Continuous
 62
     7
100
AcDbLine
 10
81.7054331221
 20
21.4145478991
 30
0.0
 11
81.7054331221
 21
16.6612788158
 31
0.0
  0
LINE
  5
B1C6
330
B1BF
100
AcDbEntity
  8
0
  6
Continuous
 62
     7
100
AcDbLine
 10
81.7054331221
 20
16.6612788158
 30
0.0
 11
85.2703849346
 21
16.6612788158
 31
0.0
  0
LINE
  5
B1C7
330
B1BF
100
AcDbEntity
  8
0
  6
Continuous
 62
     7
100
AcDbLine
 10
85.2703849346
 20
17.56439994169999
 30
0.0
 11
83.0838811563
 21
17.56439994169999
 31
0.0
  0
LINE
  5
B1C8
330
B1BF
100
AcDbEntity
  8
0
  6
Continuous
 62
     7
100
AcDbLine
 10
85.2703849346
 20
17.56439994169999
 30
0.0
 11
85.2703849346
 21
16.6612788158
 31
0.0
  0
LINE
  5
B1C9
330
B1BF
100
AcDbEntity
  8
0
  6
Continuous
 62
     7
100
AcDbLine
 10
85.2228522438
 20
21.4145478991
 30
0.0
 11
81.7054331221
 21
21.4145478991
 31
0.0
  0
LINE
  5
B1CA
330
B1BF
100
AcDbEntity
  8
0
  6
Continuous
 62
     7
100
AcDbLine
 10
85.2228522438
 20
20.5351931187
 30
0.0
 11
83.0838811563
 21
20.5351931187
 31
0.0
  0
LINE
  5
B1CB
330
B1BF
100
AcDbEntity
  8
0
  6
Continuous
 62
     7
100
AcDbLine
 10
85.2228522438
 20
21.4145478991
 30
0.0
 11
85.2228522438
 21
20.5351931187
 31
0.0
  0
LINE
  5
B1CC
330
B1BF
100
AcDbEntity
  8
0
  6
Continuous
 62
     7
100
AcDbLine
 10
84.9376560988
 20
18.68141817619999
 30
0.0
 11
83.0838811563
 21
18.68141817619999
 31
0.0
  0
LINE
  5
B1CD
330
B1BF
100
AcDbEntity
  8
0
  6
Continuous
 62
     7
100
AcDbLine
 10
84.9376560988
 20
19.46570757499999
 30
0.0
 11
84.9376560988
 21
18.68141817619999
 31
0.0
  0
LINE
  5
B1CE
330
B1BF
100
AcDbEntity
  8
0
  6
Continuous
 62
     7
100
AcDbLine
 10
84.9376560988
 20
19.46570757499999
 30
0.0
 11
83.0838811563
 21
19.46570757499999
 31
0.0
  0
LINE
  5
B1CF
330
B1BF
100
AcDbEntity
  8
0
  6
Continuous
 62
     7
100
AcDbLine
 10
83.0838811563
 20
20.5351931187
 30
0.0
 11
83.0838811563
 21
19.46570757499999
 31
0.0
  0
LINE
  5
B1D0
330
B1BF
100
AcDbEntity
  8
0
  6
Continuous
 62
     7
100
AcDbLine
 10
83.0838811563
 20
18.68141817619999
 30
0.0
 11
83.0838811563
 21
17.56439994169999
 31
0.0
  0
LINE
  5
B1D1
330
B1BF
100
AcDbEntity
  8
0
  6
Continuous
 62
     7
100
AcDbLine
 10
86.0784406788
 20
16.6612788158
 30
0.0
 11
86.0784406788
 21
21.4145478991
 31
0.0
  0
LINE
  5
B1D2
330
B1BF
100
AcDbEntity
  8
0
  6
Continuous
 62
     7
100
AcDbLine
 10
86.0784406788
 20
16.6612788158
 30
0.0
 11
87.02909449539999
 21
16.6612788158
 31
0.0
  0
LINE
  5
B1D3
330
B1BF
100
AcDbEntity
  8
0
  6
Continuous
 62
     7
100
AcDbLine
 10
91.92496165120001
 20
21.4145478991
 30
0.0
 11
91.92496165120001
 21
16.6612788158
 31
0.0
  0
LINE
  5
B1D4
330
B1BF
100
AcDbEntity
  8
0
  6
Continuous
 62
     7
100
AcDbLine
 10
91.92496165120001
 20
16.6612788158
 30
0.0
 11
90.54651361700001
 21
16.6612788158
 31
0.0
  0
LINE
  5
B1D5
330
B1BF
100
AcDbEntity
  8
0
  6
Continuous
 62
     7
100
AcDbLine
 10
88.3600098387
 20
16.61374612499999
 30
0.0
 11
89.21559827370002
 21
16.61374612499999
 31
0.0
  0
LINE
  5
B1D6
330
B1BF
100
AcDbEntity
  8
0
  6
Continuous
 62
     7
100
AcDbLine
 10
88.3600098387
 20
16.61374612499999
 30
0.0
 11
87.02909449539999
 21
19.7033710291
 31
0.0
  0
LINE
  5
B1D7
330
B1BF
100
AcDbEntity
  8
0
  6
Continuous
 62
     7
100
AcDbLine
 10
87.02909449539999
 20
16.6612788158
 30
0.0
 11
87.02909449539999
 21
19.7033710291
 31
0.0
  0
LINE
  5
B1D8
330
B1BF
100
AcDbEntity
  8
0
  6
Continuous
 62
     7
100
AcDbLine
 10
90.54651361700001
 20
19.75090372
 30
0.0
 11
89.21559827370002
 21
16.61374612499999
 31
0.0
  0
LINE
  5
B1D9
330
B1BF
100
AcDbEntity
  8
0
  6
Continuous
 62
     7
100
AcDbLine
 10
87.78961754870001
 20
21.4145478991
 30
0.0
 11
86.0784406788
 21
21.4145478991
 31
0.0
  0
LINE
  5
B1DA
330
B1BF
100
AcDbEntity
  8
0
  6
Continuous
 62
     7
100
AcDbLine
 10
91.92496165120001
 20
21.4145478991
 30
0.0
 11
90.2137847812
 21
21.4145478991
 31
0.0
  0
LINE
  5
B1DB
330
B1BF
100
AcDbEntity
  8
0
  6
Continuous
 62
     7
100
AcDbLine
 10
87.78961754870001
 20
21.4145478991
 30
0.0
 11
89.0254675104
 21
18.51505375829999
 31
0.0
  0
LINE
  5
B1DC
330
B1BF
100
AcDbEntity
  8
0
  6
Continuous
 62
     7
100
AcDbLine
 10
90.2137847812
 20
21.4145478991
 30
0.0
 11
89.0254675104
 21
18.51505375829999
 31
0.0
  0
LINE
  5
B1DD
330
B1BF
100
AcDbEntity
  8
0
  6
Continuous
 62
     7
100
AcDbLine
 10
90.54651361700001
 20
19.75090372
 30
0.0
 11
90.54651361700001
 21
16.6612788158
 31
0.0
  0
LINE
  5
B1DE
330
B1BF
100
AcDbEntity
  8
0
  6
Continuous
 62
     7
100
AcDbLine
 10
93.01821354030002
 20
21.4145478991
 30
0.0
 11
93.01821354030002
 21
16.6612788158
 31
0.0
  0
LINE
  5
B1DF
330
B1BF
100
AcDbEntity
  8
0
  6
Continuous
 62
     7
100
AcDbLine
 10
93.01821354030002
 20
16.6612788158
 30
0.0
 11
96.5831653528
 21
16.6612788158
 31
0.0
  0
LINE
  5
B1E0
330
B1BF
100
AcDbEntity
  8
0
  6
Continuous
 62
     7
100
AcDbLine
 10
96.5831653528
 20
17.56439994169999
 30
0.0
 11
94.3966615745
 21
17.56439994169999
 31
0.0
  0
LINE
  5
B1E1
330
B1BF
100
AcDbEntity
  8
0
  6
Continuous
 62
     7
100
AcDbLine
 10
96.5831653528
 20
17.56439994169999
 30
0.0
 11
96.5831653528
 21
16.6612788158
 31
0.0
  0
LINE
  5
B1E2
330
B1BF
100
AcDbEntity
  8
0
  6
Continuous
 62
     7
100
AcDbLine
 10
96.53563266200002
 20
21.4145478991
 30
0.0
 11
93.01821354030002
 21
21.4145478991
 31
0.0
  0
LINE
  5
B1E3
330
B1BF
100
AcDbEntity
  8
0
  6
Continuous
 62
     7
100
AcDbLine
 10
96.53563266200002
 20
20.5351931187
 30
0.0
 11
94.3966615745
 21
20.5351931187
 31
0.0
  0
LINE
  5
B1E4
330
B1BF
100
AcDbEntity
  8
0
  6
Continuous
 62
     7
100
AcDbLine
 10
96.53563266200002
 20
21.4145478991
 30
0.0
 11
96.53563266200002
 21
20.5351931187
 31
0.0
  0
LINE
  5
B1E5
330
B1BF
100
AcDbEntity
  8
0
  6
Continuous
 62
     7
100
AcDbLine
 10
96.25043651700002
 20
18.68141817619999
 30
0.0
 11
94.3966615745
 21
18.68141817619999
 31
0.0
  0
LINE
  5
B1E6
330
B1BF
100
AcDbEntity
  8
0
  6
Continuous
 62
     7
100
AcDbLine
 10
96.25043651700002
 20
19.46570757499999
 30
0.0
 11
96.25043651700002
 21
18.68141817619999
 31
0.0
  0
LINE
  5
B1E7
330
B1BF
100
AcDbEntity
  8
0
  6
Continuous
 62
     7
100
AcDbLine
 10
96.25043651700002
 20
19.46570757499999
 30
0.0
 11
94.3966615745
 21
19.46570757499999
 31
0.0
  0
LINE
  5
B1E8
330
B1BF
100
AcDbEntity
  8
0
  6
Continuous
 62
     7
100
AcDbLine
 10
94.3966615745
 20
20.5351931187
 30
0.0
 11
94.3966615745
 21
19.46570757499999
 31
0.0
  0
LINE
  5
B1E9
330
B1BF
100
AcDbEntity
  8
0
  6
Continuous
 62
     7
100
AcDbLine
 10
94.3966615745
 20
18.68141817619999
 30
0.0
 11
94.3966615745
 21
17.56439994169999
 31
0.0
  0
LINE
  5
B1EA
330
B1BF
100
AcDbEntity
  8
0
  6
Continuous
 62
     7
100
AcDbLine
 10
97.3674547515
 20
16.6612788158
 30
0.0
 11
97.3674547515
 21
21.4145478991
 31
0.0
  0
LINE
  5
B1EB
330
B1BF
100
AcDbEntity
  8
0
  6
Continuous
 62
     7
100
AcDbLine
 10
101.5503315447999
 20
21.4145478991
 30
0.0
 11
101.5503315447999
 21
16.6612788158
 31
0.0
  0
LINE
  5
B1EC
330
B1BF
100
AcDbEntity
  8
0
  6
Continuous
 62
     7
100
AcDbLine
 10
97.3674547515
 20
16.6612788158
 30
0.0
 11
98.3181085682
 21
16.6612788158
 31
0.0
  0
LINE
  5
B1ED
330
B1BF
100
AcDbEntity
  8
0
  6
Continuous
 62
     7
100
AcDbLine
 10
101.5503315447999
 20
21.4145478991
 30
0.0
 11
100.5996777281999
 21
21.4145478991
 31
0.0
  0
LINE
  5
B1EE
330
B1BF
100
AcDbEntity
  8
0
  6
Continuous
 62
     7
100
AcDbLine
 10
98.91226720360002
 20
21.4145478991
 30
0.0
 11
97.3674547515
 21
21.4145478991
 31
0.0
  0
LINE
  5
B1EF
330
B1BF
100
AcDbEntity
  8
0
  6
Continuous
 62
     7
100
AcDbLine
 10
101.5503315447999
 20
16.6612788158
 30
0.0
 11
100.0292854381999
 21
16.6612788158
 31
0.0
  0
LINE
  5
B1F0
330
B1BF
100
AcDbEntity
  8
0
  6
Continuous
 62
     7
100
AcDbLine
 10
100.0292854381999
 20
16.6612788158
 30
0.0
 11
98.3181085682
 21
19.7033710291
 31
0.0
  0
LINE
  5
B1F1
330
B1BF
100
AcDbEntity
  8
0
  6
Continuous
 62
     7
100
AcDbLine
 10
98.91226720360002
 20
21.4145478991
 30
0.0
 11
100.5996777281999
 21
18.4675210675
 31
0.0
  0
LINE
  5
B1F2
330
B1BF
100
AcDbEntity
  8
0
  6
Continuous
 62
     7
100
AcDbLine
 10
100.5996777281999
 20
21.4145478991
 30
0.0
 11
100.5996777281999
 21
18.4675210675
 31
0.0
  0
LINE
  5
B1F3
330
B1BF
100
AcDbEntity
  8
0
  6
Continuous
 62
     7
100
AcDbLine
 10
98.3181085682
 20
16.6612788158
 30
0.0
 11
98.3181085682
 21
19.7033710291
 31
0.0
  0
LINE
  5
B1F4
330
B1BF
100
AcDbEntity
  8
0
  6
Continuous
 62
     7
100
AcDbLine
 10
102.3583872889999
 20
16.75634419749999
 30
0.0
 11
102.3583872889999
 21
17.7069980142
 31
0.0
  0
LINE
  5
B1F5
330
B1BF
100
AcDbEntity
  8
0
  6
Continuous
 62
     7
100
AcDbLine
 10
105.6856756473
 20
20.4163613916
 30
0.0
 11
105.6856756473
 21
21.36701520829999
 31
0.0
  0
ARC
  5
B1F6
330
B1BF
100
AcDbEntity
  8
0
  6
Continuous
 62
     7
100
AcDbCircle
 10
104.063028414
 20
18.61843736089998
 30
0.0
 40
1.111619360599997
100
AcDbArc
 50
277.7099956934
 51
295.6884927745999
  0
ARC
  5
B1F7
330
B1BF
100
AcDbEntity
  8
0
  6
Continuous
 62
     7
100
AcDbCircle
 10
104.3473383967
 20
17.8936115972
 30
0.0
 40
0.3401689265
100
AcDbArc
 50
305.503221255
 51
72.46528985229999
  0
ARC
  5
B1F8
330
B1BF
100
AcDbEntity
  8
0
  6
Continuous
 62
     7
100
AcDbCircle
 10
103.7813445885999
 20
21.2953185068
 30
0.0
 40
4.756794641099999
100
AcDbArc
 50
252.5939200548001
 51
280.9816604255999
  0
ARC
  5
B1F9
330
B1BF
100
AcDbEntity
  8
0
  6
Continuous
 62
     7
100
AcDbCircle
 10
104.2361799517
 20
18.6773047703
 30
0.0
 40
2.100726595299998
100
AcDbArc
 50
282.4058358519999
 51
311.8644433928
  0
ARC
  5
B1FA
330
B1BF
100
AcDbEntity
  8
0
  6
Continuous
 62
     7
100
AcDbCircle
 10
103.9626156045999
 20
20.2856464918
 30
0.0
 40
0.3029626476
100
AcDbArc
 50
154.4400348282
 51
221.8201698800999
  0
ARC
  5
B1FB
330
B1BF
100
AcDbEntity
  8
0
  6
Continuous
 62
     7
100
AcDbCircle
 10
104.0418367559
 20
20.2064253405
 30
0.0
 40
0.4103089737
100
AcDbArc
 50
102.8287828680999
 51
149.2259639003
  0
ARC
  5
B1FC
330
B1BF
100
AcDbEntity
  8
0
  6
Continuous
 62
     7
100
AcDbCircle
 10
104.4588635915999
 20
18.46409001059999
 30
0.0
 40
2.201836557
100
AcDbArc
 50
84.0400061857
 51
103.3427657870999
  0
ARC
  5
B1FD
330
B1BF
100
AcDbEntity
  8
0
  6
Continuous
 62
     7
100
AcDbCircle
 10
104.1178997669
 20
16.0467260867
 30
0.0
 40
4.642373736499997
100
AcDbArc
 50
70.2625858546
 51
82.95241863799999
  0
ARC
  5
B1FE
330
B1BF
100
AcDbEntity
  8
0
  6
Continuous
 62
     7
100
AcDbCircle
 10
103.6038815646999
 20
20.7183489764
 30
0.0
 40
3.258755990899997
100
AcDbArc
 50
247.5300206145
 51
280.7579522143
  0
ARC
  5
B1FF
330
B1BF
100
AcDbEntity
  8
0
  6
Continuous
 62
     7
100
AcDbCircle
 10
97.21891509270001
 20
2.4668290159
 30
0.0
 40
17.3316084133
100
AcDbArc
 50
65.34146746500001
 51
67.39977707359999
  0
ARC
  5
B200
330
B1BF
100
AcDbEntity
  8
0
  6
Continuous
 62
     7
100
AcDbCircle
 10
108.0147774981
 20
28.259255379
 30
0.0
 40
10.6291642039
100
AcDbArc
 50
242.8620101252001
 51
247.1042029186
  0
ARC
  5
B201
330
B1BF
100
AcDbEntity
  8
0
  6
Continuous
 62
     7
100
AcDbCircle
 10
104.1598762715
 20
20.725323882
 30
0.0
 40
2.166291629199998
100
AcDbArc
 50
227.3119280793999
 51
242.7040315235
  0
ARC
  5
B202
330
B1BF
100
AcDbEntity
  8
0
  6
Continuous
 62
     7
100
AcDbCircle
 10
103.5558454618999
 20
20.0196462412
 30
0.0
 40
1.238521734
100
AcDbArc
 50
194.7952194236
 51
225.7176549047
  0
ARC
  5
B203
330
B1BF
100
AcDbEntity
  8
0
  6
Continuous
 62
     7
100
AcDbCircle
 10
103.6180035961
 20
20.05986621039999
 30
0.0
 40
1.309092072899999
100
AcDbArc
 50
164.1974860461
 51
195.8025139539
  0
ARC
  5
B204
330
B1BF
100
AcDbEntity
  8
0
  6
Continuous
 62
     7
100
AcDbCircle
 10
104.1750273167
 20
19.1715990505
 30
0.0
 40
2.366924815299999
100
AcDbArc
 50
86.22180229280001
 51
120.4272602309
  0
ARC
  5
B205
330
B1BF
100
AcDbEntity
  8
0
  6
Continuous
 62
     7
100
AcDbCircle
 10
103.9061705341999
 20
12.4754312294
 30
0.0
 40
9.0679051661
100
AcDbArc
 50
78.68270492259998
 51
87.3147599624
  0
ARC
  5
B206
330
B1BF
100
AcDbEntity
  8
0
  6
Continuous
 62
     7
100
AcDbCircle
 10
103.4501013557999
 20
20.1673739729
 30
0.0
 40
1.119747444
100
AcDbArc
 50
142.8139179029999
 51
167.1522951416999
  0
ARC
  5
B207
330
B1BF
100
AcDbEntity
  8
0
  6
Continuous
 62
     7
100
AcDbCircle
 10
103.7954106973999
 20
19.86079227619999
 30
0.0
 40
1.580546684499998
100
AcDbArc
 50
121.2140948535
 51
141.5254768286
  0
ARC
  5
B208
330
B1BF
100
AcDbEntity
  8
0
  6
Continuous
 62
     7
100
AcDbCircle
 10
104.372585063
 20
20.6718496049
 30
0.0
 40
0.8661276051999998
100
AcDbArc
 50
222.7760387596
 51
239.0362434679
  0
ARC
  5
B209
330
B1BF
100
AcDbEntity
  8
0
  6
Continuous
 62
     7
100
AcDbCircle
 10
101.8658754847
 20
13.3415774063
 30
0.0
 40
6.858773576299999
100
AcDbArc
 50
59.90202725599999
 51
68.2036481279
  0
ARC
  5
B20A
330
B1BF
100
AcDbEntity
  8
0
  6
Continuous
 62
     7
100
AcDbCircle
 10
105.2743699785
 20
22.26746391349999
 30
0.0
 40
2.698741017099999
100
AcDbArc
 50
240.0481997804
 51
251.3779673736999
  0
ARC
  5
B20B
330
B1BF
100
AcDbEntity
  8
0
  6
Continuous
 62
     7
100
AcDbCircle
 10
104.6089128116999
 20
18.1105652982
 30
0.0
 40
1.4334474881
100
AcDbArc
 50
315.8904553224
 51
333.5229264372999
  0
ARC
  5
B20C
330
B1BF
100
AcDbEntity
  8
0
  6
Continuous
 62
     7
100
AcDbCircle
 10
104.6135510555
 20
18.057158148
 30
0.0
 40
1.406228711899998
100
AcDbArc
 50
335.3867972702
 51
24.39151194019999
  0
ARC
  5
B20D
330
B1BF
100
AcDbEntity
  8
0
  6
Continuous
 62
     7
100
AcDbCircle
 10
104.5413461519
 20
17.97930145619999
 30
0.0
 40
1.504702514799999
100
AcDbArc
 50
25.95629166050001
 51
59.4834829668
  0
LINE
  5
B20E
330
B1BF
100
AcDbEntity
  8
0
  6
Continuous
 62
     7
100
AcDbLine
 10
74.7656602606
 20
16.75634419749999
 30
0.0
 11
74.7656602606
 21
17.7069980142
 31
0.0
  0
LINE
  5
B20F
330
B1BF
100
AcDbEntity
  8
0
  6
Continuous
 62
     7
100
AcDbLine
 10
78.09294861879997
 20
20.4163613916
 30
0.0
 11
78.09294861879997
 21
21.36701520829999
 31
0.0
  0
ARC
  5
B210
330
B1BF
100
AcDbEntity
  8
0
  6
Continuous
 62
     7
100
AcDbCircle
 10
76.4703013855
 20
18.61843736089998
 30
0.0
 40
1.111619360599997
100
AcDbArc
 50
277.7099956934
 51
295.6884927745999
  0
ARC
  5
B211
330
B1BF
100
AcDbEntity
  8
0
  6
Continuous
 62
     7
100
AcDbCircle
 10
76.7546113683
 20
17.8936115972
 30
0.0
 40
0.3401689265
100
AcDbArc
 50
305.5032212556
 51
72.4652898515
  0
ARC
  5
B212
330
B1BF
100
AcDbEntity
  8
0
  6
Continuous
 62
     7
100
AcDbCircle
 10
76.1886175602
 20
21.2953185068
 30
0.0
 40
4.756794641099999
100
AcDbArc
 50
252.5939200545
 51
280.9816604253
  0
ARC
  5
B213
330
B1BF
100
AcDbEntity
  8
0
  6
Continuous
 62
     7
100
AcDbCircle
 10
76.64345292330001
 20
18.6773047703
 30
0.0
 40
2.100726595299998
100
AcDbArc
 50
282.4058358513
 51
311.8644433923
  0
ARC
  5
B214
330
B1BF
100
AcDbEntity
  8
0
  6
Continuous
 62
     7
100
AcDbCircle
 10
76.3698885762
 20
20.2856464918
 30
0.0
 40
0.3029626476
100
AcDbArc
 50
154.4400348282
 51
221.8201698800999
  0
ARC
  5
B215
330
B1BF
100
AcDbEntity
  8
0
  6
Continuous
 62
     7
100
AcDbCircle
 10
76.4491097276
 20
20.2064253405
 30
0.0
 40
0.4103089737
100
AcDbArc
 50
102.8287828727
 51
149.2259639027
  0
ARC
  5
B216
330
B1BF
100
AcDbEntity
  8
0
  6
Continuous
 62
     7
100
AcDbCircle
 10
76.8661365632
 20
18.46409001059999
 30
0.0
 40
2.201836557
100
AcDbArc
 50
84.0400061859
 51
103.3427657871999
  0
ARC
  5
B217
330
B1BF
100
AcDbEntity
  8
0
  6
Continuous
 62
     7
100
AcDbCircle
 10
76.5251727384
 20
16.0467260867
 30
0.0
 40
4.642373736499997
100
AcDbArc
 50
70.2625858546
 51
82.9524186379
  0
ARC
  5
B218
330
B1BF
100
AcDbEntity
  8
0
  6
Continuous
 62
     7
100
AcDbCircle
 10
76.0111545363
 20
20.7183489764
 30
0.0
 40
3.258755990899997
100
AcDbArc
 50
247.5300206148
 51
280.7579522145
  0
ARC
  5
B219
330
B1BF
100
AcDbEntity
  8
0
  6
Continuous
 62
     7
100
AcDbCircle
 10
69.6261880643
 20
2.4668290159
 30
0.0
 40
17.3316084133
100
AcDbArc
 50
65.34146746500001
 51
67.39977707359999
  0
ARC
  5
B21A
330
B1BF
100
AcDbEntity
  8
0
  6
Continuous
 62
     7
100
AcDbCircle
 10
80.4220504697
 20
28.259255379
 30
0.0
 40
10.6291642039
100
AcDbArc
 50
242.8620101252001
 51
247.1042029184999
  0
ARC
  5
B21B
330
B1BF
100
AcDbEntity
  8
0
  6
Continuous
 62
     7
100
AcDbCircle
 10
76.56714924310001
 20
20.725323882
 30
0.0
 40
2.166291629199998
100
AcDbArc
 50
227.3119280793999
 51
242.7040315235
  0
ARC
  5
B21C
330
B1BF
100
AcDbEntity
  8
0
  6
Continuous
 62
     7
100
AcDbCircle
 10
75.9631184335
 20
20.0196462412
 30
0.0
 40
1.238521734
100
AcDbArc
 50
194.7952194234
 51
225.7176549041999
  0
ARC
  5
B21D
330
B1BF
100
AcDbEntity
  8
0
  6
Continuous
 62
     7
100
AcDbCircle
 10
76.58230028830002
 20
19.1715990505
 30
0.0
 40
2.366924815299999
100
AcDbArc
 50
86.22180229280001
 51
120.4272602309
  0
ARC
  5
B21E
330
B1BF
100
AcDbEntity
  8
0
  6
Continuous
 62
     7
100
AcDbCircle
 10
76.3134435058
 20
12.4754312294
 30
0.0
 40
9.0679051661
100
AcDbArc
 50
78.68270492259998
 51
87.3147599624
  0
ARC
  5
B21F
330
B1BF
100
AcDbEntity
  8
0
  6
Continuous
 62
     7
100
AcDbCircle
 10
76.20268366899998
 20
19.86079227619999
 30
0.0
 40
1.580546684599998
100
AcDbArc
 50
121.2140948540999
 51
141.5254768289999
  0
ARC
  5
B220
330
B1BF
100
AcDbEntity
  8
0
  6
Continuous
 62
     7
100
AcDbCircle
 10
76.7798580346
 20
20.6718496049
 30
0.0
 40
0.8661276051999998
100
AcDbArc
 50
222.7760387596
 51
239.0362434679
  0
ARC
  5
B221
330
B1BF
100
AcDbEntity
  8
0
  6
Continuous
 62
     7
100
AcDbCircle
 10
74.2731484563
 20
13.3415774063
 30
0.0
 40
6.858773576299999
100
AcDbArc
 50
59.90202725620001
 51
68.20364812820002
  0
ARC
  5
B222
330
B1BF
100
AcDbEntity
  8
0
  6
Continuous
 62
     7
100
AcDbCircle
 10
77.6816429501
 20
22.26746391349999
 30
0.0
 40
2.698741017099999
100
AcDbArc
 50
240.0481997804
 51
251.3779673734
  0
ARC
  5
B223
330
B1BF
100
AcDbEntity
  8
0
  6
Continuous
 62
     7
100
AcDbCircle
 10
77.0161857833
 20
18.1105652982
 30
0.0
 40
1.4334474881
100
AcDbArc
 50
315.8904553225998
 51
333.5229264375
  0
ARC
  5
B224
330
B1BF
100
AcDbEntity
  8
0
  6
Continuous
 62
     7
100
AcDbCircle
 10
77.020824027
 20
18.057158148
 30
0.0
 40
1.406228711899998
100
AcDbArc
 50
335.3867972703
 51
24.3915119403
  0
ARC
  5
B225
330
B1BF
100
AcDbEntity
  8
0
  6
Continuous
 62
     7
100
AcDbCircle
 10
76.94861912350001
 20
17.97930145619999
 30
0.0
 40
1.504702514699999
100
AcDbArc
 50
25.9562916611
 51
59.4834829676
  0
LINE
  5
B226
330
B1BF
100
AcDbEntity
  8
0
  6
Continuous
 62
     7
100
AcDbLine
 10
74.9574888499
 20
20.8337423583
 30
0.0
 11
75.2315546745
 21
21.10781543579999
 31
0.0
  0
ARC
  5
B227
330
B1BF
100
AcDbEntity
  8
0
  6
Continuous
 62
     7
100
AcDbCircle
 10
76.0252765676
 20
20.05986621039999
 30
0.0
 40
1.309092072899999
100
AcDbArc
 50
164.1974860461
 51
195.8025139539
  0
ARC
  5
B228
330
B1BF
100
AcDbEntity
  8
0
  6
Continuous
 62
     7
100
AcDbCircle
 10
75.8573743274
 20
20.1673739729
 30
0.0
 40
1.119747444
100
AcDbArc
 50
142.8139179029999
 51
167.1522951416999
  0
ENDBLK
  5
B229
330
B1BF
100
AcDbEntity
  8
0
100
AcDbBlockEnd
  0
ENDSEC
  0
SECTION
  2
ENTITIES
  0
DIMENSION
  5
ADD5
330
AA16
100
AcDbEntity
  8
10100_FRONT_DIM
  6
Continuous
 62
     7
370
    13
100
AcDbDimension
  2
*D8
 10
317.9896431812432
 20
579.2341407148627
 30
0.0
 11
317.9896431812431
 21
639.2341407148628
 31
0.0
 70
    32
 71
     5
 42
120.0
  3
DSTYLE1
100
AcDbAlignedDimension
 13
303.030804737739
 23
699.2341407148629
 33
0.0
 14
288.030804737739
 24
579.2341407148627
 34
0.0
 50
90.0
100
AcDbRotatedDimension
1001
ACAD
1000
DSTYLE
1002
{
1070
    41
1040
2.0
1070
    42
1040
1.0
1070
    43
1040
1.0
1070
    47
1040
0.005
1070
    48
1040
-0.005
1070
    77
1070
     0
1070
    78
1070
     0
1070
   140
1040
3.5
1070
   143
1040
25.4
1070
   171
1070
     0
1070
   172
1070
     1
1070
   271
1070
     0
1070
   272
1070
     1
1070
   277
1070
     6
1070
   279
1070
     0
1002
}
  0
DIMENSION
  5
ADD6
330
AA16
100
AcDbEntity
  8
11100_LEFT_DIM
  6
Continuous
 62
     7
370
    13
100
AcDbDimension
  2
*D9
 10
464.0802208962971
 20
715.3224802158772
 30
0.0
 11
421.0802208962971
 21
715.3224802158772
 31
0.0
 70
    32
 71
     5
 42
86.0
  3
DSTYLE1
100
AcDbAlignedDimension
 13
378.0802208962971
 23
677.0356583514718
 33
0.0
 14
464.0802208962971
 24
681.385658351472
 34
0.0
100
AcDbRotatedDimension
1001
ACAD
1000
DSTYLE
1002
{
1070
    41
1040
2.0
1070
    42
1040
1.0
1070
    43
1040
1.0
1070
    47
1040
0.005
1070
    48
1040
-0.005
1070
    77
1070
     0
1070
    78
1070
     0
1070
   140
1040
3.5
1070
   143
1040
25.4
1070
   171
1070
     0
1070
   172
1070
     1
1070
   271
1070
     0
1070
   272
1070
     1
1070
   277
1070
     6
1070
   279
1070
     0
1002
}
  0
DIMENSION
  5
ADD7
330
AA16
100
AcDbEntity
  8
11100_LEFT_DIM
  6
Continuous
 62
     7
370
    13
100
AcDbDimension
  2
*D0
 10
442.9802208962971
 20
708.7817981257992
 30
0.0
 11
410.5302208962971
 21
708.7817981257992
 31
0.0
 70
    32
 71
     5
 42
64.90000000000003
  3
DSTYLE1
100
AcDbAlignedDimension
 13
378.0802208962971
 23
677.0356583514718
 33
0.0
 14
442.9802208962971
 24
681.5856583514718
 34
0.0
100
AcDbRotatedDimension
1001
ACAD
1000
DSTYLE
1002
{
1070
    41
1040
2.0
1070
    42
1040
1.0
1070
    43
1040
1.0
1070
    47
1040
0.005
1070
    48
1040
-0.005
1070
    77
1070
     0
1070
    78
1070
     0
1070
   140
1040
3.5
1070
   143
1040
25.4
1070
   171
1070
     0
1070
   172
1070
     1
1070
   271
1070
     0
1070
   272
1070
     1
1070
   277
1070
     6
1070
   279
1070
     0
1002
}
  0
DIMENSION
  5
ADD8
330
AA16
100
AcDbEntity
  8
11100_LEFT_DIM
  6
Continuous
 62
     7
370
    50
100
AcDbDimension
  2
*D1
 10
378.0802208962971
 20
708.7817981257992
 30
0.0
 11
364.8135542296302
 21
708.7817981257992
 31
0.0
 70
   160
 71
     5
 42
5.100000000000079
  3
DSTYLE1
100
AcDbAlignedDimension
 13
372.9802208962972
 23
700.035658351472
 33
0.0
 14
378.0802208962971
 24
678.0356583514718
 34
0.0
100
AcDbRotatedDimension
1001
ACAD
1000
DSTYLE
1002
{
1070
    41
1040
2.0
1070
    42
1040
1.0
1070
    43
1040
1.0
1070
    47
1040
0.005
1070
    48
1040
-0.005
1070
    77
1070
     0
1070
    78
1070
     0
1070
   140
1040
3.5
1070
   143
1040
25.4
1070
   171
1070
     0
1070
   172
1070
     1
1070
   271
1070
     0
1070
   272
1070
     1
1070
   277
1070
     6
1070
   279
1070
     0
1002
}
  0
DIMENSION
  5
ADD9
330
AA16
100
AcDbEntity
  8
10100_FRONT_DIM
  6
Continuous
 62
     7
370
    13
100
AcDbDimension
  2
*D2
 10
273.2921724847484
 20
604.892100714863
 30
0.0
 11
273.2921724847484
 21
638.992100714863
 31
0.0
 70
    32
 71
     5
 42
68.19999999999993
  3
DSTYLE1
100
AcDbAlignedDimension
 13
283.4808047377393
 23
673.0921007148629
 33
0.0
 14
283.4808047377391
 24
604.892100714863
 34
0.0
 50
90.0
100
AcDbRotatedDimension
1001
ACAD
1000
DSTYLE
1002
{
1070
    41
1040
2.0
1070
    42
1040
1.0
1070
    43
1040
1.0
1070
    47
1040
0.005
1070
    48
1040
-0.005
1070
    77
1070
     0
1070
    78
1070
     0
1070
   140
1040
3.5
1070
   143
1040
25.4
1070
   171
1070
     0
1070
   172
1070
     1
1070
   271
1070
     0
1070
   272
1070
     1
1070
   277
1070
     6
1070
   279
1070
     0
1002
}
  0
DIMENSION
  5
ADDA
330
AA16
100
AcDbEntity
  8
10100_FRONT_DIM
  6
Continuous
 62
     7
370
    13
100
AcDbDimension
  2
*D3
 10
293.780804737739
 20
693.5977414458991
 30
0.0
 11
290.180804737739
 21
693.5977414458991
 31
0.0
 70
   160
 71
     5
 42
7.200000000000045
  3
DSTYLE1
100
AcDbAlignedDimension
 13
286.580804737739
 23
678.792100714863
 33
0.0
 14
293.780804737739
 24
678.792100714863
 34
0.0
100
AcDbRotatedDimension
1001
ACAD
1000
DSTYLE
1002
{
1070
   175
1070
     0
1070
    75
1070
     0
1070
   281
1070
     1
1070
    41
1040
2.0
1070
    42
1040
1.0
1070
    43
1040
1.0
1070
    47
1040
0.005
1070
    48
1040
-0.005
1070
    77
1070
     0
1070
    78
1070
     0
1070
   140
1040
3.5
1070
   143
1040
25.4
1070
   171
1070
     0
1070
   172
1070
     1
1070
   271
1070
     0
1070
   272
1070
     1
1070
   277
1070
     6
1070
   279
1070
     0
1002
}
  0
DIMENSION
  5
ADDB
330
AA16
100
AcDbEntity
  8
10100_FRONT_DIM
  6
Continuous
 62
     7
370
    13
100
AcDbDimension
  2
*D4
 10
286.580804737739
 20
693.5977414458991
 30
0.0
 11
274.364138071072
 21
693.5977414458991
 31
0.0
 70
   160
 71
     5
 42
4.050000000000181
  3
DSTYLE1
100
AcDbAlignedDimension
 13
282.5308047377388
 23
682.6921007148629
 33
0.0
 14
286.580804737739
 24
678.792100714863
 34
0.0
100
AcDbRotatedDimension
1001
ACAD
1000
DSTYLE
1002
{
1070
   282
1070
     1
1070
   281
1070
     0
1070
    41
1040
2.0
1070
    42
1040
1.0
1070
    43
1040
1.0
1070
    47
1040
0.005
1070
    48
1040
-0.005
1070
    77
1070
     0
1070
    78
1070
     0
1070
   140
1040
3.5
1070
   143
1040
25.4
1070
   171
1070
     0
1070
   172
1070
     1
1070
   271
1070
     0
1070
   272
1070
     1
1070
   277
1070
     6
1070
   279
1070
     0
1002
}
  0
DIMENSION
  5
ADDC
330
AA16
100
AcDbEntity
  8
10100_FRONT_DIM
  6
Continuous
 62
     7
370
    13
100
AcDbDimension
  2
*D5
 10
305.0308047377388
 20
703.8518568466174
 30
0.0
 11
293.7808037377388
 21
703.8518568466174
 31
0.0
 70
    32
 71
     5
 42
22.500002
  3
DSTYLE1
100
AcDbAlignedDimension
 13
282.5308027377388
 23
682.6921007148629
 33
0.0
 14
305.0308047377388
 24
689.8421007148631
 34
0.0
100
AcDbRotatedDimension
1001
ACAD
1000
DSTYLE
1002
{
1070
    41
1040
2.0
1070
    42
1040
1.0
1070
    43
1040
1.0
1070
    47
1040
0.005
1070
    48
1040
-0.005
1070
    77
1070
     0
1070
    78
1070
     0
1070
   140
1040
3.5
1070
   143
1040
25.4
1070
   171
1070
     0
1070
   172
1070
     1
1070
   271
1070
     1
1070
   272
1070
     1
1070
   277
1070
     6
1070
   279
1070
     0
1002
}
  0
DIMENSION
  5
ADDD
330
AA16
100
AcDbEntity
  8
11100_LEFT_DIM
  6
Continuous
 62
     7
370
    13
100
AcDbDimension
  2
*D6
 10
362.8129834477247
 20
677.0356583514718
 30
0.0
 11
362.8129834477245
 21
640.285658351472
 31
0.0
 70
   160
 71
     5
 42
73.5
  3
DSTYLE1
100
AcDbAlignedDimension
 13
372.980220896297
 23
603.5356583514718
 33
0.0
 14
372.980220896297
 24
677.0356583514718
 34
0.0
 50
90.0
100
AcDbRotatedDimension
1001
ACAD
1000
DSTYLE
1002
{
1070
    41
1040
2.0
1070
    42
1040
1.0
1070
    43
1040
1.0
1070
    47
1040
0.005
1070
    48
1040
-0.005
1070
    77
1070
     0
1070
    78
1070
     0
1070
   140
1040
3.5
1070
   143
1040
25.4
1070
   171
1070
     0
1070
   172
1070
     1
1070
   271
1070
     0
1070
   272
1070
     1
1070
   277
1070
     6
1070
   279
1070
     0
1002
}
  0
DIMENSION
  5
ADDF
330
AA16
100
AcDbEntity
  8
10100_FRONT_DIM
  6
Continuous
 62
     7
370
    13
100
AcDbDimension
  2
*D7
 10
310.5701235776275
 20
584.2341407148627
 30
0.0
 11
310.5701235776274
 21
639.2341407148633
 31
0.0
 70
   160
  1
110x15
 71
     5
 42
110.0000000000001
  3
DSTYLE1
100
AcDbAlignedDimension
 13
303.780804737739
 23
694.234140714863
 33
0.0
 14
288.780804737739
 24
584.2341407148627
 34
0.0
 50
90.0
100
AcDbRotatedDimension
1001
ACAD
1000
DSTYLE
1002
{
1070
    41
1040
2.0
1070
    42
1040
1.0
1070
    43
1040
1.0
1070
    47
1040
0.005
1070
    48
1040
-0.005
1070
    77
1070
     0
1070
    78
1070
     0
1070
   140
1040
3.5
1070
   143
1040
25.4
1070
   171
1070
     0
1070
   172
1070
     1
1070
   271
1070
     0
1070
   272
1070
     1
1070
   277
1070
     6
1070
   279
1070
     0
1002
}
  0
LINE
  5
ADE0
330
AA16
100
AcDbEntity
  8
11000_Left
  6
HIDDEN
 62
     7
370
     9
100
AcDbLine
 10
378.9802208962972
 20
603.0356583514718
 30
0.0
 11
378.9802208962972
 21
580.0356583514719
 31
0.0
1001
AUSTER_FOLIE
1002
{
1000
12_POL_CC
1002
}
1001
AUSTER_ANSICHT
1002
{
1000
SL
1002
}
  0
LINE
  5
ADE1
330
AA16
100
AcDbEntity
  8
11000_Left
  6
HIDDEN
 62
     7
370
     9
100
AcDbLine
 39
0.25
 10
377.0801596173523
 20
658.935658351472
 30
-0.0000000000000036
 11
378.0801596173523
 21
658.935658351472
 31
-0.7500000000000071
1001
AUSTER_ANSICHT
1002
{
1000
Det03
1002
}
1001
AUSTER_FOLIE
1002
{
1000
NSB01341_3RS10_24POL
1002
}
  0
LINE
  5
ADE2
330
AA16
100
AcDbEntity
  8
11000_Left
  6
HIDDEN
 62
     7
370
     9
100
AcDbLine
 39
0.25
 10
374.1801596173524
 20
628.7856583514718
 30
-0.0000000000000036
 11
372.5801596173523
 21
628.7856583514718
 31
-0.0000000000000036
1001
AUSTER_ANSICHT
1002
{
1000
Det03
1002
}
1001
AUSTER_FOLIE
1002
{
1000
NSB01341_3RS10_24POL
1002
}
  0
ARC
  5
ADE5
330
AA16
100
AcDbEntity
  8
11000_Left
  6
HIDDEN
 62
     7
370
     9
100
AcDbCircle
 39
0.25
 10
372.5801596173523
 20
630.785658351472
 30
-0.0000000000000036
 40
2.0
100
AcDbArc
 50
180.0
 51
270.0
1001
AUSTER_ANSICHT
1002
{
1000
Det03
1002
}
1001
AUSTER_FOLIE
1002
{
1000
NSB01341_3RS10_24POL
1002
}
  0
ARC
  5
ADE8
330
AA16
100
AcDbEntity
  8
11000_Left
  6
HIDDEN
 62
     7
370
     9
100
AcDbCircle
 10
376.6087652455797
 20
626.1642639796993
 30
-0.7500000000000036
 40
0.4722615119880704
100
AcDbArc
 50
356.5273781600839
 51
93.47262183990965
1001
AUSTER_FOLIE
1002
{
1000
NSB01341_3RS10_24POL
1002
}
1001
AUSTER_ANSICHT
1002
{
1000
Det03
1002
}
  0
LINE
  5
ADE9
330
AA16
100
AcDbEntity
  8
11000_Left
  6
HIDDEN
 62
     7
370
     9
100
AcDbLine
 39
0.25
 10
374.0801596173522
 20
630.785658351472
 30
-1.000000000000001
 11
376.0801596173522
 21
630.785658351472
 31
-1.000000000000001
1001
AUSTER_ANSICHT
1002
{
1000
Det03
1002
}
1001
AUSTER_FOLIE
1002
{
1000
NSB01341_3RS10_24POL
1002
}
  0
LINE
  5
ADEA
330
AA16
100
AcDbEntity
  8
11000_Left
  6
HIDDEN
 62
     7
370
     9
100
AcDbLine
 39
0.25
 10
374.0801596173522
 20
630.785658351472
 30
-1.000000000000001
 11
376.0801596173522
 21
630.785658351472
 31
-1.000000000000001
1001
AUSTER_ANSICHT
1002
{
1000
Det03
1002
}
1001
AUSTER_FOLIE
1002
{
1000
NSB01341_3RS10_24POL
1002
}
  0
LINE
  5
ADEC
330
AA16
100
AcDbEntity
  8
11000_Left
  6
HIDDEN
 62
     7
370
     9
100
AcDbLine
 39
0.25
 10
373.0801596173523
 20
631.785658351472
 30
-1.000000000000001
 11
373.0801596173523
 21
641.2856583514718
 31
-1.000000000000001
1001
AUSTER_ANSICHT
1002
{
1000
Det03
1002
}
1001
AUSTER_FOLIE
1002
{
1000
NSB01341_3RS10_24POL
1002
}
  0
LINE
  5
ADED
330
AA16
100
AcDbEntity
  8
11000_Left
  6
HIDDEN
 62
     7
370
     9
100
AcDbLine
 39
0.25
 10
373.0801596173523
 20
631.785658351472
 30
-1.000000000000001
 11
373.0801596173523
 21
641.2856583514718
 31
-1.000000000000001
1001
AUSTER_ANSICHT
1002
{
1000
Det03
1002
}
1001
AUSTER_FOLIE
1002
{
1000
NSB01341_3RS10_24POL
1002
}
  0
LINE
  5
ADEF
330
AA16
100
AcDbEntity
  8
11000_Left
  6
HIDDEN
 62
     7
370
     9
100
AcDbLine
 39
0.25
 10
376.0801596173522
 20
626.8856583514717
 30
-1.000000000000001
 11
376.0801596173522
 21
626.6356583514719
 31
-1.000000000000001
1001
AUSTER_ANSICHT
1002
{
1000
Det03
1002
}
1001
AUSTER_FOLIE
1002
{
1000
NSB01341_3RS10_24POL
1002
}
  0
LINE
  5
ADF0
330
AA16
100
AcDbEntity
  8
11000_Left
  6
HIDDEN
 62
     7
370
     9
100
AcDbLine
 39
0.25
 10
376.5801596173523
 20
626.6356583514719
 30
-1.000000000000001
 11
376.0801596173522
 21
626.6356583514719
 31
-1.000000000000001
1001
AUSTER_ANSICHT
1002
{
1000
Det03
1002
}
1001
AUSTER_FOLIE
1002
{
1000
NSB01341_3RS10_24POL
1002
}
  0
LINE
  5
ADF5
330
AA16
100
AcDbEntity
  8
11000_Left
  6
HIDDEN
 62
     7
370
     9
100
AcDbLine
 39
0.25
 10
378.0801596173523
 20
628.7856583514718
 30
-1.000000000000001
 11
376.0801596173522
 21
630.785658351472
 31
-1.000000000000001
1001
AUSTER_ANSICHT
1002
{
1000
Det03
1002
}
1001
AUSTER_FOLIE
1002
{
1000
NSB01341_3RS10_24POL
1002
}
  0
LINE
  5
ADF6
330
AA16
100
AcDbEntity
  8
11000_Left
  6
HIDDEN
 62
     7
370
     9
100
AcDbLine
 39
0.25
 10
378.0801596173523
 20
628.7856583514718
 30
-1.000000000000001
 11
376.0801596173522
 21
630.785658351472
 31
-1.000000000000001
1001
AUSTER_ANSICHT
1002
{
1000
Det03
1002
}
1001
AUSTER_FOLIE
1002
{
1000
NSB01341_3RS10_24POL
1002
}
  0
ARC
  5
ADF8
330
AA16
100
AcDbEntity
  8
11000_Left
  6
HIDDEN
 62
     7
370
     9
100
AcDbCircle
 39
0.25
 10
374.1801596173524
 20
626.8856583514717
 30
-1.000000000000001
 40
1.9
100
AcDbArc
 50
0.0000000107477304
 51
90.0
1001
AUSTER_ANSICHT
1002
{
1000
Det03
1002
}
1001
AUSTER_FOLIE
1002
{
1000
NSB01341_3RS10_24POL
1002
}
  0
ARC
  5
ADFB
330
AA16
100
AcDbEntity
  8
11000_Left
  6
HIDDEN
 62
     7
370
     9
100
AcDbCircle
 39
0.25
 10
374.0801596173522
 20
631.785658351472
 30
-1.000000000000001
 40
1.0
100
AcDbArc
 50
180.0
 51
270.0
1001
AUSTER_ANSICHT
1002
{
1000
Det03
1002
}
1001
AUSTER_FOLIE
1002
{
1000
NSB01341_3RS10_24POL
1002
}
  0
ARC
  5
ADFC
330
AA16
100
AcDbEntity
  8
11000_Left
  6
HIDDEN
 62
     7
370
     9
100
AcDbCircle
 39
0.25
 10
374.0801596173522
 20
631.785658351472
 30
-1.000000000000001
 40
1.0
100
AcDbArc
 50
180.0
 51
270.0
1001
AUSTER_ANSICHT
1002
{
1000
Det03
1002
}
1001
AUSTER_FOLIE
1002
{
1000
NSB01341_3RS10_24POL
1002
}
  0
LINE
  5
ADFE
330
AA16
100
AcDbEntity
  8
11000_Left
  6
HIDDEN
 62
     7
370
     9
100
AcDbLine
 39
0.25
 10
377.0801596173523
 20
626.1356583514717
 30
-1.000000000000001
 11
377.0802479672792
 21
623.7328432711536
 31
-0.5
1001
AUSTER_ANSICHT
1002
{
1000
Det03
1002
}
1001
AUSTER_FOLIE
1002
{
1000
NSB01341_3RS10_24POL
1002
}
  0
LINE
  5
AE00
330
AA16
100
AcDbEntity
  8
11000_Left
  6
HIDDEN
 62
     7
370
     9
100
AcDbLine
 39
0.25
 10
374.1801596173524
 20
653.7856583514718
 30
-0.0000000000000036
 11
372.5801596173523
 21
653.7856583514718
 31
-0.0000000000000036
1001
AUSTER_ANSICHT
1002
{
1000
Det03
1002
}
1001
AUSTER_FOLIE
1002
{
1000
NSB01341_3RS10_24POL
1002
}
  0
LINE
  5
AE01
330
AA16
100
AcDbEntity
  8
11000_Left
  6
HIDDEN
 62
     7
370
     9
100
AcDbLine
 39
0.25
 10
374.1801596173524
 20
653.7856583514718
 30
-0.0000000000000036
 11
372.5801596173523
 21
653.7856583514718
 31
-0.0000000000000036
1001
AUSTER_ANSICHT
1002
{
1000
Det03
1002
}
1001
AUSTER_FOLIE
1002
{
1000
NSB01341_3RS10_24POL
1002
}
  0
LINE
  5
AE03
330
AA16
100
AcDbEntity
  8
11000_Left
  6
HIDDEN
 62
     7
370
     9
100
AcDbLine
 39
0.25
 10
370.5801596173523
 20
651.785658351472
 30
-0.0000000000000036
 11
370.5801596173523
 21
630.785658351472
 31
-0.0000000000000036
1001
AUSTER_ANSICHT
1002
{
1000
Det03
1002
}
1001
AUSTER_FOLIE
1002
{
1000
NSB01341_3RS10_24POL
1002
}
  0
ARC
  5
AE06
330
AA16
100
AcDbEntity
  8
11000_Left
  6
HIDDEN
 62
     7
370
     9
100
AcDbCircle
 39
0.25
 10
372.5801596173523
 20
651.785658351472
 30
-0.0000000000000039
 40
2.0
100
AcDbArc
 50
90.0
 51
180.0
1001
AUSTER_ANSICHT
1002
{
1000
Det03
1002
}
1001
AUSTER_FOLIE
1002
{
1000
NSB01341_3RS10_24POL
1002
}
  0
LINE
  5
AE07
330
AA16
100
AcDbEntity
  8
11000_Left
  6
HIDDEN
 62
     7
370
     9
100
AcDbLine
 39
0.25
 10
376.5801596173523
 20
655.935658351472
 30
-1.000000000000001
 11
376.0801596173522
 21
655.935658351472
 31
-1.000000000000001
1001
AUSTER_ANSICHT
1002
{
1000
Det03
1002
}
1001
AUSTER_FOLIE
1002
{
1000
NSB01341_3RS10_24POL
1002
}
  0
LINE
  5
AE0A
330
AA16
100
AcDbEntity
  8
11000_Left
  6
HIDDEN
 62
     7
370
     9
100
AcDbLine
 39
0.25
 10
376.0801596173522
 20
655.685658351472
 30
-1.000000000000001
 11
376.0801596173522
 21
655.935658351472
 31
-1.000000000000001
1001
AUSTER_ANSICHT
1002
{
1000
Det03
1002
}
1001
AUSTER_FOLIE
1002
{
1000
NSB01341_3RS10_24POL
1002
}
  0
LINE
  5
AE0D
330
AA16
100
AcDbEntity
  8
11000_Left
  6
HIDDEN
 62
     7
370
     9
100
AcDbLine
 39
0.25
 10
377.0801596173523
 20
656.4356583514718
 30
-1.000000000000001
 11
377.0801596173523
 21
658.935658351472
 31
-1.000000000000001
1001
AUSTER_ANSICHT
1002
{
1000
Det03
1002
}
1001
AUSTER_FOLIE
1002
{
1000
NSB01341_3RS10_24POL
1002
}
  0
LINE
  5
AE0E
330
AA16
100
AcDbEntity
  8
11000_Left
  6
HIDDEN
 62
     7
370
     9
100
AcDbLine
 39
0.25
 10
377.0801596173523
 20
656.4356583514718
 30
-1.000000000000001
 11
377.0801596173523
 21
658.935658351472
 31
-1.000000000000001
1001
AUSTER_ANSICHT
1002
{
1000
Det03
1002
}
1001
AUSTER_FOLIE
1002
{
1000
NSB01341_3RS10_24POL
1002
}
  0
LINE
  5
AE0F
330
AA16
100
AcDbEntity
  8
11000_Left
  6
HIDDEN
 62
     7
370
     9
100
AcDbLine
 39
0.25
 10
374.0801596173522
 20
651.785658351472
 30
-1.000000000000001
 11
376.0801596173522
 21
651.785658351472
 31
-1.000000000000001
1001
AUSTER_ANSICHT
1002
{
1000
Det03
1002
}
1001
AUSTER_FOLIE
1002
{
1000
NSB01341_3RS10_24POL
1002
}
  0
LINE
  5
AE12
330
AA16
100
AcDbEntity
  8
11000_Left
  6
HIDDEN
 62
     7
370
     9
100
AcDbLine
 39
0.25
 10
378.0801596173523
 20
653.7856583514718
 30
-1.000000000000001
 11
376.0801596173522
 21
651.785658351472
 31
-1.000000000000001
1001
AUSTER_ANSICHT
1002
{
1000
Det03
1002
}
1001
AUSTER_FOLIE
1002
{
1000
NSB01341_3RS10_24POL
1002
}
  0
LINE
  5
AE15
330
AA16
100
AcDbEntity
  8
11000_Left
  6
HIDDEN
 62
     7
370
     9
100
AcDbLine
 39
0.25
 10
373.0801596173523
 20
650.7856583514718
 30
-1.000000000000001
 11
373.0801596173523
 21
641.2856583514718
 31
-1.000000000000001
1001
AUSTER_ANSICHT
1002
{
1000
Det03
1002
}
1001
AUSTER_FOLIE
1002
{
1000
NSB01341_3RS10_24POL
1002
}
  0
ARC
  5
AE18
330
AA16
100
AcDbEntity
  8
11000_Left
  6
HIDDEN
 62
     7
370
     9
100
AcDbCircle
 39
0.25
 10
374.0801596173522
 20
650.7856583514718
 30
-1.000000000000001
 40
1.0
100
AcDbArc
 50
90.0
 51
180.0
1001
AUSTER_ANSICHT
1002
{
1000
Det03
1002
}
1001
AUSTER_FOLIE
1002
{
1000
NSB01341_3RS10_24POL
1002
}
  0
ARC
  5
AE1B
330
AA16
100
AcDbEntity
  8
11000_Left
  6
HIDDEN
 62
     7
370
     9
100
AcDbCircle
 39
0.25
 10
374.1801596173524
 20
655.685658351472
 30
-1.000000000000001
 40
1.9
100
AcDbArc
 50
270.0
 51
0.0
1001
AUSTER_ANSICHT
1002
{
1000
Det03
1002
}
1001
AUSTER_FOLIE
1002
{
1000
NSB01341_3RS10_24POL
1002
}
  0
ARC
  5
AE1E
330
AA16
100
AcDbEntity
  8
11000_Left
  6
HIDDEN
 62
     7
370
     9
100
AcDbCircle
 39
0.25
 10
376.5801596173523
 20
656.4356583514718
 30
-1.000000000000001
 40
0.5
100
AcDbArc
 50
270.0
 51
0.0
1001
AUSTER_ANSICHT
1002
{
1000
Det03
1002
}
1001
AUSTER_FOLIE
1002
{
1000
NSB01341_3RS10_24POL
1002
}
  0
LINE
  5
AE22
330
AA16
100
AcDbEntity
  8
11000_Left
  6
HIDDEN
 62
     7
370
     9
100
AcDbLine
 10
372.9802208962972
 20
592.035658351472
 30
0.0
 11
378.9802208962972
 21
592.035658351472
 31
0.0
1001
AUSTER_FOLIE
1002
{
1000
12_POL_CC
1002
}
1001
AUSTER_ANSICHT
1002
{
1000
SL
1002
}
  0
LINE
  5
AE23
330
AA16
100
AcDbEntity
  8
11000_Left
  6
HIDDEN
 62
     7
370
     9
100
AcDbLine
 10
378.9802208962972
 20
598.0356583514718
 30
0.0
 11
372.9802208962972
 21
598.0356583514718
 31
0.0
1001
AUSTER_FOLIE
1002
{
1000
12_POL_CC
1002
}
1001
AUSTER_ANSICHT
1002
{
1000
SL
1002
}
  0
LINE
  5
AE24
330
AA16
100
AcDbEntity
  8
11000_Left
  6
HIDDEN
 62
     7
370
     9
100
AcDbLine
 10
372.9802208962972
 20
582.0356583514718
 30
0.0
 11
378.9802208962972
 21
582.0356583514718
 31
0.0
1001
AUSTER_FOLIE
1002
{
1000
12_POL_CC
1002
}
1001
AUSTER_ANSICHT
1002
{
1000
SL
1002
}
  0
LINE
  5
AE25
330
AA16
100
AcDbEntity
  8
11000_Left
  6
HIDDEN
 62
     7
370
     9
100
AcDbLine
 10
372.9802208962972
 20
580.0356583514719
 30
0.0
 11
378.9802208962972
 21
580.0356583514719
 31
0.0
1001
AUSTER_FOLIE
1002
{
1000
12_POL_CC
1002
}
1001
AUSTER_ANSICHT
1002
{
1000
SL
1002
}
  0
LINE
  5
AE26
330
AA16
100
AcDbEntity
  8
11000_Left
  6
HIDDEN
 62
     7
370
     9
100
AcDbLine
 10
378.9802208962972
 20
588.035658351472
 30
0.0
 11
372.9802208962972
 21
588.035658351472
 31
0.0
1001
AUSTER_FOLIE
1002
{
1000
12_POL_CC
1002
}
1001
AUSTER_ANSICHT
1002
{
1000
SL
1002
}
  0
LINE
  5
AE27
330
AA16
100
AcDbEntity
  8
11000_Left
  6
HIDDEN
 62
     7
370
     9
100
AcDbLine
 10
372.9802208962972
 20
603.0356583514718
 30
0.0
 11
372.9802208962972
 21
580.0356583514719
 31
0.0
1001
AUSTER_FOLIE
1002
{
1000
12_POL_CC
1002
}
1001
AUSTER_ANSICHT
1002
{
1000
SL
1002
}
  0
LINE
  5
AE28
330
AA16
100
AcDbEntity
  8
11000_Left
  6
HIDDEN
 62
     7
370
     9
100
AcDbLine
 10
372.9802208962972
 20
677.0356583514718
 30
0.0
 11
372.9802208962972
 21
700.035658351472
 31
0.0
1001
AUSTER_FOLIE
1002
{
1000
12_POL_CC
1002
}
1001
AUSTER_ANSICHT
1002
{
1000
SL
1002
}
  0
LINE
  5
AE29
330
AA16
100
AcDbEntity
  8
11000_Left
  6
HIDDEN
 62
     7
370
     9
100
AcDbLine
 10
372.9802208962972
 20
698.0356583514718
 30
0.0
 11
378.9802208962972
 21
698.0356583514718
 31
0.0
1001
AUSTER_FOLIE
1002
{
1000
12_POL_CC
1002
}
1001
AUSTER_ANSICHT
1002
{
1000
SL
1002
}
  0
LINE
  5
AE2A
330
AA16
100
AcDbEntity
  8
11000_Left
  6
HIDDEN
 62
     7
370
     9
100
AcDbLine
 10
372.9802208962972
 20
700.035658351472
 30
0.0
 11
378.9802208962972
 21
700.035658351472
 31
0.0
1001
AUSTER_FOLIE
1002
{
1000
12_POL_CC
1002
}
1001
AUSTER_ANSICHT
1002
{
1000
SL
1002
}
  0
LINE
  5
AE2B
330
AA16
100
AcDbEntity
  8
11000_Left
  6
HIDDEN
 62
     7
370
     9
100
AcDbLine
 10
378.9802208962972
 20
682.0356583514718
 30
0.0
 11
372.9802208962972
 21
682.0356583514718
 31
0.0
1001
AUSTER_FOLIE
1002
{
1000
12_POL_CC
1002
}
1001
AUSTER_ANSICHT
1002
{
1000
SL
1002
}
  0
LINE
  5
AE2C
330
AA16
100
AcDbEntity
  8
11000_Left
  6
HIDDEN
 62
     7
370
     9
100
AcDbLine
 10
378.9802208962972
 20
692.035658351472
 30
0.0
 11
372.9802208962972
 21
692.035658351472
 31
0.0
1001
AUSTER_FOLIE
1002
{
1000
12_POL_CC
1002
}
1001
AUSTER_ANSICHT
1002
{
1000
SL
1002
}
  0
LINE
  5
AE2D
330
AA16
100
AcDbEntity
  8
11000_Left
  6
HIDDEN
 62
     7
370
     9
100
AcDbLine
 10
372.9802208962972
 20
688.035658351472
 30
0.0
 11
378.9802208962972
 21
688.035658351472
 31
0.0
1001
AUSTER_FOLIE
1002
{
1000
12_POL_CC
1002
}
1001
AUSTER_ANSICHT
1002
{
1000
SL
1002
}
  0
LINE
  5
AE2E
330
AA16
100
AcDbEntity
  8
11000_Left
  6
HIDDEN
 62
     7
370
     9
100
AcDbLine
 10
372.9802208962972
 20
679.035658351472
 30
0.0
 11
378.9802208962972
 21
679.035658351472
 31
0.0
1001
AUSTER_FOLIE
1002
{
1000
12_POL_CC
1002
}
1001
AUSTER_ANSICHT
1002
{
1000
SL
1002
}
  0
LINE
  5
AE2F
330
AA16
100
AcDbEntity
  8
11000_Left
  6
HIDDEN
 62
     7
370
     9
100
AcDbLine
 10
378.9802208962972
 20
700.035658351472
 30
0.0
 11
378.9802208962972
 21
677.0356583514718
 31
0.0
1001
AUSTER_FOLIE
1002
{
1000
12_POL_CC
1002
}
1001
AUSTER_ANSICHT
1002
{
1000
SL
1002
}
  0
ARC
  5
AE30
330
AA16
100
AcDbEntity
  8
10000_FRONT
  6
HIDDEN
 62
     7
370
     9
100
AcDbCircle
 10
284.530804737739
 20
581.2341407148627
 30
0.0
 40
2.0
100
AcDbArc
 50
180.0
 51
270.0
1001
AUSTER_FOLIE
1002
{
1000
6_POL_CC
1002
}
1001
AUSTER_ANSICHT
1002
{
1000
V
1002
}
  0
ARC
  5
AE31
330
AA16
100
AcDbEntity
  8
10000_FRONT
  6
HIDDEN
 62
     7
370
     9
100
AcDbCircle
 10
288.030804737739
 20
581.2341407148627
 30
0.0
 40
2.0
100
AcDbArc
 50
270.0
 51
0.0
1001
AUSTER_FOLIE
1002
{
1000
6_POL_CC
1002
}
1001
AUSTER_ANSICHT
1002
{
1000
V
1002
}
  0
LINE
  5
AE32
330
AA16
100
AcDbEntity
  8
10000_FRONT
  6
HIDDEN
 62
     7
370
     9
100
AcDbLine
 10
288.030804737739
 20
579.2341407148627
 30
0.0
 11
284.530804737739
 21
579.2341407148627
 31
0.0
1001
AUSTER_FOLIE
1002
{
1000
6_POL_CC
1002
}
1001
AUSTER_ANSICHT
1002
{
1000
V
1002
}
  0
LINE
  5
AE33
330
AA16
100
AcDbEntity
  8
10000_FRONT
  6
HIDDEN
 62
     7
370
     9
100
AcDbLine
 10
290.030804737739
 20
597.6921007148627
 30
0.0
 11
290.030804737739
 21
581.2341407148627
 31
0.0
1001
AUSTER_FOLIE
1002
{
1000
6_POL_CC
1002
}
1001
AUSTER_ANSICHT
1002
{
1000
V
1002
}
  0
LINE
  5
AE34
330
AA16
100
AcDbEntity
  8
10000_FRONT
  6
HIDDEN
 62
     7
370
     9
100
AcDbLine
 10
282.530804737739
 20
597.8921007148628
 30
0.0
 11
282.530804737739
 21
581.2341407148627
 31
0.0
1001
AUSTER_FOLIE
1002
{
1000
6_POL_CC
1002
}
1001
AUSTER_ANSICHT
1002
{
1000
V
1002
}
  0
LINE
  5
AE35
330
AA16
100
AcDbEntity
  8
10000_FRONT
  6
HIDDEN
 62
     7
370
     9
100
AcDbLine
 10
288.780804737739
 20
584.7341407148627
 30
0.0
 11
288.780804737739
 21
583.7341407148627
 31
0.0
1001
AUSTER_FOLIE
1002
{
1000
6_POL_CC
1002
}
1001
AUSTER_ANSICHT
1002
{
1000
V
1002
}
  0
LINE
  5
AE36
330
AA16
100
AcDbEntity
  8
10000_FRONT
  6
HIDDEN
 62
     7
370
     9
100
AcDbLine
 10
283.780804737739
 20
584.7341407148627
 30
0.0
 11
283.780804737739
 21
583.7341407148627
 31
0.0
1001
AUSTER_FOLIE
1002
{
1000
6_POL_CC
1002
}
1001
AUSTER_ANSICHT
1002
{
1000
V
1002
}
  0
ARC
  5
AE37
330
AA16
100
AcDbEntity
  8
10000_FRONT
  6
HIDDEN
 62
     7
370
     9
100
AcDbCircle
 10
286.280804737739
 20
583.7341407148627
 30
0.0
 40
2.5
100
AcDbArc
 50
180.0
 51
0.0
1001
AUSTER_FOLIE
1002
{
1000
6_POL_CC
1002
}
1001
AUSTER_ANSICHT
1002
{
1000
V
1002
}
  0
ARC
  5
AE38
330
AA16
100
AcDbEntity
  8
10000_FRONT
  6
HIDDEN
 62
     7
370
     9
100
AcDbCircle
 10
286.280804737739
 20
584.7341407148627
 30
0.0
 40
2.5
100
AcDbArc
 50
0.0
 51
180.0
1001
AUSTER_FOLIE
1002
{
1000
6_POL_CC
1002
}
1001
AUSTER_ANSICHT
1002
{
1000
V
1002
}
  0
LINE
  5
AE39
330
AA16
100
AcDbEntity
  8
10000_FRONT
  6
HIDDEN
 62
     7
370
     9
100
AcDbLine
 10
297.530804737739
 20
680.2921007148629
 30
0.0
 11
297.530804737739
 21
697.2341407148628
 31
0.0
1001
AUSTER_FOLIE
1002
{
1000
6_POL_CC
1002
}
1001
AUSTER_ANSICHT
1002
{
1000
V
1002
}
  0
LINE
  5
AE3A
330
AA16
100
AcDbEntity
  8
10000_FRONT
  6
HIDDEN
 62
     7
370
     9
100
AcDbLine
 10
305.030804737739
 20
680.2921007148629
 30
0.0
 11
305.030804737739
 21
697.2341407148628
 31
0.0
1001
AUSTER_FOLIE
1002
{
1000
6_POL_CC
1002
}
1001
AUSTER_ANSICHT
1002
{
1000
V
1002
}
  0
ARC
  5
AE3B
330
AA16
100
AcDbEntity
  8
10000_FRONT
  6
HIDDEN
 62
     7
370
     9
100
AcDbCircle
 10
303.030804737739
 20
697.2341407148628
 30
0.0
 40
2.0
100
AcDbArc
 50
0.0
 51
90.0
1001
AUSTER_FOLIE
1002
{
1000
6_POL_CC
1002
}
1001
AUSTER_ANSICHT
1002
{
1000
V
1002
}
  0
LINE
  5
AE3C
330
AA16
100
AcDbEntity
  8
10000_FRONT
  6
HIDDEN
 62
     7
370
     9
100
AcDbLine
 10
303.780804737739
 20
693.7341407148628
 30
0.0
 11
303.780804737739
 21
694.734140714863
 31
0.0
1001
AUSTER_FOLIE
1002
{
1000
6_POL_CC
1002
}
1001
AUSTER_ANSICHT
1002
{
1000
V
1002
}
  0
ARC
  5
AE3D
330
AA16
100
AcDbEntity
  8
10000_FRONT
  6
HIDDEN
 62
     7
370
     9
100
AcDbCircle
 10
299.530804737739
 20
697.2341407148628
 30
0.0
 40
2.0
100
AcDbArc
 50
90.0
 51
180.0
1001
AUSTER_FOLIE
1002
{
1000
6_POL_CC
1002
}
1001
AUSTER_ANSICHT
1002
{
1000
V
1002
}
  0
LINE
  5
AE3E
330
AA16
100
AcDbEntity
  8
10000_FRONT
  6
HIDDEN
 62
     7
370
     9
100
AcDbLine
 10
298.780804737739
 20
693.7341407148628
 30
0.0
 11
298.780804737739
 21
694.734140714863
 31
0.0
1001
AUSTER_FOLIE
1002
{
1000
6_POL_CC
1002
}
1001
AUSTER_ANSICHT
1002
{
1000
V
1002
}
  0
ARC
  5
AE3F
330
AA16
100
AcDbEntity
  8
10000_FRONT
  6
HIDDEN
 62
     7
370
     9
100
AcDbCircle
 10
301.280804737739
 20
693.7341407148628
 30
0.0
 40
2.5
100
AcDbArc
 50
180.0
 51
0.0
1001
AUSTER_FOLIE
1002
{
1000
6_POL_CC
1002
}
1001
AUSTER_ANSICHT
1002
{
1000
V
1002
}
  0
ARC
  5
AE40
330
AA16
100
AcDbEntity
  8
10000_FRONT
  6
HIDDEN
 62
     7
370
     9
100
AcDbCircle
 10
301.280804737739
 20
694.734140714863
 30
0.0
 40
2.5
100
AcDbArc
 50
0.0
 51
180.0
1001
AUSTER_FOLIE
1002
{
1000
6_POL_CC
1002
}
1001
AUSTER_ANSICHT
1002
{
1000
V
1002
}
  0
LINE
  5
AE41
330
AA16
100
AcDbEntity
  8
10000_FRONT
  6
HIDDEN
 62
     7
370
     9
100
AcDbLine
 10
299.530804737739
 20
699.2341407148629
 30
0.0
 11
303.030804737739
 21
699.2341407148629
 31
0.0
1001
AUSTER_FOLIE
1002
{
1000
6_POL_CC
1002
}
1001
AUSTER_ANSICHT
1002
{
1000
V
1002
}
  0
ARC
  5
AE44
330
AA16
100
AcDbEntity
  8
10000_FRONT
  6
Continuous
 62
     7
370
    50
100
AcDbCircle
 10
304.830804737739
 20
680.0921007148629
 30
0.0
 40
0.2
100
AcDbArc
 50
0.0
 51
90.0004430000029
  0
LINE
  5
AE45
330
AA16
100
AcDbEntity
  8
10000_FRONT
  6
Continuous
 62
     7
370
    50
100
AcDbLine
 10
304.830804737739
 20
680.2921007148629
 30
0.0
 11
304.830804737739
 21
680.2921007148629
 31
0.0
  0
ARC
  5
AE46
330
AA16
100
AcDbEntity
  8
10000_FRONT
  6
Continuous
 62
     7
370
    50
100
AcDbCircle
 10
304.830804737739
 20
680.0921007148629
 30
0.0
 40
0.2
100
AcDbArc
 50
0.0
 51
90.0004430000029
  0
LINE
  5
AE47
330
AA16
100
AcDbEntity
  8
10000_FRONT
  6
Continuous
 62
     7
370
    50
100
AcDbLine
 10
304.830804737739
 20
680.2921007148629
 30
0.0
 11
304.830804737739
 21
680.2921007148629
 31
0.0
  0
LINE
  5
AE48
330
AA16
100
AcDbEntity
  8
10000_FRONT
  6
Continuous
 62
     7
370
    40
100
AcDbLine
 10
305.030804737739
 20
666.2421107148628
 30
0.0
 11
305.030804737739
 21
666.292100714863
 31
0.0
  0
LINE
  5
AE49
330
AA16
100
AcDbEntity
  8
10000_FRONT
  6
Continuous
 62
     7
370
    40
100
AcDbLine
 10
305.030804737739
 20
666.2421107148628
 30
0.0
 11
305.030804737739
 21
666.292100714863
 31
0.0
  0
LINE
  5
AE4A
330
AA16
100
AcDbEntity
  8
10000_FRONT
  6
Continuous
 62
     7
370
    50
100
AcDbLine
 10
303.1808047377392
 20
679.7921007148629
 30
0.0
 11
298.780804737739
 21
679.7921007148629
 31
0.0
  0
LINE
  5
AE4C
330
AA16
100
AcDbEntity
  8
10000_FRONT
  6
Continuous
 62
     7
370
    50
100
AcDbLine
 10
298.780804737739
 20
680.2921007148629
 30
0.0
 11
295.9808047377391
 21
680.2921007148629
 31
0.0
  0
LINE
  5
AE4D
330
AA16
100
AcDbEntity
  8
10000_FRONT
  6
Continuous
 62
     7
370
    50
100
AcDbLine
 10
291.580804737739
 20
679.7921007148629
 30
0.0
 11
291.580804737739
 21
680.2921007148629
 31
0.0
  0
LINE
  5
AE4F
330
AA16
100
AcDbEntity
  8
10000_FRONT
  6
Continuous
 62
     7
370
    50
100
AcDbLine
 10
295.9808047377391
 20
679.7921007148629
 30
0.0
 11
295.9808047377391
 21
680.0921007148629
 31
0.0
  0
LINE
  5
AE50
330
AA16
100
AcDbEntity
  8
10000_FRONT
  6
Continuous
 62
     7
370
    50
100
AcDbLine
 10
295.9808047377391
 20
680.2921007148629
 30
0.0
 11
295.9808047377391
 21
680.0921007148629
 31
0.0
  0
LINE
  5
AE52
330
AA16
100
AcDbEntity
  8
10000_FRONT
  6
Continuous
 62
     7
370
    50
100
AcDbLine
 10
298.780804737739
 20
679.7921007148629
 30
0.0
 11
298.780804737739
 21
680.2921007148629
 31
0.0
  0
LINE
  5
AE53
330
AA16
100
AcDbEntity
  8
10000_FRONT
  6
Continuous
 62
     7
370
    50
100
AcDbLine
 10
295.9808047377391
 20
679.7921007148629
 30
0.0
 11
291.580804737739
 21
679.7921007148629
 31
0.0
  0
LINE
  5
AE54
330
AA16
100
AcDbEntity
  8
10000_FRONT
  6
Continuous
 62
     7
370
    50
100
AcDbLine
 10
298.780804737739
 20
680.2921007148629
 30
0.0
 11
295.9808047377391
 21
680.2921007148629
 31
0.0
  0
LINE
  5
AE57
330
AA16
100
AcDbEntity
  8
10000_FRONT
  6
Continuous
 62
     7
370
    50
100
AcDbLine
 10
295.9808047377391
 20
679.7921007148629
 30
0.0
 11
295.9808047377391
 21
680.0921007148629
 31
0.0
  0
LINE
  5
AE58
330
AA16
100
AcDbEntity
  8
10000_FRONT
  6
Continuous
 62
     7
370
    50
100
AcDbLine
 10
295.9808047377391
 20
680.2921007148629
 30
0.0
 11
295.9808047377391
 21
680.0921007148629
 31
0.0
  0
LINE
  5
AE5B
330
AA16
100
AcDbEntity
  8
10000_FRONT
  6
Continuous
 62
     7
370
    50
100
AcDbLine
 10
295.9808047377391
 20
679.7921007148629
 30
0.0
 11
291.580804737739
 21
679.7921007148629
 31
0.0
  0
LINE
  5
AE5C
330
AA16
100
AcDbEntity
  8
10000_FRONT
  6
Continuous
 62
     7
370
    50
100
AcDbLine
 10
303.1808047377392
 20
679.7921007148629
 30
0.0
 11
303.1808047377392
 21
680.2921007148629
 31
0.0
  0
LINE
  5
AE60
330
AA16
100
AcDbEntity
  8
10000_FRONT
  6
Continuous
 62
     7
370
    50
100
AcDbLine
 10
284.3808047377389
 20
680.2921007148629
 30
0.0
 11
282.730804737739
 21
680.2921007148629
 31
0.0
  0
ARC
  5
AE63
330
AA16
100
AcDbEntity
  8
10000_FRONT
  6
Continuous
 62
     7
370
    50
100
AcDbCircle
 10
282.730804737739
 20
680.0921007148629
 30
0.0
 40
0.2
100
AcDbArc
 50
90.0
 51
180.0
  0
LINE
  5
AE66
330
AA16
100
AcDbEntity
  8
10000_FRONT
  6
Continuous
 62
     7
370
    50
100
AcDbLine
 10
288.780804737739
 20
679.7921007148629
 30
0.0
 11
288.780804737739
 21
680.2921007148629
 31
0.0
  0
LINE
  5
AE6A
330
AA16
100
AcDbEntity
  8
10000_FRONT
  6
Continuous
 62
     7
370
    50
100
AcDbLine
 10
284.3808047377389
 20
679.7921007148629
 30
0.0
 11
284.3808047377389
 21
680.2921007148629
 31
0.0
  0
LINE
  5
AE6E
330
AA16
100
AcDbEntity
  8
10000_FRONT
  6
Continuous
 62
     7
370
    50
100
AcDbLine
 10
288.780804737739
 20
679.7921007148629
 30
0.0
 11
284.3808047377389
 21
679.7921007148629
 31
0.0
  0
LINE
  5
AE70
330
AA16
100
AcDbEntity
  8
10000_FRONT
  6
Continuous
 62
     7
370
    50
100
AcDbLine
 10
291.580804737739
 20
680.2921007148629
 30
0.0
 11
288.780804737739
 21
680.2921007148629
 31
0.0
  0
LINE
  5
AE72
330
AA16
100
AcDbEntity
  8
10000_FRONT
  6
Continuous
 62
     7
370
    15
100
AcDbLine
 39
0.25
 10
296.6808047377392
 20
666.292100714863
 30
0.0
 11
296.6808047377392
 21
668.9591307148628
 31
0.0
  0
LINE
  5
AE73
330
AA16
100
AcDbEntity
  8
10000_FRONT
  6
Continuous
 62
     7
370
    15
100
AcDbLine
 39
0.25
 10
296.6808047377392
 20
668.9591307148628
 30
0.0
 11
290.8808047377389
 21
668.9591307148628
 31
0.0
  0
LINE
  5
AE74
330
AA16
100
AcDbEntity
  8
10000_FRONT
  6
Continuous
 62
     7
370
    15
100
AcDbLine
 39
0.25
 10
290.8808047377389
 20
666.292100714863
 30
0.0
 11
290.8808047377389
 21
668.9591307148628
 31
0.0
  0
LINE
  5
AE76
330
AA16
100
AcDbEntity
  8
10000_FRONT
  6
Continuous
 62
     7
370
    15
100
AcDbLine
 10
304.2308047377392
 20
666.2421007148629
 30
0.0
 11
282.530804737739
 21
666.2421007148629
 31
0.0
  0
LINE
  5
AE77
330
AA16
100
AcDbEntity
  8
10000_FRONT
  6
Continuous
 62
     7
370
    30
100
AcDbLine
 10
304.2308047377392
 20
666.2421007148629
 30
0.0
 11
305.030804737739
 21
666.2421007148629
 31
0.0
  0
LINE
  5
AE78
330
AA16
100
AcDbEntity
  8
10000_FRONT
  6
Continuous
 62
     7
370
    50
100
AcDbLine
 10
304.830804737739
 20
680.2921007148629
 30
0.0
 11
303.1808047377392
 21
680.2921007148629
 31
0.0
  0
LINE
  5
AE82
330
AA16
100
AcDbEntity
  8
10000_FRONT
  6
Continuous
 62
     7
370
    15
100
AcDbLine
 39
0.25
 10
283.780804737739
 20
621.9921007148627
 30
0.0
 11
303.780804737739
 21
621.9921007148627
 31
0.0
  0
LINE
  5
AE83
330
AA16
100
AcDbEntity
  8
10000_FRONT
  6
Continuous
 62
     7
370
    15
100
AcDbLine
 39
0.25
 10
290.8808047377389
 20
611.7421007148627
 30
0.0
 11
290.8808047377389
 21
609.0250607148629
 31
0.0
  0
LINE
  5
AE84
330
AA16
100
AcDbEntity
  8
10000_FRONT
  6
Continuous
 62
     7
370
    15
100
AcDbLine
 39
0.25
 10
296.6808047377392
 20
611.7421007148627
 30
0.0
 11
296.6808047377392
 21
609.0250607148629
 31
0.0
  0
LINE
  5
AE85
330
AA16
100
AcDbEntity
  8
10000_FRONT
  6
Continuous
 62
     7
370
    15
100
AcDbLine
 39
0.25
 10
290.8808047377389
 20
609.0250607148629
 30
0.0
 11
296.6808047377392
 21
609.0250607148629
 31
0.0
  0
LINE
  5
AE86
330
AA16
100
AcDbEntity
  8
10000_FRONT
  6
Continuous
 62
     7
370
    15
100
AcDbLine
 39
0.25
 10
290.8807947377389
 20
609.0250507148628
 30
0.0
 11
290.881034737739
 21
609.0476607148628
 31
0.0
  0
ARC
  5
AE87
330
AA16
100
AcDbEntity
  8
10000_FRONT
  6
Continuous
 62
     7
370
    15
100
AcDbCircle
 39
0.25
 10
292.038114737739
 20
609.0244707148627
 30
0.0
 40
1.157316699999997
100
AcDbArc
 50
177.7499200000015
 51
178.851959999996
  0
ARC
  5
AE88
330
AA16
100
AcDbEntity
  8
10000_FRONT
  6
Continuous
 62
     7
370
    15
100
AcDbCircle
 39
0.25
 10
291.9734247377391
 20
609.0259607148627
 30
0.0
 40
1.0926175
100
AcDbArc
 50
176.5464499999982
 51
177.6947600000001
  0
ARC
  5
AE89
330
AA16
100
AcDbEntity
  8
10000_FRONT
  6
Continuous
 62
     7
370
    15
100
AcDbCircle
 39
0.25
 10
291.931914737739
 20
609.0279707148627
 30
0.0
 40
1.051062899999998
100
AcDbArc
 50
175.3436500000046
 51
176.5191900000002
  0
LINE
  5
AE8A
330
AA16
100
AcDbEntity
  8
10000_FRONT
  6
Continuous
 62
     7
370
    15
100
AcDbLine
 39
0.25
 10
296.6807947377389
 20
609.0250507148628
 30
0.0
 11
296.680564737739
 21
609.0476607148628
 31
0.0
  0
ARC
  5
AE8B
330
AA16
100
AcDbEntity
  8
10000_FRONT
  6
Continuous
 62
     7
370
    15
100
AcDbCircle
 39
0.25
 10
295.523774737739
 20
609.0244807148629
 30
0.0
 40
1.1570263
100
AcDbArc
 50
1.1479026999977
 51
2.25022129999536
  0
ARC
  5
AE8C
330
AA16
100
AcDbEntity
  8
10000_FRONT
  6
Continuous
 62
     7
370
    15
100
AcDbCircle
 39
0.25
 10
295.588454737739
 20
609.0259807148629
 30
0.0
 40
1.092336799999998
100
AcDbArc
 50
2.305088800003631
 51
3.453694000000752
  0
ARC
  5
AE8D
330
AA16
100
AcDbEntity
  8
10000_FRONT
  6
Continuous
 62
     7
370
    15
100
AcDbCircle
 39
0.25
 10
295.629954737739
 20
609.0279807148629
 30
0.0
 40
1.0507933
100
AcDbArc
 50
3.480658299999098
 51
4.656500999998976
  0
LINE
  5
AE8E
330
AA16
100
AcDbEntity
  8
10000_FRONT
  6
Continuous
 62
     7
370
    15
100
AcDbLine
 39
0.25
 10
290.8807947377389
 20
609.0250507148628
 30
0.0
 11
290.881034737739
 21
609.0476607148628
 31
0.0
  0
ARC
  5
AE8F
330
AA16
100
AcDbEntity
  8
10000_FRONT
  6
Continuous
 62
     7
370
    15
100
AcDbCircle
 39
0.25
 10
292.038114737739
 20
609.0244707148627
 30
0.0
 40
1.157316699999997
100
AcDbArc
 50
177.7499200000015
 51
178.851959999996
  0
ARC
  5
AE90
330
AA16
100
AcDbEntity
  8
10000_FRONT
  6
Continuous
 62
     7
370
    15
100
AcDbCircle
 39
0.25
 10
291.9734247377391
 20
609.0259607148627
 30
0.0
 40
1.0926175
100
AcDbArc
 50
176.5464499999982
 51
177.6947600000001
  0
ARC
  5
AE91
330
AA16
100
AcDbEntity
  8
10000_FRONT
  6
Continuous
 62
     7
370
    15
100
AcDbCircle
 39
0.25
 10
291.931914737739
 20
609.0279707148627
 30
0.0
 40
1.051062899999998
100
AcDbArc
 50
175.3436500000046
 51
176.5191900000002
  0
LINE
  5
AE92
330
AA16
100
AcDbEntity
  8
10000_FRONT
  6
Continuous
 62
     7
370
    15
100
AcDbLine
 39
0.25
 10
296.6807947377389
 20
609.0250507148628
 30
0.0
 11
296.680564737739
 21
609.0476607148628
 31
0.0
  0
ARC
  5
AE93
330
AA16
100
AcDbEntity
  8
10000_FRONT
  6
Continuous
 62
     7
370
    15
100
AcDbCircle
 39
0.25
 10
295.523774737739
 20
609.0244807148629
 30
0.0
 40
1.1570263
100
AcDbArc
 50
1.1479026999977
 51
2.25022129999536
  0
ARC
  5
AE94
330
AA16
100
AcDbEntity
  8
10000_FRONT
  6
Continuous
 62
     7
370
    15
100
AcDbCircle
 39
0.25
 10
295.588454737739
 20
609.0259807148629
 30
0.0
 40
1.092336799999998
100
AcDbArc
 50
2.305088800003631
 51
3.453694000000752
  0
ARC
  5
AE95
330
AA16
100
AcDbEntity
  8
10000_FRONT
  6
Continuous
 62
     7
370
    15
100
AcDbCircle
 39
0.25
 10
295.629954737739
 20
609.0279807148629
 30
0.0
 40
1.0507933
100
AcDbArc
 50
3.480658299999098
 51
4.656500999998976
  0
LINE
  5
AE9E
330
AA16
100
AcDbEntity
  8
10000_FRONT
  6
Continuous
 62
     7
370
    15
100
AcDbLine
 39
0.25
 10
303.780804737739
 20
614.9921007148629
 30
0.0
 11
283.780804737739
 21
614.9921007148629
 31
0.0
  0
LINE
  5
AE9F
330
AA16
100
AcDbEntity
  8
10000_FRONT
  6
Continuous
 62
     7
370
    15
100
AcDbLine
 39
0.25
 10
303.780804737739
 20
621.9921007148627
 30
0.0
 11
303.780804737739
 21
614.9921007148629
 31
0.0
  0
LINE
  5
AEA0
330
AA16
100
AcDbEntity
  8
10000_FRONT
  6
Continuous
 62
     7
370
    15
100
AcDbLine
 39
0.25
 10
283.780804737739
 20
614.9921007148629
 30
0.0
 11
283.780804737739
 21
621.9921007148627
 31
0.0
  0
LINE
  5
AEA1
330
AA16
100
AcDbEntity
  8
10000_FRONT
  6
Continuous
 62
     7
370
    15
100
AcDbLine
 10
282.530804737739
 20
611.7421007148627
 30
0.0
 11
305.0308047377388
 21
611.7421007148627
 31
0.0
  0
LINE
  5
AEA3
330
AA16
100
AcDbEntity
  8
10000_FRONT
  6
Continuous
 62
     7
370
    50
100
AcDbLine
 10
282.530804737739
 20
597.8921007148628
 30
0.0
 11
282.530804737739
 21
680.0921007148629
 31
0.0
  0
LINE
  5
AEA6
330
AA16
100
AcDbEntity
  8
10000_FRONT
  6
Continuous
 62
     7
370
    15
100
AcDbLine
 39
0.25
 10
287.0958047377391
 20
672.4878007148626
 30
0.0
 11
289.3665047377392
 21
672.4878007148626
 31
0.0
1001
AUSTER_ANSICHT
1002
{
1000
Det03
1002
}
1001
AUSTER_FOLIE
1002
{
1000
NSB01341_3RS10_24POL
1002
}
  0
LINE
  5
AEA7
330
AA16
100
AcDbEntity
  8
10000_FRONT
  6
Continuous
 62
     7
370
    15
100
AcDbLine
 39
0.25
 10
289.3665047377392
 20
673.6965007148627
 30
0.0
 11
287.0958047377391
 21
673.6965007148627
 31
0.0
1001
AUSTER_ANSICHT
1002
{
1000
Det03
1002
}
1001
AUSTER_FOLIE
1002
{
1000
NSB01341_3RS10_24POL
1002
}
  0
LINE
  5
AEA8
330
AA16
100
AcDbEntity
  8
10000_FRONT
  6
Continuous
 62
     7
370
    15
100
AcDbLine
 39
0.25
 10
287.0958047377391
 20
673.8767007148627
 30
0.0
 11
287.0958047377391
 21
674.8690007148627
 31
0.0
1001
AUSTER_ANSICHT
1002
{
1000
Det03
1002
}
1001
AUSTER_FOLIE
1002
{
1000
NSB01341_3RS10_24POL
1002
}
  0
LINE
  5
AEA9
330
AA16
100
AcDbEntity
  8
10000_FRONT
  6
Continuous
 62
     7
370
    15
100
AcDbLine
 39
0.25
 10
287.0958047377391
 20
671.3153007148626
 30
0.0
 11
287.0958047377391
 21
672.3076007148629
 31
0.0
1001
AUSTER_ANSICHT
1002
{
1000
Det03
1002
}
1001
AUSTER_FOLIE
1002
{
1000
NSB01341_3RS10_24POL
1002
}
  0
LINE
  5
AEAA
330
AA16
100
AcDbEntity
  8
10000_FRONT
  6
Continuous
 62
     7
370
    15
100
AcDbLine
 39
0.25
 10
287.0958047377391
 20
673.8767007148627
 30
0.0
 11
287.0958047377391
 21
673.6965007148627
 31
0.0
1001
AUSTER_ANSICHT
1002
{
1000
Det03
1002
}
1001
AUSTER_FOLIE
1002
{
1000
NSB01341_3RS10_24POL
1002
}
  0
LINE
  5
AEAB
330
AA16
100
AcDbEntity
  8
10000_FRONT
  6
Continuous
 62
     7
370
    15
100
AcDbLine
 39
0.25
 10
287.0958047377391
 20
672.3076007148629
 30
0.0
 11
287.0958047377391
 21
672.4878007148626
 31
0.0
1001
AUSTER_ANSICHT
1002
{
1000
Det03
1002
}
1001
AUSTER_FOLIE
1002
{
1000
NSB01341_3RS10_24POL
1002
}
  0
ARC
  5
AEAC
330
AA16
100
AcDbEntity
  8
10000_FRONT
  6
Continuous
 62
     7
370
    15
100
AcDbCircle
 39
0.25
 10
286.5808047377392
 20
673.0921007148629
 30
0.0
 40
2.850490999999998
100
AcDbArc
 50
347.7603999999987
 51
12.23960000000143
1001
AUSTER_ANSICHT
1002
{
1000
Det03
1002
}
1001
AUSTER_FOLIE
1002
{
1000
NSB01341_3RS10_24POL
1002
}
  0
LINE
  5
AEAD
330
AA16
100
AcDbEntity
  8
10000_FRONT
  6
Continuous
 62
     7
370
    15
100
AcDbLine
 39
0.25
 10
290.9951047377392
 20
672.4878007148626
 30
0.0
 11
293.2658047377391
 21
672.4878007148626
 31
0.0
1001
AUSTER_ANSICHT
1002
{
1000
Det03
1002
}
1001
AUSTER_FOLIE
1002
{
1000
NSB01341_3RS10_24POL
1002
}
  0
LINE
  5
AEAE
330
AA16
100
AcDbEntity
  8
10000_FRONT
  6
Continuous
 62
     7
370
    15
100
AcDbLine
 39
0.25
 10
294.2958047377393
 20
672.4878007148626
 30
0.0
 11
296.5665047377394
 21
672.4878007148626
 31
0.0
1001
AUSTER_ANSICHT
1002
{
1000
Det03
1002
}
1001
AUSTER_FOLIE
1002
{
1000
NSB01341_3RS10_24POL
1002
}
  0
LINE
  5
AEAF
330
AA16
100
AcDbEntity
  8
10000_FRONT
  6
Continuous
 62
     7
370
    15
100
AcDbLine
 39
0.25
 10
296.5665047377394
 20
673.6965007148627
 30
0.0
 11
294.2958047377393
 21
673.6965007148627
 31
0.0
1001
AUSTER_ANSICHT
1002
{
1000
Det03
1002
}
1001
AUSTER_FOLIE
1002
{
1000
NSB01341_3RS10_24POL
1002
}
  0
LINE
  5
AEB0
330
AA16
100
AcDbEntity
  8
10000_FRONT
  6
Continuous
 62
     7
370
    15
100
AcDbLine
 39
0.25
 10
293.2658047377391
 20
673.6965007148627
 30
0.0
 11
290.9951047377392
 21
673.6965007148627
 31
0.0
1001
AUSTER_ANSICHT
1002
{
1000
Det03
1002
}
1001
AUSTER_FOLIE
1002
{
1000
NSB01341_3RS10_24POL
1002
}
  0
LINE
  5
AEB1
330
AA16
100
AcDbEntity
  8
10000_FRONT
  6
Continuous
 62
     7
370
    15
100
AcDbLine
 39
0.25
 10
293.2658047377391
 20
674.8690007148627
 30
0.0
 11
293.2658047377391
 21
673.8767007148627
 31
0.0
1001
AUSTER_ANSICHT
1002
{
1000
Det03
1002
}
1001
AUSTER_FOLIE
1002
{
1000
NSB01341_3RS10_24POL
1002
}
  0
LINE
  5
AEB2
330
AA16
100
AcDbEntity
  8
10000_FRONT
  6
Continuous
 62
     7
370
    15
100
AcDbLine
 39
0.25
 10
294.2958047377393
 20
673.8767007148627
 30
0.0
 11
294.2958047377393
 21
674.8690007148627
 31
0.0
1001
AUSTER_ANSICHT
1002
{
1000
Det03
1002
}
1001
AUSTER_FOLIE
1002
{
1000
NSB01341_3RS10_24POL
1002
}
  0
LINE
  5
AEB3
330
AA16
100
AcDbEntity
  8
10000_FRONT
  6
Continuous
 62
     7
370
    15
100
AcDbLine
 39
0.25
 10
294.2958047377393
 20
671.3153007148626
 30
0.0
 11
294.2958047377393
 21
672.3076007148629
 31
0.0
1001
AUSTER_ANSICHT
1002
{
1000
Det03
1002
}
1001
AUSTER_FOLIE
1002
{
1000
NSB01341_3RS10_24POL
1002
}
  0
LINE
  5
AEB4
330
AA16
100
AcDbEntity
  8
10000_FRONT
  6
Continuous
 62
     7
370
    15
100
AcDbLine
 39
0.25
 10
293.2658047377391
 20
672.3076007148629
 30
0.0
 11
293.2658047377391
 21
671.3153007148626
 31
0.0
1001
AUSTER_ANSICHT
1002
{
1000
Det03
1002
}
1001
AUSTER_FOLIE
1002
{
1000
NSB01341_3RS10_24POL
1002
}
  0
LINE
  5
AEB5
330
AA16
100
AcDbEntity
  8
10000_FRONT
  6
Continuous
 62
     7
370
    15
100
AcDbLine
 39
0.25
 10
294.2958047377393
 20
673.8767007148627
 30
0.0
 11
294.2958047377393
 21
673.6965007148627
 31
0.0
1001
AUSTER_ANSICHT
1002
{
1000
Det03
1002
}
1001
AUSTER_FOLIE
1002
{
1000
NSB01341_3RS10_24POL
1002
}
  0
LINE
  5
AEB6
330
AA16
100
AcDbEntity
  8
10000_FRONT
  6
Continuous
 62
     7
370
    15
100
AcDbLine
 39
0.25
 10
294.2958047377393
 20
672.3076007148629
 30
0.0
 11
294.2958047377393
 21
672.4878007148626
 31
0.0
1001
AUSTER_ANSICHT
1002
{
1000
Det03
1002
}
1001
AUSTER_FOLIE
1002
{
1000
NSB01341_3RS10_24POL
1002
}
  0
LINE
  5
AEB7
330
AA16
100
AcDbEntity
  8
10000_FRONT
  6
Continuous
 62
     7
370
    15
100
AcDbLine
 39
0.25
 10
293.2658047377391
 20
673.8767007148627
 30
0.0
 11
293.2658047377391
 21
673.6965007148627
 31
0.0
1001
AUSTER_ANSICHT
1002
{
1000
Det03
1002
}
1001
AUSTER_FOLIE
1002
{
1000
NSB01341_3RS10_24POL
1002
}
  0
LINE
  5
AEB8
330
AA16
100
AcDbEntity
  8
10000_FRONT
  6
Continuous
 62
     7
370
    15
100
AcDbLine
 39
0.25
 10
293.2658047377391
 20
672.3076007148629
 30
0.0
 11
293.2658047377391
 21
672.4878007148626
 31
0.0
1001
AUSTER_ANSICHT
1002
{
1000
Det03
1002
}
1001
AUSTER_FOLIE
1002
{
1000
NSB01341_3RS10_24POL
1002
}
  0
CIRCLE
  5
AEB9
330
AA16
100
AcDbEntity
  8
10000_FRONT
  6
Continuous
 62
     7
370
    15
100
AcDbCircle
 39
0.25
 10
293.7808047377392
 20
673.0921007148629
 30
0.0
 40
3.1
1001
AUSTER_ANSICHT
1002
{
1000
Det03
1002
}
1001
AUSTER_FOLIE
1002
{
1000
NSB01341_3RS10_24POL
1002
}
  0
ARC
  5
AEBA
330
AA16
100
AcDbEntity
  8
10000_FRONT
  6
Continuous
 62
     7
370
    15
100
AcDbCircle
 39
0.25
 10
293.7808047377392
 20
673.0921007148629
 30
0.0
 40
1.85
100
AcDbArc
 50
73.83654999999653
 51
106.1634000000003
1001
AUSTER_ANSICHT
1002
{
1000
Det03
1002
}
1001
AUSTER_FOLIE
1002
{
1000
NSB01341_3RS10_24POL
1002
}
  0
ARC
  5
AEBB
330
AA16
100
AcDbEntity
  8
10000_FRONT
  6
Continuous
 62
     7
370
    15
100
AcDbCircle
 39
0.25
 10
293.7808047377392
 20
673.0921007148629
 30
0.0
 40
1.85
100
AcDbArc
 50
253.8365999999997
 51
286.1634000000003
1001
AUSTER_ANSICHT
1002
{
1000
Det03
1002
}
1001
AUSTER_FOLIE
1002
{
1000
NSB01341_3RS10_24POL
1002
}
  0
ARC
  5
AEBC
330
AA16
100
AcDbEntity
  8
10000_FRONT
  6
Continuous
 62
     7
370
    15
100
AcDbCircle
 39
0.25
 10
293.7808047377392
 20
673.0921007148629
 30
0.0
 40
2.850490999999998
100
AcDbArc
 50
347.7603999999987
 51
12.23960000000143
1001
AUSTER_ANSICHT
1002
{
1000
Det03
1002
}
1001
AUSTER_FOLIE
1002
{
1000
NSB01341_3RS10_24POL
1002
}
  0
ARC
  5
AEBD
330
AA16
100
AcDbEntity
  8
10000_FRONT
  6
Continuous
 62
     7
370
    15
100
AcDbCircle
 39
0.25
 10
293.7808047377392
 20
673.0921007148629
 30
0.0
 40
2.850490999999998
100
AcDbArc
 50
167.7603999999986
 51
192.2396000000014
1001
AUSTER_ANSICHT
1002
{
1000
Det03
1002
}
1001
AUSTER_FOLIE
1002
{
1000
NSB01341_3RS10_24POL
1002
}
  0
LINE
  5
AEBE
330
AA16
100
AcDbEntity
  8
10000_FRONT
  6
Continuous
 62
     7
370
    15
100
AcDbLine
 39
0.25
 10
298.1951047377391
 20
672.4878007148626
 30
0.0
 11
300.4658047377392
 21
672.4878007148626
 31
0.0
1001
AUSTER_ANSICHT
1002
{
1000
Det03
1002
}
1001
AUSTER_FOLIE
1002
{
1000
NSB01341_3RS10_24POL
1002
}
  0
LINE
  5
AEBF
330
AA16
100
AcDbEntity
  8
10000_FRONT
  6
Continuous
 62
     7
370
    15
100
AcDbLine
 39
0.25
 10
301.4958047377391
 20
672.4878007148626
 30
0.0
 11
303.7665047377392
 21
672.4878007148626
 31
0.0
1001
AUSTER_ANSICHT
1002
{
1000
Det03
1002
}
1001
AUSTER_FOLIE
1002
{
1000
NSB01341_3RS10_24POL
1002
}
  0
LINE
  5
AEC0
330
AA16
100
AcDbEntity
  8
10000_FRONT
  6
Continuous
 62
     7
370
    15
100
AcDbLine
 39
0.25
 10
303.7665047377392
 20
673.6965007148627
 30
0.0
 11
301.4958047377391
 21
673.6965007148627
 31
0.0
1001
AUSTER_ANSICHT
1002
{
1000
Det03
1002
}
1001
AUSTER_FOLIE
1002
{
1000
NSB01341_3RS10_24POL
1002
}
  0
LINE
  5
AEC1
330
AA16
100
AcDbEntity
  8
10000_FRONT
  6
Continuous
 62
     7
370
    15
100
AcDbLine
 39
0.25
 10
300.4658047377392
 20
673.6965007148627
 30
0.0
 11
298.1951047377391
 21
673.6965007148627
 31
0.0
1001
AUSTER_ANSICHT
1002
{
1000
Det03
1002
}
1001
AUSTER_FOLIE
1002
{
1000
NSB01341_3RS10_24POL
1002
}
  0
LINE
  5
AEC2
330
AA16
100
AcDbEntity
  8
10000_FRONT
  6
Continuous
 62
     7
370
    15
100
AcDbLine
 39
0.25
 10
300.4658047377392
 20
674.8690007148627
 30
0.0
 11
300.4658047377392
 21
673.8767007148627
 31
0.0
1001
AUSTER_ANSICHT
1002
{
1000
Det03
1002
}
1001
AUSTER_FOLIE
1002
{
1000
NSB01341_3RS10_24POL
1002
}
  0
LINE
  5
AEC3
330
AA16
100
AcDbEntity
  8
10000_FRONT
  6
Continuous
 62
     7
370
    15
100
AcDbLine
 39
0.25
 10
301.4958047377391
 20
673.8767007148627
 30
0.0
 11
301.4958047377391
 21
674.8690007148627
 31
0.0
1001
AUSTER_ANSICHT
1002
{
1000
Det03
1002
}
1001
AUSTER_FOLIE
1002
{
1000
NSB01341_3RS10_24POL
1002
}
  0
LINE
  5
AEC4
330
AA16
100
AcDbEntity
  8
10000_FRONT
  6
Continuous
 62
     7
370
    15
100
AcDbLine
 39
0.25
 10
301.4958047377391
 20
671.3153007148626
 30
0.0
 11
301.4958047377391
 21
672.3076007148629
 31
0.0
1001
AUSTER_ANSICHT
1002
{
1000
Det03
1002
}
1001
AUSTER_FOLIE
1002
{
1000
NSB01341_3RS10_24POL
1002
}
  0
LINE
  5
AEC5
330
AA16
100
AcDbEntity
  8
10000_FRONT
  6
Continuous
 62
     7
370
    15
100
AcDbLine
 39
0.25
 10
300.4658047377392
 20
672.3076007148629
 30
0.0
 11
300.4658047377392
 21
671.3153007148626
 31
0.0
1001
AUSTER_ANSICHT
1002
{
1000
Det03
1002
}
1001
AUSTER_FOLIE
1002
{
1000
NSB01341_3RS10_24POL
1002
}
  0
LINE
  5
AEC6
330
AA16
100
AcDbEntity
  8
10000_FRONT
  6
Continuous
 62
     7
370
    15
100
AcDbLine
 39
0.25
 10
301.4958047377391
 20
673.8767007148627
 30
0.0
 11
301.4958047377391
 21
673.6965007148627
 31
0.0
1001
AUSTER_ANSICHT
1002
{
1000
Det03
1002
}
1001
AUSTER_FOLIE
1002
{
1000
NSB01341_3RS10_24POL
1002
}
  0
LINE
  5
AEC7
330
AA16
100
AcDbEntity
  8
10000_FRONT
  6
Continuous
 62
     7
370
    15
100
AcDbLine
 39
0.25
 10
301.4958047377391
 20
672.3076007148629
 30
0.0
 11
301.4958047377391
 21
672.4878007148626
 31
0.0
1001
AUSTER_ANSICHT
1002
{
1000
Det03
1002
}
1001
AUSTER_FOLIE
1002
{
1000
NSB01341_3RS10_24POL
1002
}
  0
LINE
  5
AEC8
330
AA16
100
AcDbEntity
  8
10000_FRONT
  6
Continuous
 62
     7
370
    15
100
AcDbLine
 39
0.25
 10
300.4658047377392
 20
673.8767007148627
 30
0.0
 11
300.4658047377392
 21
673.6965007148627
 31
0.0
1001
AUSTER_ANSICHT
1002
{
1000
Det03
1002
}
1001
AUSTER_FOLIE
1002
{
1000
NSB01341_3RS10_24POL
1002
}
  0
LINE
  5
AEC9
330
AA16
100
AcDbEntity
  8
10000_FRONT
  6
Continuous
 62
     7
370
    15
100
AcDbLine
 39
0.25
 10
300.4658047377392
 20
672.3076007148629
 30
0.0
 11
300.4658047377392
 21
672.4878007148626
 31
0.0
1001
AUSTER_ANSICHT
1002
{
1000
Det03
1002
}
1001
AUSTER_FOLIE
1002
{
1000
NSB01341_3RS10_24POL
1002
}
  0
CIRCLE
  5
AECA
330
AA16
100
AcDbEntity
  8
10000_FRONT
  6
Continuous
 62
     7
370
    15
100
AcDbCircle
 39
0.25
 10
300.9808047377393
 20
673.0921007148629
 30
0.0
 40
3.1
1001
AUSTER_ANSICHT
1002
{
1000
Det03
1002
}
1001
AUSTER_FOLIE
1002
{
1000
NSB01341_3RS10_24POL
1002
}
  0
ARC
  5
AECB
330
AA16
100
AcDbEntity
  8
10000_FRONT
  6
Continuous
 62
     7
370
    15
100
AcDbCircle
 39
0.25
 10
300.9808047377393
 20
673.0921007148629
 30
0.0
 40
2.850490999999998
100
AcDbArc
 50
167.7603999999986
 51
192.2396000000014
1001
AUSTER_ANSICHT
1002
{
1000
Det03
1002
}
1001
AUSTER_FOLIE
1002
{
1000
NSB01341_3RS10_24POL
1002
}
  0
ARC
  5
AECC
330
AA16
100
AcDbEntity
  8
10000_FRONT
  6
Continuous
 62
     7
370
    15
100
AcDbCircle
 39
0.25
 10
300.9808047377393
 20
673.0921007148629
 30
0.0
 40
1.85
100
AcDbArc
 50
73.83654999999653
 51
106.1634000000003
1001
AUSTER_ANSICHT
1002
{
1000
Det03
1002
}
1001
AUSTER_FOLIE
1002
{
1000
NSB01341_3RS10_24POL
1002
}
  0
ARC
  5
AECD
330
AA16
100
AcDbEntity
  8
10000_FRONT
  6
Continuous
 62
     7
370
    15
100
AcDbCircle
 39
0.25
 10
300.9808047377393
 20
673.0921007148629
 30
0.0
 40
1.85
100
AcDbArc
 50
253.8365999999997
 51
286.1634000000003
1001
AUSTER_ANSICHT
1002
{
1000
Det03
1002
}
1001
AUSTER_FOLIE
1002
{
1000
NSB01341_3RS10_24POL
1002
}
  0
ARC
  5
AECE
330
AA16
100
AcDbEntity
  8
10000_FRONT
  6
Continuous
 62
     7
370
    15
100
AcDbCircle
 39
0.25
 10
300.9808047377393
 20
673.0921007148629
 30
0.0
 40
2.850490999999998
100
AcDbArc
 50
347.7603999999987
 51
12.23960000000143
1001
AUSTER_ANSICHT
1002
{
1000
Det03
1002
}
1001
AUSTER_FOLIE
1002
{
1000
NSB01341_3RS10_24POL
1002
}
  0
ARC
  5
AECF
330
AA16
100
AcDbEntity
  8
10000_FRONT
  6
Continuous
 62
     7
370
    15
100
AcDbCircle
 39
0.25
 10
300.980804737739
 20
604.892100714863
 30
0.0
 40
1.85
100
AcDbArc
 50
73.83654999999653
 51
106.1634000000003
1001
AUSTER_ANSICHT
1002
{
1000
Det03
1002
}
1001
AUSTER_FOLIE
1002
{
1000
NSB01341_3RS10_24POL
1002
}
  0
LINE
  5
AED0
330
AA16
100
AcDbEntity
  8
10000_FRONT
  6
Continuous
 62
     7
370
    15
100
AcDbLine
 39
0.25
 10
300.465804737739
 20
605.6767007148629
 30
0.0
 11
300.465804737739
 21
605.4965007148626
 31
0.0
1001
AUSTER_ANSICHT
1002
{
1000
Det03
1002
}
1001
AUSTER_FOLIE
1002
{
1000
NSB01341_3RS10_24POL
1002
}
  0
LINE
  5
AED1
330
AA16
100
AcDbEntity
  8
10000_FRONT
  6
Continuous
 62
     7
370
    15
100
AcDbLine
 39
0.25
 10
301.4958047377389
 20
605.6767007148629
 30
0.0
 11
301.4958047377389
 21
605.4965007148626
 31
0.0
1001
AUSTER_ANSICHT
1002
{
1000
Det03
1002
}
1001
AUSTER_FOLIE
1002
{
1000
NSB01341_3RS10_24POL
1002
}
  0
LINE
  5
AED2
330
AA16
100
AcDbEntity
  8
10000_FRONT
  6
Continuous
 62
     7
370
    15
100
AcDbLine
 39
0.25
 10
301.4958047377389
 20
605.6767007148629
 30
0.0
 11
301.4958047377389
 21
606.6690007148626
 31
0.0
1001
AUSTER_ANSICHT
1002
{
1000
Det03
1002
}
1001
AUSTER_FOLIE
1002
{
1000
NSB01341_3RS10_24POL
1002
}
  0
LINE
  5
AED3
330
AA16
100
AcDbEntity
  8
10000_FRONT
  6
Continuous
 62
     7
370
    15
100
AcDbLine
 39
0.25
 10
300.465804737739
 20
606.6690007148626
 30
0.0
 11
300.465804737739
 21
605.6767007148629
 31
0.0
1001
AUSTER_ANSICHT
1002
{
1000
Det03
1002
}
1001
AUSTER_FOLIE
1002
{
1000
NSB01341_3RS10_24POL
1002
}
  0
LINE
  5
AED4
330
AA16
100
AcDbEntity
  8
10000_FRONT
  6
Continuous
 62
     7
370
    15
100
AcDbLine
 39
0.25
 10
300.465804737739
 20
605.4965007148626
 30
0.0
 11
298.1951047377389
 21
605.4965007148626
 31
0.0
1001
AUSTER_ANSICHT
1002
{
1000
Det03
1002
}
1001
AUSTER_FOLIE
1002
{
1000
NSB01341_3RS10_24POL
1002
}
  0
LINE
  5
AED5
330
AA16
100
AcDbEntity
  8
10000_FRONT
  6
Continuous
 62
     7
370
    15
100
AcDbLine
 39
0.25
 10
303.766504737739
 20
605.4965007148626
 30
0.0
 11
301.4958047377389
 21
605.4965007148626
 31
0.0
1001
AUSTER_ANSICHT
1002
{
1000
Det03
1002
}
1001
AUSTER_FOLIE
1002
{
1000
NSB01341_3RS10_24POL
1002
}
  0
ARC
  5
AED6
330
AA16
100
AcDbEntity
  8
10000_FRONT
  6
Continuous
 62
     7
370
    15
100
AcDbCircle
 39
0.25
 10
293.780804737739
 20
604.892100714863
 30
0.0
 40
1.85
100
AcDbArc
 50
73.83654999999653
 51
106.1634000000003
1001
AUSTER_ANSICHT
1002
{
1000
Det03
1002
}
1001
AUSTER_FOLIE
1002
{
1000
NSB01341_3RS10_24POL
1002
}
  0
LINE
  5
AED7
330
AA16
100
AcDbEntity
  8
10000_FRONT
  6
Continuous
 62
     7
370
    15
100
AcDbLine
 39
0.25
 10
293.2658047377389
 20
605.6767007148629
 30
0.0
 11
293.2658047377389
 21
605.4965007148626
 31
0.0
1001
AUSTER_ANSICHT
1002
{
1000
Det03
1002
}
1001
AUSTER_FOLIE
1002
{
1000
NSB01341_3RS10_24POL
1002
}
  0
LINE
  5
AED8
330
AA16
100
AcDbEntity
  8
10000_FRONT
  6
Continuous
 62
     7
370
    15
100
AcDbLine
 39
0.25
 10
294.2958047377392
 20
605.6767007148629
 30
0.0
 11
294.2958047377392
 21
605.4965007148626
 31
0.0
1001
AUSTER_ANSICHT
1002
{
1000
Det03
1002
}
1001
AUSTER_FOLIE
1002
{
1000
NSB01341_3RS10_24POL
1002
}
  0
LINE
  5
AED9
330
AA16
100
AcDbEntity
  8
10000_FRONT
  6
Continuous
 62
     7
370
    15
100
AcDbLine
 39
0.25
 10
294.2958047377392
 20
605.6767007148629
 30
0.0
 11
294.2958047377392
 21
606.6690007148626
 31
0.0
1001
AUSTER_ANSICHT
1002
{
1000
Det03
1002
}
1001
AUSTER_FOLIE
1002
{
1000
NSB01341_3RS10_24POL
1002
}
  0
LINE
  5
AEDA
330
AA16
100
AcDbEntity
  8
10000_FRONT
  6
Continuous
 62
     7
370
    15
100
AcDbLine
 39
0.25
 10
293.2658047377389
 20
606.6690007148626
 30
0.0
 11
293.2658047377389
 21
605.6767007148629
 31
0.0
1001
AUSTER_ANSICHT
1002
{
1000
Det03
1002
}
1001
AUSTER_FOLIE
1002
{
1000
NSB01341_3RS10_24POL
1002
}
  0
LINE
  5
AEDB
330
AA16
100
AcDbEntity
  8
10000_FRONT
  6
Continuous
 62
     7
370
    15
100
AcDbLine
 39
0.25
 10
293.2658047377389
 20
605.4965007148626
 30
0.0
 11
290.9951047377388
 21
605.4965007148626
 31
0.0
1001
AUSTER_ANSICHT
1002
{
1000
Det03
1002
}
1001
AUSTER_FOLIE
1002
{
1000
NSB01341_3RS10_24POL
1002
}
  0
LINE
  5
AEDC
330
AA16
100
AcDbEntity
  8
10000_FRONT
  6
Continuous
 62
     7
370
    15
100
AcDbLine
 39
0.25
 10
296.5665047377391
 20
605.4965007148626
 30
0.0
 11
294.2958047377392
 21
605.4965007148626
 31
0.0
1001
AUSTER_ANSICHT
1002
{
1000
Det03
1002
}
1001
AUSTER_FOLIE
1002
{
1000
NSB01341_3RS10_24POL
1002
}
  0
LINE
  5
AEDD
330
AA16
100
AcDbEntity
  8
10000_FRONT
  6
Continuous
 62
     7
370
    15
100
AcDbLine
 39
0.25
 10
287.0958047377389
 20
605.6767007148629
 30
0.0
 11
287.0958047377389
 21
605.4965007148626
 31
0.0
1001
AUSTER_ANSICHT
1002
{
1000
Det03
1002
}
1001
AUSTER_FOLIE
1002
{
1000
NSB01341_3RS10_24POL
1002
}
  0
LINE
  5
AEDE
330
AA16
100
AcDbEntity
  8
10000_FRONT
  6
Continuous
 62
     7
370
    15
100
AcDbLine
 39
0.25
 10
287.0958047377389
 20
605.6767007148629
 30
0.0
 11
287.0958047377389
 21
606.6690007148626
 31
0.0
1001
AUSTER_ANSICHT
1002
{
1000
Det03
1002
}
1001
AUSTER_FOLIE
1002
{
1000
NSB01341_3RS10_24POL
1002
}
  0
LINE
  5
AEDF
330
AA16
100
AcDbEntity
  8
10000_FRONT
  6
Continuous
 62
     7
370
    15
100
AcDbLine
 39
0.25
 10
289.3665047377389
 20
605.4965007148626
 30
0.0
 11
287.0958047377389
 21
605.4965007148626
 31
0.0
1001
AUSTER_ANSICHT
1002
{
1000
Det03
1002
}
1001
AUSTER_FOLIE
1002
{
1000
NSB01341_3RS10_24POL
1002
}
  0
LINE
  5
AEE0
330
AA16
100
AcDbEntity
  8
10000_FRONT
  6
Continuous
 62
     7
370
    15
100
AcDbLine
 39
0.25
 10
283.7951047377393
 20
672.4878007148626
 30
0.0
 11
286.0658047377393
 21
672.4878007148626
 31
0.0
1001
AUSTER_ANSICHT
1002
{
1000
Det03
1002
}
1001
AUSTER_FOLIE
1002
{
1000
NSB01341_3RS10_24POL
1002
}
  0
LINE
  5
AEE1
330
AA16
100
AcDbEntity
  8
10000_FRONT
  6
Continuous
 62
     7
370
    15
100
AcDbLine
 39
0.25
 10
286.0658047377393
 20
673.6965007148627
 30
0.0
 11
283.7951047377393
 21
673.6965007148627
 31
0.0
1001
AUSTER_ANSICHT
1002
{
1000
Det03
1002
}
1001
AUSTER_FOLIE
1002
{
1000
NSB01341_3RS10_24POL
1002
}
  0
LINE
  5
AEE2
330
AA16
100
AcDbEntity
  8
10000_FRONT
  6
Continuous
 62
     7
370
    15
100
AcDbLine
 39
0.25
 10
286.0658047377393
 20
674.8690007148627
 30
0.0
 11
286.0658047377393
 21
673.8767007148627
 31
0.0
1001
AUSTER_ANSICHT
1002
{
1000
Det03
1002
}
1001
AUSTER_FOLIE
1002
{
1000
NSB01341_3RS10_24POL
1002
}
  0
LINE
  5
AEE3
330
AA16
100
AcDbEntity
  8
10000_FRONT
  6
Continuous
 62
     7
370
    15
100
AcDbLine
 39
0.25
 10
286.0658047377393
 20
672.3076007148629
 30
0.0
 11
286.0658047377393
 21
671.3153007148626
 31
0.0
1001
AUSTER_ANSICHT
1002
{
1000
Det03
1002
}
1001
AUSTER_FOLIE
1002
{
1000
NSB01341_3RS10_24POL
1002
}
  0
LINE
  5
AEE4
330
AA16
100
AcDbEntity
  8
10000_FRONT
  6
Continuous
 62
     7
370
    15
100
AcDbLine
 39
0.25
 10
286.0658047377393
 20
673.8767007148627
 30
0.0
 11
286.0658047377393
 21
673.6965007148627
 31
0.0
1001
AUSTER_ANSICHT
1002
{
1000
Det03
1002
}
1001
AUSTER_FOLIE
1002
{
1000
NSB01341_3RS10_24POL
1002
}
  0
LINE
  5
AEE5
330
AA16
100
AcDbEntity
  8
10000_FRONT
  6
Continuous
 62
     7
370
    15
100
AcDbLine
 39
0.25
 10
286.0658047377393
 20
672.3076007148629
 30
0.0
 11
286.0658047377393
 21
672.4878007148626
 31
0.0
1001
AUSTER_ANSICHT
1002
{
1000
Det03
1002
}
1001
AUSTER_FOLIE
1002
{
1000
NSB01341_3RS10_24POL
1002
}
  0
ARC
  5
AEE6
330
AA16
100
AcDbEntity
  8
10000_FRONT
  6
Continuous
 62
     7
370
    15
100
AcDbCircle
 39
0.25
 10
286.5808047377392
 20
673.0921007148629
 30
0.0
 40
2.850490999999998
100
AcDbArc
 50
167.7603999999986
 51
192.2396000000014
1001
AUSTER_ANSICHT
1002
{
1000
Det03
1002
}
1001
AUSTER_FOLIE
1002
{
1000
NSB01341_3RS10_24POL
1002
}
  0
LINE
  5
AEE7
330
AA16
100
AcDbEntity
  8
10000_FRONT
  6
Continuous
 62
     7
370
    15
100
AcDbLine
 39
0.25
 10
286.0658047377391
 20
605.6767007148629
 30
0.0
 11
286.0658047377391
 21
605.4965007148626
 31
0.0
1001
AUSTER_ANSICHT
1002
{
1000
Det03
1002
}
1001
AUSTER_FOLIE
1002
{
1000
NSB01341_3RS10_24POL
1002
}
  0
LINE
  5
AEE8
330
AA16
100
AcDbEntity
  8
10000_FRONT
  6
Continuous
 62
     7
370
    15
100
AcDbLine
 39
0.25
 10
286.0658047377391
 20
606.6690007148626
 30
0.0
 11
286.0658047377391
 21
605.6767007148629
 31
0.0
1001
AUSTER_ANSICHT
1002
{
1000
Det03
1002
}
1001
AUSTER_FOLIE
1002
{
1000
NSB01341_3RS10_24POL
1002
}
  0
LINE
  5
AEE9
330
AA16
100
AcDbEntity
  8
10000_FRONT
  6
Continuous
 62
     7
370
    15
100
AcDbLine
 39
0.25
 10
286.0658047377391
 20
605.4965007148626
 30
0.0
 11
283.7951047377392
 21
605.4965007148626
 31
0.0
1001
AUSTER_ANSICHT
1002
{
1000
Det03
1002
}
1001
AUSTER_FOLIE
1002
{
1000
NSB01341_3RS10_24POL
1002
}
  0
CIRCLE
  5
AEEA
330
AA16
100
AcDbEntity
  8
10000_FRONT
  6
Continuous
 62
     7
370
    15
100
AcDbCircle
 39
0.25
 10
286.5808047377392
 20
673.0921007148629
 30
0.0
 40
3.1
1001
AUSTER_ANSICHT
1002
{
1000
Det03
1002
}
1001
AUSTER_FOLIE
1002
{
1000
NSB01341_3RS10_24POL
1002
}
  0
ARC
  5
AEEB
330
AA16
100
AcDbEntity
  8
10000_FRONT
  6
Continuous
 62
     7
370
    15
100
AcDbCircle
 39
0.25
 10
286.5808047377392
 20
673.0921007148629
 30
0.0
 40
1.85
100
AcDbArc
 50
73.83654999999653
 51
106.1634000000003
1001
AUSTER_ANSICHT
1002
{
1000
Det03
1002
}
1001
AUSTER_FOLIE
1002
{
1000
NSB01341_3RS10_24POL
1002
}
  0
ARC
  5
AEEC
330
AA16
100
AcDbEntity
  8
10000_FRONT
  6
Continuous
 62
     7
370
    15
100
AcDbCircle
 39
0.25
 10
286.5808047377392
 20
673.0921007148629
 30
0.0
 40
1.85
100
AcDbArc
 50
253.8365999999997
 51
286.1634000000003
1001
AUSTER_ANSICHT
1002
{
1000
Det03
1002
}
1001
AUSTER_FOLIE
1002
{
1000
NSB01341_3RS10_24POL
1002
}
  0
ARC
  5
AEED
330
AA16
100
AcDbEntity
  8
10000_FRONT
  6
Continuous
 62
     7
370
    15
100
AcDbCircle
 39
0.25
 10
286.580804737739
 20
604.892100714863
 30
0.0
 40
1.85
100
AcDbArc
 50
73.83654999999653
 51
106.1634000000003
1001
AUSTER_ANSICHT
1002
{
1000
Det03
1002
}
1001
AUSTER_FOLIE
1002
{
1000
NSB01341_3RS10_24POL
1002
}
  0
ARC
  5
AEEE
330
AA16
100
AcDbEntity
  8
10000_FRONT
  6
Continuous
 62
     7
370
    50
100
AcDbCircle
 10
304.830804737739
 20
597.8921007148628
 30
0.0
 40
0.2
100
AcDbArc
 50
270.0
 51
0.0
  0
LINE
  5
AEEF
330
AA16
100
AcDbEntity
  8
10000_FRONT
  6
Continuous
 62
     7
370
    50
100
AcDbLine
 10
304.830804737739
 20
597.6921007148627
 30
0.0
 11
304.830804737739
 21
597.6921007148627
 31
0.0
  0
ARC
  5
AEF0
330
AA16
100
AcDbEntity
  8
10000_FRONT
  6
Continuous
 62
     7
370
    50
100
AcDbCircle
 10
304.830804737739
 20
597.8921007148628
 30
0.0
 40
0.2
100
AcDbArc
 50
270.0
 51
0.0
  0
LINE
  5
AEF1
330
AA16
100
AcDbEntity
  8
10000_FRONT
  6
Continuous
 62
     7
370
    50
100
AcDbLine
 10
304.830804737739
 20
597.6921007148627
 30
0.0
 11
304.830804737739
 21
597.6921007148627
 31
0.0
  0
LINE
  5
AEF2
330
AA16
100
AcDbEntity
  8
10000_FRONT
  6
Continuous
 62
     7
370
    50
100
AcDbLine
 10
298.780804737739
 20
598.1921007148629
 30
0.0
 11
303.1808047377392
 21
598.1921007148629
 31
0.0
  0
LINE
  5
AEF3
330
AA16
100
AcDbEntity
  8
10000_FRONT
  6
Continuous
 62
     7
370
    50
100
AcDbLine
 10
298.780804737739
 20
598.1921007148629
 30
0.0
 11
303.1808047377392
 21
598.1921007148629
 31
0.0
  0
LINE
  5
AEF4
330
AA16
100
AcDbEntity
  8
10000_FRONT
  6
Continuous
 62
     7
370
    50
100
AcDbLine
 10
295.9808047377391
 20
597.6921007148627
 30
0.0
 11
298.780804737739
 21
597.6921007148627
 31
0.0
  0
LINE
  5
AEF6
330
AA16
100
AcDbEntity
  8
10000_FRONT
  6
Continuous
 62
     7
370
    50
100
AcDbLine
 10
298.780804737739
 20
597.6921007148627
 30
0.0
 11
298.780804737739
 21
598.1921007148629
 31
0.0
  0
LINE
  5
AEF8
330
AA16
100
AcDbEntity
  8
10000_FRONT
  6
Continuous
 62
     7
370
    50
100
AcDbLine
 10
295.9808047377391
 20
598.1921007148629
 30
0.0
 11
295.9808047377391
 21
597.6921007148627
 31
0.0
  0
LINE
  5
AEFA
330
AA16
100
AcDbEntity
  8
10000_FRONT
  6
Continuous
 62
     7
370
    50
100
AcDbLine
 10
291.580804737739
 20
597.6921007148627
 30
0.0
 11
291.580804737739
 21
598.1921007148629
 31
0.0
  0
LINE
  5
AEFB
330
AA16
100
AcDbEntity
  8
10000_FRONT
  6
Continuous
 62
     7
370
    50
100
AcDbLine
 10
291.580804737739
 20
598.1921007148629
 30
0.0
 11
295.9808047377391
 21
598.1921007148629
 31
0.0
  0
LINE
  5
AF05
330
AA16
100
AcDbEntity
  8
10000_FRONT
  6
Continuous
 62
     7
370
    50
100
AcDbLine
 10
303.1808047377392
 20
598.1921007148629
 30
0.0
 11
303.1808047377392
 21
597.6921007148627
 31
0.0
  0
LINE
  5
AF06
330
AA16
100
AcDbEntity
  8
10000_FRONT
  6
Continuous
 62
     7
370
    50
100
AcDbLine
 10
303.1808047377392
 20
597.6921007148627
 30
0.0
 11
303.1808047377392
 21
597.6921007148627
 31
0.0
  0
LINE
  5
AF09
330
AA16
100
AcDbEntity
  8
10000_FRONT
  6
Continuous
 62
     7
370
    50
100
AcDbLine
 10
303.1808047377392
 20
597.6921007148627
 30
0.0
 11
303.1808047377392
 21
597.6921007148627
 31
0.0
  0
LINE
  5
AF0E
330
AA16
100
AcDbEntity
  8
10000_FRONT
  6
Continuous
 62
     7
370
    50
100
AcDbLine
 10
282.730804737739
 20
597.6921007148627
 30
0.0
 11
283.330804737739
 21
597.6921007148627
 31
0.0
  0
ARC
  5
AF0F
330
AA16
100
AcDbEntity
  8
10000_FRONT
  6
Continuous
 62
     7
370
    50
100
AcDbCircle
 10
282.730804737739
 20
597.8921007148628
 30
0.0
 40
0.2
100
AcDbArc
 50
180.0
 51
270.0004400000052
  0
LINE
  5
AF10
330
AA16
100
AcDbEntity
  8
10000_FRONT
  6
Continuous
 62
     7
370
    50
100
AcDbLine
 10
282.730804737739
 20
597.6921007148627
 30
0.0
 11
284.3808047377389
 21
597.6921007148627
 31
0.0
  0
LINE
  5
AF12
330
AA16
100
AcDbEntity
  8
10000_FRONT
  6
Continuous
 62
     7
370
    50
100
AcDbLine
 10
288.780804737739
 20
598.1921007148629
 30
0.0
 11
288.780804737739
 21
597.6921007148627
 31
0.0
  0
LINE
  5
AF17
330
AA16
100
AcDbEntity
  8
10000_FRONT
  6
Continuous
 62
     7
370
    50
100
AcDbLine
 10
284.3808047377389
 20
597.6921007148627
 30
0.0
 11
284.3808047377389
 21
598.1921007148629
 31
0.0
  0
LINE
  5
AF1A
330
AA16
100
AcDbEntity
  8
10000_FRONT
  6
Continuous
 62
     7
370
    50
100
AcDbLine
 10
284.3808047377389
 20
598.1921007148629
 30
0.0
 11
288.780804737739
 21
598.1921007148629
 31
0.0
  0
LINE
  5
AF1C
330
AA16
100
AcDbEntity
  8
10000_FRONT
  6
Continuous
 62
     7
370
    50
100
AcDbLine
 10
288.780804737739
 20
597.6921007148627
 30
0.0
 11
291.580804737739
 21
597.6921007148627
 31
0.0
  0
LINE
  5
AF1D
330
AA16
100
AcDbEntity
  8
10000_FRONT
  6
Continuous
 62
     7
370
    50
100
AcDbLine
 10
288.780804737739
 20
597.6921007148627
 30
0.0
 11
291.580804737739
 21
597.6921007148627
 31
0.0
  0
LINE
  5
AF1E
330
AA16
100
AcDbEntity
  8
10000_FRONT
  6
Continuous
 62
     7
370
    50
100
AcDbLine
 10
303.1808047377392
 20
597.6921007148627
 30
0.0
 11
304.830804737739
 21
597.6921007148627
 31
0.0
  0
ARC
  5
AF20
330
AA16
100
AcDbEntity
  8
10000_FRONT
  6
Continuous
 62
     7
370
    15
100
AcDbCircle
 39
0.25
 10
300.980804737739
 20
604.892100714863
 30
0.0
 40
1.85
100
AcDbArc
 50
253.8365999999997
 51
286.1634000000003
1001
AUSTER_ANSICHT
1002
{
1000
Det03
1002
}
1001
AUSTER_FOLIE
1002
{
1000
NSB01341_3RS10_24POL
1002
}
  0
LINE
  5
AF21
330
AA16
100
AcDbEntity
  8
10000_FRONT
  6
Continuous
 62
     7
370
    15
100
AcDbLine
 39
0.25
 10
300.465804737739
 20
604.1076007148627
 30
0.0
 11
300.465804737739
 21
604.2878007148629
 31
0.0
1001
AUSTER_ANSICHT
1002
{
1000
Det03
1002
}
1001
AUSTER_FOLIE
1002
{
1000
NSB01341_3RS10_24POL
1002
}
  0
LINE
  5
AF22
330
AA16
100
AcDbEntity
  8
10000_FRONT
  6
Continuous
 62
     7
370
    15
100
AcDbLine
 39
0.25
 10
301.4958047377389
 20
604.1076007148627
 30
0.0
 11
301.4958047377389
 21
604.2878007148629
 31
0.0
1001
AUSTER_ANSICHT
1002
{
1000
Det03
1002
}
1001
AUSTER_FOLIE
1002
{
1000
NSB01341_3RS10_24POL
1002
}
  0
LINE
  5
AF23
330
AA16
100
AcDbEntity
  8
10000_FRONT
  6
Continuous
 62
     7
370
    15
100
AcDbLine
 39
0.25
 10
300.465804737739
 20
604.1076007148627
 30
0.0
 11
300.465804737739
 21
603.1153007148629
 31
0.0
1001
AUSTER_ANSICHT
1002
{
1000
Det03
1002
}
1001
AUSTER_FOLIE
1002
{
1000
NSB01341_3RS10_24POL
1002
}
  0
LINE
  5
AF24
330
AA16
100
AcDbEntity
  8
10000_FRONT
  6
Continuous
 62
     7
370
    15
100
AcDbLine
 39
0.25
 10
301.4958047377389
 20
603.1153007148629
 30
0.0
 11
301.4958047377389
 21
604.1076007148627
 31
0.0
1001
AUSTER_ANSICHT
1002
{
1000
Det03
1002
}
1001
AUSTER_FOLIE
1002
{
1000
NSB01341_3RS10_24POL
1002
}
  0
LINE
  5
AF25
330
AA16
100
AcDbEntity
  8
10000_FRONT
  6
Continuous
 62
     7
370
    15
100
AcDbLine
 39
0.25
 10
301.4958047377389
 20
604.2878007148629
 30
0.0
 11
303.766504737739
 21
604.2878007148629
 31
0.0
1001
AUSTER_ANSICHT
1002
{
1000
Det03
1002
}
1001
AUSTER_FOLIE
1002
{
1000
NSB01341_3RS10_24POL
1002
}
  0
LINE
  5
AF26
330
AA16
100
AcDbEntity
  8
10000_FRONT
  6
Continuous
 62
     7
370
    15
100
AcDbLine
 39
0.25
 10
298.1951047377389
 20
604.2878007148629
 30
0.0
 11
300.465804737739
 21
604.2878007148629
 31
0.0
1001
AUSTER_ANSICHT
1002
{
1000
Det03
1002
}
1001
AUSTER_FOLIE
1002
{
1000
NSB01341_3RS10_24POL
1002
}
  0
ARC
  5
AF27
330
AA16
100
AcDbEntity
  8
10000_FRONT
  6
Continuous
 62
     7
370
    15
100
AcDbCircle
 39
0.25
 10
293.780804737739
 20
604.892100714863
 30
0.0
 40
1.85
100
AcDbArc
 50
253.8365999999997
 51
286.1634000000003
1001
AUSTER_ANSICHT
1002
{
1000
Det03
1002
}
1001
AUSTER_FOLIE
1002
{
1000
NSB01341_3RS10_24POL
1002
}
  0
LINE
  5
AF28
330
AA16
100
AcDbEntity
  8
10000_FRONT
  6
Continuous
 62
     7
370
    15
100
AcDbLine
 39
0.25
 10
293.2658047377389
 20
604.1076007148627
 30
0.0
 11
293.2658047377389
 21
604.2878007148629
 31
0.0
1001
AUSTER_ANSICHT
1002
{
1000
Det03
1002
}
1001
AUSTER_FOLIE
1002
{
1000
NSB01341_3RS10_24POL
1002
}
  0
LINE
  5
AF29
330
AA16
100
AcDbEntity
  8
10000_FRONT
  6
Continuous
 62
     7
370
    15
100
AcDbLine
 39
0.25
 10
294.2958047377392
 20
604.1076007148627
 30
0.0
 11
294.2958047377392
 21
604.2878007148629
 31
0.0
1001
AUSTER_ANSICHT
1002
{
1000
Det03
1002
}
1001
AUSTER_FOLIE
1002
{
1000
NSB01341_3RS10_24POL
1002
}
  0
LINE
  5
AF2A
330
AA16
100
AcDbEntity
  8
10000_FRONT
  6
Continuous
 62
     7
370
    15
100
AcDbLine
 39
0.25
 10
293.2658047377389
 20
604.1076007148627
 30
0.0
 11
293.2658047377389
 21
603.1153007148629
 31
0.0
1001
AUSTER_ANSICHT
1002
{
1000
Det03
1002
}
1001
AUSTER_FOLIE
1002
{
1000
NSB01341_3RS10_24POL
1002
}
  0
LINE
  5
AF2B
330
AA16
100
AcDbEntity
  8
10000_FRONT
  6
Continuous
 62
     7
370
    15
100
AcDbLine
 39
0.25
 10
294.2958047377392
 20
603.1153007148629
 30
0.0
 11
294.2958047377392
 21
604.1076007148627
 31
0.0
1001
AUSTER_ANSICHT
1002
{
1000
Det03
1002
}
1001
AUSTER_FOLIE
1002
{
1000
NSB01341_3RS10_24POL
1002
}
  0
LINE
  5
AF2C
330
AA16
100
AcDbEntity
  8
10000_FRONT
  6
Continuous
 62
     7
370
    15
100
AcDbLine
 39
0.25
 10
294.2958047377392
 20
604.2878007148629
 30
0.0
 11
296.5665047377391
 21
604.2878007148629
 31
0.0
1001
AUSTER_ANSICHT
1002
{
1000
Det03
1002
}
1001
AUSTER_FOLIE
1002
{
1000
NSB01341_3RS10_24POL
1002
}
  0
LINE
  5
AF2D
330
AA16
100
AcDbEntity
  8
10000_FRONT
  6
Continuous
 62
     7
370
    15
100
AcDbLine
 39
0.25
 10
290.9951047377388
 20
604.2878007148629
 30
0.0
 11
293.2658047377389
 21
604.2878007148629
 31
0.0
1001
AUSTER_ANSICHT
1002
{
1000
Det03
1002
}
1001
AUSTER_FOLIE
1002
{
1000
NSB01341_3RS10_24POL
1002
}
  0
LINE
  5
AF2E
330
AA16
100
AcDbEntity
  8
10000_FRONT
  6
Continuous
 62
     7
370
    15
100
AcDbLine
 39
0.25
 10
287.0958047377389
 20
604.1076007148627
 30
0.0
 11
287.0958047377389
 21
604.2878007148629
 31
0.0
1001
AUSTER_ANSICHT
1002
{
1000
Det03
1002
}
1001
AUSTER_FOLIE
1002
{
1000
NSB01341_3RS10_24POL
1002
}
  0
LINE
  5
AF2F
330
AA16
100
AcDbEntity
  8
10000_FRONT
  6
Continuous
 62
     7
370
    15
100
AcDbLine
 39
0.25
 10
287.0958047377389
 20
603.1153007148629
 30
0.0
 11
287.0958047377389
 21
604.1076007148627
 31
0.0
1001
AUSTER_ANSICHT
1002
{
1000
Det03
1002
}
1001
AUSTER_FOLIE
1002
{
1000
NSB01341_3RS10_24POL
1002
}
  0
LINE
  5
AF30
330
AA16
100
AcDbEntity
  8
10000_FRONT
  6
Continuous
 62
     7
370
    15
100
AcDbLine
 39
0.25
 10
287.0958047377389
 20
604.2878007148629
 30
0.0
 11
289.3665047377389
 21
604.2878007148629
 31
0.0
1001
AUSTER_ANSICHT
1002
{
1000
Det03
1002
}
1001
AUSTER_FOLIE
1002
{
1000
NSB01341_3RS10_24POL
1002
}
  0
LINE
  5
AF31
330
AA16
100
AcDbEntity
  8
10000_FRONT
  6
Continuous
 62
     7
370
    15
100
AcDbLine
 39
0.25
 10
286.0658047377391
 20
604.1076007148627
 30
0.0
 11
286.0658047377391
 21
604.2878007148629
 31
0.0
1001
AUSTER_ANSICHT
1002
{
1000
Det03
1002
}
1001
AUSTER_FOLIE
1002
{
1000
NSB01341_3RS10_24POL
1002
}
  0
LINE
  5
AF32
330
AA16
100
AcDbEntity
  8
10000_FRONT
  6
Continuous
 62
     7
370
    15
100
AcDbLine
 39
0.25
 10
286.0658047377391
 20
604.1076007148627
 30
0.0
 11
286.0658047377391
 21
603.1153007148629
 31
0.0
1001
AUSTER_ANSICHT
1002
{
1000
Det03
1002
}
1001
AUSTER_FOLIE
1002
{
1000
NSB01341_3RS10_24POL
1002
}
  0
LINE
  5
AF33
330
AA16
100
AcDbEntity
  8
10000_FRONT
  6
Continuous
 62
     7
370
    15
100
AcDbLine
 39
0.25
 10
283.7951047377392
 20
604.2878007148629
 30
0.0
 11
286.0658047377391
 21
604.2878007148629
 31
0.0
1001
AUSTER_ANSICHT
1002
{
1000
Det03
1002
}
1001
AUSTER_FOLIE
1002
{
1000
NSB01341_3RS10_24POL
1002
}
  0
ARC
  5
AF34
330
AA16
100
AcDbEntity
  8
10000_FRONT
  6
Continuous
 62
     7
370
    15
100
AcDbCircle
 39
0.25
 10
286.580804737739
 20
604.892100714863
 30
0.0
 40
1.85
100
AcDbArc
 50
253.8365999999997
 51
286.1634000000003
1001
AUSTER_ANSICHT
1002
{
1000
Det03
1002
}
1001
AUSTER_FOLIE
1002
{
1000
NSB01341_3RS10_24POL
1002
}
  0
CIRCLE
  5
AF35
330
AA16
100
AcDbEntity
  8
10000_FRONT
  6
Continuous
 62
     7
370
    15
100
AcDbCircle
 39
0.25
 10
300.980804737739
 20
604.892100714863
 30
0.0
 40
3.1
1001
AUSTER_ANSICHT
1002
{
1000
Det03
1002
}
1001
AUSTER_FOLIE
1002
{
1000
NSB01341_3RS10_24POL
1002
}
  0
ARC
  5
AF36
330
AA16
100
AcDbEntity
  8
10000_FRONT
  6
Continuous
 62
     7
370
    15
100
AcDbCircle
 39
0.25
 10
300.980804737739
 20
604.892100714863
 30
0.0
 40
2.850490999999998
100
AcDbArc
 50
347.7603999999987
 51
12.23960000000143
1001
AUSTER_ANSICHT
1002
{
1000
Det03
1002
}
1001
AUSTER_FOLIE
1002
{
1000
NSB01341_3RS10_24POL
1002
}
  0
ARC
  5
AF37
330
AA16
100
AcDbEntity
  8
10000_FRONT
  6
Continuous
 62
     7
370
    15
100
AcDbCircle
 39
0.25
 10
300.980804737739
 20
604.892100714863
 30
0.0
 40
2.850490999999998
100
AcDbArc
 50
167.7603999999986
 51
192.2396000000014
1001
AUSTER_ANSICHT
1002
{
1000
Det03
1002
}
1001
AUSTER_FOLIE
1002
{
1000
NSB01341_3RS10_24POL
1002
}
  0
CIRCLE
  5
AF38
330
AA16
100
AcDbEntity
  8
10000_FRONT
  6
Continuous
 62
     7
370
    15
100
AcDbCircle
 39
0.25
 10
300.980804737739
 20
604.892100714863
 30
0.0
 40
3.1
1001
AUSTER_ANSICHT
1002
{
1000
Det03
1002
}
1001
AUSTER_FOLIE
1002
{
1000
NSB01341_3RS10_24POL
1002
}
  0
ARC
  5
AF39
330
AA16
100
AcDbEntity
  8
10000_FRONT
  6
Continuous
 62
     7
370
    15
100
AcDbCircle
 39
0.25
 10
293.780804737739
 20
604.892100714863
 30
0.0
 40
2.850490999999998
100
AcDbArc
 50
167.7603999999986
 51
192.2396000000014
1001
AUSTER_ANSICHT
1002
{
1000
Det03
1002
}
1001
AUSTER_FOLIE
1002
{
1000
NSB01341_3RS10_24POL
1002
}
  0
ARC
  5
AF3A
330
AA16
100
AcDbEntity
  8
10000_FRONT
  6
Continuous
 62
     7
370
    15
100
AcDbCircle
 39
0.25
 10
293.780804737739
 20
604.892100714863
 30
0.0
 40
2.850490999999998
100
AcDbArc
 50
347.7603999999987
 51
12.23960000000143
1001
AUSTER_ANSICHT
1002
{
1000
Det03
1002
}
1001
AUSTER_FOLIE
1002
{
1000
NSB01341_3RS10_24POL
1002
}
  0
CIRCLE
  5
AF3B
330
AA16
100
AcDbEntity
  8
10000_FRONT
  6
Continuous
 62
     7
370
    15
100
AcDbCircle
 39
0.25
 10
293.780804737739
 20
604.892100714863
 30
0.0
 40
3.1
1001
AUSTER_ANSICHT
1002
{
1000
Det03
1002
}
1001
AUSTER_FOLIE
1002
{
1000
NSB01341_3RS10_24POL
1002
}
  0
CIRCLE
  5
AF3C
330
AA16
100
AcDbEntity
  8
10000_FRONT
  6
Continuous
 62
     7
370
    15
100
AcDbCircle
 39
0.25
 10
293.780804737739
 20
604.892100714863
 30
0.0
 40
3.1
1001
AUSTER_ANSICHT
1002
{
1000
Det03
1002
}
1001
AUSTER_FOLIE
1002
{
1000
NSB01341_3RS10_24POL
1002
}
  0
ARC
  5
AF3D
330
AA16
100
AcDbEntity
  8
10000_FRONT
  6
Continuous
 62
     7
370
    15
100
AcDbCircle
 39
0.25
 10
286.580804737739
 20
604.892100714863
 30
0.0
 40
2.850490999999998
100
AcDbArc
 50
347.7603999999987
 51
12.23960000000143
1001
AUSTER_ANSICHT
1002
{
1000
Det03
1002
}
1001
AUSTER_FOLIE
1002
{
1000
NSB01341_3RS10_24POL
1002
}
  0
ARC
  5
AF3E
330
AA16
100
AcDbEntity
  8
10000_FRONT
  6
Continuous
 62
     7
370
    15
100
AcDbCircle
 39
0.25
 10
286.580804737739
 20
604.892100714863
 30
0.0
 40
2.850490999999998
100
AcDbArc
 50
167.7603999999986
 51
192.2396000000014
1001
AUSTER_ANSICHT
1002
{
1000
Det03
1002
}
1001
AUSTER_FOLIE
1002
{
1000
NSB01341_3RS10_24POL
1002
}
  0
CIRCLE
  5
AF3F
330
AA16
100
AcDbEntity
  8
10000_FRONT
  6
Continuous
 62
     7
370
    15
100
AcDbCircle
 39
0.25
 10
286.580804737739
 20
604.892100714863
 30
0.0
 40
3.1
1001
AUSTER_ANSICHT
1002
{
1000
Det03
1002
}
1001
AUSTER_FOLIE
1002
{
1000
NSB01341_3RS10_24POL
1002
}
  0
CIRCLE
  5
AF40
330
AA16
100
AcDbEntity
  8
10000_FRONT
  6
Continuous
 62
     7
370
    15
100
AcDbCircle
 39
0.25
 10
286.580804737739
 20
604.892100714863
 30
0.0
 40
3.1
1001
AUSTER_ANSICHT
1002
{
1000
Det03
1002
}
1001
AUSTER_FOLIE
1002
{
1000
NSB01341_3RS10_24POL
1002
}
  0
LINE
  5
AF42
330
AA16
100
AcDbEntity
  8
10000_FRONT
  6
Continuous
 62
     7
370
    50
100
AcDbLine
 10
305.030804737739
 20
597.8921007148628
 30
0.0
 11
305.0308047377389
 21
680.0921007148629
 31
0.0
  0
LINE
  5
AF43
330
AA16
100
AcDbEntity
  8
11000_Left
  6
HIDDEN
 62
     7
370
     9
100
AcDbLine
 10
444.9802208962971
 20
598.9856583514717
 30
0.0
 11
444.9802208962971
 21
606.9856583514718
 31
0.0
  0
LINE
  5
AF44
330
AA16
100
AcDbEntity
  8
11000_Left
  6
HIDDEN
 62
     7
370
     9
100
AcDbLine
 10
444.9802208962971
 20
606.9856583514718
 30
0.0
 11
442.9802208962971
 21
606.9856583514718
 31
0.0
  0
LINE
  5
AF45
330
AA16
100
AcDbEntity
  8
11000_Left
  6
HIDDEN
 62
     7
370
     9
100
AcDbLine
 10
442.9802208962971
 20
598.9856583514717
 30
0.0
 11
442.9802208962971
 21
606.9856583514718
 31
0.0
  0
LINE
  5
AF46
330
AA16
100
AcDbEntity
  8
11000_Left
  6
HIDDEN
 62
     7
370
     9
100
AcDbLine
 10
444.9802208962971
 20
681.5856583514718
 30
0.0
 11
444.9802208962971
 21
673.5856583514718
 31
0.0
  0
LINE
  5
AF47
330
AA16
100
AcDbEntity
  8
11000_Left
  6
HIDDEN
 62
     7
370
     9
100
AcDbLine
 10
444.9802208962971
 20
673.5856583514718
 30
0.0
 11
442.9802208962971
 21
673.5856583514718
 31
0.0
  0
LINE
  5
AF48
330
AA16
100
AcDbEntity
  8
11000_Left
  6
HIDDEN
 62
     7
370
     9
100
AcDbLine
 10
442.9802208962971
 20
681.5856583514718
 30
0.0
 11
442.9802208962971
 21
673.5856583514718
 31
0.0
  0
LINE
  5
AF49
330
AA16
100
AcDbEntity
  8
11000_Left
  6
Continuous
 62
     7
370
    15
100
AcDbLine
 10
458.0802208962971
 20
632.2856583514719
 30
0.0
 11
457.9802208962973
 21
632.2856583514719
 31
0.0
  0
ARC
  5
AF4A
330
AA16
100
AcDbEntity
  8
11000_Left
  6
Continuous
 62
     7
370
    50
100
AcDbCircle
 10
377.7802208962973
 20
623.0856583514718
 30
0.0
 40
0.3
100
AcDbArc
 50
270.0
 51
0.0
  0
LINE
  5
AF4B
330
AA16
100
AcDbEntity
  8
11000_Left
  6
Continuous
 62
     7
370
    13
100
AcDbLine
 10
379.0802208962972
 20
614.3856583514717
 30
0.0
 11
377.5802208962971
 21
614.3856583514717
 31
0.0
  0
LINE
  5
AF4C
330
AA16
100
AcDbEntity
  8
11000_Left
  6
Continuous
 62
     7
370
    15
100
AcDbLine
 10
379.0802208962972
 20
618.8856583514717
 30
0.0
 11
379.0802208962972
 21
614.3856583514717
 31
0.0
  0
LINE
  5
AF4D
330
AA16
100
AcDbEntity
  8
11000_Left
  6
Continuous
 62
     7
370
    15
100
AcDbLine
 10
377.5802208962971
 20
614.3856583514717
 30
0.0
 11
377.5802208962971
 21
618.8856583514717
 31
0.0
  0
LINE
  5
AF4E
330
AA16
100
AcDbEntity
  8
11000_Left
  6
Continuous
 62
     7
370
    13
100
AcDbLine
 10
377.5802208962971
 20
618.8856583514717
 30
0.0
 11
379.0802208962972
 21
618.8856583514717
 31
0.0
  0
LINE
  5
AF4F
330
AA16
100
AcDbEntity
  8
11000_Left
  6
Continuous
 62
     7
370
    50
100
AcDbLine
 10
377.7802208962973
 20
622.785658351472
 30
0.0
 11
377.2604108962974
 21
622.785658351472
 31
0.0
  0
LINE
  5
AF50
330
AA16
100
AcDbEntity
  8
11000_Left
  6
Continuous
 62
     7
370
    15
100
AcDbLine
 10
458.4302208962969
 20
612.985658351472
 30
0.0
 11
457.9802208962973
 21
613.4356583514718
 31
0.0
  0
LINE
  5
AF51
330
AA16
100
AcDbEntity
  8
11000_Left
  6
Continuous
 62
     7
370
    50
100
AcDbLine
 10
374.9796208962972
 20
624.1856583514718
 30
0.0
 11
373.1934308962972
 21
622.9349483514718
 31
0.0
  0
ARC
  5
AF52
330
AA16
100
AcDbEntity
  8
11000_Left
  6
Continuous
 62
     7
370
    50
100
AcDbCircle
 10
377.2604108962974
 20
623.0856583514718
 30
0.0
 40
0.3
100
AcDbArc
 50
195.0000000000007
 51
270.0
  0
LINE
  5
AF53
330
AA16
100
AcDbEntity
  8
11000_Left
  6
Continuous
 62
     7
370
    50
100
AcDbLine
 10
376.9706408962973
 20
623.0080083514718
 30
0.0
 11
376.6550908962972
 21
624.1856583514718
 31
0.0
  0
LINE
  5
AF54
330
AA16
100
AcDbEntity
  8
11000_Left
  6
Continuous
 62
     7
370
    50
100
AcDbLine
 10
372.9802208962972
 20
622.5253683514718
 30
0.0
 11
372.9802208962972
 21
604.535658351472
 31
0.0
  0
LINE
  5
AF55
330
AA16
100
AcDbEntity
  8
11000_Left
  6
Continuous
 62
     7
370
    40
100
AcDbLine
 10
372.9802208962972
 20
604.535658351472
 30
0.0
 11
372.9802208962972
 21
603.5356583514718
 31
0.0
  0
LINE
  5
AF56
330
AA16
100
AcDbEntity
  8
11000_Left
  6
Continuous
 62
     7
370
    50
100
AcDbLine
 10
376.6550908962972
 20
624.1856583514718
 30
0.0
 11
374.9796208962972
 21
624.1856583514718
 31
0.0
  0
LINE
  5
AF57
330
AA16
100
AcDbEntity
  8
11000_Left
  6
Continuous
 62
     7
370
    13
100
AcDbLine
 10
378.0802208962971
 20
632.2856583514719
 30
0.0
 11
378.0802208962971
 21
632.3856483514719
 31
0.0
  0
ARC
  5
AF59
330
AA16
100
AcDbEntity
  8
11000_Left
  6
Continuous
 62
     7
370
    50
100
AcDbCircle
 10
373.4802208962971
 20
622.5253683514718
 30
0.0
 40
0.5
100
AcDbArc
 50
124.9999999999974
 51
180.0
  0
LINE
  5
AF5A
330
AA16
100
AcDbEntity
  8
11000_Left
  6
Continuous
 62
     7
370
    15
100
AcDbLine
 10
457.9802208962973
 20
632.2856583514719
 30
0.0
 11
378.0802208962971
 21
632.2856583514719
 31
0.0
  0
LINE
  5
AF5B
330
AA16
100
AcDbEntity
  8
11000_Left
  6
Continuous
 62
     7
370
    15
100
AcDbLine
 10
457.9802208962973
 20
617.6356583514717
 30
0.0
 11
457.9802208962973
 21
632.2856583514719
 31
0.0
  0
LINE
  5
AF5C
330
AA16
100
AcDbEntity
  8
11000_Left
  6
Continuous
 62
     7
370
    40
100
AcDbLine
 10
422.9802208962971
 20
603.5356583514718
 30
0.0
 11
372.9802208962972
 21
603.5356583514718
 31
0.0
  0
LINE
  5
AF5D
330
AA16
100
AcDbEntity
  8
11000_Left
  6
Continuous
 62
     7
370
    13
100
AcDbLine
 10
402.9802208962971
 20
603.5356583514718
 30
0.0
 11
402.8802208962971
 21
603.5356583514718
 31
0.0
  0
LINE
  5
AF60
330
AA16
100
AcDbEntity
  8
11000_Left
  6
Continuous
 62
     7
370
    40
100
AcDbLine
 10
402.8802208962971
 20
677.0356583514718
 30
0.0
 11
402.9802208962971
 21
677.0356583514718
 31
0.0
  0
LINE
  5
AF61
330
AA16
100
AcDbEntity
  8
11000_Left
  6
Continuous
 62
     7
370
    50
100
AcDbLine
 10
372.9802208962972
 20
677.0356583514718
 30
0.0
 11
435.280220896297
 21
677.0356583514722
 31
0.0
  0
LINE
  5
AF62
330
AA16
100
AcDbEntity
  8
11000_Left
  6
Continuous
 62
     7
370
    15
100
AcDbLine
 10
458.6802208962973
 20
662.9356583514718
 30
0.0
 11
458.6802208962973
 21
667.5856583514717
 31
0.0
  0
LINE
  5
AF63
330
AA16
100
AcDbEntity
  8
11000_Left
  6
Continuous
 62
     7
370
    13
100
AcDbLine
 10
378.0802208962971
 20
677.0356583514719
 30
0.0
 11
378.0802208962971
 21
660.5356583514718
 31
0.0
  0
ARC
  5
AF64
330
AA16
100
AcDbEntity
  8
11000_Left
  6
Continuous
 62
     7
370
    50
100
AcDbCircle
 10
377.5802208962971
 20
660.5356583514718
 30
0.0
 40
0.5
100
AcDbArc
 50
0.0
 51
90.0
  0
LINE
  5
AF65
330
AA16
100
AcDbEntity
  8
11000_Left
  6
Continuous
 62
     7
370
    50
100
AcDbLine
 10
372.9802208962972
 20
677.0356583514718
 30
0.0
 11
372.9802208962972
 21
657.6356583514718
 31
0.0
  0
LINE
  5
AF67
330
AA16
100
AcDbEntity
  8
11000_Left
  6
Continuous
 62
     7
370
    13
100
AcDbLine
 10
372.9802208962972
 20
656.0856583514718
 30
0.0
 11
372.9802208962972
 21
657.6356583514718
 31
0.0
  0
LINE
  5
AF68
330
AA16
100
AcDbEntity
  8
11000_Left
  6
Continuous
 62
     7
370
    13
100
AcDbLine
 10
372.9802208962972
 20
656.0856583514718
 30
0.0
 11
374.4802208962972
 21
654.8856583514718
 31
0.0
  0
LINE
  5
AF69
330
AA16
100
AcDbEntity
  8
11000_Left
  6
Continuous
 62
     7
370
    50
100
AcDbLine
 10
375.0874008962971
 20
656.4356583514718
 30
0.0
 11
375.7802208962973
 21
657.6356583514718
 31
0.0
  0
LINE
  5
AF6A
330
AA16
100
AcDbEntity
  8
11000_Left
  6
Continuous
 62
     7
370
    50
100
AcDbLine
 10
375.7802208962973
 20
657.6356583514718
 30
0.0
 11
375.7802208962973
 21
660.5356583514718
 31
0.0
  0
ARC
  5
AF6B
330
AA16
100
AcDbEntity
  8
11000_Left
  6
Continuous
 62
     7
370
    50
100
AcDbCircle
 10
376.2802208962974
 20
660.5356583514718
 30
0.0
 40
0.5
100
AcDbArc
 50
90.0
 51
180.0
  0
LINE
  5
AF6C
330
AA16
100
AcDbEntity
  8
11000_Left
  6
Continuous
 62
     7
370
    50
100
AcDbLine
 10
372.9802208962972
 20
657.6356583514718
 30
0.0
 11
374.4802208962972
 21
656.4356583514718
 31
0.0
  0
LINE
  5
AF6D
330
AA16
100
AcDbEntity
  8
11000_Left
  6
Continuous
 62
     7
370
    50
100
AcDbLine
 10
374.4802208962972
 20
656.4356583514718
 30
0.0
 11
375.0874008962971
 21
656.4356583514718
 31
0.0
  0
LINE
  5
AF6E
330
AA16
100
AcDbEntity
  8
11000_Left
  6
Continuous
 62
     7
370
    50
100
AcDbLine
 10
376.2802208962974
 20
661.0356583514718
 30
0.0
 11
377.5802208962971
 21
661.0356583514718
 31
0.0
  0
LINE
  5
AF6F
330
AA16
100
AcDbEntity
  8
11000_Left
  6
Continuous
 62
     7
370
    13
100
AcDbLine
 10
376.2216208962972
 20
654.8856583514718
 30
0.0
 11
376.6802208962972
 21
656.385658351472
 31
0.0
  0
LINE
  5
AF70
330
AA16
100
AcDbEntity
  8
11000_Left
  6
Continuous
 62
     7
370
    13
100
AcDbLine
 10
377.4802208962972
 20
656.385658351472
 30
0.0
 11
378.0802208962971
 21
656.385658351472
 31
0.0
  0
LINE
  5
AF71
330
AA16
100
AcDbEntity
  8
11000_Left
  6
Continuous
 62
     7
370
    13
100
AcDbLine
 10
376.6802208962972
 20
656.385658351472
 30
0.0
 11
377.4802208962972
 21
656.385658351472
 31
0.0
  0
LINE
  5
AF72
330
AA16
100
AcDbEntity
  8
11000_Left
  6
Continuous
 62
     7
370
    13
100
AcDbLine
 10
374.4802208962972
 20
654.8856583514718
 30
0.0
 11
375.3802208962973
 21
654.8856583514718
 31
0.0
  0
LINE
  5
AF73
330
AA16
100
AcDbEntity
  8
11000_Left
  6
Continuous
 62
     7
370
    13
100
AcDbLine
 10
376.2216208962972
 20
654.8856583514718
 30
0.0
 11
375.3802208962973
 21
654.8856583514718
 31
0.0
  0
LINE
  5
AF74
330
AA16
100
AcDbEntity
  8
11000_Left
  6
Continuous
 62
     7
370
    15
100
AcDbLine
 10
428.3802208962971
 20
636.6856583514718
 30
0.0
 11
421.3802208962971
 21
636.6856583514718
 31
0.0
  0
LINE
  5
AF75
330
AA16
100
AcDbEntity
  8
11000_Left
  6
Continuous
 62
     7
370
    15
100
AcDbLine
 10
421.3802208962971
 20
636.6856583514718
 30
0.0
 11
421.3802208962971
 21
640.8856583514719
 31
0.0
  0
LINE
  5
AF76
330
AA16
100
AcDbEntity
  8
11000_Left
  6
Continuous
 62
     7
370
    15
100
AcDbLine
 10
428.3802208962971
 20
640.8856583514719
 30
0.0
 11
428.3802208962971
 21
636.6856583514718
 31
0.0
  0
LINE
  5
AF77
330
AA16
100
AcDbEntity
  8
11000_Left
  6
Continuous
 62
     7
370
    15
100
AcDbLine
 10
421.3802208962971
 20
640.8856583514719
 30
0.0
 11
428.3802208962971
 21
640.8856583514719
 31
0.0
  0
LINE
  5
AF78
330
AA16
100
AcDbEntity
  8
11000_Left
  6
Continuous
 62
     7
370
    15
100
AcDbLine
 10
457.9802208962973
 20
662.9356583514718
 30
0.0
 11
458.6802208962973
 21
662.9356583514718
 31
0.0
  0
LINE
  5
AF79
330
AA16
100
AcDbEntity
  8
11000_Left
  6
Continuous
 62
     7
370
    15
100
AcDbLine
 10
457.9802208962973
 20
632.3856583514717
 30
0.0
 11
457.9802208962973
 21
662.9356583514718
 31
0.0
  0
LINE
  5
AF7A
330
AA16
100
AcDbEntity
  8
11000_Left
  6
Continuous
 62
     7
370
    15
100
AcDbLine
 10
460.1802208962973
 20
655.6856583514718
 30
0.0
 11
460.1802208962973
 21
651.8856583514717
 31
0.0
  0
LINE
  5
AF7B
330
AA16
100
AcDbEntity
  8
11000_Left
  6
Continuous
 62
     7
370
    15
100
AcDbLine
 10
422.9802208962971
 20
607.4856583514717
 30
0.0
 11
422.9802208962971
 21
603.4856583514717
 31
0.0
  0
LINE
  5
AF7C
330
AA16
100
AcDbEntity
  8
11000_Left
  6
Continuous
 62
     7
370
    15
100
AcDbLine
 10
402.9802208962971
 20
607.4856583514717
 30
0.0
 11
422.9802208962971
 21
607.4856583514717
 31
0.0
  0
LINE
  5
AF7D
330
AA16
100
AcDbEntity
  8
11000_Left
  6
Continuous
 62
     7
370
    40
100
AcDbLine
 10
434.4802208962971
 20
603.4856583514717
 30
0.0
 11
422.9802208962971
 21
603.4856583514717
 31
0.0
  0
LINE
  5
AF7E
330
AA16
100
AcDbEntity
  8
11000_Left
  6
Continuous
 62
     7
370
    15
100
AcDbLine
 10
461.9802008962971
 20
655.785658351472
 30
0.0
 11
461.9802008962971
 21
651.785658351472
 31
0.0
  0
LINE
  5
AF7F
330
AA16
100
AcDbEntity
  8
11000_Left
  6
Continuous
 62
     7
370
    15
100
AcDbLine
 10
460.1802008962971
 20
655.785658351472
 30
0.0
 11
461.9802008962971
 21
655.785658351472
 31
0.0
  0
LINE
  5
AF80
330
AA16
100
AcDbEntity
  8
11000_Left
  6
Continuous
 62
     7
370
    15
100
AcDbLine
 10
460.1802008962971
 20
655.6856583514718
 30
0.0
 11
460.1802008962971
 21
655.785658351472
 31
0.0
  0
LINE
  5
AF81
330
AA16
100
AcDbEntity
  8
11000_Left
  6
Continuous
 62
     7
370
    15
100
AcDbLine
 10
460.1802008962971
 20
651.785658351472
 30
0.0
 11
460.1802008962971
 21
651.8856583514717
 31
0.0
  0
LINE
  5
AF82
330
AA16
100
AcDbEntity
  8
11000_Left
  6
Continuous
 62
     7
370
    15
100
AcDbLine
 10
461.9802008962971
 20
651.785658351472
 30
0.0
 11
460.1802008962971
 21
651.785658351472
 31
0.0
  0
LINE
  5
AF83
330
AA16
100
AcDbEntity
  8
11000_Left
  6
Continuous
 62
     7
370
    15
100
AcDbLine
 10
461.9802008962971
 20
628.7856583514718
 30
0.0
 11
461.9802008962971
 21
624.7856583514718
 31
0.0
  0
LINE
  5
AF84
330
AA16
100
AcDbEntity
  8
11000_Left
  6
Continuous
 62
     7
370
    15
100
AcDbLine
 10
460.1802008962971
 20
628.7856583514718
 30
0.0
 11
461.9802008962971
 21
628.7856583514718
 31
0.0
  0
LINE
  5
AF85
330
AA16
100
AcDbEntity
  8
11000_Left
  6
Continuous
 62
     7
370
    15
100
AcDbLine
 10
460.1802008962971
 20
624.7856583514718
 30
0.0
 11
460.1802008962971
 21
628.7856583514718
 31
0.0
  0
LINE
  5
AF86
330
AA16
100
AcDbEntity
  8
11000_Left
  6
Continuous
 62
     7
370
    15
100
AcDbLine
 10
461.9802008962971
 20
624.7856583514718
 30
0.0
 11
460.1802008962971
 21
624.7856583514718
 31
0.0
  0
LINE
  5
AF87
330
AA16
100
AcDbEntity
  8
11000_Left
  6
Continuous
 62
     7
370
    50
100
AcDbLine
 10
464.0802208962971
 20
681.385658351472
 30
0.0
 11
464.0802208962971
 21
599.1856583514718
 31
0.0
  0
LINE
  5
AF88
330
AA16
100
AcDbEntity
  8
11000_Left
  6
Continuous
 62
     7
370
    40
100
AcDbLine
 10
462.6802008962971
 20
598.9856583514717
 30
0.0
 11
462.6802208962973
 21
598.9856583514717
 31
0.0
  0
ARC
  5
AF89
330
AA16
100
AcDbEntity
  8
11000_Left
  6
Continuous
 62
     7
370
    40
100
AcDbCircle
 10
463.8802208962971
 20
599.1856583514718
 30
0.0
 40
0.2
100
AcDbArc
 50
269.9997700000029
 51
0.0
  0
LINE
  5
AF8A
330
AA16
100
AcDbEntity
  8
11000_Left
  6
Continuous
 62
     7
370
    15
100
AcDbLine
 10
451.7802208962971
 20
616.985658351472
 30
0.0
 11
451.7802208962971
 21
612.985658351472
 31
0.0
  0
LINE
  5
AF8B
330
AA16
100
AcDbEntity
  8
11000_Left
  6
Continuous
 62
     7
370
    15
100
AcDbLine
 10
431.7802208962971
 20
616.985658351472
 30
0.0
 11
451.7802208962971
 21
616.985658351472
 31
0.0
  0
ARC
  5
AF8C
330
AA16
100
AcDbEntity
  8
11000_Left
  6
Continuous
 62
     7
370
    40
100
AcDbCircle
 10
435.4802208962971
 20
599.1856583514718
 30
0.0
 40
0.2
100
AcDbArc
 50
180.0
 51
270.0
  0
LINE
  5
AF8E
330
AA16
100
AcDbEntity
  8
11000_Left
  6
Continuous
 62
     7
370
    15
100
AcDbLine
 10
464.0802208962971
 20
612.985658351472
 30
0.0
 11
451.7802208962971
 21
612.985658351472
 31
0.0
  0
LINE
  5
AF90
330
AA16
100
AcDbEntity
  8
11000_Left
  6
Continuous
 62
     7
370
    40
100
AcDbLine
 10
435.280220896297
 20
603.4856583514717
 30
0.0
 11
435.280220896297
 21
599.1856583514718
 31
0.0
  0
LINE
  5
AF91
330
AA16
100
AcDbEntity
  8
11000_Left
  6
Continuous
 62
     7
370
    40
100
AcDbLine
 10
462.6802208962973
 20
598.9856583514717
 30
0.0
 11
435.4802208962971
 21
598.9856583514717
 31
0.0
  0
LINE
  5
AF92
330
AA16
100
AcDbEntity
  8
11000_Left
  6
Continuous
 62
     7
370
    40
100
AcDbLine
 10
462.6802208962973
 20
598.9856583514717
 30
0.0
 11
463.2802208962971
 21
598.9856583514717
 31
0.0
  0
LINE
  5
AF93
330
AA16
100
AcDbEntity
  8
11000_Left
  6
Continuous
 62
     7
370
    40
100
AcDbLine
 10
463.2802208962971
 20
598.9856583514717
 30
0.0
 11
463.8802108962972
 21
598.9856583514717
 31
0.0
  0
LINE
  5
AF95
330
AA16
100
AcDbEntity
  8
11000_Left
  6
Continuous
 62
     7
370
    15
100
AcDbLine
 10
431.7802208962971
 20
663.5856583514717
 30
0.0
 11
451.7802208962971
 21
663.5856583514717
 31
0.0
  0
LINE
  5
AF96
330
AA16
100
AcDbEntity
  8
11000_Left
  6
Continuous
 62
     7
370
    15
100
AcDbLine
 10
451.7802208962971
 20
663.5856583514717
 30
0.0
 11
451.7802208962971
 21
667.5856583514717
 31
0.0
  0
ARC
  5
AF97
330
AA16
100
AcDbEntity
  8
11000_Left
  6
Continuous
 62
     7
370
    50
100
AcDbCircle
 10
463.8802208962971
 20
681.385658351472
 30
0.0
 40
0.2
100
AcDbArc
 50
0.0
 51
90.0004430000029
  0
ARC
  5
AF98
330
AA16
100
AcDbEntity
  8
11000_Left
  6
Continuous
 62
     7
370
    50
100
AcDbCircle
 10
435.4802208962971
 20
681.385658351472
 30
0.0
 40
0.2
100
AcDbArc
 50
90.0
 51
180.0
  0
LINE
  5
AF99
330
AA16
100
AcDbEntity
  8
11000_Left
  6
Continuous
 62
     7
370
    15
100
AcDbLine
 10
464.0802208962971
 20
667.5856583514717
 30
0.0
 11
451.7802208962971
 21
667.5856583514717
 31
0.0
  0
LINE
  5
AF9D
330
AA16
100
AcDbEntity
  8
11000_Left
  6
Continuous
 62
     7
370
    15
100
AcDbLine
 10
431.7802208962971
 20
663.5856583514717
 30
0.0
 11
431.7802208962971
 21
677.0356583514719
 31
0.0
  0
LINE
  5
AF9F
330
AA16
100
AcDbEntity
  8
11000_Left
  6
Continuous
 62
     7
370
    50
100
AcDbLine
 10
435.280220896297
 20
681.385658351472
 30
0.0
 11
435.280220896297
 21
677.0856583514718
 31
0.0
  0
LINE
  5
AFA3
330
AA16
100
AcDbEntity
  8
11000_Left
  6
Continuous
 62
     7
370
    50
100
AcDbLine
 10
463.8802193499353
 20
681.5856583514658
 30
0.0
 11
435.4802208962971
 21
681.585658351472
 31
0.0
  0
LINE
  5
AFA4
330
AA16
100
AcDbEntity
  8
11000_Left
  6
Continuous
 62
     7
370
    15
100
AcDbLine
 10
402.9802208962971
 20
673.0856583514718
 30
0.0
 11
422.9802208962971
 21
673.0856583514718
 31
0.0
  0
LINE
  5
AFA5
330
AA16
100
AcDbEntity
  8
11000_Left
  6
Continuous
 62
     7
370
    15
100
AcDbLine
 10
422.9802208962971
 20
673.0856583514718
 30
0.0
 11
422.9802208962971
 21
677.0856583514718
 31
0.0
  0
LINE
  5
AFA7
330
AA16
100
AcDbEntity
  8
11000_Left
  6
Continuous
 62
     7
370
    15
100
AcDbLine
 10
402.9802208962971
 20
673.0856583514718
 30
0.0
 11
402.9802208962971
 21
677.0356583514718
 31
0.0
  0
LINE
  5
AFAE
330
AA16
100
AcDbEntity
  8
11000_Left
  6
Continuous
 62
     7
370
    15
100
AcDbLine
 10
458.0802208962971
 20
632.2856583514719
 30
0.0
 11
457.9802208962973
 21
632.2856583514719
 31
0.0
  0
LINE
  5
AFB0
330
AA16
100
AcDbEntity
  8
11000_Left
  6
Continuous
 62
     7
370
    13
100
AcDbLine
 10
379.0802208962972
 20
614.3856583514717
 30
0.0
 11
377.5802208962971
 21
614.3856583514717
 31
0.0
  0
LINE
  5
AFB1
330
AA16
100
AcDbEntity
  8
11000_Left
  6
Continuous
 62
     7
370
    15
100
AcDbLine
 10
379.0802208962972
 20
618.8856583514717
 30
0.0
 11
379.0802208962972
 21
614.3856583514717
 31
0.0
  0
LINE
  5
AFB2
330
AA16
100
AcDbEntity
  8
11000_Left
  6
Continuous
 62
     7
370
    15
100
AcDbLine
 10
377.5802208962971
 20
614.3856583514717
 30
0.0
 11
377.5802208962971
 21
618.8856583514717
 31
0.0
  0
LINE
  5
AFB3
330
AA16
100
AcDbEntity
  8
11000_Left
  6
Continuous
 62
     7
370
    13
100
AcDbLine
 10
377.5802208962971
 20
618.8856583514717
 30
0.0
 11
379.0802208962972
 21
618.8856583514717
 31
0.0
  0
ARC
  5
AFB6
330
AA16
100
AcDbEntity
  8
11000_Left
  6
Continuous
 62
     7
370
    50
100
AcDbCircle
 10
377.2604108962974
 20
623.0856583514718
 30
0.0
 40
0.3
100
AcDbArc
 50
195.0000000000007
 51
270.0
  0
LINE
  5
AFB9
330
AA16
100
AcDbEntity
  8
11000_Left
  6
Continuous
 62
     7
370
    13
100
AcDbLine
 10
378.0802208962971
 20
632.2856583514719
 30
0.0
 11
378.0802208962971
 21
632.3856483514719
 31
0.0
  0
LINE
  5
AFBC
330
AA16
100
AcDbEntity
  8
11000_Left
  6
Continuous
 62
     7
370
    15
100
AcDbLine
 10
457.9802208962973
 20
613.4356583514718
 30
0.0
 11
457.9802208962973
 21
632.2856583514719
 31
0.0
  0
LINE
  5
AFBD
330
AA16
100
AcDbEntity
  8
11000_Left
  6
Continuous
 62
     7
370
    13
100
AcDbLine
 10
402.9802208962971
 20
603.5356583514718
 30
0.0
 11
402.8802208962971
 21
603.5356583514718
 31
0.0
  0
LINE
  5
AFBF
330
AA16
100
AcDbEntity
  8
11000_Left
  6
Continuous
 62
     7
370
    40
100
AcDbLine
 10
402.8802208962971
 20
677.0356583514718
 30
0.0
 11
402.9802208962971
 21
677.0356583514718
 31
0.0
  0
ARC
  5
AFC1
330
AA16
100
AcDbEntity
  8
11000_Left
  6
Continuous
 62
     7
370
    50
100
AcDbCircle
 10
377.5802208962971
 20
660.5356583514718
 30
0.0
 40
0.5
100
AcDbArc
 50
0.0
 51
90.0
  0
LINE
  5
AFCB
330
AA16
100
AcDbEntity
  8
11000_Left
  6
Continuous
 62
     7
370
    13
100
AcDbLine
 10
376.2216208962972
 20
654.8856583514718
 30
0.0
 11
376.6802208962972
 21
656.385658351472
 31
0.0
  0
LINE
  5
AFCC
330
AA16
100
AcDbEntity
  8
11000_Left
  6
Continuous
 62
     7
370
    13
100
AcDbLine
 10
377.4802208962972
 20
656.385658351472
 30
0.0
 11
378.0802208962971
 21
656.385658351472
 31
0.0
  0
LINE
  5
AFCD
330
AA16
100
AcDbEntity
  8
11000_Left
  6
Continuous
 62
     7
370
    13
100
AcDbLine
 10
376.6802208962972
 20
656.385658351472
 30
0.0
 11
377.4802208962972
 21
656.385658351472
 31
0.0
  0
LINE
  5
AFD3
330
AA16
100
AcDbEntity
  8
11000_Left
  6
Continuous
 62
     7
370
    40
100
AcDbLine
 10
434.4802208962971
 20
603.4856583514717
 30
0.0
 11
422.9802208962971
 21
603.4856583514717
 31
0.0
  0
LINE
  5
AFD4
330
AA16
100
AcDbEntity
  8
11000_Left
  6
Continuous
 62
     7
370
    15
100
AcDbLine
 10
402.9802208962971
 20
607.4856583514717
 30
0.0
 11
402.9802208962971
 21
603.5356583514718
 31
0.0
  0
LINE
  5
AFD5
330
AA16
100
AcDbEntity
  8
11000_Left
  6
Continuous
 62
     7
370
    15
100
AcDbLine
 10
460.1802008962971
 20
655.6856583514718
 30
0.0
 11
460.1802008962971
 21
655.785658351472
 31
0.0
  0
LINE
  5
AFD6
330
AA16
100
AcDbEntity
  8
11000_Left
  6
Continuous
 62
     7
370
    15
100
AcDbLine
 10
460.1802008962971
 20
651.785658351472
 30
0.0
 11
460.1802008962971
 21
651.8856583514717
 31
0.0
  0
LINE
  5
AFD7
330
AA16
100
AcDbEntity
  8
11000_Left
  6
Continuous
 62
     7
370
    15
100
AcDbLine
 10
461.9802008962971
 20
628.7856583514718
 30
0.0
 11
461.9802008962971
 21
624.7856583514718
 31
0.0
  0
LINE
  5
AFD8
330
AA16
100
AcDbEntity
  8
11000_Left
  6
Continuous
 62
     7
370
    15
100
AcDbLine
 10
460.1802008962971
 20
628.7856583514718
 30
0.0
 11
461.9802008962971
 21
628.7856583514718
 31
0.0
  0
LINE
  5
AFD9
330
AA16
100
AcDbEntity
  8
11000_Left
  6
Continuous
 62
     7
370
    15
100
AcDbLine
 10
461.9802008962971
 20
624.7856583514718
 30
0.0
 11
460.1802008962971
 21
624.7856583514718
 31
0.0
  0
LINE
  5
AFDA
330
AA16
100
AcDbEntity
  8
11000_Left
  6
Continuous
 62
     7
370
    40
100
AcDbLine
 10
462.6802008962971
 20
598.9856583514717
 30
0.0
 11
462.6802208962973
 21
598.9856583514717
 31
0.0
  0
ARC
  5
AFDB
330
AA16
100
AcDbEntity
  8
11000_Left
  6
Continuous
 62
     7
370
    40
100
AcDbCircle
 10
463.8802208962971
 20
599.1856583514718
 30
0.0
 40
0.2
100
AcDbArc
 50
269.9997700000029
 51
0.0
  0
ARC
  5
AFDE
330
AA16
100
AcDbEntity
  8
11000_Left
  6
Continuous
 62
     7
370
    40
100
AcDbCircle
 10
435.4802208962971
 20
599.1856583514718
 30
0.0
 40
0.2
100
AcDbArc
 50
180.0
 51
270.0
  0
LINE
  5
AFE1
330
AA16
100
AcDbEntity
  8
11000_Left
  6
Continuous
 62
     7
370
    40
100
AcDbLine
 10
434.4802208962971
 20
603.4856583514717
 30
0.0
 11
435.280220896297
 21
603.4856583514717
 31
0.0
  0
LINE
  5
AFE3
330
AA16
100
AcDbEntity
  8
11000_Left
  6
Continuous
 62
     7
370
    15
100
AcDbLine
 10
431.7802208962971
 20
616.985658351472
 30
0.0
 11
431.7802208962971
 21
603.4856583514717
 31
0.0
  0
LINE
  5
AFE5
330
AA16
100
AcDbEntity
  8
11000_Left
  6
Continuous
 62
     7
370
    40
100
AcDbLine
 10
435.280220896297
 20
603.4856583514717
 30
0.0
 11
435.280220896297
 21
599.1856583514718
 31
0.0
  0
LINE
  5
AFE6
330
AA16
100
AcDbEntity
  8
11000_Left
  6
Continuous
 62
     7
370
    40
100
AcDbLine
 10
435.4802208962971
 20
598.9856583514717
 30
0.0
 11
436.3802208962971
 21
598.9856583514717
 31
0.0
  0
LINE
  5
AFE7
330
AA16
100
AcDbEntity
  8
11000_Left
  6
Continuous
 62
     7
370
    40
100
AcDbLine
 10
462.6802208962973
 20
598.9856583514717
 30
0.0
 11
436.3802208962971
 21
598.9856583514717
 31
0.0
  0
LINE
  5
AFE8
330
AA16
100
AcDbEntity
  8
11000_Left
  6
Continuous
 62
     7
370
    40
100
AcDbLine
 10
462.6802208962973
 20
598.9856583514717
 30
0.0
 11
463.2802208962971
 21
598.9856583514717
 31
0.0
  0
LINE
  5
AFE9
330
AA16
100
AcDbEntity
  8
11000_Left
  6
Continuous
 62
     7
370
    40
100
AcDbLine
 10
463.2802208962971
 20
598.9856583514717
 30
0.0
 11
463.8802108962972
 21
598.9856583514717
 31
0.0
  0
ARC
  5
AFED
330
AA16
100
AcDbEntity
  8
11000_Left
  6
Continuous
 62
     7
370
    50
100
AcDbCircle
 10
463.8802208962971
 20
681.385658351472
 30
0.0
 40
0.2
100
AcDbArc
 50
0.0
 51
90.0004430000029
  0
ARC
  5
AFF9
330
AA16
100
AcDbEntity
  8
10000_FRONT
  6
HIDDEN
 62
     7
370
     9
100
AcDbCircle
 10
286.280804737739
 20
594.5356583514718
 30
0.0
 40
2.5
100
AcDbArc
 50
180.0
 51
0.0
1001
AUSTER_FOLIE
1002
{
1000
6_POL_CC
1002
}
1001
AUSTER_ANSICHT
1002
{
1000
V
1002
}
  0
LINE
  5
AFFA
330
AA16
100
AcDbEntity
  8
10000_FRONT
  6
HIDDEN
 62
     7
370
     9
100
AcDbLine
 10
283.780804737739
 20
595.535658351472
 30
0.0
 11
283.780804737739
 21
594.5356583514718
 31
0.0
1001
AUSTER_FOLIE
1002
{
1000
6_POL_CC
1002
}
1001
AUSTER_ANSICHT
1002
{
1000
V
1002
}
  0
LINE
  5
AFFB
330
AA16
100
AcDbEntity
  8
10000_FRONT
  6
HIDDEN
 62
     7
370
     9
100
AcDbLine
 10
288.780804737739
 20
595.535658351472
 30
0.0
 11
288.780804737739
 21
594.5356583514718
 31
0.0
1001
AUSTER_FOLIE
1002
{
1000
6_POL_CC
1002
}
1001
AUSTER_ANSICHT
1002
{
1000
V
1002
}
  0
ARC
  5
AFFC
330
AA16
100
AcDbEntity
  8
10000_FRONT
  6
HIDDEN
 62
     7
370
     9
100
AcDbCircle
 10
286.280804737739
 20
595.535658351472
 30
0.0
 40
2.5
100
AcDbArc
 50
0.0
 51
180.0
1001
AUSTER_FOLIE
1002
{
1000
6_POL_CC
1002
}
1001
AUSTER_ANSICHT
1002
{
1000
V
1002
}
  0
ARC
  5
AFFD
330
AA16
100
AcDbEntity
  8
10000_FRONT
  6
HIDDEN
 62
     7
370
     9
100
AcDbCircle
 10
301.280804737739
 20
685.5356583514718
 30
0.0
 40
2.5
100
AcDbArc
 50
0.0
 51
180.0
1001
AUSTER_FOLIE
1002
{
1000
6_POL_CC
1002
}
1001
AUSTER_ANSICHT
1002
{
1000
V
1002
}
  0
LINE
  5
AFFE
330
AA16
100
AcDbEntity
  8
10000_FRONT
  6
HIDDEN
 62
     7
370
     9
100
AcDbLine
 10
298.780804737739
 20
684.5356583514718
 30
0.0
 11
298.780804737739
 21
685.5356583514718
 31
0.0
1001
AUSTER_FOLIE
1002
{
1000
6_POL_CC
1002
}
1001
AUSTER_ANSICHT
1002
{
1000
V
1002
}
  0
ARC
  5
AFFF
330
AA16
100
AcDbEntity
  8
10000_FRONT
  6
HIDDEN
 62
     7
370
     9
100
AcDbCircle
 10
301.280804737739
 20
684.5356583514718
 30
0.0
 40
2.5
100
AcDbArc
 50
180.0
 51
0.0
1001
AUSTER_FOLIE
1002
{
1000
6_POL_CC
1002
}
1001
AUSTER_ANSICHT
1002
{
1000
V
1002
}
  0
LINE
  5
B000
330
AA16
100
AcDbEntity
  8
10000_FRONT
  6
HIDDEN
 62
     7
370
     9
100
AcDbLine
 10
303.780804737739
 20
684.5356583514718
 30
0.0
 11
303.780804737739
 21
685.5356583514718
 31
0.0
1001
AUSTER_FOLIE
1002
{
1000
6_POL_CC
1002
}
1001
AUSTER_ANSICHT
1002
{
1000
V
1002
}
  0
LINE
  5
B10D
330
AA16
100
AcDbEntity
  8
11000_Left
  6
Continuous
 62
     7
370
    50
100
AcDbLine
 10
378.0802208962971
 20
660.5356583514718
 30
0.0
 11
378.0802208962974
 21
623.0856583514718
 31
0.0
  0
INSERT
  5
B24A
330
AA16
100
AcDbEntity
  8
90000_FRAME
  6
Continuous
 62
     7
100
AcDbBlockReference
  2
SIEMENS_OUTLINE_BL0
 10
296.0789117783363
 20
540.3109935858021
 30
0.0
  0
LINE
  5
B24B
330
AA16
100
AcDbEntity
  8
90000_FRAME
  6
Continuous
 62
     7
100
AcDbLine
 10
363.4330143944152
 20
550.6492528134056
 30
0.0
 11
498.4330143944151
 21
550.6492528134056
 31
0.0
  0
LINE
  5
B24C
330
AA16
100
AcDbEntity
  8
90000_FRAME
  6
Continuous
 62
     7
100
AcDbLine
 10
363.4330143944152
 20
550.6492528134056
 30
0.0
 11
363.4330143944152
 21
568.6492528134055
 31
0.0
  0
LINE
  5
B24D
330
AA16
100
AcDbEntity
  8
90000_FRAME
  6
Continuous
 62
     7
100
AcDbLine
 10
413.4330143944151
 20
556.6492528134054
 30
0.0
 11
498.4330143944151
 21
556.6492528134054
 31
0.0
  0
LINE
  5
B24E
330
AA16
100
AcDbEntity
  8
90000_FRAME
  6
Continuous
 62
     7
100
AcDbLine
 10
363.4330143944152
 20
568.6492528134055
 30
0.0
 11
498.4330143944151
 21
568.6492528134055
 31
0.0
  0
LINE
  5
B24F
330
AA16
100
AcDbEntity
  8
90000_FRAME
  6
Continuous
 62
     7
100
AcDbLine
 10
413.4330143944151
 20
550.6492528134056
 30
0.0
 11
413.4330143944151
 21
568.6492528134055
 31
0.0
  0
LINE
  5
B250
330
AA16
100
AcDbEntity
  8
90000_FRAME
  6
Continuous
 62
     7
100
AcDbLine
 10
455.9330143944151
 20
550.6492528134056
 30
0.0
 11
455.9330143944151
 21
556.6492528134054
 31
0.0
  0
LINE
  5
B251
330
AA16
100
AcDbEntity
  8
90000_FRAME
  6
Continuous
 62
     7
100
AcDbLine
 10
498.4330143944151
 20
550.6492528134056
 30
0.0
 11
498.4330143944151
 21
568.6492528134055
 31
0.0
  0
TEXT
  5
B252
330
AA16
100
AcDbEntity
  8
90000_FRAME
  6
Continuous
 62
     7
100
AcDbText
 10
414.0930143944151
 20
552.5492528134056
 30
0.0
 40
2.2
  1
Format / Size: DIN A4
 41
0.7350230414736041
 72
     5
 11
447.5120620134149
 21
552.5492528134056
 31
0.0
100
AcDbText
  0
TEXT
  5
B253
330
AA16
100
AcDbEntity
  8
90000_FRAME
  6
Continuous
 62
     7
100
AcDbText
 10
456.5930143944151
 20
552.5492528134056
 30
0.0
 40
2.2
  1
Massstab / Scale: 1:1
 41
0.685249709640795
 72
     5
 11
487.4977762992149
 21
552.5492528134056
 31
0.0
100
AcDbText
  0
TEXT
  5
B254
330
AA16
100
AcDbEntity
  8
90000_FRAME
  6
Continuous
 62
     7
100
AcDbText
 10
426.7389389183659
 20
558.6633003130223
 30
0.0
 40
3.5
  1
Analoges Überwachungsrelais
 41
0.5990590009198212
 72
     5
 11
482.6511123375491
 21
558.6633003130223
 31
0.0
100
AcDbText
  0
LINE
  5
B255
330
AA16
100
AcDbEntity
  8
90000_FRAME
  6
Continuous
 62
     7
100
AcDbLine
 10
238.4330143944162
 20
540.6492528134056
 30
0.0
 11
508.4330143944161
 21
540.6492528134056
 31
0.0
  0
LINE
  5
B256
330
AA16
100
AcDbEntity
  8
90000_FRAME
  6
Continuous
 62
     7
100
AcDbLine
 10
508.4330143944161
 20
540.6492528134056
 30
0.0
 11
508.4330143944161
 21
740.6492528134053
 31
0.0
  0
TEXT
  5
B257
330
AA16
100
AcDbEntity
  8
91000_TIP
  6
Continuous
 62
     7
100
AcDbText
 10
242.48636417708
 20
549.3814894350821
 30
0.0
 40
2.5
  1
Alle Bemassungswerte sind in Millimeter (mm) angegeben.
 41
0.5458157023561662
 72
     5
 11
316.1714839951624
 21
549.3814894350821
 31
0.0
100
AcDbText
  0
TEXT
  5
B258
330
AA16
100
AcDbEntity
  8
91000_TIP
  6
Continuous
 62
     7
100
AcDbText
 10
242.48636417708
 20
544.1314894350821
 30
0.0
 40
2.5
  1
All dimensions are in millimeters (mm).
 41
0.6327031827941267
 72
     5
 11
302.593166542522
 21
544.1314894350821
 31
0.0
100
AcDbText
  0
LINE
  5
B259
330
AA16
100
AcDbEntity
  8
91000_TIP
  6
Continuous
 62
     7
100
AcDbLine
 10
338.2476844984411
 20
561.9729903357762
 30
0.0
 11
348.2476842942412
 21
564.4729902847761
 31
0.0
  0
LINE
  5
B25A
330
AA16
100
AcDbEntity
  8
91000_TIP
  6
CENTER
 62
     7
100
AcDbLine
 10
336.9681740264403
 20
559.4729903868762
 30
0.0
 11
360.5701632905403
 21
559.4729903868762
 31
0.0
  0
LINE
  5
B25B
330
AA16
100
AcDbEntity
  8
91000_TIP
  6
Continuous
 62
     7
100
AcDbLine
 10
338.2476844984411
 20
556.9729904379761
 30
0.0
 11
348.2476842942412
 21
554.4729904889759
 31
0.0
  0
LINE
  5
B25C
330
AA16
100
AcDbEntity
  8
91000_TIP
  6
Continuous
 62
     7
100
AcDbLine
 10
338.2476844984411
 20
561.9729903357762
 30
0.0
 11
338.2476844984411
 21
556.9729904379761
 31
0.0
  0
LINE
  5
B25D
330
AA16
100
AcDbEntity
  8
91000_TIP
  6
Continuous
 62
     7
100
AcDbLine
 10
348.2476842942412
 20
564.4729902847761
 30
0.0
 11
348.2476842942412
 21
554.4729904889759
 31
0.0
  0
LINE
  5
B25E
330
AA16
100
AcDbEntity
  8
91000_TIP
  6
CENTER
 62
     7
100
AcDbLine
 10
354.7476841614411
 20
553.7515091804761
 30
0.0
 11
354.7476841614411
 21
565.0348951804761
 31
0.0
  0
CIRCLE
  5
B25F
330
AA16
100
AcDbEntity
  8
91000_TIP
  6
Continuous
 62
     7
100
AcDbCircle
 10
354.7476841614411
 20
559.4729903868762
 30
0.0
 40
4.9999998979
  0
CIRCLE
  5
B260
330
AA16
100
AcDbEntity
  8
91000_TIP
  6
Continuous
 62
     7
100
AcDbCircle
 10
354.7476841614411
 20
559.4729903868762
 30
0.0
 40
2.499999948899997
  0
LINE
  5
B261
330
AA16
100
AcDbEntity
  8
90000_FRAME
  6
Continuous
 62
     7
100
AcDbLine
 10
238.4330143944162
 20
540.6492528134056
 30
0.0
 11
238.4330143944162
 21
740.6492528134053
 31
0.0
  0
LINE
  5
B262
330
AA16
100
AcDbEntity
  8
90000_FRAME
  6
Continuous
 62
     7
100
AcDbLine
 10
238.4330143944162
 20
740.6492528134053
 30
0.0
 11
508.4330143944161
 21
740.6492528134053
 31
0.0
  0
TEXT
  5
B263
330
AA16
100
AcDbEntity
  8
90000_FRAME
  6
Continuous
 62
     7
100
AcDbText
 10
426.7389389183659
 20
563.9482776620627
 30
0.0
 40
3.5
  1
3UG4511_00002003_000_ALL
 41
0.6749960573744458
 72
     5
 11
482.6511123375491
 21
563.9482776620627
 31
0.0
100
AcDbText
  0
LINE
  5
B293
330
AA16
100
AcDbEntity
  8
10000_FRONT
  6
Continuous
 62
     7
370
    15
100
AcDbLine
 10
283.830804737739
 20
652.5921007148627
 30
0.0
 11
286.230804737739
 21
652.5921007148627
 31
0.0
  0
LINE
  5
B294
330
AA16
100
AcDbEntity
  8
10000_FRONT
  6
Continuous
 62
     7
370
    15
100
AcDbLine
 10
286.230804737739
 20
652.5921007148627
 30
0.0
 11
286.230804737739
 21
648.7921007148627
 31
0.0
  0
LINE
  5
B295
330
AA16
100
AcDbEntity
  8
10000_FRONT
  6
Continuous
 62
     7
370
    15
100
AcDbLine
 10
286.230804737739
 20
648.7921007148627
 30
0.0
 11
283.830804737739
 21
648.7921007148627
 31
0.0
  0
LINE
  5
B296
330
AA16
100
AcDbEntity
  8
10000_FRONT
  6
Continuous
 62
     7
370
    15
100
AcDbLine
 10
283.830804737739
 20
648.7921007148627
 30
0.0
 11
283.830804737739
 21
652.5921007148627
 31
0.0
  0
ENDSEC
  0
SECTION
  2
OBJECTS
  0
DICTIONARY
  5
A9EC
330
0
100
AcDbDictionary
281
     1
  3
ACAD_COLOR
350
AA0F
  3
ACAD_GROUP
350
A9ED
  3
ACAD_LAYOUT
350
AA0E
  3
ACAD_MATERIAL
350
A9F0
  3
ACAD_MLINESTYLE
350
AA0B
  3
ACAD_PLOTSETTINGS
350
AA0D
  3
ACAD_PLOTSTYLENAME
350
A9EE
  3
ACAD_TABLESTYLE
350
AA10
  3
ACAD_VISUALSTYLE
350
A9F4
  3
AcDbVariableDictionary
350
B0FA
  3
DWGPROPS
350
B2C1
  0
DICTIONARY
  5
B10E
330
AA16
100
AcDbDictionary
280
     1
281
     1
  3
ACAD_SORTENTS
360
B10F
  0
DICTIONARY
  5
AA0F
102
{ACAD_REACTORS
330
A9EC
102
}
330
A9EC
100
AcDbDictionary
281
     1
  0
DICTIONARY
  5
A9ED
102
{ACAD_REACTORS
330
A9EC
102
}
330
A9EC
100
AcDbDictionary
281
     1
  0
DICTIONARY
  5
AA0E
102
{ACAD_REACTORS
330
A9EC
102
}
330
A9EC
100
AcDbDictionary
281
     1
  3
Layout1
350
AA15
  3
Model
350
AA19
  0
DICTIONARY
  5
A9F0
102
{ACAD_REACTORS
330
A9EC
102
}
330
A9EC
100
AcDbDictionary
281
     1
  3
ByBlock
350
A9F2
  3
ByLayer
350
A9F1
  3
Global
350
A9F3
  0
DICTIONARY
  5
AA0B
102
{ACAD_REACTORS
330
A9EC
102
}
330
A9EC
100
AcDbDictionary
281
     1
  3
Standard
350
AA0C
  0
DICTIONARY
  5
AA0D
102
{ACAD_REACTORS
330
A9EC
102
}
330
A9EC
100
AcDbDictionary
281
     1
  0
ACDBDICTIONARYWDFLT
  5
A9EE
102
{ACAD_REACTORS
330
A9EC
102
}
330
A9EC
100
AcDbDictionary
281
     1
  3
Normal
350
A9EF
100
AcDbDictionaryWithDefault
340
A9EF
  0
DICTIONARY
  5
AA10
102
{ACAD_REACTORS
330
A9EC
102
}
330
A9EC
100
AcDbDictionary
281
     1
  3
Standard
350
AA11
  0
DICTIONARY
  5
A9F4
102
{ACAD_REACTORS
330
A9EC
102
}
330
A9EC
100
AcDbDictionary
281
     1
  3
2dWireframe
350
A9FA
  3
3D Hidden
350
B2AC
  3
3dWireframe
350
B2AB
  3
Basic
350
A9F9
  3
Brighten
350
AA00
  3
ColorChange
350
AA04
  3
Conceptual
350
B2AD
  3
Dim
350
A9FF
  3
Facepattern
350
AA03
  3
Flat
350
A9F5
  3
FlatWithEdges
350
A9F6
  3
Gouraud
350
A9F7
  3
GouraudWithEdges
350
A9F8
  3
Linepattern
350
AA02
  3
Realistic
350
B2AE
  3
Thicken
350
AA01
  0
DICTIONARY
  5
B0FA
102
{ACAD_REACTORS
330
A9EC
102
}
330
A9EC
100
AcDbDictionary
281
     1
  3
CTABLESTYLE
350
B0FB
  3
DIMASSOC
350
B29A
  3
HIDETEXT
350
B299
  3
INDEXCTL
350
B298
  3
SORTENTS
350
B297
  0
XRECORD
  5
B2C1
102
{ACAD_REACTORS
330
A9EC
102
}
330
A9EC
100
AcDbXrecord
280
     1
  1
DWGPROPS COOKIE
  2

  3

  4

  6

  7

  8
chpf
  9

300
=
301
=
302
=
303
=
304
=
305
=
306
=
307
=
308
=
309
=
 40
0.0624669097222222
 41
2444975.041666666
 42
2454092.490520625
  1

 90
        0
  0
SORTENTSTABLE
  5
B10F
102
{ACAD_REACTORS
330
B10E
102
}
330
B10E
100
AcDbSortentsTable
330
AA16
331
AED1
  5
AED1
331
AE5B
  5
AE5B
331
AF10
  5
AF10
331
ADE5
  5
ADE5
331
AE24
  5
AE24
331
AED9
  5
AED9
331
AE2C
  5
AE2C
331
AE63
  5
AE63
331
ADED
  5
ADED
331
AEAA
  5
AEAA
331
ADF5
  5
ADF5
331
AE34
  5
AE34
331
AEE1
  5
AEE1
331
ADD8
  5
ADD8
331
AF20
  5
AF20
331
AF88
  5
AF89
331
AF28
  5
AF28
331
AE73
  5
AE73
331
AEB2
  5
AEB2
331
AE3C
  5
AE3C
331
AEE9
  5
AEE9
331
AF49
  5
AF49
331
AF90
  5
AF91
331
AF51
  5
AF51
331
AF59
  5
AF59
331
AF98
  5
AF99
331
AFD7
  5
AFD8
331
AF61
  5
AF61
331
AF30
  5
AF30
331
AEBA
  5
AEBA
331
AE44
  5
AE44
331
AEF1
  5
AEF1
331
AF38
  5
AF38
331
AE4C
  5
AE4C
331
AE83
  5
AE83
331
AE0D
  5
AE0D
331
AEC2
  5
AEC2
331
AECA
  5
AECA
331
AE15
  5
AE15
331
AE54
  5
AE54
331
AE8B
  5
AE8B
331
AF40
  5
AF40
331
AF09
  5
AF09
331
AF69
  5
AF6A
331
AE93
  5
AE93
331
AFB0
  5
AFB1
331
AFE7
  5
AFE8
331
AF71
  5
AF72
331
AF79
  5
AF7A
331
AFFF
  5
B000
331
AF81
  5
AF82
331
AED2
  5
AED2
331
AE25
  5
AE25
331
AE5C
  5
AE5C
331
AEA3
  5
AEA3
331
AE2D
  5
AE2D
331
AEDA
  5
AEDA
331
AEE2
  5
AEE2
331
AF21
  5
AF21
331
AEAB
  5
AEAB
331
ADD9
  5
ADD9
331
ADF6
  5
ADF6
331
AE35
  5
AE35
331
AF4A
  5
AF4A
331
AEEA
  5
AEEA
331
AF29
  5
AF29
331
AF89
  5
AF8A
331
AE3D
  5
AE3D
331
AE74
  5
AE74
331
ADFE
  5
ADFE
331
AEB3
  5
AEB3
331
AF52
  5
AF52
331
AF91
  5
AF92
331
AF99
  5
AF9D
331
AF5A
  5
AF5A
331
AFD8
  5
AFD9
331
AF62
  5
AF62
331
AEBB
  5
AEBB
331
AE06
  5
AE06
331
AE45
  5
AE45
331
AEF2
  5
AEF2
331
AF31
  5
AF31
331
AF39
  5
AF39
331
AE84
  5
AE84
331
AEC3
  5
AEC3
331
AE0E
  5
AE0E
331
AE4D
  5
AE4D
331
AEFA
  5
AEFA
331
AE8C
  5
AE8C
331
AECB
  5
AECB
331
AF6A
  5
AF6B
331
AE94
  5
AE94
331
AE1E
  5
AE1E
331
AFE8
  5
AFE9
331
AF72
  5
AF73
331
AFB1
  5
AFB2
331
AFB9
  5
AFBB
331
AF7A
  5
AF7B
331
AF82
  5
AF83
331
AE26
  5
AE26
331
AED3
  5
AED3
331
AF12
  5
AF12
331
AEDB
  5
AEDB
331
AF1A
  5
AF1A
331
AE2E
  5
AE2E
331
ADEF
  5
ADEF
331
AEAC
  5
AEAC
331
AE36
  5
AE36
331
AEE3
  5
AEE3
331
ADDA
  5
ADDA
331
AF22
  5
AF22
331
AF8A
  5
AF8B
331
AFC1
  5
AFCB
331
AF2A
  5
AF2A
331
AEB4
  5
AEB4
331
AE3E
  5
AE3E
331
AEEB
  5
AEEB
331
AF4B
  5
AF4B
331
AF53
  5
AF53
331
AF92
  5
AF93
331
AF5B
  5
AF5B
331
AFD9
  5
AFDA
331
AF63
  5
AF63
331
AEF3
  5
AEF3
331
AF32
  5
AF32
331
AEBC
  5
AEBC
331
AE07
  5
AE07
331
AE46
  5
AE46
331
AEFB
  5
AEFB
331
AF3A
  5
AF3A
331
AE85
  5
AE85
331
AE0F
  5
AE0F
331
AEC4
  5
AEC4
331
AECC
  5
AECC
331
AE8D
  5
AE8D
331
AF42
  5
AF42
331
AFE1
  5
AFE3
331
AE95
  5
AE95
331
AF6B
  5
AF6C
331
AFB2
  5
AFB3
331
AFE9
  5
AFED
331
AF73
  5
AF74
331
AF7B
  5
AF7C
331
AFF9
  5
AFFA
331
AF83
  5
AF84
331
ADE0
  5
ADE0
331
ADE8
  5
ADE8
331
AE27
  5
AE27
331
AED4
  5
AED4
331
AE66
  5
AE66
331
ADF0
  5
ADF0
331
AE2F
  5
AE2F
331
AEDC
  5
AEDC
331
AEE4
  5
AEE4
331
AF23
  5
AF23
331
AE37
  5
AE37
331
AE6E
  5
AE6E
331
ADDB
  5
ADDB
331
ADF8
  5
ADF8
331
AEAD
  5
AEAD
331
AF4C
  5
AF4C
331
AEEC
  5
AEEC
331
AF2B
  5
AF2B
331
AF8B
  5
AF8C
331
AE3F
  5
AE3F
331
AE76
  5
AE76
331
AEB5
  5
AEB5
331
AF54
  5
AF54
331
AF93
  5
AF95
331
AF5C
  5
AF5C
331
AF64
  5
AF65
331
AFA3
  5
AFA4
331
AFDA
  5
AFDB
331
AE00
  5
AE00
331
AEBD
  5
AEBD
331
AE47
  5
AE47
331
AEF4
  5
AEF4
331
AF33
  5
AF33
331
AF3B
  5
AF3B
331
AE86
  5
AE86
331
AEC5
  5
AEC5
331
AE4F
  5
AE4F
331
AF43
  5
AF43
331
AE8E
  5
AE8E
331
AECD
  5
AECD
331
AE18
  5
AE18
331
AE57
  5
AE57
331
AF6C
  5
AF6D
331
AF74
  5
AF75
331
AFB3
  5
AFB4
331
AFFA
  5
AFFB
331
AF7C
  5
AF7D
331
AF84
  5
AF85
331
ADE1
  5
ADE1
331
AED5
  5
AED5
331
AE28
  5
AE28
331
ADE9
  5
ADE9
331
AE9E
  5
AE9E
331
AEA6
  5
AEA6
331
AE30
  5
AE30
331
AEDD
  5
AEDD
331
AF1C
  5
AF1C
331
AEAE
  5
AEAE
331
AE38
  5
AE38
331
AEE5
  5
AEE5
331
ADDC
  5
ADDC
331
AF24
  5
AF24
331
AF8C
  5
AF8E
331
AF2C
  5
AF2C
331
AE77
  5
AE77
331
AEB6
  5
AEB6
331
AEED
  5
AEED
331
AF4D
  5
AF4D
331
AF55
  5
AF55
331
AFCB
  5
AFCC
331
AFD3
  5
AFD4
331
AF5D
  5
AF5D
331
AFDB
  5
AFDE
331
AF65
  5
AF67
331
AFA4
  5
AFA5
331
AE01
  5
AE01
331
AE40
  5
AE40
331
AF34
  5
AF34
331
AE48
  5
AE48
331
AEBE
  5
AEBE
331
AF3C
  5
AF3C
331
AE50
  5
AE50
331
AE87
  5
AE87
331
AEC6
  5
AEC6
331
AECE
  5
AECE
331
AF05
  5
AF05
331
AE8F
  5
AE8F
331
AF44
  5
AF44
331
AFE3
  5
AFE5
331
AF6D
  5
AF6E
331
AF75
  5
AF76
331
AF7D
  5
AF7E
331
AFBC
  5
AFBD
331
AFFB
  5
AFFC
331
AF85
  5
AF86
331
ADE2
  5
ADE2
331
B000
  5
B10D
331
AE58
  5
AE58
331
AE9F
  5
AE9F
331
AED6
  5
AED6
331
ADEA
  5
ADEA
331
AE29
  5
AE29
331
AE60
  5
AE60
331
AF1D
  5
AF1D
331
AEA7
  5
AEA7
331
ADD5
  5
ADD5
331
AE31
  5
AE31
331
AEDE
  5
AEDE
331
AEE6
  5
AEE6
331
AF25
  5
AF25
331
AE39
  5
AE39
331
ADDD
  5
ADDD
331
AE70
  5
AE70
331
AEAF
  5
AEAF
331
AF4E
  5
AF4E
331
AEB7
  5
AEB7
331
AEEE
  5
AEEE
331
AF2D
  5
AF2D
331
AFCC
  5
AFCD
331
AF56
  5
AF56
331
AF95
  5
AF96
331
AF9D
  5
AF9F
331
AFD4
  5
AFD5
331
AFA5
  5
AFA7
331
AE41
  5
AE41
331
B10D
  5
AF64
331
AE78
  5
AE78
331
AEBF
  5
AEBF
331
AE0A
  5
AE0A
331
AE49
  5
AE49
331
AEF6
  5
AEF6
331
AF35
  5
AF35
331
AF3D
  5
AF3D
331
AE88
  5
AE88
331
AE12
  5
AE12
331
AEC7
  5
AEC7
331
AF06
  5
AF06
331
AF45
  5
AF45
331
AE90
  5
AE90
331
AECF
  5
AECF
331
AF0E
  5
AF0E
331
AF6E
  5
AF6F
331
AF76
  5
AF77
331
AFBD
  5
AFBF
331
AFFC
  5
AFFD
331
AF7E
  5
AF7F
331
AF86
  5
AF87
331
AE22
  5
AE22
331
AED7
  5
AED7
331
AE2A
  5
AE2A
331
AEA0
  5
AEA0
331
AEA8
  5
AEA8
331
AE32
  5
AE32
331
AEDF
  5
AEDF
331
ADD6
  5
ADD6
331
AF1E
  5
AF1E
331
AF26
  5
AF26
331
AEB0
  5
AEB0
331
ADFB
  5
ADFB
331
AE3A
  5
AE3A
331
AEE7
  5
AEE7
331
AF8E
  5
AF90
331
AF2E
  5
AF2E
331
AEEF
  5
AEEF
331
AF4F
  5
AF4F
331
AF57
  5
AF57
331
AF96
  5
AF97
331
AFCD
  5
AFD3
331
AFD5
  5
AFD6
331
AF67
  5
AF68
331
AE03
  5
AE03
331
AEB8
  5
AEB8
331
AF36
  5
AF36
331
AE4A
  5
AE4A
331
AEC0
  5
AEC0
331
AEC8
  5
AEC8
331
AE52
  5
AE52
331
AE89
  5
AE89
331
AF3E
  5
AF3E
331
AE1B
  5
AE1B
331
AE91
  5
AE91
331
AF46
  5
AF46
331
AFAE
  5
AFAF
331
AFE5
  5
AFE6
331
AF0F
  5
AF0F
331
AF6F
  5
AF70
331
AF77
  5
AF78
331
AFB6
  5
AFB7
331
AFED
  5
AFF9
331
AFFD
  5
AFFE
331
AF7F
  5
AF80
331
AF87
  5
AF88
331
AE23
  5
AE23
331
AED0
  5
AED0
331
AF17
  5
AF17
331
AEA1
  5
AEA1
331
ADEC
  5
ADEC
331
AE2B
  5
AE2B
331
AED8
  5
AED8
331
AE6A
  5
AE6A
331
AEA9
  5
AEA9
331
ADD7
  5
ADD7
331
AE33
  5
AE33
331
AEE0
  5
AEE0
331
AF48
  5
AF48
331
AEE8
  5
AEE8
331
AF27
  5
AF27
331
AE3B
  5
AE3B
331
AE72
  5
AE72
331
ADDF
  5
ADDF
331
ADFC
  5
ADFC
331
AEB1
  5
AEB1
331
AF50
  5
AF50
331
AF2F
  5
AF2F
331
AF97
  5
AF98
331
AF9F
  5
AFA3
331
AFD6
  5
AFD7
331
AF60
  5
AF60
331
AFA7
  5
AFAE
331
AFDE
  5
AFE1
331
AEB9
  5
AEB9
331
AEF0
  5
AEF0
331
AF37
  5
AF37
331
AEC1
  5
AEC1
331
AEF8
  5
AEF8
331
AE82
  5
AE82
331
AF3F
  5
AF3F
331
AE8A
  5
AE8A
331
AEC9
  5
AEC9
331
AE53
  5
AE53
331
AF68
  5
AF69
331
AE92
  5
AE92
331
AF47
  5
AF47
331
AFE6
  5
AFE7
331
AF70
  5
AF71
331
AF78
  5
AF79
331
AFBF
  5
AFC1
331
AFFE
  5
AFFF
331
AF80
  5
AF81
  0
LAYOUT
  5
AA15
102
{ACAD_XDICTIONARY
360
B2C4
102
}
102
{ACAD_REACTORS
330
AA0E
102
}
330
AA0E
100
AcDbPlotSettings
  1

  2
Microsoft Office Document Image Writer
  4

  6

 40
0.0
 41
0.0
 42
0.0
 43
0.0
 44
0.0
 45
0.0
 46
0.0
 47
0.0
 48
0.0
 49
0.0
140
0.0
141
0.0
142
1.0
143
1.0
 70
   688
 72
     0
 73
     0
 74
     5
  7

 75
    16
147
1.0
148
0.0
149
0.0
100
AcDbLayout
  1
Layout1
 70
     0
 71
     1
 10
0.0
 20
0.0
 11
1189.0
 21
841.0
 12
0.0
 22
0.0
 32
0.0
 14
0.0
 24
0.0
 34
0.0
 15
1189.0
 25
841.0
 35
0.0
146
0.0
 13
0.0
 23
0.0
 33
0.0
 16
1.0
 26
0.0
 36
0.0
 17
0.0
 27
1.0
 37
0.0
 76
     0
330
AA12
  0
LAYOUT
  5
AA19
102
{ACAD_XDICTIONARY
360
B2C6
102
}
102
{ACAD_REACTORS
330
AA0E
102
}
330
AA0E
100
AcDbPlotSettings
  1

  2
Microsoft Office Document Image Writer
  4
A4
  6

 40
3.174999952316284
 41
3.174999952316284
 42
3.175003051757812
 43
3.17498779296875
 44
209.9733276367187
 45
297.0106506347656
 46
0.0
 47
0.0
 48
0.0
 49
0.0
140
0.0
141
0.0
142
1.0
143
33.8878704180595
 70
 11952
 72
     0
 73
     1
 74
     0
  7

 75
     0
147
0.0295090835648109
148
-4986.813260777928
149
-13715.43462844549
100
AcDbLayout
  1
Model
 70
     1
 71
     0
 10
0.0
 20
0.0
 11
12.0
 21
9.0
 12
0.0
 22
0.0
 32
0.0
 14
0.0
 24
0.0
 34
0.0
 15
0.0
 25
0.0
 35
0.0
146
0.0
 13
0.0
 23
0.0
 33
0.0
 16
1.0
 26
0.0
 36
0.0
 17
0.0
 27
1.0
 37
0.0
 76
     0
330
AA16
331
AA30
1001
ACAD_PSEXT
1000
Microsoft Office Document Image Writer
1000
Microsoft Office Document Image Writer Driver
1000
Microsoft Document Imaging Writer Port:
1000

1070
     0
  0
MATERIAL
  5
A9F2
102
{ACAD_XDICTIONARY
360
B29E
102
}
102
{ACAD_REACTORS
330
A9F0
102
}
330
A9F0
100
AcDbMaterial
  1
ByBlock
  0
MATERIAL
  5
A9F1
102
{ACAD_XDICTIONARY
360
B29C
102
}
102
{ACAD_REACTORS
330
A9F0
102
}
330
A9F0
100
AcDbMaterial
  1
ByLayer
  0
MATERIAL
  5
A9F3
102
{ACAD_XDICTIONARY
360
B2A0
102
}
102
{ACAD_REACTORS
330
A9F0
102
}
330
A9F0
100
AcDbMaterial
  1
Global
  0
MLINESTYLE
  5
AA0C
102
{ACAD_REACTORS
330
AA0B
102
}
330
AA0B
100
AcDbMlineStyle
  2
STANDARD
 70
     0
  3

 62
   256
 51
90.0
 52
90.0
 71
     2
 49
0.5
 62
   256
  6
BYLAYER
 49
-0.5
 62
   256
  6
BYLAYER
  0
ACDBPLACEHOLDER
  5
A9EF
102
{ACAD_REACTORS
330
A9EE
102
}
330
A9EE
  0
TABLESTYLE
  5
AA11
102
{ACAD_XDICTIONARY
360
B2C2
102
}
102
{ACAD_REACTORS
330
AA10
102
}
330
AA10
100
AcDbTableStyle
  3
Standard
 70
     0
 71
     0
 40
0.06
 41
0.06
280
     0
281
     0
  7
STANDARD
140
0.18
170
     2
 62
     0
 63
     7
283
     0
274
    -2
284
     1
 64
     0
275
    -2
285
     1
 65
     0
276
    -2
286
     1
 66
     0
277
    -2
287
     1
 67
     0
278
    -2
288
     1
 68
     0
279
    -2
289
     1
 69
     0
  7
STANDARD
140
0.25
170
     5
 62
     0
 63
     7
283
     0
274
    -2
284
     1
 64
     0
275
    -2
285
     1
 65
     0
276
    -2
286
     1
 66
     0
277
    -2
287
     1
 67
     0
278
    -2
288
     1
 68
     0
279
    -2
289
     1
 69
     0
  7
STANDARD
140
0.18
170
     5
 62
     0
 63
     7
283
     0
274
    -2
284
     1
 64
     0
275
    -2
285
     1
 65
     0
276
    -2
286
     1
 66
     0
277
    -2
287
     1
 67
     0
278
    -2
288
     1
 68
     0
279
    -2
289
     1
 69
     0
  0
VISUALSTYLE
  5
A9FA
102
{ACAD_REACTORS
330
A9F4
102
}
330
A9F4
100
AcDbVisualStyle
  2
2dWireframe
 70
     4
 71
     0
 72
     2
 73
     0
 90
        0
 40
-0.6
 41
-30.0
 62
     5
 63
     7
 74
     1
 91
        4
 64
     7
 65
   257
 75
     1
175
     1
 42
1.0
 92
        0
 66
   257
 43
1.0
 76
     1
 77
     6
 78
     2
 67
     7
 79
     5
170
     0
171
     0
290
     0
174
     0
 93
        1
 44
0.0
173
     0
291
     0
 45
0.0
1001
ACAD
1000
AcDbSavedByObjectVersion
1070
     0
1000
AcDbSavedByObjectVersion
1070
     0
  0
VISUALSTYLE
  5
B2AC
102
{ACAD_REACTORS
330
A9F4
102
}
330
A9F4
100
AcDbVisualStyle
  2
3D Hidden
 70
     6
 71
     1
 72
     2
 73
     2
 90
        0
 40
-0.6
 41
-30.0
 62
     5
 63
     7
 74
     2
 91
        2
 64
     7
 65
   257
 75
     2
175
     1
 42
40.0
 92
        0
 66
   257
 43
1.0
 76
     1
 77
     6
 78
     2
 67
     7
 79
     3
170
     0
171
     0
290
     0
174
     0
 93
        1
 44
0.0
173
     0
291
     0
 45
0.0
1001
ACAD
1000
AcDbSavedByObjectVersion
1070
     0
  0
VISUALSTYLE
  5
B2AB
102
{ACAD_REACTORS
330
A9F4
102
}
330
A9F4
100
AcDbVisualStyle
  2
3dWireframe
 70
     5
 71
     0
 72
     2
 73
     0
 90
        0
 40
-0.6
 41
-30.0
 62
     5
 63
     7
 74
     1
 91
        4
 64
     7
 65
   257
 75
     1
175
     1
 42
1.0
 92
        0
 66
   257
 43
1.0
 76
     1
 77
     6
 78
     2
 67
     7
 79
     5
170
     0
171
     0
290
     0
174
     0
 93
        1
 44
0.0
173
     0
291
     0
 45
0.0
1001
ACAD
1000
AcDbSavedByObjectVersion
1070
     0
  0
VISUALSTYLE
  5
A9F9
102
{ACAD_REACTORS
330
A9F4
102
}
330
A9F4
100
AcDbVisualStyle
  2
Basic
 70
     7
 71
     1
 72
     0
 73
     1
 90
        0
 40
-0.6
 41
-30.0
 62
     5
 63
     7
 74
     0
 91
        4
 64
     7
 65
   257
 75
     1
175
     1
 42
1.0
 92
        8
 66
     7
 43
1.0
 76
     1
 77
     6
 78
     2
 67
     7
 79
     5
170
     0
171
     0
290
     0
174
     0
 93
        1
 44
0.0
173
     0
291
     1
 45
0.0
1001
ACAD
1000
AcDbSavedByObjectVersion
1070
     0
1000
AcDbSavedByObjectVersion
1070
     0
  0
VISUALSTYLE
  5
AA00
102
{ACAD_REACTORS
330
A9F4
102
}
330
A9F4
100
AcDbVisualStyle
  2
Brighten
 70
    12
 71
     2
 72
     2
 73
     0
 90
        0
 40
-0.6
 41
-30.0
 62
     5
 63
     7
 74
     1
 91
        4
 64
     7
 65
   257
 75
     1
175
     1
 42
1.0
 92
        8
 66
     7
 43
1.0
 76
     1
 77
     6
 78
     2
 67
     7
 79
     5
170
     0
171
     0
290
     0
174
     0
 93
        1
 44
50.0
173
     0
291
     1
 45
0.0
1001
ACAD
1000
AcDbSavedByObjectVersion
1070
     0
1000
AcDbSavedByObjectVersion
1070
     0
  0
VISUALSTYLE
  5
AA04
102
{ACAD_REACTORS
330
A9F4
102
}
330
A9F4
100
AcDbVisualStyle
  2
ColorChange
 70
    16
 71
     2
 72
     2
 73
     3
 90
        0
 40
-0.6
 41
-30.0
 62
     5
 63
     8
 74
     1
 91
        4
 64
     7
 65
   257
 75
     1
175
     1
 42
1.0
 92
        8
 66
     8
 43
1.0
 76
     1
 77
     6
 78
     2
 67
     7
 79
     5
170
     0
171
     0
290
     0
174
     0
 93
        1
 44
0.0
173
     0
291
     1
 45
0.0
1001
ACAD
1000
AcDbSavedByObjectVersion
1070
     0
1000
AcDbSavedByObjectVersion
1070
     0
  0
VISUALSTYLE
  5
B2AD
102
{ACAD_REACTORS
330
A9F4
102
}
330
A9F4
100
AcDbVisualStyle
  2
Conceptual
 70
     9
 71
     3
 72
     2
 73
     0
 90
        0
 40
-0.6
 41
-30.0
 62
     5
 63
     7
 74
     2
 91
        2
 64
     7
 65
   257
 75
     1
175
     1
 42
40.0
 92
        8
 66
     7
 43
1.0
 76
     1
 77
     6
 78
     2
 67
     7
 79
     3
170
     0
171
     0
290
     0
174
     0
 93
        1
 44
0.0
173
     0
291
     0
 45
0.0
1001
ACAD
1000
AcDbSavedByObjectVersion
1070
     0
  0
VISUALSTYLE
  5
A9FF
102
{ACAD_REACTORS
330
A9F4
102
}
330
A9F4
100
AcDbVisualStyle
  2
Dim
 70
    11
 71
     2
 72
     2
 73
     0
 90
        0
 40
-0.6
 41
-30.0
 62
     5
 63
     7
 74
     1
 91
        4
 64
     7
 65
   257
 75
     1
175
     1
 42
1.0
 92
        8
 66
     7
 43
1.0
 76
     1
 77
     6
 78
     2
 67
     7
 79
     5
170
     0
171
     0
290
     0
174
     0
 93
        1
 44
-50.0
173
     0
291
     1
 45
0.0
1001
ACAD
1000
AcDbSavedByObjectVersion
1070
     0
1000
AcDbSavedByObjectVersion
1070
     0
  0
VISUALSTYLE
  5
AA03
102
{ACAD_REACTORS
330
A9F4
102
}
330
A9F4
100
AcDbVisualStyle
  2
Facepattern
 70
    15
 71
     2
 72
     2
 73
     0
 90
        0
 40
-0.6
 41
-30.0
 62
     5
 63
     7
 74
     1
 91
        4
 64
     7
 65
   257
 75
     1
175
     1
 42
1.0
 92
        8
 66
     7
 43
1.0
 76
     1
 77
     6
 78
     2
 67
     7
 79
     5
170
     0
171
     0
290
     0
174
     0
 93
        1
 44
0.0
173
     0
291
     1
 45
0.0
1001
ACAD
1000
AcDbSavedByObjectVersion
1070
     0
1000
AcDbSavedByObjectVersion
1070
     0
  0
VISUALSTYLE
  5
A9F5
102
{ACAD_REACTORS
330
A9F4
102
}
330
A9F4
100
AcDbVisualStyle
  2
Flat
 70
     0
 71
     2
 72
     1
 73
     1
 90
        2
 40
-0.6
 41
30.0
 62
     5
 63
     7
 74
     0
 91
        4
 64
     7
 65
   257
 75
     1
175
     1
 42
1.0
 92
        8
 66
     7
 43
1.0
 76
     1
 77
     6
 78
     2
 67
     7
 79
     5
170
     0
171
     0
290
     0
174
     0
 93
       13
 44
0.0
173
     0
291
     1
 45
0.0
1001
ACAD
1000
AcDbSavedByObjectVersion
1070
     0
1000
AcDbSavedByObjectVersion
1070
     0
  0
VISUALSTYLE
  5
A9F6
102
{ACAD_REACTORS
330
A9F4
102
}
330
A9F4
100
AcDbVisualStyle
  2
FlatWithEdges
 70
     1
 71
     2
 72
     1
 73
     1
 90
        2
 40
-0.6
 41
30.0
 62
     5
 63
     7
 74
     1
 91
        4
 64
     7
 65
   257
 75
     1
175
     1
 42
1.0
 92
        0
 66
   257
 43
1.0
 76
     1
 77
     6
 78
     2
 67
     7
 79
     5
170
     0
171
     0
290
     0
174
     0
 93
       13
 44
0.0
173
     0
291
     1
 45
0.0
1001
ACAD
1000
AcDbSavedByObjectVersion
1070
     0
1000
AcDbSavedByObjectVersion
1070
     0
  0
VISUALSTYLE
  5
A9F7
102
{ACAD_REACTORS
330
A9F4
102
}
330
A9F4
100
AcDbVisualStyle
  2
Gouraud
 70
     2
 71
     2
 72
     2
 73
     1
 90
        2
 40
-0.6
 41
30.0
 62
     5
 63
     7
 74
     0
 91
        4
 64
     7
 65
   257
 75
     1
175
     1
 42
1.0
 92
        0
 66
     7
 43
1.0
 76
     1
 77
     6
 78
     2
 67
     7
 79
     5
170
     0
171
     0
290
     0
174
     0
 93
       13
 44
0.0
173
     0
291
     1
 45
0.0
1001
ACAD
1000
AcDbSavedByObjectVersion
1070
     0
1000
AcDbSavedByObjectVersion
1070
     0
  0
VISUALSTYLE
  5
A9F8
102
{ACAD_REACTORS
330
A9F4
102
}
330
A9F4
100
AcDbVisualStyle
  2
GouraudWithEdges
 70
     3
 71
     2
 72
     2
 73
     1
 90
        2
 40
-0.6
 41
30.0
 62
     5
 63
     7
 74
     1
 91
        4
 64
     7
 65
   257
 75
     1
175
     1
 42
1.0
 92
        0
 66
   257
 43
1.0
 76
     1
 77
     6
 78
     2
 67
     7
 79
     5
170
     0
171
     0
290
     0
174
     0
 93
       13
 44
0.0
173
     0
291
     1
 45
0.0
1001
ACAD
1000
AcDbSavedByObjectVersion
1070
     0
1000
AcDbSavedByObjectVersion
1070
     0
  0
VISUALSTYLE
  5
AA02
102
{ACAD_REACTORS
330
A9F4
102
}
330
A9F4
100
AcDbVisualStyle
  2
Linepattern
 70
    14
 71
     2
 72
     2
 73
     0
 90
        0
 40
-0.6
 41
-30.0
 62
     5
 63
     7
 74
     1
 91
        4
 64
     7
 65
   257
 75
     7
175
     7
 42
1.0
 92
        8
 66
     7
 43
1.0
 76
     1
 77
     6
 78
     2
 67
     7
 79
     5
170
     0
171
     0
290
     0
174
     0
 93
        1
 44
0.0
173
     0
291
     1
 45
0.0
1001
ACAD
1000
AcDbSavedByObjectVersion
1070
     0
1000
AcDbSavedByObjectVersion
1070
     0
  0
VISUALSTYLE
  5
B2AE
102
{ACAD_REACTORS
330
A9F4
102
}
330
A9F4
100
AcDbVisualStyle
  2
Realistic
 70
     8
 71
     2
 72
     2
 73
     0
 90
        0
 40
-0.6
 41
-30.0
 62
     5
 63
     7
 74
     1
 91
        0
 64
     7
 65
   257
 75
     1
175
     1
 42
1.0
 92
        8
 66
     8
 43
1.0
 76
     1
 77
     6
 78
     2
 67
     7
 79
     5
170
     0
171
     0
290
     0
174
     0
 93
       13
 44
0.0
173
     0
291
     0
 45
0.0
1001
ACAD
1000
AcDbSavedByObjectVersion
1070
     0
  0
VISUALSTYLE
  5
AA01
102
{ACAD_REACTORS
330
A9F4
102
}
330
A9F4
100
AcDbVisualStyle
  2
Thicken
 70
    13
 71
     2
 72
     2
 73
     0
 90
        0
 40
-0.6
 41
-30.0
 62
     5
 63
     7
 74
     1
 91
        4
 64
     7
 65
   257
 75
     1
175
     1
 42
1.0
 92
       12
 66
     7
 43
1.0
 76
     1
 77
     6
 78
     2
 67
     7
 79
     5
170
     0
171
     0
290
     0
174
     0
 93
        1
 44
0.0
173
     0
291
     1
 45
0.0
1001
ACAD
1000
AcDbSavedByObjectVersion
1070
     0
1000
AcDbSavedByObjectVersion
1070
     0
  0
DICTIONARYVAR
  5
B0FB
102
{ACAD_REACTORS
330
B0FA
102
}
330
B0FA
100
DictionaryVariables
280
     0
  1
STANDARD
  0
DICTIONARYVAR
  5
B29A
102
{ACAD_REACTORS
330
B0FA
102
}
330
B0FA
100
DictionaryVariables
280
     0
  1
2
  0
DICTIONARYVAR
  5
B299
102
{ACAD_REACTORS
330
B0FA
102
}
330
B0FA
100
DictionaryVariables
280
     0
  1
1
  0
DICTIONARYVAR
  5
B298
102
{ACAD_REACTORS
330
B0FA
102
}
330
B0FA
100
DictionaryVariables
280
     0
  1
0
  0
DICTIONARYVAR
  5
B297
102
{ACAD_REACTORS
330
B0FA
102
}
330
B0FA
100
DictionaryVariables
280
     0
  1
127
  0
DICTIONARY
  5
B2C4
330
AA15
100
AcDbDictionary
280
     1
281
     1
  3
ACAD_XREC_ROUNDTRIP
360
B2C5
  0
DICTIONARY
  5
B2C6
330
AA19
100
AcDbDictionary
280
     1
281
     1
  3
ACAD_XREC_ROUNDTRIP
360
B2C7
  0
DICTIONARY
  5
B29E
330
A9F2
100
AcDbDictionary
280
     1
281
     1
  3
ACAD_XREC_ROUNDTRIP
360
B29F
  0
DICTIONARY
  5
B29C
330
A9F1
100
AcDbDictionary
280
     1
281
     1
  3
ACAD_XREC_ROUNDTRIP
360
B29D
  0
DICTIONARY
  5
B2A0
330
A9F3
100
AcDbDictionary
280
     1
281
     1
  3
ACAD_XREC_ROUNDTRIP
360
B2A1
  0
DICTIONARY
  5
B2C2
330
AA11
100
AcDbDictionary
280
     1
281
     1
  3
ACAD_XREC_ROUNDTRIP
360
B2C3
  0
XRECORD
  5
B2C5
102
{ACAD_REACTORS
330
B2C4
102
}
330
B2C4
100
AcDbXrecord
280
     1
102
SHADEPLOT
 70
     0
102
SHADEPLOTRESLEVEL
 70
     2
102
SHADEPLOTCUSTOMDPI
 70
   300
  0
XRECORD
  5
B2C7
102
{ACAD_REACTORS
330
B2C6
102
}
330
B2C6
100
AcDbXrecord
280
     1
102
SHADEPLOT
 70
     0
102
SHADEPLOTRESLEVEL
 70
     2
102
SHADEPLOTCUSTOMDPI
 70
   300
  0
XRECORD
  5
B29F
102
{ACAD_REACTORS
330
B29E
102
}
330
B29E
100
AcDbXrecord
280
     1
102
MATERIAL
148
0.0
149
0.0
149
0.0
 93
        0
 94
       63
282
     0
 72
     1
 77
     1
171
     1
175
     1
179
     1
273
     0
  0
XRECORD
  5
B29D
102
{ACAD_REACTORS
330
B29C
102
}
330
B29C
100
AcDbXrecord
280
     1
102
MATERIAL
148
0.0
149
0.0
149
0.0
 93
        0
 94
       63
282
     0
 72
     1
 77
     1
171
     1
175
     1
179
     1
273
     0
  0
XRECORD
  5
B2A1
102
{ACAD_REACTORS
330
B2A0
102
}
330
B2A0
100
AcDbXrecord
280
     1
102
MATERIAL
148
0.0
149
0.0
149
0.0
 93
        0
 94
       63
282
     0
 72
     1
 77
     1
171
     1
175
     1
179
     1
273
     0
  0
XRECORD
  5
B2C3
102
{ACAD_REACTORS
330
B2C2
102
}
330
B2C2
100
AcDbXrecord
280
     1
102
ACAD_ROUNDTRIP_PRE2007_TABLESTYLE
 90
      512
 91
        0
  1

 92
      512
 93
        0
  2

 94
      512
 95
        0
  3

  0
ENDSEC
  0
EOF
