  0
SECTION
  2
HEADER
  9
$ACADVER
  1
AC1015
  9
$ACADMAINTVER
 70
    20
  9
$DWGCODEPAGE
  3
ANSI_1252
  9
$INSBASE
 10
0.0
 20
0.0
 30
0.0
  9
$EXTMIN
 10
-73.42954926113987
 20
97.13588535024939
 30
-0.2500304992418849
  9
$EXTMAX
 10
196.6153259683392
 20
297.1615374201686
 30
1.000064866734559
  9
$LIMMIN
 10
0.0
 20
0.0
  9
$LIMMAX
 10
420.0
 20
297.0
  9
$ORTHOMODE
 70
     1
  9
$REGENMODE
 70
     1
  9
$FILLMODE
 70
     1
  9
$QTEXTMODE
 70
     0
  9
$MIRRTEXT
 70
     0
  9
$LTSCALE
 40
1.0
  9
$ATTMODE
 70
     1
  9
$TEXTSIZE
 40
2.5
  9
$TRACEWID
 40
1.0
  9
$TEXTSTYLE
  7
Standard
  9
$CLAYER
  8
0
  9
$CELTYPE
  6
ByLayer
  9
$CECOLOR
 62
   256
  9
$CELTSCALE
 40
1.0
  9
$DISPSILH
 70
     0
  9
$DIMSCALE
 40
1.0
  9
$DIMASZ
 40
2.5
  9
$DIMEXO
 40
0.625
  9
$DIMDLI
 40
3.75
  9
$DIMRND
 40
0.0
  9
$DIMDLE
 40
0.0
  9
$DIMEXE
 40
1.25
  9
$DIMTP
 40
0.0
  9
$DIMTM
 40
0.0
  9
$DIMTXT
 40
2.5
  9
$DIMCEN
 40
2.5
  9
$DIMTSZ
 40
0.0
  9
$DIMTOL
 70
     0
  9
$DIMLIM
 70
     0
  9
$DIMTIH
 70
     0
  9
$DIMTOH
 70
     0
  9
$DIMSE1
 70
     0
  9
$DIMSE2
 70
     0
  9
$DIMTAD
 70
     1
  9
$DIMZIN
 70
     8
  9
$DIMBLK
  1

  9
$DIMASO
 70
     1
  9
$DIMSHO
 70
     1
  9
$DIMPOST
  1

  9
$DIMAPOST
  1

  9
$DIMALT
 70
     0
  9
$DIMALTD
 70
     3
  9
$DIMALTF
 40
0.03937007874016
  9
$DIMLFAC
 40
1.0
  9
$DIMTOFL
 70
     1
  9
$DIMTVP
 40
0.0
  9
$DIMTIX
 70
     0
  9
$DIMSOXD
 70
     0
  9
$DIMSAH
 70
     0
  9
$DIMBLK1
  1

  9
$DIMBLK2
  1

  9
$DIMSTYLE
  2
ISO-25
  9
$DIMCLRD
 70
     0
  9
$DIMCLRE
 70
     0
  9
$DIMCLRT
 70
     0
  9
$DIMTFAC
 40
1.0
  9
$DIMGAP
 40
0.625
  9
$DIMJUST
 70
     0
  9
$DIMSD1
 70
     0
  9
$DIMSD2
 70
     0
  9
$DIMTOLJ
 70
     0
  9
$DIMTZIN
 70
     8
  9
$DIMALTZ
 70
     0
  9
$DIMALTTZ
 70
     0
  9
$DIMUPT
 70
     0
  9
$DIMDEC
 70
     2
  9
$DIMTDEC
 70
     2
  9
$DIMALTU
 70
     2
  9
$DIMALTTD
 70
     3
  9
$DIMTXSTY
  7
Standard
  9
$DIMAUNIT
 70
     0
  9
$DIMADEC
 70
     0
  9
$DIMALTRND
 40
0.0
  9
$DIMAZIN
 70
     0
  9
$DIMDSEP
 70
    44
  9
$DIMATFIT
 70
     3
  9
$DIMFRAC
 70
     0
  9
$DIMLDRBLK
  1

  9
$DIMLUNIT
 70
     2
  9
$DIMLWD
 70
    -2
  9
$DIMLWE
 70
    -2
  9
$DIMTMOVE
 70
     0
  9
$LUNITS
 70
     2
  9
$LUPREC
 70
     4
  9
$SKETCHINC
 40
1.0
  9
$FILLETRAD
 40
10.0
  9
$AUNITS
 70
     0
  9
$AUPREC
 70
     0
  9
$MENU
  1
.
  9
$ELEVATION
 40
0.0
  9
$PELEVATION
 40
0.0
  9
$THICKNESS
 40
0.0
  9
$LIMCHECK
 70
     0
  9
$CHAMFERA
 40
10.0
  9
$CHAMFERB
 40
10.0
  9
$CHAMFERC
 40
20.0
  9
$CHAMFERD
 40
0.0
  9
$SKPOLY
 70
     0
  9
$TDCREATE
 40
2453200.520904387
  9
$TDUCREATE
 40
2453200.437571053
  9
$TDUPDATE
 40
2453928.395050324
  9
$TDUUPDATE
 40
2453928.311716991
  9
$TDINDWG
 40
1.1111332292
  9
$TDUSRTIMER
 40
1.1111272454
  9
$USRTIMER
 70
     1
  9
$ANGBASE
 50
0.0
  9
$ANGDIR
 70
     0
  9
$PDMODE
 70
     0
  9
$PDSIZE
 40
0.0
  9
$PLINEWID
 40
0.0
  9
$SPLFRAME
 70
     0
  9
$SPLINETYPE
 70
     6
  9
$SPLINESEGS
 70
     8
  9
$HANDSEED
  5
1A601
  9
$SURFTAB1
 70
     6
  9
$SURFTAB2
 70
     6
  9
$SURFTYPE
 70
     6
  9
$SURFU
 70
     6
  9
$SURFV
 70
     6
  9
$UCSBASE
  2

  9
$UCSNAME
  2

  9
$UCSORG
 10
0.0
 20
0.0
 30
0.0
  9
$UCSXDIR
 10
1.0
 20
0.0
 30
0.0
  9
$UCSYDIR
 10
0.0
 20
1.0
 30
0.0
  9
$UCSORTHOREF
  2

  9
$UCSORTHOVIEW
 70
     0
  9
$UCSORGTOP
 10
0.0
 20
0.0
 30
0.0
  9
$UCSORGBOTTOM
 10
0.0
 20
0.0
 30
0.0
  9
$UCSORGLEFT
 10
0.0
 20
0.0
 30
0.0
  9
$UCSORGRIGHT
 10
0.0
 20
0.0
 30
0.0
  9
$UCSORGFRONT
 10
0.0
 20
0.0
 30
0.0
  9
$UCSORGBACK
 10
0.0
 20
0.0
 30
0.0
  9
$PUCSBASE
  2

  9
$PUCSNAME
  2

  9
$PUCSORG
 10
0.0
 20
0.0
 30
0.0
  9
$PUCSXDIR
 10
1.0
 20
0.0
 30
0.0
  9
$PUCSYDIR
 10
0.0
 20
1.0
 30
0.0
  9
$PUCSORTHOREF
  2

  9
$PUCSORTHOVIEW
 70
     0
  9
$PUCSORGTOP
 10
0.0
 20
0.0
 30
0.0
  9
$PUCSORGBOTTOM
 10
0.0
 20
0.0
 30
0.0
  9
$PUCSORGLEFT
 10
0.0
 20
0.0
 30
0.0
  9
$PUCSORGRIGHT
 10
0.0
 20
0.0
 30
0.0
  9
$PUCSORGFRONT
 10
0.0
 20
0.0
 30
0.0
  9
$PUCSORGBACK
 10
0.0
 20
0.0
 30
0.0
  9
$USERI1
 70
     0
  9
$USERI2
 70
     0
  9
$USERI3
 70
     0
  9
$USERI4
 70
     0
  9
$USERI5
 70
     0
  9
$USERR1
 40
0.0
  9
$USERR2
 40
0.0
  9
$USERR3
 40
0.0
  9
$USERR4
 40
0.0
  9
$USERR5
 40
0.0
  9
$WORLDVIEW
 70
     1
  9
$SHADEDGE
 70
     3
  9
$SHADEDIF
 70
    70
  9
$TILEMODE
 70
     1
  9
$MAXACTVP
 70
    64
  9
$PINSBASE
 10
0.0
 20
0.0
 30
0.0
  9
$PLIMCHECK
 70
     0
  9
$PEXTMIN
 10
0.0
 20
0.0
 30
0.0
  9
$PEXTMAX
 10
0.0
 20
0.0
 30
0.0
  9
$PLIMMIN
 10
0.0
 20
0.0
  9
$PLIMMAX
 10
12.0
 20
9.0
  9
$UNITMODE
 70
     0
  9
$VISRETAIN
 70
     1
  9
$PLINEGEN
 70
     0
  9
$PSLTSCALE
 70
     1
  9
$TREEDEPTH
 70
  3020
  9
$CMLSTYLE
  2
Standard
  9
$CMLJUST
 70
     0
  9
$CMLSCALE
 40
20.0
  9
$PROXYGRAPHICS
 70
     1
  9
$MEASUREMENT
 70
     1
  9
$CELWEIGHT
370
    -1
  9
$ENDCAPS
280
     0
  9
$JOINSTYLE
280
     0
  9
$LWDISPLAY
290
     0
  9
$INSUNITS
 70
     4
  9
$HYPERLINKBASE
  1

  9
$STYLESHEET
  1

  9
$XEDIT
290
     1
  9
$CEPSNTYPE
380
     0
  9
$PSTYLEMODE
290
     1
  9
$FINGERPRINTGUID
  2
{FDEAD578-A652-11D2-9A35-0060089B3A3F}
  9
$VERSIONGUID
  2
{AEB1CBD0-EC6D-4AB2-8ADC-629B77AFE570}
  9
$EXTNAMES
290
     1
  9
$PSVPSCALE
 40
0.0
  9
$OLESTARTUP
290
     0
  0
ENDSEC
  0
SECTION
  2
CLASSES
  0
CLASS
  1
ACDBDICTIONARYWDFLT
  2
AcDbDictionaryWithDefault
  3
ObjectDBX Classes
 90
        0
280
     0
281
     0
  0
CLASS
  1
DICTIONARYVAR
  2
AcDbDictionaryVar
  3
ObjectDBX Classes
 90
        0
280
     0
281
     0
  0
CLASS
  1
DIMASSOC
  2
AcDbDimAssoc
  3
"AcDbDimAssoc|Product Desc:     AcDim ARX App For Dimension|Company:          Autodesk, Inc.|WEB Address:      www.autodesk.com"
 90
        0
280
     0
281
     0
  0
CLASS
  1
ACDBPLACEHOLDER
  2
AcDbPlaceHolder
  3
ObjectDBX Classes
 90
        0
280
     0
281
     0
  0
CLASS
  1
LAYOUT
  2
AcDbLayout
  3
ObjectDBX Classes
 90
        0
280
     0
281
     0
  0
ENDSEC
  0
SECTION
  2
TABLES
  0
TABLE
  2
VPORT
  5
8
330
0
100
AcDbSymbolTable
 70
     5
  0
VPORT
  5
1A5F6
330
8
100
AcDbSymbolTableRecord
100
AcDbViewportTableRecord
  2
*Active
 70
     0
 10
0.0
 20
0.0
 11
1.0
 21
1.0
 12
61.59288835359969
 22
197.148711385209
 13
0.0
 23
0.0
 14
10.0
 24
10.0
 15
10.0
 25
10.0
 16
0.0
 26
0.0
 36
1.0
 17
0.0
 27
0.0
 37
0.0
 40
201.2654804918402
 41
1.605997931747673
 42
50.0
 43
0.0
 44
0.0
 50
0.0
 51
0.0
 71
     0
 72
  1000
 73
     1
 74
     3
 75
     0
 76
     0
 77
     0
 78
     0
281
     0
 65
     1
110
0.0
120
0.0
130
0.0
111
1.0
121
0.0
131
0.0
112
0.0
122
1.0
132
0.0
 79
     0
146
0.0
  0
ENDTAB
  0
TABLE
  2
LTYPE
  5
5
330
0
100
AcDbSymbolTable
 70
     4
  0
LTYPE
  5
14
330
5
100
AcDbSymbolTableRecord
100
AcDbLinetypeTableRecord
  2
ByBlock
 70
     0
  3

 72
    65
 73
     0
 40
0.0
  0
LTYPE
  5
15
330
5
100
AcDbSymbolTableRecord
100
AcDbLinetypeTableRecord
  2
ByLayer
 70
     0
  3

 72
    65
 73
     0
 40
0.0
  0
LTYPE
  5
16
330
5
100
AcDbSymbolTableRecord
100
AcDbLinetypeTableRecord
  2
Continuous
 70
     0
  3
Solid line
 72
    65
 73
     0
 40
0.0
  0
LTYPE
  5
118
330
5
100
AcDbSymbolTableRecord
100
AcDbLinetypeTableRecord
  2
CENTER
 70
     0
  3
____ _ ____ _ ____ _ ____ _ ____ _ ____ _ ____
 72
    65
 73
     4
 40
0.6
 49
0.375
 74
     0
 49
-0.075
 74
     0
 49
0.075
 74
     0
 49
-0.075
 74
     0
  0
LTYPE
  5
127A8
330
5
100
AcDbSymbolTableRecord
100
AcDbLinetypeTableRecord
  2
HIDDEN
 70
     0
  3
_ 
 72
    65
 73
     2
 40
4.5
 49
3.0
 74
     0
 49
-1.5
 74
     0
  0
LTYPE
  5
18DDD
330
5
100
AcDbSymbolTableRecord
100
AcDbLinetypeTableRecord
  2
DASHED
 70
     0
  3
_ _ _ _ _ _ _ _ _ _ _ _ _ _ _ _ _ _ _ _ _ _ _ _
 72
    65
 73
     2
 40
0.375
 49
0.25
 74
     0
 49
-0.125
 74
     0
  0
ENDTAB
  0
TABLE
  2
LAYER
  5
2
330
0
100
AcDbSymbolTable
 70
     8
  0
LAYER
  5
10
330
2
100
AcDbSymbolTableRecord
100
AcDbLayerTableRecord
  2
0
 70
     0
 62
     7
  6
Continuous
370
    -3
390
F
  0
LAYER
  5
119
330
2
100
AcDbSymbolTableRecord
100
AcDbLayerTableRecord
  2
Defpoints
 70
     0
 62
     7
  6
Continuous
290
     0
370
    -3
390
F
  0
LAYER
  5
11A
330
2
100
AcDbSymbolTableRecord
100
AcDbLayerTableRecord
  2
91000_TIP
 70
     0
 62
     7
  6
Continuous
370
    -3
390
F
  0
LAYER
  5
11B
330
2
100
AcDbSymbolTableRecord
100
AcDbLayerTableRecord
  2
11000_Left
 70
     0
 62
     7
  6
Continuous
370
    -3
390
F
  0
LAYER
  5
11C
330
2
100
AcDbSymbolTableRecord
100
AcDbLayerTableRecord
  2
10000_FRONT
 70
     0
 62
     7
  6
Continuous
370
    -3
390
F
  0
LAYER
  5
11D
330
2
100
AcDbSymbolTableRecord
100
AcDbLayerTableRecord
  2
10100_FRONT_DIM
 70
     0
 62
     7
  6
Continuous
370
    -3
390
F
  0
LAYER
  5
11E
330
2
100
AcDbSymbolTableRecord
100
AcDbLayerTableRecord
  2
90000_FRAME
 70
     0
 62
     7
  6
Continuous
370
    -3
390
F
  0
LAYER
  5
11F
330
2
100
AcDbSymbolTableRecord
100
AcDbLayerTableRecord
  2
11100_LEFT_DIM
 70
     0
 62
     7
  6
Continuous
370
    -3
390
F
  0
ENDTAB
  0
TABLE
  2
STYLE
  5
3
330
0
100
AcDbSymbolTable
 70
     1
  0
STYLE
  5
11
330
3
100
AcDbSymbolTableRecord
100
AcDbTextStyleTableRecord
  2
Standard
 70
     0
 40
0.0
 41
1.0
 50
0.0
 71
     0
 42
2.5
  3
txt
  4

  0
ENDTAB
  0
TABLE
  2
VIEW
  5
6
330
0
100
AcDbSymbolTable
 70
     0
  0
ENDTAB
  0
TABLE
  2
UCS
  5
7
330
0
100
AcDbSymbolTable
 70
     0
  0
ENDTAB
  0
TABLE
  2
APPID
  5
9
330
0
100
AcDbSymbolTable
 70
     3
  0
APPID
  5
12
330
9
100
AcDbSymbolTableRecord
100
AcDbRegAppTableRecord
  2
ACAD
 70
     0
  0
APPID
  5
121
330
9
100
AcDbSymbolTableRecord
100
AcDbRegAppTableRecord
  2
AUSTER_ANSICHT
 70
     0
  0
APPID
  5
122
330
9
100
AcDbSymbolTableRecord
100
AcDbRegAppTableRecord
  2
AUSTER_FOLIE
 70
     0
  0
ENDTAB
  0
TABLE
  2
DIMSTYLE
  5
A
330
0
100
AcDbSymbolTable
 70
     3
100
AcDbDimStyleTable
 71
     2
340
147AC
340
27
  0
DIMSTYLE
105
27
330
A
100
AcDbSymbolTableRecord
100
AcDbDimStyleTableRecord
  2
ISO-25
 70
     0
 41
2.5
 42
0.625
 43
3.75
 44
1.25
 73
     0
 74
     0
 77
     1
 78
     8
140
2.5
141
2.5
143
0.03937007874016
147
0.625
171
     3
172
     1
271
     2
272
     2
274
     3
278
    44
283
     0
284
     8
340
11
  0
DIMSTYLE
105
147AC
102
{ACAD_REACTORS
330
199D0
330
199D1
330
199D2
330
19A05
330
19AE2
330
19AE3
330
19AE4
330
19AE5
330
1A561
102
}
330
A
100
AcDbSymbolTableRecord
100
AcDbDimStyleTableRecord
  2
H035
 70
     0
 40
0.0
 41
2.5
 42
2.0
 43
4.0
 44
1.0
 73
     0
 74
     0
 78
     8
140
3.5
141
2.5
143
0.0394
147
2.0
171
     4
172
     1
176
     7
177
     7
178
     7
271
     0
272
     0
273
     8
274
     4
277
     6
340
11
  0
DIMSTYLE
105
18DE0
102
{ACAD_REACTORS
330
19A1B
102
}
330
A
100
AcDbSymbolTableRecord
100
AcDbDimStyleTableRecord
  2
DSTYLE2
 70
     0
 41
3.0
 42
1.0
 43
0.5
 44
1.0
 73
     0
 74
     0
 78
     3
140
4.0
143
0.039370079
147
1.0
271
     0
340
11
  0
ENDTAB
  0
TABLE
  2
BLOCK_RECORD
  5
1
330
0
100
AcDbSymbolTable
 70
    14
  0
BLOCK_RECORD
  5
1F
330
1
100
AcDbSymbolTableRecord
100
AcDbBlockTableRecord
  2
*Model_Space
340
22
  0
BLOCK_RECORD
  5
50
330
1
100
AcDbSymbolTableRecord
100
AcDbBlockTableRecord
  2
*Paper_Space
340
51
  0
BLOCK_RECORD
  5
55
330
1
100
AcDbSymbolTableRecord
100
AcDbBlockTableRecord
  2
*Paper_Space0
340
56
  0
BLOCK_RECORD
  5
86
330
1
100
AcDbSymbolTableRecord
100
AcDbBlockTableRecord
  2
SIEMENS_OUTLINE_BL0
340
0
102
{BLKREFS
331
1947C
102
}
  0
BLOCK_RECORD
  5
19B5D
330
1
100
AcDbSymbolTableRecord
100
AcDbBlockTableRecord
  2
*D3
340
0
  0
BLOCK_RECORD
  5
19B6A
330
1
100
AcDbSymbolTableRecord
100
AcDbBlockTableRecord
  2
*D4
340
0
  0
BLOCK_RECORD
  5
19B77
330
1
100
AcDbSymbolTableRecord
100
AcDbBlockTableRecord
  2
*D5
340
0
  0
BLOCK_RECORD
  5
19B84
330
1
100
AcDbSymbolTableRecord
100
AcDbBlockTableRecord
  2
*D6
340
0
  0
BLOCK_RECORD
  5
19B91
330
1
100
AcDbSymbolTableRecord
100
AcDbBlockTableRecord
  2
*D7
340
0
  0
BLOCK_RECORD
  5
19B9E
330
1
100
AcDbSymbolTableRecord
100
AcDbBlockTableRecord
  2
*D8
340
0
  0
BLOCK_RECORD
  5
19BAB
330
1
100
AcDbSymbolTableRecord
100
AcDbBlockTableRecord
  2
*D9
340
0
  0
BLOCK_RECORD
  5
19BBB
330
1
100
AcDbSymbolTableRecord
100
AcDbBlockTableRecord
  2
*D10
340
0
  0
BLOCK_RECORD
  5
19BC8
330
1
100
AcDbSymbolTableRecord
100
AcDbBlockTableRecord
  2
*D11
340
0
  0
BLOCK_RECORD
  5
1A562
330
1
100
AcDbSymbolTableRecord
100
AcDbBlockTableRecord
  2
*D13
340
0
  0
ENDTAB
  0
ENDSEC
  0
SECTION
  2
BLOCKS
  0
BLOCK
  5
20
330
1F
100
AcDbEntity
  8
0
100
AcDbBlockBegin
  2
*Model_Space
 70
     0
 10
0.0
 20
0.0
 30
0.0
  3
*Model_Space
  1

  0
ENDBLK
  5
21
330
1F
100
AcDbEntity
  8
0
100
AcDbBlockEnd
  0
BLOCK
  5
52
330
50
100
AcDbEntity
 67
     1
  8
0
100
AcDbBlockBegin
  2
*Paper_Space
 70
     0
 10
0.0
 20
0.0
 30
0.0
  3
*Paper_Space
  1

  0
ENDBLK
  5
53
330
50
100
AcDbEntity
 67
     1
  8
0
100
AcDbBlockEnd
  0
BLOCK
  5
57
330
55
100
AcDbEntity
  8
0
100
AcDbBlockBegin
  2
*Paper_Space0
 70
     0
 10
0.0
 20
0.0
 30
0.0
  3
*Paper_Space0
  1

  0
ENDBLK
  5
58
330
55
100
AcDbEntity
  8
0
100
AcDbBlockEnd
  0
BLOCK
  5
87
330
86
100
AcDbEntity
  8
0
  6
Continuous
 62
     7
100
AcDbBlockBegin
  2
SIEMENS_OUTLINE_BL0
 70
     0
 10
0.0
 20
0.0
 30
0.0
  3
SIEMENS_OUTLINE_BL0
  1

  0
LINE
  5
88
330
86
100
AcDbEntity
  8
0
  6
Continuous
 62
     7
100
AcDbLine
 10
79.186200508
 20
21.4145478991
 30
0.0
 11
79.186200508
 21
16.6612788158
 31
0.0
  0
LINE
  5
89
330
86
100
AcDbEntity
  8
0
  6
Continuous
 62
     7
100
AcDbLine
 10
80.61218123299999
 20
21.4145478991
 30
0.0
 11
80.61218123299999
 21
16.6612788158
 31
0.0
  0
LINE
  5
8A
330
86
100
AcDbEntity
  8
0
  6
Continuous
 62
     7
100
AcDbLine
 10
79.186200508
 20
16.6612788158
 30
0.0
 11
80.61218123299999
 21
16.6612788158
 31
0.0
  0
LINE
  5
8B
330
86
100
AcDbEntity
  8
0
  6
Continuous
 62
     7
100
AcDbLine
 10
79.186200508
 20
21.4145478991
 30
0.0
 11
80.61218123299999
 21
21.4145478991
 31
0.0
  0
LINE
  5
8C
330
86
100
AcDbEntity
  8
0
  6
Continuous
 62
     7
100
AcDbLine
 10
81.7054331221
 20
21.4145478991
 30
0.0
 11
81.7054331221
 21
16.6612788158
 31
0.0
  0
LINE
  5
8D
330
86
100
AcDbEntity
  8
0
  6
Continuous
 62
     7
100
AcDbLine
 10
81.7054331221
 20
16.6612788158
 30
0.0
 11
85.2703849346
 21
16.6612788158
 31
0.0
  0
LINE
  5
8E
330
86
100
AcDbEntity
  8
0
  6
Continuous
 62
     7
100
AcDbLine
 10
85.2703849346
 20
17.56439994169999
 30
0.0
 11
83.0838811563
 21
17.56439994169999
 31
0.0
  0
LINE
  5
8F
330
86
100
AcDbEntity
  8
0
  6
Continuous
 62
     7
100
AcDbLine
 10
85.2703849346
 20
17.56439994169999
 30
0.0
 11
85.2703849346
 21
16.6612788158
 31
0.0
  0
LINE
  5
90
330
86
100
AcDbEntity
  8
0
  6
Continuous
 62
     7
100
AcDbLine
 10
85.2228522438
 20
21.4145478991
 30
0.0
 11
81.7054331221
 21
21.4145478991
 31
0.0
  0
LINE
  5
91
330
86
100
AcDbEntity
  8
0
  6
Continuous
 62
     7
100
AcDbLine
 10
85.2228522438
 20
20.5351931187
 30
0.0
 11
83.0838811563
 21
20.5351931187
 31
0.0
  0
LINE
  5
92
330
86
100
AcDbEntity
  8
0
  6
Continuous
 62
     7
100
AcDbLine
 10
85.2228522438
 20
21.4145478991
 30
0.0
 11
85.2228522438
 21
20.5351931187
 31
0.0
  0
LINE
  5
93
330
86
100
AcDbEntity
  8
0
  6
Continuous
 62
     7
100
AcDbLine
 10
84.9376560988
 20
18.68141817619999
 30
0.0
 11
83.0838811563
 21
18.68141817619999
 31
0.0
  0
LINE
  5
94
330
86
100
AcDbEntity
  8
0
  6
Continuous
 62
     7
100
AcDbLine
 10
84.9376560988
 20
19.46570757499999
 30
0.0
 11
84.9376560988
 21
18.68141817619999
 31
0.0
  0
LINE
  5
95
330
86
100
AcDbEntity
  8
0
  6
Continuous
 62
     7
100
AcDbLine
 10
84.9376560988
 20
19.46570757499999
 30
0.0
 11
83.0838811563
 21
19.46570757499999
 31
0.0
  0
LINE
  5
96
330
86
100
AcDbEntity
  8
0
  6
Continuous
 62
     7
100
AcDbLine
 10
83.0838811563
 20
20.5351931187
 30
0.0
 11
83.0838811563
 21
19.46570757499999
 31
0.0
  0
LINE
  5
97
330
86
100
AcDbEntity
  8
0
  6
Continuous
 62
     7
100
AcDbLine
 10
83.0838811563
 20
18.68141817619999
 30
0.0
 11
83.0838811563
 21
17.56439994169999
 31
0.0
  0
LINE
  5
98
330
86
100
AcDbEntity
  8
0
  6
Continuous
 62
     7
100
AcDbLine
 10
86.0784406788
 20
16.6612788158
 30
0.0
 11
86.0784406788
 21
21.4145478991
 31
0.0
  0
LINE
  5
99
330
86
100
AcDbEntity
  8
0
  6
Continuous
 62
     7
100
AcDbLine
 10
86.0784406788
 20
16.6612788158
 30
0.0
 11
87.02909449539999
 21
16.6612788158
 31
0.0
  0
LINE
  5
9A
330
86
100
AcDbEntity
  8
0
  6
Continuous
 62
     7
100
AcDbLine
 10
91.92496165120001
 20
21.4145478991
 30
0.0
 11
91.92496165120001
 21
16.6612788158
 31
0.0
  0
LINE
  5
9B
330
86
100
AcDbEntity
  8
0
  6
Continuous
 62
     7
100
AcDbLine
 10
91.92496165120001
 20
16.6612788158
 30
0.0
 11
90.54651361700001
 21
16.6612788158
 31
0.0
  0
LINE
  5
9C
330
86
100
AcDbEntity
  8
0
  6
Continuous
 62
     7
100
AcDbLine
 10
88.3600098387
 20
16.61374612499999
 30
0.0
 11
89.21559827370002
 21
16.61374612499999
 31
0.0
  0
LINE
  5
9D
330
86
100
AcDbEntity
  8
0
  6
Continuous
 62
     7
100
AcDbLine
 10
88.3600098387
 20
16.61374612499999
 30
0.0
 11
87.02909449539999
 21
19.7033710291
 31
0.0
  0
LINE
  5
9E
330
86
100
AcDbEntity
  8
0
  6
Continuous
 62
     7
100
AcDbLine
 10
87.02909449539999
 20
16.6612788158
 30
0.0
 11
87.02909449539999
 21
19.7033710291
 31
0.0
  0
LINE
  5
9F
330
86
100
AcDbEntity
  8
0
  6
Continuous
 62
     7
100
AcDbLine
 10
90.54651361700001
 20
19.75090372
 30
0.0
 11
89.21559827370002
 21
16.61374612499999
 31
0.0
  0
LINE
  5
A0
330
86
100
AcDbEntity
  8
0
  6
Continuous
 62
     7
100
AcDbLine
 10
87.78961754870001
 20
21.4145478991
 30
0.0
 11
86.0784406788
 21
21.4145478991
 31
0.0
  0
LINE
  5
A1
330
86
100
AcDbEntity
  8
0
  6
Continuous
 62
     7
100
AcDbLine
 10
91.92496165120001
 20
21.4145478991
 30
0.0
 11
90.2137847812
 21
21.4145478991
 31
0.0
  0
LINE
  5
A2
330
86
100
AcDbEntity
  8
0
  6
Continuous
 62
     7
100
AcDbLine
 10
87.78961754870001
 20
21.4145478991
 30
0.0
 11
89.0254675104
 21
18.51505375829999
 31
0.0
  0
LINE
  5
A3
330
86
100
AcDbEntity
  8
0
  6
Continuous
 62
     7
100
AcDbLine
 10
90.2137847812
 20
21.4145478991
 30
0.0
 11
89.0254675104
 21
18.51505375829999
 31
0.0
  0
LINE
  5
A4
330
86
100
AcDbEntity
  8
0
  6
Continuous
 62
     7
100
AcDbLine
 10
90.54651361700001
 20
19.75090372
 30
0.0
 11
90.54651361700001
 21
16.6612788158
 31
0.0
  0
LINE
  5
A5
330
86
100
AcDbEntity
  8
0
  6
Continuous
 62
     7
100
AcDbLine
 10
93.01821354030002
 20
21.4145478991
 30
0.0
 11
93.01821354030002
 21
16.6612788158
 31
0.0
  0
LINE
  5
A6
330
86
100
AcDbEntity
  8
0
  6
Continuous
 62
     7
100
AcDbLine
 10
93.01821354030002
 20
16.6612788158
 30
0.0
 11
96.5831653528
 21
16.6612788158
 31
0.0
  0
LINE
  5
A7
330
86
100
AcDbEntity
  8
0
  6
Continuous
 62
     7
100
AcDbLine
 10
96.5831653528
 20
17.56439994169999
 30
0.0
 11
94.3966615745
 21
17.56439994169999
 31
0.0
  0
LINE
  5
A8
330
86
100
AcDbEntity
  8
0
  6
Continuous
 62
     7
100
AcDbLine
 10
96.5831653528
 20
17.56439994169999
 30
0.0
 11
96.5831653528
 21
16.6612788158
 31
0.0
  0
LINE
  5
A9
330
86
100
AcDbEntity
  8
0
  6
Continuous
 62
     7
100
AcDbLine
 10
96.53563266200002
 20
21.4145478991
 30
0.0
 11
93.01821354030002
 21
21.4145478991
 31
0.0
  0
LINE
  5
AA
330
86
100
AcDbEntity
  8
0
  6
Continuous
 62
     7
100
AcDbLine
 10
96.53563266200002
 20
20.5351931187
 30
0.0
 11
94.3966615745
 21
20.5351931187
 31
0.0
  0
LINE
  5
AB
330
86
100
AcDbEntity
  8
0
  6
Continuous
 62
     7
100
AcDbLine
 10
96.53563266200002
 20
21.4145478991
 30
0.0
 11
96.53563266200002
 21
20.5351931187
 31
0.0
  0
LINE
  5
AC
330
86
100
AcDbEntity
  8
0
  6
Continuous
 62
     7
100
AcDbLine
 10
96.25043651700002
 20
18.68141817619999
 30
0.0
 11
94.3966615745
 21
18.68141817619999
 31
0.0
  0
LINE
  5
AD
330
86
100
AcDbEntity
  8
0
  6
Continuous
 62
     7
100
AcDbLine
 10
96.25043651700002
 20
19.46570757499999
 30
0.0
 11
96.25043651700002
 21
18.68141817619999
 31
0.0
  0
LINE
  5
AE
330
86
100
AcDbEntity
  8
0
  6
Continuous
 62
     7
100
AcDbLine
 10
96.25043651700002
 20
19.46570757499999
 30
0.0
 11
94.3966615745
 21
19.46570757499999
 31
0.0
  0
LINE
  5
AF
330
86
100
AcDbEntity
  8
0
  6
Continuous
 62
     7
100
AcDbLine
 10
94.3966615745
 20
20.5351931187
 30
0.0
 11
94.3966615745
 21
19.46570757499999
 31
0.0
  0
LINE
  5
B0
330
86
100
AcDbEntity
  8
0
  6
Continuous
 62
     7
100
AcDbLine
 10
94.3966615745
 20
18.68141817619999
 30
0.0
 11
94.3966615745
 21
17.56439994169999
 31
0.0
  0
LINE
  5
B1
330
86
100
AcDbEntity
  8
0
  6
Continuous
 62
     7
100
AcDbLine
 10
97.3674547515
 20
16.6612788158
 30
0.0
 11
97.3674547515
 21
21.4145478991
 31
0.0
  0
LINE
  5
B2
330
86
100
AcDbEntity
  8
0
  6
Continuous
 62
     7
100
AcDbLine
 10
101.5503315447999
 20
21.4145478991
 30
0.0
 11
101.5503315447999
 21
16.6612788158
 31
0.0
  0
LINE
  5
B3
330
86
100
AcDbEntity
  8
0
  6
Continuous
 62
     7
100
AcDbLine
 10
97.3674547515
 20
16.6612788158
 30
0.0
 11
98.3181085682
 21
16.6612788158
 31
0.0
  0
LINE
  5
B4
330
86
100
AcDbEntity
  8
0
  6
Continuous
 62
     7
100
AcDbLine
 10
101.5503315447999
 20
21.4145478991
 30
0.0
 11
100.5996777281999
 21
21.4145478991
 31
0.0
  0
LINE
  5
B5
330
86
100
AcDbEntity
  8
0
  6
Continuous
 62
     7
100
AcDbLine
 10
98.91226720360002
 20
21.4145478991
 30
0.0
 11
97.3674547515
 21
21.4145478991
 31
0.0
  0
LINE
  5
B6
330
86
100
AcDbEntity
  8
0
  6
Continuous
 62
     7
100
AcDbLine
 10
101.5503315447999
 20
16.6612788158
 30
0.0
 11
100.0292854381999
 21
16.6612788158
 31
0.0
  0
LINE
  5
B7
330
86
100
AcDbEntity
  8
0
  6
Continuous
 62
     7
100
AcDbLine
 10
100.0292854381999
 20
16.6612788158
 30
0.0
 11
98.3181085682
 21
19.7033710291
 31
0.0
  0
LINE
  5
B8
330
86
100
AcDbEntity
  8
0
  6
Continuous
 62
     7
100
AcDbLine
 10
98.91226720360002
 20
21.4145478991
 30
0.0
 11
100.5996777281999
 21
18.4675210675
 31
0.0
  0
LINE
  5
B9
330
86
100
AcDbEntity
  8
0
  6
Continuous
 62
     7
100
AcDbLine
 10
100.5996777281999
 20
21.4145478991
 30
0.0
 11
100.5996777281999
 21
18.4675210675
 31
0.0
  0
LINE
  5
BA
330
86
100
AcDbEntity
  8
0
  6
Continuous
 62
     7
100
AcDbLine
 10
98.3181085682
 20
16.6612788158
 30
0.0
 11
98.3181085682
 21
19.7033710291
 31
0.0
  0
LINE
  5
BB
330
86
100
AcDbEntity
  8
0
  6
Continuous
 62
     7
100
AcDbLine
 10
102.3583872889999
 20
16.75634419749999
 30
0.0
 11
102.3583872889999
 21
17.7069980142
 31
0.0
  0
LINE
  5
BC
330
86
100
AcDbEntity
  8
0
  6
Continuous
 62
     7
100
AcDbLine
 10
105.6856756473
 20
20.4163613916
 30
0.0
 11
105.6856756473
 21
21.36701520829999
 31
0.0
  0
ARC
  5
BD
330
86
100
AcDbEntity
  8
0
  6
Continuous
 62
     7
100
AcDbCircle
 10
104.063028414
 20
18.61843736089998
 30
0.0
 40
1.111619360599997
100
AcDbArc
 50
277.7099956934
 51
295.6884927745999
  0
ARC
  5
BE
330
86
100
AcDbEntity
  8
0
  6
Continuous
 62
     7
100
AcDbCircle
 10
104.3473383967
 20
17.8936115972
 30
0.0
 40
0.3401689265
100
AcDbArc
 50
305.503221255
 51
72.46528985229999
  0
ARC
  5
BF
330
86
100
AcDbEntity
  8
0
  6
Continuous
 62
     7
100
AcDbCircle
 10
103.7813445885999
 20
21.2953185068
 30
0.0
 40
4.756794641099999
100
AcDbArc
 50
252.5939200548001
 51
280.9816604255999
  0
ARC
  5
C0
330
86
100
AcDbEntity
  8
0
  6
Continuous
 62
     7
100
AcDbCircle
 10
104.2361799517
 20
18.6773047703
 30
0.0
 40
2.100726595299998
100
AcDbArc
 50
282.4058358519999
 51
311.8644433928
  0
ARC
  5
C1
330
86
100
AcDbEntity
  8
0
  6
Continuous
 62
     7
100
AcDbCircle
 10
103.9626156045999
 20
20.2856464918
 30
0.0
 40
0.3029626476
100
AcDbArc
 50
154.4400348282
 51
221.8201698800999
  0
ARC
  5
C2
330
86
100
AcDbEntity
  8
0
  6
Continuous
 62
     7
100
AcDbCircle
 10
104.0418367559
 20
20.2064253405
 30
0.0
 40
0.4103089737
100
AcDbArc
 50
102.8287828680999
 51
149.2259639003
  0
ARC
  5
C3
330
86
100
AcDbEntity
  8
0
  6
Continuous
 62
     7
100
AcDbCircle
 10
104.4588635915999
 20
18.46409001059999
 30
0.0
 40
2.201836557
100
AcDbArc
 50
84.0400061857
 51
103.3427657870999
  0
ARC
  5
C4
330
86
100
AcDbEntity
  8
0
  6
Continuous
 62
     7
100
AcDbCircle
 10
104.1178997669
 20
16.0467260867
 30
0.0
 40
4.642373736499997
100
AcDbArc
 50
70.2625858546
 51
82.95241863799999
  0
ARC
  5
C5
330
86
100
AcDbEntity
  8
0
  6
Continuous
 62
     7
100
AcDbCircle
 10
103.6038815646999
 20
20.7183489764
 30
0.0
 40
3.258755990899997
100
AcDbArc
 50
247.5300206145
 51
280.7579522143
  0
ARC
  5
C6
330
86
100
AcDbEntity
  8
0
  6
Continuous
 62
     7
100
AcDbCircle
 10
97.21891509270001
 20
2.4668290159
 30
0.0
 40
17.3316084133
100
AcDbArc
 50
65.34146746500001
 51
67.39977707359999
  0
ARC
  5
C7
330
86
100
AcDbEntity
  8
0
  6
Continuous
 62
     7
100
AcDbCircle
 10
108.0147774981
 20
28.259255379
 30
0.0
 40
10.6291642039
100
AcDbArc
 50
242.8620101252001
 51
247.1042029186
  0
ARC
  5
C8
330
86
100
AcDbEntity
  8
0
  6
Continuous
 62
     7
100
AcDbCircle
 10
104.1598762715
 20
20.725323882
 30
0.0
 40
2.166291629199998
100
AcDbArc
 50
227.3119280793999
 51
242.7040315235
  0
ARC
  5
C9
330
86
100
AcDbEntity
  8
0
  6
Continuous
 62
     7
100
AcDbCircle
 10
103.5558454618999
 20
20.0196462412
 30
0.0
 40
1.238521734
100
AcDbArc
 50
194.7952194236
 51
225.7176549047
  0
ARC
  5
CA
330
86
100
AcDbEntity
  8
0
  6
Continuous
 62
     7
100
AcDbCircle
 10
103.6180035961
 20
20.05986621039999
 30
0.0
 40
1.309092072899999
100
AcDbArc
 50
164.1974860461
 51
195.8025139539
  0
ARC
  5
CB
330
86
100
AcDbEntity
  8
0
  6
Continuous
 62
     7
100
AcDbCircle
 10
104.1750273167
 20
19.1715990505
 30
0.0
 40
2.366924815299999
100
AcDbArc
 50
86.22180229280001
 51
120.4272602309
  0
ARC
  5
CC
330
86
100
AcDbEntity
  8
0
  6
Continuous
 62
     7
100
AcDbCircle
 10
103.9061705341999
 20
12.4754312294
 30
0.0
 40
9.0679051661
100
AcDbArc
 50
78.68270492259998
 51
87.3147599624
  0
ARC
  5
CD
330
86
100
AcDbEntity
  8
0
  6
Continuous
 62
     7
100
AcDbCircle
 10
103.4501013557999
 20
20.1673739729
 30
0.0
 40
1.119747444
100
AcDbArc
 50
142.8139179029999
 51
167.1522951416999
  0
ARC
  5
CE
330
86
100
AcDbEntity
  8
0
  6
Continuous
 62
     7
100
AcDbCircle
 10
103.7954106973999
 20
19.86079227619999
 30
0.0
 40
1.580546684499998
100
AcDbArc
 50
121.2140948535
 51
141.5254768286
  0
ARC
  5
CF
330
86
100
AcDbEntity
  8
0
  6
Continuous
 62
     7
100
AcDbCircle
 10
104.372585063
 20
20.6718496049
 30
0.0
 40
0.8661276051999998
100
AcDbArc
 50
222.7760387596
 51
239.0362434679
  0
ARC
  5
D0
330
86
100
AcDbEntity
  8
0
  6
Continuous
 62
     7
100
AcDbCircle
 10
101.8658754847
 20
13.3415774063
 30
0.0
 40
6.858773576299999
100
AcDbArc
 50
59.90202725600001
 51
68.2036481279
  0
ARC
  5
D1
330
86
100
AcDbEntity
  8
0
  6
Continuous
 62
     7
100
AcDbCircle
 10
105.2743699785
 20
22.26746391349999
 30
0.0
 40
2.698741017099999
100
AcDbArc
 50
240.0481997804
 51
251.3779673736999
  0
ARC
  5
D2
330
86
100
AcDbEntity
  8
0
  6
Continuous
 62
     7
100
AcDbCircle
 10
104.6089128116999
 20
18.1105652982
 30
0.0
 40
1.4334474881
100
AcDbArc
 50
315.8904553224
 51
333.5229264372999
  0
ARC
  5
D3
330
86
100
AcDbEntity
  8
0
  6
Continuous
 62
     7
100
AcDbCircle
 10
104.6135510555
 20
18.057158148
 30
0.0
 40
1.406228711899998
100
AcDbArc
 50
335.3867972702
 51
24.39151194019999
  0
ARC
  5
D4
330
86
100
AcDbEntity
  8
0
  6
Continuous
 62
     7
100
AcDbCircle
 10
104.5413461519
 20
17.97930145619999
 30
0.0
 40
1.504702514799999
100
AcDbArc
 50
25.95629166050001
 51
59.4834829668
  0
LINE
  5
D5
330
86
100
AcDbEntity
  8
0
  6
Continuous
 62
     7
100
AcDbLine
 10
74.7656602606
 20
16.75634419749999
 30
0.0
 11
74.7656602606
 21
17.7069980142
 31
0.0
  0
LINE
  5
D6
330
86
100
AcDbEntity
  8
0
  6
Continuous
 62
     7
100
AcDbLine
 10
78.09294861879997
 20
20.4163613916
 30
0.0
 11
78.09294861879997
 21
21.36701520829999
 31
0.0
  0
ARC
  5
D7
330
86
100
AcDbEntity
  8
0
  6
Continuous
 62
     7
100
AcDbCircle
 10
76.4703013855
 20
18.61843736089998
 30
0.0
 40
1.111619360599997
100
AcDbArc
 50
277.7099956934
 51
295.6884927745999
  0
ARC
  5
D8
330
86
100
AcDbEntity
  8
0
  6
Continuous
 62
     7
100
AcDbCircle
 10
76.7546113683
 20
17.8936115972
 30
0.0
 40
0.3401689265
100
AcDbArc
 50
305.5032212556
 51
72.4652898515
  0
ARC
  5
D9
330
86
100
AcDbEntity
  8
0
  6
Continuous
 62
     7
100
AcDbCircle
 10
76.1886175602
 20
21.2953185068
 30
0.0
 40
4.756794641099999
100
AcDbArc
 50
252.5939200545
 51
280.9816604253
  0
ARC
  5
DA
330
86
100
AcDbEntity
  8
0
  6
Continuous
 62
     7
100
AcDbCircle
 10
76.64345292330001
 20
18.6773047703
 30
0.0
 40
2.100726595299998
100
AcDbArc
 50
282.4058358513
 51
311.8644433923
  0
ARC
  5
DB
330
86
100
AcDbEntity
  8
0
  6
Continuous
 62
     7
100
AcDbCircle
 10
76.3698885762
 20
20.2856464918
 30
0.0
 40
0.3029626476
100
AcDbArc
 50
154.4400348282
 51
221.8201698800999
  0
ARC
  5
DC
330
86
100
AcDbEntity
  8
0
  6
Continuous
 62
     7
100
AcDbCircle
 10
76.4491097276
 20
20.2064253405
 30
0.0
 40
0.4103089737
100
AcDbArc
 50
102.8287828727
 51
149.2259639027
  0
ARC
  5
DD
330
86
100
AcDbEntity
  8
0
  6
Continuous
 62
     7
100
AcDbCircle
 10
76.8661365632
 20
18.46409001059999
 30
0.0
 40
2.201836557
100
AcDbArc
 50
84.0400061859
 51
103.3427657871999
  0
ARC
  5
DE
330
86
100
AcDbEntity
  8
0
  6
Continuous
 62
     7
100
AcDbCircle
 10
76.5251727384
 20
16.0467260867
 30
0.0
 40
4.642373736499997
100
AcDbArc
 50
70.2625858546
 51
82.9524186379
  0
ARC
  5
DF
330
86
100
AcDbEntity
  8
0
  6
Continuous
 62
     7
100
AcDbCircle
 10
76.0111545363
 20
20.7183489764
 30
0.0
 40
3.258755990899997
100
AcDbArc
 50
247.5300206148
 51
280.7579522145
  0
ARC
  5
E0
330
86
100
AcDbEntity
  8
0
  6
Continuous
 62
     7
100
AcDbCircle
 10
69.6261880643
 20
2.4668290159
 30
0.0
 40
17.3316084133
100
AcDbArc
 50
65.34146746500001
 51
67.39977707359999
  0
ARC
  5
E1
330
86
100
AcDbEntity
  8
0
  6
Continuous
 62
     7
100
AcDbCircle
 10
80.4220504697
 20
28.259255379
 30
0.0
 40
10.6291642039
100
AcDbArc
 50
242.8620101252001
 51
247.1042029184999
  0
ARC
  5
E2
330
86
100
AcDbEntity
  8
0
  6
Continuous
 62
     7
100
AcDbCircle
 10
76.56714924310001
 20
20.725323882
 30
0.0
 40
2.166291629199998
100
AcDbArc
 50
227.3119280793999
 51
242.7040315235
  0
ARC
  5
E3
330
86
100
AcDbEntity
  8
0
  6
Continuous
 62
     7
100
AcDbCircle
 10
75.9631184335
 20
20.0196462412
 30
0.0
 40
1.238521734
100
AcDbArc
 50
194.7952194234
 51
225.7176549041999
  0
ARC
  5
E4
330
86
100
AcDbEntity
  8
0
  6
Continuous
 62
     7
100
AcDbCircle
 10
76.58230028830002
 20
19.1715990505
 30
0.0
 40
2.366924815299999
100
AcDbArc
 50
86.22180229280001
 51
120.4272602309
  0
ARC
  5
E5
330
86
100
AcDbEntity
  8
0
  6
Continuous
 62
     7
100
AcDbCircle
 10
76.3134435058
 20
12.4754312294
 30
0.0
 40
9.0679051661
100
AcDbArc
 50
78.68270492259998
 51
87.3147599624
  0
ARC
  5
E6
330
86
100
AcDbEntity
  8
0
  6
Continuous
 62
     7
100
AcDbCircle
 10
76.20268366899998
 20
19.86079227619999
 30
0.0
 40
1.580546684599998
100
AcDbArc
 50
121.2140948540999
 51
141.5254768289999
  0
ARC
  5
E7
330
86
100
AcDbEntity
  8
0
  6
Continuous
 62
     7
100
AcDbCircle
 10
76.7798580346
 20
20.6718496049
 30
0.0
 40
0.8661276051999998
100
AcDbArc
 50
222.7760387596
 51
239.0362434679
  0
ARC
  5
E8
330
86
100
AcDbEntity
  8
0
  6
Continuous
 62
     7
100
AcDbCircle
 10
74.2731484563
 20
13.3415774063
 30
0.0
 40
6.858773576299999
100
AcDbArc
 50
59.90202725620001
 51
68.20364812820002
  0
ARC
  5
E9
330
86
100
AcDbEntity
  8
0
  6
Continuous
 62
     7
100
AcDbCircle
 10
77.6816429501
 20
22.26746391349999
 30
0.0
 40
2.698741017099999
100
AcDbArc
 50
240.0481997804
 51
251.3779673734
  0
ARC
  5
EA
330
86
100
AcDbEntity
  8
0
  6
Continuous
 62
     7
100
AcDbCircle
 10
77.0161857833
 20
18.1105652982
 30
0.0
 40
1.4334474881
100
AcDbArc
 50
315.8904553225998
 51
333.5229264375
  0
ARC
  5
EB
330
86
100
AcDbEntity
  8
0
  6
Continuous
 62
     7
100
AcDbCircle
 10
77.020824027
 20
18.057158148
 30
0.0
 40
1.406228711899998
100
AcDbArc
 50
335.3867972703
 51
24.3915119403
  0
ARC
  5
EC
330
86
100
AcDbEntity
  8
0
  6
Continuous
 62
     7
100
AcDbCircle
 10
76.94861912350001
 20
17.97930145619999
 30
0.0
 40
1.504702514699999
100
AcDbArc
 50
25.9562916611
 51
59.4834829676
  0
LINE
  5
ED
330
86
100
AcDbEntity
  8
0
  6
Continuous
 62
     7
100
AcDbLine
 10
74.9574888499
 20
20.8337423583
 30
0.0
 11
75.2315546745
 21
21.10781543579999
 31
0.0
  0
ARC
  5
EE
330
86
100
AcDbEntity
  8
0
  6
Continuous
 62
     7
100
AcDbCircle
 10
76.0252765676
 20
20.05986621039999
 30
0.0
 40
1.309092072899999
100
AcDbArc
 50
164.1974860461
 51
195.8025139539
  0
ARC
  5
EF
330
86
100
AcDbEntity
  8
0
  6
Continuous
 62
     7
100
AcDbCircle
 10
75.8573743274
 20
20.1673739729
 30
0.0
 40
1.119747444
100
AcDbArc
 50
142.8139179029999
 51
167.1522951416999
  0
ENDBLK
  5
F0
330
86
100
AcDbEntity
  8
0
100
AcDbBlockEnd
  0
BLOCK
  5
19B68
330
19B5D
100
AcDbEntity
  8
0
100
AcDbBlockBegin
  2
*D3
 70
     1
 10
0.0
 20
0.0
 30
0.0
  3
*D3
  1

  0
LINE
  5
19D8A
330
19B5D
100
AcDbEntity
  8
11100_LEFT_DIM
  6
Continuous
 62
     7
370
    -2
100
AcDbLine
 10
146.4837340166548
 20
254.1878938403477
 30
0.0
 11
153.3584940166551
 21
254.1878938403477
 31
0.0
  0
LINE
  5
19D8B
330
19B5D
100
AcDbEntity
  8
11100_LEFT_DIM
  6
Continuous
 62
     7
370
    -2
100
AcDbLine
 10
146.4837340166548
 20
167.9878938403476
 30
0.0
 11
153.358494016655
 21
167.9878938403476
 31
0.0
  0
LINE
  5
19D8C
330
19B5D
100
AcDbEntity
  8
11100_LEFT_DIM
  6
Continuous
 62
     7
370
    -2
100
AcDbLine
 10
152.3584940166551
 20
251.6878938403477
 30
0.0
 11
152.3584940166551
 21
215.5045605070144
 31
0.0
  0
LINE
  5
19D8D
330
19B5D
100
AcDbEntity
  8
11100_LEFT_DIM
  6
Continuous
 62
     7
370
    -2
100
AcDbLine
 10
152.358494016655
 20
170.4878938403476
 30
0.0
 11
152.3584940166551
 21
206.6712271736811
 31
0.0
  0
MTEXT
  5
19D8E
330
19B5D
100
AcDbEntity
  8
11100_LEFT_DIM
  6
Continuous
 62
     7
370
    13
100
AcDbMText
 10
152.0275159956602
 20
211.0878938403478
 30
0.0
 40
3.5
 41
0.0
 71
     5
 72
     1
  1
\A1;86
 11
0.0000000000000001
 21
1.0
 31
0.0
 73
     1
 44
1.0
1001
ACAD
1000
MTEXTBEGIN
1070
    73
1070
     1
1070
    44
1040
1.0
1070
    74
1070
     0
1000
MTEXTEND
  0
SOLID
  5
19D8F
330
19B5D
100
AcDbEntity
  8
11100_LEFT_DIM
  6
Continuous
 62
     7
100
AcDbTrace
 10
151.9418273499884
 20
251.6878938403477
 30
0.0
 11
152.7751606833217
 21
251.6878938403477
 31
0.0
 12
152.3584940166551
 22
254.1878938403477
 32
0.0
 13
152.3584940166551
 23
254.1878938403477
 33
0.0
  0
SOLID
  5
19D90
330
19B5D
100
AcDbEntity
  8
11100_LEFT_DIM
  6
Continuous
 62
     7
100
AcDbTrace
 10
151.9418273499884
 20
170.4878938403476
 30
0.0
 11
152.7751606833217
 21
170.4878938403476
 31
0.0
 12
152.358494016655
 22
167.9878938403476
 32
0.0
 13
152.358494016655
 23
167.9878938403476
 33
0.0
  0
POINT
  5
19D91
330
19B5D
100
AcDbEntity
  8
Defpoints
  6
Continuous
 62
     0
100
AcDbPoint
 10
144.4837340166548
 20
254.1878938403477
 30
0.0
  0
POINT
  5
19D92
330
19B5D
100
AcDbEntity
  8
Defpoints
  6
Continuous
 62
     0
100
AcDbPoint
 10
144.4837340166548
 20
167.9878938403476
 30
0.0
  0
POINT
  5
19D93
330
19B5D
100
AcDbEntity
  8
Defpoints
  6
Continuous
 62
     0
100
AcDbPoint
 10
152.358494016655
 20
167.9878938403476
 30
0.0
  0
ENDBLK
  5
19B69
330
19B5D
100
AcDbEntity
  8
0
100
AcDbBlockEnd
  0
BLOCK
  5
19B75
330
19B6A
100
AcDbEntity
  8
0
100
AcDbBlockBegin
  2
*D4
 70
     1
 10
0.0
 20
0.0
 30
0.0
  3
*D4
  1

  0
LINE
  5
1A59C
330
19B6A
100
AcDbEntity
  8
11100_LEFT_DIM
  6
Continuous
 62
     7
370
    -2
100
AcDbLine
 10
58.48373401665487
 20
151.1878444855089
 30
0.0
 11
58.48373401665487
 21
141.6702183568572
 31
0.0
  0
LINE
  5
1A59D
330
19B6A
100
AcDbEntity
  8
11100_LEFT_DIM
  6
Continuous
 62
     7
370
    -2
100
AcDbLine
 10
144.4837340166548
 20
165.9878938403476
 30
0.0
 11
144.4837340166548
 21
141.6702183568572
 31
0.0
  0
LINE
  5
1A59E
330
19B6A
100
AcDbEntity
  8
11100_LEFT_DIM
  6
Continuous
 62
     7
370
    -2
100
AcDbLine
 10
60.98373401665487
 20
142.6702183568572
 30
0.0
 11
97.02831028784125
 21
142.6702183568572
 31
0.0
  0
LINE
  5
1A59F
330
19B6A
100
AcDbEntity
  8
11100_LEFT_DIM
  6
Continuous
 62
     7
370
    -2
100
AcDbLine
 10
141.9837340166548
 20
142.6702183568572
 30
0.0
 11
105.9391577454683
 21
142.6702183568572
 31
0.0
  0
MTEXT
  5
1A5A0
330
19B6A
100
AcDbEntity
  8
11100_LEFT_DIM
  6
Continuous
 62
     7
370
    13
100
AcDbMText
 10
101.4837340166548
 20
142.6702183568572
 30
0.0
 40
3.5
 41
0.0
 71
     5
 72
     1
  1
\A1;86
 73
     1
 44
1.0
1001
ACAD
1000
MTEXTBEGIN
1070
    73
1070
     1
1070
    44
1040
1.0
1070
    74
1070
     0
1000
MTEXTEND
  0
SOLID
  5
1A5A1
330
19B6A
100
AcDbEntity
  8
11100_LEFT_DIM
  6
Continuous
 62
     7
100
AcDbTrace
 10
60.98373401665487
 20
143.0868850235238
 30
0.0
 11
60.98373401665487
 21
142.2535516901905
 31
0.0
 12
58.48373401665487
 22
142.6702183568572
 32
0.0
 13
58.48373401665487
 23
142.6702183568572
 33
0.0
  0
SOLID
  5
1A5A2
330
19B6A
100
AcDbEntity
  8
11100_LEFT_DIM
  6
Continuous
 62
     7
100
AcDbTrace
 10
141.9837340166548
 20
143.0868850235238
 30
0.0
 11
141.9837340166548
 21
142.2535516901905
 31
0.0
 12
144.4837340166548
 22
142.6702183568572
 32
0.0
 13
144.4837340166548
 23
142.6702183568572
 33
0.0
  0
POINT
  5
1A5A3
330
19B6A
100
AcDbEntity
  8
Defpoints
  6
Continuous
 62
     0
100
AcDbPoint
 10
58.48373401665487
 20
153.1878444855089
 30
0.0
  0
POINT
  5
1A5A4
330
19B6A
100
AcDbEntity
  8
Defpoints
  6
Continuous
 62
     0
100
AcDbPoint
 10
144.4837340166548
 20
167.9878938403476
 30
0.0
  0
POINT
  5
1A5A5
330
19B6A
100
AcDbEntity
  8
Defpoints
  6
Continuous
 62
     0
100
AcDbPoint
 10
144.4837340166548
 20
142.6702183568572
 30
0.0
  0
ENDBLK
  5
19B76
330
19B6A
100
AcDbEntity
  8
0
100
AcDbBlockEnd
  0
BLOCK
  5
19B82
330
19B77
100
AcDbEntity
  8
0
100
AcDbBlockBegin
  2
*D5
 70
     1
 10
0.0
 20
0.0
 30
0.0
  3
*D5
  1

  0
LINE
  5
19DA8
330
19B77
100
AcDbEntity
  8
11100_LEFT_DIM
  6
Continuous
 62
     7
370
    -2
100
AcDbLine
 10
51.38373401665489
 20
247.8378938403478
 30
0.0
 11
40.18428401665508
 21
247.8378938403478
 31
0.0
  0
LINE
  5
19DA9
330
19B77
100
AcDbEntity
  8
11100_LEFT_DIM
  6
Continuous
 62
     7
370
    -2
100
AcDbLine
 10
51.38373401665489
 20
174.3378938403477
 30
0.0
 11
40.18428401665504
 21
174.3378938403477
 31
0.0
  0
LINE
  5
19DAA
330
19B77
100
AcDbEntity
  8
11100_LEFT_DIM
  6
Continuous
 62
     7
370
    -2
100
AcDbLine
 10
41.18428401665506
 20
245.3378938403478
 30
0.0
 11
41.18428401665506
 21
215.5045605070144
 31
0.0
  0
LINE
  5
19DAB
330
19B77
100
AcDbEntity
  8
11100_LEFT_DIM
  6
Continuous
 62
     7
370
    -2
100
AcDbLine
 10
41.18428401665506
 20
176.8378938403476
 30
0.0
 11
41.18428401665506
 21
206.6712271736811
 31
0.0
  0
MTEXT
  5
19DAC
330
19B77
100
AcDbEntity
  8
11100_LEFT_DIM
  6
Continuous
 62
     7
370
    13
100
AcDbMText
 10
41.18428401665489
 20
211.0878938403478
 30
0.0
 40
3.5
 41
0.0
 71
     5
 72
     1
  1
\A1;74
 11
0.0000000000000001
 21
1.0
 31
0.0
 73
     1
 44
1.0
1001
ACAD
1000
MTEXTBEGIN
1070
    73
1070
     1
1070
    44
1040
1.0
1070
    74
1070
     0
1000
MTEXTEND
  0
SOLID
  5
19DAD
330
19B77
100
AcDbEntity
  8
11100_LEFT_DIM
  6
Continuous
 62
     7
100
AcDbTrace
 10
40.76761734998838
 20
245.3378938403478
 30
0.0
 11
41.60095068332174
 21
245.3378938403478
 31
0.0
 12
41.18428401665506
 22
247.8378938403478
 32
0.0
 13
41.18428401665506
 23
247.8378938403478
 33
0.0
  0
SOLID
  5
19DAE
330
19B77
100
AcDbEntity
  8
11100_LEFT_DIM
  6
Continuous
 62
     7
100
AcDbTrace
 10
40.76761734998838
 20
176.8378938403476
 30
0.0
 11
41.60095068332172
 21
176.8378938403476
 31
0.0
 12
41.18428401665504
 22
174.3378938403477
 32
0.0
 13
41.18428401665504
 23
174.3378938403477
 33
0.0
  0
POINT
  5
19DAF
330
19B77
100
AcDbEntity
  8
Defpoints
  6
Continuous
 62
     0
100
AcDbPoint
 10
53.3837340166549
 20
247.8378938403478
 30
0.0
  0
POINT
  5
19DB0
330
19B77
100
AcDbEntity
  8
Defpoints
  6
Continuous
 62
     0
100
AcDbPoint
 10
53.3837340166549
 20
174.3378938403477
 30
0.0
  0
POINT
  5
19DB1
330
19B77
100
AcDbEntity
  8
Defpoints
  6
Continuous
 62
     0
100
AcDbPoint
 10
41.18428401665504
 20
174.3378938403477
 30
0.0
  0
ENDBLK
  5
19B83
330
19B77
100
AcDbEntity
  8
0
100
AcDbBlockEnd
  0
BLOCK
  5
19B8F
330
19B84
100
AcDbEntity
  8
0
100
AcDbBlockBegin
  2
*D6
 70
     1
 10
0.0
 20
0.0
 30
0.0
  3
*D6
  1

  0
LINE
  5
19D80
330
19B84
100
AcDbEntity
  8
11100_LEFT_DIM
  6
Continuous
 62
     7
370
    -2
100
AcDbLine
 10
146.4837340166548
 20
254.1878938403477
 30
0.0
 11
160.39909161525
 21
254.1878938403477
 31
0.0
  0
LINE
  5
19D81
330
19B84
100
AcDbEntity
  8
11100_LEFT_DIM
  6
Continuous
 62
     7
370
    -2
100
AcDbLine
 10
117.6837340166548
 20
158.4878938403476
 30
0.0
 11
160.3990916152499
 21
158.4878938403476
 31
0.0
  0
LINE
  5
19D82
330
19B84
100
AcDbEntity
  8
11100_LEFT_DIM
  6
Continuous
 62
     7
370
    -2
100
AcDbLine
 10
159.39909161525
 20
251.6878938403477
 30
0.0
 11
159.39909161525
 21
210.7545605070143
 31
0.0
  0
LINE
  5
19D83
330
19B84
100
AcDbEntity
  8
11100_LEFT_DIM
  6
Continuous
 62
     7
370
    -2
100
AcDbLine
 10
159.3990916152499
 20
160.9878938403476
 30
0.0
 11
159.39909161525
 21
201.921227173681
 31
0.0
  0
SOLID
  5
19D84
330
19B84
100
AcDbEntity
  8
11100_LEFT_DIM
  6
Continuous
 62
     7
100
AcDbTrace
 10
158.9824249485833
 20
251.6878938403477
 30
0.0
 11
159.8157582819166
 21
251.6878938403477
 31
0.0
 12
159.39909161525
 22
254.1878938403477
 32
0.0
 13
159.39909161525
 23
254.1878938403477
 33
0.0
  0
SOLID
  5
19D85
330
19B84
100
AcDbEntity
  8
11100_LEFT_DIM
  6
Continuous
 62
     7
100
AcDbTrace
 10
158.9824249485833
 20
160.9878938403476
 30
0.0
 11
159.8157582819166
 21
160.9878938403476
 31
0.0
 12
159.3990916152499
 22
158.4878938403476
 32
0.0
 13
159.3990916152499
 23
158.4878938403476
 33
0.0
  0
MTEXT
  5
19D86
330
19B84
100
AcDbEntity
  8
11100_LEFT_DIM
  6
Continuous
 62
     7
370
    13
100
AcDbMText
 10
159.3990916152499
 20
206.3378938403477
 30
0.0
 40
3.5
 41
0.0
 71
     5
 72
     1
  1
\A1;96
 11
0.0000000000000001
 21
1.0
 31
0.0
 73
     1
 44
1.0
1001
ACAD
1000
MTEXTBEGIN
1070
    73
1070
     1
1070
    44
1040
1.0
1070
    74
1070
     0
1000
MTEXTEND
  0
POINT
  5
19D87
330
19B84
100
AcDbEntity
  8
Defpoints
  6
Continuous
 62
     0
100
AcDbPoint
 10
144.4837340166548
 20
254.1878938403477
 30
0.0
  0
POINT
  5
19D88
330
19B84
100
AcDbEntity
  8
Defpoints
  6
Continuous
 62
     0
100
AcDbPoint
 10
115.6837340166548
 20
158.4878938403476
 30
0.0
  0
POINT
  5
19D89
330
19B84
100
AcDbEntity
  8
Defpoints
  6
Continuous
 62
     0
100
AcDbPoint
 10
159.3990916152499
 20
158.4878938403476
 30
0.0
  0
ENDBLK
  5
19B90
330
19B84
100
AcDbEntity
  8
0
100
AcDbBlockEnd
  0
BLOCK
  5
19B9C
330
19B91
100
AcDbEntity
  8
0
100
AcDbBlockBegin
  2
*D7
 70
     1
 10
0.0
 20
0.0
 30
0.0
  3
*D7
  1

  0
LINE
  5
19D38
330
19B91
100
AcDbEntity
  8
10100_FRONT_DIM
  6
Continuous
 62
     0
370
    -2
100
AcDbLine
 10
-5.288914570225358
 20
266.0878938403481
 30
0.0
 11
3.509427357881786
 21
266.0878938403481
 31
0.0
  0
LINE
  5
19D39
330
19B91
100
AcDbEntity
  8
10100_FRONT_DIM
  6
Continuous
 62
     0
370
    -2
100
AcDbLine
 10
-20.24704022115952
 20
156.0878938403478
 30
0.0
 11
3.509427357881761
 21
156.0878938403478
 31
0.0
  0
LINE
  5
19D3A
330
19B91
100
AcDbEntity
  8
10100_FRONT_DIM
  6
Continuous
 62
     0
370
    -2
100
AcDbLine
 10
2.509427357881786
 20
263.0878938403481
 30
0.0
 11
2.509427357881774
 21
221.087893840348
 31
0.0
  0
LINE
  5
19D3B
330
19B91
100
AcDbEntity
  8
10100_FRONT_DIM
  6
Continuous
 62
     0
370
    -2
100
AcDbLine
 10
2.509427357881759
 20
159.0878938403478
 30
0.0
 11
2.50942735788177
 21
201.087893840348
 31
0.0
  0
SOLID
  5
19D3C
330
19B91
100
AcDbEntity
  8
10100_FRONT_DIM
  6
Continuous
 62
     0
100
AcDbTrace
 10
2.009427357881786
 20
263.0878938403481
 30
0.0
 11
3.009427357881786
 21
263.0878938403481
 31
0.0
 12
2.509427357881786
 22
266.0878938403481
 32
0.0
 13
2.509427357881786
 23
266.0878938403481
 33
0.0
  0
SOLID
  5
19D3D
330
19B91
100
AcDbEntity
  8
10100_FRONT_DIM
  6
Continuous
 62
     0
100
AcDbTrace
 10
2.009427357881762
 20
159.0878938403478
 30
0.0
 11
3.009427357881761
 21
159.0878938403478
 31
0.0
 12
2.509427357881759
 22
156.0878938403478
 32
0.0
 13
2.509427357881759
 23
156.0878938403478
 33
0.0
  0
MTEXT
  5
19D3E
330
19B91
100
AcDbEntity
  8
10100_FRONT_DIM
  6
Continuous
 62
     0
370
    13
100
AcDbMText
 10
2.50942735788174
 20
211.087893840348
 30
0.0
 40
4.0
 41
0.0
 71
     5
 72
     1
  1
\A1;15x110
 11
0.0000000000000001
 21
1.0
 31
0.0
 73
     1
 44
1.0
1001
ACAD
1000
MTEXTBEGIN
1070
    73
1070
     1
1070
    44
1040
1.0
1070
    74
1070
     0
1000
MTEXTEND
  0
POINT
  5
19D3F
330
19B91
100
AcDbEntity
  8
Defpoints
  6
Continuous
 62
     0
100
AcDbPoint
 10
-6.288914570225357
 20
266.0878938403481
 30
0.0
  0
POINT
  5
19D40
330
19B91
100
AcDbEntity
  8
Defpoints
  6
Continuous
 62
     0
100
AcDbPoint
 10
-21.24704022115952
 20
156.0878938403478
 30
0.0
  0
POINT
  5
19D41
330
19B91
100
AcDbEntity
  8
Defpoints
  6
Continuous
 62
     0
100
AcDbPoint
 10
2.509427357881759
 20
156.0878938403478
 30
0.0
  0
ENDBLK
  5
19B9D
330
19B91
100
AcDbEntity
  8
0
100
AcDbBlockEnd
  0
BLOCK
  5
19BA9
330
19B9E
100
AcDbEntity
  8
0
100
AcDbBlockBegin
  2
*D8
 70
     1
 10
0.0
 20
0.0
 30
0.0
  3
*D8
  1

  0
LINE
  5
19D2E
330
19B9E
100
AcDbEntity
  8
10100_FRONT_DIM
  6
Continuous
 62
     7
370
    -2
100
AcDbLine
 10
-30.63865457022533
 20
248.6378938403476
 30
0.0
 11
-35.33854457022532
 21
248.6378938403476
 31
0.0
  0
LINE
  5
19D2F
330
19B9E
100
AcDbEntity
  8
10100_FRONT_DIM
  6
Continuous
 62
     7
370
    -2
100
AcDbLine
 10
-30.63865457022533
 20
173.5378938403476
 30
0.0
 11
-35.33854457022535
 21
173.5378938403476
 31
0.0
  0
LINE
  5
19D30
330
19B9E
100
AcDbEntity
  8
10100_FRONT_DIM
  6
Continuous
 62
     7
370
    -2
100
AcDbLine
 10
-34.33854457022532
 20
246.1378938403476
 30
0.0
 11
-34.33854457022532
 21
215.5045605070143
 31
0.0
  0
LINE
  5
19D31
330
19B9E
100
AcDbEntity
  8
10100_FRONT_DIM
  6
Continuous
 62
     7
370
    -2
100
AcDbLine
 10
-34.33854457022533
 20
176.0378938403476
 30
0.0
 11
-34.33854457022533
 21
206.671227173681
 31
0.0
  0
MTEXT
  5
19D32
330
19B9E
100
AcDbEntity
  8
10100_FRONT_DIM
  6
Continuous
 62
     7
370
    13
100
AcDbMText
 10
-34.58954457022534
 20
211.0878938403476
 30
0.0
 40
3.5
 41
0.0
 71
     5
 72
     1
  1
\A1;75
 11
0.0000000000000001
 21
1.0
 31
0.0
 73
     1
 44
1.0
1001
ACAD
1000
MTEXTBEGIN
1070
    73
1070
     1
1070
    44
1040
1.0
1070
    74
1070
     0
1000
MTEXTEND
  0
SOLID
  5
19D33
330
19B9E
100
AcDbEntity
  8
10100_FRONT_DIM
  6
Continuous
 62
     7
100
AcDbTrace
 10
-34.75521123689198
 20
246.1378938403476
 30
0.0
 11
-33.92187790355865
 21
246.1378938403476
 31
0.0
 12
-34.33854457022532
 22
248.6378938403476
 32
0.0
 13
-34.33854457022532
 23
248.6378938403476
 33
0.0
  0
SOLID
  5
19D34
330
19B9E
100
AcDbEntity
  8
10100_FRONT_DIM
  6
Continuous
 62
     7
100
AcDbTrace
 10
-34.755211236892
 20
176.0378938403476
 30
0.0
 11
-33.92187790355868
 21
176.0378938403476
 31
0.0
 12
-34.33854457022534
 22
173.5378938403476
 32
0.0
 13
-34.33854457022534
 23
173.5378938403476
 33
0.0
  0
POINT
  5
19D35
330
19B9E
100
AcDbEntity
  8
Defpoints
  6
Continuous
 62
     0
100
AcDbPoint
 10
-28.63865457022533
 20
248.6378938403476
 30
0.0
  0
POINT
  5
19D36
330
19B9E
100
AcDbEntity
  8
Defpoints
  6
Continuous
 62
     0
100
AcDbPoint
 10
-28.63865457022533
 20
173.5378938403476
 30
0.0
  0
POINT
  5
19D37
330
19B9E
100
AcDbEntity
  8
Defpoints
  6
Continuous
 62
     0
100
AcDbPoint
 10
-34.33854457022534
 20
173.5378938403476
 30
0.0
  0
ENDBLK
  5
19BAA
330
19B9E
100
AcDbEntity
  8
0
100
AcDbBlockEnd
  0
BLOCK
  5
19BB9
330
19BAB
100
AcDbEntity
  8
0
100
AcDbBlockBegin
  2
*D9
 70
     1
 10
0.0
 20
0.0
 30
0.0
  3
*D9
  1

  0
LINE
  5
19D21
330
19BAB
100
AcDbEntity
  8
10100_FRONT_DIM
  6
Continuous
 62
     7
370
    -2
100
AcDbLine
 10
-27.29200095726263
 20
264.6228541848678
 30
0.0
 11
-27.29200095726263
 21
269.5053141848679
 31
0.0
  0
LINE
  5
19D22
330
19BAB
100
AcDbEntity
  8
10100_FRONT_DIM
  6
Continuous
 62
     7
370
    -2
100
AcDbLine
 10
-24.79201095726264
 20
262.6228541848679
 30
0.0
 11
-24.79201095726264
 21
269.5053141848679
 31
0.0
  0
LINE
  5
19D23
330
19BAB
100
AcDbEntity
  8
10100_FRONT_DIM
  6
Continuous
 62
     7
370
    -2
100
AcDbLine
 10
-29.79200095726263
 20
268.5053141848679
 30
0.0
 11
-32.29200095726263
 21
268.5053141848679
 31
0.0
  0
LINE
  5
19D24
330
19BAB
100
AcDbEntity
  8
10100_FRONT_DIM
  6
Continuous
 62
     7
370
    -2
100
AcDbLine
 10
-22.29201095726264
 20
268.5053141848679
 30
0.0
 11
-19.79201095726263
 21
268.5053141848679
 31
0.0
  0
LINE
  5
19D25
330
19BAB
100
AcDbEntity
  8
10100_FRONT_DIM
  6
Continuous
 62
     7
370
    -2
100
AcDbLine
 10
-33.42662813535233
 20
268.5053141848679
 30
0.0
 11
-27.29200095726263
 21
268.5053141848679
 31
0.0
  0
MTEXT
  5
19D26
330
19BAB
100
AcDbEntity
  8
10100_FRONT_DIM
  6
Continuous
 62
     7
370
    13
100
AcDbMText
 10
-38.71829480201899
 20
268.5053141848679
 30
0.0
 40
3.5
 41
0.0
 71
     5
 72
     1
  1
\A1;2,5
 73
     1
 44
1.0
1001
ACAD
1000
MTEXTBEGIN
1070
    73
1070
     1
1070
    44
1040
1.0
1070
    74
1070
     0
1000
MTEXTEND
  0
LINE
  5
19D27
330
19BAB
100
AcDbEntity
  8
10100_FRONT_DIM
  6
Continuous
 62
     7
370
    -2
100
AcDbLine
 10
-27.29200095726263
 20
268.5053141848679
 30
0.0
 11
-24.79201095726264
 21
268.5053141848679
 31
0.0
  0
LINE
  5
19D28
330
19BAB
100
AcDbEntity
  8
10100_FRONT_DIM
  6
Continuous
 62
     7
370
    -2
100
AcDbLine
 10
-27.29200095726263
 20
268.5053141848679
 30
0.0
 11
-24.79201095726264
 21
268.5053141848679
 31
0.0
  0
SOLID
  5
19D29
330
19BAB
100
AcDbEntity
  8
10100_FRONT_DIM
  6
Continuous
 62
     7
100
AcDbTrace
 10
-29.79200095726263
 20
268.9219808515346
 30
0.0
 11
-29.79200095726263
 21
268.0886475182012
 31
0.0
 12
-27.29200095726263
 22
268.5053141848679
 32
0.0
 13
-27.29200095726263
 23
268.5053141848679
 33
0.0
  0
SOLID
  5
19D2A
330
19BAB
100
AcDbEntity
  8
10100_FRONT_DIM
  6
Continuous
 62
     7
100
AcDbTrace
 10
-22.29201095726264
 20
268.9219808515346
 30
0.0
 11
-22.29201095726264
 21
268.0886475182012
 31
0.0
 12
-24.79201095726264
 22
268.5053141848679
 32
0.0
 13
-24.79201095726264
 23
268.5053141848679
 33
0.0
  0
POINT
  5
19D2B
330
19BAB
100
AcDbEntity
  8
Defpoints
  6
Continuous
 62
     0
100
AcDbPoint
 10
-27.29200095726263
 20
262.6228541848679
 30
0.0
  0
POINT
  5
19D2C
330
19BAB
100
AcDbEntity
  8
Defpoints
  6
Continuous
 62
     0
100
AcDbPoint
 10
-24.79201095726264
 20
260.6228541848679
 30
0.0
  0
POINT
  5
19D2D
330
19BAB
100
AcDbEntity
  8
Defpoints
  6
Continuous
 62
     0
100
AcDbPoint
 10
-24.79201095726264
 20
268.5053141848679
 30
0.0
  0
ENDBLK
  5
19BBA
330
19BAB
100
AcDbEntity
  8
0
100
AcDbBlockEnd
  0
BLOCK
  5
19BC6
330
19BBB
100
AcDbEntity
  8
0
100
AcDbBlockBegin
  2
*D10
 70
     1
 10
0.0
 20
0.0
 30
0.0
  3
*D10
  1

  0
LINE
  5
19D17
330
19BBB
100
AcDbEntity
  8
10100_FRONT_DIM
  6
Continuous
 62
     7
370
    -2
100
AcDbLine
 10
-24.79202099825013
 20
262.6228541848426
 30
0.0
 11
-24.79208061246569
 21
274.4970280372469
 31
0.0
  0
LINE
  5
19D18
330
19BBB
100
AcDbEntity
  8
10100_FRONT_DIM
  6
Continuous
 62
     7
370
    -2
100
AcDbLine
 10
-17.59202099825013
 20
262.6228541848426
 30
0.0
 11
-17.59208061264717
 21
274.4970641848019
 31
0.0
  0
LINE
  5
19D19
330
19BBB
100
AcDbEntity
  8
10100_FRONT_DIM
  6
Continuous
 62
     7
370
    -2
100
AcDbLine
 10
-27.29207559194043
 20
273.4970154860251
 30
0.0
 11
-29.79207559190892
 21
273.4970029347907
 31
0.0
  0
LINE
  5
19D1A
330
19BBB
100
AcDbEntity
  8
10100_FRONT_DIM
  6
Continuous
 62
     7
370
    -2
100
AcDbLine
 10
-15.09207559218493
 20
273.4970767360488
 30
0.0
 11
-12.59207559221644
 21
273.4970892872831
 31
0.0
  0
MTEXT
  5
19D1B
330
19BBB
100
AcDbEntity
  8
10100_FRONT_DIM
  6
Continuous
 62
     7
370
    13
100
AcDbMText
 10
-21.19206555107519
 20
273.3857467843222
 30
0.0
 40
3.5
 41
0.0
 71
     5
 72
     1
  1
\A1;7
 11
0.9999999999873974
 21
0.0000050204937452
 31
0.0
 73
     1
 44
1.0
1001
ACAD
1000
MTEXTBEGIN
1070
    73
1070
     1
1070
    44
1040
1.0
1070
    74
1070
     0
1000
MTEXTEND
  0
SOLID
  5
19D1C
330
19BBB
100
AcDbEntity
  8
10100_FRONT_DIM
  6
Continuous
 62
     7
100
AcDbTrace
 10
-27.29207768381282
 20
273.9136821526865
 30
0.0
 11
-27.29207350006803
 21
273.0803488193637
 31
0.0
 12
-24.79207559197194
 22
273.4970280372595
 32
0.0
 13
-24.79207559197194
 23
273.4970280372595
 33
0.0
  0
SOLID
  5
19D1D
330
19BBB
100
AcDbEntity
  8
10100_FRONT_DIM
  6
Continuous
 62
     7
100
AcDbTrace
 10
-15.09207768405732
 20
273.9137434027102
 30
0.0
 11
-15.09207350031253
 21
273.0804100693874
 31
0.0
 12
-17.59207559215342
 22
273.4970641848144
 32
0.0
 13
-17.59207559215342
 23
273.4970641848144
 33
0.0
  0
POINT
  5
19D1E
330
19BBB
100
AcDbEntity
  8
Defpoints
  6
Continuous
 62
     0
100
AcDbPoint
 10
-24.79201095726264
 20
260.6228541848679
 30
0.0
  0
POINT
  5
19D1F
330
19BBB
100
AcDbEntity
  8
Defpoints
  6
Continuous
 62
     0
100
AcDbPoint
 10
-17.59201095726264
 20
260.6228541848679
 30
0.0
  0
POINT
  5
19D20
330
19BBB
100
AcDbEntity
  8
Defpoints
  6
Continuous
 62
     0
100
AcDbPoint
 10
-17.59207559215342
 20
273.4970641848144
 30
0.0
  0
ENDBLK
  5
19BC7
330
19BBB
100
AcDbEntity
  8
0
100
AcDbBlockEnd
  0
BLOCK
  5
19BD3
330
19BC8
100
AcDbEntity
  8
0
100
AcDbBlockBegin
  2
*D11
 70
     1
 10
0.0
 20
0.0
 30
0.0
  3
*D11
  1

  0
LINE
  5
19D0D
330
19BC8
100
AcDbEntity
  8
10100_FRONT_DIM
  6
Continuous
 62
     7
370
    -2
100
AcDbLine
 10
-27.29200095726263
 20
264.6228541848678
 30
0.0
 11
-27.29200095726263
 21
281.3649700906993
 31
0.0
  0
LINE
  5
19D0E
330
19BC8
100
AcDbEntity
  8
10100_FRONT_DIM
  6
Continuous
 62
     7
370
    -2
100
AcDbLine
 10
-4.792000957262628
 20
264.6228541848678
 30
0.0
 11
-4.792000957262628
 21
281.3649700906993
 31
0.0
  0
LINE
  5
19D0F
330
19BC8
100
AcDbEntity
  8
10100_FRONT_DIM
  6
Continuous
 62
     7
370
    -2
100
AcDbLine
 10
-24.79200095726263
 20
280.3649700906993
 30
0.0
 11
-23.0836676239293
 21
280.3649700906993
 31
0.0
  0
LINE
  5
19D10
330
19BC8
100
AcDbEntity
  8
10100_FRONT_DIM
  6
Continuous
 62
     7
370
    -2
100
AcDbLine
 10
-7.292000957262628
 20
280.3649700906993
 30
0.0
 11
-9.000334290595963
 21
280.3649700906993
 31
0.0
  0
MTEXT
  5
19D11
330
19BC8
100
AcDbEntity
  8
10100_FRONT_DIM
  6
Continuous
 62
     7
370
    13
100
AcDbMText
 10
-16.04200095726263
 20
280.2608046741542
 30
0.0
 40
3.5
 41
0.0
 71
     5
 72
     1
  1
\A1;22,5
 73
     1
 44
1.0
1001
ACAD
1000
MTEXTBEGIN
1070
    73
1070
     1
1070
    44
1040
1.0
1070
    74
1070
     0
1000
MTEXTEND
  0
SOLID
  5
19D12
330
19BC8
100
AcDbEntity
  8
10100_FRONT_DIM
  6
Continuous
 62
     7
100
AcDbTrace
 10
-24.79200095726263
 20
280.781636757366
 30
0.0
 11
-24.79200095726263
 21
279.9483034240326
 31
0.0
 12
-27.29200095726263
 22
280.3649700906993
 32
0.0
 13
-27.29200095726263
 23
280.3649700906993
 33
0.0
  0
SOLID
  5
19D13
330
19BC8
100
AcDbEntity
  8
10100_FRONT_DIM
  6
Continuous
 62
     7
100
AcDbTrace
 10
-7.292000957262628
 20
280.781636757366
 30
0.0
 11
-7.292000957262628
 21
279.9483034240326
 31
0.0
 12
-4.792000957262628
 22
280.3649700906993
 32
0.0
 13
-4.792000957262628
 23
280.3649700906993
 33
0.0
  0
POINT
  5
19D14
330
19BC8
100
AcDbEntity
  8
Defpoints
  6
Continuous
 62
     0
100
AcDbPoint
 10
-27.29200095726263
 20
262.6228541848679
 30
0.0
  0
POINT
  5
19D15
330
19BC8
100
AcDbEntity
  8
Defpoints
  6
Continuous
 62
     0
100
AcDbPoint
 10
-4.792000957262628
 20
262.6228541848679
 30
0.0
  0
POINT
  5
19D16
330
19BC8
100
AcDbEntity
  8
Defpoints
  6
Continuous
 62
     0
100
AcDbPoint
 10
-4.792000957262628
 20
280.3649700906993
 30
0.0
  0
ENDBLK
  5
19BD4
330
19BC8
100
AcDbEntity
  8
0
100
AcDbBlockEnd
  0
BLOCK
  5
1A56E
330
1A562
100
AcDbEntity
  8
0
100
AcDbBlockBegin
  2
*D13
 70
     1
 10
0.0
 20
0.0
 30
0.0
  3
*D13
  1

  0
LINE
  5
1A5A6
330
1A562
100
AcDbEntity
  8
11100_LEFT_DIM
  6
Continuous
 62
     7
370
    -2
100
AcDbLine
 10
58.48373401665487
 20
188.8378938403478
 30
0.0
 11
58.48373401665487
 21
141.6702183568572
 31
0.0
  0
LINE
  5
1A5A7
330
1A562
100
AcDbEntity
  8
11100_LEFT_DIM
  6
Continuous
 62
     7
370
    -2
100
AcDbLine
 10
53.3837340166549
 20
149.1878938403475
 30
0.0
 11
53.3837340166549
 21
141.6702183568572
 31
0.0
  0
LINE
  5
1A5A8
330
1A562
100
AcDbEntity
  8
11100_LEFT_DIM
  6
Continuous
 62
     7
370
    -2
100
AcDbLine
 10
60.98373401665487
 20
142.6702183568572
 30
0.0
 11
63.48373401665487
 21
142.6702183568572
 31
0.0
  0
LINE
  5
1A5A9
330
1A562
100
AcDbEntity
  8
11100_LEFT_DIM
  6
Continuous
 62
     7
370
    -2
100
AcDbLine
 10
50.8837340166549
 20
142.6702183568572
 30
0.0
 11
48.3837340166549
 21
142.6702183568572
 31
0.0
  0
LINE
  5
1A5AA
330
1A562
100
AcDbEntity
  8
11100_LEFT_DIM
  6
Continuous
 62
     7
370
    -2
100
AcDbLine
 10
55.93373401665488
 20
142.6702183568572
 30
0.0
 11
58.51683571157014
 21
134.0598793738064
 31
0.0
  0
LINE
  5
1A5AB
330
1A562
100
AcDbEntity
  8
11100_LEFT_DIM
  6
Continuous
 62
     7
370
    -2
100
AcDbLine
 10
58.51683571157014
 20
134.0598793738064
 30
0.0
 11
61.51683571157014
 21
134.0598793738064
 31
0.0
  0
MTEXT
  5
1A5AC
330
1A562
100
AcDbEntity
  8
11100_LEFT_DIM
  6
Continuous
 62
     7
370
    13
100
AcDbMText
 10
64.2222594403837
 20
134.0598793738064
 30
0.0
 40
3.5
 41
0.0
 71
     5
 72
     1
  1
\A1;5
 73
     1
 44
1.0
1001
ACAD
1000
MTEXTBEGIN
1070
    73
1070
     1
1070
    44
1040
1.0
1070
    74
1070
     0
1000
MTEXTEND
  0
LINE
  5
1A5AD
330
1A562
100
AcDbEntity
  8
11100_LEFT_DIM
  6
Continuous
 62
     7
370
    -2
100
AcDbLine
 10
58.48373401665487
 20
142.6702183568572
 30
0.0
 11
53.3837340166549
 21
142.6702183568572
 31
0.0
  0
LINE
  5
1A5AE
330
1A562
100
AcDbEntity
  8
11100_LEFT_DIM
  6
Continuous
 62
     7
370
    -2
100
AcDbLine
 10
58.48373401665487
 20
142.6702183568572
 30
0.0
 11
53.3837340166549
 21
142.6702183568572
 31
0.0
  0
SOLID
  5
1A5AF
330
1A562
100
AcDbEntity
  8
11100_LEFT_DIM
  6
Continuous
 62
     7
100
AcDbTrace
 10
60.98373401665487
 20
143.0868850235238
 30
0.0
 11
60.98373401665487
 21
142.2535516901905
 31
0.0
 12
58.48373401665487
 22
142.6702183568572
 32
0.0
 13
58.48373401665487
 23
142.6702183568572
 33
0.0
  0
SOLID
  5
1A5B0
330
1A562
100
AcDbEntity
  8
11100_LEFT_DIM
  6
Continuous
 62
     7
100
AcDbTrace
 10
50.8837340166549
 20
143.0868850235238
 30
0.0
 11
50.8837340166549
 21
142.2535516901905
 31
0.0
 12
53.3837340166549
 22
142.6702183568572
 32
0.0
 13
53.3837340166549
 23
142.6702183568572
 33
0.0
  0
POINT
  5
1A5B1
330
1A562
100
AcDbEntity
  8
Defpoints
  6
Continuous
 62
     0
100
AcDbPoint
 10
58.48373401665487
 20
190.8378938403478
 30
0.0
  0
POINT
  5
1A5B2
330
1A562
100
AcDbEntity
  8
Defpoints
  6
Continuous
 62
     0
100
AcDbPoint
 10
53.3837340166549
 20
151.1878938403475
 30
0.0
  0
POINT
  5
1A5B3
330
1A562
100
AcDbEntity
  8
Defpoints
  6
Continuous
 62
     0
100
AcDbPoint
 10
53.3837340166549
 20
142.6702183568572
 30
0.0
  0
ENDBLK
  5
1A56F
330
1A562
100
AcDbEntity
  8
0
100
AcDbBlockEnd
  0
ENDSEC
  0
SECTION
  2
ENTITIES
  0
LINE
  5
19464
330
1F
100
AcDbEntity
  8
90000_FRAME
  6
Continuous
 62
     7
370
    13
100
AcDbLine
 10
-73.42040048922729
 20
297.147081672034
 30
0.0
 11
196.5795995107727
 21
297.147081672034
 31
0.0
  0
LINE
  5
19465
330
1F
100
AcDbEntity
  8
90000_FRAME
  6
Continuous
 62
     7
370
    13
100
AcDbLine
 10
196.5795995107727
 20
97.14708167203413
 30
0.0
 11
196.5795995107727
 21
297.147081672034
 31
0.0
  0
TEXT
  5
19466
330
1F
100
AcDbEntity
  8
90000_FRAME
  6
Continuous
 62
     7
370
    13
100
AcDbText
 10
144.7395995107716
 20
109.0470816720341
 30
0.0
 40
2.2
  1
Massstab / Scale: 1:1
 41
0.7592611980675552
 72
     5
 11
175.6443614155715
 21
109.0470816720341
 31
0.0
100
AcDbText
  0
LINE
  5
19467
330
1F
100
AcDbEntity
  8
90000_FRAME
  6
Continuous
 62
     7
370
    13
100
AcDbLine
 10
186.5795995107717
 20
107.1470816720341
 30
0.0
 11
186.5795995107717
 21
125.1470816720341
 31
0.0
  0
LINE
  5
19468
330
1F
100
AcDbEntity
  8
90000_FRAME
  6
Continuous
 62
     7
370
    13
100
AcDbLine
 10
51.57959951077174
 20
125.1470816720341
 30
0.0
 11
186.5795995107717
 21
125.1470816720341
 31
0.0
  0
LINE
  5
19469
330
1F
100
AcDbEntity
  8
90000_FRAME
  6
Continuous
 62
     7
370
    13
100
AcDbLine
 10
101.5795995107716
 20
113.1470816720341
 30
0.0
 11
186.5795995107717
 21
113.1470816720341
 31
0.0
  0
LINE
  5
1946A
330
1F
100
AcDbEntity
  8
90000_FRAME
  6
Continuous
 62
     7
370
    13
100
AcDbLine
 10
51.57959951077174
 20
107.1470816720341
 30
0.0
 11
186.5795995107717
 21
107.1470816720341
 31
0.0
  0
LINE
  5
1946B
330
1F
100
AcDbEntity
  8
90000_FRAME
  6
Continuous
 62
     7
370
    13
100
AcDbLine
 10
-73.42040048922729
 20
97.14708167203413
 30
0.0
 11
-73.42040048922729
 21
297.147081672034
 31
0.0
  0
CIRCLE
  5
1946C
330
1F
100
AcDbEntity
  8
91000_TIP
  6
Continuous
 62
     7
370
    13
100
AcDbCircle
 10
42.89426927779763
 20
115.9708192455047
 30
0.0
 40
2.499999948899997
  0
CIRCLE
  5
1946D
330
1F
100
AcDbEntity
  8
91000_TIP
  6
Continuous
 62
     7
370
    13
100
AcDbCircle
 10
42.89426927779763
 20
115.9708192455047
 30
0.0
 40
4.9999998979
  0
LINE
  5
1946E
330
1F
100
AcDbEntity
  8
91000_TIP
  6
CENTER
 62
     7
370
     9
100
AcDbLine
 10
42.89426927779763
 20
110.2493380391047
 30
0.0
 11
42.89426927779763
 21
121.5327240391046
 31
0.0
  0
LINE
  5
1946F
330
1F
100
AcDbEntity
  8
91000_TIP
  6
Continuous
 62
     7
370
    13
100
AcDbLine
 10
36.39426941059773
 20
120.9708191434047
 30
0.0
 11
36.39426941059773
 21
110.9708193476046
 31
0.0
  0
LINE
  5
19470
330
1F
100
AcDbEntity
  8
91000_TIP
  6
Continuous
 62
     7
370
    13
100
AcDbLine
 10
26.39426961479774
 20
118.4708191944047
 30
0.0
 11
26.39426961479774
 21
113.4708192966047
 31
0.0
  0
LINE
  5
19471
330
1F
100
AcDbEntity
  8
91000_TIP
  6
Continuous
 62
     7
370
    13
100
AcDbLine
 10
26.39426961479774
 20
113.4708192966047
 30
0.0
 11
36.39426941059773
 21
110.9708193476046
 31
0.0
  0
LINE
  5
19472
330
1F
100
AcDbEntity
  8
91000_TIP
  6
CENTER
 62
     7
370
     9
100
AcDbLine
 10
25.11475914279673
 20
115.9708192455047
 30
0.0
 11
48.71674840689675
 21
115.9708192455047
 31
0.0
  0
LINE
  5
19473
330
1F
100
AcDbEntity
  8
91000_TIP
  6
Continuous
 62
     7
370
    13
100
AcDbLine
 10
26.39426961479774
 20
118.4708191944047
 30
0.0
 11
36.39426941059773
 21
120.9708191434047
 31
0.0
  0
TEXT
  5
19474
330
1F
100
AcDbEntity
  8
91000_TIP
  6
Continuous
 62
     7
370
    13
100
AcDbText
 10
-69.36705070656342
 20
100.6293182937107
 30
0.0
 40
2.5
  1
All dimensions are in millimeters (mm).
 41
0.7435061617210894
 72
     5
 11
-9.260248341121382
 21
100.6293182937107
 31
0.0
100
AcDbText
  0
TEXT
  5
19475
330
1F
100
AcDbEntity
  8
91000_TIP
  6
Continuous
 62
     7
370
    13
100
AcDbText
 10
-69.36705070656342
 20
105.8793182937107
 30
0.0
 40
2.5
  1
Alle Bemassungswerte sind in Millimeter (mm) angegeben.
 41
0.6014695723944181
 72
     5
 11
4.318069111518866
 21
105.8793182937107
 31
0.0
100
AcDbText
  0
LINE
  5
19476
330
1F
100
AcDbEntity
  8
90000_FRAME
  6
Continuous
 62
     7
370
    13
100
AcDbLine
 10
-73.42040048922729
 20
97.14708167203413
 30
0.0
 11
196.5795995107727
 21
97.14708167203413
 31
0.0
  0
TEXT
  5
19477
330
1F
100
AcDbEntity
  8
90000_FRAME
  6
Continuous
 62
     7
370
    13
100
AcDbText
 10
114.8855240347225
 20
117.3970816720341
 30
0.0
 40
3.5
  1
3UG4614_00001493_000_ALL
 41
0.7205145512495149
 72
     5
 11
170.7976974539056
 21
117.3970816720341
 31
0.0
100
AcDbText
  0
TEXT
  5
19478
330
1F
100
AcDbEntity
  8
90000_FRAME
  6
Continuous
 62
     7
370
    13
100
AcDbText
 10
102.2395995107716
 20
109.0470816720341
 30
0.0
 40
2.2
  1
Format / Size: DIN A4
 41
0.7856775503513709
 72
     5
 11
135.6586471297715
 21
109.0470816720341
 31
0.0
100
AcDbText
  0
LINE
  5
19479
330
1F
100
AcDbEntity
  8
90000_FRAME
  6
Continuous
 62
     7
370
    13
100
AcDbLine
 10
144.0795995107718
 20
107.1470816720341
 30
0.0
 11
144.0795995107718
 21
113.1470816720341
 31
0.0
  0
LINE
  5
1947A
330
1F
100
AcDbEntity
  8
90000_FRAME
  6
Continuous
 62
     7
370
    13
100
AcDbLine
 10
101.5795995107716
 20
107.1470816720341
 30
0.0
 11
101.5795995107716
 21
125.1470816720341
 31
0.0
  0
LINE
  5
1947B
330
1F
100
AcDbEntity
  8
90000_FRAME
  6
Continuous
 62
     7
370
    13
100
AcDbLine
 10
51.57959951077174
 20
107.1470816720341
 30
0.0
 11
51.57959951077174
 21
125.1470816720341
 31
0.0
  0
INSERT
  5
1947C
330
1F
100
AcDbEntity
  8
90000_FRAME
  6
Continuous
 62
     7
370
    13
100
AcDbBlockReference
  2
SIEMENS_OUTLINE_BL0
 10
-15.77450310530719
 20
96.80882244443079
 30
0.0
  0
LINE
  5
19892
330
1F
100
AcDbEntity
  8
11000_Left
  6
Continuous
 62
     7
370
    50
100
AcDbLine
 10
83.3837340166549
 20
174.3378938403477
 30
0.0
 11
83.3837340166549
 21
165.7878938403475
 31
0.0
  0
LINE
  5
19893
330
1F
100
AcDbEntity
  8
11000_Left
  6
Continuous
 62
     7
370
    50
100
AcDbLine
 10
144.4837340166548
 20
252.1878938403477
 30
0.0
 11
144.4837340166548
 21
252.1878938403477
 31
0.0
  0
ARC
  5
19894
330
1F
100
AcDbEntity
  8
11000_Left
  6
Continuous
 62
     7
370
    50
100
AcDbCircle
 10
142.9485050233831
 20
252.5476415200236
 30
0.0
 40
0.2801105918978766
100
AcDbArc
 50
258.9930430759626
 51
334.5595959135817
  0
LINE
  5
19895
330
1F
100
AcDbEntity
  8
11000_Left
  6
Continuous
 62
     7
370
    50
100
AcDbLine
 10
144.4837340166548
 20
249.9294938403477
 30
0.0
 11
144.4837340166548
 21
254.0145438403477
 31
0.0
  0
LINE
  5
19896
330
1F
100
AcDbEntity
  8
11000_Left
  6
Continuous
 62
     7
370
    50
100
AcDbLine
 10
143.8422540166548
 20
254.1878938403477
 30
0.0
 11
143.2963040166548
 21
252.6878938403477
 31
0.0
  0
LINE
  5
19897
330
1F
100
AcDbEntity
  8
11000_Left
  6
Continuous
 62
     7
370
    50
100
AcDbLine
 10
143.2014540166549
 20
252.4273138403478
 30
0.0
 11
143.2963040166548
 21
252.6878938403477
 31
0.0
  0
LINE
  5
19898
330
1F
100
AcDbEntity
  8
11000_Left
  6
Continuous
 62
     7
370
    50
100
AcDbLine
 10
142.8950240166549
 20
252.2726838403478
 30
0.0
 11
135.1837340166549
 21
253.2878938403477
 31
0.0
  0
POLYLINE
  5
19899
330
1F
100
AcDbEntity
  8
11000_Left
  6
Continuous
 62
     7
370
    50
100
AcDb2dPolyline
 66
     1
 10
0.0
 20
0.0
 30
0.0
 70
     2
  0
VERTEX
  5
1989A
330
19899
100
AcDbEntity
  8
11000_Left
  6
Continuous
 62
     7
370
    50
100
AcDbVertex
100
AcDb2dVertex
 10
144.4837440166549
 20
251.1370038403477
 30
0.0
  0
VERTEX
  5
1989B
330
19899
100
AcDbEntity
  8
11000_Left
  6
Continuous
 62
     7
370
    50
100
AcDbVertex
100
AcDb2dVertex
 10
144.4837440166549
 20
251.1370038403477
 30
0.0
 42
0.0018930174
 70
     1
  0
VERTEX
  5
1989C
330
19899
100
AcDbEntity
  8
11000_Left
  6
Continuous
 62
     7
370
    50
100
AcDbVertex
100
AcDb2dVertex
 10
144.4837440166549
 20
251.1370038403477
 30
0.0
 42
0.001892598
  0
VERTEX
  5
1989D
330
19899
100
AcDbEntity
  8
11000_Left
  6
Continuous
 62
     7
370
    50
100
AcDbVertex
100
AcDb2dVertex
 10
144.4837440166549
 20
251.1370038403477
 30
0.0
 42
0.0018978387
 70
     1
  0
VERTEX
  5
1989E
330
19899
100
AcDbEntity
  8
11000_Left
  6
Continuous
 62
     7
370
    50
100
AcDbVertex
100
AcDb2dVertex
 10
144.4837540166548
 20
251.1370038403477
 30
0.0
 42
0.0019076272
  0
VERTEX
  5
1989F
330
19899
100
AcDbEntity
  8
11000_Left
  6
Continuous
 62
     7
370
    50
100
AcDbVertex
100
AcDb2dVertex
 10
144.4837540166548
 20
251.1370038403477
 30
0.0
 42
0.0019136078
 70
     1
  0
VERTEX
  5
198A0
330
19899
100
AcDbEntity
  8
11000_Left
  6
Continuous
 62
     7
370
    50
100
AcDbVertex
100
AcDb2dVertex
 10
144.4837540166548
 20
251.1370038403477
 30
0.0
 42
0.001917621
  0
VERTEX
  5
198A1
330
19899
100
AcDbEntity
  8
11000_Left
  6
Continuous
 62
     7
370
    50
100
AcDbVertex
100
AcDb2dVertex
 10
144.4837540166548
 20
251.1370038403477
 30
0.0
 42
0.0019199693
 70
     1
  0
VERTEX
  5
198A2
330
19899
100
AcDbEntity
  8
11000_Left
  6
Continuous
 62
     7
370
    50
100
AcDbVertex
100
AcDb2dVertex
 10
144.4837540166548
 20
251.1370038403477
 30
0.0
 42
0.001921742
  0
VERTEX
  5
198A3
330
19899
100
AcDbEntity
  8
11000_Left
  6
Continuous
 62
     7
370
    50
100
AcDbVertex
100
AcDb2dVertex
 10
144.4837540166548
 20
251.1370038403477
 30
0.0
 42
0.001921372
 70
     1
  0
VERTEX
  5
198A4
330
19899
100
AcDbEntity
  8
11000_Left
  6
Continuous
 62
     7
370
    50
100
AcDbVertex
100
AcDb2dVertex
 10
144.4837540166548
 20
251.1370038403477
 30
0.0
 42
0.001920125
  0
VERTEX
  5
198A5
330
19899
100
AcDbEntity
  8
11000_Left
  6
Continuous
 62
     7
370
    50
100
AcDbVertex
100
AcDb2dVertex
 10
144.4837540166548
 20
251.1370038403477
 30
0.0
 42
0.0019168676
 70
     1
  0
VERTEX
  5
198A6
330
19899
100
AcDbEntity
  8
11000_Left
  6
Continuous
 62
     7
370
    50
100
AcDbVertex
100
AcDb2dVertex
 10
144.4837640166549
 20
251.1370038403477
 30
0.0
 42
0.0019128027
  0
VERTEX
  5
198A7
330
19899
100
AcDbEntity
  8
11000_Left
  6
Continuous
 62
     7
370
    50
100
AcDbVertex
100
AcDb2dVertex
 10
144.4837640166549
 20
251.1370038403477
 30
0.0
 42
0.0019067531
 70
     1
  0
VERTEX
  5
198A8
330
19899
100
AcDbEntity
  8
11000_Left
  6
Continuous
 62
     7
370
    50
100
AcDbVertex
100
AcDb2dVertex
 10
144.4837640166549
 20
251.1370038403477
 30
0.0
 42
0.0018999024
  0
VERTEX
  5
198A9
330
19899
100
AcDbEntity
  8
11000_Left
  6
Continuous
 62
     7
370
    50
100
AcDbVertex
100
AcDb2dVertex
 10
144.4837640166549
 20
251.1370038403477
 30
0.0
 42
0.0018911408
 70
     1
  0
VERTEX
  5
198AA
330
19899
100
AcDbEntity
  8
11000_Left
  6
Continuous
 62
     7
370
    50
100
AcDbVertex
100
AcDb2dVertex
 10
144.4837640166549
 20
251.1370038403477
 30
0.0
 42
0.0018816357
  0
VERTEX
  5
198AB
330
19899
100
AcDbEntity
  8
11000_Left
  6
Continuous
 62
     7
370
    50
100
AcDbVertex
100
AcDb2dVertex
 10
144.4837640166549
 20
251.1370038403477
 30
0.0
 42
0.0018702334
 70
     1
  0
VERTEX
  5
198AC
330
19899
100
AcDbEntity
  8
11000_Left
  6
Continuous
 62
     7
370
    50
100
AcDbVertex
100
AcDb2dVertex
 10
144.4837640166549
 20
251.1370038403477
 30
0.0
 42
0.0018580719
  0
VERTEX
  5
198AD
330
19899
100
AcDbEntity
  8
11000_Left
  6
Continuous
 62
     7
370
    50
100
AcDbVertex
100
AcDb2dVertex
 10
144.4837640166549
 20
251.1370038403477
 30
0.0
 42
0.0018443386
 70
     1
  0
VERTEX
  5
198AE
330
19899
100
AcDbEntity
  8
11000_Left
  6
Continuous
 62
     7
370
    50
100
AcDbVertex
100
AcDb2dVertex
 10
144.4837740166549
 20
251.1370038403477
 30
0.0
 42
0.0018301098
  0
VERTEX
  5
198AF
330
19899
100
AcDbEntity
  8
11000_Left
  6
Continuous
 62
     7
370
    50
100
AcDbVertex
100
AcDb2dVertex
 10
144.4837740166549
 20
251.1370038403477
 30
0.0
 42
0.0018136087
 70
     1
  0
VERTEX
  5
198B0
330
19899
100
AcDbEntity
  8
11000_Left
  6
Continuous
 62
     7
370
    50
100
AcDbVertex
100
AcDb2dVertex
 10
144.4837740166549
 20
251.1370038403477
 30
0.0
 42
0.001795962
  0
VERTEX
  5
198B1
330
19899
100
AcDbEntity
  8
11000_Left
  6
Continuous
 62
     7
370
    50
100
AcDbVertex
100
AcDb2dVertex
 10
144.4837740166549
 20
251.1370038403477
 30
0.0
 42
0.0017789766
 70
     1
  0
VERTEX
  5
198B2
330
19899
100
AcDbEntity
  8
11000_Left
  6
Continuous
 62
     7
370
    50
100
AcDbVertex
100
AcDb2dVertex
 10
144.4837740166549
 20
251.1370038403477
 30
0.0
 42
0.0017632677
  0
VERTEX
  5
198B3
330
19899
100
AcDbEntity
  8
11000_Left
  6
Continuous
 62
     7
370
    50
100
AcDbVertex
100
AcDb2dVertex
 10
144.4837740166549
 20
251.1370038403477
 30
0.0
 42
0.0017387211
 70
     1
  0
VERTEX
  5
198B4
330
19899
100
AcDbEntity
  8
11000_Left
  6
Continuous
 62
     7
370
    50
100
AcDbVertex
100
AcDb2dVertex
 10
144.4837740166549
 20
251.1370038403477
 30
0.0
 42
0.001707789
  0
VERTEX
  5
198B5
330
19899
100
AcDbEntity
  8
11000_Left
  6
Continuous
 62
     7
370
    50
100
AcDbVertex
100
AcDb2dVertex
 10
144.4837740166549
 20
251.1370038403477
 30
0.0
 42
0.0017005799
 70
     1
  0
VERTEX
  5
198B6
330
19899
100
AcDbEntity
  8
11000_Left
  6
Continuous
 62
     7
370
    50
100
AcDbVertex
100
AcDb2dVertex
 10
144.4837840166549
 20
251.1370038403477
 30
0.0
 42
0.001711534
  0
VERTEX
  5
198B7
330
19899
100
AcDbEntity
  8
11000_Left
  6
Continuous
 62
     7
370
    50
100
AcDbVertex
100
AcDb2dVertex
 10
144.4837840166549
 20
251.1370038403477
 30
0.0
 42
0.001639871
 70
     1
  0
VERTEX
  5
198B8
330
19899
100
AcDbEntity
  8
11000_Left
  6
Continuous
 62
     7
370
    50
100
AcDbVertex
100
AcDb2dVertex
 10
144.4837840166549
 20
251.1370038403477
 30
0.0
 42
0.0015113761
  0
VERTEX
  5
198B9
330
19899
100
AcDbEntity
  8
11000_Left
  6
Continuous
 62
     7
370
    50
100
AcDbVertex
100
AcDb2dVertex
 10
144.4837840166549
 20
251.1370038403477
 30
0.0
 42
0.001641966
 70
     1
  0
VERTEX
  5
198BA
330
19899
100
AcDbEntity
  8
11000_Left
  6
Continuous
 62
     7
370
    50
100
AcDbVertex
100
AcDb2dVertex
 10
144.4837840166549
 20
251.1370038403477
 30
0.0
 42
0.0019196057
  0
VERTEX
  5
198BB
330
19899
100
AcDbEntity
  8
11000_Left
  6
Continuous
 62
     7
370
    50
100
AcDbVertex
100
AcDb2dVertex
 10
144.4837840166549
 20
251.1370038403477
 30
0.0
 42
0.0014342492
 70
     1
  0
VERTEX
  5
198BC
330
19899
100
AcDbEntity
  8
11000_Left
  6
Continuous
 62
     7
370
    50
100
AcDbVertex
100
AcDb2dVertex
 10
144.4837840166549
 20
251.1370038403477
 30
0.0
 42
0.0004972202
  0
VERTEX
  5
198BD
330
19899
100
AcDbEntity
  8
11000_Left
  6
Continuous
 62
     7
370
    50
100
AcDbVertex
100
AcDb2dVertex
 10
144.4837940166548
 20
251.1370038403477
 30
0.0
 42
0.0019749636
 70
     1
  0
VERTEX
  5
198BE
330
19899
100
AcDbEntity
  8
11000_Left
  6
Continuous
 62
     7
370
    50
100
AcDbVertex
100
AcDb2dVertex
 10
144.4837940166548
 20
251.1370038403477
 30
0.0
 42
0.003278378
  0
VERTEX
  5
198BF
330
19899
100
AcDbEntity
  8
11000_Left
  6
Continuous
 62
     7
370
    50
100
AcDbVertex
100
AcDb2dVertex
 10
144.4837940166548
 20
251.1370138403477
 30
0.0
 42
0.0015605207
 70
     1
  0
VERTEX
  5
198C0
330
19899
100
AcDbEntity
  8
11000_Left
  6
Continuous
 62
     7
370
    50
100
AcDbVertex
100
AcDb2dVertex
 10
144.4837940166548
 20
251.1370138403477
 30
0.0
 42
0.0008187339
  0
SEQEND
  5
198C1
330
19899
100
AcDbEntity
  8
11000_Left
  6
Continuous
 62
     7
370
    50
  0
LINE
  5
198C2
330
1F
100
AcDbEntity
  8
11000_Left
  6
Continuous
 62
     7
370
    50
100
AcDbLine
 10
144.4837340166548
 20
254.1878938403477
 30
0.0
 11
143.8422540166548
 21
254.1878938403477
 31
0.0
  0
LINE
  5
198C3
330
1F
100
AcDbEntity
  8
11000_Left
  6
Continuous
 62
     7
370
    50
100
AcDbLine
 10
144.4837340166548
 20
254.0145438403477
 30
0.0
 11
144.4837340166548
 21
254.1878938403477
 31
0.0
  0
LINE
  5
198C4
330
1F
100
AcDbEntity
  8
11000_Left
  6
Continuous
 62
     7
370
    50
100
AcDbLine
 10
135.1837340166549
 20
253.2878938403477
 30
0.0
 11
124.9837340166548
 21
253.2878938403477
 31
0.0
  0
LINE
  5
198C5
330
1F
100
AcDbEntity
  8
11000_Left
  6
Continuous
 62
     7
370
    50
100
AcDbLine
 10
115.8490040166548
 20
251.6771938403477
 30
0.0
 11
124.9837340166548
 21
253.2878938403477
 31
0.0
  0
ARC
  5
198C6
330
1F
100
AcDbEntity
  8
11000_Left
  6
Continuous
 62
     7
370
    50
100
AcDbCircle
 10
115.9186315507321
 20
251.452317083104
 30
0.0
 40
0.2354093232014273
100
AcDbArc
 50
107.2038477988495
 51
176.2212336466435
  0
ARC
  5
198FA
330
1F
100
AcDbEntity
  8
11000_Left
  6
Continuous
 62
     7
370
    50
100
AcDbCircle
 10
87.11863155073212
 20
161.2234705975913
 30
0.0
 40
0.2354093232014273
100
AcDbArc
 50
183.7787663533565
 51
252.7961522011505
  0
LINE
  5
198FB
330
1F
100
AcDbEntity
  8
11000_Left
  6
Continuous
 62
     7
370
    50
100
AcDbLine
 10
87.04900401665483
 20
160.9985938403475
 30
0.0
 11
96.18373401665486
 21
159.3878938403476
 31
0.0
  0
LINE
  5
198FC
330
1F
100
AcDbEntity
  8
11000_Left
  6
Continuous
 62
     7
370
    50
100
AcDbLine
 10
106.3837340166549
 20
159.3878938403476
 30
0.0
 11
96.18373401665486
 21
159.3878938403476
 31
0.0
  0
LINE
  5
198FD
330
1F
100
AcDbEntity
  8
11000_Left
  6
Continuous
 62
     7
370
    50
100
AcDbLine
 10
115.6837340166548
 20
158.4878938403476
 30
0.0
 11
115.0422540166548
 21
158.4878938403476
 31
0.0
  0
POLYLINE
  5
198FE
330
1F
100
AcDbEntity
  8
11000_Left
  6
Continuous
 62
     7
370
    50
100
AcDb2dPolyline
 66
     1
 10
0.0
 20
0.0
 30
0.0
 70
     2
  0
VERTEX
  5
198FF
330
198FE
100
AcDbEntity
  8
11000_Left
  6
Continuous
 62
     7
370
    50
100
AcDbVertex
100
AcDb2dVertex
 10
115.6837440166549
 20
161.5387838403476
 30
0.0
  0
VERTEX
  5
19900
330
198FE
100
AcDbEntity
  8
11000_Left
  6
Continuous
 62
     7
370
    50
100
AcDbVertex
100
AcDb2dVertex
 10
115.6837440166549
 20
161.5387838403476
 30
0.0
 42
-0.0018930174
 70
     1
  0
VERTEX
  5
19901
330
198FE
100
AcDbEntity
  8
11000_Left
  6
Continuous
 62
     7
370
    50
100
AcDbVertex
100
AcDb2dVertex
 10
115.6837440166549
 20
161.5387838403476
 30
0.0
 42
-0.001892598
  0
VERTEX
  5
19902
330
198FE
100
AcDbEntity
  8
11000_Left
  6
Continuous
 62
     7
370
    50
100
AcDbVertex
100
AcDb2dVertex
 10
115.6837440166549
 20
161.5387838403476
 30
0.0
 42
-0.0018978387
 70
     1
  0
VERTEX
  5
19903
330
198FE
100
AcDbEntity
  8
11000_Left
  6
Continuous
 62
     7
370
    50
100
AcDbVertex
100
AcDb2dVertex
 10
115.6837540166548
 20
161.5387838403476
 30
0.0
 42
-0.0019076272
  0
VERTEX
  5
19904
330
198FE
100
AcDbEntity
  8
11000_Left
  6
Continuous
 62
     7
370
    50
100
AcDbVertex
100
AcDb2dVertex
 10
115.6837540166548
 20
161.5387838403476
 30
0.0
 42
-0.0019136078
 70
     1
  0
VERTEX
  5
19905
330
198FE
100
AcDbEntity
  8
11000_Left
  6
Continuous
 62
     7
370
    50
100
AcDbVertex
100
AcDb2dVertex
 10
115.6837540166548
 20
161.5387838403476
 30
0.0
 42
-0.001917621
  0
VERTEX
  5
19906
330
198FE
100
AcDbEntity
  8
11000_Left
  6
Continuous
 62
     7
370
    50
100
AcDbVertex
100
AcDb2dVertex
 10
115.6837540166548
 20
161.5387838403476
 30
0.0
 42
-0.0019199693
 70
     1
  0
VERTEX
  5
19907
330
198FE
100
AcDbEntity
  8
11000_Left
  6
Continuous
 62
     7
370
    50
100
AcDbVertex
100
AcDb2dVertex
 10
115.6837540166548
 20
161.5387838403476
 30
0.0
 42
-0.001921742
  0
VERTEX
  5
19908
330
198FE
100
AcDbEntity
  8
11000_Left
  6
Continuous
 62
     7
370
    50
100
AcDbVertex
100
AcDb2dVertex
 10
115.6837540166548
 20
161.5387838403476
 30
0.0
 42
-0.001921372
 70
     1
  0
VERTEX
  5
19909
330
198FE
100
AcDbEntity
  8
11000_Left
  6
Continuous
 62
     7
370
    50
100
AcDbVertex
100
AcDb2dVertex
 10
115.6837540166548
 20
161.5387838403476
 30
0.0
 42
-0.001920125
  0
VERTEX
  5
1990A
330
198FE
100
AcDbEntity
  8
11000_Left
  6
Continuous
 62
     7
370
    50
100
AcDbVertex
100
AcDb2dVertex
 10
115.6837540166548
 20
161.5387838403476
 30
0.0
 42
-0.0019168676
 70
     1
  0
VERTEX
  5
1990B
330
198FE
100
AcDbEntity
  8
11000_Left
  6
Continuous
 62
     7
370
    50
100
AcDbVertex
100
AcDb2dVertex
 10
115.6837640166549
 20
161.5387838403476
 30
0.0
 42
-0.0019128027
  0
VERTEX
  5
1990C
330
198FE
100
AcDbEntity
  8
11000_Left
  6
Continuous
 62
     7
370
    50
100
AcDbVertex
100
AcDb2dVertex
 10
115.6837640166549
 20
161.5387838403476
 30
0.0
 42
-0.0019067531
 70
     1
  0
VERTEX
  5
1990D
330
198FE
100
AcDbEntity
  8
11000_Left
  6
Continuous
 62
     7
370
    50
100
AcDbVertex
100
AcDb2dVertex
 10
115.6837640166549
 20
161.5387838403476
 30
0.0
 42
-0.0018999024
  0
VERTEX
  5
1990E
330
198FE
100
AcDbEntity
  8
11000_Left
  6
Continuous
 62
     7
370
    50
100
AcDbVertex
100
AcDb2dVertex
 10
115.6837640166549
 20
161.5387838403476
 30
0.0
 42
-0.0018911408
 70
     1
  0
VERTEX
  5
1990F
330
198FE
100
AcDbEntity
  8
11000_Left
  6
Continuous
 62
     7
370
    50
100
AcDbVertex
100
AcDb2dVertex
 10
115.6837640166549
 20
161.5387838403476
 30
0.0
 42
-0.0018816357
  0
VERTEX
  5
19910
330
198FE
100
AcDbEntity
  8
11000_Left
  6
Continuous
 62
     7
370
    50
100
AcDbVertex
100
AcDb2dVertex
 10
115.6837640166549
 20
161.5387838403476
 30
0.0
 42
-0.0018702334
 70
     1
  0
VERTEX
  5
19911
330
198FE
100
AcDbEntity
  8
11000_Left
  6
Continuous
 62
     7
370
    50
100
AcDbVertex
100
AcDb2dVertex
 10
115.6837640166549
 20
161.5387838403476
 30
0.0
 42
-0.0018580719
  0
VERTEX
  5
19912
330
198FE
100
AcDbEntity
  8
11000_Left
  6
Continuous
 62
     7
370
    50
100
AcDbVertex
100
AcDb2dVertex
 10
115.6837640166549
 20
161.5387838403476
 30
0.0
 42
-0.0018443386
 70
     1
  0
VERTEX
  5
19913
330
198FE
100
AcDbEntity
  8
11000_Left
  6
Continuous
 62
     7
370
    50
100
AcDbVertex
100
AcDb2dVertex
 10
115.6837740166548
 20
161.5387838403476
 30
0.0
 42
-0.0018301098
  0
VERTEX
  5
19914
330
198FE
100
AcDbEntity
  8
11000_Left
  6
Continuous
 62
     7
370
    50
100
AcDbVertex
100
AcDb2dVertex
 10
115.6837740166548
 20
161.5387838403476
 30
0.0
 42
-0.0018136087
 70
     1
  0
VERTEX
  5
19915
330
198FE
100
AcDbEntity
  8
11000_Left
  6
Continuous
 62
     7
370
    50
100
AcDbVertex
100
AcDb2dVertex
 10
115.6837740166548
 20
161.5387838403476
 30
0.0
 42
-0.001795962
  0
VERTEX
  5
19916
330
198FE
100
AcDbEntity
  8
11000_Left
  6
Continuous
 62
     7
370
    50
100
AcDbVertex
100
AcDb2dVertex
 10
115.6837740166548
 20
161.5387838403476
 30
0.0
 42
-0.0017789766
 70
     1
  0
VERTEX
  5
19917
330
198FE
100
AcDbEntity
  8
11000_Left
  6
Continuous
 62
     7
370
    50
100
AcDbVertex
100
AcDb2dVertex
 10
115.6837740166548
 20
161.5387838403476
 30
0.0
 42
-0.0017632677
  0
VERTEX
  5
19918
330
198FE
100
AcDbEntity
  8
11000_Left
  6
Continuous
 62
     7
370
    50
100
AcDbVertex
100
AcDb2dVertex
 10
115.6837740166548
 20
161.5387838403476
 30
0.0
 42
-0.0017387211
 70
     1
  0
VERTEX
  5
19919
330
198FE
100
AcDbEntity
  8
11000_Left
  6
Continuous
 62
     7
370
    50
100
AcDbVertex
100
AcDb2dVertex
 10
115.6837740166548
 20
161.5387838403476
 30
0.0
 42
-0.001707789
  0
VERTEX
  5
1991A
330
198FE
100
AcDbEntity
  8
11000_Left
  6
Continuous
 62
     7
370
    50
100
AcDbVertex
100
AcDb2dVertex
 10
115.6837740166548
 20
161.5387838403476
 30
0.0
 42
-0.0017005799
 70
     1
  0
VERTEX
  5
1991B
330
198FE
100
AcDbEntity
  8
11000_Left
  6
Continuous
 62
     7
370
    50
100
AcDbVertex
100
AcDb2dVertex
 10
115.6837840166549
 20
161.5387838403476
 30
0.0
 42
-0.001711534
  0
VERTEX
  5
1991C
330
198FE
100
AcDbEntity
  8
11000_Left
  6
Continuous
 62
     7
370
    50
100
AcDbVertex
100
AcDb2dVertex
 10
115.6837840166549
 20
161.5387838403476
 30
0.0
 42
-0.001639871
 70
     1
  0
VERTEX
  5
1991D
330
198FE
100
AcDbEntity
  8
11000_Left
  6
Continuous
 62
     7
370
    50
100
AcDbVertex
100
AcDb2dVertex
 10
115.6837840166549
 20
161.5387838403476
 30
0.0
 42
-0.0015113761
  0
VERTEX
  5
1991E
330
198FE
100
AcDbEntity
  8
11000_Left
  6
Continuous
 62
     7
370
    50
100
AcDbVertex
100
AcDb2dVertex
 10
115.6837840166549
 20
161.5387838403476
 30
0.0
 42
-0.001641966
 70
     1
  0
VERTEX
  5
1991F
330
198FE
100
AcDbEntity
  8
11000_Left
  6
Continuous
 62
     7
370
    50
100
AcDbVertex
100
AcDb2dVertex
 10
115.6837840166549
 20
161.5387838403476
 30
0.0
 42
-0.0019196057
  0
VERTEX
  5
19920
330
198FE
100
AcDbEntity
  8
11000_Left
  6
Continuous
 62
     7
370
    50
100
AcDbVertex
100
AcDb2dVertex
 10
115.6837840166549
 20
161.5387838403476
 30
0.0
 42
-0.0014342492
 70
     1
  0
VERTEX
  5
19921
330
198FE
100
AcDbEntity
  8
11000_Left
  6
Continuous
 62
     7
370
    50
100
AcDbVertex
100
AcDb2dVertex
 10
115.6837840166549
 20
161.5387838403476
 30
0.0
 42
-0.0004972202
  0
VERTEX
  5
19922
330
198FE
100
AcDbEntity
  8
11000_Left
  6
Continuous
 62
     7
370
    50
100
AcDbVertex
100
AcDb2dVertex
 10
115.6837940166548
 20
161.5387838403476
 30
0.0
 42
-0.0019749636
 70
     1
  0
VERTEX
  5
19923
330
198FE
100
AcDbEntity
  8
11000_Left
  6
Continuous
 62
     7
370
    50
100
AcDbVertex
100
AcDb2dVertex
 10
115.6837940166548
 20
161.5387838403476
 30
0.0
 42
-0.003278378
  0
VERTEX
  5
19924
330
198FE
100
AcDbEntity
  8
11000_Left
  6
Continuous
 62
     7
370
    50
100
AcDbVertex
100
AcDb2dVertex
 10
115.6837940166548
 20
161.5387738403476
 30
0.0
 42
-0.0015605207
 70
     1
  0
VERTEX
  5
19925
330
198FE
100
AcDbEntity
  8
11000_Left
  6
Continuous
 62
     7
370
    50
100
AcDbVertex
100
AcDb2dVertex
 10
115.6837940166548
 20
161.5387738403476
 30
0.0
 42
-0.0008187339
  0
SEQEND
  5
19926
330
198FE
100
AcDbEntity
  8
11000_Left
  6
Continuous
 62
     7
370
    50
  0
LINE
  5
19927
330
1F
100
AcDbEntity
  8
11000_Left
  6
Continuous
 62
     7
370
    50
100
AcDbLine
 10
114.0950240166548
 20
160.4031038403475
 30
0.0
 11
106.3837340166549
 21
159.3878938403476
 31
0.0
  0
LINE
  5
19928
330
1F
100
AcDbEntity
  8
11000_Left
  6
Continuous
 62
     7
370
    50
100
AcDbLine
 10
114.4014540166549
 20
160.2484738403475
 30
0.0
 11
114.4963040166548
 21
159.9878938403476
 31
0.0
  0
LINE
  5
19929
330
1F
100
AcDbEntity
  8
11000_Left
  6
Continuous
 62
     7
370
    50
100
AcDbLine
 10
115.0422540166548
 20
158.4878938403476
 30
0.0
 11
114.4963040166548
 21
159.9878938403476
 31
0.0
  0
ARC
  5
1992A
330
1F
100
AcDbEntity
  8
11000_Left
  6
Continuous
 62
     7
370
    50
100
AcDbCircle
 10
114.1485050233831
 20
160.1281461606717
 30
0.0
 40
0.2801105918978766
100
AcDbArc
 50
25.4404040864183
 51
101.0069569240375
  0
LINE
  5
1992B
330
1F
100
AcDbEntity
  8
11000_Left
  6
Continuous
 62
     7
370
    50
100
AcDbLine
 10
144.4837340166548
 20
183.7878938403475
 30
0.0
 11
144.4837340166548
 21
174.2043438403475
 31
0.0
  0
ARC
  5
1992C
330
1F
100
AcDbEntity
  8
11000_Left
 62
     7
100
AcDbCircle
 10
115.9186315507321
 20
170.7234705975913
 30
0.0
 40
0.2354093232014273
100
AcDbArc
 50
183.7787663533565
 51
252.7961522011505
  0
LINE
  5
1992D
330
1F
100
AcDbEntity
  8
11000_Left
  6
Continuous
 62
     7
370
    50
100
AcDbLine
 10
115.8490040166548
 20
170.4985938403475
 30
0.0
 11
124.9837340166548
 21
168.8878938403476
 31
0.0
  0
LINE
  5
1992E
330
1F
100
AcDbEntity
  8
11000_Left
  6
Continuous
 62
     7
370
    50
100
AcDbLine
 10
135.1837340166549
 20
168.8878938403476
 30
0.0
 11
124.9837340166548
 21
168.8878938403476
 31
0.0
  0
LINE
  5
1992F
330
1F
100
AcDbEntity
  8
11000_Left
  6
Continuous
 62
     7
370
    50
100
AcDbLine
 10
144.4837340166548
 20
168.1612438403475
 30
0.0
 11
144.4837340166548
 21
167.9878938403476
 31
0.0
  0
LINE
  5
19930
330
1F
100
AcDbEntity
  8
11000_Left
  6
Continuous
 62
     7
370
    50
100
AcDbLine
 10
144.4837340166548
 20
167.9878938403476
 30
0.0
 11
143.8422540166548
 21
167.9878938403476
 31
0.0
  0
POLYLINE
  5
19931
330
1F
100
AcDbEntity
  8
11000_Left
  6
Continuous
 62
     7
370
    50
100
AcDb2dPolyline
 66
     1
 10
0.0
 20
0.0
 30
0.0
 70
     2
  0
VERTEX
  5
19932
330
19931
100
AcDbEntity
  8
11000_Left
  6
Continuous
 62
     7
370
    50
100
AcDbVertex
100
AcDb2dVertex
 10
144.4837440166549
 20
171.0387838403476
 30
0.0
  0
VERTEX
  5
19933
330
19931
100
AcDbEntity
  8
11000_Left
  6
Continuous
 62
     7
370
    50
100
AcDbVertex
100
AcDb2dVertex
 10
144.4837440166549
 20
171.0387838403476
 30
0.0
 42
-0.0018930174
 70
     1
  0
VERTEX
  5
19934
330
19931
100
AcDbEntity
  8
11000_Left
  6
Continuous
 62
     7
370
    50
100
AcDbVertex
100
AcDb2dVertex
 10
144.4837440166549
 20
171.0387838403476
 30
0.0
 42
-0.001892598
  0
VERTEX
  5
19935
330
19931
100
AcDbEntity
  8
11000_Left
  6
Continuous
 62
     7
370
    50
100
AcDbVertex
100
AcDb2dVertex
 10
144.4837440166549
 20
171.0387838403476
 30
0.0
 42
-0.0018978387
 70
     1
  0
VERTEX
  5
19936
330
19931
100
AcDbEntity
  8
11000_Left
  6
Continuous
 62
     7
370
    50
100
AcDbVertex
100
AcDb2dVertex
 10
144.4837540166548
 20
171.0387838403476
 30
0.0
 42
-0.0019076272
  0
VERTEX
  5
19937
330
19931
100
AcDbEntity
  8
11000_Left
  6
Continuous
 62
     7
370
    50
100
AcDbVertex
100
AcDb2dVertex
 10
144.4837540166548
 20
171.0387838403476
 30
0.0
 42
-0.0019136078
 70
     1
  0
VERTEX
  5
19938
330
19931
100
AcDbEntity
  8
11000_Left
  6
Continuous
 62
     7
370
    50
100
AcDbVertex
100
AcDb2dVertex
 10
144.4837540166548
 20
171.0387838403476
 30
0.0
 42
-0.001917621
  0
VERTEX
  5
19939
330
19931
100
AcDbEntity
  8
11000_Left
  6
Continuous
 62
     7
370
    50
100
AcDbVertex
100
AcDb2dVertex
 10
144.4837540166548
 20
171.0387838403476
 30
0.0
 42
-0.0019199693
 70
     1
  0
VERTEX
  5
1993A
330
19931
100
AcDbEntity
  8
11000_Left
  6
Continuous
 62
     7
370
    50
100
AcDbVertex
100
AcDb2dVertex
 10
144.4837540166548
 20
171.0387838403476
 30
0.0
 42
-0.001921742
  0
VERTEX
  5
1993B
330
19931
100
AcDbEntity
  8
11000_Left
  6
Continuous
 62
     7
370
    50
100
AcDbVertex
100
AcDb2dVertex
 10
144.4837540166548
 20
171.0387838403476
 30
0.0
 42
-0.001921372
 70
     1
  0
VERTEX
  5
1993C
330
19931
100
AcDbEntity
  8
11000_Left
  6
Continuous
 62
     7
370
    50
100
AcDbVertex
100
AcDb2dVertex
 10
144.4837540166548
 20
171.0387838403476
 30
0.0
 42
-0.001920125
  0
VERTEX
  5
1993D
330
19931
100
AcDbEntity
  8
11000_Left
  6
Continuous
 62
     7
370
    50
100
AcDbVertex
100
AcDb2dVertex
 10
144.4837540166548
 20
171.0387838403476
 30
0.0
 42
-0.0019168676
 70
     1
  0
VERTEX
  5
1993E
330
19931
100
AcDbEntity
  8
11000_Left
  6
Continuous
 62
     7
370
    50
100
AcDbVertex
100
AcDb2dVertex
 10
144.4837640166549
 20
171.0387838403476
 30
0.0
 42
-0.0019128027
  0
VERTEX
  5
1993F
330
19931
100
AcDbEntity
  8
11000_Left
  6
Continuous
 62
     7
370
    50
100
AcDbVertex
100
AcDb2dVertex
 10
144.4837640166549
 20
171.0387838403476
 30
0.0
 42
-0.0019067531
 70
     1
  0
VERTEX
  5
19940
330
19931
100
AcDbEntity
  8
11000_Left
  6
Continuous
 62
     7
370
    50
100
AcDbVertex
100
AcDb2dVertex
 10
144.4837640166549
 20
171.0387838403476
 30
0.0
 42
-0.0018999024
  0
VERTEX
  5
19941
330
19931
100
AcDbEntity
  8
11000_Left
  6
Continuous
 62
     7
370
    50
100
AcDbVertex
100
AcDb2dVertex
 10
144.4837640166549
 20
171.0387838403476
 30
0.0
 42
-0.0018911408
 70
     1
  0
VERTEX
  5
19942
330
19931
100
AcDbEntity
  8
11000_Left
  6
Continuous
 62
     7
370
    50
100
AcDbVertex
100
AcDb2dVertex
 10
144.4837640166549
 20
171.0387838403476
 30
0.0
 42
-0.0018816357
  0
VERTEX
  5
19943
330
19931
100
AcDbEntity
  8
11000_Left
  6
Continuous
 62
     7
370
    50
100
AcDbVertex
100
AcDb2dVertex
 10
144.4837640166549
 20
171.0387838403476
 30
0.0
 42
-0.0018702334
 70
     1
  0
VERTEX
  5
19944
330
19931
100
AcDbEntity
  8
11000_Left
  6
Continuous
 62
     7
370
    50
100
AcDbVertex
100
AcDb2dVertex
 10
144.4837640166549
 20
171.0387838403476
 30
0.0
 42
-0.0018580719
  0
VERTEX
  5
19945
330
19931
100
AcDbEntity
  8
11000_Left
  6
Continuous
 62
     7
370
    50
100
AcDbVertex
100
AcDb2dVertex
 10
144.4837640166549
 20
171.0387838403476
 30
0.0
 42
-0.0018443386
 70
     1
  0
VERTEX
  5
19946
330
19931
100
AcDbEntity
  8
11000_Left
  6
Continuous
 62
     7
370
    50
100
AcDbVertex
100
AcDb2dVertex
 10
144.4837740166549
 20
171.0387838403476
 30
0.0
 42
-0.0018301098
  0
VERTEX
  5
19947
330
19931
100
AcDbEntity
  8
11000_Left
  6
Continuous
 62
     7
370
    50
100
AcDbVertex
100
AcDb2dVertex
 10
144.4837740166549
 20
171.0387838403476
 30
0.0
 42
-0.0018136087
 70
     1
  0
VERTEX
  5
19948
330
19931
100
AcDbEntity
  8
11000_Left
  6
Continuous
 62
     7
370
    50
100
AcDbVertex
100
AcDb2dVertex
 10
144.4837740166549
 20
171.0387838403476
 30
0.0
 42
-0.001795962
  0
VERTEX
  5
19949
330
19931
100
AcDbEntity
  8
11000_Left
  6
Continuous
 62
     7
370
    50
100
AcDbVertex
100
AcDb2dVertex
 10
144.4837740166549
 20
171.0387838403476
 30
0.0
 42
-0.0017789766
 70
     1
  0
VERTEX
  5
1994A
330
19931
100
AcDbEntity
  8
11000_Left
  6
Continuous
 62
     7
370
    50
100
AcDbVertex
100
AcDb2dVertex
 10
144.4837740166549
 20
171.0387838403476
 30
0.0
 42
-0.0017632677
  0
VERTEX
  5
1994B
330
19931
100
AcDbEntity
  8
11000_Left
  6
Continuous
 62
     7
370
    50
100
AcDbVertex
100
AcDb2dVertex
 10
144.4837740166549
 20
171.0387838403476
 30
0.0
 42
-0.0017387211
 70
     1
  0
VERTEX
  5
1994C
330
19931
100
AcDbEntity
  8
11000_Left
  6
Continuous
 62
     7
370
    50
100
AcDbVertex
100
AcDb2dVertex
 10
144.4837740166549
 20
171.0387838403476
 30
0.0
 42
-0.001707789
  0
VERTEX
  5
1994D
330
19931
100
AcDbEntity
  8
11000_Left
  6
Continuous
 62
     7
370
    50
100
AcDbVertex
100
AcDb2dVertex
 10
144.4837740166549
 20
171.0387838403476
 30
0.0
 42
-0.0017005799
 70
     1
  0
VERTEX
  5
1994E
330
19931
100
AcDbEntity
  8
11000_Left
  6
Continuous
 62
     7
370
    50
100
AcDbVertex
100
AcDb2dVertex
 10
144.4837840166549
 20
171.0387838403476
 30
0.0
 42
-0.001711534
  0
VERTEX
  5
1994F
330
19931
100
AcDbEntity
  8
11000_Left
  6
Continuous
 62
     7
370
    50
100
AcDbVertex
100
AcDb2dVertex
 10
144.4837840166549
 20
171.0387838403476
 30
0.0
 42
-0.001639871
 70
     1
  0
VERTEX
  5
19950
330
19931
100
AcDbEntity
  8
11000_Left
  6
Continuous
 62
     7
370
    50
100
AcDbVertex
100
AcDb2dVertex
 10
144.4837840166549
 20
171.0387838403476
 30
0.0
 42
-0.0015113761
  0
VERTEX
  5
19951
330
19931
100
AcDbEntity
  8
11000_Left
  6
Continuous
 62
     7
370
    50
100
AcDbVertex
100
AcDb2dVertex
 10
144.4837840166549
 20
171.0387838403476
 30
0.0
 42
-0.001641966
 70
     1
  0
VERTEX
  5
19952
330
19931
100
AcDbEntity
  8
11000_Left
  6
Continuous
 62
     7
370
    50
100
AcDbVertex
100
AcDb2dVertex
 10
144.4837840166549
 20
171.0387838403476
 30
0.0
 42
-0.0019196057
  0
VERTEX
  5
19953
330
19931
100
AcDbEntity
  8
11000_Left
  6
Continuous
 62
     7
370
    50
100
AcDbVertex
100
AcDb2dVertex
 10
144.4837840166549
 20
171.0387838403476
 30
0.0
 42
-0.0014342492
 70
     1
  0
VERTEX
  5
19954
330
19931
100
AcDbEntity
  8
11000_Left
  6
Continuous
 62
     7
370
    50
100
AcDbVertex
100
AcDb2dVertex
 10
144.4837840166549
 20
171.0387838403476
 30
0.0
 42
-0.0004972202
  0
VERTEX
  5
19955
330
19931
100
AcDbEntity
  8
11000_Left
  6
Continuous
 62
     7
370
    50
100
AcDbVertex
100
AcDb2dVertex
 10
144.4837940166548
 20
171.0387838403476
 30
0.0
 42
-0.0019749636
 70
     1
  0
VERTEX
  5
19956
330
19931
100
AcDbEntity
  8
11000_Left
  6
Continuous
 62
     7
370
    50
100
AcDbVertex
100
AcDb2dVertex
 10
144.4837940166548
 20
171.0387838403476
 30
0.0
 42
-0.003278378
  0
VERTEX
  5
19957
330
19931
100
AcDbEntity
  8
11000_Left
  6
Continuous
 62
     7
370
    50
100
AcDbVertex
100
AcDb2dVertex
 10
144.4837940166548
 20
171.0387738403476
 30
0.0
 42
-0.0015605207
 70
     1
  0
VERTEX
  5
19958
330
19931
100
AcDbEntity
  8
11000_Left
  6
Continuous
 62
     7
370
    50
100
AcDbVertex
100
AcDb2dVertex
 10
144.4837940166548
 20
171.0387738403476
 30
0.0
 42
-0.0008187339
  0
SEQEND
  5
19959
330
19931
100
AcDbEntity
  8
11000_Left
  6
Continuous
 62
     7
370
    50
  0
LINE
  5
1995A
330
1F
100
AcDbEntity
  8
11000_Left
  6
Continuous
 62
     7
370
    50
100
AcDbLine
 10
142.8950240166549
 20
169.9031038403475
 30
0.0
 11
135.1837340166549
 21
168.8878938403476
 31
0.0
  0
LINE
  5
1995B
330
1F
100
AcDbEntity
  8
11000_Left
  6
Continuous
 62
     7
370
    50
100
AcDbLine
 10
143.2014540166549
 20
169.7484738403475
 30
0.0
 11
143.2963040166548
 21
169.4878938403476
 31
0.0
  0
LINE
  5
1995C
330
1F
100
AcDbEntity
  8
11000_Left
  6
Continuous
 62
     7
370
    50
100
AcDbLine
 10
143.8422540166548
 20
167.9878938403476
 30
0.0
 11
143.2963040166548
 21
169.4878938403476
 31
0.0
  0
LINE
  5
1995D
330
1F
100
AcDbEntity
  8
11000_Left
  6
Continuous
 62
     7
370
    50
100
AcDbLine
 10
144.4837340166548
 20
172.2462938403475
 30
0.0
 11
144.4837340166548
 21
168.1612438403475
 31
0.0
  0
ARC
  5
1995E
330
1F
100
AcDbEntity
  8
11000_Left
  6
Continuous
 62
     7
370
    50
100
AcDbCircle
 10
142.9485050233831
 20
169.6281461606717
 30
0.0
 40
0.2801105918978766
100
AcDbArc
 50
25.4404040864183
 51
101.0069569240375
  0
LINE
  5
1995F
330
1F
100
AcDbEntity
  8
11000_Left
  6
Continuous
 62
     7
370
    13
100
AcDbLine
 10
138.4837340166548
 20
203.0878938403477
 30
0.0
 11
138.3837340166549
 21
203.0878938403477
 31
0.0
  0
LINE
  5
19960
330
1F
100
AcDbEntity
  8
11000_Left
  6
Continuous
 62
     7
370
    50
100
AcDbLine
 10
83.28373401665487
 20
174.3378938403477
 30
0.0
 11
53.3837340166549
 21
174.3378938403477
 31
0.0
  0
LINE
  5
19961
330
1F
100
AcDbEntity
  8
11000_Left
  6
Continuous
 62
     7
370
    13
100
AcDbLine
 10
83.3837340166549
 20
174.3378938403477
 30
0.0
 11
83.28373401665487
 21
174.3378938403477
 31
0.0
  0
LINE
  5
19962
330
1F
100
AcDbEntity
  8
11000_Left
  6
Continuous
 62
     7
370
    50
100
AcDbLine
 10
57.8837340166549
 20
194.9878938403476
 30
0.0
 11
57.0837340166549
 21
194.9878938403476
 31
0.0
  0
LINE
  5
19963
330
1F
100
AcDbEntity
  8
11000_Left
  6
Continuous
 62
     7
370
    50
100
AcDbLine
 10
58.48373401665487
 20
194.9878938403476
 30
0.0
 11
57.8837340166549
 21
194.9878938403476
 31
0.0
  0
LINE
  5
19964
330
1F
100
AcDbEntity
  8
11000_Left
  6
Continuous
 62
     7
370
    50
100
AcDbLine
 10
55.78373401665486
 20
196.4878938403476
 30
0.0
 11
54.8837340166549
 21
196.4878938403476
 31
0.0
  0
LINE
  5
19965
330
1F
100
AcDbEntity
  8
11000_Left
  6
Continuous
 62
     7
370
    50
100
AcDbLine
 10
55.78373401665486
 20
196.4878938403476
 30
0.0
 11
56.62513401665488
 21
196.4878938403476
 31
0.0
  0
LINE
  5
19966
330
1F
100
AcDbEntity
  8
11000_Left
  6
Continuous
 62
     7
370
    50
100
AcDbLine
 10
57.0837340166549
 20
194.9878938403476
 30
0.0
 11
56.62513401665488
 21
196.4878938403476
 31
0.0
  0
LINE
  5
19967
330
1F
100
AcDbEntity
  8
11000_Left
  6
Continuous
 62
     7
370
    13
100
AcDbLine
 10
58.48373401665487
 20
203.0878938403477
 30
0.0
 11
58.48373401665487
 21
203.1878938403476
 31
0.0
  0
LINE
  5
19968
102
{ACAD_REACTORS
330
1A57C
102
}
330
1F
100
AcDbEntity
  8
11000_Left
  6
Continuous
 62
     7
370
    50
100
AcDbLine
 10
58.48373401665487
 20
203.0878938403477
 30
0.0
 11
58.48373401665487
 21
190.8378938403478
 31
0.0
  0
ARC
  5
19969
102
{ACAD_REACTORS
330
1A57C
102
}
330
1F
100
AcDbEntity
  8
11000_Left
  6
Continuous
 62
     7
370
    13
100
AcDbCircle
 10
57.98373401665486
 20
190.8378938403478
 30
0.0
 40
0.5
100
AcDbArc
 50
270.0
 51
0.0
  0
LINE
  5
1996A
330
1F
100
AcDbEntity
  8
11000_Left
  6
Continuous
 62
     7
370
    13
100
AcDbLine
 10
57.98373401665486
 20
190.3378938403476
 30
0.0
 11
57.68373401665485
 21
190.3378938403476
 31
0.0
  0
LINE
  5
1996B
330
1F
100
AcDbEntity
  8
11000_Left
  6
Continuous
 62
     7
370
    13
100
AcDbLine
 10
56.18373401665485
 20
193.7378938403476
 30
0.0
 11
55.49091401665486
 21
194.9378938403476
 31
0.0
  0
LINE
  5
1996C
330
1F
100
AcDbEntity
  8
11000_Left
  6
Continuous
 62
     7
370
    13
100
AcDbLine
 10
56.18373401665485
 20
191.8378938403477
 30
0.0
 11
56.18373401665485
 21
193.7378938403476
 31
0.0
  0
ARC
  5
1996D
330
1F
100
AcDbEntity
  8
11000_Left
  6
Continuous
 62
     7
370
    13
100
AcDbCircle
 10
57.68373401665485
 20
191.8378938403477
 30
0.0
 40
1.5
100
AcDbArc
 50
180.0
 51
270.0
  0
LINE
  5
1996E
330
1F
100
AcDbEntity
  8
11000_Left
  6
Continuous
 62
     7
370
    13
100
AcDbLine
 10
54.8837340166549
 20
194.9378938403476
 30
0.0
 11
53.3837340166549
 21
193.7378938403476
 31
0.0
  0
LINE
  5
1996F
330
1F
100
AcDbEntity
  8
11000_Left
  6
Continuous
 62
     7
370
    13
100
AcDbLine
 10
55.49091401665486
 20
194.9378938403476
 30
0.0
 11
54.8837340166549
 21
194.9378938403476
 31
0.0
  0
LINE
  5
19970
330
1F
100
AcDbEntity
  8
11000_Left
  6
Continuous
 62
     7
370
    50
100
AcDbLine
 10
54.8837340166549
 20
196.4878938403476
 30
0.0
 11
53.3837340166549
 21
195.2878938403476
 31
0.0
  0
LINE
  5
19971
330
1F
100
AcDbEntity
  8
11000_Left
  6
Continuous
 62
     7
370
    50
100
AcDbLine
 10
53.3837340166549
 20
194.2735338403477
 30
0.0
 11
53.3837340166549
 21
195.2878938403476
 31
0.0
  0
LINE
  5
19972
330
1F
100
AcDbEntity
  8
11000_Left
  6
Continuous
 62
     7
370
    13
100
AcDbLine
 10
53.3837340166549
 20
193.7378938403476
 30
0.0
 11
53.3837340166549
 21
194.2735338403477
 31
0.0
  0
LINE
  5
19973
330
1F
100
AcDbEntity
  8
11000_Left
  6
Continuous
 62
     7
370
    50
100
AcDbLine
 10
53.3837340166549
 20
193.7378938403476
 30
0.0
 11
53.3837340166549
 21
175.3378938403477
 31
0.0
  0
LINE
  5
19974
330
1F
100
AcDbEntity
  8
11000_Left
  6
Continuous
 62
     7
370
    50
100
AcDbLine
 10
53.3837340166549
 20
174.3378938403477
 30
0.0
 11
53.3837340166549
 21
175.3378938403477
 31
0.0
  0
LINE
  5
19975
330
1F
100
AcDbEntity
  8
11000_Left
  6
Continuous
 62
     7
370
    13
100
AcDbLine
 10
138.3837340166549
 20
203.0878938403477
 30
0.0
 11
58.48373401665487
 21
203.0878938403477
 31
0.0
  0
LINE
  5
19976
330
1F
100
AcDbEntity
  8
11000_Left
  6
Continuous
 62
     7
370
    13
100
AcDbLine
 10
57.73373401665486
 20
187.6878938403477
 30
0.0
 11
59.23373401665486
 21
187.6878938403477
 31
0.0
  0
LINE
  5
19977
330
1F
100
AcDbEntity
  8
11000_Left
  6
Continuous
 62
     7
370
    13
100
AcDbLine
 10
59.23373401665486
 20
183.1878938403477
 30
0.0
 11
57.73373401665486
 21
183.1878938403477
 31
0.0
  0
LINE
  5
19978
330
1F
100
AcDbEntity
  8
11000_Left
  6
Continuous
 62
     7
370
    13
100
AcDbLine
 10
59.23373401665486
 20
187.6878938403477
 30
0.0
 11
59.23373401665486
 21
183.1878938403477
 31
0.0
  0
LINE
  5
19979
330
1F
100
AcDbEntity
  8
11000_Left
  6
Continuous
 62
     7
370
    13
100
AcDbLine
 10
57.73373401665486
 20
183.1878938403477
 30
0.0
 11
57.73373401665486
 21
187.6878938403477
 31
0.0
  0
LINE
  5
1997A
330
1F
100
AcDbEntity
  8
11000_Left
  6
Continuous
 62
     7
370
    13
100
AcDbLine
 10
83.28373401665487
 20
247.8378938403478
 30
0.0
 11
83.3837340166549
 21
247.8378938403478
 31
0.0
  0
LINE
  5
1997B
330
1F
100
AcDbEntity
  8
11000_Left
  6
Continuous
 62
     7
370
    50
100
AcDbLine
 10
53.3837340166549
 20
247.8378938403478
 30
0.0
 11
103.3837340166549
 21
247.8378938403479
 31
0.0
  0
LINE
  5
1997C
330
1F
100
AcDbEntity
  8
11000_Left
  6
Continuous
 62
     7
370
    50
100
AcDbLine
 10
57.8837340166549
 20
227.1878938403477
 30
0.0
 11
58.48373401665487
 21
227.1878938403477
 31
0.0
  0
LINE
  5
1997D
330
1F
100
AcDbEntity
  8
11000_Left
  6
Continuous
 62
     7
370
    50
100
AcDbLine
 10
57.0837340166549
 20
227.1878938403477
 30
0.0
 11
57.8837340166549
 21
227.1878938403477
 31
0.0
  0
LINE
  5
1997E
330
1F
100
AcDbEntity
  8
11000_Left
  6
Continuous
 62
     7
370
    13
100
AcDbLine
 10
58.48373401665487
 20
231.3378938403478
 30
0.0
 11
58.48373401665487
 21
227.1878938403476
 31
0.0
  0
ARC
  5
1997F
330
1F
100
AcDbEntity
  8
11000_Left
  6
Continuous
 62
     7
370
    13
100
AcDbCircle
 10
57.98373401665486
 20
231.3378938403478
 30
0.0
 40
0.5
100
AcDbArc
 50
0.0
 51
90.0
  0
LINE
  5
19980
330
1F
100
AcDbEntity
  8
11000_Left
  6
Continuous
 62
     7
370
    13
100
AcDbLine
 10
57.68373401665485
 20
231.8378938403478
 30
0.0
 11
57.98373401665486
 21
231.8378938403478
 31
0.0
  0
LINE
  5
19981
330
1F
100
AcDbEntity
  8
11000_Left
  6
Continuous
 62
     7
370
    13
100
AcDbLine
 10
54.8837340166549
 20
227.2378938403476
 30
0.0
 11
55.49091401665486
 21
227.2378938403476
 31
0.0
  0
LINE
  5
19982
330
1F
100
AcDbEntity
  8
11000_Left
  6
Continuous
 62
     7
370
    13
100
AcDbLine
 10
53.3837340166549
 20
228.4378938403477
 30
0.0
 11
54.8837340166549
 21
227.2378938403476
 31
0.0
  0
ARC
  5
19983
330
1F
100
AcDbEntity
  8
11000_Left
  6
Continuous
 62
     7
370
    13
100
AcDbCircle
 10
57.68373401665485
 20
230.3378938403477
 30
0.0
 40
1.5
100
AcDbArc
 50
90.0
 51
180.0
  0
LINE
  5
19984
330
1F
100
AcDbEntity
  8
11000_Left
  6
Continuous
 62
     7
370
    13
100
AcDbLine
 10
56.18373401665485
 20
228.4378938403477
 30
0.0
 11
56.18373401665485
 21
230.3378938403477
 31
0.0
  0
LINE
  5
19985
330
1F
100
AcDbEntity
  8
11000_Left
  6
Continuous
 62
     7
370
    13
100
AcDbLine
 10
55.49091401665486
 20
227.2378938403476
 30
0.0
 11
56.18373401665485
 21
228.4378938403477
 31
0.0
  0
LINE
  5
19986
330
1F
100
AcDbEntity
  8
11000_Left
  6
Continuous
 62
     7
370
    50
100
AcDbLine
 10
53.3837340166549
 20
226.8878938403477
 30
0.0
 11
54.8837340166549
 21
225.6878938403477
 31
0.0
  0
LINE
  5
19987
330
1F
100
AcDbEntity
  8
11000_Left
  6
Continuous
 62
     7
370
    50
100
AcDbLine
 10
53.3837340166549
 20
247.8378938403478
 30
0.0
 11
53.3837340166549
 21
228.4378938403477
 31
0.0
  0
LINE
  5
19988
330
1F
100
AcDbEntity
  8
11000_Left
  6
Continuous
 62
     7
370
    50
100
AcDbLine
 10
53.3837340166549
 20
227.9022538403476
 30
0.0
 11
53.3837340166549
 21
228.4378938403477
 31
0.0
  0
LINE
  5
19989
330
1F
100
AcDbEntity
  8
11000_Left
  6
Continuous
 62
     7
370
    50
100
AcDbLine
 10
53.3837340166549
 20
226.8878938403477
 30
0.0
 11
53.3837340166549
 21
227.9022538403476
 31
0.0
  0
LINE
  5
1998A
330
1F
100
AcDbEntity
  8
11000_Left
  6
Continuous
 62
     7
370
    13
100
AcDbLine
 10
101.9837340166548
 20
211.6878938403476
 30
0.0
 11
101.9837340166548
 21
207.4878938403476
 31
0.0
  0
LINE
  5
1998B
330
1F
100
AcDbEntity
  8
11000_Left
  6
Continuous
 62
     7
370
    13
100
AcDbLine
 10
94.98373401665487
 20
207.4878938403476
 30
0.0
 11
94.98373401665487
 21
211.6878938403476
 31
0.0
  0
LINE
  5
1998C
330
1F
100
AcDbEntity
  8
11000_Left
  6
Continuous
 62
     7
370
    13
100
AcDbLine
 10
94.98373401665487
 20
211.6878938403476
 30
0.0
 11
101.9837340166548
 21
211.6878938403476
 31
0.0
  0
LINE
  5
1998D
330
1F
100
AcDbEntity
  8
11000_Left
  6
Continuous
 62
     7
370
    13
100
AcDbLine
 10
101.9837340166548
 20
207.4878938403476
 30
0.0
 11
94.98373401665487
 21
207.4878938403476
 31
0.0
  0
LINE
  5
1998E
330
1F
100
AcDbEntity
  8
11000_Left
  6
Continuous
 62
     7
370
    50
100
AcDbLine
 10
54.8837340166549
 20
225.6878938403477
 30
0.0
 11
55.78373401665486
 21
225.6878938403477
 31
0.0
  0
LINE
  5
1998F
330
1F
100
AcDbEntity
  8
11000_Left
  6
Continuous
 62
     7
370
    50
100
AcDbLine
 10
56.62513401665488
 20
225.6878938403477
 30
0.0
 11
55.78373401665486
 21
225.6878938403477
 31
0.0
  0
LINE
  5
19990
330
1F
100
AcDbEntity
  8
11000_Left
  6
Continuous
 62
     7
370
    50
100
AcDbLine
 10
56.62513401665488
 20
225.6878938403477
 30
0.0
 11
57.0837340166549
 21
227.1878938403477
 31
0.0
  0
LINE
  5
19991
330
1F
100
AcDbEntity
  8
11000_Left
  6
Continuous
 62
     7
370
    13
100
AcDbLine
 10
59.23373401665486
 20
234.4878938403476
 30
0.0
 11
57.73373401665486
 21
234.4878938403476
 31
0.0
  0
LINE
  5
19992
330
1F
100
AcDbEntity
  8
11000_Left
  6
Continuous
 62
     7
370
    13
100
AcDbLine
 10
57.73373401665486
 20
238.9878938403476
 30
0.0
 11
59.23373401665486
 21
238.9878938403476
 31
0.0
  0
LINE
  5
19993
330
1F
100
AcDbEntity
  8
11000_Left
  6
Continuous
 62
     7
370
    13
100
AcDbLine
 10
59.23373401665486
 20
238.9878938403476
 30
0.0
 11
59.23373401665486
 21
234.4878938403476
 31
0.0
  0
LINE
  5
19994
330
1F
100
AcDbEntity
  8
11000_Left
  6
Continuous
 62
     7
370
    13
100
AcDbLine
 10
57.73373401665486
 20
234.4878938403476
 30
0.0
 11
57.73373401665486
 21
238.9878938403476
 31
0.0
  0
LINE
  5
19996
330
1F
100
AcDbEntity
  8
11000_Left
  6
Continuous
 62
     7
370
    13
100
AcDbLine
 10
103.3837340166549
 20
247.8878938403477
 30
0.0
 11
103.3837340166549
 21
247.8378938403479
 31
0.0
  0
LINE
  5
1999B
330
1F
100
AcDbEntity
  8
11000_Left
  6
Continuous
 62
     7
370
    50
100
AcDbLine
 10
115.6837340166548
 20
247.8878938403477
 30
0.0
 11
103.3837340166549
 21
247.8878938403477
 31
0.0
  0
LINE
  5
1999D
330
1F
100
AcDbEntity
  8
11000_Left
  6
Continuous
 62
     7
370
    13
100
AcDbLine
 10
132.1837340166548
 20
234.3878938403477
 30
0.0
 11
112.1837340166548
 21
234.3878938403477
 31
0.0
  0
LINE
  5
1999E
330
1F
100
AcDbEntity
  8
11000_Left
  6
Continuous
 62
     7
370
    13
100
AcDbLine
 10
132.1837340166548
 20
238.3878938403476
 30
0.0
 11
132.1837340166548
 21
234.3878938403477
 31
0.0
  0
LINE
  5
1999F
330
1F
100
AcDbEntity
  8
11000_Left
  6
Continuous
 62
     7
370
    13
100
AcDbLine
 10
113.1837340166548
 20
247.8878938403477
 30
0.0
 11
112.1837340166548
 21
246.8878938403477
 31
0.0
  0
LINE
  5
199A0
330
1F
100
AcDbEntity
  8
11000_Left
  6
Continuous
 62
     7
370
    13
100
AcDbLine
 10
112.1837340166548
 20
234.3878938403477
 30
0.0
 11
112.1837340166548
 21
246.8878938403477
 31
0.0
  0
LINE
  5
199A1
330
1F
100
AcDbEntity
  8
11000_Left
  6
Continuous
 62
     7
370
    50
100
AcDbLine
 10
144.4837340166548
 20
252.1878938403477
 30
0.0
 11
144.4837340166548
 21
238.3878938403476
 31
0.0
  0
LINE
  5
199A2
330
1F
100
AcDbEntity
  8
11000_Left
  6
Continuous
 62
     7
370
    13
100
AcDbLine
 10
143.6837340166548
 20
238.3878938403476
 30
0.0
 11
132.1837340166548
 21
238.3878938403476
 31
0.0
  0
LINE
  5
199A3
330
1F
100
AcDbEntity
  8
11000_Left
  6
Continuous
 62
     7
370
    13
100
AcDbLine
 10
144.4837340166548
 20
238.3878938403476
 30
0.0
 11
143.6837340166548
 21
238.3878938403476
 31
0.0
  0
LINE
  5
199A4
330
1F
100
AcDbEntity
  8
11000_Left
  6
Continuous
 62
     7
370
    50
100
AcDbLine
 10
115.6837340166549
 20
251.4678315258782
 30
0.0
 11
115.6837340166548
 21
247.8878938403477
 31
0.0
  0
LINE
  5
199A5
330
1F
100
AcDbEntity
  8
11000_Left
  6
Continuous
 62
     7
370
    13
100
AcDbLine
 10
103.3837340166549
 20
178.2878938403475
 30
0.0
 11
83.3837340166549
 21
178.2878938403475
 31
0.0
  0
LINE
  5
199A6
330
1F
100
AcDbEntity
  8
11000_Left
  6
Continuous
 62
     7
370
    13
100
AcDbLine
 10
103.3837340166549
 20
174.2878938403475
 30
0.0
 11
103.3837340166549
 21
178.2878938403475
 31
0.0
  0
LINE
  5
199A7
330
1F
100
AcDbEntity
  8
11000_Left
  6
Continuous
 62
     7
370
    50
100
AcDbLine
 10
84.3837340166549
 20
164.7878938403476
 30
0.0
 11
86.88373401665492
 21
164.7878938403476
 31
0.0
  0
LINE
  5
199A8
330
1F
100
AcDbEntity
  8
11000_Left
  6
Continuous
 62
     7
370
    50
100
AcDbLine
 10
83.3837340166549
 20
165.7878938403475
 30
0.0
 11
84.3837340166549
 21
164.7878938403476
 31
0.0
  0
LINE
  5
199A9
330
1F
100
AcDbEntity
  8
11000_Left
  6
Continuous
 62
     7
370
    13
100
AcDbLine
 10
83.3837340166549
 20
178.2878938403475
 30
0.0
 11
83.3837340166549
 21
174.3378938403477
 31
0.0
  0
LINE
  5
199AA
330
1F
100
AcDbEntity
  8
11000_Left
  6
Continuous
 62
     7
370
    50
100
AcDbLine
 10
115.6837340166549
 20
170.7079561548171
 30
0.0
 11
115.6837340166548
 21
158.4878938403477
 31
0.0
  0
LINE
  5
199AB
330
1F
100
AcDbEntity
  8
11000_Left
  6
Continuous
 62
     7
370
    13
100
AcDbLine
 10
114.8837340166549
 20
174.2878938403475
 30
0.0
 11
103.3837340166549
 21
174.2878938403475
 31
0.0
  0
LINE
  5
199AC
330
1F
100
AcDbEntity
  8
11000_Left
  6
Continuous
 62
     7
370
    50
100
AcDbLine
 10
86.88373401665492
 20
164.7878938403476
 30
0.0
 11
86.88373401665492
 21
161.2079561548171
 31
0.0
  0
LINE
  5
199AD
330
1F
100
AcDbEntity
  8
11000_Left
  6
Continuous
 62
     7
370
    13
100
AcDbLine
 10
132.1837340166548
 20
187.7878938403475
 30
0.0
 11
112.1837340166548
 21
187.7878938403475
 31
0.0
  0
LINE
  5
199AE
330
1F
100
AcDbEntity
  8
11000_Left
  6
Continuous
 62
     7
370
    13
100
AcDbLine
 10
132.1837340166548
 20
183.7878938403475
 30
0.0
 11
132.1837340166548
 21
187.7878938403475
 31
0.0
  0
LINE
  5
199AF
330
1F
100
AcDbEntity
  8
11000_Left
  6
Continuous
 62
     7
370
    13
100
AcDbLine
 10
114.8837340166549
 20
174.2878938403475
 30
0.0
 11
115.6837340166548
 21
174.2878938403475
 31
0.0
  0
LINE
  5
199B0
330
1F
100
AcDbEntity
  8
11000_Left
  6
Continuous
 62
     7
370
    13
100
AcDbLine
 10
112.1837340166548
 20
175.2878938403475
 30
0.0
 11
113.1837340166548
 21
174.2878938403475
 31
0.0
  0
LINE
  5
199B1
330
1F
100
AcDbEntity
  8
11000_Left
  6
Continuous
 62
     7
370
    13
100
AcDbLine
 10
112.1837340166548
 20
187.7878938403475
 30
0.0
 11
112.1837340166548
 21
175.2878938403475
 31
0.0
  0
LINE
  5
199B2
330
1F
100
AcDbEntity
  8
11000_Left
  6
Continuous
 62
     7
370
    50
100
AcDbLine
 10
144.4837340166548
 20
169.9878938403476
 30
0.0
 11
144.4837340166548
 21
169.9878938403476
 31
0.0
  0
LINE
  5
199B3
330
1F
100
AcDbEntity
  8
11000_Left
  6
Continuous
 62
     7
370
    50
100
AcDbLine
 10
144.4837340166548
 20
183.7878938403475
 30
0.0
 11
144.4837340166548
 21
169.9878938403476
 31
0.0
  0
LINE
  5
199B4
330
1F
100
AcDbEntity
  8
11000_Left
  6
Continuous
 62
     7
370
    13
100
AcDbLine
 10
143.6837340166548
 20
183.7878938403475
 30
0.0
 11
144.4837340166548
 21
183.7878938403475
 31
0.0
  0
LINE
  5
199B5
330
1F
100
AcDbEntity
  8
11000_Left
  6
Continuous
 62
     7
370
    13
100
AcDbLine
 10
143.6837340166548
 20
183.7878938403475
 30
0.0
 11
132.1837340166548
 21
183.7878938403475
 31
0.0
  0
LINE
  5
199B6
330
1F
100
AcDbEntity
  8
11000_Left
  6
Continuous
 62
     7
370
    13
100
AcDbLine
 10
115.6837340166548
 20
174.2878938403475
 30
0.0
 11
115.6837340166549
 21
170.7079561548171
 31
0.0
  0
LINE
  5
199B7
330
1F
100
AcDbEntity
  8
11000_Left
  6
Continuous
 62
     7
370
    13
100
AcDbLine
 10
142.3837140166549
 20
226.5878938403478
 30
0.0
 11
142.3837140166549
 21
222.5878938403478
 31
0.0
  0
LINE
  5
199B8
330
1F
100
AcDbEntity
  8
11000_Left
  6
Continuous
 62
     7
370
    13
100
AcDbLine
 10
140.5837140166549
 20
226.5878938403478
 30
0.0
 11
142.3837140166549
 21
226.5878938403478
 31
0.0
  0
LINE
  5
199B9
330
1F
100
AcDbEntity
  8
11000_Left
  6
Continuous
 62
     7
370
    13
100
AcDbLine
 10
140.5837140166549
 20
222.5878938403478
 30
0.0
 11
140.5837140166549
 21
226.5878938403478
 31
0.0
  0
LINE
  5
199BA
330
1F
100
AcDbEntity
  8
11000_Left
  6
Continuous
 62
     7
370
    13
100
AcDbLine
 10
142.3837140166549
 20
222.5878938403478
 30
0.0
 11
140.5837140166549
 21
222.5878938403478
 31
0.0
  0
LINE
  5
199BB
330
1F
100
AcDbEntity
  8
11000_Left
  6
Continuous
 62
     7
370
    13
100
AcDbLine
 10
142.3837140166549
 20
199.5878938403476
 30
0.0
 11
142.3837140166549
 21
195.5878938403476
 31
0.0
  0
LINE
  5
199BC
330
1F
100
AcDbEntity
  8
11000_Left
  6
Continuous
 62
     7
370
    13
100
AcDbLine
 10
140.5837140166549
 20
199.5878938403476
 30
0.0
 11
142.3837140166549
 21
199.5878938403476
 31
0.0
  0
LINE
  5
199BD
330
1F
100
AcDbEntity
  8
11000_Left
  6
Continuous
 62
     7
370
    13
100
AcDbLine
 10
140.5837140166549
 20
195.5878938403476
 30
0.0
 11
140.5837140166549
 21
199.5878938403476
 31
0.0
  0
LINE
  5
199BE
330
1F
100
AcDbEntity
  8
11000_Left
  6
Continuous
 62
     7
370
    13
100
AcDbLine
 10
142.3837140166549
 20
195.5878938403476
 30
0.0
 11
140.5837140166549
 21
195.5878938403476
 31
0.0
  0
LINE
  5
199BF
330
1F
100
AcDbEntity
  8
11000_Left
  6
Continuous
 62
     7
370
    50
100
AcDbLine
 10
144.4837340166548
 20
238.3878938403476
 30
0.0
 11
144.4837340166548
 21
189.1378938403476
 31
0.0
  0
LINE
  5
199C0
330
1F
100
AcDbEntity
  8
11000_Left
  6
Continuous
 62
     7
370
    50
100
AcDbLine
 10
144.4837340166548
 20
189.1378938403476
 30
0.0
 11
144.4837340166548
 21
183.7878938403475
 31
0.0
  0
ARC
  5
199C1
330
1F
100
AcDbEntity
  8
11000_Left
  6
Continuous
 62
     7
370
    13
100
AcDbCircle
 10
144.4812340166548
 20
185.0378938403476
 30
0.0
 40
2.1
100
AcDbArc
 50
112.3256900000007
 51
180.0
  0
ARC
  5
199C2
330
1F
100
AcDbEntity
  8
11000_Left
  6
Continuous
 62
     7
370
    13
100
AcDbCircle
 10
144.4812340166548
 20
185.0378938403476
 30
0.0
 40
2.1
100
AcDbArc
 50
90.0
 51
112.3256900000007
  0
LINE
  5
199C3
330
1F
100
AcDbEntity
  8
11000_Left
  6
Continuous
 62
     7
370
    13
100
AcDbLine
 10
142.3812340166549
 20
185.0378938403476
 30
0.0
 11
139.1812340166548
 21
185.0378938403476
 31
0.0
  0
LINE
  5
199C4
330
1F
100
AcDbEntity
  8
11000_Left
  6
Continuous
 62
     7
370
    13
100
AcDbLine
 10
139.1837340166548
 20
233.6378538403476
 30
0.0
 11
138.9837340166548
 21
233.6378638403478
 31
0.0
  0
LINE
  5
199C5
330
1F
100
AcDbEntity
  8
11000_Left
  6
Continuous
 62
     7
370
    13
100
AcDbLine
 10
143.6837340166548
 20
189.1378938403476
 30
0.0
 11
144.4837340166548
 21
189.1378938403476
 31
0.0
  0
LINE
  5
199C6
330
1F
100
AcDbEntity
  8
11000_Left
  6
Continuous
 62
     7
370
    13
100
AcDbLine
 10
138.4812340166548
 20
189.1378938403476
 30
0.0
 11
143.6837340166548
 21
189.1378938403476
 31
0.0
  0
LINE
  5
199C7
330
1F
100
AcDbEntity
  8
11000_Left
  6
Continuous
 62
     7
370
    13
100
AcDbLine
 10
138.4837340166548
 20
233.3878938403477
 30
0.0
 11
138.4837340166548
 21
189.1378938403476
 31
0.0
  0
LINE
  5
199C8
330
1F
100
AcDbEntity
  8
11000_Left
  6
Continuous
 62
     7
370
    13
100
AcDbLine
 10
139.1810040166548
 20
185.0378938403476
 30
0.0
 11
139.1809740166549
 21
184.3378938403477
 31
0.0
  0
LINE
  5
199C9
330
1F
100
AcDbEntity
  8
11000_Left
  6
Continuous
 62
     7
370
    13
100
AcDbLine
 10
139.1812340166548
 20
185.0378938403476
 30
0.0
 11
139.1812340166548
 21
189.1378938403476
 31
0.0
  0
LINE
  5
199CA
330
1F
100
AcDbEntity
  8
11000_Left
  6
Continuous
 62
     7
370
    13
100
AcDbLine
 10
139.1837740166548
 20
237.3378938403478
 30
0.0
 11
139.1837340166548
 21
237.3378938403478
 31
0.0
  0
LINE
  5
199CB
330
1F
100
AcDbEntity
  8
11000_Left
  6
Continuous
 62
     7
370
    13
100
AcDbLine
 10
139.1839640166549
 20
237.8378938403478
 30
0.0
 11
139.1837340166548
 21
233.6378538403476
 31
0.0
  0
LINE
  5
199CC
330
1F
100
AcDbEntity
  8
11000_Left
  6
Continuous
 62
     7
370
    13
100
AcDbLine
 10
138.9837340166548
 20
233.6378638403478
 30
0.0
 11
138.4837340166548
 21
233.3878938403477
 31
0.0
  0
LINE
  5
199CD
330
1F
100
AcDbEntity
  8
11000_Left
  6
Continuous
 62
     7
370
    13
100
AcDbLine
 10
139.1809740166549
 20
184.3378938403477
 30
0.0
 11
140.2809410166552
 21
183.7878938403475
 31
0.0
  0
LINE
  5
199CE
330
1F
100
AcDbEntity
  8
11000_Left
  6
Continuous
 62
     7
370
    13
100
AcDbLine
 10
140.2837950166547
 20
238.3878938403476
 30
0.0
 11
139.1837840166549
 21
237.8378938403478
 31
0.0
  0
DIMENSION
  5
199D0
330
1F
100
AcDbEntity
  8
11100_LEFT_DIM
  6
Continuous
 62
     7
370
    13
100
AcDbDimension
  2
*D3
 10
152.358494016655
 20
167.9878938403476
 30
0.0
 11
152.0275159956602
 21
211.0878938403478
 31
0.0
 70
   160
 71
     5
 42
86.20000000000002
  3
H035
100
AcDbAlignedDimension
 13
144.4837340166548
 23
254.1878938403477
 33
0.0
 14
144.4837340166548
 24
167.9878938403476
 34
0.0
 50
90.0
100
AcDbRotatedDimension
1001
ACAD
1000
DSTYLE
1002
{
1070
    40
1040
1.0
1070
    77
1070
     0
1070
   147
1040
1.5
1070
   272
1070
     0
1070
   279
1070
     1
1070
   288
1070
     1
1002
}
  0
DIMENSION
  5
199D1
330
1F
100
AcDbEntity
  8
11100_LEFT_DIM
  6
Continuous
 62
     7
370
    13
100
AcDbDimension
  2
*D4
 10
144.4837340166548
 20
142.6702183568572
 30
0.0
 11
101.4837340166548
 21
142.6702183568572
 31
0.0
 70
   160
 71
     5
 42
85.99999999999994
  3
H035
100
AcDbAlignedDimension
 13
58.48373401665487
 23
153.1878444855089
 33
0.0
 14
144.4837340166548
 24
167.9878938403476
 34
0.0
100
AcDbRotatedDimension
1001
ACAD
1000
DSTYLE
1002
{
1070
    40
1040
1.0
1070
    77
1070
     0
1070
   147
1040
1.5
1070
   272
1070
     0
1070
   279
1070
     1
1070
   288
1070
     1
1002
}
  0
DIMENSION
  5
199D2
330
1F
100
AcDbEntity
  8
11100_LEFT_DIM
  6
Continuous
 62
     7
370
    13
100
AcDbDimension
  2
*D5
 10
41.18428401665504
 20
174.3378938403477
 30
0.0
 11
41.18428401665489
 21
211.0878938403478
 31
0.0
 70
   160
 71
     5
 42
73.5
  3
H035
100
AcDbAlignedDimension
 13
53.3837340166549
 23
247.8378938403478
 33
0.0
 14
53.3837340166549
 24
174.3378938403477
 34
0.0
 50
90.0
100
AcDbRotatedDimension
1001
ACAD
1000
DSTYLE
1002
{
1070
    40
1040
1.0
1070
    77
1070
     0
1070
   147
1040
1.5
1070
   272
1070
     0
1070
   279
1070
     1
1070
   288
1070
     1
1002
}
  0
ARC
  5
199D3
330
1F
100
AcDbEntity
  8
11000_Left
  6
DASHED
 62
     7
 48
10.0
370
     9
100
AcDbCircle
 39
0.25
 10
56.98373401665429
 20
194.3878938403465
 30
0.0
 40
0.5000000000006822
100
AcDbArc
 50
0.0000000000781653
 51
89.99999999996092
  0
LINE
  5
199D4
330
1F
100
AcDbEntity
  8
11000_Left
  6
DASHED
 62
     7
 48
10.0
370
     9
100
AcDbLine
 39
0.25
 10
53.48373401665509
 20
200.0378938403474
 30
-0.25
 11
53.48373401665509
 21
219.0378938403471
 31
-0.25
1001
AUSTER_ANSICHT
1002
{
1000
Det03
1002
}
1001
AUSTER_FOLIE
1002
{
1000
NSB00753_S0
1002
}
  0
LINE
  5
199D5
330
1F
100
AcDbEntity
  8
11000_Left
  6
DASHED
 62
     7
 48
10.0
370
     9
100
AcDbLine
 39
0.25
 10
50.98373401665487
 20
198.0378938403471
 30
0.4999999999999984
 11
50.98373401665487
 21
221.0378938403473
 31
0.4999999999999984
1001
AUSTER_ANSICHT
1002
{
1000
Det03
1002
}
1001
AUSTER_FOLIE
1002
{
1000
NSB00753_S0
1002
}
  0
ARC
  5
199D6
330
1F
100
AcDbEntity
  8
11000_Left
  6
DASHED
 62
     7
 48
10.0
370
     9
100
AcDbCircle
 39
0.25
 10
54.5837340166549
 20
195.1378938403475
 30
-0.25
 40
1.9
100
AcDbArc
 50
0.0000000107542442
 51
90.0
1001
AUSTER_ANSICHT
1002
{
1000
Det03
1002
}
1001
AUSTER_FOLIE
1002
{
1000
NSB00753_S0
1002
}
  0
ARC
  5
199D7
330
1F
100
AcDbEntity
  8
11000_Left
  6
DASHED
 62
     7
 48
10.0
370
    30
100
AcDbCircle
 39
0.25
 10
51.98373401665475
 20
198.0378938403471
 30
0.7499999999999984
 40
1.0
100
AcDbArc
 50
180.0
 51
270.0
1001
AUSTER_ANSICHT
1002
{
1000
Det03
1002
}
1001
AUSTER_FOLIE
1002
{
1000
NSB00753_S0
1002
}
  0
LINE
  5
199D8
330
1F
100
AcDbEntity
  8
11000_Left
  6
DASHED
 62
     7
 48
10.0
370
     9
100
AcDbLine
 39
0.25
 10
58.48373401665487
 20
197.0378938403473
 30
-0.25
 11
56.48373401665486
 21
199.0378938403473
 31
-0.25
1001
AUSTER_ANSICHT
1002
{
1000
Det03
1002
}
1001
AUSTER_FOLIE
1002
{
1000
NSB00753_S0
1002
}
  0
LINE
  5
199D9
330
1F
100
AcDbEntity
  8
11000_Left
  6
DASHED
 62
     7
 48
10.0
370
     9
100
AcDbLine
 39
0.25
 10
54.5837340166549
 20
197.0378938403473
 30
0.7499999999999984
 11
51.98373401665475
 21
197.0378938403473
 31
0.7499999999999984
1001
AUSTER_ANSICHT
1002
{
1000
Det03
1002
}
1001
AUSTER_FOLIE
1002
{
1000
NSB00753_S0
1002
}
  0
ARC
  5
199DA
330
1F
100
AcDbEntity
  8
11000_Left
  6
DASHED
 62
     7
 48
10.0
370
     9
100
AcDbCircle
 39
0.25
 10
54.48373401665475
 20
200.0378938403474
 30
-0.25
 40
1.0
100
AcDbArc
 50
180.0
 51
270.0
1001
AUSTER_ANSICHT
1002
{
1000
Det03
1002
}
1001
AUSTER_FOLIE
1002
{
1000
NSB00753_S0
1002
}
  0
LINE
  5
199DB
330
1F
100
AcDbEntity
  8
11000_Left
  6
DASHED
 62
     7
 48
10.0
370
     9
100
AcDbLine
 39
0.25
 10
54.48373401665475
 20
199.0378938403473
 30
-0.25
 11
56.48373401665486
 21
199.0378938403473
 31
-0.25
1001
AUSTER_ANSICHT
1002
{
1000
Det03
1002
}
1001
AUSTER_FOLIE
1002
{
1000
NSB00753_S0
1002
}
  0
LINE
  5
199DC
330
1F
100
AcDbEntity
  8
11000_Left
  6
DASHED
 62
     7
 48
10.0
370
     9
100
AcDbLine
 39
0.25
 10
56.98373401665475
 20
194.8878938403471
 30
-0.25
 11
56.48373401665486
 21
194.8878938403471
 31
-0.25
1001
AUSTER_ANSICHT
1002
{
1000
Det03
1002
}
1001
AUSTER_FOLIE
1002
{
1000
NSB00753_S0
1002
}
  0
LINE
  5
199DD
330
1F
100
AcDbEntity
  8
11000_Left
  6
DASHED
 62
     7
 48
10.0
370
     9
100
AcDbLine
 39
0.25
 10
56.48373401665486
 20
195.1378938403475
 30
-0.25
 11
56.48373401665486
 21
194.8878938403471
 31
-0.25
1001
AUSTER_ANSICHT
1002
{
1000
Det03
1002
}
1001
AUSTER_FOLIE
1002
{
1000
NSB00753_S0
1002
}
  0
LINE
  5
199DE
330
1F
100
AcDbEntity
  8
11000_Left
  6
DASHED
 62
     7
 48
10.0
370
     9
100
AcDbLine
 39
0.25
 10
57.48373401665486
 20
194.3878938403472
 30
-0.25
 11
57.48373401665486
 21
193.5878938403473
 31
0.5000000000000551
1001
AUSTER_ANSICHT
1002
{
1000
Det03
1002
}
1001
AUSTER_FOLIE
1002
{
1000
NSB00753_S0
1002
}
  0
ARC
  5
199DF
330
1F
100
AcDbEntity
  8
11000_Left
  6
DASHED
 62
     7
 48
10.0
370
     9
100
AcDbCircle
 39
0.25
 10
54.48373401665475
 20
219.0378938403471
 30
-0.25
 40
1.0
100
AcDbArc
 50
90.0
 51
180.0
1001
AUSTER_ANSICHT
1002
{
1000
Det03
1002
}
1001
AUSTER_FOLIE
1002
{
1000
NSB00753_S0
1002
}
  0
ARC
  5
199E0
330
1F
100
AcDbEntity
  8
11000_Left
  6
DASHED
 62
     7
 48
10.0
370
     9
100
AcDbCircle
 39
0.25
 10
51.98373401665475
 20
221.0378938403473
 30
0.7499999999999984
 40
1.0
100
AcDbArc
 50
90.0
 51
180.0
1001
AUSTER_ANSICHT
1002
{
1000
Det03
1002
}
1001
AUSTER_FOLIE
1002
{
1000
NSB00753_S0
1002
}
  0
LINE
  5
199E1
330
1F
100
AcDbEntity
  8
11000_Left
  6
DASHED
 62
     7
 48
10.0
370
     9
100
AcDbLine
 39
0.25
 10
54.48373401665475
 20
220.0378938403474
 30
-0.25
 11
56.48373401665486
 21
220.0378938403474
 31
-0.25
1001
AUSTER_ANSICHT
1002
{
1000
Det03
1002
}
1001
AUSTER_FOLIE
1002
{
1000
NSB00753_S0
1002
}
  0
ARC
  5
199E2
330
1F
100
AcDbEntity
  8
11000_Left
  6
DASHED
 62
     7
 48
10.0
370
     9
100
AcDbCircle
 39
0.25
 10
54.5837340166549
 20
223.9378938403472
 30
-0.25
 40
1.9
100
AcDbArc
 50
270.0
 51
0.0
1001
AUSTER_ANSICHT
1002
{
1000
Det03
1002
}
1001
AUSTER_FOLIE
1002
{
1000
NSB00753_S0
1002
}
  0
LINE
  5
199E3
330
1F
100
AcDbEntity
  8
11000_Left
  6
DASHED
 62
     7
 48
10.0
370
     9
100
AcDbLine
 39
0.25
 10
54.5837340166549
 20
222.0378938403474
 30
0.7499999999999984
 11
51.98373401665475
 21
222.0378938403474
 31
0.7499999999999984
1001
AUSTER_ANSICHT
1002
{
1000
Det03
1002
}
1001
AUSTER_FOLIE
1002
{
1000
NSB00753_S0
1002
}
  0
LINE
  5
199E4
330
1F
100
AcDbEntity
  8
11000_Left
  6
DASHED
 62
     7
 48
10.0
370
     9
100
AcDbLine
 39
0.25
 10
58.48373401665487
 20
222.0378938403474
 30
-0.25
 11
56.48373401665486
 21
220.0378938403474
 31
-0.25
1001
AUSTER_ANSICHT
1002
{
1000
Det03
1002
}
1001
AUSTER_FOLIE
1002
{
1000
NSB00753_S0
1002
}
  0
LINE
  5
199E5
330
1F
100
AcDbEntity
  8
11000_Left
  6
DASHED
 62
     7
 48
10.0
370
     9
100
AcDbLine
 39
0.25
 10
58.48373401665487
 20
222.0378938403474
 30
0.0
 11
58.48373401665487
 21
227.1878938403477
 31
0.0
  0
LINE
  5
199E6
330
1F
100
AcDbEntity
  8
11000_Left
  6
DASHED
 62
     7
 48
10.0
370
     9
100
AcDbLine
 39
0.25
 10
57.48373401665486
 20
224.6878938403472
 30
-0.25
 11
57.48373401665486
 21
227.1878938403477
 31
-0.25
1001
AUSTER_ANSICHT
1002
{
1000
Det03
1002
}
1001
AUSTER_FOLIE
1002
{
1000
NSB00753_S0
1002
}
  0
ARC
  5
199E7
330
1F
100
AcDbEntity
  8
11000_Left
  6
DASHED
 62
     7
 48
10.0
370
     9
100
AcDbCircle
 39
0.25
 10
56.98373401665475
 20
224.6878938403472
 30
-0.25
 40
0.5
100
AcDbArc
 50
270.0
 51
0.0
1001
AUSTER_ANSICHT
1002
{
1000
Det03
1002
}
1001
AUSTER_FOLIE
1002
{
1000
NSB00753_S0
1002
}
  0
LINE
  5
199E8
330
1F
100
AcDbEntity
  8
11000_Left
  6
DASHED
 62
     7
 48
10.0
370
     9
100
AcDbLine
 39
0.25
 10
56.98373401665475
 20
224.1878938403474
 30
-0.25
 11
56.48373401665486
 21
224.1878938403474
 31
-0.25
1001
AUSTER_ANSICHT
1002
{
1000
Det03
1002
}
1001
AUSTER_FOLIE
1002
{
1000
NSB00753_S0
1002
}
  0
LINE
  5
199E9
330
1F
100
AcDbEntity
  8
11000_Left
  6
DASHED
 62
     7
 48
10.0
370
     9
100
AcDbLine
 39
0.25
 10
56.48373401665486
 20
223.9378938403472
 30
-0.25
 11
56.48373401665486
 21
224.1878938403474
 31
-0.25
1001
AUSTER_ANSICHT
1002
{
1000
Det03
1002
}
1001
AUSTER_FOLIE
1002
{
1000
NSB00753_S0
1002
}
  0
LINE
  5
199EA
330
1F
100
AcDbEntity
  8
11000_Left
  6
DASHED
 62
     7
 48
10.0
370
     9
100
AcDbLine
 39
0.25
 10
57.48373401665486
 20
227.1878938403477
 30
0.0
 11
58.48373401665487
 21
227.1878938403477
 31
0.0
  0
LINE
  5
199EB
330
1F
100
AcDbEntity
  8
11000_Left
  6
HIDDEN
 62
     7
370
     9
100
AcDbLine
 10
59.58373401665497
 20
153.1878338403476
 30
0.0
 11
53.3837340166549
 21
153.1878938403475
 31
0.0
  0
LINE
  5
199EC
330
1F
100
AcDbEntity
  8
11000_Left
  6
HIDDEN
 62
     7
370
     9
100
AcDbLine
 10
53.3837340166549
 20
168.8378938403476
 30
0.0
 11
59.58373401665497
 21
168.8378938403476
 31
0.0
  0
LINE
  5
199ED
330
1F
100
AcDbEntity
  8
11000_Left
  6
HIDDEN
 62
     7
370
     9
100
AcDbLine
 10
53.3837340166549
 20
162.1878938403475
 30
0.0
 11
53.3837340166549
 21
168.8378938403476
 31
0.0
  0
LINE
  5
199EE
330
1F
100
AcDbEntity
  8
11000_Left
  6
HIDDEN
 62
     7
370
     9
100
AcDbLine
 10
53.3837340166549
 20
171.8378938403477
 30
0.0
 11
53.3837340166549
 21
168.8378938403476
 31
0.0
  0
LINE
  5
199EF
330
1F
100
AcDbEntity
  8
11000_Left
  6
HIDDEN
 62
     7
370
     9
100
AcDbLine
 10
53.3837340166549
 20
171.8378938403477
 30
0.0
 11
53.3837340166549
 21
174.3378938403477
 31
0.0
  0
LINE
  5
199F0
330
1F
100
AcDbEntity
  8
11000_Left
  6
HIDDEN
 62
     7
370
     9
100
AcDbLine
 10
53.3837340166549
 20
151.1878938403475
 30
0.0
 11
53.3837340166549
 21
153.1878938403475
 31
0.0
  0
LINE
  5
199F1
330
1F
100
AcDbEntity
  8
11000_Left
  6
HIDDEN
 62
     7
370
     9
100
AcDbLine
 10
53.3837340166549
 20
153.1878938403475
 30
0.0
 11
53.3837340166549
 21
160.1878938403475
 31
0.0
  0
LINE
  5
199F2
330
1F
100
AcDbEntity
  8
11000_Left
  6
HIDDEN
 62
     7
370
     9
100
AcDbLine
 10
59.58373401665497
 20
171.8378938403477
 30
0.0
 11
59.58373401665497
 21
174.3378938403477
 31
0.0
  0
LINE
  5
199F3
330
1F
100
AcDbEntity
  8
11000_Left
  6
HIDDEN
 62
     7
370
     9
100
AcDbLine
 10
59.58373401665497
 20
168.8378938403476
 30
0.0
 11
59.58373401665497
 21
171.8378938403477
 31
0.0
  0
LINE
  5
199F4
330
1F
100
AcDbEntity
  8
11000_Left
  6
HIDDEN
 62
     7
370
     9
100
AcDbLine
 10
59.58373401665497
 20
153.1878338403476
 30
0.0
 11
59.58373401665497
 21
168.8378938403476
 31
0.0
  0
LINE
  5
199F5
330
1F
100
AcDbEntity
  8
11000_Left
  6
HIDDEN
 62
     7
370
     9
100
AcDbLine
 10
59.58373401665497
 20
151.1878938403475
 30
0.0
 11
59.58373401665497
 21
153.1878338403476
 31
0.0
  0
LINE
  5
199F6
330
1F
100
AcDbEntity
  8
11000_Left
  6
HIDDEN
 62
     7
370
     9
100
AcDbLine
 10
53.3837340166549
 20
171.8378938403477
 30
0.0
 11
59.58373401665497
 21
171.8378938403477
 31
0.0
  0
LINE
  5
199F7
102
{ACAD_REACTORS
330
1A57C
102
}
330
1F
100
AcDbEntity
  8
11000_Left
  6
HIDDEN
 62
     7
370
     9
100
AcDbLine
 10
53.3837340166549
 20
151.1878938403475
 30
0.0
 11
59.58373401665497
 21
151.1878938403475
 31
0.0
  0
LINE
  5
199F8
330
1F
100
AcDbEntity
  8
11000_Left
  6
HIDDEN
 62
     7
370
     9
100
AcDbLine
 10
54.38373401665493
 20
160.1878938403475
 30
0.0
 11
54.38373401665493
 21
162.1878938403475
 31
0.0
  0
LINE
  5
199F9
330
1F
100
AcDbEntity
  8
11000_Left
  6
HIDDEN
 62
     7
370
     9
100
AcDbLine
 10
54.38373401665493
 20
162.1878938403475
 30
0.0
 11
53.3837340166549
 21
162.1878938403475
 31
0.0
  0
LINE
  5
199FA
330
1F
100
AcDbEntity
  8
11000_Left
  6
HIDDEN
 62
     7
370
     9
100
AcDbLine
 10
53.3837340166549
 20
160.1878938403475
 30
0.0
 11
54.38373401665493
 21
160.1878938403475
 31
0.0
  0
LINE
  5
199FB
330
1F
100
AcDbEntity
  8
11000_Left
  6
HIDDEN
 62
     7
370
     9
100
AcDbLine
 10
53.35873401665492
 20
268.9878938403482
 30
0.0
 11
59.55873401665485
 21
268.9878938403482
 31
0.0
  0
LINE
  5
199FC
330
1F
100
AcDbEntity
  8
11000_Left
  6
HIDDEN
 62
     7
370
     9
100
AcDbLine
 10
53.35873401665492
 20
261.9878938403482
 30
0.0
 11
53.35873401665492
 21
268.9878938403482
 31
0.0
  0
LINE
  5
199FD
330
1F
100
AcDbEntity
  8
11000_Left
  6
HIDDEN
 62
     7
370
     9
100
AcDbLine
 10
53.35873401665492
 20
268.9878938403482
 30
0.0
 11
53.35873401665492
 21
270.9878938403482
 31
0.0
  0
LINE
  5
199FE
330
1F
100
AcDbEntity
  8
11000_Left
  6
HIDDEN
 62
     7
370
     9
100
AcDbLine
 10
59.55873401665485
 20
268.9878938403482
 30
0.0
 11
59.55873401665485
 21
270.9878938403482
 31
0.0
  0
LINE
  5
199FF
330
1F
100
AcDbEntity
  8
11000_Left
  6
HIDDEN
 62
     7
370
     9
100
AcDbLine
 10
59.55873401665485
 20
270.9878938403482
 30
0.0
 11
53.35873401665492
 21
270.9878938403482
 31
0.0
  0
LINE
  5
19A00
330
1F
100
AcDbEntity
  8
11000_Left
  6
HIDDEN
 62
     7
370
     9
100
AcDbLine
 10
54.35873401665492
 20
259.9878938403482
 30
0.0
 11
54.35873401665492
 21
261.9878938403482
 31
0.0
  0
LINE
  5
19A01
330
1F
100
AcDbEntity
  8
11000_Left
  6
HIDDEN
 62
     7
370
     9
100
AcDbLine
 10
53.35873401665492
 20
259.9878938403482
 30
0.0
 11
54.35873401665492
 21
259.9878938403482
 31
0.0
  0
LINE
  5
19A02
330
1F
100
AcDbEntity
  8
11000_Left
  6
HIDDEN
 62
     7
370
     9
100
AcDbLine
 10
54.35873401665492
 20
261.9878938403482
 30
0.0
 11
53.35873401665492
 21
261.9878938403482
 31
0.0
  0
LINE
  5
19A03
330
1F
100
AcDbEntity
  8
11000_Left
  6
HIDDEN
 62
     7
370
     9
100
AcDbLine
 10
59.55873401665485
 20
247.837893840348
 30
0.0
 11
59.55873401665485
 21
268.9878938403482
 31
0.0
  0
LINE
  5
19A04
330
1F
100
AcDbEntity
  8
11000_Left
  6
HIDDEN
 62
     7
370
     9
100
AcDbLine
 10
53.35873401665492
 20
247.837893840348
 30
0.0
 11
53.35873401665492
 21
259.9878938403482
 31
0.0
  0
DIMENSION
  5
19A05
330
1F
100
AcDbEntity
  8
11100_LEFT_DIM
  6
Continuous
 62
     7
370
    13
100
AcDbDimension
  2
*D6
 10
159.3990916152499
 20
158.4878938403476
 30
0.0
 11
159.3990916152499
 21
206.3378938403477
 31
0.0
 70
    32
 71
     5
 42
95.70000000000003
  3
H035
100
AcDbAlignedDimension
 13
144.4837340166548
 23
254.1878938403477
 33
0.0
 14
115.6837340166548
 24
158.4878938403476
 34
0.0
 50
90.0
100
AcDbRotatedDimension
1001
ACAD
1000
DSTYLE
1002
{
1070
    40
1040
1.0
1070
    77
1070
     0
1070
   147
1040
1.5
1070
   272
1070
     0
1070
   279
1070
     1
1070
   288
1070
     1
1002
}
  0
ARC
  5
19A07
330
1F
100
AcDbEntity
  8
10000_FRONT
  6
HIDDEN
 62
     7
370
     9
100
AcDbCircle
 10
-8.538914570225358
 20
265.437893840348
 30
0.0
 40
2.25
100
AcDbArc
 50
308.9424412689659
 51
0.0
  0
ARC
  5
19A08
330
1F
100
AcDbEntity
  8
10000_FRONT
  6
HIDDEN
 62
     7
370
     9
100
AcDbCircle
 10
-23.49704022115952
 20
156.7378938403479
 30
0.0
 40
2.25
100
AcDbArc
 50
128.9424412689873
 51
180.0
  0
LINE
  5
19A09
330
1F
100
AcDbEntity
  8
10000_FRONT
  6
HIDDEN
 62
     7
370
     9
100
AcDbLine
 10
-4.792000957262643
 20
262.6228541848679
 30
0.0
 11
-4.788914570225358
 21
268.9878938403482
 31
0.0
  0
LINE
  5
19A0A
330
1F
100
AcDbEntity
  8
10000_FRONT
  6
HIDDEN
 62
     7
370
     9
100
AcDbLine
 10
-6.288914570225357
 20
266.7378938403482
 30
0.0
 11
-6.288914570225357
 21
265.437893840348
 31
0.0
  0
LINE
  5
19A0B
330
1F
100
AcDbEntity
  8
10000_FRONT
  6
HIDDEN
 62
     7
370
     9
100
AcDbLine
 10
-10.78891457022536
 20
265.437893840348
 30
0.0
 11
-10.78891457022536
 21
266.7378938403482
 31
0.0
  0
ARC
  5
19A0C
330
1F
100
AcDbEntity
  8
10000_FRONT
  6
HIDDEN
 62
     7
370
     9
100
AcDbCircle
 10
-8.538914570225358
 20
265.437893840348
 30
0.0
 40
2.25
100
AcDbArc
 50
180.0
 51
231.0575587310342
  0
LINE
  5
19A0D
330
1F
100
AcDbEntity
  8
10000_FRONT
  6
HIDDEN
 62
     7
370
     9
100
AcDbLine
 10
-12.28891457022536
 20
268.9879438403483
 30
0.0
 11
-12.28891457022536
 21
254.1878938403477
 31
0.0
  0
ARC
  5
19A0E
330
1F
100
AcDbEntity
  8
10000_FRONT
  6
HIDDEN
 62
     7
370
     9
100
AcDbCircle
 10
-10.28891457022536
 20
268.9878938403482
 30
0.0
 40
2.0
100
AcDbArc
 50
89.99998999999899
 51
180.0000100000009
  0
LINE
  5
19A0F
330
1F
100
AcDbEntity
  8
10000_FRONT
  6
HIDDEN
 62
     7
370
     9
100
AcDbLine
 10
-6.788914570225357
 20
270.9878938403482
 30
0.0
 11
-10.28891457022536
 21
270.9878938403482
 31
0.0
  0
ARC
  5
19A10
330
1F
100
AcDbEntity
  8
10000_FRONT
  6
HIDDEN
 62
     7
370
     9
100
AcDbCircle
 10
-6.788914570225357
 20
268.9878938403482
 30
0.0
 40
2.0
100
AcDbArc
 50
359.999989999999
 51
90.00001000000102
  0
ARC
  5
19A11
330
1F
100
AcDbEntity
  8
10000_FRONT
  6
HIDDEN
 62
     7
370
     9
100
AcDbCircle
 10
-8.538914570225358
 20
266.7378938403482
 30
0.0
 40
2.25
100
AcDbArc
 50
0.0
 51
180.0
  0
LINE
  5
19A12
330
1F
100
AcDbEntity
  8
10000_FRONT
  6
HIDDEN
 62
     7
370
     9
100
AcDbLine
 10
-21.24704022115952
 20
156.7378938403479
 30
0.0
 11
-21.24704022115952
 21
155.437893840348
 31
0.0
  0
LINE
  5
19A13
330
1F
100
AcDbEntity
  8
10000_FRONT
  6
HIDDEN
 62
     7
370
     9
100
AcDbLine
 10
-25.74704022115952
 20
155.437893840348
 30
0.0
 11
-25.74704022115952
 21
156.7378938403479
 31
0.0
  0
ARC
  5
19A14
330
1F
100
AcDbEntity
  8
10000_FRONT
  6
HIDDEN
 62
     7
370
     9
100
AcDbCircle
 10
-23.49704022115952
 20
156.7378938403479
 30
0.0
 40
2.25
100
AcDbArc
 50
0.0
 51
51.05755873101267
  0
ARC
  5
19A15
330
1F
100
AcDbEntity
  8
10000_FRONT
  6
HIDDEN
 62
     7
370
     9
100
AcDbCircle
 10
-21.74704022115952
 20
153.187893840348
 30
0.0
 40
2.0
100
AcDbArc
 50
269.999989999999
 51
0.0000100000010064
  0
LINE
  5
19A16
330
1F
100
AcDbEntity
  8
10000_FRONT
  6
HIDDEN
 62
     7
370
     9
100
AcDbLine
 10
-25.24704022115952
 20
151.187893840348
 30
0.0
 11
-21.74704022115952
 21
151.187893840348
 31
0.0
  0
ARC
  5
19A17
330
1F
100
AcDbEntity
  8
10000_FRONT
  6
HIDDEN
 62
     7
370
     9
100
AcDbCircle
 10
-25.24704022115952
 20
153.187893840348
 30
0.0
 40
2.0
100
AcDbArc
 50
179.9999870000013
 51
270.000010000001
  0
ARC
  5
19A18
330
1F
100
AcDbEntity
  8
10000_FRONT
  6
HIDDEN
 62
     7
370
     9
100
AcDbCircle
 10
-23.49704022115952
 20
155.437893840348
 30
0.0
 40
2.25
100
AcDbArc
 50
180.0
 51
0.0
  0
LINE
  5
19A19
330
1F
100
AcDbEntity
  8
10000_FRONT
  6
HIDDEN
 62
     7
370
     9
100
AcDbLine
 10
-27.2637524310174
 20
159.5336435097326
 30
0.0
 11
-27.24704022115953
 21
153.187893840348
 31
0.0
  0
LINE
  5
19A1A
330
1F
100
AcDbEntity
  8
10000_FRONT
  6
HIDDEN
 62
     7
370
     9
100
AcDbLine
 10
-19.74704022115952
 20
153.1878338403479
 30
0.0
 11
-19.74704022115952
 21
158.4878938403477
 31
0.0
  0
DIMENSION
  5
19A1B
330
1F
100
AcDbEntity
  8
10100_FRONT_DIM
  6
Continuous
 62
     7
370
    13
100
AcDbDimension
  2
*D7
 10
2.509427357881759
 20
156.0878938403478
 30
0.0
 11
2.50942735788174
 21
211.087893840348
 31
0.0
 70
    32
  1
15x110
 71
     5
 42
110.0000000000002
  3
DSTYLE2
100
AcDbAlignedDimension
 13
-6.288914570225357
 23
266.0878938403481
 33
0.0
 14
-21.24704022115952
 24
156.0878938403478
 34
0.0
 50
90.0
100
AcDbRotatedDimension
1001
ACAD
1000
DSTYLE
1002
{
1070
   271
1070
     0
1002
}
  0
ARC
  5
19A4C
330
1F
100
AcDbEntity
  8
10000_FRONT
  6
Continuous
 62
     7
370
    50
100
AcDbCircle
 10
-25.7889145702253
 20
159.9878938403477
 30
0.0
 40
1.5
100
AcDbArc
 50
242.1818599999975
 51
270.0
  0
ARC
  5
19A4D
330
1F
100
AcDbEntity
  8
10000_FRONT
  6
Continuous
 62
     7
370
    50
100
AcDbCircle
 10
-25.34729769352941
 20
160.4554852042281
 30
0.0
 40
2.126638396754464
100
AcDbArc
 50
204.0769844550436
 51
237.5327401300713
  0
LINE
  5
19A4E
330
1F
100
AcDbEntity
  8
10000_FRONT
  6
Continuous
 62
     7
370
    13
100
AcDbLine
 10
-20.0389145702253
 20
166.8378938403476
 30
0.0
 11
-23.08891457022531
 21
166.8378938403476
 31
0.0
  0
LINE
  5
19A4F
330
1F
100
AcDbEntity
  8
10000_FRONT
  6
Continuous
 62
     7
370
    13
100
AcDbLine
 10
-23.08891457022531
 20
166.8378938403476
 30
0.0
 11
-23.08891457022531
 21
167.9878938403477
 31
0.0
  0
LINE
  5
19A50
330
1F
100
AcDbEntity
  8
10000_FRONT
  6
Continuous
 62
     7
370
    13
100
AcDbLine
 10
-15.88891457022532
 20
166.8378938403476
 30
0.0
 11
-15.88891457022532
 21
167.9878938403477
 31
0.0
  0
LINE
  5
19A51
330
1F
100
AcDbEntity
  8
10000_FRONT
  6
Continuous
 62
     7
370
    13
100
AcDbLine
 10
-12.83891457022531
 20
166.8378938403476
 30
0.0
 11
-15.88891457022532
 21
166.8378938403476
 31
0.0
  0
LINE
  5
19A52
330
1F
100
AcDbEntity
  8
10000_FRONT
  6
Continuous
 62
     7
370
    13
100
AcDbLine
 10
-16.18891457022528
 20
166.8378938403476
 30
0.0
 11
-19.23891457022529
 21
166.8378938403476
 31
0.0
  0
LINE
  5
19A53
330
1F
100
AcDbEntity
  8
10000_FRONT
  6
Continuous
 62
     7
370
    13
100
AcDbLine
 10
-16.18891457022528
 20
167.9878938403477
 30
0.0
 11
-16.18891457022528
 21
166.8378938403476
 31
0.0
  0
LINE
  5
19A54
330
1F
100
AcDbEntity
  8
10000_FRONT
  6
Continuous
 62
     7
370
    13
100
AcDbLine
 10
-5.638914570225324
 20
166.8378938403476
 30
0.0
 11
-8.688914570225279
 21
166.8378938403476
 31
0.0
  0
LINE
  5
19A55
330
1F
100
AcDbEntity
  8
10000_FRONT
  6
Continuous
 62
     7
370
    13
100
AcDbLine
 10
-8.688914570225279
 20
166.8378938403476
 30
0.0
 11
-8.688914570225279
 21
167.9878938403477
 31
0.0
  0
LINE
  5
19A56
330
1F
100
AcDbEntity
  8
10000_FRONT
  6
Continuous
 62
     7
370
    13
100
AcDbLine
 10
-8.988914570225286
 20
166.8378938403476
 30
0.0
 11
-12.0389145702253
 21
166.8378938403476
 31
0.0
  0
LINE
  5
19A57
330
1F
100
AcDbEntity
  8
10000_FRONT
  6
Continuous
 62
     7
370
    13
100
AcDbLine
 10
-8.988914570225286
 20
167.9878938403477
 30
0.0
 11
-8.988914570225286
 21
166.8378938403476
 31
0.0
  0
LINE
  5
19A58
330
1F
100
AcDbEntity
  8
10000_FRONT
  6
Continuous
 62
     7
370
    13
100
AcDbLine
 10
-12.0389145702253
 20
166.8378938403476
 30
0.0
 11
-12.0389145702253
 21
167.9878938403477
 31
0.0
  0
LINE
  5
19A59
330
1F
100
AcDbEntity
  8
10000_FRONT
  6
Continuous
 62
     7
370
    13
100
AcDbLine
 10
-12.83891457022531
 20
167.9878938403477
 30
0.0
 11
-12.83891457022531
 21
166.8378938403476
 31
0.0
  0
LINE
  5
19A5A
330
1F
100
AcDbEntity
  8
10000_FRONT
  6
Continuous
 62
     7
370
    13
100
AcDbLine
 10
-19.23891457022529
 20
166.8378938403476
 30
0.0
 11
-19.23891457022529
 21
167.9878938403477
 31
0.0
  0
LINE
  5
19A5B
330
1F
100
AcDbEntity
  8
10000_FRONT
  6
Continuous
 62
     7
370
    50
100
AcDbLine
 10
-4.788914570225299
 20
169.0878938403476
 30
0.0
 11
-4.788914570225299
 21
159.9878938403477
 31
0.0
  0
LINE
  5
19A5C
330
1F
100
AcDbEntity
  8
10000_FRONT
  6
Continuous
 62
     7
370
    50
100
AcDbLine
 10
-4.788914570225299
 20
159.9878938403477
 30
0.0
 11
-4.788914570225299
 21
159.5878938403476
 31
0.0
  0
LINE
  5
19A5D
330
1F
100
AcDbEntity
  8
10000_FRONT
  6
Continuous
 62
     7
370
    50
100
AcDbLine
 10
-27.2889145702253
 20
159.5878938403476
 30
0.0
 11
-27.2889145702253
 21
159.9878938403477
 31
0.0
  0
LINE
  5
19A5E
330
1F
100
AcDbEntity
  8
10000_FRONT
  6
Continuous
 62
     7
370
    50
100
AcDbLine
 10
-27.2889145702253
 20
159.9878938403477
 30
0.0
 11
-27.2889145702253
 21
169.0878938403476
 31
0.0
  0
LINE
  5
19A5F
330
1F
100
AcDbEntity
  8
10000_FRONT
  6
Continuous
 62
     7
370
    13
100
AcDbLine
 10
-20.0389145702253
 20
167.9878938403477
 30
0.0
 11
-20.0389145702253
 21
166.8378938403476
 31
0.0
  0
LINE
  5
19A60
330
1F
100
AcDbEntity
  8
10000_FRONT
  6
Continuous
 62
     7
370
    13
100
AcDbLine
 10
-5.638914570225324
 20
168.1422438403477
 30
0.0
 11
-5.638914570225324
 21
166.8378938403476
 31
0.0
  0
LINE
  5
19A61
330
1F
100
AcDbEntity
  8
10000_FRONT
  6
Continuous
 62
     7
370
    13
100
AcDbLine
 10
-26.43891457022528
 20
166.8378938403476
 30
0.0
 11
-26.43891457022528
 21
168.1422938403476
 31
0.0
  0
LINE
  5
19A62
330
1F
100
AcDbEntity
  8
10000_FRONT
  6
Continuous
 62
     7
370
    13
100
AcDbLine
 10
-23.38891457022532
 20
166.8378938403476
 30
0.0
 11
-26.43891457022528
 21
166.8378938403476
 31
0.0
  0
LINE
  5
19A63
330
1F
100
AcDbEntity
  8
10000_FRONT
  6
Continuous
 62
     7
370
    13
100
AcDbLine
 10
-23.38891457022532
 20
167.9878938403477
 30
0.0
 11
-23.38891457022532
 21
166.8378938403476
 31
0.0
  0
ARC
  5
19A64
330
1F
100
AcDbEntity
  8
10000_FRONT
  6
Continuous
 62
     7
370
    50
100
AcDbCircle
 10
-6.288914570225298
 20
159.9878938403477
 30
0.0
 40
1.5
100
AcDbArc
 50
270.0
 51
297.8181400000025
  0
ARC
  5
19A65
330
1F
100
AcDbEntity
  8
10000_FRONT
  6
Continuous
 62
     7
370
    50
100
AcDbCircle
 10
-6.73053144692153
 20
160.4554852042287
 30
0.0
 40
2.126638396755077
100
AcDbArc
 50
302.4672598699249
 51
335.9230155449422
  0
LINE
  5
19A66
330
1F
100
AcDbEntity
  8
10000_FRONT
  6
Continuous
 62
     7
370
    50
100
AcDbLine
 10
-6.288914570225298
 20
158.4878938403477
 30
0.0
 11
-25.7889145702253
 21
158.4878938403477
 31
0.0
  0
LINE
  5
19A67
330
1F
100
AcDbEntity
  8
10000_FRONT
  6
Continuous
 62
     7
100
AcDbLine
 10
-4.788914570225299
 20
169.4878838403476
 30
0.0
 11
-4.788914570225299
 21
169.0878938403476
 31
0.0
  0
LINE
  5
19A68
330
1F
100
AcDbEntity
  8
10000_FRONT
  6
Continuous
 62
     7
100
AcDbLine
 10
-27.2889145702253
 20
169.0878938403476
 30
0.0
 11
-27.2889145702253
 21
169.4878838403476
 31
0.0
  0
LINE
  5
19A69
330
1F
100
AcDbEntity
  8
10000_FRONT
  6
Continuous
 62
     7
370
    30
100
AcDbLine
 10
-6.288914570225298
 20
167.9878938403477
 30
0.0
 11
-25.7889145702253
 21
167.9878938403477
 31
0.0
  0
LINE
  5
19A6A
330
1F
100
AcDbEntity
  8
10000_FRONT
  6
Continuous
 62
     7
370
    13
100
AcDbLine
 10
-27.2889145702253
 20
238.3378938403477
 30
0.0
 11
-4.788914570225299
 21
238.3378938403477
 31
0.0
  0
LINE
  5
19A6B
330
1F
100
AcDbEntity
  8
10000_FRONT
  6
Continuous
 62
     7
370
    13
100
AcDbLine
 10
-12.10280325278245
 20
238.3717081418115
 30
0.0
 11
-12.10458102836543
 21
239.1717061665052
 31
0.0
  0
LINE
  5
19A6C
330
1F
100
AcDbEntity
  8
10000_FRONT
  6
Continuous
 62
     7
370
    13
100
AcDbLine
 10
-13.95473028650213
 20
240.694818489552
 30
0.0
 11
-18.25471966923135
 21
240.6852629457933
 31
0.0
  0
LINE
  5
19A6D
330
1F
100
AcDbEntity
  8
10000_FRONT
  6
Continuous
 62
     7
370
    13
100
AcDbLine
 10
-19.5037448284595
 20
240.2451962511719
 30
0.0
 11
-18.25374791487547
 21
240.2479740255203
 31
0.0
  0
LINE
  5
19A6E
330
1F
100
AcDbEntity
  8
10000_FRONT
  6
Continuous
 62
     7
370
    13
100
AcDbLine
 10
-13.95375853214631
 20
240.257529569279
 30
0.0
 11
-12.70376161856222
 21
240.2603073436273
 31
0.0
  0
LINE
  5
19A6F
330
1F
100
AcDbEntity
  8
10000_FRONT
  6
Continuous
 62
     7
370
    13
100
AcDbLine
 10
-8.858529043318526
 20
239.1789196242664
 30
0.0
 11
-8.999570915093952
 21
238.3786042221867
 31
0.0
  0
LINE
  5
19A70
330
1F
100
AcDbEntity
  8
10000_FRONT
  6
Continuous
 62
     7
370
    13
100
AcDbLine
 10
-23.19953585340886
 20
238.3470487055886
 30
0.0
 11
-23.34413327635036
 21
239.1467293528964
 31
0.0
  0
LINE
  5
19A71
330
1F
100
AcDbEntity
  8
10000_FRONT
  6
Continuous
 62
     7
370
    13
100
AcDbLine
 10
-20.09629351574506
 20
238.3539448081859
 30
0.0
 11
-20.0980712913281
 21
239.1539428328797
 31
0.0
  0
LINE
  5
19A72
330
1F
100
AcDbEntity
  8
10000_FRONT
  6
Continuous
 62
     7
370
    13
100
AcDbLine
 10
-14.09955832251694
 20
238.3672709028451
 30
0.0
 11
-14.10133609809986
 21
239.1672689275389
 31
0.0
  0
LINE
  5
19A73
330
1F
100
AcDbEntity
  8
10000_FRONT
  6
Continuous
 62
     7
370
    13
100
AcDbLine
 10
-18.10132622156891
 20
239.1583800496239
 30
0.0
 11
-18.09954844598587
 21
238.3583820249302
 31
0.0
  0
LINE
  5
19A74
330
1F
100
AcDbEntity
  8
10000_FRONT
  6
Continuous
 62
     7
370
    13
100
AcDbLine
 10
-8.919211404439007
 20
247.2214246327541
 30
0.0
 11
-8.919713626041241
 21
247.4474240747301
 31
0.0
  0
LINE
  5
19A75
330
1F
100
AcDbEntity
  8
10000_FRONT
  6
Continuous
 62
     7
370
    13
100
AcDbLine
 10
-8.924741886500212
 20
249.710138487774
 30
0.0
 11
-8.919713670485633
 21
247.4474440746807
 31
0.0
  0
LINE
  5
19A76
330
1F
100
AcDbEntity
  8
10000_FRONT
  6
Continuous
 62
     7
370
    13
100
AcDbLine
 10
-8.9247519531421
 20
249.7101684654777
 30
0.0
 11
-8.925529729959635
 21
250.0601676012814
 31
0.0
  0
LINE
  5
19A77
330
1F
100
AcDbEntity
  8
10000_FRONT
  6
Continuous
 62
     7
370
    13
100
AcDbLine
 10
-26.5079949170397
 20
242.1499559732957
 30
0.0
 11
-23.45800244789456
 21
242.1567337427058
 31
0.0
  0
LINE
  5
19A78
330
1F
100
AcDbEntity
  8
10000_FRONT
  6
Continuous
 62
     7
370
    13
100
AcDbLine
 10
-23.15800318863444
 20
242.1574004085495
 30
0.0
 11
-20.10801071948924
 21
242.1641781779596
 31
0.0
  0
LINE
  5
19A79
330
1F
100
AcDbEntity
  8
10000_FRONT
  6
Continuous
 62
     7
370
    13
100
AcDbLine
 10
-19.30801269479548
 20
242.1659559535426
 30
0.0
 11
-16.25802022565039
 21
242.1727337229528
 31
0.0
  0
LINE
  5
19A7A
330
1F
100
AcDbEntity
  8
10000_FRONT
  6
Continuous
 62
     7
370
    13
100
AcDbLine
 10
-15.95802096639022
 20
242.1734003887964
 30
0.0
 11
-12.90802849724514
 21
242.1801781582066
 31
0.0
  0
LINE
  5
19A7B
330
1F
100
AcDbEntity
  8
10000_FRONT
  6
Continuous
 62
     7
370
    13
100
AcDbLine
 10
-12.10803047255126
 20
242.1819559337895
 30
0.0
 11
-9.058038003406238
 21
242.1887337031996
 31
0.0
  0
LINE
  5
19A7C
330
1F
100
AcDbEntity
  8
10000_FRONT
  6
Continuous
 62
     7
370
    13
100
AcDbLine
 10
-8.758038744146062
 20
242.1894003690432
 30
0.0
 11
-5.708046275000922
 21
242.1961781384534
 31
0.0
  0
LINE
  5
19A7D
330
1F
100
AcDbEntity
  8
10000_FRONT
  6
Continuous
 62
     7
370
    13
100
AcDbLine
 10
-8.556300906785391
 20
241.4075967444182
 30
0.0
 11
-23.65626362288082
 21
241.3740412302892
 31
0.0
  0
LINE
  5
19A7E
330
1F
100
AcDbEntity
  8
10000_FRONT
  6
Continuous
 62
     7
370
    13
100
AcDbLine
 10
-8.922461204723216
 20
250.2498348885316
 30
0.0
 11
-8.925529729959635
 21
250.0601676012814
 31
0.0
  0
LINE
  5
19A7F
330
1F
100
AcDbEntity
  8
10000_FRONT
  6
Continuous
 62
     7
370
    13
100
AcDbLine
 10
-5.574220869464395
 20
249.3354031555708
 30
0.0
 11
-5.572556071519726
 21
248.5862450053463
 31
0.0
  0
LINE
  5
19A80
330
1F
100
AcDbEntity
  8
10000_FRONT
  6
Continuous
 62
     7
370
    13
100
AcDbLine
 10
-8.249572766943572
 20
238.3802708867957
 30
0.0
 11
-8.255624692805383
 21
241.1036341624336
 31
0.0
  0
LINE
  5
19A81
330
1F
100
AcDbEntity
  8
10000_FRONT
  6
Continuous
 62
     7
370
    13
100
AcDbLine
 10
-13.95375853214631
 20
240.257529569279
 30
0.0
 11
-13.95473028650213
 21
240.694818489552
 31
0.0
  0
LINE
  5
19A82
330
1F
100
AcDbEntity
  8
10000_FRONT
  6
Continuous
 62
     7
370
    13
100
AcDbLine
 10
-17.60432745243156
 20
240.509487826034
 30
0.0
 11
-14.6043348598298
 21
240.5161544844704
 31
0.0
  0
LINE
  5
19A83
330
1F
100
AcDbEntity
  8
10000_FRONT
  6
Continuous
 62
     7
370
    13
100
AcDbLine
 10
-18.25471966923135
 20
240.6852629457933
 30
0.0
 11
-18.25374791487547
 21
240.2479740255203
 31
0.0
  0
LINE
  5
19A84
330
1F
100
AcDbEntity
  8
10000_FRONT
  6
Continuous
 62
     7
370
    13
100
AcDbLine
 10
-23.95558592742111
 20
241.0687453166174
 30
0.0
 11
-23.9495340015593
 21
238.3453820409795
 31
0.0
  0
LINE
  5
19A85
330
1F
100
AcDbEntity
  8
10000_FRONT
  6
Continuous
 62
     7
370
    13
100
AcDbLine
 10
-19.50247831891204
 20
239.6752676584047
 30
0.0
 11
-19.5037448284595
 21
240.2451962511719
 31
0.0
  0
LINE
  5
19A86
330
1F
100
AcDbEntity
  8
10000_FRONT
  6
Continuous
 62
     7
370
    13
100
AcDbLine
 10
-12.70376161856222
 20
240.2603073436273
 30
0.0
 11
-12.70249510901476
 21
239.6903787508601
 31
0.0
  0
ARC
  5
19A87
330
1F
100
AcDbEntity
  8
10000_FRONT
  6
Continuous
 62
     7
370
    13
100
AcDbCircle
 10
-14.40293535538484
 20
239.8866004839198
 30
0.0
 40
0.2
100
AcDbArc
 50
180.1273139020787
 51
270.1273359020776
  0
LINE
  5
19A88
330
1F
100
AcDbEntity
  8
10000_FRONT
  6
Continuous
 62
     7
370
    13
100
AcDbLine
 10
-14.60293486155819
 20
239.8861560400241
 30
0.0
 11
-14.6043348598298
 21
240.5161544844704
 31
0.0
  0
LINE
  5
19A89
330
1F
100
AcDbEntity
  8
10000_FRONT
  6
Continuous
 62
     7
370
    13
100
AcDbLine
 10
-17.60432745243156
 20
240.509487826034
 30
0.0
 11
-17.60292745415995
 21
239.8794893815877
 31
0.0
  0
ARC
  5
19A8A
330
1F
100
AcDbEntity
  8
10000_FRONT
  6
Continuous
 62
     7
370
    13
100
AcDbCircle
 10
-17.80292696033348
 20
239.879044937692
 30
0.0
 40
0.2
100
AcDbArc
 50
270.1273139020771
 51
0.1273339020779976
  0
LINE
  5
19A8B
330
1F
100
AcDbEntity
  8
10000_FRONT
  6
Continuous
 62
     7
370
    13
100
AcDbLine
 10
-12.70249510901476
 20
239.6903787508601
 30
0.0
 11
-14.40249091148905
 21
239.6866009777463
 31
0.0
  0
LINE
  5
19A8C
330
1F
100
AcDbEntity
  8
10000_FRONT
  6
Continuous
 62
     7
370
    13
100
AcDbLine
 10
-17.80248251643769
 20
239.6790454315185
 30
0.0
 11
-19.50247831891204
 21
239.6752676584047
 31
0.0
  0
LINE
  5
19A8D
330
1F
100
AcDbEntity
  8
10000_FRONT
  6
Continuous
 62
     7
370
    13
100
AcDbLine
 10
-23.34413327635036
 20
239.1467293528964
 30
0.0
 11
-8.858529043318526
 21
239.1789196242664
 31
0.0
  0
LINE
  5
19A8E
330
1F
100
AcDbEntity
  8
10000_FRONT
  6
Continuous
 62
     7
370
    13
100
AcDbLine
 10
-5.716134598348672
 20
245.8359191514276
 30
0.0
 11
-8.766127067493812
 21
245.8291413820174
 31
0.0
  0
LINE
  5
19A8F
330
1F
100
AcDbEntity
  8
10000_FRONT
  6
Continuous
 62
     7
370
    13
100
AcDbLine
 10
-8.766127067493812
 20
245.8291413820174
 30
0.0
 11
-8.758038744146062
 21
242.1894003690432
 31
0.0
  0
LINE
  5
19A90
330
1F
100
AcDbEntity
  8
10000_FRONT
  6
Continuous
 62
     7
370
    13
100
AcDbLine
 10
-9.066126326753987
 20
245.8284747161738
 30
0.0
 11
-12.11611879589901
 21
245.8216969467636
 31
0.0
  0
LINE
  5
19A91
330
1F
100
AcDbEntity
  8
10000_FRONT
  6
Continuous
 62
     7
370
    13
100
AcDbLine
 10
-9.058038003406238
 20
242.1887337031996
 30
0.0
 11
-9.066126326753987
 21
245.8284747161738
 31
0.0
  0
LINE
  5
19A92
330
1F
100
AcDbEntity
  8
10000_FRONT
  6
Continuous
 62
     7
370
    13
100
AcDbLine
 10
-12.11611879589901
 20
245.8216969467636
 30
0.0
 11
-12.10803047255126
 21
242.1819559337895
 31
0.0
  0
LINE
  5
19A93
330
1F
100
AcDbEntity
  8
10000_FRONT
  6
Continuous
 62
     7
370
    13
100
AcDbLine
 10
-5.708046275000922
 20
242.1961781384534
 30
0.0
 11
-5.716134598348672
 21
245.8359191514276
 31
0.0
  0
LINE
  5
19A94
330
1F
100
AcDbEntity
  8
10000_FRONT
  6
Continuous
 62
     7
370
    13
100
AcDbLine
 10
-12.90802849724514
 20
242.1801781582066
 30
0.0
 11
-12.91611682059289
 21
245.8199191711807
 31
0.0
  0
LINE
  5
19A95
330
1F
100
AcDbEntity
  8
10000_FRONT
  6
Continuous
 62
     7
370
    13
100
AcDbLine
 10
-19.31610101814323
 20
245.8056969665167
 30
0.0
 11
-19.30801269479548
 21
242.1659559535426
 31
0.0
  0
LINE
  5
19A96
330
1F
100
AcDbEntity
  8
10000_FRONT
  6
Continuous
 62
     7
370
    13
100
AcDbLine
 10
-16.25802022565045
 20
242.1727337229528
 30
0.0
 11
-16.26610854899819
 21
245.8124747359269
 31
0.0
  0
LINE
  5
19A97
330
1F
100
AcDbEntity
  8
10000_FRONT
  6
Continuous
 62
     7
370
    13
100
AcDbLine
 10
-16.26610854899819
 20
245.8124747359269
 30
0.0
 11
-19.31610101814323
 21
245.8056969665167
 31
0.0
  0
LINE
  5
19A98
330
1F
100
AcDbEntity
  8
10000_FRONT
  6
Continuous
 62
     7
370
    13
100
AcDbLine
 10
-15.96610928973803
 20
245.8131414017705
 30
0.0
 11
-15.95802096639028
 21
242.1734003887964
 31
0.0
  0
LINE
  5
19A99
330
1F
100
AcDbEntity
  8
10000_FRONT
  6
Continuous
 62
     7
370
    13
100
AcDbLine
 10
-12.91611682059289
 20
245.8199191711807
 30
0.0
 11
-15.96610928973803
 21
245.8131414017705
 31
0.0
  0
LINE
  5
19A9A
330
1F
100
AcDbEntity
  8
10000_FRONT
  6
Continuous
 62
     7
370
    13
100
AcDbLine
 10
-20.10801071948924
 20
242.1641781779596
 30
0.0
 11
-20.11609904283699
 21
245.8039191909337
 31
0.0
  0
LINE
  5
19A9B
330
1F
100
AcDbEntity
  8
10000_FRONT
  6
Continuous
 62
     7
370
    13
100
AcDbLine
 10
-26.51608324038733
 20
245.7896969862698
 30
0.0
 11
-26.50799491703959
 21
242.1499559732957
 31
0.0
  0
LINE
  5
19A9C
330
1F
100
AcDbEntity
  8
10000_FRONT
  6
Continuous
 62
     7
370
    13
100
AcDbLine
 10
-23.45800244789456
 20
242.1567337427058
 30
0.0
 11
-23.46609077124231
 21
245.7964747556799
 31
0.0
  0
LINE
  5
19A9D
330
1F
100
AcDbEntity
  8
10000_FRONT
  6
Continuous
 62
     7
370
    13
100
AcDbLine
 10
-23.46609077124231
 20
245.7964747556799
 30
0.0
 11
-26.51608324038733
 21
245.7896969862698
 31
0.0
  0
LINE
  5
19A9E
330
1F
100
AcDbEntity
  8
10000_FRONT
  6
Continuous
 62
     7
370
    13
100
AcDbLine
 10
-23.16609151198213
 20
245.7971414215236
 30
0.0
 11
-23.15800318863432
 21
242.1574004085495
 31
0.0
  0
LINE
  5
19A9F
330
1F
100
AcDbEntity
  8
10000_FRONT
  6
Continuous
 62
     7
370
    13
100
AcDbLine
 10
-20.11609904283699
 20
245.8039191909337
 30
0.0
 11
-23.16609151198213
 21
245.7971414215236
 31
0.0
  0
ARC
  5
19AA0
330
1F
100
AcDbEntity
  8
10000_FRONT
  6
Continuous
 62
     7
370
    13
100
AcDbCircle
 10
-7.374300146592641
 20
249.3314029744608
 30
0.0
 40
1.80008372177394
100
AcDbArc
 50
0.1273239020783523
 51
149.3221368998964
  0
ARC
  5
19AA1
330
1F
100
AcDbEntity
  8
10000_FRONT
  6
Continuous
 62
     7
370
    13
100
AcDbCircle
 10
-7.518272830383351
 20
248.5753313004378
 30
0.0
 40
1.945747366612009
100
AcDbArc
 50
224.0929657473363
 51
0.3213739459068813
  0
ARC
  5
19AA2
330
1F
100
AcDbEntity
  8
10000_FRONT
  6
Continuous
 62
     7
370
    13
100
AcDbCircle
 10
-10.31948477287312
 20
248.585612253369
 30
0.0
 40
1.95246709481784
100
AcDbArc
 50
180.4200500959916
 51
315.6769315144013
  0
ARC
  5
19AA3
330
1F
100
AcDbEntity
  8
10000_FRONT
  6
Continuous
 62
     7
370
    13
100
AcDbCircle
 10
-10.47349823305114
 20
249.3244884658852
 30
0.0
 40
1.80008372177394
100
AcDbArc
 50
30.93352375192488
 51
180.1283367497423
  0
LINE
  5
19AA4
330
1F
100
AcDbEntity
  8
10000_FRONT
  6
Continuous
 62
     7
370
    13
100
AcDbLine
 10
-12.2735774391848
 20
249.3204564638266
 30
0.0
 11
-12.27189939797722
 21
248.5712983431488
 31
0.0
  0
LINE
  5
19AA5
330
1F
100
AcDbEntity
  8
10000_FRONT
  6
Continuous
 62
     7
370
    13
100
AcDbLine
 10
-19.47355966142902
 20
249.3044564835798
 30
0.0
 11
-19.47188162022144
 21
248.5552983629018
 31
0.0
  0
ARC
  5
19AA6
330
1F
100
AcDbEntity
  8
10000_FRONT
  6
Continuous
 62
     7
370
    13
100
AcDbCircle
 10
-17.67348045529536
 20
249.3084884856382
 30
0.0
 40
1.80008372177394
100
AcDbArc
 50
30.93352375192488
 51
180.1283367497423
  0
ARC
  5
19AA7
330
1F
100
AcDbEntity
  8
10000_FRONT
  6
Continuous
 62
     7
370
    13
100
AcDbCircle
 10
-17.51946699511734
 20
248.5696122731221
 30
0.0
 40
1.95246709481784
100
AcDbArc
 50
180.4200500959916
 51
315.6769315144013
  0
ARC
  5
19AA8
330
1F
100
AcDbEntity
  8
10000_FRONT
  6
Continuous
 62
     7
370
    13
100
AcDbCircle
 10
-14.71825505262757
 20
248.5593313201909
 30
0.0
 40
1.945747366612009
100
AcDbArc
 50
224.0929657473363
 51
0.3213739459068813
  0
ARC
  5
19AA9
330
1F
100
AcDbEntity
  8
10000_FRONT
  6
Continuous
 62
     7
370
    13
100
AcDbCircle
 10
-14.57428236883686
 20
249.3154029942139
 30
0.0
 40
1.80008372177394
100
AcDbArc
 50
0.1273239020783523
 51
149.3221368998964
  0
LINE
  5
19AAA
330
1F
100
AcDbEntity
  8
10000_FRONT
  6
Continuous
 62
     7
370
    13
100
AcDbLine
 10
-12.77420309170861
 20
249.3194031753238
 30
0.0
 11
-12.77253829376394
 21
248.5702450250993
 31
0.0
  0
LINE
  5
19AAB
330
1F
100
AcDbEntity
  8
10000_FRONT
  6
Continuous
 62
     7
370
    13
100
AcDbLine
 10
-16.12244342696743
 20
250.2338349082846
 30
0.0
 11
-16.12551195220385
 21
250.0441676210344
 31
0.0
  0
LINE
  5
19AAC
330
1F
100
AcDbEntity
  8
10000_FRONT
  6
Continuous
 62
     7
370
    13
100
AcDbLine
 10
-16.12473417538632
 20
249.6941684852308
 30
0.0
 11
-16.12551195220385
 21
250.0441676210344
 31
0.0
  0
LINE
  5
19AAD
330
1F
100
AcDbEntity
  8
10000_FRONT
  6
Continuous
 62
     7
370
    13
100
AcDbLine
 10
-16.12472410874443
 20
249.6941385075271
 30
0.0
 11
-16.11969589272985
 21
247.4314440944338
 31
0.0
  0
LINE
  5
19AAE
330
1F
100
AcDbEntity
  8
10000_FRONT
  6
Continuous
 62
     7
370
    13
100
AcDbLine
 10
-16.11919362668323
 20
247.2054246525072
 30
0.0
 11
-16.11969584828546
 21
247.4314240944832
 31
0.0
  0
LINE
  5
19AAF
330
1F
100
AcDbEntity
  8
10000_FRONT
  6
Continuous
 62
     7
370
    13
100
AcDbLine
 10
-26.67354188367312
 20
249.2884565033328
 30
0.0
 11
-26.67186384246554
 21
248.5392983826549
 31
0.0
  0
ARC
  5
19AB0
330
1F
100
AcDbEntity
  8
10000_FRONT
  6
Continuous
 62
     7
370
    13
100
AcDbCircle
 10
-24.87346267753947
 20
249.2924885053914
 30
0.0
 40
1.80008372177394
100
AcDbArc
 50
30.93352375192488
 51
180.1283367497423
  0
ARC
  5
19AB1
330
1F
100
AcDbEntity
  8
10000_FRONT
  6
Continuous
 62
     7
370
    13
100
AcDbCircle
 10
-24.71944921736144
 20
248.5536122928752
 30
0.0
 40
1.95246709481784
100
AcDbArc
 50
180.4200500959916
 51
315.6769315144013
  0
ARC
  5
19AB2
330
1F
100
AcDbEntity
  8
10000_FRONT
  6
Continuous
 62
     7
370
    13
100
AcDbCircle
 10
-21.91823727487168
 20
248.543331339944
 30
0.0
 40
1.945747366612009
100
AcDbArc
 50
224.0929657473363
 51
0.3213739459068813
  0
ARC
  5
19AB3
330
1F
100
AcDbEntity
  8
10000_FRONT
  6
Continuous
 62
     7
370
    13
100
AcDbCircle
 10
-21.77426459108096
 20
249.299403013967
 30
0.0
 40
1.80008372177394
100
AcDbArc
 50
0.1273239020783523
 51
149.3221368998964
  0
LINE
  5
19AB4
330
1F
100
AcDbEntity
  8
10000_FRONT
  6
Continuous
 62
     7
370
    13
100
AcDbLine
 10
-19.97418531395272
 20
249.303403195077
 30
0.0
 11
-19.97252051600804
 21
248.5542450448524
 31
0.0
  0
LINE
  5
19AB5
330
1F
100
AcDbEntity
  8
10000_FRONT
  6
Continuous
 62
     7
370
    13
100
AcDbLine
 10
-23.32242564921154
 20
250.2178349280377
 30
0.0
 11
-23.32549417444795
 21
250.0281676407875
 31
0.0
  0
LINE
  5
19AB6
330
1F
100
AcDbEntity
  8
10000_FRONT
  6
Continuous
 62
     7
370
    13
100
AcDbLine
 10
-23.32471639763042
 20
249.6781685049839
 30
0.0
 11
-23.32549417444795
 21
250.0281676407875
 31
0.0
  0
LINE
  5
19AB7
330
1F
100
AcDbEntity
  8
10000_FRONT
  6
Continuous
 62
     7
370
    13
100
AcDbLine
 10
-23.32470633098854
 20
249.6781385272801
 30
0.0
 11
-23.31967811497396
 21
247.4154441141868
 31
0.0
  0
LINE
  5
19AB8
330
1F
100
AcDbEntity
  8
10000_FRONT
  6
Continuous
 62
     7
370
    13
100
AcDbLine
 10
-23.31917584892733
 20
247.1894246722602
 30
0.0
 11
-23.31967807052956
 21
247.4154241142362
 31
0.0
  0
ARC
  5
19AB9
330
1F
100
AcDbEntity
  8
10000_FRONT
  6
Continuous
 62
     7
370
    13
100
AcDbCircle
 10
-23.65092095151448
 20
241.069422350733
 30
0.0
 40
0.3046657281667571
100
AcDbArc
 50
91.00480028975878
 51
180.1273239020783
  0
ARC
  5
19ABA
330
1F
100
AcDbEntity
  8
10000_FRONT
  6
Continuous
 62
     7
370
    13
100
AcDbCircle
 10
-8.560289668712016
 20
241.1029571283179
 30
0.0
 40
0.3046657281667571
100
AcDbArc
 50
0.1273239020783523
 51
89.24984751440556
  0
ARC
  5
19ABB
330
1F
100
AcDbEntity
  8
10000_FRONT
  6
Continuous
 62
     7
370
    13
100
AcDbCircle
 10
-8.493580298392087
 20
181.0645238403477
 30
0.0
 40
0.3046657281667571
100
AcDbArc
 50
270.8774763876717
 51
0.0
  0
ARC
  5
19ABC
330
1F
100
AcDbEntity
  8
10000_FRONT
  6
Continuous
 62
     7
370
    13
100
AcDbCircle
 10
-23.58424884205857
 20
181.0645238403477
 30
0.0
 40
0.3046657281667571
100
AcDbArc
 50
180.0
 51
269.1225236123186
  0
LINE
  5
19ABD
330
1F
100
AcDbEntity
  8
10000_FRONT
  6
Continuous
 62
     7
370
    13
100
AcDbLine
 10
-23.23890457022532
 20
174.9452738403476
 30
0.0
 11
-23.23890457022532
 21
174.7192738403477
 31
0.0
  0
LINE
  5
19ABE
330
1F
100
AcDbEntity
  8
10000_FRONT
  6
Continuous
 62
     7
370
    13
100
AcDbLine
 10
-23.23890457022532
 20
172.4565538403477
 30
0.0
 11
-23.23890457022532
 21
174.7192538403476
 31
0.0
  0
LINE
  5
19ABF
330
1F
100
AcDbEntity
  8
10000_FRONT
  6
Continuous
 62
     7
370
    13
100
AcDbLine
 10
-23.23891457022535
 20
172.4565238403476
 30
0.0
 11
-23.23891457022535
 21
172.1065238403476
 31
0.0
  0
LINE
  5
19AC0
330
1F
100
AcDbEntity
  8
10000_FRONT
  6
Continuous
 62
     7
370
    13
100
AcDbLine
 10
-23.23542457022529
 20
171.9168638403477
 30
0.0
 11
-23.23891457022535
 21
172.1065238403476
 31
0.0
  0
LINE
  5
19AC1
330
1F
100
AcDbEntity
  8
10000_FRONT
  6
Continuous
 62
     7
370
    13
100
AcDbLine
 10
-19.88922457022534
 20
172.8387338403476
 30
0.0
 11
-19.88922457022534
 21
173.5878938403476
 31
0.0
  0
ARC
  5
19AC2
330
1F
100
AcDbEntity
  8
10000_FRONT
  6
Continuous
 62
     7
370
    13
100
AcDbCircle
 10
-21.68930829199928
 20
172.8387338403476
 30
0.0
 40
1.80008372177394
100
AcDbArc
 50
210.8051870021834
 51
0.0
  0
ARC
  5
19AC3
330
1F
100
AcDbEntity
  8
10000_FRONT
  6
Continuous
 62
     7
370
    13
100
AcDbCircle
 10
-21.83496077750362
 20
173.5944837086271
 30
0.0
 40
1.945747366612009
100
AcDbArc
 50
359.8059499561717
 51
136.0343581547405
  0
ARC
  5
19AC4
330
1F
100
AcDbEntity
  8
10000_FRONT
  6
Continuous
 62
     7
370
    13
100
AcDbCircle
 10
-24.63614295689537
 20
173.5779778733382
 30
0.0
 40
1.95246709481784
100
AcDbArc
 50
44.45039238767095
 51
179.7072738060804
  0
ARC
  5
19AC5
330
1F
100
AcDbEntity
  8
10000_FRONT
  6
Continuous
 62
     7
370
    13
100
AcDbCircle
 10
-24.78851409168186
 20
172.8387612334943
 30
0.0
 40
1.80008372177394
100
AcDbArc
 50
179.9989871523294
 51
329.1938001501467
  0
LINE
  5
19AC6
330
1F
100
AcDbEntity
  8
10000_FRONT
  6
Continuous
 62
     7
370
    13
100
AcDbLine
 10
-26.58859781317455
 20
172.8387930545221
 30
0.0
 11
-26.58858456987867
 21
173.587953054405
 31
0.0
  0
LINE
  5
19AC7
330
1F
100
AcDbEntity
  8
10000_FRONT
  6
Continuous
 62
     7
370
    13
100
AcDbLine
 10
-16.03890457022538
 20
174.9452738403476
 30
0.0
 11
-16.03890457022538
 21
174.7192738403477
 31
0.0
  0
LINE
  5
19AC8
330
1F
100
AcDbEntity
  8
10000_FRONT
  6
Continuous
 62
     7
370
    13
100
AcDbLine
 10
-16.03890457022538
 20
172.4565538403477
 30
0.0
 11
-16.03890457022538
 21
174.7192538403476
 31
0.0
  0
LINE
  5
19AC9
330
1F
100
AcDbEntity
  8
10000_FRONT
  6
Continuous
 62
     7
370
    13
100
AcDbLine
 10
-16.03891457022541
 20
172.4565238403476
 30
0.0
 11
-16.03891457022541
 21
172.1065238403476
 31
0.0
  0
LINE
  5
19ACA
330
1F
100
AcDbEntity
  8
10000_FRONT
  6
Continuous
 62
     7
370
    13
100
AcDbLine
 10
-16.03542457022536
 20
171.9168638403477
 30
0.0
 11
-16.03891457022541
 21
172.1065238403476
 31
0.0
  0
LINE
  5
19ACB
330
1F
100
AcDbEntity
  8
10000_FRONT
  6
Continuous
 62
     7
370
    13
100
AcDbLine
 10
-12.6892245702254
 20
172.8387338403476
 30
0.0
 11
-12.6892245702254
 21
173.5878938403476
 31
0.0
  0
ARC
  5
19ACC
330
1F
100
AcDbEntity
  8
10000_FRONT
  6
Continuous
 62
     7
370
    13
100
AcDbCircle
 10
-14.48930829199935
 20
172.8387338403476
 30
0.0
 40
1.80008372177394
100
AcDbArc
 50
210.8051870021834
 51
0.0
  0
ARC
  5
19ACD
330
1F
100
AcDbEntity
  8
10000_FRONT
  6
Continuous
 62
     7
370
    13
100
AcDbCircle
 10
-14.63496077750369
 20
173.5944837086271
 30
0.0
 40
1.945747366612009
100
AcDbArc
 50
359.8059499561717
 51
136.0343581547405
  0
ARC
  5
19ACE
330
1F
100
AcDbEntity
  8
10000_FRONT
  6
Continuous
 62
     7
370
    13
100
AcDbCircle
 10
-17.43614295689542
 20
173.5779778733382
 30
0.0
 40
1.95246709481784
100
AcDbArc
 50
44.45039238767095
 51
179.7072738060804
  0
ARC
  5
19ACF
330
1F
100
AcDbEntity
  8
10000_FRONT
  6
Continuous
 62
     7
370
    13
100
AcDbCircle
 10
-17.58851409168193
 20
172.8387612334943
 30
0.0
 40
1.80008372177394
100
AcDbArc
 50
179.9989871523294
 51
329.1938001501467
  0
LINE
  5
19AD0
330
1F
100
AcDbEntity
  8
10000_FRONT
  6
Continuous
 62
     7
370
    13
100
AcDbLine
 10
-19.38859781317461
 20
172.8387930545221
 30
0.0
 11
-19.38858456987873
 21
173.587953054405
 31
0.0
  0
LINE
  5
19AD1
330
1F
100
AcDbEntity
  8
10000_FRONT
  6
Continuous
 62
     7
370
    13
100
AcDbLine
 10
-12.18859781317457
 20
172.8387930545221
 30
0.0
 11
-12.18858456987868
 21
173.587953054405
 31
0.0
  0
ARC
  5
19AD2
330
1F
100
AcDbEntity
  8
10000_FRONT
  6
Continuous
 62
     7
370
    13
100
AcDbCircle
 10
-10.38851409168188
 20
172.8387612334943
 30
0.0
 40
1.80008372177394
100
AcDbArc
 50
179.9989871523294
 51
329.1938001501467
  0
ARC
  5
19AD3
330
1F
100
AcDbEntity
  8
10000_FRONT
  6
Continuous
 62
     7
370
    13
100
AcDbCircle
 10
-10.23614295689537
 20
173.5779778733382
 30
0.0
 40
1.95246709481784
100
AcDbArc
 50
44.45039238767095
 51
179.7072738060804
  0
ARC
  5
19AD4
330
1F
100
AcDbEntity
  8
10000_FRONT
  6
Continuous
 62
     7
370
    13
100
AcDbCircle
 10
-7.434960777503647
 20
173.5944837086271
 30
0.0
 40
1.945747366612009
100
AcDbArc
 50
359.8059499561717
 51
136.0343581547405
  0
ARC
  5
19AD5
330
1F
100
AcDbEntity
  8
10000_FRONT
  6
Continuous
 62
     7
370
    13
100
AcDbCircle
 10
-7.289308291999303
 20
172.8387338403476
 30
0.0
 40
1.80008372177394
100
AcDbArc
 50
210.8051870021834
 51
0.0
  0
LINE
  5
19AD6
330
1F
100
AcDbEntity
  8
10000_FRONT
  6
Continuous
 62
     7
370
    13
100
AcDbLine
 10
-20.0389145702253
 20
176.3378938403476
 30
0.0
 11
-23.08891457022531
 21
176.3378938403476
 31
0.0
  0
LINE
  5
19AD7
330
1F
100
AcDbEntity
  8
10000_FRONT
  6
Continuous
 62
     7
370
    13
100
AcDbLine
 10
-23.08891457022531
 20
176.3378938403476
 30
0.0
 11
-23.08891457022531
 21
179.9776438403475
 31
0.0
  0
LINE
  5
19AD8
330
1F
100
AcDbEntity
  8
10000_FRONT
  6
Continuous
 62
     7
370
    13
100
AcDbLine
 10
-23.38891457022532
 20
176.3378938403476
 30
0.0
 11
-26.43891457022528
 21
176.3378938403476
 31
0.0
  0
LINE
  5
19AD9
330
1F
100
AcDbEntity
  8
10000_FRONT
  6
Continuous
 62
     7
370
    13
100
AcDbLine
 10
-23.38891457022532
 20
179.9776438403475
 30
0.0
 11
-23.38891457022532
 21
176.3378938403476
 31
0.0
  0
LINE
  5
19ADA
330
1F
100
AcDbEntity
  8
10000_FRONT
  6
Continuous
 62
     7
370
    13
100
AcDbLine
 10
-26.43891457022528
 20
176.3378938403476
 30
0.0
 11
-26.43891457022528
 21
179.9776438403475
 31
0.0
  0
LINE
  5
19ADB
330
1F
100
AcDbEntity
  8
10000_FRONT
  6
Continuous
 62
     7
370
    13
100
AcDbLine
 10
-20.0389145702253
 20
179.9776438403475
 30
0.0
 11
-20.0389145702253
 21
176.3378938403476
 31
0.0
  0
LINE
  5
19ADC
330
1F
100
AcDbEntity
  8
10000_FRONT
  6
Continuous
 62
     7
370
    13
100
AcDbLine
 10
-12.83891457022537
 20
176.3378938403476
 30
0.0
 11
-15.88891457022538
 21
176.3378938403476
 31
0.0
  0
LINE
  5
19ADD
330
1F
100
AcDbEntity
  8
10000_FRONT
  6
Continuous
 62
     7
370
    13
100
AcDbLine
 10
-15.88891457022538
 20
176.3378938403476
 30
0.0
 11
-15.88891457022538
 21
179.9776438403475
 31
0.0
  0
LINE
  5
19ADE
330
1F
100
AcDbEntity
  8
10000_FRONT
  6
Continuous
 62
     7
370
    13
100
AcDbLine
 10
-16.18891457022539
 20
176.3378938403476
 30
0.0
 11
-19.23891457022534
 21
176.3378938403476
 31
0.0
  0
LINE
  5
19ADF
330
1F
100
AcDbEntity
  8
10000_FRONT
  6
Continuous
 62
     7
370
    13
100
AcDbLine
 10
-16.18891457022539
 20
179.9776438403475
 30
0.0
 11
-16.18891457022539
 21
176.3378938403476
 31
0.0
  0
LINE
  5
19AE0
330
1F
100
AcDbEntity
  8
10000_FRONT
  6
Continuous
 62
     7
370
    13
100
AcDbLine
 10
-19.23891457022534
 20
176.3378938403476
 30
0.0
 11
-19.23891457022534
 21
179.9776438403475
 31
0.0
  0
LINE
  5
19AE1
330
1F
100
AcDbEntity
  8
10000_FRONT
  6
Continuous
 62
     7
370
    13
100
AcDbLine
 10
-12.83891457022537
 20
179.9776438403475
 30
0.0
 11
-12.83891457022537
 21
176.3378938403476
 31
0.0
  0
DIMENSION
  5
19AE2
330
1F
100
AcDbEntity
  8
10100_FRONT_DIM
  6
Continuous
 62
     7
370
    13
100
AcDbDimension
  2
*D8
 10
-34.33854457022534
 20
173.5378938403476
 30
0.0
 11
-34.58954457022534
 21
211.0878938403476
 31
0.0
 70
   160
 71
     5
 42
75.10000000000002
  3
H035
100
AcDbAlignedDimension
 13
-28.63865457022533
 23
248.6378938403476
 33
0.0
 14
-28.63865457022533
 24
173.5378938403476
 34
0.0
 50
90.0
100
AcDbRotatedDimension
1001
ACAD
1000
DSTYLE
1002
{
1070
    40
1040
1.0
1070
    77
1070
     0
1070
   147
1040
1.5
1070
   272
1070
     0
1070
   279
1070
     1
1070
   288
1070
     1
1002
}
  0
DIMENSION
  5
19AE3
330
1F
100
AcDbEntity
  8
10100_FRONT_DIM
  6
Continuous
 62
     7
370
    13
100
AcDbDimension
  2
*D9
 10
-24.79201095726264
 20
268.5053141848679
 30
0.0
 11
-38.71829480201899
 21
268.3857055730981
 31
0.0
 70
   160
 71
     5
 42
2.499989999999995
  3
H035
100
AcDbAlignedDimension
 13
-27.29200095726263
 23
262.6228541848679
 33
0.0
 14
-24.79201095726264
 24
260.6228541848679
 34
0.0
100
AcDbRotatedDimension
1001
ACAD
1000
DSTYLE
1002
{
1070
    40
1040
1.0
1070
    77
1070
     0
1070
   147
1040
1.5
1070
   271
1070
     1
1070
   272
1070
     0
1070
   279
1070
     1
1070
   288
1070
     1
1002
}
  0
DIMENSION
  5
19AE4
330
1F
100
AcDbEntity
  8
10100_FRONT_DIM
  6
Continuous
 62
     7
370
    13
100
AcDbDimension
  2
*D10
 10
-17.59207559215342
 20
273.4970641848144
 30
0.0
 11
-21.19206555107519
 21
273.3857467843222
 31
0.0
 70
   160
 71
     5
 42
7.199999999909246
  3
H035
100
AcDbAlignedDimension
 13
-24.79201095726264
 23
260.6228541848679
 33
0.0
 14
-17.59201095726264
 24
260.6228541848679
 34
0.0
 50
0.0002876531026717
100
AcDbRotatedDimension
1001
ACAD
1000
DSTYLE
1002
{
1070
   172
1070
     0
1070
   282
1070
     0
1070
   281
1070
     0
1070
    76
1070
     0
1070
    40
1040
1.0
1070
    77
1070
     0
1070
   147
1040
1.5
1070
   271
1070
     0
1070
   272
1070
     0
1070
   279
1070
     1
1070
   288
1070
     1
1002
}
  0
DIMENSION
  5
19AE5
330
1F
100
AcDbEntity
  8
10100_FRONT_DIM
  6
Continuous
 62
     7
370
    13
100
AcDbDimension
  2
*D11
 10
-4.792000957262628
 20
280.3649700906993
 30
0.0
 11
-16.04200095726263
 21
280.2608046741542
 31
0.0
 70
   160
 71
     5
 42
22.5
  3
H035
100
AcDbAlignedDimension
 13
-27.29200095726263
 23
262.6228541848679
 33
0.0
 14
-4.792000957262628
 24
262.6228541848679
 34
0.0
100
AcDbRotatedDimension
1001
ACAD
1000
DSTYLE
1002
{
1070
    40
1040
1.0
1070
    77
1070
     0
1070
   147
1040
1.5
1070
   271
1070
     1
1070
   272
1070
     0
1070
   279
1070
     1
1070
   288
1070
     1
1002
}
  0
LINE
  5
19AE6
330
1F
100
AcDbEntity
  8
10000_FRONT
  6
Continuous
 62
     7
370
    50
100
AcDbLine
 10
-27.2889145702253
 20
183.7878938403476
 30
0.0
 11
-27.2889145702253
 21
238.3378938403477
 31
0.0
  0
LINE
  5
19AE7
330
1F
100
AcDbEntity
  8
10000_FRONT
  6
Continuous
 62
     7
370
    50
100
AcDbLine
 10
-4.788914570225299
 20
238.3378938403477
 30
0.0
 11
-4.788914570225299
 21
183.8378938403476
 31
0.0
  0
LINE
  5
19AE8
330
1F
100
AcDbEntity
  8
10000_FRONT
  6
Continuous
 62
     7
370
    13
100
AcDbLine
 10
-7.738914570225347
 20
237.7378938403477
 30
0.0
 11
-6.788914570225298
 21
237.7378938403477
 31
0.0
  0
LINE
  5
19AE9
330
1F
100
AcDbEntity
  8
10000_FRONT
  6
Continuous
 62
     7
370
    13
100
AcDbLine
 10
-6.788914570225298
 20
233.7378938403477
 30
0.0
 11
-7.738914570225347
 21
233.7378938403477
 31
0.0
  0
LINE
  5
19AEA
330
1F
100
AcDbEntity
  8
10000_FRONT
  6
Continuous
 62
     7
370
    13
100
AcDbLine
 10
-7.738914570225347
 20
233.7378938403477
 30
0.0
 11
-7.738914570225347
 21
237.7378938403477
 31
0.0
  0
ARC
  5
19AEB
330
1F
100
AcDbEntity
  8
10000_FRONT
  6
Continuous
 62
     7
370
    30
100
AcDbCircle
 10
-6.288914570225298
 20
169.4878938403476
 30
0.0
 40
1.5
100
AcDbArc
 50
270.0
 51
297.8181400000025
  0
LINE
  5
19AEC
330
1F
100
AcDbEntity
  8
10000_FRONT
  6
Continuous
 62
     7
370
    13
100
AcDbLine
 10
-5.638914570225324
 20
179.9776438403475
 30
0.0
 11
-5.638914570225324
 21
176.3378938403476
 31
0.0
  0
LINE
  5
19AED
330
1F
100
AcDbEntity
  8
10000_FRONT
  6
Continuous
 62
     7
370
    50
100
AcDbLine
 10
-27.2889145702253
 20
169.4878938403476
 30
0.0
 11
-27.2889145702253
 21
183.7878938403476
 31
0.0
  0
LINE
  5
19AEE
330
1F
100
AcDbEntity
  8
10000_FRONT
  6
Continuous
 62
     7
370
    50
100
AcDbLine
 10
-27.2889145702253
 20
169.0878938403476
 30
0.0
 11
-27.2889145702253
 21
169.4879038403477
 31
0.0
  0
LINE
  5
19AEF
330
1F
100
AcDbEntity
  8
10000_FRONT
  6
Continuous
 62
     7
370
    50
100
AcDbLine
 10
-4.788914570225299
 20
169.4879038403477
 30
0.0
 11
-4.788914570225299
 21
169.0878938403476
 31
0.0
  0
LINE
  5
19AF0
330
1F
100
AcDbEntity
  8
10000_FRONT
  6
Continuous
 62
     7
370
    50
100
AcDbLine
 10
-4.788914570225299
 20
183.7878938403476
 30
0.0
 11
-4.788914570225299
 21
169.4878938403476
 31
0.0
  0
LINE
  5
19AF1
330
1F
100
AcDbEntity
  8
10000_FRONT
  6
Continuous
 62
     7
370
    13
100
AcDbLine
 10
-4.788914570225299
 20
183.7878938403476
 30
0.0
 11
-4.788914570225299
 21
183.8378938403476
 31
0.0
  0
LINE
  5
19AF2
330
1F
100
AcDbEntity
  8
10000_FRONT
  6
Continuous
 62
     7
370
    13
100
AcDbLine
 10
-27.2889145702253
 20
183.7878938403475
 30
0.0
 11
-4.788914570225299
 21
183.7878938403476
 31
0.0
  0
LINE
  5
19AF3
330
1F
100
AcDbEntity
  8
10000_FRONT
  6
Continuous
 62
     7
370
    13
100
AcDbLine
 10
-12.0389145702253
 20
176.3378938403476
 30
0.0
 11
-12.0389145702253
 21
179.9776438403475
 31
0.0
  0
LINE
  5
19AF4
330
1F
100
AcDbEntity
  8
10000_FRONT
  6
Continuous
 62
     7
370
    13
100
AcDbLine
 10
-8.988914570225347
 20
179.9776438403475
 30
0.0
 11
-8.988914570225347
 21
176.3378938403476
 31
0.0
  0
LINE
  5
19AF5
330
1F
100
AcDbEntity
  8
10000_FRONT
  6
Continuous
 62
     7
370
    13
100
AcDbLine
 10
-8.988914570225347
 20
176.3378938403476
 30
0.0
 11
-12.0389145702253
 21
176.3378938403476
 31
0.0
  0
LINE
  5
19AF6
330
1F
100
AcDbEntity
  8
10000_FRONT
  6
Continuous
 62
     7
370
    13
100
AcDbLine
 10
-8.688914570225335
 20
176.3378938403476
 30
0.0
 11
-8.688914570225335
 21
179.9776438403475
 31
0.0
  0
LINE
  5
19AF7
330
1F
100
AcDbEntity
  8
10000_FRONT
  6
Continuous
 62
     7
370
    13
100
AcDbLine
 10
-5.638914570225324
 20
176.3378938403476
 30
0.0
 11
-8.688914570225335
 21
176.3378938403476
 31
0.0
  0
LINE
  5
19AF8
330
1F
100
AcDbEntity
  8
10000_FRONT
  6
Continuous
 62
     7
370
    13
100
AcDbLine
 10
-23.28173457022535
 20
182.9878938403476
 30
0.0
 11
-8.796094570225362
 21
182.9878938403476
 31
0.0
  0
LINE
  5
19AF9
330
1F
100
AcDbEntity
  8
10000_FRONT
  6
Continuous
 62
     7
370
    13
100
AcDbLine
 10
-17.73891457022535
 20
182.4678938403476
 30
0.0
 11
-19.43891457022533
 21
182.4678938403476
 31
0.0
  0
LINE
  5
19AFA
330
1F
100
AcDbEntity
  8
10000_FRONT
  6
Continuous
 62
     7
370
    13
100
AcDbLine
 10
-12.63891457022532
 20
182.4678938403476
 30
0.0
 11
-14.33891457022537
 21
182.4678938403476
 31
0.0
  0
ARC
  5
19AFB
330
1F
100
AcDbEntity
  8
10000_FRONT
  6
Continuous
 62
     7
370
    13
100
AcDbCircle
 10
-17.73891457022535
 20
182.2678938403477
 30
0.0
 40
0.2
100
AcDbArc
 50
359.999989999999
 51
90.00000999999937
  0
LINE
  5
19AFC
330
1F
100
AcDbEntity
  8
10000_FRONT
  6
Continuous
 62
     7
370
    13
100
AcDbLine
 10
-17.5389145702253
 20
181.6378938403476
 30
0.0
 11
-17.5389145702253
 21
182.2678938403477
 31
0.0
  0
LINE
  5
19AFD
330
1F
100
AcDbEntity
  8
10000_FRONT
  6
Continuous
 62
     7
370
    13
100
AcDbLine
 10
-14.5389145702253
 20
182.2678938403477
 30
0.0
 11
-14.5389145702253
 21
181.6378938403476
 31
0.0
  0
ARC
  5
19AFE
330
1F
100
AcDbEntity
  8
10000_FRONT
  6
Continuous
 62
     7
370
    13
100
AcDbCircle
 10
-14.33891457022537
 20
182.2678938403477
 30
0.0
 40
0.2
100
AcDbArc
 50
89.99998799999945
 51
180.0000100000009
  0
LINE
  5
19AFF
330
1F
100
AcDbEntity
  8
10000_FRONT
  6
Continuous
 62
     7
370
    13
100
AcDbLine
 10
-12.63891457022532
 20
181.8979638403476
 30
0.0
 11
-12.63891457022532
 21
182.4678938403476
 31
0.0
  0
LINE
  5
19B00
330
1F
100
AcDbEntity
  8
10000_FRONT
  6
Continuous
 62
     7
370
    13
100
AcDbLine
 10
-19.43891457022533
 20
182.4678938403476
 30
0.0
 11
-19.43891457022533
 21
181.8979638403476
 31
0.0
  0
LINE
  5
19B01
330
1F
100
AcDbEntity
  8
10000_FRONT
  6
Continuous
 62
     7
370
    13
100
AcDbLine
 10
-23.88891457022532
 20
181.0645238403477
 30
0.0
 11
-23.88891457022532
 21
183.7878938403476
 31
0.0
  0
LINE
  5
19B02
330
1F
100
AcDbEntity
  8
10000_FRONT
  6
Continuous
 62
     7
370
    13
100
AcDbLine
 10
-18.18891457022533
 20
181.4606738403476
 30
0.0
 11
-18.18891457022533
 21
181.8979638403476
 31
0.0
  0
LINE
  5
19B03
330
1F
100
AcDbEntity
  8
10000_FRONT
  6
Continuous
 62
     7
370
    13
100
AcDbLine
 10
-17.5389145702253
 20
181.6378938403476
 30
0.0
 11
-14.5389145702253
 21
181.6378938403476
 31
0.0
  0
LINE
  5
19B04
330
1F
100
AcDbEntity
  8
10000_FRONT
  6
Continuous
 62
     7
370
    13
100
AcDbLine
 10
-13.88891457022532
 20
181.8979638403476
 30
0.0
 11
-13.88891457022532
 21
181.4606738403476
 31
0.0
  0
LINE
  5
19B05
330
1F
100
AcDbEntity
  8
10000_FRONT
  6
Continuous
 62
     7
370
    13
100
AcDbLine
 10
-8.188914570225335
 20
183.7878938403476
 30
0.0
 11
-8.188914570225335
 21
181.0645238403477
 31
0.0
  0
ARC
  5
19B06
330
1F
100
AcDbEntity
  8
10000_FRONT
  6
Continuous
 62
     7
370
    30
100
AcDbCircle
 10
-25.34729769352992
 20
169.955485204228
 30
0.0
 40
2.126638396753933
100
AcDbArc
 50
204.0769844550509
 51
237.5327401300837
  0
ARC
  5
19B07
330
1F
100
AcDbEntity
  8
10000_FRONT
  6
Continuous
 62
     7
370
    30
100
AcDbCircle
 10
-25.7889145702253
 20
169.4878938403476
 30
0.0
 40
1.5
100
AcDbArc
 50
242.1818599999975
 51
270.0
  0
LINE
  5
19B08
330
1F
100
AcDbEntity
  8
10000_FRONT
  6
Continuous
 62
     7
370
    13
100
AcDbLine
 10
-5.48922457022536
 20
172.8387338403476
 30
0.0
 11
-5.48922457022536
 21
173.5878938403476
 31
0.0
  0
LINE
  5
19B09
330
1F
100
AcDbEntity
  8
10000_FRONT
  6
Continuous
 62
     7
370
    13
100
AcDbLine
 10
-8.835424570225312
 20
171.9168638403477
 30
0.0
 11
-8.838914570225368
 21
172.1065238403476
 31
0.0
  0
LINE
  5
19B0A
330
1F
100
AcDbEntity
  8
10000_FRONT
  6
Continuous
 62
     7
370
    13
100
AcDbLine
 10
-8.488914570225347
 20
180.7598938403477
 30
0.0
 11
-23.58891457022537
 21
180.7598938403477
 31
0.0
  0
LINE
  5
19B0B
330
1F
100
AcDbEntity
  8
10000_FRONT
  6
Continuous
 62
     7
370
    13
100
AcDbLine
 10
-8.688914570225335
 20
179.9776438403475
 30
0.0
 11
-5.638914570225324
 21
179.9776438403475
 31
0.0
  0
LINE
  5
19B0C
330
1F
100
AcDbEntity
  8
10000_FRONT
  6
Continuous
 62
     7
370
    13
100
AcDbLine
 10
-12.0389145702253
 20
179.9776438403475
 30
0.0
 11
-8.988914570225347
 21
179.9776438403475
 31
0.0
  0
LINE
  5
19B0D
330
1F
100
AcDbEntity
  8
10000_FRONT
  6
Continuous
 62
     7
370
    13
100
AcDbLine
 10
-15.88891457022532
 20
179.9776438403475
 30
0.0
 11
-12.83891457022537
 21
179.9776438403475
 31
0.0
  0
LINE
  5
19B0E
330
1F
100
AcDbEntity
  8
10000_FRONT
  6
Continuous
 62
     7
370
    13
100
AcDbLine
 10
-19.23891457022534
 20
179.9776438403475
 30
0.0
 11
-16.18891457022533
 21
179.9776438403475
 31
0.0
  0
LINE
  5
19B0F
330
1F
100
AcDbEntity
  8
10000_FRONT
  6
Continuous
 62
     7
370
    13
100
AcDbLine
 10
-23.08891457022538
 20
179.9776438403475
 30
0.0
 11
-20.0389145702253
 21
179.9776438403475
 31
0.0
  0
LINE
  5
19B10
330
1F
100
AcDbEntity
  8
10000_FRONT
  6
Continuous
 62
     7
370
    13
100
AcDbLine
 10
-26.43891457022534
 20
179.9776438403475
 30
0.0
 11
-23.38891457022532
 21
179.9776438403475
 31
0.0
  0
LINE
  5
19B11
330
1F
100
AcDbEntity
  8
10000_FRONT
  6
Continuous
 62
     7
370
    13
100
AcDbLine
 10
-8.838914570225368
 20
172.4565238403476
 30
0.0
 11
-8.838914570225368
 21
172.1065238403476
 31
0.0
  0
LINE
  5
19B12
330
1F
100
AcDbEntity
  8
10000_FRONT
  6
Continuous
 62
     7
370
    13
100
AcDbLine
 10
-8.838904570225338
 20
172.4565538403477
 30
0.0
 11
-8.838904570225338
 21
174.7192538403476
 31
0.0
  0
LINE
  5
19B13
330
1F
100
AcDbEntity
  8
10000_FRONT
  6
Continuous
 62
     7
370
    13
100
AcDbLine
 10
-8.838904570225338
 20
174.9452738403476
 30
0.0
 11
-8.838904570225338
 21
174.7192738403477
 31
0.0
  0
LINE
  5
19B14
330
1F
100
AcDbEntity
  8
10000_FRONT
  6
Continuous
 62
     7
370
    13
100
AcDbLine
 10
-18.0389145702253
 20
182.9878938403476
 30
0.0
 11
-18.0389145702253
 21
183.7878938403476
 31
0.0
  0
LINE
  5
19B15
330
1F
100
AcDbEntity
  8
10000_FRONT
  6
Continuous
 62
     7
370
    13
100
AcDbLine
 10
-14.0389145702253
 20
183.7878938403476
 30
0.0
 11
-14.0389145702253
 21
182.9878938403476
 31
0.0
  0
LINE
  5
19B16
330
1F
100
AcDbEntity
  8
10000_FRONT
  6
Continuous
 62
     7
370
    13
100
AcDbLine
 10
-20.03566457022532
 20
183.7878938403476
 30
0.0
 11
-20.03566457022532
 21
182.9878938403476
 31
0.0
  0
LINE
  5
19B17
330
1F
100
AcDbEntity
  8
10000_FRONT
  6
Continuous
 62
     7
370
    13
100
AcDbLine
 10
-23.13891457022533
 20
183.7878938403476
 30
0.0
 11
-23.28173457022535
 21
182.9878938403476
 31
0.0
  0
LINE
  5
19B18
330
1F
100
AcDbEntity
  8
10000_FRONT
  6
Continuous
 62
     7
370
    13
100
AcDbLine
 10
-8.796094570225362
 20
182.9878938403476
 30
0.0
 11
-8.938914570225335
 21
183.7878938403476
 31
0.0
  0
LINE
  5
19B19
330
1F
100
AcDbEntity
  8
10000_FRONT
  6
Continuous
 62
     7
370
    13
100
AcDbLine
 10
-13.88891457022532
 20
181.8979638403476
 30
0.0
 11
-12.63891457022532
 21
181.8979638403476
 31
0.0
  0
LINE
  5
19B1A
330
1F
100
AcDbEntity
  8
10000_FRONT
  6
Continuous
 62
     7
370
    13
100
AcDbLine
 10
-19.43891457022533
 20
181.8979638403476
 30
0.0
 11
-18.18891457022533
 21
181.8979638403476
 31
0.0
  0
LINE
  5
19B1B
330
1F
100
AcDbEntity
  8
10000_FRONT
  6
Continuous
 62
     7
370
    13
100
AcDbLine
 10
-13.88891457022532
 20
181.4606738403476
 30
0.0
 11
-18.18891457022533
 21
181.4606738403476
 31
0.0
  0
LINE
  5
19B1C
330
1F
100
AcDbEntity
  8
10000_FRONT
  6
Continuous
 62
     7
370
    13
100
AcDbLine
 10
-12.0421545702253
 20
183.7878938403476
 30
0.0
 11
-12.0421545702253
 21
182.9878938403476
 31
0.0
  0
LINE
  5
19B1D
330
1F
100
AcDbEntity
  8
10000_FRONT
  6
Continuous
 62
     7
370
    50
100
AcDbLine
 10
-25.7889145702253
 20
254.1878938403477
 30
0.0
 11
-6.288914570225298
 21
254.1878938403477
 31
0.0
  0
ARC
  5
19B1E
330
1F
100
AcDbEntity
  8
10000_FRONT
  6
Continuous
 62
     7
370
    50
100
AcDbCircle
 10
-25.34729769352941
 20
252.2203024764674
 30
0.0
 40
2.126638396754354
100
AcDbArc
 50
122.4672598699286
 51
155.9230155449633
  0
ARC
  5
19B1F
330
1F
100
AcDbEntity
  8
10000_FRONT
  6
Continuous
 62
     7
370
    50
100
AcDbCircle
 10
-25.7889145702253
 20
252.6878938403477
 30
0.0
 40
1.5
100
AcDbArc
 50
89.99999499999949
 51
117.8181400000025
  0
LINE
  5
19B20
330
1F
100
AcDbEntity
  8
10000_FRONT
  6
Continuous
 62
     7
370
    50
100
AcDbLine
 10
-4.788913570225301
 20
262.5878938403476
 30
0.0
 11
-4.788914570225299
 21
238.3878938403476
 31
0.0
  0
LINE
  5
19B21
330
1F
100
AcDbEntity
  8
10000_FRONT
  6
Continuous
 62
     7
370
    13
100
AcDbLine
 10
-4.788914570225299
 20
238.3878938403476
 30
0.0
 11
-4.788914570225299
 21
238.3378938403477
 31
0.0
  0
LINE
  5
19B22
330
1F
100
AcDbEntity
  8
10000_FRONT
  6
Continuous
 62
     7
370
    50
100
AcDbLine
 10
-4.788914570225299
 20
253.0878938403477
 30
0.0
 11
-4.788914570225299
 21
252.6878938403477
 31
0.0
  0
LINE
  5
19B23
330
1F
100
AcDbEntity
  8
10000_FRONT
  6
Continuous
 62
     7
370
    50
100
AcDbLine
 10
-27.2889145702253
 20
252.6878838403477
 30
0.0
 11
-27.2889145702253
 21
253.0878938403477
 31
0.0
  0
LINE
  5
19B24
330
1F
100
AcDbEntity
  8
10000_FRONT
  6
Continuous
 62
     7
370
    50
100
AcDbLine
 10
-27.2889145702253
 20
238.3878938403476
 30
0.0
 11
-27.2889145702253
 21
252.8878888403477
 31
0.0
  0
LINE
  5
19B25
330
1F
100
AcDbEntity
  8
10000_FRONT
  6
Continuous
 62
     7
370
    13
100
AcDbLine
 10
-27.2889145702253
 20
238.3878938403476
 30
0.0
 11
-27.2889145702253
 21
238.3378938403477
 31
0.0
  0
ARC
  5
19B26
330
1F
100
AcDbEntity
  8
10000_FRONT
  6
Continuous
 62
     7
370
    30
100
AcDbCircle
 10
-6.730531446921187
 20
252.2203024764676
 30
0.0
 40
2.126638396754219
100
AcDbArc
 50
24.07698445503664
 51
57.53274013007064
  0
ARC
  5
19B27
330
1F
100
AcDbEntity
  8
10000_FRONT
  6
Continuous
 62
     7
370
    50
100
AcDbCircle
 10
-6.288914570225298
 20
252.6878938403477
 30
0.0
 40
1.5
100
AcDbArc
 50
62.18186099999657
 51
90.00000500000046
  0
LINE
  5
19B28
330
1F
100
AcDbEntity
  8
10000_FRONT
  6
Continuous
 62
     7
370
    13
100
AcDbLine
 10
-6.038914570225298
 20
187.0878938403476
 30
0.0
 11
-26.0389145702253
 21
187.0878938403476
 31
0.0
  0
LINE
  5
19B29
330
1F
100
AcDbEntity
  8
10000_FRONT
  6
Continuous
 62
     7
370
    13
100
AcDbLine
 10
-26.0389145702253
 20
194.0878938403476
 30
0.0
 11
-6.038914570225298
 21
194.0878938403476
 31
0.0
  0
LINE
  5
19B2A
330
1F
100
AcDbEntity
  8
10000_FRONT
  6
Continuous
 62
     7
370
    13
100
AcDbLine
 10
-6.038914570225298
 20
194.0878938403476
 30
0.0
 11
-6.038914570225298
 21
187.0878938403476
 31
0.0
  0
LINE
  5
19B2B
330
1F
100
AcDbEntity
  8
10000_FRONT
  6
Continuous
 62
     7
370
    13
100
AcDbLine
 10
-26.0389145702253
 20
187.0878938403476
 30
0.0
 11
-26.0389145702253
 21
194.0878938403476
 31
0.0
  0
ARC
  5
19B2C
330
1F
100
AcDbEntity
  8
10000_FRONT
  6
Continuous
 62
     7
370
    30
100
AcDbCircle
 10
-6.165663633794622
 20
169.4678347084904
 30
0.0
 40
1.428213235943581
100
AcDbArc
 50
293.8175539611417
 51
344.5721142473092
  0
LINE
  5
19B2D
330
1F
100
AcDbEntity
  8
10000_FRONT
  6
Continuous
 62
     7
370
    13
100
AcDbLine
 10
-8.838904570225338
 20
165.4452738403475
 30
0.0
 11
-8.838904570225338
 21
165.2192738403476
 31
0.0
  0
LINE
  5
19B2E
330
1F
100
AcDbEntity
  8
10000_FRONT
  6
Continuous
 62
     7
370
    13
100
AcDbLine
 10
-8.838904570225338
 20
162.9565538403476
 30
0.0
 11
-8.838904570225338
 21
165.2192538403476
 31
0.0
  0
LINE
  5
19B2F
330
1F
100
AcDbEntity
  8
10000_FRONT
  6
Continuous
 62
     7
370
    13
100
AcDbLine
 10
-8.838914570225368
 20
162.9565238403476
 30
0.0
 11
-8.838914570225368
 21
162.6065238403475
 31
0.0
  0
LINE
  5
19B30
330
1F
100
AcDbEntity
  8
10000_FRONT
  6
Continuous
 62
     7
370
    13
100
AcDbLine
 10
-8.835424570225312
 20
162.4168638403475
 30
0.0
 11
-8.838914570225368
 21
162.6065238403475
 31
0.0
  0
LINE
  5
19B31
330
1F
100
AcDbEntity
  8
10000_FRONT
  6
Continuous
 62
     7
370
    13
100
AcDbLine
 10
-5.48922457022536
 20
163.3387338403476
 30
0.0
 11
-5.48922457022536
 21
164.0878938403475
 31
0.0
  0
ARC
  5
19B32
330
1F
100
AcDbEntity
  8
10000_FRONT
  6
Continuous
 62
     7
370
    13
100
AcDbCircle
 10
-7.289308291999303
 20
163.3387338403476
 30
0.0
 40
1.80008372177394
100
AcDbArc
 50
210.8051870021834
 51
0.0
  0
ARC
  5
19B33
330
1F
100
AcDbEntity
  8
10000_FRONT
  6
Continuous
 62
     7
370
    13
100
AcDbCircle
 10
-7.434960777503647
 20
164.0944837086269
 30
0.0
 40
1.945747366612009
100
AcDbArc
 50
359.8059499561717
 51
136.0343581547405
  0
ARC
  5
19B34
330
1F
100
AcDbEntity
  8
10000_FRONT
  6
Continuous
 62
     7
370
    13
100
AcDbCircle
 10
-10.23614295689537
 20
164.0779778733381
 30
0.0
 40
1.95246709481784
100
AcDbArc
 50
44.45039238767095
 51
179.7072738060804
  0
ARC
  5
19B35
330
1F
100
AcDbEntity
  8
10000_FRONT
  6
Continuous
 62
     7
370
    13
100
AcDbCircle
 10
-10.38851409168188
 20
163.3387612334941
 30
0.0
 40
1.80008372177394
100
AcDbArc
 50
179.9989871523294
 51
329.1938001501467
  0
LINE
  5
19B36
330
1F
100
AcDbEntity
  8
10000_FRONT
  6
Continuous
 62
     7
370
    13
100
AcDbLine
 10
-12.18859781317457
 20
163.338793054522
 30
0.0
 11
-12.18858456987868
 21
164.0879530544049
 31
0.0
  0
LINE
  5
19B37
330
1F
100
AcDbEntity
  8
10000_FRONT
  6
Continuous
 62
     7
370
    13
100
AcDbLine
 10
-19.38859781317461
 20
163.338793054522
 30
0.0
 11
-19.38858456987873
 21
164.0879530544049
 31
0.0
  0
ARC
  5
19B38
330
1F
100
AcDbEntity
  8
10000_FRONT
  6
Continuous
 62
     7
370
    13
100
AcDbCircle
 10
-17.58851409168193
 20
163.3387612334941
 30
0.0
 40
1.80008372177394
100
AcDbArc
 50
179.9989871523294
 51
329.1938001501467
  0
ARC
  5
19B39
330
1F
100
AcDbEntity
  8
10000_FRONT
  6
Continuous
 62
     7
370
    13
100
AcDbCircle
 10
-17.43614295689542
 20
164.0779778733381
 30
0.0
 40
1.95246709481784
100
AcDbArc
 50
44.45039238767095
 51
179.7072738060804
  0
ARC
  5
19B3A
330
1F
100
AcDbEntity
  8
10000_FRONT
  6
Continuous
 62
     7
370
    13
100
AcDbCircle
 10
-14.63496077750369
 20
164.0944837086269
 30
0.0
 40
1.945747366612009
100
AcDbArc
 50
359.8059499561717
 51
136.0343581547405
  0
ARC
  5
19B3B
330
1F
100
AcDbEntity
  8
10000_FRONT
  6
Continuous
 62
     7
370
    13
100
AcDbCircle
 10
-14.48930829199935
 20
163.3387338403476
 30
0.0
 40
1.80008372177394
100
AcDbArc
 50
210.8051870021834
 51
0.0
  0
LINE
  5
19B3C
330
1F
100
AcDbEntity
  8
10000_FRONT
  6
Continuous
 62
     7
370
    13
100
AcDbLine
 10
-12.6892245702254
 20
163.3387338403476
 30
0.0
 11
-12.6892245702254
 21
164.0878938403475
 31
0.0
  0
LINE
  5
19B3D
330
1F
100
AcDbEntity
  8
10000_FRONT
  6
Continuous
 62
     7
370
    13
100
AcDbLine
 10
-16.03542457022536
 20
162.4168638403475
 30
0.0
 11
-16.03891457022541
 21
162.6065238403475
 31
0.0
  0
LINE
  5
19B3E
330
1F
100
AcDbEntity
  8
10000_FRONT
  6
Continuous
 62
     7
370
    13
100
AcDbLine
 10
-16.03891457022541
 20
162.9565238403476
 30
0.0
 11
-16.03891457022541
 21
162.6065238403475
 31
0.0
  0
LINE
  5
19B3F
330
1F
100
AcDbEntity
  8
10000_FRONT
  6
Continuous
 62
     7
370
    13
100
AcDbLine
 10
-16.03890457022538
 20
162.9565538403476
 30
0.0
 11
-16.03890457022538
 21
165.2192538403476
 31
0.0
  0
LINE
  5
19B40
330
1F
100
AcDbEntity
  8
10000_FRONT
  6
Continuous
 62
     7
370
    13
100
AcDbLine
 10
-16.03890457022538
 20
165.4452738403475
 30
0.0
 11
-16.03890457022538
 21
165.2192738403476
 31
0.0
  0
LINE
  5
19B41
330
1F
100
AcDbEntity
  8
10000_FRONT
  6
Continuous
 62
     7
370
    13
100
AcDbLine
 10
-26.58859781317455
 20
163.338793054522
 30
0.0
 11
-26.58858456987867
 21
164.0879530544049
 31
0.0
  0
ARC
  5
19B42
330
1F
100
AcDbEntity
  8
10000_FRONT
  6
Continuous
 62
     7
370
    13
100
AcDbCircle
 10
-24.78851409168186
 20
163.3387612334941
 30
0.0
 40
1.80008372177394
100
AcDbArc
 50
179.9989871523294
 51
329.1938001501467
  0
ARC
  5
19B43
330
1F
100
AcDbEntity
  8
10000_FRONT
  6
Continuous
 62
     7
370
    13
100
AcDbCircle
 10
-24.63614295689537
 20
164.0779778733381
 30
0.0
 40
1.95246709481784
100
AcDbArc
 50
44.45039238767095
 51
179.7072738060804
  0
ARC
  5
19B44
330
1F
100
AcDbEntity
  8
10000_FRONT
  6
Continuous
 62
     7
370
    13
100
AcDbCircle
 10
-21.83496077750362
 20
164.0944837086269
 30
0.0
 40
1.945747366612009
100
AcDbArc
 50
359.8059499561717
 51
136.0343581547405
  0
ARC
  5
19B45
330
1F
100
AcDbEntity
  8
10000_FRONT
  6
Continuous
 62
     7
370
    13
100
AcDbCircle
 10
-21.68930829199928
 20
163.3387338403476
 30
0.0
 40
1.80008372177394
100
AcDbArc
 50
210.8051870021834
 51
0.0
  0
LINE
  5
19B46
330
1F
100
AcDbEntity
  8
10000_FRONT
  6
Continuous
 62
     7
370
    13
100
AcDbLine
 10
-19.88922457022534
 20
163.3387338403476
 30
0.0
 11
-19.88922457022534
 21
164.0878938403475
 31
0.0
  0
LINE
  5
19B47
330
1F
100
AcDbEntity
  8
10000_FRONT
  6
Continuous
 62
     7
370
    13
100
AcDbLine
 10
-23.23542457022529
 20
162.4168638403475
 30
0.0
 11
-23.23891457022535
 21
162.6065238403475
 31
0.0
  0
LINE
  5
19B48
330
1F
100
AcDbEntity
  8
10000_FRONT
  6
Continuous
 62
     7
370
    13
100
AcDbLine
 10
-23.23891457022535
 20
162.9565238403476
 30
0.0
 11
-23.23891457022535
 21
162.6065238403475
 31
0.0
  0
LINE
  5
19B49
330
1F
100
AcDbEntity
  8
10000_FRONT
  6
Continuous
 62
     7
370
    13
100
AcDbLine
 10
-23.23890457022532
 20
162.9565538403476
 30
0.0
 11
-23.23890457022532
 21
165.2192538403476
 31
0.0
  0
LINE
  5
19B4A
330
1F
100
AcDbEntity
  8
10000_FRONT
  6
Continuous
 62
     7
370
    13
100
AcDbLine
 10
-23.23890457022532
 20
165.4452738403475
 30
0.0
 11
-23.23890457022532
 21
165.2192738403476
 31
0.0
  0
LINE
  5
19B4C
330
1F
100
AcDbEntity
  8
10000_FRONT
  6
Continuous
 62
     7
370
    13
100
AcDbLine
 10
-6.788914570225298
 20
237.7378938403477
 30
0.0
 11
-6.788914570225298
 21
233.7378938403477
 31
0.0
  0
LINE
  5
19D7F
330
1F
100
AcDbEntity
  8
11000_Left
  6
Continuous
 62
     7
370
    50
100
AcDbLine
 10
58.48373401665487
 20
227.1878938403476
 30
0.0
 11
58.48373401665487
 21
203.1878938403476
 31
0.0
  0
LINE
  5
1A468
330
1F
100
AcDbEntity
  8
10000_FRONT
  6
Continuous
 62
     7
370
     9
100
AcDbLine
 10
-8.638910570225164
 20
230.4278938403477
 30
0.0
 11
-8.638910570225164
 21
219.4563038403476
 31
0.0
  0
ARC
  5
1A469
330
1F
100
AcDbEntity
  8
10000_FRONT
  6
Continuous
 62
     7
370
     9
100
AcDbCircle
 10
-9.2389105702253
 20
219.4563038403476
 30
0.0
 40
0.6
100
AcDbArc
 50
293.7262299999986
 51
0.0
  0
ARC
  5
1A46A
330
1F
100
AcDbEntity
  8
10000_FRONT
  6
Continuous
 62
     7
370
     9
100
AcDbCircle
 10
-16.0389145702253
 20
234.9278938403477
 30
0.0
 40
17.5
100
AcDbArc
 50
246.2737700000015
 51
293.7262299999986
  0
ARC
  5
1A46B
330
1F
100
AcDbEntity
  8
10000_FRONT
  6
Continuous
 62
     7
370
     9
100
AcDbCircle
 10
-22.83891457022514
 20
219.4563038403476
 30
0.0
 40
0.6
100
AcDbArc
 50
180.0
 51
246.2737700000015
  0
LINE
  5
1A46C
330
1F
100
AcDbEntity
  8
10000_FRONT
  6
Continuous
 62
     7
370
     9
100
AcDbLine
 10
-23.43891457022516
 20
219.4563038403476
 30
0.0
 11
-23.43891457022516
 21
230.4278938403477
 31
0.0
  0
LINE
  5
1A46D
330
1F
100
AcDbEntity
  8
10000_FRONT
  6
Continuous
 62
     7
370
     9
100
AcDbLine
 10
-23.43891457022516
 20
230.4278938403477
 30
0.0
 11
-8.638910570225164
 21
230.4278938403477
 31
0.0
  0
LINE
  5
1A46E
330
1F
100
AcDbEntity
  8
10000_FRONT
  6
Continuous
 62
     7
370
     9
100
AcDbLine
 10
-15.93891457022516
 20
205.8955938403477
 30
0.0
 11
-15.73891457022535
 21
205.8955938403477
 31
0.0
  0
LINE
  5
1A46F
330
1F
100
AcDbEntity
  8
10000_FRONT
  6
Continuous
 62
     7
370
     9
100
AcDbLine
 10
-16.54185557022532
 20
206.4955838403477
 30
0.0
 11
-16.54283657022517
 21
206.6955838403476
 31
0.0
  0
LINE
  5
1A470
330
1F
100
AcDbEntity
  8
10000_FRONT
  6
Continuous
 62
     7
370
     9
100
AcDbLine
 10
-24.49479757022516
 20
206.7688538403477
 30
0.0
 11
-24.48009157022517
 21
206.9683138403477
 31
0.0
  0
LINE
  5
1A471
330
1F
100
AcDbEntity
  8
10000_FRONT
  6
Continuous
 62
     7
370
     9
100
AcDbLine
 10
-25.13891457022515
 20
206.1704738403477
 30
0.0
 11
-25.33891457022515
 21
206.1704738403477
 31
0.0
  0
LINE
  5
1A472
330
1F
100
AcDbEntity
  8
10000_FRONT
  6
Continuous
 62
     7
370
     9
100
AcDbLine
 10
-25.13891457022515
 20
202.5128238403476
 30
0.0
 11
-25.33891457022515
 21
202.5128238403476
 31
0.0
  0
LINE
  5
1A473
330
1F
100
AcDbEntity
  8
10000_FRONT
  6
Continuous
 62
     7
370
     9
100
AcDbLine
 10
-24.53891457022519
 20
201.9128238403477
 30
0.0
 11
-24.53891457022519
 21
201.7128238403477
 31
0.0
  0
LINE
  5
1A474
330
1F
100
AcDbEntity
  8
10000_FRONT
  6
Continuous
 62
     7
370
     9
100
AcDbLine
 10
-16.5389145702253
 20
201.9128238403477
 30
0.0
 11
-16.5389145702253
 21
201.7128238403477
 31
0.0
  0
LINE
  5
1A475
330
1F
100
AcDbEntity
  8
10000_FRONT
  6
Continuous
 62
     7
370
     9
100
AcDbLine
 10
-15.73891457022535
 20
202.5128238403476
 30
0.0
 11
-15.93891457022516
 21
202.5128238403476
 31
0.0
  0
LINE
  5
1A476
330
1F
100
AcDbEntity
  8
10000_FRONT
  6
Continuous
 62
     7
370
     9
100
AcDbLine
 10
-15.93891457022516
 20
199.5128238403476
 30
0.0
 11
-15.73891457022535
 21
199.5128238403476
 31
0.0
  0
LINE
  5
1A477
330
1F
100
AcDbEntity
  8
10000_FRONT
  6
Continuous
 62
     7
370
     9
100
AcDbLine
 10
-16.5389145702253
 20
200.1128238403476
 30
0.0
 11
-16.5389145702253
 21
200.3128238403477
 31
0.0
  0
LINE
  5
1A478
330
1F
100
AcDbEntity
  8
10000_FRONT
  6
Continuous
 62
     7
370
     9
100
AcDbLine
 10
-24.53891457022519
 20
200.1128238403476
 30
0.0
 11
-24.53891457022519
 21
200.3128238403477
 31
0.0
  0
LINE
  5
1A479
330
1F
100
AcDbEntity
  8
10000_FRONT
  6
Continuous
 62
     7
370
     9
100
AcDbLine
 10
-25.13891457022515
 20
199.5128238403476
 30
0.0
 11
-25.33891457022515
 21
199.5128238403476
 31
0.0
  0
LINE
  5
1A47A
330
1F
100
AcDbEntity
  8
10000_FRONT
  6
Continuous
 62
     7
370
     9
100
AcDbLine
 10
-25.13891457022515
 20
195.8551838403477
 30
0.0
 11
-25.33891457022515
 21
195.8551838403477
 31
0.0
  0
LINE
  5
1A47B
330
1F
100
AcDbEntity
  8
10000_FRONT
  6
Continuous
 62
     7
370
     9
100
AcDbLine
 10
-24.49479757022516
 20
195.2568038403476
 30
0.0
 11
-24.48009157022517
 21
195.0573438403477
 31
0.0
  0
LINE
  5
1A47C
330
1F
100
AcDbEntity
  8
10000_FRONT
  6
Continuous
 62
     7
370
     9
100
AcDbLine
 10
-16.54185557022532
 20
195.5300738403477
 30
0.0
 11
-16.54283657022517
 21
195.3300738403476
 31
0.0
  0
LINE
  5
1A47D
330
1F
100
AcDbEntity
  8
10000_FRONT
  6
Continuous
 62
     7
370
     9
100
AcDbLine
 10
-15.73891457022535
 20
196.1300638403477
 30
0.0
 11
-15.93891457022516
 21
196.1300638403477
 31
0.0
  0
LINE
  5
1A47E
330
1F
100
AcDbEntity
  8
10000_FRONT
  6
Continuous
 62
     7
370
     9
100
AcDbLine
 10
-14.13891057022533
 20
196.1846938403477
 30
0.0
 11
-14.33891057022532
 21
196.1846938403477
 31
0.0
  0
LINE
  5
1A47F
330
1F
100
AcDbEntity
  8
10000_FRONT
  6
Continuous
 62
     7
370
     9
100
AcDbLine
 10
-13.55362057022529
 20
195.5848738403476
 30
0.0
 11
-13.55852057022531
 21
195.3849338403477
 31
0.0
  0
LINE
  5
1A480
330
1F
100
AcDbEntity
  8
10000_FRONT
  6
Continuous
 62
     7
370
     9
100
AcDbLine
 10
-7.588910570225322
 20
195.2626338403476
 30
0.0
 11
-7.605580570225298
 21
195.0633338403476
 31
0.0
  0
LINE
  5
1A481
330
1F
100
AcDbEntity
  8
10000_FRONT
  6
Continuous
 62
     7
370
     9
100
AcDbLine
 10
-6.938910570225345
 20
195.8605438403477
 30
0.0
 11
-6.738910570225298
 21
195.8605438403477
 31
0.0
  0
LINE
  5
1A482
330
1F
100
AcDbEntity
  8
10000_FRONT
  6
Continuous
 62
     7
370
     9
100
AcDbLine
 10
-6.938910570225345
 20
206.1651138403477
 30
0.0
 11
-6.738910570225298
 21
206.1651138403477
 31
0.0
  0
LINE
  5
1A483
330
1F
100
AcDbEntity
  8
10000_FRONT
  6
Continuous
 62
     7
370
     9
100
AcDbLine
 10
-7.588910570225322
 20
206.7630238403477
 30
0.0
 11
-7.605580570225298
 21
206.9623238403476
 31
0.0
  0
LINE
  5
1A484
330
1F
100
AcDbEntity
  8
10000_FRONT
  6
Continuous
 62
     7
370
     9
100
AcDbLine
 10
-13.55362057022529
 20
206.4407838403477
 30
0.0
 11
-13.55852057022531
 21
206.6407238403477
 31
0.0
  0
LINE
  5
1A485
330
1F
100
AcDbEntity
  8
10000_FRONT
  6
Continuous
 62
     7
370
     9
100
AcDbLine
 10
-14.33891057022532
 20
205.8409638403477
 30
0.0
 11
-14.13891057022533
 21
205.8409638403477
 31
0.0
  0
LINE
  5
1A486
330
1F
100
AcDbEntity
  8
10000_FRONT
  6
Continuous
 62
     7
370
     9
100
AcDbLine
 10
-14.33891057022532
 20
196.1846938403477
 30
0.0
 11
-14.33891057022532
 21
205.8409638403477
 31
0.0
  0
ARC
  5
1A487
330
1F
100
AcDbEntity
  8
10000_FRONT
  6
Continuous
 62
     7
370
     9
100
AcDbCircle
 10
-13.53891057022531
 20
196.1846938403477
 30
0.0
 40
0.8
100
AcDbArc
 50
180.0
 51
268.5955500000019
  0
ARC
  5
1A488
330
1F
100
AcDbEntity
  8
10000_FRONT
  6
Continuous
 62
     7
370
     9
100
AcDbCircle
 10
-16.0389145702253
 20
94.2153308403477
 30
0.0
 40
101.2
100
AcDbArc
 50
85.21980800000115
 51
88.59555100000084
  0
ARC
  5
1A489
330
1F
100
AcDbEntity
  8
10000_FRONT
  6
Continuous
 62
     7
370
     9
100
AcDbCircle
 10
-7.538910570225311
 20
195.8605438403477
 30
0.0
 40
0.8
100
AcDbArc
 50
265.2198100000005
 51
0.0
  0
LINE
  5
1A48A
330
1F
100
AcDbEntity
  8
10000_FRONT
  6
Continuous
 62
     7
370
     9
100
AcDbLine
 10
-6.738910570225298
 20
206.1651138403477
 30
0.0
 11
-6.738910570225298
 21
195.8605438403477
 31
0.0
  0
ARC
  5
1A48B
330
1F
100
AcDbEntity
  8
10000_FRONT
  6
Continuous
 62
     7
370
     9
100
AcDbCircle
 10
-7.538910570225311
 20
206.1651138403477
 30
0.0
 40
0.8
100
AcDbArc
 50
0.0
 51
94.78019199999883
  0
ARC
  5
1A48C
330
1F
100
AcDbEntity
  8
10000_FRONT
  6
Continuous
 62
     7
370
     9
100
AcDbCircle
 10
-16.0389145702253
 20
307.8103238403477
 30
0.0
 40
101.2
100
AcDbArc
 50
271.4044499999981
 51
274.7801900000027
  0
ARC
  5
1A48D
330
1F
100
AcDbEntity
  8
10000_FRONT
  6
Continuous
 62
     7
370
     9
100
AcDbCircle
 10
-13.53891057022531
 20
205.8409638403477
 30
0.0
 40
0.8
100
AcDbArc
 50
91.40444899999918
 51
180.0
  0
LINE
  5
1A48E
330
1F
100
AcDbEntity
  8
10000_FRONT
  6
Continuous
 62
     7
370
     9
100
AcDbLine
 10
-15.73891457022535
 20
199.5128238403476
 30
0.0
 11
-15.73891457022535
 21
196.1300638403477
 31
0.0
  0
ARC
  5
1A48F
330
1F
100
AcDbEntity
  8
10000_FRONT
  6
Continuous
 62
     7
370
     9
100
AcDbCircle
 10
-16.5389145702253
 20
199.5128238403476
 30
0.0
 40
0.8
100
AcDbArc
 50
0.0
 51
90.0
  0
LINE
  5
1A490
330
1F
100
AcDbEntity
  8
10000_FRONT
  6
Continuous
 62
     7
370
     9
100
AcDbLine
 10
-24.53891457022519
 20
200.3128238403477
 30
0.0
 11
-16.5389145702253
 21
200.3128238403477
 31
0.0
  0
ARC
  5
1A491
330
1F
100
AcDbEntity
  8
10000_FRONT
  6
Continuous
 62
     7
370
     9
100
AcDbCircle
 10
-24.53891457022519
 20
199.5128238403476
 30
0.0
 40
0.8
100
AcDbArc
 50
90.0
 51
180.0
  0
LINE
  5
1A492
330
1F
100
AcDbEntity
  8
10000_FRONT
  6
Continuous
 62
     7
370
     9
100
AcDbLine
 10
-25.33891457022515
 20
195.8551838403477
 30
0.0
 11
-25.33891457022515
 21
199.5128238403476
 31
0.0
  0
ARC
  5
1A493
330
1F
100
AcDbEntity
  8
10000_FRONT
  6
Continuous
 62
     7
370
     9
100
AcDbCircle
 10
-24.53891457022519
 20
195.8551838403477
 30
0.0
 40
0.8
100
AcDbArc
 50
180.0
 51
274.2167299999981
  0
ARC
  5
1A494
330
1F
100
AcDbEntity
  8
10000_FRONT
  6
Continuous
 62
     7
370
     9
100
AcDbCircle
 10
-17.0389145702253
 20
94.13129084034769
 30
0.0
 40
101.2
100
AcDbArc
 50
89.71913700000129
 51
94.21672999999813
  0
ARC
  5
1A495
330
1F
100
AcDbEntity
  8
10000_FRONT
  6
Continuous
 62
     7
370
     9
100
AcDbCircle
 10
-16.5389145702253
 20
196.1300638403477
 30
0.0
 40
0.8
100
AcDbArc
 50
269.7191399999992
 51
0.0
  0
LINE
  5
1A496
330
1F
100
AcDbEntity
  8
10000_FRONT
  6
Continuous
 62
     7
370
     9
100
AcDbLine
 10
-15.73891457022535
 20
205.8955938403477
 30
0.0
 11
-15.73891457022535
 21
202.5128238403476
 31
0.0
  0
ARC
  5
1A497
330
1F
100
AcDbEntity
  8
10000_FRONT
  6
Continuous
 62
     7
370
     9
100
AcDbCircle
 10
-16.5389145702253
 20
205.8955938403477
 30
0.0
 40
0.8
100
AcDbArc
 50
0.0
 51
90.2808629999987
  0
ARC
  5
1A498
330
1F
100
AcDbEntity
  8
10000_FRONT
  6
Continuous
 62
     7
370
     9
100
AcDbCircle
 10
-17.0389145702253
 20
307.8943638403477
 30
0.0
 40
101.2
100
AcDbArc
 50
265.7832700000019
 51
270.2808600000008
  0
ARC
  5
1A499
330
1F
100
AcDbEntity
  8
10000_FRONT
  6
Continuous
 62
     7
370
     9
100
AcDbCircle
 10
-24.53891457022519
 20
206.1704738403477
 30
0.0
 40
0.8
100
AcDbArc
 50
85.78327000000188
 51
180.0
  0
LINE
  5
1A49A
330
1F
100
AcDbEntity
  8
10000_FRONT
  6
Continuous
 62
     7
370
     9
100
AcDbLine
 10
-25.33891457022515
 20
202.5128238403476
 30
0.0
 11
-25.33891457022515
 21
206.1704738403477
 31
0.0
  0
ARC
  5
1A49B
330
1F
100
AcDbEntity
  8
10000_FRONT
  6
Continuous
 62
     7
370
     9
100
AcDbCircle
 10
-24.53891457022519
 20
202.5128238403476
 30
0.0
 40
0.8
100
AcDbArc
 50
180.0
 51
270.0
  0
LINE
  5
1A49C
330
1F
100
AcDbEntity
  8
10000_FRONT
  6
Continuous
 62
     7
370
     9
100
AcDbLine
 10
-16.5389145702253
 20
201.7128238403477
 30
0.0
 11
-24.53891457022519
 21
201.7128238403477
 31
0.0
  0
ARC
  5
1A49D
330
1F
100
AcDbEntity
  8
10000_FRONT
  6
Continuous
 62
     7
370
     9
100
AcDbCircle
 10
-16.5389145702253
 20
202.5128238403476
 30
0.0
 40
0.8
100
AcDbArc
 50
270.0
 51
0.0
  0
ARC
  5
1A49E
330
1F
100
AcDbEntity
  8
10000_FRONT
  6
Continuous
 62
     7
370
     9
100
AcDbCircle
 10
-17.0389145702253
 20
307.8943638403477
 30
0.0
 40
101.4
100
AcDbArc
 50
265.7832700000019
 51
270.2808600000008
  0
LINE
  5
1A49F
330
1F
100
AcDbEntity
  8
10000_FRONT
  6
Continuous
 62
     7
370
     9
100
AcDbLine
 10
-16.5389145702253
 20
201.9128238403477
 30
0.0
 11
-24.53891457022519
 21
201.9128238403477
 31
0.0
  0
ARC
  5
1A4A0
330
1F
100
AcDbEntity
  8
10000_FRONT
  6
Continuous
 62
     7
370
     9
100
AcDbCircle
 10
-17.0389145702253
 20
94.13129084034769
 30
0.0
 40
101.4
100
AcDbArc
 50
89.71913700000129
 51
94.21673099999997
  0
LINE
  5
1A4A1
330
1F
100
AcDbEntity
  8
10000_FRONT
  6
Continuous
 62
     7
370
     9
100
AcDbLine
 10
-24.53891457022519
 20
200.1128238403476
 30
0.0
 11
-16.5389145702253
 21
200.1128238403476
 31
0.0
  0
ARC
  5
1A4A2
330
1F
100
AcDbEntity
  8
10000_FRONT
  6
Continuous
 62
     7
370
     9
100
AcDbCircle
 10
-16.0389145702253
 20
94.2153308403477
 30
0.0
 40
101.4
100
AcDbArc
 50
85.21980800000115
 51
88.59555199999975
  0
ARC
  5
1A4A3
330
1F
100
AcDbEntity
  8
10000_FRONT
  6
Continuous
 62
     7
370
     9
100
AcDbCircle
 10
-16.0389145702253
 20
307.8103238403477
 30
0.0
 40
101.4
100
AcDbArc
 50
271.4044499999981
 51
274.7801900000027
  0
LINE
  5
1A4A4
330
1F
100
AcDbEntity
  8
10000_FRONT
  6
Continuous
 62
     7
370
     9
100
AcDbLine
 10
-6.938910570225345
 20
206.1651138403477
 30
0.0
 11
-6.938910570225345
 21
195.8605438403477
 31
0.0
  0
ARC
  5
1A4A5
330
1F
100
AcDbEntity
  8
10000_FRONT
  6
Continuous
 62
     7
370
     9
100
AcDbCircle
 10
-7.538910570225311
 20
206.1651138403477
 30
0.0
 40
0.6
100
AcDbArc
 50
0.0
 51
94.78019199999883
  0
ARC
  5
1A4A6
330
1F
100
AcDbEntity
  8
10000_FRONT
  6
Continuous
 62
     7
370
     9
100
AcDbCircle
 10
-13.53891057022531
 20
205.8409638403477
 30
0.0
 40
0.6
100
AcDbArc
 50
91.40444899999918
 51
180.0
  0
ARC
  5
1A4A7
330
1F
100
AcDbEntity
  8
10000_FRONT
  6
Continuous
 62
     7
370
     9
100
AcDbCircle
 10
-13.53891057022531
 20
196.1846938403477
 30
0.0
 40
0.6
100
AcDbArc
 50
180.0
 51
268.5955500000019
  0
ARC
  5
1A4A8
330
1F
100
AcDbEntity
  8
10000_FRONT
  6
Continuous
 62
     7
370
     9
100
AcDbCircle
 10
-7.538910570225311
 20
195.8605438403477
 30
0.0
 40
0.6
100
AcDbArc
 50
265.2198100000005
 51
0.0
  0
ARC
  5
1A4A9
330
1F
100
AcDbEntity
  8
10000_FRONT
  6
Continuous
 62
     7
370
     9
100
AcDbCircle
 10
-24.53891457022519
 20
199.5128238403476
 30
0.0
 40
0.6
100
AcDbArc
 50
90.0
 51
180.0
  0
LINE
  5
1A4AA
330
1F
100
AcDbEntity
  8
10000_FRONT
  6
Continuous
 62
     7
370
     9
100
AcDbLine
 10
-25.13891457022515
 20
195.8551838403477
 30
0.0
 11
-25.13891457022515
 21
199.5128238403476
 31
0.0
  0
ARC
  5
1A4AB
330
1F
100
AcDbEntity
  8
10000_FRONT
  6
Continuous
 62
     7
370
     9
100
AcDbCircle
 10
-24.53891457022519
 20
195.8551838403477
 30
0.0
 40
0.6
100
AcDbArc
 50
180.0
 51
274.2167299999981
  0
ARC
  5
1A4AC
330
1F
100
AcDbEntity
  8
10000_FRONT
  6
Continuous
 62
     7
370
     9
100
AcDbCircle
 10
-16.5389145702253
 20
196.1300638403477
 30
0.0
 40
0.6
100
AcDbArc
 50
269.7191399999992
 51
0.0
  0
ARC
  5
1A4AD
330
1F
100
AcDbEntity
  8
10000_FRONT
  6
Continuous
 62
     7
370
     9
100
AcDbCircle
 10
-16.5389145702253
 20
199.5128238403476
 30
0.0
 40
0.6
100
AcDbArc
 50
0.0
 51
90.0
  0
ARC
  5
1A4AE
330
1F
100
AcDbEntity
  8
10000_FRONT
  6
Continuous
 62
     7
370
     9
100
AcDbCircle
 10
-16.5389145702253
 20
202.5128238403476
 30
0.0
 40
0.6
100
AcDbArc
 50
270.0
 51
0.0
  0
ARC
  5
1A4AF
330
1F
100
AcDbEntity
  8
10000_FRONT
  6
Continuous
 62
     7
370
     9
100
AcDbCircle
 10
-16.5389145702253
 20
205.8955938403477
 30
0.0
 40
0.6
100
AcDbArc
 50
0.0
 51
90.2808629999987
  0
ARC
  5
1A4B0
330
1F
100
AcDbEntity
  8
10000_FRONT
  6
Continuous
 62
     7
370
     9
100
AcDbCircle
 10
-24.53891457022519
 20
206.1704738403477
 30
0.0
 40
0.6
100
AcDbArc
 50
85.78327000000188
 51
180.0
  0
LINE
  5
1A4B1
330
1F
100
AcDbEntity
  8
10000_FRONT
  6
Continuous
 62
     7
370
     9
100
AcDbLine
 10
-25.13891457022515
 20
202.5128238403476
 30
0.0
 11
-25.13891457022515
 21
206.1704738403477
 31
0.0
  0
ARC
  5
1A4B2
330
1F
100
AcDbEntity
  8
10000_FRONT
  6
Continuous
 62
     7
370
     9
100
AcDbCircle
 10
-24.53891457022519
 20
202.5128238403476
 30
0.0
 40
0.6
100
AcDbArc
 50
180.0
 51
270.0
  0
LINE
  5
1A4B3
330
1F
100
AcDbEntity
  8
10000_FRONT
  6
Continuous
 62
     7
370
     9
100
AcDbLine
 10
-15.93891457022516
 20
205.8955938403477
 30
0.0
 11
-15.93891457022516
 21
202.5128238403476
 31
0.0
  0
LINE
  5
1A4B4
330
1F
100
AcDbEntity
  8
10000_FRONT
  6
Continuous
 62
     7
370
     9
100
AcDbLine
 10
-15.93891457022516
 20
199.5128238403476
 30
0.0
 11
-15.93891457022516
 21
196.1300638403477
 31
0.0
  0
LINE
  5
1A4B5
330
1F
100
AcDbEntity
  8
10000_FRONT
  6
Continuous
 62
     7
370
     9
100
AcDbLine
 10
-14.13891057022533
 20
196.1846938403477
 30
0.0
 11
-14.13891057022533
 21
205.8409638403477
 31
0.0
  0
LINE
  5
1A4B6
330
1F
100
AcDbEntity
  8
10000_FRONT
  6
Continuous
 62
     7
370
     9
100
AcDbLine
 10
-10.33891057022532
 20
201.2128238403477
 30
0.0
 11
-9.738910570225183
 21
201.2128238403477
 31
0.0
  0
LINE
  5
1A4B7
330
1F
100
AcDbEntity
  8
10000_FRONT
  6
Continuous
 62
     7
370
     9
100
AcDbLine
 10
-10.33891057022532
 20
202.1092438403476
 30
0.0
 11
-10.33891057022532
 21
201.2128238403477
 31
0.0
  0
LINE
  5
1A4B8
330
1F
100
AcDbEntity
  8
10000_FRONT
  6
Continuous
 62
     7
370
     9
100
AcDbLine
 10
-13.53699057022516
 20
200.2628238403477
 30
0.0
 11
-10.33891057022532
 21
202.1092438403476
 31
0.0
  0
LINE
  5
1A4B9
330
1F
100
AcDbEntity
  8
10000_FRONT
  6
Continuous
 62
     7
370
     9
100
AcDbLine
 10
-10.33891057022532
 20
198.4164138403476
 30
0.0
 11
-13.53699057022516
 21
200.2628238403477
 31
0.0
  0
LINE
  5
1A4BA
330
1F
100
AcDbEntity
  8
10000_FRONT
  6
Continuous
 62
     7
370
     9
100
AcDbLine
 10
-10.33891057022532
 20
199.3128238403476
 30
0.0
 11
-10.33891057022532
 21
198.4164138403476
 31
0.0
  0
LINE
  5
1A4BB
330
1F
100
AcDbEntity
  8
10000_FRONT
  6
Continuous
 62
     7
370
     9
100
AcDbLine
 10
-7.838910570225151
 20
199.3128238403476
 30
0.0
 11
-10.33891057022532
 21
199.3128238403476
 31
0.0
  0
LINE
  5
1A4BC
330
1F
100
AcDbEntity
  8
10000_FRONT
  6
Continuous
 62
     7
370
     9
100
AcDbLine
 10
-7.838910570225151
 20
204.2128238403477
 30
0.0
 11
-7.838910570225151
 21
199.3128238403476
 31
0.0
  0
LINE
  5
1A4BD
330
1F
100
AcDbEntity
  8
10000_FRONT
  6
Continuous
 62
     7
370
     9
100
AcDbLine
 10
-9.738910570225183
 20
204.2128238403477
 30
0.0
 11
-7.838910570225151
 21
204.2128238403477
 31
0.0
  0
LINE
  5
1A4BE
330
1F
100
AcDbEntity
  8
10000_FRONT
  6
Continuous
 62
     7
370
     9
100
AcDbLine
 10
-9.738910570225183
 20
201.2128238403477
 30
0.0
 11
-9.738910570225183
 21
204.2128238403477
 31
0.0
  0
LINE
  5
1A4BF
330
1F
100
AcDbEntity
  8
10000_FRONT
  6
Continuous
 62
     7
370
     9
100
AcDbLine
 10
-20.5389145702253
 20
206.0109038403477
 30
0.0
 11
-18.69250457022531
 21
202.8128238403477
 31
0.0
  0
LINE
  5
1A4C0
330
1F
100
AcDbEntity
  8
10000_FRONT
  6
Continuous
 62
     7
370
     9
100
AcDbLine
 10
-22.38532457022529
 20
202.8128238403477
 30
0.0
 11
-20.5389145702253
 21
206.0109038403477
 31
0.0
  0
LINE
  5
1A4C1
330
1F
100
AcDbEntity
  8
10000_FRONT
  6
Continuous
 62
     7
370
     9
100
AcDbLine
 10
-18.69250457022531
 20
202.8128238403477
 30
0.0
 11
-22.38532457022529
 21
202.8128238403477
 31
0.0
  0
LINE
  5
1A4C2
330
1F
100
AcDbEntity
  8
10000_FRONT
  6
Continuous
 62
     7
370
     9
100
AcDbLine
 10
-22.38489057022531
 20
199.2127538403476
 30
0.0
 11
-18.6924145702253
 21
199.2135838403476
 31
0.0
  0
LINE
  5
1A4C3
330
1F
100
AcDbEntity
  8
10000_FRONT
  6
Continuous
 62
     7
370
     9
100
AcDbLine
 10
-20.53913257022532
 20
196.0158038403476
 30
0.0
 11
-22.38489057022531
 21
199.2127538403476
 31
0.0
  0
LINE
  5
1A4C4
330
1F
100
AcDbEntity
  8
10000_FRONT
  6
Continuous
 62
     7
370
     9
100
AcDbLine
 10
-18.6924145702253
 20
199.2135838403476
 30
0.0
 11
-20.53913257022532
 21
196.0158038403476
 31
0.0
  0
LINE
  5
1A4C5
330
1F
100
AcDbEntity
  8
10000_FRONT
  6
Continuous
 62
     7
370
     9
100
AcDbLine
 10
-10.7389105702253
 20
201.4164138403477
 30
0.0
 11
-10.7389105702253
 21
200.8128238403477
 31
0.0
  0
LINE
  5
1A4C6
330
1F
100
AcDbEntity
  8
10000_FRONT
  6
Continuous
 62
     7
370
     9
100
AcDbLine
 10
-12.73699057022531
 20
200.2628238403477
 30
0.0
 11
-10.7389105702253
 21
201.4164138403477
 31
0.0
  0
LINE
  5
1A4C7
330
1F
100
AcDbEntity
  8
10000_FRONT
  6
Continuous
 62
     7
370
     9
100
AcDbLine
 10
-10.7389105702253
 20
199.1092438403476
 30
0.0
 11
-12.73699057022531
 21
200.2628238403477
 31
0.0
  0
LINE
  5
1A4C8
330
1F
100
AcDbEntity
  8
10000_FRONT
  6
Continuous
 62
     7
370
     9
100
AcDbLine
 10
-10.7389105702253
 20
199.7128238403476
 30
0.0
 11
-10.7389105702253
 21
199.1092438403476
 31
0.0
  0
LINE
  5
1A4C9
330
1F
100
AcDbEntity
  8
10000_FRONT
  6
Continuous
 62
     7
370
     9
100
AcDbLine
 10
-8.238910570225298
 20
199.7128238403476
 30
0.0
 11
-10.7389105702253
 21
199.7128238403476
 31
0.0
  0
LINE
  5
1A4CA
330
1F
100
AcDbEntity
  8
10000_FRONT
  6
Continuous
 62
     7
370
     9
100
AcDbLine
 10
-8.238910570225298
 20
203.8128238403477
 30
0.0
 11
-8.238910570225298
 21
199.7128238403476
 31
0.0
  0
LINE
  5
1A4CB
330
1F
100
AcDbEntity
  8
10000_FRONT
  6
Continuous
 62
     7
370
     9
100
AcDbLine
 10
-9.338910570225325
 20
203.8128238403477
 30
0.0
 11
-8.238910570225298
 21
203.8128238403477
 31
0.0
  0
LINE
  5
1A4CC
330
1F
100
AcDbEntity
  8
10000_FRONT
  6
Continuous
 62
     7
370
     9
100
AcDbLine
 10
-9.338910570225325
 20
200.8128238403477
 30
0.0
 11
-9.338910570225325
 21
203.8128238403477
 31
0.0
  0
LINE
  5
1A4CD
330
1F
100
AcDbEntity
  8
10000_FRONT
  6
Continuous
 62
     7
370
     9
100
AcDbLine
 10
-10.7389105702253
 20
200.8128238403477
 30
0.0
 11
-9.338910570225325
 21
200.8128238403477
 31
0.0
  0
LINE
  5
1A4CE
330
1F
100
AcDbEntity
  8
10000_FRONT
  6
Continuous
 62
     7
370
     9
100
AcDbLine
 10
-20.53908757022532
 20
196.8157238403476
 30
0.0
 11
-21.69215957022533
 21
198.8129038403477
 31
0.0
  0
LINE
  5
1A4CF
330
1F
100
AcDbEntity
  8
10000_FRONT
  6
Continuous
 62
     7
370
     9
100
AcDbLine
 10
-19.38541557022517
 20
198.8134238403477
 30
0.0
 11
-20.53908757022532
 21
196.8157238403476
 31
0.0
  0
LINE
  5
1A4D0
330
1F
100
AcDbEntity
  8
10000_FRONT
  6
Continuous
 62
     7
370
     9
100
AcDbLine
 10
-21.69215957022533
 20
198.8129038403477
 30
0.0
 11
-19.38541557022517
 21
198.8134238403477
 31
0.0
  0
LINE
  5
1A4D1
330
1F
100
AcDbEntity
  8
10000_FRONT
  6
Continuous
 62
     7
370
     9
100
AcDbLine
 10
-19.38532457022529
 20
203.2128238403477
 30
0.0
 11
-21.69250457022531
 21
203.2128238403477
 31
0.0
  0
LINE
  5
1A4D2
330
1F
100
AcDbEntity
  8
10000_FRONT
  6
Continuous
 62
     7
370
     9
100
AcDbLine
 10
-20.5389145702253
 20
205.2109038403477
 30
0.0
 11
-19.38532457022529
 21
203.2128238403477
 31
0.0
  0
LINE
  5
1A4D3
330
1F
100
AcDbEntity
  8
10000_FRONT
  6
Continuous
 62
     7
370
     9
100
AcDbLine
 10
-21.69250457022531
 20
203.2128238403477
 30
0.0
 11
-20.5389145702253
 21
205.2109038403477
 31
0.0
  0
TEXT
  5
1A4D4
330
1F
100
AcDbEntity
  8
10000_FRONT
  6
Continuous
 62
     7
370
     9
100
AcDbText
 10
-25.45779757022518
 20
232.1358138403477
 30
0.0
 40
1.7
  1
SIRIUS
 41
0.8
100
AcDbText
  0
POINT
  5
1A4D5
330
1F
100
AcDbEntity
  8
10000_FRONT
  6
Continuous
 62
     7
370
     9
100
AcDbPoint
 10
-25.3915145702253
 20
237.7276628403477
 30
0.0
  0
POINT
  5
1A4D6
330
1F
100
AcDbEntity
  8
10000_FRONT
  6
Continuous
 62
     7
370
     9
100
AcDbPoint
 10
-17.15939182022515
 20
237.7276628403477
 30
0.0
  0
POINT
  5
1A4D7
330
1F
100
AcDbEntity
  8
10000_FRONT
  6
Continuous
 62
     7
370
     9
100
AcDbPoint
 10
-8.927269320225319
 20
237.7276628403477
 30
0.0
  0
POINT
  5
1A4D8
330
1F
100
AcDbEntity
  8
10000_FRONT
  6
Continuous
 62
     7
370
     9
100
AcDbPoint
 10
-25.3915145702253
 20
236.4127783653477
 30
0.0
  0
POINT
  5
1A4D9
330
1F
100
AcDbEntity
  8
10000_FRONT
  6
Continuous
 62
     7
370
     9
100
AcDbPoint
 10
-17.15939182022515
 20
236.4127783653477
 30
0.0
  0
POINT
  5
1A4DA
330
1F
100
AcDbEntity
  8
10000_FRONT
  6
Continuous
 62
     7
370
     9
100
AcDbPoint
 10
-8.927269320225319
 20
236.4127783653477
 30
0.0
  0
POINT
  5
1A4DB
330
1F
100
AcDbEntity
  8
10000_FRONT
  6
Continuous
 62
     7
370
     9
100
AcDbPoint
 10
-25.3915145702253
 20
235.0978938403477
 30
0.0
  0
POINT
  5
1A4DC
330
1F
100
AcDbEntity
  8
10000_FRONT
  6
Continuous
 62
     7
370
     9
100
AcDbPoint
 10
-17.15939182022515
 20
235.0978938403477
 30
0.0
  0
POINT
  5
1A4DD
330
1F
100
AcDbEntity
  8
10000_FRONT
  6
Continuous
 62
     7
370
     9
100
AcDbPoint
 10
-8.927269320225319
 20
235.0978938403477
 30
0.0
  0
LINE
  5
1A4DE
330
1F
100
AcDbEntity
  8
10000_FRONT
  6
Continuous
 62
     7
370
     9
100
AcDbLine
 10
-10.85299257022529
 20
235.2124572753477
 30
0.0
 11
-10.85299257022529
 21
235.7124572653477
 31
0.0
  0
LINE
  5
1A4DF
330
1F
100
AcDbEntity
  8
10000_FRONT
  6
Continuous
 62
     7
370
     9
100
AcDbLine
 10
-23.04049259522532
 20
237.6624573403477
 30
0.0
 11
-23.04049259522532
 21
235.1624572753477
 31
0.0
  0
LINE
  5
1A4E0
330
1F
100
AcDbEntity
  8
10000_FRONT
  6
Continuous
 62
     7
370
     9
100
AcDbLine
 10
-22.2904925702253
 20
237.6624573403477
 30
0.0
 11
-22.2904925702253
 21
235.1624572753477
 31
0.0
  0
LINE
  5
1A4E1
330
1F
100
AcDbEntity
  8
10000_FRONT
  6
Continuous
 62
     7
370
     9
100
AcDbLine
 10
-23.04049259522532
 20
235.1624572753477
 30
0.0
 11
-22.2904925702253
 21
235.1624572753477
 31
0.0
  0
LINE
  5
1A4E2
330
1F
100
AcDbEntity
  8
10000_FRONT
  6
Continuous
 62
     7
370
     9
100
AcDbLine
 10
-23.04049259522532
 20
237.6624573403477
 30
0.0
 11
-22.2904925702253
 21
237.6624573403477
 31
0.0
  0
LINE
  5
1A4E3
330
1F
100
AcDbEntity
  8
10000_FRONT
  6
Continuous
 62
     7
370
     9
100
AcDbLine
 10
-21.71549257022531
 20
237.6624573403477
 30
0.0
 11
-21.71549257022531
 21
235.1624572753477
 31
0.0
  0
LINE
  5
1A4E4
330
1F
100
AcDbEntity
  8
10000_FRONT
  6
Continuous
 62
     7
370
     9
100
AcDbLine
 10
-21.71549257022531
 20
235.1624572753477
 30
0.0
 11
-19.84049257022531
 21
235.1624572753477
 31
0.0
  0
LINE
  5
1A4E5
330
1F
100
AcDbEntity
  8
10000_FRONT
  6
Continuous
 62
     7
370
     9
100
AcDbLine
 10
-19.84049257022531
 20
235.6374572653477
 30
0.0
 11
-20.99049257022534
 21
235.6374572653477
 31
0.0
  0
LINE
  5
1A4E6
330
1F
100
AcDbEntity
  8
10000_FRONT
  6
Continuous
 62
     7
370
     9
100
AcDbLine
 10
-19.84049257022531
 20
235.6374572653477
 30
0.0
 11
-19.84049257022531
 21
235.1624572753477
 31
0.0
  0
LINE
  5
1A4E7
330
1F
100
AcDbEntity
  8
10000_FRONT
  6
Continuous
 62
     7
370
     9
100
AcDbLine
 10
-19.86549257022517
 20
237.6624573403477
 30
0.0
 11
-21.71549257022531
 21
237.6624573403477
 31
0.0
  0
LINE
  5
1A4E8
330
1F
100
AcDbEntity
  8
10000_FRONT
  6
Continuous
 62
     7
370
     9
100
AcDbLine
 10
-19.86549257022517
 20
237.1999572653477
 30
0.0
 11
-20.99049257022534
 21
237.1999572653477
 31
0.0
  0
LINE
  5
1A4E9
330
1F
100
AcDbEntity
  8
10000_FRONT
  6
Continuous
 62
     7
370
     9
100
AcDbLine
 10
-19.86549257022517
 20
237.6624573403477
 30
0.0
 11
-19.86549257022517
 21
237.1999572653477
 31
0.0
  0
LINE
  5
1A4EA
330
1F
100
AcDbEntity
  8
10000_FRONT
  6
Continuous
 62
     7
370
     9
100
AcDbLine
 10
-20.01549257022532
 20
236.2249572653476
 30
0.0
 11
-20.99049257022534
 21
236.2249572653476
 31
0.0
  0
LINE
  5
1A4EB
330
1F
100
AcDbEntity
  8
10000_FRONT
  6
Continuous
 62
     7
370
     9
100
AcDbLine
 10
-20.01549257022532
 20
236.6374572653477
 30
0.0
 11
-20.01549257022532
 21
236.2249572653476
 31
0.0
  0
LINE
  5
1A4EC
330
1F
100
AcDbEntity
  8
10000_FRONT
  6
Continuous
 62
     7
370
     9
100
AcDbLine
 10
-20.01549257022532
 20
236.6374572653477
 30
0.0
 11
-20.99049257022534
 21
236.6374572653477
 31
0.0
  0
LINE
  5
1A4ED
330
1F
100
AcDbEntity
  8
10000_FRONT
  6
Continuous
 62
     7
370
     9
100
AcDbLine
 10
-20.99049257022534
 20
237.1999572653477
 30
0.0
 11
-20.99049257022534
 21
236.6374572653477
 31
0.0
  0
LINE
  5
1A4EE
330
1F
100
AcDbEntity
  8
10000_FRONT
  6
Continuous
 62
     7
370
     9
100
AcDbLine
 10
-20.99049257022534
 20
236.2249572653476
 30
0.0
 11
-20.99049257022534
 21
235.6374572653477
 31
0.0
  0
LINE
  5
1A4EF
330
1F
100
AcDbEntity
  8
10000_FRONT
  6
Continuous
 62
     7
370
     9
100
AcDbLine
 10
-19.41549257022529
 20
235.1624572753477
 30
0.0
 11
-19.41549257022529
 21
237.6624573403477
 31
0.0
  0
LINE
  5
1A4F0
330
1F
100
AcDbEntity
  8
10000_FRONT
  6
Continuous
 62
     7
370
     9
100
AcDbLine
 10
-19.41549257022529
 20
235.1624572753477
 30
0.0
 11
-18.91549257022518
 21
235.1624572753477
 31
0.0
  0
LINE
  5
1A4F1
330
1F
100
AcDbEntity
  8
10000_FRONT
  6
Continuous
 62
     7
370
     9
100
AcDbLine
 10
-16.34049257022531
 20
237.6624573403477
 30
0.0
 11
-16.34049257022531
 21
235.1624572753477
 31
0.0
  0
LINE
  5
1A4F2
330
1F
100
AcDbEntity
  8
10000_FRONT
  6
Continuous
 62
     7
370
     9
100
AcDbLine
 10
-16.34049257022531
 20
235.1624572753477
 30
0.0
 11
-17.06549257022533
 21
235.1624572753477
 31
0.0
  0
LINE
  5
1A4F3
330
1F
100
AcDbEntity
  8
10000_FRONT
  6
Continuous
 62
     7
370
     9
100
AcDbLine
 10
-18.21549257022531
 20
235.1374572753476
 30
0.0
 11
-17.76549257022532
 21
235.1374572753476
 31
0.0
  0
LINE
  5
1A4F4
330
1F
100
AcDbEntity
  8
10000_FRONT
  6
Continuous
 62
     7
370
     9
100
AcDbLine
 10
-18.21549257022531
 20
235.1374572753476
 30
0.0
 11
-18.91549257022518
 21
236.7624572653477
 31
0.0
  0
LINE
  5
1A4F5
330
1F
100
AcDbEntity
  8
10000_FRONT
  6
Continuous
 62
     7
370
     9
100
AcDbLine
 10
-18.91549257022518
 20
235.1624572753477
 30
0.0
 11
-18.91549257022518
 21
236.7624572653477
 31
0.0
  0
LINE
  5
1A4F6
330
1F
100
AcDbEntity
  8
10000_FRONT
  6
Continuous
 62
     7
370
     9
100
AcDbLine
 10
-17.06549257022533
 20
236.7874572653477
 30
0.0
 11
-17.76549257022532
 21
235.1374572753476
 31
0.0
  0
LINE
  5
1A4F7
330
1F
100
AcDbEntity
  8
10000_FRONT
  6
Continuous
 62
     7
370
     9
100
AcDbLine
 10
-18.51549257022532
 20
237.6624573403477
 30
0.0
 11
-19.41549257022529
 21
237.6624573403477
 31
0.0
  0
LINE
  5
1A4F8
330
1F
100
AcDbEntity
  8
10000_FRONT
  6
Continuous
 62
     7
370
     9
100
AcDbLine
 10
-16.34049257022531
 20
237.6624573403477
 30
0.0
 11
-17.24049257022517
 21
237.6624573403477
 31
0.0
  0
LINE
  5
1A4F9
330
1F
100
AcDbEntity
  8
10000_FRONT
  6
Continuous
 62
     7
370
     9
100
AcDbLine
 10
-18.51549257022532
 20
237.6624573403477
 30
0.0
 11
-17.86549257022534
 21
236.1374572653477
 31
0.0
  0
LINE
  5
1A4FA
330
1F
100
AcDbEntity
  8
10000_FRONT
  6
Continuous
 62
     7
370
     9
100
AcDbLine
 10
-17.24049257022517
 20
237.6624573403477
 30
0.0
 11
-17.86549257022534
 21
236.1374572653477
 31
0.0
  0
LINE
  5
1A4FB
330
1F
100
AcDbEntity
  8
10000_FRONT
  6
Continuous
 62
     7
370
     9
100
AcDbLine
 10
-17.06549257022533
 20
236.7874572653477
 30
0.0
 11
-17.06549257022533
 21
235.1624572753477
 31
0.0
  0
LINE
  5
1A4FC
330
1F
100
AcDbEntity
  8
10000_FRONT
  6
Continuous
 62
     7
370
     9
100
AcDbLine
 10
-15.76549257022532
 20
237.6624573403477
 30
0.0
 11
-15.76549257022532
 21
235.1624572753477
 31
0.0
  0
LINE
  5
1A4FD
330
1F
100
AcDbEntity
  8
10000_FRONT
  6
Continuous
 62
     7
370
     9
100
AcDbLine
 10
-15.76549257022532
 20
235.1624572753477
 30
0.0
 11
-13.89049257022532
 21
235.1624572753477
 31
0.0
  0
LINE
  5
1A4FE
330
1F
100
AcDbEntity
  8
10000_FRONT
  6
Continuous
 62
     7
370
     9
100
AcDbLine
 10
-13.89049257022532
 20
235.6374572653477
 30
0.0
 11
-15.04049257022529
 21
235.6374572653477
 31
0.0
  0
LINE
  5
1A4FF
330
1F
100
AcDbEntity
  8
10000_FRONT
  6
Continuous
 62
     7
370
     9
100
AcDbLine
 10
-13.89049257022532
 20
235.6374572653477
 30
0.0
 11
-13.89049257022532
 21
235.1624572753477
 31
0.0
  0
LINE
  5
1A500
330
1F
100
AcDbEntity
  8
10000_FRONT
  6
Continuous
 62
     7
370
     9
100
AcDbLine
 10
-13.9154925702253
 20
237.6624573403477
 30
0.0
 11
-15.76549257022532
 21
237.6624573403477
 31
0.0
  0
LINE
  5
1A501
330
1F
100
AcDbEntity
  8
10000_FRONT
  6
Continuous
 62
     7
370
     9
100
AcDbLine
 10
-13.9154925702253
 20
237.1999572653477
 30
0.0
 11
-15.04049257022529
 21
237.1999572653477
 31
0.0
  0
LINE
  5
1A502
330
1F
100
AcDbEntity
  8
10000_FRONT
  6
Continuous
 62
     7
370
     9
100
AcDbLine
 10
-13.9154925702253
 20
237.6624573403477
 30
0.0
 11
-13.9154925702253
 21
237.1999572653477
 31
0.0
  0
LINE
  5
1A503
330
1F
100
AcDbEntity
  8
10000_FRONT
  6
Continuous
 62
     7
370
     9
100
AcDbLine
 10
-14.06549257022533
 20
236.2249572653476
 30
0.0
 11
-15.04049257022529
 21
236.2249572653476
 31
0.0
  0
LINE
  5
1A504
330
1F
100
AcDbEntity
  8
10000_FRONT
  6
Continuous
 62
     7
370
     9
100
AcDbLine
 10
-14.06549257022533
 20
236.6374572653477
 30
0.0
 11
-14.06549257022533
 21
236.2249572653476
 31
0.0
  0
LINE
  5
1A505
330
1F
100
AcDbEntity
  8
10000_FRONT
  6
Continuous
 62
     7
370
     9
100
AcDbLine
 10
-14.06549257022533
 20
236.6374572653477
 30
0.0
 11
-15.04049257022529
 21
236.6374572653477
 31
0.0
  0
LINE
  5
1A506
330
1F
100
AcDbEntity
  8
10000_FRONT
  6
Continuous
 62
     7
370
     9
100
AcDbLine
 10
-15.04049257022529
 20
237.1999572653477
 30
0.0
 11
-15.04049257022529
 21
236.6374572653477
 31
0.0
  0
LINE
  5
1A507
330
1F
100
AcDbEntity
  8
10000_FRONT
  6
Continuous
 62
     7
370
     9
100
AcDbLine
 10
-15.04049257022529
 20
236.2249572653476
 30
0.0
 11
-15.04049257022529
 21
235.6374572653477
 31
0.0
  0
LINE
  5
1A508
330
1F
100
AcDbEntity
  8
10000_FRONT
  6
Continuous
 62
     7
370
     9
100
AcDbLine
 10
-13.47799257022529
 20
235.1624572753477
 30
0.0
 11
-13.47799257022529
 21
237.6624573403477
 31
0.0
  0
LINE
  5
1A509
330
1F
100
AcDbEntity
  8
10000_FRONT
  6
Continuous
 62
     7
370
     9
100
AcDbLine
 10
-11.27799257022531
 20
237.6624573403477
 30
0.0
 11
-11.27799257022531
 21
235.1624572753477
 31
0.0
  0
LINE
  5
1A50A
330
1F
100
AcDbEntity
  8
10000_FRONT
  6
Continuous
 62
     7
370
     9
100
AcDbLine
 10
-13.47799257022529
 20
235.1624572753477
 30
0.0
 11
-12.9779925702253
 21
235.1624572753477
 31
0.0
  0
LINE
  5
1A50B
330
1F
100
AcDbEntity
  8
10000_FRONT
  6
Continuous
 62
     7
370
     9
100
AcDbLine
 10
-11.27799257022531
 20
237.6624573403477
 30
0.0
 11
-11.77799257022531
 21
237.6624573403477
 31
0.0
  0
LINE
  5
1A50C
330
1F
100
AcDbEntity
  8
10000_FRONT
  6
Continuous
 62
     7
370
     9
100
AcDbLine
 10
-12.66549257022518
 20
237.6624573403477
 30
0.0
 11
-13.47799257022529
 21
237.6624573403477
 31
0.0
  0
LINE
  5
1A50D
330
1F
100
AcDbEntity
  8
10000_FRONT
  6
Continuous
 62
     7
370
     9
100
AcDbLine
 10
-11.27799257022531
 20
235.1624572753477
 30
0.0
 11
-12.07799257022532
 21
235.1624572753477
 31
0.0
  0
LINE
  5
1A50E
330
1F
100
AcDbEntity
  8
10000_FRONT
  6
Continuous
 62
     7
370
     9
100
AcDbLine
 10
-12.07799257022532
 20
235.1624572753477
 30
0.0
 11
-12.9779925702253
 21
236.7624572653477
 31
0.0
  0
LINE
  5
1A50F
330
1F
100
AcDbEntity
  8
10000_FRONT
  6
Continuous
 62
     7
370
     9
100
AcDbLine
 10
-12.66549257022518
 20
237.6624573403477
 30
0.0
 11
-11.77799257022531
 21
236.1124572653477
 31
0.0
  0
LINE
  5
1A510
330
1F
100
AcDbEntity
  8
10000_FRONT
  6
Continuous
 62
     7
370
     9
100
AcDbLine
 10
-11.77799257022531
 20
237.6624573403477
 30
0.0
 11
-11.77799257022531
 21
236.1124572653477
 31
0.0
  0
LINE
  5
1A511
330
1F
100
AcDbEntity
  8
10000_FRONT
  6
Continuous
 62
     7
370
     9
100
AcDbLine
 10
-12.9779925702253
 20
235.1624572753477
 30
0.0
 11
-12.9779925702253
 21
236.7624572653477
 31
0.0
  0
LINE
  5
1A512
330
1F
100
AcDbEntity
  8
10000_FRONT
  6
Continuous
 62
     7
370
     9
100
AcDbLine
 10
-9.102992570225296
 20
237.1374572653477
 30
0.0
 11
-9.102992570225296
 21
237.6374573403477
 31
0.0
  0
LINE
  5
1A513
330
1F
100
AcDbEntity
  8
10000_FRONT
  6
Continuous
 62
     7
370
     9
100
AcDbLine
 10
-25.36549260272517
 20
235.2124572753477
 30
0.0
 11
-25.36549260272517
 21
235.7124572653477
 31
0.0
  0
LINE
  5
1A514
330
1F
100
AcDbEntity
  8
10000_FRONT
  6
Continuous
 62
     7
370
     9
100
AcDbLine
 10
-23.61549259522531
 20
237.1374572653477
 30
0.0
 11
-23.61549259522531
 21
237.6374573403477
 31
0.0
  0
ARC
  5
1A515
330
1F
100
AcDbEntity
  8
10000_FRONT
  6
Continuous
 62
     7
370
     9
100
AcDbCircle
 10
-24.46893009522518
 20
236.1918322653477
 30
0.0
 40
0.58466045
100
AcDbArc
 50
277.7099999999939
 51
295.6884900000018
  0
ARC
  5
1A516
330
1F
100
AcDbEntity
  8
10000_FRONT
  6
Continuous
 62
     7
370
     9
100
AcDbCircle
 10
-24.31939619522518
 20
235.8106073903476
 30
0.0
 40
0.178913145
100
AcDbArc
 50
305.5032199999926
 51
72.4652899999992
  0
ARC
  5
1A517
330
1F
100
AcDbEntity
  8
10000_FRONT
  6
Continuous
 62
     7
370
     9
100
AcDbCircle
 10
-24.61708279522532
 20
237.5997480903477
 30
0.0
 40
2.50185425
100
AcDbArc
 50
252.5939200000065
 51
280.9816599999948
  0
ARC
  5
1A518
330
1F
100
AcDbEntity
  8
10000_FRONT
  6
Continuous
 62
     7
370
     9
100
AcDbCircle
 10
-24.3778603952253
 20
236.2227938153477
 30
0.0
 40
1.104885174999999
100
AcDbArc
 50
282.4058400000004
 51
311.8644399999988
  0
ARC
  5
1A519
330
1F
100
AcDbEntity
  8
10000_FRONT
  6
Continuous
 62
     7
370
     9
100
AcDbCircle
 10
-24.52174259522519
 20
237.0687072653477
 30
0.0
 40
0.15934436
100
AcDbArc
 50
154.4400299999984
 51
221.8201699999948
  0
ARC
  5
1A51A
330
1F
100
AcDbEntity
  8
10000_FRONT
  6
Continuous
 62
     7
370
     9
100
AcDbCircle
 10
-24.48007594522517
 20
237.0270406153477
 30
0.0
 40
0.21580357
100
AcDbArc
 50
102.8287799999983
 51
149.2259599999988
  0
ARC
  5
1A51B
330
1F
100
AcDbEntity
  8
10000_FRONT
  6
Continuous
 62
     7
370
     9
100
AcDbCircle
 10
-24.26073907022516
 20
236.1106526903477
 30
0.0
 40
1.158064325
100
AcDbArc
 50
84.04000599999699
 51
103.3427700000065
  0
ARC
  5
1A51C
330
1F
100
AcDbEntity
  8
10000_FRONT
  6
Continuous
 62
     7
370
     9
100
AcDbCircle
 10
-24.44007029522516
 20
234.8392309153477
 30
0.0
 40
2.441674174999999
100
AcDbArc
 50
70.26258599999761
 51
82.95241899999373
  0
ARC
  5
1A51D
330
1F
100
AcDbEntity
  8
10000_FRONT
  6
Continuous
 62
     7
370
     9
100
AcDbCircle
 10
-24.71042014522516
 20
237.2962887903477
 30
0.0
 40
1.713955149999999
100
AcDbArc
 50
247.5300200000014
 51
280.7579500000008
  0
ARC
  5
1A51E
330
1F
100
AcDbEntity
  8
10000_FRONT
  6
Continuous
 62
     7
370
     9
100
AcDbCircle
 10
-28.06861757022517
 20
227.6968323403476
 30
0.0
 40
9.1156255
100
AcDbArc
 50
65.34146699999965
 51
67.39977699999872
  0
ARC
  5
1A51F
330
1F
100
AcDbEntity
  8
10000_FRONT
  6
Continuous
 62
     7
370
     9
100
AcDbCircle
 10
-22.39049257022532
 20
241.2624573403477
 30
0.0
 40
5.5904495
100
AcDbArc
 50
242.8620099999973
 51
247.1042000000021
  0
ARC
  5
1A520
330
1F
100
AcDbEntity
  8
10000_FRONT
  6
Continuous
 62
     7
370
     9
100
AcDbCircle
 10
-24.41799259522531
 20
237.2999572653477
 30
0.0
 40
1.139369349999999
100
AcDbArc
 50
227.3119300000042
 51
242.7040300000003
  0
ARC
  5
1A521
330
1F
100
AcDbEntity
  8
10000_FRONT
  6
Continuous
 62
     7
370
     9
100
AcDbCircle
 10
-24.73568492022514
 20
236.9288034403477
 30
0.0
 40
0.651405225
100
AcDbArc
 50
194.7952200000003
 51
225.7176500000034
  0
ARC
  5
1A522
330
1F
100
AcDbEntity
  8
10000_FRONT
  6
Continuous
 62
     7
370
     9
100
AcDbCircle
 10
-24.70299259522517
 20
236.9499572653477
 30
0.0
 40
0.688521975
100
AcDbArc
 50
164.1974899999997
 51
195.8025100000002
  0
ARC
  5
1A523
330
1F
100
AcDbEntity
  8
10000_FRONT
  6
Continuous
 62
     7
370
     9
100
AcDbCircle
 10
-24.41002384522517
 20
236.4827697653477
 30
0.0
 40
1.244893124999999
100
AcDbArc
 50
86.22180199999368
 51
120.4272600000041
  0
ARC
  5
1A524
330
1F
100
AcDbEntity
  8
10000_FRONT
  6
Continuous
 62
     7
370
     9
100
AcDbCircle
 10
-24.55143009522516
 20
232.9608947653476
 30
0.0
 40
4.76929925
100
AcDbArc
 50
78.68270499999709
 51
87.31476000000476
  0
ARC
  5
1A525
330
1F
100
AcDbEntity
  8
10000_FRONT
  6
Continuous
 62
     7
370
     9
100
AcDbCircle
 10
-24.79130142022518
 20
237.0065013903477
 30
0.0
 40
0.5889354500000003
100
AcDbArc
 50
142.8139199999989
 51
167.1523000000005
  0
ARC
  5
1A526
330
1F
100
AcDbEntity
  8
10000_FRONT
  6
Continuous
 62
     7
370
     9
100
AcDbCircle
 10
-24.6096846702252
 20
236.8452535903477
 30
0.0
 40
0.8312945499999997
100
AcDbArc
 50
121.214089999999
 51
141.5254800000024
  0
ARC
  5
1A527
330
1F
100
AcDbEntity
  8
10000_FRONT
  6
Continuous
 62
     7
370
     9
100
AcDbCircle
 10
-24.30611759522532
 20
237.2718322653477
 30
0.0
 40
0.455543125
100
AcDbArc
 50
222.7760399999961
 51
239.0362399999989
  0
ARC
  5
1A528
330
1F
100
AcDbEntity
  8
10000_FRONT
  6
Continuous
 62
     7
370
     9
100
AcDbCircle
 10
-25.62453106522531
 20
233.4164476653477
 30
0.0
 40
3.607398
100
AcDbArc
 50
59.90202700000654
 51
68.20364800000003
  0
ARC
  5
1A529
330
1F
100
AcDbEntity
  8
10000_FRONT
  6
Continuous
 62
     7
370
     9
100
AcDbCircle
 10
-23.83182039522518
 20
238.1110515903477
 30
0.0
 40
1.419413124999999
100
AcDbArc
 50
240.0482000000005
 51
251.3779700000006
  0
ARC
  5
1A52A
330
1F
100
AcDbEntity
  8
10000_FRONT
  6
Continuous
 62
     7
370
     9
100
AcDbCircle
 10
-24.18182012022516
 20
235.9247150153477
 30
0.0
 40
0.7539271750000001
100
AcDbArc
 50
315.8904600000025
 51
333.5229300000012
  0
ARC
  5
1A52B
330
1F
100
AcDbEntity
  8
10000_FRONT
  6
Continuous
 62
     7
370
     9
100
AcDbCircle
 10
-24.17938062022518
 20
235.8966253403476
 30
0.0
 40
0.7396113500000002
100
AcDbArc
 50
335.3867999999983
 51
24.39151000000127
  0
ARC
  5
1A52C
330
1F
100
AcDbEntity
  8
10000_FRONT
  6
Continuous
 62
     7
370
     9
100
AcDbCircle
 10
-24.21735707022532
 20
235.8556763153476
 30
0.0
 40
0.791404025
100
AcDbArc
 50
25.95629200000013
 51
59.48348299999842
  0
ARC
  5
1A52D
330
1F
100
AcDbEntity
  8
10000_FRONT
  6
Continuous
 62
     7
370
     9
100
AcDbCircle
 10
-9.956430070225335
 20
236.1918322653477
 30
0.0
 40
0.58466045
100
AcDbArc
 50
277.7099999999939
 51
295.6884900000018
  0
ARC
  5
1A52E
330
1F
100
AcDbEntity
  8
10000_FRONT
  6
Continuous
 62
     7
370
     9
100
AcDbCircle
 10
-9.80689607022532
 20
235.8106073903476
 30
0.0
 40
0.178913145
100
AcDbArc
 50
305.5032199999926
 51
72.4652899999992
  0
ARC
  5
1A52F
330
1F
100
AcDbEntity
  8
10000_FRONT
  6
Continuous
 62
     7
370
     9
100
AcDbCircle
 10
-10.10458282022534
 20
237.5997480903477
 30
0.0
 40
2.50185425
100
AcDbArc
 50
252.5939200000065
 51
280.9816599999948
  0
ARC
  5
1A530
330
1F
100
AcDbEntity
  8
10000_FRONT
  6
Continuous
 62
     7
370
     9
100
AcDbCircle
 10
-9.865360320225306
 20
236.2227938153477
 30
0.0
 40
1.104885174999999
100
AcDbArc
 50
282.4058400000004
 51
311.8644399999988
  0
ARC
  5
1A531
330
1F
100
AcDbEntity
  8
10000_FRONT
  6
Continuous
 62
     7
370
     9
100
AcDbCircle
 10
-10.00924257022529
 20
237.0687072653477
 30
0.0
 40
0.15934436
100
AcDbArc
 50
154.4400299999984
 51
221.8201699999948
  0
ARC
  5
1A532
330
1F
100
AcDbEntity
  8
10000_FRONT
  6
Continuous
 62
     7
370
     9
100
AcDbCircle
 10
-9.967575820225306
 20
237.0270406153477
 30
0.0
 40
0.21580357
100
AcDbArc
 50
102.8287799999983
 51
149.2259599999988
  0
ARC
  5
1A533
330
1F
100
AcDbEntity
  8
10000_FRONT
  6
Continuous
 62
     7
370
     9
100
AcDbCircle
 10
-9.748239070225338
 20
236.1106526903477
 30
0.0
 40
1.158064325
100
AcDbArc
 50
84.04000599999699
 51
103.3427700000065
  0
ARC
  5
1A534
330
1F
100
AcDbEntity
  8
10000_FRONT
  6
Continuous
 62
     7
370
     9
100
AcDbCircle
 10
-9.927570320225301
 20
234.8392309153477
 30
0.0
 40
2.441674174999999
100
AcDbArc
 50
70.26258599999761
 51
82.95241899999373
  0
ARC
  5
1A535
330
1F
100
AcDbEntity
  8
10000_FRONT
  6
Continuous
 62
     7
370
     9
100
AcDbCircle
 10
-10.19792007022533
 20
237.2962887903477
 30
0.0
 40
1.713955149999999
100
AcDbArc
 50
247.5300200000014
 51
280.7579500000008
  0
ARC
  5
1A536
330
1F
100
AcDbEntity
  8
10000_FRONT
  6
Continuous
 62
     7
370
     9
100
AcDbCircle
 10
-13.55611757022529
 20
227.6968323403476
 30
0.0
 40
9.1156255
100
AcDbArc
 50
65.34146699999965
 51
67.39977699999872
  0
ARC
  5
1A537
330
1F
100
AcDbEntity
  8
10000_FRONT
  6
Continuous
 62
     7
370
     9
100
AcDbCircle
 10
-7.87799257022533
 20
241.2624573403477
 30
0.0
 40
5.5904495
100
AcDbArc
 50
242.8620099999973
 51
247.1042000000021
  0
ARC
  5
1A538
330
1F
100
AcDbEntity
  8
10000_FRONT
  6
Continuous
 62
     7
370
     9
100
AcDbCircle
 10
-9.905492570225304
 20
237.2999572653477
 30
0.0
 40
1.139369349999999
100
AcDbArc
 50
227.3119300000042
 51
242.7040300000003
  0
ARC
  5
1A539
330
1F
100
AcDbEntity
  8
10000_FRONT
  6
Continuous
 62
     7
370
     9
100
AcDbCircle
 10
-10.2231848202253
 20
236.9288034403477
 30
0.0
 40
0.651405225
100
AcDbArc
 50
194.7952200000003
 51
225.7176500000034
  0
ARC
  5
1A53A
330
1F
100
AcDbEntity
  8
10000_FRONT
  6
Continuous
 62
     7
370
     9
100
AcDbCircle
 10
-10.19049257022516
 20
236.9499572653477
 30
0.0
 40
0.688521975
100
AcDbArc
 50
164.1974899999997
 51
195.8025100000002
  0
ARC
  5
1A53B
330
1F
100
AcDbEntity
  8
10000_FRONT
  6
Continuous
 62
     7
370
     9
100
AcDbCircle
 10
-9.89752382022516
 20
236.4827697653477
 30
0.0
 40
1.244893124999999
100
AcDbArc
 50
86.22180199999368
 51
120.4272600000041
  0
ARC
  5
1A53C
330
1F
100
AcDbEntity
  8
10000_FRONT
  6
Continuous
 62
     7
370
     9
100
AcDbCircle
 10
-10.03893007022532
 20
232.9608947653476
 30
0.0
 40
4.76929925
100
AcDbArc
 50
78.68270499999709
 51
87.31476000000476
  0
ARC
  5
1A53D
330
1F
100
AcDbEntity
  8
10000_FRONT
  6
Continuous
 62
     7
370
     9
100
AcDbCircle
 10
-10.27880132022517
 20
237.0065013903477
 30
0.0
 40
0.5889354500000003
100
AcDbArc
 50
142.8139199999989
 51
167.1523000000005
  0
ARC
  5
1A53E
330
1F
100
AcDbEntity
  8
10000_FRONT
  6
Continuous
 62
     7
370
     9
100
AcDbCircle
 10
-10.09718457022529
 20
236.8452535903477
 30
0.0
 40
0.8312945499999997
100
AcDbArc
 50
121.214089999999
 51
141.5254800000024
  0
ARC
  5
1A53F
330
1F
100
AcDbEntity
  8
10000_FRONT
  6
Continuous
 62
     7
370
     9
100
AcDbCircle
 10
-9.793617570225306
 20
237.2718322653477
 30
0.0
 40
0.455543125
100
AcDbArc
 50
222.7760399999961
 51
239.0362399999989
  0
ARC
  5
1A540
330
1F
100
AcDbEntity
  8
10000_FRONT
  6
Continuous
 62
     7
370
     9
100
AcDbCircle
 10
-11.11203107022515
 20
233.4164476653477
 30
0.0
 40
3.607398
100
AcDbArc
 50
59.90202700000654
 51
68.20364800000003
  0
ARC
  5
1A541
330
1F
100
AcDbEntity
  8
10000_FRONT
  6
Continuous
 62
     7
370
     9
100
AcDbCircle
 10
-9.319320320225301
 20
238.1110515903477
 30
0.0
 40
1.419413124999999
100
AcDbArc
 50
240.0482000000005
 51
251.3779700000006
  0
ARC
  5
1A542
330
1F
100
AcDbEntity
  8
10000_FRONT
  6
Continuous
 62
     7
370
     9
100
AcDbCircle
 10
-9.669320070225296
 20
235.9247150153477
 30
0.0
 40
0.7539271750000001
100
AcDbArc
 50
315.8904600000025
 51
333.5229300000012
  0
ARC
  5
1A543
330
1F
100
AcDbEntity
  8
10000_FRONT
  6
Continuous
 62
     7
370
     9
100
AcDbCircle
 10
-9.666880570225316
 20
235.8966253403476
 30
0.0
 40
0.7396113500000002
100
AcDbArc
 50
335.3867999999983
 51
24.39151000000127
  0
ARC
  5
1A544
330
1F
100
AcDbEntity
  8
10000_FRONT
  6
Continuous
 62
     7
370
     9
100
AcDbCircle
 10
-9.70485707022533
 20
235.8556763153476
 30
0.0
 40
0.791404025
100
AcDbArc
 50
25.95629200000013
 51
59.48348299999842
  0
DIMENSION
  5
1A561
102
{ACAD_XDICTIONARY
360
1A570
102
}
102
{ACAD_REACTORS
330
1A57C
102
}
330
1F
100
AcDbEntity
  8
11100_LEFT_DIM
  6
Continuous
 62
     7
370
    13
100
AcDbDimension
  2
*D13
 10
53.3837340166549
 20
142.6702183568572
 30
0.0
 11
63.01683571157013
 21
134.0598793738064
 31
0.0
 70
    32
 71
     5
 42
5.099999999999971
  3
H035
100
AcDbAlignedDimension
 13
58.48373401665487
 23
190.8378938403478
 33
0.0
 14
53.3837340166549
 24
151.1878938403475
 34
0.0
100
AcDbRotatedDimension
1001
ACAD
1000
DSTYLE
1002
{
1070
    40
1040
1.0
1070
   147
1040
1.5
1070
   279
1070
     1
1070
   288
1070
     1
1002
}
  0
ARC
  5
1A5C3
330
1F
100
AcDbEntity
  8
10000_FRONT
  6
HIDDEN
 62
     7
370
     9
100
AcDbCircle
 10
-8.538914570225358
 20
258.7142499967618
 30
0.0
 40
2.25
100
AcDbArc
 50
0.0
 51
180.0
  0
ARC
  5
1A5C4
330
1F
100
AcDbEntity
  8
10000_FRONT
  6
HIDDEN
 62
     7
370
     9
100
AcDbCircle
 10
-8.538914570225358
 20
257.4142499967617
 30
0.0
 40
2.25
100
AcDbArc
 50
180.0
 51
231.0575587310342
  0
LINE
  5
1A5C5
330
1F
100
AcDbEntity
  8
10000_FRONT
  6
HIDDEN
 62
     7
370
     9
100
AcDbLine
 10
-10.78891457022536
 20
257.4142499967617
 30
0.0
 11
-10.78891457022536
 21
258.7142499967618
 31
0.0
  0
LINE
  5
1A5C6
330
1F
100
AcDbEntity
  8
10000_FRONT
  6
HIDDEN
 62
     7
370
     9
100
AcDbLine
 10
-6.288914570225357
 20
258.7142499967618
 30
0.0
 11
-6.288914570225357
 21
257.4142499967617
 31
0.0
  0
ARC
  5
1A5C7
330
1F
100
AcDbEntity
  8
10000_FRONT
  6
HIDDEN
 62
     7
370
     9
100
AcDbCircle
 10
-8.538914570225358
 20
257.4142499967617
 30
0.0
 40
2.25
100
AcDbArc
 50
308.9424412689659
 51
0.0
  0
ENDSEC
  0
SECTION
  2
OBJECTS
  0
DICTIONARY
  5
C
330
0
100
AcDbDictionary
281
     1
  3
ACAD_COLOR
350
6B
  3
ACAD_GROUP
350
D
  3
ACAD_LAYOUT
350
1A
  3
ACAD_MATERIAL
350
6A
  3
ACAD_MLINESTYLE
350
17
  3
ACAD_PLOTSETTINGS
350
19
  3
ACAD_PLOTSTYLENAME
350
E
  3
ACDBHEADERROUNDTRIPXREC
350
1A5F8
  3
AcDbVariableDictionary
350
5E
  3
DWGPROPS
350
1A5F7
  0
DICTIONARY
  5
1A570
330
1A561
100
AcDbDictionary
280
     1
281
     1
  3
ACAD_DIMASSOC
360
1A57C
  0
DICTIONARY
  5
6B
102
{ACAD_REACTORS
330
C
102
}
330
C
100
AcDbDictionary
281
     1
  0
DICTIONARY
  5
D
102
{ACAD_REACTORS
330
C
102
}
330
C
100
AcDbDictionary
281
     1
  0
DICTIONARY
  5
1A
102
{ACAD_REACTORS
330
C
102
}
330
C
100
AcDbDictionary
281
     1
  3
Layout1
350
51
  3
Layout2
350
56
  3
Model
350
22
  0
DICTIONARY
  5
6A
102
{ACAD_REACTORS
330
C
102
}
330
C
100
AcDbDictionary
281
     1
  0
DICTIONARY
  5
17
102
{ACAD_REACTORS
330
C
102
}
330
C
100
AcDbDictionary
281
     1
  3
Standard
350
18
  0
DICTIONARY
  5
19
102
{ACAD_REACTORS
330
C
102
}
330
C
100
AcDbDictionary
281
     1
  0
ACDBDICTIONARYWDFLT
  5
E
102
{ACAD_REACTORS
330
C
102
}
330
C
100
AcDbDictionary
281
     1
  3
Normal
350
F
100
AcDbDictionaryWithDefault
340
F
  0
DICTIONARY
  5
1A5F8
102
{ACAD_REACTORS
330
C
102
}
330
C
100
AcDbDictionary
281
     1
  3
COLORDICT
350
1A5FA
  3
MATERIALDICT
350
1A5F9
  0
DICTIONARY
  5
5E
102
{ACAD_REACTORS
330
C
102
}
330
C
100
AcDbDictionary
281
     1
  3
DIMASSOC
350
5F
  3
HIDETEXT
350
63
  3
PROJECTNAME
350
876
  0
XRECORD
  5
1A5F7
102
{ACAD_REACTORS
330
C
102
}
330
C
100
AcDbXrecord
280
     1
  1
DWGPROPS COOKIE
  2

  3

  4

  6

  7

  8

  9

300
=
301
=
302
=
303
=
304
=
305
=
306
=
307
=
308
=
309
=
 40
1.111014780092592
 41
2453200.520904387
 42
2453928.395050324
  1

 90
        0
  0
DIMASSOC
  5
1A57C
102
{ACAD_REACTORS
330
1A570
102
}
330
1A570
100
AcDbDimAssoc
330
1A561
 90
        3
 70
     0
 71
     0
  1
AcDbOsnapPointRef
 72
     6
331
19968
 73
     2
 91
        0
 40
1.0
 10
0.0
 20
0.0
 30
0.0
332
19969
 74
     2
 92
        0
 75
     0
  1
AcDbOsnapPointRef
 72
    13
331
199F7
 73
     2
 91
        0
 40
0.0
 10
0.0
 20
0.0
 30
2.000000000000000E+50
 75
     0
  0
LAYOUT
  5
51
102
{ACAD_XDICTIONARY
360
1A5FD
102
}
102
{ACAD_REACTORS
330
1A
102
}
330
1A
100
AcDbPlotSettings
  1

  2
None
  4

  6

 40
0.0
 41
0.0
 42
0.0
 43
0.0
 44
0.0
 45
0.0
 46
0.0
 47
0.0
 48
0.0
 49
0.0
140
0.0
141
0.0
142
1.0
143
1.0
 70
   688
 72
     0
 73
     0
 74
     5
  7

 75
    16
147
1.0
148
0.0
149
0.0
100
AcDbLayout
  1
Layout1
 70
     1
 71
     1
 10
0.0
 20
0.0
 11
12.0
 21
9.0
 12
0.0
 22
0.0
 32
0.0
 14
0.0
 24
0.0
 34
0.0
 15
0.0
 25
0.0
 35
0.0
146
0.0
 13
0.0
 23
0.0
 33
0.0
 16
1.0
 26
0.0
 36
0.0
 17
0.0
 27
1.0
 37
0.0
 76
     0
330
50
  0
LAYOUT
  5
56
102
{ACAD_XDICTIONARY
360
1A5FF
102
}
102
{ACAD_REACTORS
330
1A
102
}
330
1A
100
AcDbPlotSettings
  1

  2
None
  4

  6

 40
0.0
 41
0.0
 42
0.0
 43
0.0
 44
0.0
 45
0.0
 46
0.0
 47
0.0
 48
0.0
 49
0.0
140
0.0
141
0.0
142
1.0
143
1.0
 70
   688
 72
     0
 73
     0
 74
     5
  7

 75
    16
147
1.0
148
0.0
149
0.0
100
AcDbLayout
  1
Layout2
 70
     1
 71
     2
 10
0.0
 20
0.0
 11
12.0
 21
9.0
 12
0.0
 22
0.0
 32
0.0
 14
0.0
 24
0.0
 34
0.0
 15
0.0
 25
0.0
 35
0.0
146
0.0
 13
0.0
 23
0.0
 33
0.0
 16
1.0
 26
0.0
 36
0.0
 17
0.0
 27
1.0
 37
0.0
 76
     0
330
55
  0
LAYOUT
  5
22
102
{ACAD_XDICTIONARY
360
1A5FB
102
}
102
{ACAD_REACTORS
330
1A
102
}
330
1A
100
AcDbPlotSettings
  1

  2
\\ambw779a\A_P00873 (Canon iR2200-3300 PCL6)
  4
A4
  6

 40
4.815416812896728
 41
4.815412044525146
 42
4.815414428710936
 43
4.8154296875
 44
209.9733276367186
 45
296.9259948730469
 46
0.0
 47
0.0
 48
0.0
 49
0.0
140
0.0
141
0.0
142
1.0
143
0.9984337183221128
 70
 11952
 72
     1
 73
     1
 74
     1
  7

 75
     0
147
1.001568738764671
148
73.43708150054259
149
-97.1373672322195
100
AcDbLayout
  1
Model
 70
     1
 71
     0
 10
0.0
 20
0.0
 11
12.0
 21
9.0
 12
0.0
 22
0.0
 32
0.0
 14
0.0
 24
0.0
 34
0.0
 15
0.0
 25
0.0
 35
0.0
146
0.0
 13
0.0
 23
0.0
 33
0.0
 16
1.0
 26
0.0
 36
0.0
 17
0.0
 27
1.0
 37
0.0
 76
     0
330
1F
  0
MLINESTYLE
  5
18
102
{ACAD_REACTORS
330
17
102
}
330
17
100
AcDbMlineStyle
  2
STANDARD
 70
     0
  3

 62
   256
 51
90.0
 52
90.0
 71
     2
 49
0.5
 62
   256
  6
BYLAYER
 49
-0.5
 62
   256
  6
BYLAYER
  0
ACDBPLACEHOLDER
  5
F
102
{ACAD_REACTORS
330
E
102
}
330
E
  0
XRECORD
  5
1A5FA
102
{ACAD_REACTORS
330
1A5F8
102
}
330
1A5F8
100
AcDbXrecord
280
     1
340
6B
  0
XRECORD
  5
1A5F9
102
{ACAD_REACTORS
330
1A5F8
102
}
330
1A5F8
100
AcDbXrecord
280
     1
340
6A
  0
DICTIONARYVAR
  5
5F
102
{ACAD_REACTORS
330
5E
102
}
330
5E
100
DictionaryVariables
280
     0
  1
2
  0
DICTIONARYVAR
  5
63
102
{ACAD_REACTORS
330
5E
102
}
330
5E
100
DictionaryVariables
280
     0
  1
1
  0
DICTIONARYVAR
  5
876
102
{ACAD_REACTORS
330
5E
102
}
330
5E
100
DictionaryVariables
280
     0
  1

  0
DICTIONARY
  5
1A5FD
330
51
100
AcDbDictionary
280
     1
281
     1
  3
ACAD_XREC_ROUNDTRIP
360
1A5FE
  0
DICTIONARY
  5
1A5FF
330
56
100
AcDbDictionary
280
     1
281
     1
  3
ACAD_XREC_ROUNDTRIP
360
1A600
  0
DICTIONARY
  5
1A5FB
330
22
100
AcDbDictionary
280
     1
281
     1
  3
ACAD_XREC_ROUNDTRIP
360
1A5FC
  0
XRECORD
  5
1A5FE
102
{ACAD_REACTORS
330
1A5FD
102
}
330
1A5FD
100
AcDbXrecord
280
     1
102
SHADEPLOT
 70
     0
102
SHADEPLOTRESLEVEL
 70
     2
102
SHADEPLOTCUSTOMDPI
 70
   300
  0
XRECORD
  5
1A600
102
{ACAD_REACTORS
330
1A5FF
102
}
330
1A5FF
100
AcDbXrecord
280
     1
102
SHADEPLOT
 70
     0
102
SHADEPLOTRESLEVEL
 70
     2
102
SHADEPLOTCUSTOMDPI
 70
   300
  0
XRECORD
  5
1A5FC
102
{ACAD_REACTORS
330
1A5FB
102
}
330
1A5FB
100
AcDbXrecord
280
     1
102
SHADEPLOT
 70
     0
102
SHADEPLOTRESLEVEL
 70
     2
102
SHADEPLOTCUSTOMDPI
 70
   300
  0
ENDSEC
  0
EOF
