  0
SECTION
  2
HEADER
  9
$ACADVER
  1
AC1015
  9
$ACADMAINTVER
 70
    20
  9
$DWGCODEPAGE
  3
ANSI_1252
  9
$INSBASE
 10
0.0
 20
0.0
 30
0.0
  9
$EXTMIN
 10
715.2015995301735
 20
-679.456038151598
 30
-0.0000000000000058
  9
$EXTMAX
 10
1012.23044558932
 20
-469.3789819167013
 30
0.0000000000000104
  9
$LIMMIN
 10
0.0
 20
0.0
  9
$LIMMAX
 10
420.0
 20
297.0
  9
$ORTHOMODE
 70
     1
  9
$REGENMODE
 70
     1
  9
$FILLMODE
 70
     1
  9
$QTEXTMODE
 70
     0
  9
$MIRRTEXT
 70
     1
  9
$LTSCALE
 40
1.0
  9
$ATTMODE
 70
     1
  9
$TEXTSIZE
 40
2.5
  9
$TRACEWID
 40
1.0
  9
$TEXTSTYLE
  7
STANDARD
  9
$CLAYER
  8
0
  9
$CELTYPE
  6
ByLayer
  9
$CECOLOR
 62
   256
  9
$CELTSCALE
 40
1.0
  9
$DISPSILH
 70
     0
  9
$DIMSCALE
 40
0.0
  9
$DIMASZ
 40
3.5
  9
$DIMEXO
 40
0.0
  9
$DIMDLI
 40
3.75
  9
$DIMRND
 40
0.0
  9
$DIMDLE
 40
0.0
  9
$DIMEXE
 40
2.0
  9
$DIMTP
 40
0.0
  9
$DIMTM
 40
0.0
  9
$DIMTXT
 40
3.5
  9
$DIMCEN
 40
3.5
  9
$DIMTSZ
 40
0.0
  9
$DIMTOL
 70
     0
  9
$DIMLIM
 70
     0
  9
$DIMTIH
 70
     0
  9
$DIMTOH
 70
     0
  9
$DIMSE1
 70
     0
  9
$DIMSE2
 70
     0
  9
$DIMTAD
 70
     1
  9
$DIMZIN
 70
     8
  9
$DIMBLK
  1

  9
$DIMASO
 70
     1
  9
$DIMSHO
 70
     1
  9
$DIMPOST
  1

  9
$DIMAPOST
  1

  9
$DIMALT
 70
     1
  9
$DIMALTD
 70
     4
  9
$DIMALTF
 40
0.0394
  9
$DIMLFAC
 40
1.0
  9
$DIMTOFL
 70
     1
  9
$DIMTVP
 40
0.0
  9
$DIMTIX
 70
     0
  9
$DIMSOXD
 70
     0
  9
$DIMSAH
 70
     0
  9
$DIMBLK1
  1

  9
$DIMBLK2
  1

  9
$DIMSTYLE
  2
DIN 3.5
  9
$DIMCLRD
 70
     7
  9
$DIMCLRE
 70
     7
  9
$DIMCLRT
 70
     7
  9
$DIMTFAC
 40
1.0
  9
$DIMGAP
 40
1.0
  9
$DIMJUST
 70
     0
  9
$DIMSD1
 70
     0
  9
$DIMSD2
 70
     0
  9
$DIMTOLJ
 70
     1
  9
$DIMTZIN
 70
     0
  9
$DIMALTZ
 70
     8
  9
$DIMALTTZ
 70
     0
  9
$DIMUPT
 70
     0
  9
$DIMDEC
 70
     1
  9
$DIMTDEC
 70
     1
  9
$DIMALTU
 70
     8
  9
$DIMALTTD
 70
     4
  9
$DIMTXSTY
  7
STANDARD
  9
$DIMAUNIT
 70
     0
  9
$DIMADEC
 70
     1
  9
$DIMALTRND
 40
0.0
  9
$DIMAZIN
 70
     2
  9
$DIMDSEP
 70
    46
  9
$DIMATFIT
 70
     3
  9
$DIMFRAC
 70
     0
  9
$DIMLDRBLK
  1

  9
$DIMLUNIT
 70
     6
  9
$DIMLWD
 70
    13
  9
$DIMLWE
 70
    13
  9
$DIMTMOVE
 70
     0
  9
$LUNITS
 70
     2
  9
$LUPREC
 70
     2
  9
$SKETCHINC
 40
1.0
  9
$FILLETRAD
 40
2.5
  9
$AUNITS
 70
     0
  9
$AUPREC
 70
     0
  9
$MENU
  1
.
  9
$ELEVATION
 40
0.0
  9
$PELEVATION
 40
0.0
  9
$THICKNESS
 40
0.0
  9
$LIMCHECK
 70
     0
  9
$CHAMFERA
 40
2.5
  9
$CHAMFERB
 40
2.5
  9
$CHAMFERC
 40
20.0
  9
$CHAMFERD
 40
0.0
  9
$SKPOLY
 70
     0
  9
$TDCREATE
 40
2454179.414103252
  9
$TDUCREATE
 40
2454179.330769919
  9
$TDUPDATE
 40
2454236.462464410
  9
$TDUUPDATE
 40
2454236.379131077
  9
$TDINDWG
 40
0.6812534838
  9
$TDUSRTIMER
 40
0.6812518519
  9
$USRTIMER
 70
     1
  9
$ANGBASE
 50
0.0
  9
$ANGDIR
 70
     0
  9
$PDMODE
 70
     0
  9
$PDSIZE
 40
0.0
  9
$PLINEWID
 40
0.0
  9
$SPLFRAME
 70
     0
  9
$SPLINETYPE
 70
     6
  9
$SPLINESEGS
 70
     8
  9
$HANDSEED
  5
2555
  9
$SURFTAB1
 70
     6
  9
$SURFTAB2
 70
     6
  9
$SURFTYPE
 70
     6
  9
$SURFU
 70
     6
  9
$SURFV
 70
     6
  9
$UCSBASE
  2

  9
$UCSNAME
  2

  9
$UCSORG
 10
0.0
 20
0.0
 30
0.0
  9
$UCSXDIR
 10
1.0
 20
0.0
 30
0.0
  9
$UCSYDIR
 10
0.0
 20
1.0
 30
0.0
  9
$UCSORTHOREF
  2

  9
$UCSORTHOVIEW
 70
     0
  9
$UCSORGTOP
 10
0.0
 20
0.0
 30
0.0
  9
$UCSORGBOTTOM
 10
0.0
 20
0.0
 30
0.0
  9
$UCSORGLEFT
 10
0.0
 20
0.0
 30
0.0
  9
$UCSORGRIGHT
 10
0.0
 20
0.0
 30
0.0
  9
$UCSORGFRONT
 10
0.0
 20
0.0
 30
0.0
  9
$UCSORGBACK
 10
0.0
 20
0.0
 30
0.0
  9
$PUCSBASE
  2

  9
$PUCSNAME
  2

  9
$PUCSORG
 10
0.0
 20
0.0
 30
0.0
  9
$PUCSXDIR
 10
1.0
 20
0.0
 30
0.0
  9
$PUCSYDIR
 10
0.0
 20
1.0
 30
0.0
  9
$PUCSORTHOREF
  2

  9
$PUCSORTHOVIEW
 70
     0
  9
$PUCSORGTOP
 10
0.0
 20
0.0
 30
0.0
  9
$PUCSORGBOTTOM
 10
0.0
 20
0.0
 30
0.0
  9
$PUCSORGLEFT
 10
0.0
 20
0.0
 30
0.0
  9
$PUCSORGRIGHT
 10
0.0
 20
0.0
 30
0.0
  9
$PUCSORGFRONT
 10
0.0
 20
0.0
 30
0.0
  9
$PUCSORGBACK
 10
0.0
 20
0.0
 30
0.0
  9
$USERI1
 70
     0
  9
$USERI2
 70
     0
  9
$USERI3
 70
     0
  9
$USERI4
 70
     0
  9
$USERI5
 70
     0
  9
$USERR1
 40
0.0
  9
$USERR2
 40
0.0
  9
$USERR3
 40
0.0
  9
$USERR4
 40
0.0
  9
$USERR5
 40
0.0
  9
$WORLDVIEW
 70
     1
  9
$SHADEDGE
 70
     3
  9
$SHADEDIF
 70
    70
  9
$TILEMODE
 70
     1
  9
$MAXACTVP
 70
    64
  9
$PINSBASE
 10
0.0
 20
0.0
 30
0.0
  9
$PLIMCHECK
 70
     0
  9
$PEXTMIN
 10
1.000000000000000E+20
 20
1.000000000000000E+20
 30
1.000000000000000E+20
  9
$PEXTMAX
 10
-1.000000000000000E+20
 20
-1.000000000000000E+20
 30
-1.000000000000000E+20
  9
$PLIMMIN
 10
0.0
 20
0.0
  9
$PLIMMAX
 10
420.0
 20
297.0
  9
$UNITMODE
 70
     0
  9
$VISRETAIN
 70
     1
  9
$PLINEGEN
 70
     0
  9
$PSLTSCALE
 70
     1
  9
$TREEDEPTH
 70
  3020
  9
$CMLSTYLE
  2
Standard
  9
$CMLJUST
 70
     0
  9
$CMLSCALE
 40
20.0
  9
$PROXYGRAPHICS
 70
     1
  9
$MEASUREMENT
 70
     1
  9
$CELWEIGHT
370
    -1
  9
$ENDCAPS
280
     0
  9
$JOINSTYLE
280
     0
  9
$LWDISPLAY
290
     1
  9
$INSUNITS
 70
     4
  9
$HYPERLINKBASE
  1

  9
$STYLESHEET
  1

  9
$XEDIT
290
     1
  9
$CEPSNTYPE
380
     0
  9
$PSTYLEMODE
290
     1
  9
$FINGERPRINTGUID
  2
{4E13AE66-64DC-4DDF-A460-85D163979FED}
  9
$VERSIONGUID
  2
{6DA28049-A5A7-4485-8804-B9E96925940E}
  9
$EXTNAMES
290
     1
  9
$PSVPSCALE
 40
0.0
  9
$OLESTARTUP
290
     0
  0
ENDSEC
  0
SECTION
  2
CLASSES
  0
CLASS
  1
ACDBDICTIONARYWDFLT
  2
AcDbDictionaryWithDefault
  3
ObjectDBX Classes
 90
        0
280
     0
281
     0
  0
CLASS
  1
ACDBPLACEHOLDER
  2
AcDbPlaceHolder
  3
ObjectDBX Classes
 90
        0
280
     0
281
     0
  0
CLASS
  1
LAYOUT
  2
AcDbLayout
  3
ObjectDBX Classes
 90
        0
280
     0
281
     0
  0
CLASS
  1
ACME_DOCUMENT
  2
AcMeDbDoc
  3
AcMeServices
 90
    32768
280
     0
281
     0
  0
CLASS
  1
ACMESCOPE
  2
AcMeScope
  3
AcMeServices
 90
        0
280
     0
281
     0
  0
CLASS
  1
ACMECOMMANDHISTORY
  2
AcMeCommandHistory
  3
AcMeServices
 90
        0
280
     0
281
     0
  0
CLASS
  1
ACIMSYSVARMAN
  2
AcImSysVarManager
  3
AcMeServices
 90
        0
280
     0
281
     0
  0
CLASS
  1
ACIMREALSYSVAR
  2
AcImRealSysVar
  3
AcMeServices
 90
        0
280
     0
281
     0
  0
CLASS
  1
ACIMINTSYSVAR
  2
AcImIntSysVar
  3
AcMeServices
 90
        0
280
     0
281
     0
  0
CLASS
  1
ACMEDRAWINGMAN
  2
AcMeDrawingMan
  3
AcMeServices
 90
        0
280
     0
281
     0
  0
CLASS
  1
ACMEVIEW
  2
AcMeView
  3
AcMeServices
 90
        0
280
     0
281
     0
  0
CLASS
  1
ACDBENTITYCACHE
  2
AcMeEntityCache
  3
AcMeServices
 90
    32768
280
     0
281
     0
  0
CLASS
  1
GSMANAGER
  2
AcMeGSManager
  3
AcMeServices
 90
    32768
280
     0
281
     0
  0
CLASS
  1
AMDTINTERNALREACTOR
  2
AmdtInternalReactor
  3
AcMeServices
 90
    32768
280
     0
281
     0
  0
CLASS
  1
ACMESTATEMGR
  2
AcMeStateMgr
  3
AcMeServices
 90
        0
280
     0
281
     0
  0
CLASS
  1
ACGREFMASTER
  2
AcGrefMaster
  3
AcAttribServices
 90
        0
280
     0
281
     0
  0
CLASS
  1
AM_DRAWING_MGR
  2
AcDmDwgMgr
  3
AcMechDwgViewMgmt
 90
        0
280
     0
281
     0
  0
CLASS
  1
AM_DWG_DOCUMENT
  2
AcDmDwgDocument
  3
AcMechDwgViewMgmt
 90
        0
280
     0
281
     0
  0
CLASS
  1
AM_DWG_SHEET
  2
AcDmSheet
  3
AcMechDwgViewMgmt
 90
        0
280
     0
281
     0
  0
CLASS
  1
AM_VIEWDIMPARMAP
  2
AcDmViewDimParMap
  3
AcMechDwgViewMgmt
 90
        0
280
     0
281
     0
  0
CLASS
  1
AM_DWGMGR_NAME
  2
AcDmDwgMgrName
  3
AcMechDwgViewMgmt
 90
        0
280
     0
281
     0
  0
CLASS
  1
ACME_DATABASE
  2
AcMeDbDatabase
  3
AcMeServices
 90
    32768
280
     0
281
     0
  0
CLASS
  1
ACRFINSADJUSTERMGR
  2
AcRfInsAdjusterMgr
  3
AcMeServices
 90
    32768
280
     0
281
     0
  0
CLASS
  1
ACGREFACADMASTER
  2
AcGrefacadMaster
  3
AcGrefServices
 90
        0
280
     0
281
     0
  0
CLASS
  1
AMDTMENUSTATEMGR
  2
AmdtMenuStateMgr
  3
McadcomServices
 90
    32768
280
     0
281
     0
  0
CLASS
  1
AMDTMCOMMENUSTATE
  2
AmdtMcomMenuState
  3
McadcomServices
 90
    32768
280
     0
281
     0
  0
CLASS
  1
AMIMASTER
  2
AmiMaster
  3
AmiServices
 90
        0
280
     0
281
     0
  0
CLASS
  1
AMGSETTINGSOBJ
  2
AmgSettingsObj
  3
"AcadM|Product Description: AutoCAD Mechanical 2000|Company: Autodesk"
 90
        0
280
     0
281
     0
  0
CLASS
  1
ASAPP
  2
AcAsAppObject
  3
AutoSurfServices
 90
        0
280
     0
281
     0
  0
CLASS
  1
IM_STATIC_MAN
  2
AcImStaticVarManager
  3
AcMeServices
 90
        0
280
     0
281
     0
  0
CLASS
  1
ACIMSTRSYSVAR
  2
AcImStrSysVar
  3
AcMeServices
 90
        0
280
     0
281
     0
  0
CLASS
  1
ACIMDBLSTATICVAR
  2
AcImDblStaticVar
  3
AcMeServices
 90
        0
280
     0
281
     0
  0
CLASS
  1
ACIMSTRSTATICVAR
  2
AcImStrStaticVar
  3
AcMeServices
 90
        0
280
     0
281
     0
  0
CLASS
  1
ACIMINTSTATICVAR
  2
AcImIntStaticVar
  3
AcMeServices
 90
        0
280
     0
281
     0
  0
CLASS
  1
ACASGREFMASTER
  2
AcAsGrefMaster
  3
AutoSurfResolverServices
 90
        0
280
     0
281
     0
  0
CLASS
  1
ACADGREFMODULE
  2
AcAdGrefModule
  3
AdGrefServices
 90
        0
280
     0
281
     0
  0
CLASS
  1
AMDTMAPISURFMOUDULE
  2
AmdtMApiSurfModule
  3
MApiSurfServices
 90
        0
280
     0
281
     0
  0
CLASS
  1
MAPIAMMOUDLE
  2
MApiAmModule
  3
MApiAmServices
 90
        0
280
     0
281
     0
  0
CLASS
  1
AMDTADMENUSTATE
  2
AmdtAdMenuState
  3
DesignerServices
 90
    32768
280
     0
281
     0
  0
CLASS
  1
ADAPPL
  2
AcAdAppl
  3
DesignerServices
 90
        0
280
     0
281
     0
  0
CLASS
  1
DEPMGR
  2
AcAdDepMgr
  3
DesignerServices
 90
        0
280
     0
281
     0
  0
CLASS
  1
PARAMMGR
  2
AcAdParamMgr
  3
DesignerServices
 90
        0
280
     0
281
     0
  0
CLASS
  1
PARAMSCOPE
  2
AcAdParamScope
  3
DesignerServices
 90
        0
280
     0
281
     0
  0
CLASS
  1
NAMEDAPPL
  2
AcAdNamedAppl
  3
DesignerServices
 90
        0
280
     0
281
     0
  0
CLASS
  1
AMDTDMMENUSTATE
  2
AmdtDmMenuState
  3
AcMechDwgViewMgmt
 90
    32768
280
     0
281
     0
  0
CLASS
  1
MAPIADMODULE
  2
MApiAdModule
  3
MApiAdServices
 90
        0
280
     0
281
     0
  0
CLASS
  1
AMDTAMMENUSTATE
  2
AmdtAmMenuState
  3
DesignerAssemblies
 90
    32768
280
     0
281
     0
  0
CLASS
  1
ACAMPROJECT
  2
AcAmProject
  3
DesignerAssemblies
 90
        0
280
     0
281
     0
  0
CLASS
  1
ACAMGRCOMPDEF
  2
AcAmGrCompDef
  3
DesignerAssemblies
 90
        0
280
     0
281
     0
  0
CLASS
  1
ACCMCONTEXT
  2
AcCmContext
  3
DesignerAssemblies
 90
        0
280
     0
281
     0
  0
CLASS
  1
ACAMCOMPDEF
  2
AcAmCompDef
  3
DesignerAssemblies
 90
        0
280
     0
281
     0
  0
CLASS
  1
ACAMCOMPDEFMGR
  2
AcAmCompDefMgr
  3
DesignerAssemblies
 90
        0
280
     0
281
     0
  0
CLASS
  1
AMCONTEXTMGR
  2
AcAmContextMgr
  3
DesignerAssemblies
 90
        0
280
     0
281
     0
  0
CLASS
  1
ACAMCONTEXTMODELER
  2
AcAmContextModeler
  3
DesignerAssemblies
 90
        0
280
     0
281
     0
  0
CLASS
  1
ACMDATADICTIONARY
  2
AcmDataDictionary
  3
"AcmSymBB|Product Description: AutoCAD Mechanical 2000|Company: Autodesk"
 90
        0
280
     0
281
     0
  0
CLASS
  1
ACMDATAENTRYBLOCK
  2
AcmDataEntryBlock
  3
"AcmSymBB|Product Description: AutoCAD Mechanical 2000|Company: Autodesk"
 90
        0
280
     0
281
     0
  0
CLASS
  1
ACMSTANDARDDIN
  2
AcmStandardDIN
  3
"Amdt_StdImp|Product Description: AutoCAD Mechanical 2000|Company: Autodesk"
 90
        0
280
     0
281
     0
  0
CLASS
  1
AMGOBJPROPCFG
  2
AmgObjPropCfg
  3
"AmgLay|Product Description: AutoCAD Mechanical 2000|Company: Autodesk"
 90
        1
280
     0
281
     0
  0
CLASS
  1
AMDTEDGESTANDARDDIN
  2
AmdtEdgeStdDIN
  3
"Amdt_StdImp|Product Description: AutoCAD Mechanical 2000|Company: Autodesk"
 90
        0
280
     0
281
     0
  0
CLASS
  1
ACMSURFSTANDARDDIN
  2
AcmSurfTextStdDIN
  3
"Amdt_StdImp|Product Description: AutoCAD Mechanical 2000|Company: Autodesk"
 90
        0
280
     0
281
     0
  0
CLASS
  1
ACMFCFSTANDARDDIN
  2
AcmFCFStdDIN
  3
"Amdt_StdImp|Product Description: AutoCAD Mechanical 2000|Company: Autodesk"
 90
        0
280
     0
281
     0
  0
CLASS
  1
ACMWELDSTANDARDDIN
  2
AcmWeldingStdDIN
  3
"Amdt_StdImp|Product Description: AutoCAD Mechanical 2000|Company: Autodesk"
 90
        0
280
     0
281
     0
  0
CLASS
  1
ACMIDSTANDARDDIN
  2
AcmIdStdDIN
  3
"Amdt_StdImp|Product Description: AutoCAD Mechanical 2000|Company: Autodesk"
 90
        0
280
     0
281
     0
  0
CLASS
  1
ACMDATUMSTANDARDDIN
  2
AcmDatumStdDIN
  3
"Amdt_StdImp|Product Description: AutoCAD Mechanical 2000|Company: Autodesk"
 90
        0
280
     0
281
     0
  0
CLASS
  1
ACMBOMSTANDARDDIN
  2
AcmBOMStdDIN
  3
"Amdt_StdImp|Product Description: AutoCAD Mechanical 2000|Company: Autodesk"
 90
        0
280
     0
281
     0
  0
CLASS
  1
ACMDETAILSTANDARDDIN
  2
AmdtDetailSymStdDIN
  3
"Amdt_StdImp|Product Description: AutoCAD Mechanical 2000|Company: Autodesk"
 90
        0
280
     0
281
     0
  0
CLASS
  1
ACMSECTIONSTANDARDDIN
  2
AmdtSectionSymStdDIN
  3
"Amdt_StdImp|Product Description: AutoCAD Mechanical 2000|Company: Autodesk"
 90
        0
280
     0
281
     0
  0
CLASS
  1
ACMCENTERLINESTANDARDDIN
  2
AmdtCenterLineStdDIN
  3
"Amdt_StdImp|Product Description: AutoCAD Mechanical 2000|Company: Autodesk"
 90
        0
280
     0
281
     0
  0
CLASS
  1
ACMTHREADLINESTANDARDDIN
  2
AmdtThreadLineStdDIN
  3
"Amdt_StdImp|Product Description: AutoCAD Mechanical 2000|Company: Autodesk"
 90
        0
280
     0
281
     0
  0
CLASS
  1
ACMNOTESTANDARDDIN
  2
AmdtNoteStdDIN
  3
"Amdt_StdImp|Product Description: AutoCAD Mechanical 2000|Company: Autodesk"
 90
        0
280
     0
281
     0
  0
CLASS
  1
ACAMGLAYSTD
  2
AcAmgLayStd
  3
"AcAmgLayStd|Product Description: AutoCAD Mechanical 2000|Company: Autodesk"
 90
        0
280
     0
281
     0
  0
CLASS
  1
ACAMGDIMSTD
  2
AcAmgDimStd
  3
"AcAmgDimStd|Product Description: AutoCAD Mechanical 2000|Company: Autodesk"
 90
        0
280
     0
281
     0
  0
CLASS
  1
ACAMGHOLECHARTSTDDIN
  2
AcAmgHoleChartStdDIN
  3
ACMSYMBB_MODULE_NAME
 90
        0
280
     0
281
     0
  0
CLASS
  1
ACAMGTITLESTD
  2
AcAmgTitleStd
  3
"TITLEAPP"
 90
        0
280
     0
281
     0
  0
CLASS
  1
CATALOGSTATE
  2
AcAmCatalogState
  3
DesignerAssemblies
 90
        0
280
     0
281
     0
  0
CLASS
  1
ACAMGRCOMPDEFSET
  2
AcAmGrCompDefSet
  3
DesignerAssemblies
 90
    32768
280
     0
281
     0
  0
CLASS
  1
AMDTBROWSERDBTAB
  2
AmdtBrowserDbTab
  3
McadcomServices
 90
    32768
280
     0
281
     0
  0
CLASS
  1
CBROWSERAPPOBJECT
  2
CBrowserAppObject
  3
McadcomServices
 90
    32768
280
     0
281
     0
  0
CLASS
  1
DM_PLACEHOLDER
  2
AcDmSelsetPlaceholder
  3
AcMechDwgViewMgmt
 90
    32768
280
     0
281
     0
  0
CLASS
  1
ACAMGFILTERDAT
  2
AcAmgFilterDat
  3
"AcadM|Product Description: AutoCAD Mechanical 2000|Company: Autodesk"
 90
        0
280
     0
281
     0
  0
CLASS
  1
LAYER_INDEX
  2
AcDbLayerIndex
  3
ObjectDBX Classes
 90
        0
280
     0
281
     0
  0
CLASS
  1
IDBUFFER
  2
AcDbIdBuffer
  3
ObjectDBX Classes
 90
        0
280
     0
281
     0
  0
CLASS
  1
DICTIONARYVAR
  2
AcDbDictionaryVar
  3
ObjectDBX Classes
 90
        0
280
     0
281
     0
  0
CLASS
  1
DIMASSOC
  2
AcDbDimAssoc
  3
"AcDbDimAssoc|Product Desc:     AcDim ARX App For Dimension|Company:          Autodesk, Inc.|WEB Address:      www.autodesk.com"
 90
        0
280
     0
281
     0
  0
CLASS
  1
AMDTFORMULAUPDATEDISPATCHER
  2
AmdtFormulaUpdateDispatcher
  3
AcMeServices
 90
        0
280
     0
281
     0
  0
CLASS
  1
MATERIAL
  2
AcDbMaterial
  3
ObjectDBX Classes
 90
     1153
280
     0
281
     0
  0
CLASS
  1
VISUALSTYLE
  2
AcDbVisualStyle
  3
ObjectDBX Classes
 90
     4095
280
     0
281
     0
  0
CLASS
  1
TABLESTYLE
  2
AcDbTableStyle
  3
ObjectDBX Classes
 90
     4095
280
     0
281
     0
  0
CLASS
  1
SORTENTSTABLE
  2
AcDbSortentsTable
  3
ObjectDBX Classes
 90
        0
280
     0
281
     0
  0
ENDSEC
  0
SECTION
  2
TABLES
  0
TABLE
  2
VPORT
  5
8
330
0
100
AcDbSymbolTable
 70
     1
  0
VPORT
  5
12D5
330
8
100
AcDbSymbolTableRecord
100
AcDbViewportTableRecord
  2
*Active
 70
     0
 10
0.0
 20
0.0
 11
1.0
 21
1.0
 12
635.4418345967184
 22
-755.4861788545015
 13
0.0
 23
0.0
 14
2.5
 24
2.5
 15
10.0
 25
10.0
 16
0.0
 26
0.0
 36
1.0
 17
276.3339960238568
 27
148.5
 37
0.0
 40
51.0873709283596
 41
1.630727762803234
 42
50.0
 43
0.0
 44
0.0
 50
0.0
 51
0.0
 71
     0
 72
   100
 73
     1
 74
     3
 75
     0
 76
     0
 77
     0
 78
     0
281
     0
 65
     0
110
0.0
120
0.0
130
0.0
111
1.0
121
0.0
131
0.0
112
0.0
122
1.0
132
0.0
 79
     0
146
0.0
  0
ENDTAB
  0
TABLE
  2
LTYPE
  5
5
330
0
100
AcDbSymbolTable
 70
    17
  0
LTYPE
  5
14
330
5
100
AcDbSymbolTableRecord
100
AcDbLinetypeTableRecord
  2
ByBlock
 70
     0
  3

 72
    65
 73
     0
 40
0.0
  0
LTYPE
  5
15
330
5
100
AcDbSymbolTableRecord
100
AcDbLinetypeTableRecord
  2
ByLayer
 70
     0
  3

 72
    65
 73
     0
 40
0.0
  0
LTYPE
  5
16
330
5
100
AcDbSymbolTableRecord
100
AcDbLinetypeTableRecord
  2
Continuous
 70
     0
  3
Solid line
 72
    65
 73
     0
 40
0.0
  0
LTYPE
  5
4B
330
5
100
AcDbSymbolTableRecord
100
AcDbLinetypeTableRecord
  2
HIDDEN
 70
     0
  3
Verdeckt
 72
    65
 73
     2
 40
9.525
 49
6.349999999999999
 74
     0
 49
-3.174999999999999
 74
     0
  0
LTYPE
  5
4D
330
5
100
AcDbSymbolTableRecord
100
AcDbLinetypeTableRecord
  2
CENTER
 70
     0
  3
Mitte ____ _ ____ _ ____ _ ____ _ ____ _ ____
 72
    65
 73
     4
 40
50.8
 49
31.75
 74
     0
 49
-6.349999999999999
 74
     0
 49
6.349999999999999
 74
     0
 49
-6.349999999999999
 74
     0
  0
LTYPE
  5
F4
330
5
100
AcDbSymbolTableRecord
100
AcDbLinetypeTableRecord
  2
Amconstr
 70
     0
  3
_______________________
 72
    65
 73
     2
 40
9999.0
 49
9999.0
 74
     0
 49
0.0
 74
     0
  0
LTYPE
  5
F9
330
5
100
AcDbSymbolTableRecord
100
AcDbLinetypeTableRecord
  2
Amzigzag
 70
     0
  3
/\/-/\/-/\/-/\/-/\/-/\/
 72
    65
 73
     2
 40
11.0001
 49
0.0001
 74
     4
 75
   135
340
F8
 46
0.04
 50
0.0
 44
0.0
 45
0.0
 49
-11.0
 74
     0
  0
LTYPE
  5
FA
330
5
100
AcDbSymbolTableRecord
100
AcDbLinetypeTableRecord
  2
AM_DIN_F_W050
 70
     0
  3
__ __ __ __ __ __ __ __ __ __ __ __ __ __ __
 72
    65
 73
     2
 40
6.25
 49
4.75
 74
     0
 49
-1.5
 74
     0
  0
LTYPE
  5
FB
330
5
100
AcDbSymbolTableRecord
100
AcDbLinetypeTableRecord
  2
AM_DIN_G_W050
 70
     0
  3
____ . ____ . ____ . ____ . ____ . ____ . ____
 72
    65
 73
     4
 40
13.75
 49
9.75
 74
     0
 49
-1.5
 74
     0
 49
1.0
 74
     0
 49
-1.5
 74
     0
  0
LTYPE
  5
FC
330
5
100
AcDbSymbolTableRecord
100
AcDbLinetypeTableRecord
  2
AM_DIN_K_W050
 70
     0
  3
_____ . . _____ . . _____ . . ____ .. ____
 72
    65
 73
     6
 40
16.25
 49
9.75
 74
     0
 49
-1.5
 74
     0
 49
1.0
 74
     0
 49
-1.5
 74
     0
 49
1.0
 74
     0
 49
-1.5
 74
     0
  0
LTYPE
  5
FD
330
5
100
AcDbSymbolTableRecord
100
AcDbLinetypeTableRecord
  2
AM_DIN_G_W050x2
 70
     0
  3
__ . __ . __ . __ . __ . __
 72
    65
 73
     4
 40
6.875
 49
4.75
 74
     0
 49
-0.875
 74
     0
 49
0.375
 74
     0
 49
-0.875
 74
     0
  0
LTYPE
  5
FE
330
5
100
AcDbSymbolTableRecord
100
AcDbLinetypeTableRecord
  2
AM_DIN_F_W050x2
 70
     0
  3
 _ _ _ _ _ _ _ _ _ _ _ _
 72
    65
 73
     2
 40
3.125
 49
2.25
 74
     0
 49
-0.875
 74
     0
  0
LTYPE
  5
10D
330
5
100
AcDbSymbolTableRecord
100
AcDbLinetypeTableRecord
  2
ACDINWELD
 70
     0
  3
_ _ _ _ _
 72
    65
 73
     2
 40
2.0
 49
2.0
 74
     0
 49
-1.0
 74
     0
  0
LTYPE
  5
10E
330
5
100
AcDbSymbolTableRecord
100
AcDbLinetypeTableRecord
  2
ACDINTGB
 70
     0
  3
__ . . __ . .
 72
    65
 73
     6
 40
9.0
 49
4.0
 74
     0
 49
-1.0
 74
     0
 49
1.0
 74
     0
 49
-1.0
 74
     0
 49
1.0
 74
     0
 49
-1.0
 74
     0
  0
LTYPE
  5
10F
330
5
100
AcDbSymbolTableRecord
100
AcDbLinetypeTableRecord
  2
ACDINTGL
 70
     0
  3
_ _ _ _ _
 72
    65
 73
     2
 40
3.0
 49
2.0
 74
     0
 49
-1.0
 74
     0
  0
LTYPE
  5
F69
330
5
100
AcDbSymbolTableRecord
100
AcDbLinetypeTableRecord
  2
ACAD_ISO10W100
 70
     0
  3
ISO Strichpunktlinie __ . __ . __ . __ . __ . _
 72
    65
 73
     4
 40
18.0
 49
12.0
 74
     0
 49
-3.0
 74
     0
 49
0.0
 74
     0
 49
-3.0
 74
     0
  0
LTYPE
  5
1526
330
5
100
AcDbSymbolTableRecord
100
AcDbLinetypeTableRecord
  2
STRICHPUNKT
 70
     0
  3
_ 
 72
    65
 73
     5
 40
6.75
 49
2.5
 74
     0
 49
-0.8
 74
     0
 49
0.15
 74
     0
 49
-0.8
 74
     0
 49
2.5
 74
     0
  0
ENDTAB
  0
TABLE
  2
LAYER
  5
2
330
0
100
AcDbSymbolTable
 70
    17
  0
LAYER
  5
10
330
2
100
AcDbSymbolTableRecord
100
AcDbLayerTableRecord
  2
0
 70
     0
 62
     7
  6
Continuous
370
    -3
390
F
  0
LAYER
  5
1AE
330
2
100
AcDbSymbolTableRecord
100
AcDbLayerTableRecord
  2
90100_FRAME_THICK
 70
     0
 62
     7
  6
Continuous
370
    50
390
F
  0
LAYER
  5
1AF
330
2
100
AcDbSymbolTableRecord
100
AcDbLayerTableRecord
  2
90000_FRAME_THIN
 70
     0
 62
     7
  6
Continuous
370
    13
390
F
  0
LAYER
  5
67D
330
2
100
AcDbSymbolTableRecord
100
AcDbLayerTableRecord
  2
92000_TITLE
 70
     0
 62
     7
  6
Continuous
370
    13
390
F
  0
LAYER
  5
6E4
330
2
100
AcDbSymbolTableRecord
100
AcDbLayerTableRecord
  2
91100_TIP_SYM
 70
     0
 62
     7
  6
AM_DIN_G_W050
370
    25
390
F
  0
LAYER
  5
9A3
330
2
100
AcDbSymbolTableRecord
100
AcDbLayerTableRecord
  2
Defpoints
 70
     0
 62
     7
  6
Continuous
290
     0
370
    -3
390
F
  0
LAYER
  5
9A5
330
2
100
AcDbSymbolTableRecord
100
AcDbLayerTableRecord
  2
91000_TIP
 70
     0
 62
     7
  6
Continuous
370
    13
390
F
  0
LAYER
  5
ED0
330
2
100
AcDbSymbolTableRecord
100
AcDbLayerTableRecord
  2
91200_TIP_SYMB
 70
     0
 62
     7
  6
Continuous
370
    -3
390
F
  0
LAYER
  5
F56
330
2
100
AcDbSymbolTableRecord
100
AcDbLayerTableRecord
  2
10000_FRONT
 70
     0
 62
     7
  6
Continuous
370
    50
390
F
  0
LAYER
  5
F57
330
2
100
AcDbSymbolTableRecord
100
AcDbLayerTableRecord
  2
11000_LEFT
 70
     0
 62
     7
  6
Continuous
370
    50
390
F
  0
LAYER
  5
F6A
330
2
100
AcDbSymbolTableRecord
100
AcDbLayerTableRecord
  2
10100_FRONT_DIM
 70
     0
 62
     7
  6
Continuous
370
    13
390
F
  0
LAYER
  5
F6B
330
2
100
AcDbSymbolTableRecord
100
AcDbLayerTableRecord
  2
11100_LEFT_DIM
 70
     0
 62
     7
  6
Continuous
370
    13
390
F
  0
LAYER
  5
F71
330
2
100
AcDbSymbolTableRecord
100
AcDbLayerTableRecord
  2
10200_FRONT_SYM
 70
     0
 62
     7
  6
ACAD_ISO10W100
370
    13
390
F
  0
LAYER
  5
F72
330
2
100
AcDbSymbolTableRecord
100
AcDbLayerTableRecord
  2
11200_LEFT_SYM
 70
     0
 62
     7
  6
ACAD_ISO10W100
370
    13
390
F
  0
LAYER
  5
11B9
330
2
100
AcDbSymbolTableRecord
100
AcDbLayerTableRecord
  2
11400_LEFT_HIDDEN
 70
     0
 62
     7
  6
HIDDEN
370
    18
390
F
  0
ENDTAB
  0
TABLE
  2
STYLE
  5
3
330
0
100
AcDbSymbolTable
 70
     5
  0
STYLE
  5
11
330
3
100
AcDbSymbolTableRecord
100
AcDbTextStyleTableRecord
  2
STANDARD
 70
     0
 40
0.0
 41
1.0
 50
0.0
 71
     0
 42
2.5
  3
ISOCP.SHX
  4

  0
STYLE
  5
F8
330
3
100
AcDbSymbolTableRecord
100
AcDbTextStyleTableRecord
  2

 70
     1
 40
0.0
 41
1.0
 50
0.0
 71
     0
 42
2.5
  3
ltypeshp.shx
  4

  0
STYLE
  5
FF
330
3
100
AcDbSymbolTableRecord
100
AcDbTextStyleTableRecord
  2
ACDINTS
 70
     0
 40
1.0
 41
1.0
 50
0.0
 71
     0
 42
2.5
  3
isocp.shx
  4

  0
STYLE
  5
10C
330
3
100
AcDbSymbolTableRecord
100
AcDbTextStyleTableRecord
  2
ACDINGDT
 70
     0
 40
0.0
 41
1.0
 50
0.0
 71
     0
 42
2.5
  3
amgdt.shx
  4

  0
ENDTAB
  0
TABLE
  2
VIEW
  5
6
330
0
100
AcDbSymbolTable
 70
     0
  0
ENDTAB
  0
TABLE
  2
UCS
  5
7
330
0
100
AcDbSymbolTable
 70
     0
  0
ENDTAB
  0
TABLE
  2
APPID
  5
9
330
0
100
AcDbSymbolTable
 70
    18
  0
APPID
  5
12
330
9
100
AcDbSymbolTableRecord
100
AcDbRegAppTableRecord
  2
ACAD
 70
     0
  0
APPID
  5
2C
330
9
100
AcDbSymbolTableRecord
100
AcDbRegAppTableRecord
  2
MCAD_NO_VIS
 70
     0
  0
APPID
  5
2D
330
9
100
AcDbSymbolTableRecord
100
AcDbRegAppTableRecord
  2
ACAD_TEMP_GRAPHIC
 70
     0
  0
APPID
  5
62
330
9
100
AcDbSymbolTableRecord
100
AcDbRegAppTableRecord
  2
AD_DRAW
 70
     0
  0
APPID
  5
65
330
9
100
AcDbSymbolTableRecord
100
AcDbRegAppTableRecord
  2
ACATTRIBSERVICES
 70
     0
  0
APPID
  5
6D
330
9
100
AcDbSymbolTableRecord
100
AcDbRegAppTableRecord
  2
GENIUS_GENDIM_13
 70
     0
  0
APPID
  5
6E
330
9
100
AcDbSymbolTableRecord
100
AcDbRegAppTableRecord
  2
GENIUS_GENDTOL_13
 70
     0
  0
APPID
  5
6F
330
9
100
AcDbSymbolTableRecord
100
AcDbRegAppTableRecord
  2
GENIUS_GE3DTOL_13
 70
     0
  0
APPID
  5
B8
330
9
100
AcDbSymbolTableRecord
100
AcDbRegAppTableRecord
  2
ASURF_PCURVE_APPNAME
 70
     0
  0
APPID
  5
BD
330
9
100
AcDbSymbolTableRecord
100
AcDbRegAppTableRecord
  2
AMG_3D2D_5.0
 70
     0
  0
APPID
  5
E8
330
9
100
AcDbSymbolTableRecord
100
AcDbRegAppTableRecord
  2
DESIGNERASSEMBLIES
 70
     0
  0
APPID
  5
124
330
9
100
AcDbSymbolTableRecord
100
AcDbRegAppTableRecord
  2
ACADM_DIM_EDIT
 70
     0
  0
APPID
  5
125
330
9
100
AcDbSymbolTableRecord
100
AcDbRegAppTableRecord
  2
AMDT_DM_ADJ
 70
     0
  0
APPID
  5
152
330
9
100
AcDbSymbolTableRecord
100
AcDbRegAppTableRecord
  2
GENIUS_GENREC_14
 70
     0
  0
APPID
  5
153
330
9
100
AcDbSymbolTableRecord
100
AcDbRegAppTableRecord
  2
GENIUS_GENODEF_13
 70
     0
  0
APPID
  5
154
330
9
100
AcDbSymbolTableRecord
100
AcDbRegAppTableRecord
  2
GENIUS_GENOBJ-N-REC_13
 70
     0
  0
APPID
  5
170C
330
9
100
AcDbSymbolTableRecord
100
AcDbRegAppTableRecord
  2
ACAD_EXEMPT_FROM_CAD_STANDARDS
 70
     0
  0
APPID
  5
1A1B
330
9
100
AcDbSymbolTableRecord
100
AcDbRegAppTableRecord
  2
ACAD_PSEXT
 70
     0
  0
ENDTAB
  0
TABLE
  2
DIMSTYLE
  5
A
330
0
100
AcDbSymbolTable
 70
    13
100
AcDbDimStyleTable
 71
     3
340
F10
340
1528
340
113
  0
DIMSTYLE
105
113
330
A
100
AcDbSymbolTableRecord
100
AcDbDimStyleTableRecord
  2
AM_DIN
 70
     0
  4
"
 41
2.5
 42
1.0
 43
10.0
 44
1.0
 47
0.1
 48
0.1
 73
     0
 74
     0
 77
     1
 78
     8
 79
     2
140
3.5
141
0.0
143
0.0393701
146
0.71
147
1.5
172
     1
176
   256
177
   256
178
     2
271
     2
272
     3
274
     4
283
     0
284
     8
340
11
371
    -1
372
    -1
  0
DIMSTYLE
105
114
330
A
100
AcDbSymbolTableRecord
100
AcDbDimStyleTableRecord
  2
AM_DIN$3
 70
     0
  4
"
 41
2.5
 42
1.0
 43
10.0
 44
1.0
 47
0.1
 48
0.1
 73
     0
 77
     1
 78
     8
 79
     2
140
3.5
141
0.0
143
0.0393701
146
0.71
147
1.5
176
   256
177
   256
178
     2
271
     2
272
     3
274
     4
283
     0
284
     8
288
     1
289
     0
340
11
371
    -1
372
    -1
  0
DIMSTYLE
105
115
330
A
100
AcDbSymbolTableRecord
100
AcDbDimStyleTableRecord
  2
AM_DIN$4
 70
     0
  4
"
 41
2.5
 42
1.0
 43
10.0
 44
1.0
 47
0.1
 48
0.1
 73
     0
 77
     1
 78
     8
 79
     2
140
3.5
141
0.0
143
0.0393701
146
0.71
147
1.5
176
   256
177
   256
178
     2
271
     2
272
     3
274
     4
283
     0
284
     8
288
     1
289
     0
340
11
371
    -1
372
    -1
  0
DIMSTYLE
105
116
330
A
100
AcDbSymbolTableRecord
100
AcDbDimStyleTableRecord
  2
AM_DIN$6
 70
     0
  4
"
 41
2.5
 42
1.0
 43
10.0
 44
1.0
 47
0.1
 48
0.1
 73
     0
 74
     0
 78
     8
 79
     2
140
3.5
141
0.0
143
0.0393701
146
0.71
147
1.5
172
     1
176
   256
177
   256
178
     2
271
     2
272
     3
274
     4
283
     0
284
     8
340
11
371
    -1
372
    -1
  0
DIMSTYLE
105
117
330
A
100
AcDbSymbolTableRecord
100
AcDbDimStyleTableRecord
  2
AM_DIN$7
 70
     0
  4
"
 41
2.5
 42
1.0
 43
10.0
 44
1.0
 47
0.1
 48
0.1
 73
     0
 74
     0
 77
     1
 78
     8
 79
     2
140
5.0
141
0.0
143
0.0393701
146
0.71
147
1.5
172
     1
176
   256
177
   256
178
     2
271
     2
272
     3
274
     4
283
     0
284
     8
340
11
371
    -1
372
    -1
  0
DIMSTYLE
105
118
330
A
100
AcDbSymbolTableRecord
100
AcDbDimStyleTableRecord
  2
AM_DIN$SF
 70
     0
  4
"
 41
2.5
 42
1.0
 43
10.0
 44
1.0
 47
0.1
 48
0.1
 73
     0
 74
     0
 75
     1
 76
     1
 77
     1
 78
     8
 79
     2
140
3.5
141
0.0
143
0.0393701
146
0.71
147
1.5
172
     1
176
   256
177
   256
178
     2
271
     2
272
     3
274
     4
283
     0
284
     8
340
11
371
    -1
372
    -1
  0
DIMSTYLE
105
11D
330
A
100
AcDbSymbolTableRecord
100
AcDbDimStyleTableRecord
  2
AM_DIN$SH
 70
     0
  4
"
 41
2.5
 42
1.0
 43
10.0
 44
1.0
 47
0.1
 48
0.1
 73
     0
 74
     0
 75
     1
 76
     1
 77
     1
 78
     8
 79
     2
140
3.5
141
0.0
143
0.0393701
144
2.0
146
0.71
147
1.5
172
     1
173
     1
176
   256
177
   256
178
     2
271
     2
272
     3
274
     4
283
     0
284
     8
340
11
343
119
371
    -1
372
    -1
  0
DIMSTYLE
105
F10
330
A
100
AcDbSymbolTableRecord
100
AcDbDimStyleTableRecord
  2
DIN 3.5
 70
     0
 40
0.0
 41
3.5
 42
0.0
 43
3.75
 44
2.0
 73
     0
 74
     0
 77
     1
 78
     8
 79
     2
140
3.5
141
3.5
143
0.0394
147
1.0
170
     1
171
     4
172
     1
176
     7
177
     7
178
     7
179
     1
271
     1
272
     1
273
     8
274
     4
277
     6
285
     8
340
11
371
    13
372
    13
  0
DIMSTYLE
105
1528
102
{ACAD_REACTORS
330
19E0
330
15D8
330
15D7
330
15D9
330
15DB
330
15DA
330
15DC
102
}
330
A
100
AcDbSymbolTableRecord
100
AcDbDimStyleTableRecord
  2
DSTYLE1
 70
     0
 41
3.0
 42
0.0
 44
1.0
 45
0.1
 73
     0
 74
     0
 77
     1
 78
     3
140
2.5
143
0.039370079
147
1.0
271
     3
272
     3
274
     0
279
     2
340
11
  0
DIMSTYLE
105
1A1A
330
A
100
AcDbSymbolTableRecord
100
AcDbDimStyleTableRecord
  2
STANDARD
 70
     0
 41
0.125
 43
0.25
 44
0.125
 47
0.005
 48
-0.005
140
3.0
147
0.0625
171
     0
172
     1
271
     3
272
     3
274
     0
279
     2
340
11
  0
ENDTAB
  0
TABLE
  2
BLOCK_RECORD
  5
1
330
0
100
AcDbSymbolTable
 70
    15
  0
BLOCK_RECORD
  5
1F
102
{ACAD_XDICTIONARY
360
1E2
102
}
330
1
100
AcDbSymbolTableRecord
100
AcDbBlockTableRecord
  2
*Model_Space
340
22
  0
BLOCK_RECORD
  5
1B
330
1
100
AcDbSymbolTableRecord
100
AcDbBlockTableRecord
  2
*Paper_Space
340
1E
  0
BLOCK_RECORD
  5
23
330
1
100
AcDbSymbolTableRecord
100
AcDbBlockTableRecord
  2
*Paper_Space0
340
26
  0
BLOCK_RECORD
  5
DF
330
1
100
AcDbSymbolTableRecord
100
AcDbBlockTableRecord
  2
*U1
340
0
  0
BLOCK_RECORD
  5
119
330
1
100
AcDbSymbolTableRecord
100
AcDbBlockTableRecord
  2
GENAXEH
340
0
  0
BLOCK_RECORD
  5
15F4
330
1
100
AcDbSymbolTableRecord
100
AcDbBlockTableRecord
  2
*D5
340
0
  0
BLOCK_RECORD
  5
1600
330
1
100
AcDbSymbolTableRecord
100
AcDbBlockTableRecord
  2
*D6
340
0
  0
BLOCK_RECORD
  5
160C
330
1
100
AcDbSymbolTableRecord
100
AcDbBlockTableRecord
  2
*D7
340
0
  0
BLOCK_RECORD
  5
1618
330
1
100
AcDbSymbolTableRecord
100
AcDbBlockTableRecord
  2
*D8
340
0
  0
BLOCK_RECORD
  5
1625
330
1
100
AcDbSymbolTableRecord
100
AcDbBlockTableRecord
  2
*D9
340
0
  0
BLOCK_RECORD
  5
1631
330
1
100
AcDbSymbolTableRecord
100
AcDbBlockTableRecord
  2
*D10
340
0
  0
BLOCK_RECORD
  5
19E1
330
1
100
AcDbSymbolTableRecord
100
AcDbBlockTableRecord
  2
*D11
340
0
  0
ENDTAB
  0
ENDSEC
  0
SECTION
  2
BLOCKS
  0
BLOCK
  5
20
330
1F
100
AcDbEntity
  8
0
100
AcDbBlockBegin
  2
*Model_Space
 70
     0
 10
0.0
 20
0.0
 30
0.0
  3
*Model_Space
  1

  0
ENDBLK
  5
21
330
1F
100
AcDbEntity
  8
0
100
AcDbBlockEnd
  0
BLOCK
  5
1C
330
1B
100
AcDbEntity
 67
     1
  8
0
100
AcDbBlockBegin
  2
*Paper_Space
 70
     0
 10
0.0
 20
0.0
 30
0.0
  3
*Paper_Space
  1

  0
ENDBLK
  5
1D
330
1B
100
AcDbEntity
 67
     1
  8
0
100
AcDbBlockEnd
  0
BLOCK
  5
24
330
23
100
AcDbEntity
 67
     1
  8
0
100
AcDbBlockBegin
  2
*Paper_Space0
 70
     0
 10
0.0
 20
0.0
 30
0.0
  3
*Paper_Space0
  1

  0
ENDBLK
  5
25
330
23
100
AcDbEntity
 67
     1
  8
0
100
AcDbBlockEnd
  0
BLOCK
  5
E0
330
DF
100
AcDbEntity
  8
0
100
AcDbBlockBegin
  2
*U1
 70
     1
 10
0.0
 20
0.0
 30
0.0
  3
*U1
  1

  0
ENDBLK
  5
E1
330
DF
100
AcDbEntity
  8
0
100
AcDbBlockEnd
  0
BLOCK
  5
11B
330
119
100
AcDbEntity
  8
0
100
AcDbBlockBegin
  2
GENAXEH
 70
     0
 10
0.0
 20
0.0
 30
0.0
  3
GENAXEH
  1

  0
LINE
  5
11A
330
119
100
AcDbEntity
  8
0
100
AcDbLine
 10
-1.0
 20
0.0
 30
0.0
 11
1.0
 21
0.0
 31
0.0
  0
ENDBLK
  5
11C
330
119
100
AcDbEntity
  8
0
100
AcDbBlockEnd
  0
BLOCK
  5
15FE
330
15F4
100
AcDbEntity
  8
0
100
AcDbBlockBegin
  2
*D5
 70
     1
 10
0.0
 20
0.0
 30
0.0
  3
*D5
  1

  0
LINE
  5
24EA
330
15F4
100
AcDbEntity
  8
11100_LEFT_DIM
  6
Continuous
 62
     0
370
    -2
100
AcDbLine
 10
924.8251813101914
 20
-534.8517671146493
 30
0.0
 11
924.8251813101914
 21
-521.8517671146493
 31
0.0
  0
LINE
  5
24EB
330
15F4
100
AcDbEntity
  8
11100_LEFT_DIM
  6
Continuous
 62
     0
370
    -2
100
AcDbLine
 10
906.3251813101915
 20
-557.3517671146492
 30
0.0
 11
906.3251813101915
 21
-521.8517671146493
 31
0.0
  0
LINE
  5
24EC
330
15F4
100
AcDbEntity
  8
11100_LEFT_DIM
  6
Continuous
 62
     0
370
    -2
100
AcDbLine
 10
921.3251813101914
 20
-522.8517671146493
 30
0.0
 11
909.8251813101915
 21
-522.8517671146493
 31
0.0
  0
SOLID
  5
24ED
330
15F4
100
AcDbEntity
  8
11100_LEFT_DIM
  6
Continuous
 62
     0
100
AcDbTrace
 10
921.3251813101914
 20
-522.2684337813159
 30
0.0
 11
921.3251813101914
 21
-523.4351004479826
 31
0.0
 12
924.8251813101914
 22
-522.8517671146493
 32
0.0
 13
924.8251813101914
 23
-522.8517671146493
 33
0.0
  0
SOLID
  5
24EE
330
15F4
100
AcDbEntity
  8
11100_LEFT_DIM
  6
Continuous
 62
     0
100
AcDbTrace
 10
909.8251813101915
 20
-522.2684337813159
 30
0.0
 11
909.8251813101915
 21
-523.4351004479826
 31
0.0
 12
906.3251813101915
 22
-522.8517671146493
 32
0.0
 13
906.3251813101915
 23
-522.8517671146493
 33
0.0
  0
MTEXT
  5
24EF
330
15F4
100
AcDbEntity
  8
11100_LEFT_DIM
  6
Continuous
 62
     0
370
    13
100
AcDbMText
 10
914.8251813101914
 20
-520.1017671146493
 30
0.0
 40
3.5
 41
0.0
 71
     5
 72
     1
  1
\A1;19
 73
     1
 44
1.0
1001
ACAD
1000
MTEXTBEGIN
1070
    73
1070
     1
1070
    44
1040
1.0
1070
    74
1070
     0
1000
MTEXTEND
  0
POINT
  5
24F0
330
15F4
100
AcDbEntity
  8
Defpoints
  6
Continuous
 62
     0
100
AcDbPoint
 10
924.8251813101914
 20
-535.8517671146493
 30
0.0
  0
POINT
  5
24F1
330
15F4
100
AcDbEntity
  8
Defpoints
  6
Continuous
 62
     0
100
AcDbPoint
 10
906.3251813101915
 20
-558.3517671146493
 30
0.0
  0
POINT
  5
24F2
330
15F4
100
AcDbEntity
  8
Defpoints
  6
Continuous
 62
     0
100
AcDbPoint
 10
906.3251813101915
 20
-522.8517671146493
 30
0.0
  0
ENDBLK
  5
15FF
330
15F4
100
AcDbEntity
  8
0
100
AcDbBlockEnd
  0
BLOCK
  5
160A
330
1600
100
AcDbEntity
  8
0
100
AcDbBlockBegin
  2
*D6
 70
     1
 10
0.0
 20
0.0
 30
0.0
  3
*D6
  1

  0
LINE
  5
24F3
330
1600
100
AcDbEntity
  8
11100_LEFT_DIM
  6
Continuous
 62
     0
370
    -2
100
AcDbLine
 10
886.3251813101914
 20
-559.0017671146494
 30
0.0
 11
886.3251813101914
 21
-511.8517671146492
 31
0.0
  0
LINE
  5
24F4
330
1600
100
AcDbEntity
  8
11100_LEFT_DIM
  6
Continuous
 62
     0
370
    -2
100
AcDbLine
 10
924.8251813101914
 20
-534.8517671146493
 30
0.0
 11
924.8251813101914
 21
-511.8517671146492
 31
0.0
  0
LINE
  5
24F5
330
1600
100
AcDbEntity
  8
11100_LEFT_DIM
  6
Continuous
 62
     0
370
    -2
100
AcDbLine
 10
889.8251813101914
 20
-512.8517671146493
 30
0.0
 11
921.3251813101914
 21
-512.8517671146493
 31
0.0
  0
SOLID
  5
24F6
330
1600
100
AcDbEntity
  8
11100_LEFT_DIM
  6
Continuous
 62
     0
100
AcDbTrace
 10
889.8251813101914
 20
-512.2684337813159
 30
0.0
 11
889.8251813101914
 21
-513.4351004479826
 31
0.0
 12
886.3251813101914
 22
-512.8517671146493
 32
0.0
 13
886.3251813101914
 23
-512.8517671146493
 33
0.0
  0
SOLID
  5
24F7
330
1600
100
AcDbEntity
  8
11100_LEFT_DIM
  6
Continuous
 62
     0
100
AcDbTrace
 10
921.3251813101914
 20
-512.2684337813159
 30
0.0
 11
921.3251813101914
 21
-513.4351004479826
 31
0.0
 12
924.8251813101914
 22
-512.8517671146493
 32
0.0
 13
924.8251813101914
 23
-512.8517671146493
 33
0.0
  0
MTEXT
  5
24F8
330
1600
100
AcDbEntity
  8
11100_LEFT_DIM
  6
Continuous
 62
     0
370
    13
100
AcDbMText
 10
904.8251813101915
 20
-510.1017671146492
 30
0.0
 40
3.5
 41
0.0
 71
     5
 72
     1
  1
\A1;39
 73
     1
 44
1.0
1001
ACAD
1000
MTEXTBEGIN
1070
    73
1070
     1
1070
    44
1040
1.0
1070
    74
1070
     0
1000
MTEXTEND
  0
POINT
  5
24F9
330
1600
100
AcDbEntity
  8
Defpoints
  6
Continuous
 62
     0
100
AcDbPoint
 10
886.3251813101914
 20
-560.0017671146494
 30
0.0
  0
POINT
  5
24FA
330
1600
100
AcDbEntity
  8
Defpoints
  6
Continuous
 62
     0
100
AcDbPoint
 10
924.8251813101914
 20
-535.8517671146493
 30
0.0
  0
POINT
  5
24FB
330
1600
100
AcDbEntity
  8
Defpoints
  6
Continuous
 62
     0
100
AcDbPoint
 10
924.8251813101914
 20
-512.8517671146493
 30
0.0
  0
ENDBLK
  5
160B
330
1600
100
AcDbEntity
  8
0
100
AcDbBlockEnd
  0
BLOCK
  5
1616
330
160C
100
AcDbEntity
  8
0
100
AcDbBlockBegin
  2
*D7
 70
     1
 10
0.0
 20
0.0
 30
0.0
  3
*D7
  1

  0
LINE
  5
253D
330
160C
100
AcDbEntity
  8
11100_LEFT_DIM
  6
Continuous
 62
     0
370
    -2
100
AcDbLine
 10
921.3104113101914
 20
-592.4948151146494
 30
0.0
 11
948.8251813101911
 21
-592.4948151146494
 31
0.0
  0
LINE
  5
253E
330
160C
100
AcDbEntity
  8
11100_LEFT_DIM
  6
Continuous
 62
     0
370
    -2
100
AcDbLine
 10
921.3104113101914
 20
-602.9948151146494
 30
0.0
 11
948.8251813101911
 21
-602.9948151146494
 31
0.0
  0
LINE
  5
253F
330
160C
100
AcDbEntity
  8
11100_LEFT_DIM
  6
Continuous
 62
     0
370
    -2
100
AcDbLine
 10
947.8251813101911
 20
-595.9948151146494
 30
0.0
 11
947.8251813101911
 21
-599.4948151146494
 31
0.0
  0
SOLID
  5
2540
330
160C
100
AcDbEntity
  8
11100_LEFT_DIM
  6
Continuous
 62
     0
100
AcDbTrace
 10
947.2418479768577
 20
-595.9948151146494
 30
0.0
 11
948.4085146435246
 21
-595.9948151146494
 31
0.0
 12
947.8251813101911
 22
-592.4948151146494
 32
0.0
 13
947.8251813101911
 23
-592.4948151146494
 33
0.0
  0
SOLID
  5
2541
330
160C
100
AcDbEntity
  8
11100_LEFT_DIM
  6
Continuous
 62
     0
100
AcDbTrace
 10
947.2418479768577
 20
-599.4948151146494
 30
0.0
 11
948.4085146435246
 21
-599.4948151146494
 31
0.0
 12
947.8251813101911
 22
-602.9948151146494
 32
0.0
 13
947.8251813101911
 23
-602.9948151146494
 33
0.0
  0
MTEXT
  5
2542
330
160C
100
AcDbEntity
  8
11100_LEFT_DIM
  6
Continuous
 62
     0
370
    13
100
AcDbMText
 10
945.0751813101913
 20
-599.5236223324216
 30
0.0
 40
3.5
 41
0.0
 71
     5
 72
     1
  1
\A1;11
 11
0.0000000000000001
 21
1.0
 31
0.0
 73
     1
 44
1.0
1001
ACAD
1000
MTEXTBEGIN
1070
    73
1070
     1
1070
    44
1040
1.0
1070
    74
1070
     0
1000
MTEXTEND
  0
POINT
  5
2543
330
160C
100
AcDbEntity
  8
Defpoints
  6
Continuous
 62
     0
100
AcDbPoint
 10
920.3104113101913
 20
-592.4948151146494
 30
0.0
  0
POINT
  5
2544
330
160C
100
AcDbEntity
  8
Defpoints
  6
Continuous
 62
     0
100
AcDbPoint
 10
920.3104113101913
 20
-602.9948151146494
 30
0.0
  0
POINT
  5
2545
330
160C
100
AcDbEntity
  8
Defpoints
  6
Continuous
 62
     0
100
AcDbPoint
 10
947.8251813101911
 20
-602.9948151146494
 30
0.0
  0
ENDBLK
  5
1617
330
160C
100
AcDbEntity
  8
0
100
AcDbBlockEnd
  0
BLOCK
  5
1623
330
1618
100
AcDbEntity
  8
0
100
AcDbBlockBegin
  2
*D8
 70
     1
 10
0.0
 20
0.0
 30
0.0
  3
*D8
  1

  0
LINE
  5
24D5
330
1618
100
AcDbEntity
  8
11100_LEFT_DIM
  6
Continuous
 62
     0
370
    -2
100
AcDbLine
 10
921.3104113101914
 20
-600.4948151146494
 30
0.0
 11
938.8251813101913
 21
-600.4948151146494
 31
0.0
  0
LINE
  5
24D6
330
1618
100
AcDbEntity
  8
11100_LEFT_DIM
  6
Continuous
 62
     0
370
    -2
100
AcDbLine
 10
921.3104113101914
 20
-594.9948151146494
 30
0.0
 11
938.8251813101913
 21
-594.9948151146494
 31
0.0
  0
LINE
  5
24D7
330
1618
100
AcDbEntity
  8
11100_LEFT_DIM
  6
Continuous
 62
     0
370
    -2
100
AcDbLine
 10
937.8251813101913
 20
-603.9948151146494
 30
0.0
 11
937.8251813101913
 21
-607.4948151146494
 31
0.0
  0
LINE
  5
24D8
330
1618
100
AcDbEntity
  8
11100_LEFT_DIM
  6
Continuous
 62
     0
370
    -2
100
AcDbLine
 10
937.8251813101913
 20
-591.4948151146494
 30
0.0
 11
937.8251813101913
 21
-587.9948151146494
 31
0.0
  0
LINE
  5
24D9
330
1618
100
AcDbEntity
  8
11100_LEFT_DIM
  6
Continuous
 62
     0
370
    -2
100
AcDbLine
 10
937.8251813101913
 20
-600.4948151146494
 30
0.0
 11
937.8251813101913
 21
-594.9948151146494
 31
0.0
  0
SOLID
  5
24DA
330
1618
100
AcDbEntity
  8
11100_LEFT_DIM
  6
Continuous
 62
     0
100
AcDbTrace
 10
937.241847976858
 20
-603.9948151146494
 30
0.0
 11
938.4085146435246
 21
-603.9948151146494
 31
0.0
 12
937.8251813101913
 22
-600.4948151146494
 32
0.0
 13
937.8251813101913
 23
-600.4948151146494
 33
0.0
  0
SOLID
  5
24DB
330
1618
100
AcDbEntity
  8
11100_LEFT_DIM
  6
Continuous
 62
     0
100
AcDbTrace
 10
937.241847976858
 20
-591.4948151146494
 30
0.0
 11
938.4085146435246
 21
-591.4948151146494
 31
0.0
 12
937.8251813101913
 22
-594.9948151146494
 32
0.0
 13
937.8251813101913
 23
-594.9948151146494
 33
0.0
  0
MTEXT
  5
24DC
330
1618
100
AcDbEntity
  8
11100_LEFT_DIM
  6
Continuous
 62
     0
370
    13
100
AcDbMText
 10
935.0751813101913
 20
-597.7448151146493
 30
0.0
 40
3.5
 41
0.0
 71
     5
 72
     1
  1
\A1;6
 11
0.0000000000000001
 21
1.0
 31
0.0
 73
     1
 44
1.0
1001
ACAD
1000
MTEXTBEGIN
1070
    73
1070
     1
1070
    44
1040
1.0
1070
    74
1070
     0
1000
MTEXTEND
  0
POINT
  5
24DD
330
1618
100
AcDbEntity
  8
Defpoints
  6
Continuous
 62
     0
100
AcDbPoint
 10
920.3104113101913
 20
-600.4948151146494
 30
0.0
  0
POINT
  5
24DE
330
1618
100
AcDbEntity
  8
Defpoints
  6
Continuous
 62
     0
100
AcDbPoint
 10
920.3104113101913
 20
-594.9948151146494
 30
0.0
  0
POINT
  5
24DF
330
1618
100
AcDbEntity
  8
Defpoints
  6
Continuous
 62
     0
100
AcDbPoint
 10
937.8251813101913
 20
-594.9948151146494
 30
0.0
  0
ENDBLK
  5
1624
330
1618
100
AcDbEntity
  8
0
100
AcDbBlockEnd
  0
BLOCK
  5
162F
330
1625
100
AcDbEntity
  8
0
100
AcDbBlockBegin
  2
*D9
 70
     1
 10
0.0
 20
0.0
 30
0.0
  3
*D9
  1

  0
LINE
  5
2512
330
1625
100
AcDbEntity
  8
11100_LEFT_DIM
  6
Continuous
 62
     0
370
    -2
100
AcDbLine
 10
925.8251813101914
 20
-535.8517671146493
 30
0.0
 11
958.8251813101912
 21
-535.8517671146493
 31
0.0
  0
LINE
  5
2513
330
1625
100
AcDbEntity
  8
11100_LEFT_DIM
  6
Continuous
 62
     0
370
    -2
100
AcDbLine
 10
925.8251813101914
 20
-605.8517721146493
 30
0.0
 11
958.8251813101912
 21
-605.8517721146493
 31
0.0
  0
LINE
  5
2514
330
1625
100
AcDbEntity
  8
11100_LEFT_DIM
  6
Continuous
 62
     0
370
    -2
100
AcDbLine
 10
957.8251813101912
 20
-539.3517671146493
 30
0.0
 11
957.8251813101912
 21
-602.3517721146494
 31
0.0
  0
SOLID
  5
2515
330
1625
100
AcDbEntity
  8
11100_LEFT_DIM
  6
Continuous
 62
     0
100
AcDbTrace
 10
957.2418479768579
 20
-539.3517671146493
 30
0.0
 11
958.4085146435246
 21
-539.3517671146493
 31
0.0
 12
957.8251813101912
 22
-535.8517671146493
 32
0.0
 13
957.8251813101912
 23
-535.8517671146493
 33
0.0
  0
SOLID
  5
2516
330
1625
100
AcDbEntity
  8
11100_LEFT_DIM
  6
Continuous
 62
     0
100
AcDbTrace
 10
957.2418479768579
 20
-602.3517721146494
 30
0.0
 11
958.4085146435246
 21
-602.3517721146494
 31
0.0
 12
957.8251813101912
 22
-605.8517721146493
 32
0.0
 13
957.8251813101912
 23
-605.8517721146493
 33
0.0
  0
MTEXT
  5
2517
330
1625
100
AcDbEntity
  8
11100_LEFT_DIM
  6
Continuous
 62
     0
370
    13
100
AcDbMText
 10
955.0751813101914
 20
-559.9201646856118
 30
0.0
 40
3.5
 41
0.0
 71
     5
 72
     1
  1
\A1;70
 11
0.0000000000000001
 21
1.0
 31
0.0
 73
     1
 44
1.0
1001
ACAD
1000
MTEXTBEGIN
1070
    73
1070
     1
1070
    44
1040
1.0
1070
    74
1070
     0
1000
MTEXTEND
  0
POINT
  5
2518
330
1625
100
AcDbEntity
  8
Defpoints
  6
Continuous
 62
     0
100
AcDbPoint
 10
924.8251813101914
 20
-535.8517671146493
 30
0.0
  0
POINT
  5
2519
330
1625
100
AcDbEntity
  8
Defpoints
  6
Continuous
 62
     0
100
AcDbPoint
 10
924.8251813101914
 20
-605.8517721146493
 30
0.0
  0
POINT
  5
251A
330
1625
100
AcDbEntity
  8
Defpoints
  6
Continuous
 62
     0
100
AcDbPoint
 10
957.8251813101912
 20
-605.8517721146493
 30
0.0
  0
ENDBLK
  5
1630
330
1625
100
AcDbEntity
  8
0
100
AcDbBlockEnd
  0
BLOCK
  5
163B
330
1631
100
AcDbEntity
  8
0
100
AcDbBlockBegin
  2
*D10
 70
     1
 10
0.0
 20
0.0
 30
0.0
  3
*D10
  1

  0
LINE
  5
2442
330
1631
100
AcDbEntity
  8
10100_FRONT_DIM
  6
Continuous
 62
     0
370
    -2
100
AcDbLine
 10
804.0573564788598
 20
-543.8517721146492
 30
0.0
 11
756.0573564788597
 21
-543.8517721146491
 31
0.0
  0
LINE
  5
2443
330
1631
100
AcDbEntity
  8
10100_FRONT_DIM
  6
Continuous
 62
     0
370
    -2
100
AcDbLine
 10
804.0573564788598
 20
-597.8517721146492
 30
0.0
 11
756.0573564788597
 21
-597.8517721146491
 31
0.0
  0
LINE
  5
2444
330
1631
100
AcDbEntity
  8
10100_FRONT_DIM
  6
Continuous
 62
     0
370
    -2
100
AcDbLine
 10
757.0573564788597
 20
-547.3517721146492
 30
0.0
 11
757.0573564788597
 21
-594.3517721146491
 31
0.0
  0
SOLID
  5
2445
330
1631
100
AcDbEntity
  8
10100_FRONT_DIM
  6
Continuous
 62
     0
100
AcDbTrace
 10
756.4740231455264
 20
-547.3517721146492
 30
0.0
 11
757.6406898121931
 21
-547.3517721146492
 31
0.0
 12
757.0573564788597
 22
-543.8517721146491
 32
0.0
 13
757.0573564788597
 23
-543.8517721146491
 33
0.0
  0
SOLID
  5
2446
330
1631
100
AcDbEntity
  8
10100_FRONT_DIM
  6
Continuous
 62
     0
100
AcDbTrace
 10
756.4740231455264
 20
-594.3517721146491
 30
0.0
 11
757.6406898121931
 21
-594.3517721146491
 31
0.0
 12
757.0573564788597
 22
-597.8517721146491
 32
0.0
 13
757.0573564788597
 23
-597.8517721146491
 33
0.0
  0
MTEXT
  5
2447
330
1631
100
AcDbEntity
  8
10100_FRONT_DIM
  6
Continuous
 62
     0
370
    13
100
AcDbMText
 10
754.3073564788599
 20
-570.8517721146494
 30
0.0
 40
3.5
 41
0.0
 71
     5
 72
     1
  1
\A1;54
 11
0.0000000000000001
 21
1.0
 31
0.0
 73
     1
 44
1.0
1001
ACAD
1000
MTEXTBEGIN
1070
    73
1070
     1
1070
    44
1040
1.0
1070
    74
1070
     0
1000
MTEXTEND
  0
POINT
  5
2448
330
1631
100
AcDbEntity
  8
Defpoints
  6
Continuous
 62
     0
100
AcDbPoint
 10
805.0573564788598
 20
-543.8517721146492
 30
0.0
  0
POINT
  5
2449
330
1631
100
AcDbEntity
  8
Defpoints
  6
Continuous
 62
     0
100
AcDbPoint
 10
805.0573564788598
 20
-597.8517721146492
 30
0.0
  0
POINT
  5
244A
330
1631
100
AcDbEntity
  8
Defpoints
  6
Continuous
 62
     0
100
AcDbPoint
 10
757.0573564788597
 20
-597.8517721146491
 30
0.0
  0
ENDBLK
  5
163C
330
1631
100
AcDbEntity
  8
0
100
AcDbBlockEnd
  0
BLOCK
  5
19EC
330
19E1
100
AcDbEntity
  8
0
 62
     7
100
AcDbBlockBegin
  2
*D11
 70
     1
 10
0.0
 20
0.0
 30
0.0
  3
*D11
  1

  0
LINE
  5
244B
330
19E1
100
AcDbEntity
  8
11100_LEFT_DIM
  6
Continuous
 62
     0
370
    -2
100
AcDbLine
 10
885.3251813101914
 20
-581.7017721146493
 30
0.0
 11
872.3251813101915
 21
-581.7017721146493
 31
0.0
  0
LINE
  5
244C
330
19E1
100
AcDbEntity
  8
11100_LEFT_DIM
  6
Continuous
 62
     0
370
    -2
100
AcDbLine
 10
885.3251813101914
 20
-560.0017671146494
 30
0.0
 11
872.3251813101915
 21
-560.0017671146494
 31
0.0
  0
LINE
  5
244D
330
19E1
100
AcDbEntity
  8
11100_LEFT_DIM
  6
Continuous
 62
     0
370
    -2
100
AcDbLine
 10
873.3251813101915
 20
-578.2017721146493
 30
0.0
 11
873.3251813101915
 21
-563.5017671146494
 31
0.0
  0
SOLID
  5
244E
330
19E1
100
AcDbEntity
  8
11100_LEFT_DIM
  6
Continuous
 62
     0
100
AcDbTrace
 10
872.7418479768582
 20
-578.2017721146493
 30
0.0
 11
873.9085146435249
 21
-578.2017721146493
 31
0.0
 12
873.3251813101915
 22
-581.7017721146493
 32
0.0
 13
873.3251813101915
 23
-581.7017721146493
 33
0.0
  0
SOLID
  5
244F
330
19E1
100
AcDbEntity
  8
11100_LEFT_DIM
  6
Continuous
 62
     0
100
AcDbTrace
 10
872.7418479768582
 20
-563.5017671146494
 30
0.0
 11
873.9085146435249
 21
-563.5017671146494
 31
0.0
 12
873.3251813101915
 22
-560.0017671146494
 32
0.0
 13
873.3251813101915
 23
-560.0017671146494
 33
0.0
  0
MTEXT
  5
2450
330
19E1
100
AcDbEntity
  8
11100_LEFT_DIM
  6
Continuous
 62
     0
370
    13
100
AcDbMText
 10
870.5748368220026
 20
-570.8517696146491
 30
0.0
 40
3.5
 41
0.0
 71
     5
 72
     1
  1
\A1;22
 11
0.0000000000000001
 21
1.0
 31
0.0
 73
     1
 44
1.0
1001
ACAD
1000
MTEXTBEGIN
1070
    73
1070
     1
1070
    44
1040
1.0
1070
    74
1070
     0
1000
MTEXTEND
  0
POINT
  5
2451
330
19E1
100
AcDbEntity
  8
Defpoints
  6
Continuous
 62
     0
100
AcDbPoint
 10
886.3251813101914
 20
-581.7017721146493
 30
0.0
  0
POINT
  5
2452
330
19E1
100
AcDbEntity
  8
Defpoints
  6
Continuous
 62
     0
100
AcDbPoint
 10
886.3251813101914
 20
-560.0017671146494
 30
0.0
  0
POINT
  5
2453
330
19E1
100
AcDbEntity
  8
Defpoints
  6
Continuous
 62
     0
100
AcDbPoint
 10
873.3251813101915
 20
-560.0017671146494
 30
0.0
  0
ENDBLK
  5
19ED
330
19E1
100
AcDbEntity
  8
0
 62
     7
100
AcDbBlockEnd
  0
ENDSEC
  0
SECTION
  2
ENTITIES
  0
LWPOLYLINE
  5
2C4
330
1F
100
AcDbEntity
  8
90100_FRAME_THICK
100
AcDbPolyline
 90
        4
 70
     1
 43
0.0
 10
715.2264960214957
 20
-679.3923204558783
 10
1012.226496021495
 20
-679.3923204558783
 10
1012.226496021495
 20
-469.3923204558783
 10
715.2264960214957
 20
-469.3923204558783
1001
GENIUS_GENREC_14
1002
{
1000
PYDIR
1011
715.2264960214957
1021
-469.3923204558783
1031
0.0
1002
}
1002
{
1000
PXDIR
1011
1012.226496021495
1021
-679.3923204558783
1031
0.0
1002
}
1002
{
1000
PORI
1011
715.2264960214957
1021
-679.3923204558783
1031
0.0
1002
}
1002
{
1000
PINS
1011
715.2264960214957
1021
-679.3923204558783
1031
0.0
1002
}
1002
{
1000
HVAL
1000
210
1002
}
1002
{
1000
H
1070
     2
1002
}
1002
{
1000
WVAL
1000
297
1002
}
1002
{
1000
W
1070
     2
1002
}
1002
{
1000
C
1070
     1
1002
}
1001
GENIUS_GENODEF_13
1002
{
1000
HIER
1070
     0
1002
}
1002
{
1000
MANEDIT
1070
     0
1002
}
1002
{
1000
NOSEL
1070
     0
1002
}
1002
{
1000
BEHIND
1070
     0
1002
}
1002
{
1000
OTHER
1070
     0
1002
}
1002
{
1000
REACTOR
1002
}
1001
GENIUS_GENOBJ-N-REC_13
1002
{
1000
OWNER
1000
GEN
1002
}
  0
LWPOLYLINE
  5
399
330
1F
100
AcDbEntity
  8
90000_FRAME_THIN
100
AcDbPolyline
 90
        4
 70
     1
 43
0.0
 10
720.2264960214956
 20
-674.3923204558783
 10
1007.226496021496
 20
-674.3923204558783
 10
1007.226496021496
 20
-474.3923204558783
 10
720.2264960214956
 20
-474.3923204558783
1001
GENIUS_GENREC_14
1002
{
1000
PYDIR
1011
715.2264960214957
1021
-469.3923204558783
1031
0.0
1002
}
1002
{
1000
PXDIR
1011
1012.226496021495
1021
-679.3923204558783
1031
0.0
1002
}
1002
{
1000
PORI
1011
715.2264960214957
1021
-679.3923204558783
1031
0.0
1002
}
1002
{
1000
PINS
1011
715.2264960214957
1021
-679.3923204558783
1031
0.0
1002
}
1002
{
1000
HVAL
1000
210
1002
}
1002
{
1000
H
1070
     2
1002
}
1002
{
1000
WVAL
1000
297
1002
}
1002
{
1000
W
1070
     2
1002
}
1002
{
1000
C
1070
     1
1002
}
1001
GENIUS_GENODEF_13
1002
{
1000
HIER
1070
     0
1002
}
1002
{
1000
MANEDIT
1070
     0
1002
}
1002
{
1000
NOSEL
1070
     0
1002
}
1002
{
1000
BEHIND
1070
     0
1002
}
1002
{
1000
OTHER
1070
     0
1002
}
1002
{
1000
REACTOR
1002
}
1001
GENIUS_GENOBJ-N-REC_13
1002
{
1000
OWNER
1000
GEN
1002
}
  0
LINE
  5
158C
330
1F
100
AcDbEntity
  8
11000_LEFT
  6
Continuous
 62
     7
370
    35
100
AcDbLine
 10
916.6668113101914
 20
-605.8517721146493
 30
0.0
 11
923.3104113101914
 21
-605.8517721146493
 31
0.0
  0
LINE
  5
158D
330
1F
100
AcDbEntity
  8
11000_LEFT
  6
Continuous
 62
     7
370
    35
100
AcDbLine
 10
923.3251813101913
 20
-605.8517721146493
 30
0.0
 11
923.3251813101913
 21
-600.4948151146494
 31
0.0
  0
ARC
  5
1590
330
1F
100
AcDbEntity
  8
11000_LEFT
  6
Continuous
 62
     7
370
    35
100
AcDbCircle
 10
916.6668113101914
 20
-601.8517721146494
 30
0.0
 40
4.0
100
AcDbArc
 50
189.909306000003
 51
270.0
  0
LINE
  5
1591
330
1F
100
AcDbEntity
  8
11000_LEFT
  6
Continuous
 62
     7
370
    35
100
AcDbLine
 10
916.6668113101914
 20
-605.8517721146493
 30
0.0
 11
923.3251813101913
 21
-605.8517721146493
 31
0.0
  0
LINE
  5
1593
330
1F
100
AcDbEntity
  8
11000_LEFT
  6
Continuous
 62
     7
370
    35
100
AcDbLine
 10
923.3104113101914
 20
-535.8517671146493
 30
0.0
 11
916.6668113101916
 21
-535.8517671146493
 31
0.0
  0
LINE
  5
1594
330
1F
100
AcDbEntity
  8
11000_LEFT
  6
Continuous
 62
     7
370
    35
100
AcDbLine
 10
906.3251813101913
 20
-581.7017721146493
 30
0.0
 11
886.3251813101914
 21
-581.7017721146493
 31
0.0
  0
LINE
  5
1595
330
1F
100
AcDbEntity
  8
11000_LEFT
  6
Continuous
 62
     7
370
    35
100
AcDbLine
 10
886.3251813101914
 20
-560.0017671146494
 30
0.0
 11
906.3251813101915
 21
-560.0017671146494
 31
0.0
  0
LINE
  5
1598
330
1F
100
AcDbEntity
  8
11000_LEFT
  6
Continuous
 62
     7
370
    35
100
AcDbLine
 10
923.3251813101913
 20
-594.9948151146494
 30
0.0
 11
923.3251813101913
 21
-589.1348211146492
 31
0.0
  0
LINE
  5
159B
330
1F
100
AcDbEntity
  8
10200_FRONT_SYM
  6
STRICHPUNKT
 62
     7
100
AcDbLine
 10
763.8762224788596
 20
-570.8517721146493
 30
0.0
 11
844.7583064788597
 21
-570.8517721146493
 31
0.0
  0
LINE
  5
159C
330
1F
100
AcDbEntity
  8
11200_LEFT_SYM
  6
STRICHPUNKT
 62
     7
100
AcDbLine
 10
882.4225413101915
 20
-570.8517671146493
 30
0.0
 11
926.5677313101916
 21
-570.8517671146493
 31
0.0
  0
LINE
  5
159D
330
1F
100
AcDbEntity
  8
11400_LEFT_HIDDEN
  6
ACDINWELD
 62
     7
 48
0.5
370
    13
100
AcDbLine
 10
920.3104113101913
 20
-602.9948151146494
 30
0.0
 11
920.3104113101913
 21
-592.4948151146494
 31
0.0
  0
LINE
  5
159E
330
1F
100
AcDbEntity
  8
11000_LEFT
  6
Continuous
 62
     7
370
    35
100
AcDbLine
 10
923.3251813101913
 20
-600.4948151146494
 30
0.0
 11
923.3251813101913
 21
-594.9948151146494
 31
0.0
  0
LINE
  5
15AD
330
1F
100
AcDbEntity
  8
10000_FRONT
  6
Continuous
 62
     7
370
    35
100
AcDbLine
 10
799.9066864788598
 20
-561.3022621146492
 30
0.0
 11
799.9066864788598
 21
-580.4012821146493
 31
0.0
  0
LINE
  5
15AE
330
1F
100
AcDbEntity
  8
10000_FRONT
  6
Continuous
 62
     7
370
    35
100
AcDbLine
 10
801.5963264788595
 20
-560.5685921146492
 30
0.0
 11
801.5963264788595
 21
-581.1349521146492
 31
0.0
  0
CIRCLE
  5
15B1
330
1F
100
AcDbEntity
  8
10000_FRONT
  6
Continuous
 62
     7
370
    35
100
AcDbCircle
 10
805.0573564788598
 20
-570.8517721146493
 30
0.0
 40
35.0
  0
CIRCLE
  5
15B2
330
1F
100
AcDbEntity
  8
10000_FRONT
  6
STRICHPUNKT
 62
     7
370
    35
100
AcDbCircle
 10
805.0573564788598
 20
-570.8517721146493
 30
0.0
 40
27.0
  0
CIRCLE
  5
15B3
330
1F
100
AcDbEntity
  8
10000_FRONT
  6
Continuous
 62
     7
370
    35
100
AcDbCircle
 10
805.0573564788598
 20
-570.8517721146493
 30
0.0
 40
12.5
  0
CIRCLE
  5
15B4
330
1F
100
AcDbEntity
  8
10000_FRONT
  6
Continuous
 62
     7
370
    35
100
AcDbCircle
 10
805.0573564788598
 20
-570.8517721146493
 30
0.0
 40
10.85
  0
CIRCLE
  5
15B5
330
1F
100
AcDbEntity
  8
10000_FRONT
  6
Continuous
 62
     7
370
    35
100
AcDbCircle
 10
808.0573564788597
 20
-570.8517721146493
 30
0.0
 40
5.0
  0
ARC
  5
15B6
330
1F
100
AcDbEntity
  8
11000_LEFT
  6
Continuous
 62
     7
370
    35
100
AcDbCircle
 10
905.1475613101914
 20
-588.2111131146494
 30
0.0
 40
5.0
100
AcDbArc
 50
10.00000000000514
 51
76.37742000000166
  0
LINE
  5
15B7
330
1F
100
AcDbEntity
  8
11200_LEFT_SYM
  6
STRICHPUNKT
 62
     7
100
AcDbLine
 10
909.9335513101916
 20
-597.7448151146494
 30
0.0
 11
926.0634813101914
 21
-597.7448151146494
 31
0.0
  0
LINE
  5
15B8
330
1F
100
AcDbEntity
  8
11000_LEFT
  6
ACDINWELD
 62
     7
 48
0.5
370
    13
100
AcDbLine
 10
920.3104113101913
 20
-600.4948151146494
 30
0.0
 11
923.3251813101913
 21
-600.4948151146494
 31
0.0
  0
LINE
  5
15B9
330
1F
100
AcDbEntity
  8
11400_LEFT_HIDDEN
  6
ACDINWELD
 62
     7
 48
0.5
370
    13
100
AcDbLine
 10
920.3104113101913
 20
-602.9948151146494
 30
0.0
 11
912.8336113101914
 21
-602.9948151146494
 31
0.0
  0
LINE
  5
15BA
330
1F
100
AcDbEntity
  8
11400_LEFT_HIDDEN
  6
ACDINWELD
 62
     7
 48
0.5
370
    13
100
AcDbLine
 10
920.3104113101913
 20
-592.4948151146494
 30
0.0
 11
910.9716113101914
 21
-592.4948151146494
 31
0.0
  0
LINE
  5
15BB
330
1F
100
AcDbEntity
  8
11000_LEFT
  6
ACDINWELD
 62
     7
 48
0.5
370
    13
100
AcDbLine
 10
920.3104113101913
 20
-594.9948151146494
 30
0.0
 11
923.3251813101913
 21
-594.9948151146494
 31
0.0
  0
LINE
  5
15BC
330
1F
100
AcDbEntity
  8
11200_LEFT_SYM
  6
STRICHPUNKT
 62
     7
100
AcDbLine
 10
909.9335513101916
 20
-543.7448171146494
 30
0.0
 11
926.0634813101914
 21
-543.7448171146494
 31
0.0
  0
LINE
  5
15C0
330
1F
100
AcDbEntity
  8
11000_LEFT
  6
Continuous
 62
     7
370
    35
100
AcDbLine
 10
923.3251813101913
 20
-589.1348211146492
 30
0.0
 11
923.3251813101915
 21
-535.8517671146493
 31
0.0
  0
LINE
  5
15C7
330
1F
100
AcDbEntity
  8
10200_FRONT_SYM
  6
STRICHPUNKT
 62
     7
100
AcDbLine
 10
805.0573564788598
 20
-533.5025621146493
 30
0.0
 11
805.0573564788598
 21
-608.4302721146492
 31
0.0
  0
LINE
  5
15C9
330
1F
100
AcDbEntity
  8
11000_LEFT
  6
Continuous
 62
     7
370
    35
100
AcDbLine
 10
910.0715913101913
 20
-587.3428721146494
 30
0.0
 11
912.7264813101914
 21
-602.5401281146494
 31
0.0
  0
ARC
  5
15CA
330
1F
100
AcDbEntity
  8
11000_LEFT
  6
Continuous
 62
     7
370
    35
100
AcDbCircle
 10
905.1475613101915
 20
-553.4924271146492
 30
0.0
 40
5.0
100
AcDbArc
 50
283.6225799999952
 51
349.9999999999949
  0
LINE
  5
15CB
330
1F
100
AcDbEntity
  8
11000_LEFT
  6
Continuous
 62
     7
370
    35
100
AcDbLine
 10
910.0715913101915
 20
-554.3606671146493
 30
0.0
 11
912.7264813101914
 21
-539.1634171146494
 31
0.0
  0
ARC
  5
15CC
330
1F
100
AcDbEntity
  8
11000_LEFT
  6
Continuous
 62
     7
370
    35
100
AcDbCircle
 10
916.6668113101916
 20
-539.8517671146493
 30
0.0
 40
4.0
100
AcDbArc
 50
90.0
 51
170.0906939999969
  0
LINE
  5
15CD
330
1F
100
AcDbEntity
  8
11000_LEFT
  6
Continuous
 62
     7
370
    35
100
AcDbLine
 10
916.6668113101916
 20
-535.8517671146493
 30
0.0
 11
923.3251813101915
 21
-535.8517671146493
 31
0.0
  0
CIRCLE
  5
15CE
330
1F
100
AcDbEntity
  8
10000_FRONT
  6
Continuous
 62
     7
370
    35
100
AcDbCircle
 10
805.0573564788598
 20
-570.8517721146493
 30
0.0
 40
16.4911
  0
ARC
  5
15CF
330
1F
100
AcDbEntity
  8
10000_FRONT
  6
Continuous
 62
     7
370
    35
100
AcDbCircle
 10
805.0573564788598
 20
-570.8517721146493
 30
0.0
 40
31.688356
100
AcDbArc
 50
274.6290999999951
 51
355.3708999999984
  0
DIMENSION
  5
15D7
330
1F
100
AcDbEntity
  8
11100_LEFT_DIM
  6
Continuous
370
    13
100
AcDbDimension
  2
*D5
 10
906.3251813101915
 20
-522.8517671146493
 30
0.0
 11
914.8251813101914
 21
-522.8517671146493
 31
0.0
 70
   160
 71
     5
 42
18.49999999999988
  3
DSTYLE1
100
AcDbAlignedDimension
 13
924.8251813101914
 23
-535.8517671146493
 33
0.0
 14
906.3251813101915
 24
-558.3517671146493
 34
0.0
 50
180.0
100
AcDbRotatedDimension
1001
ACAD
1000
DSTYLE
1002
{
1070
    41
1040
3.5
1070
    42
1040
1.0
1070
    43
1040
1.0
1070
    47
1040
0.005
1070
    48
1040
-0.005
1070
    78
1070
     0
1070
   140
1040
3.5
1070
   143
1040
25.4
1070
   171
1070
     0
1070
   172
1070
     1
1070
   271
1070
     0
1070
   272
1070
     1
1070
   277
1070
     6
1070
   279
1070
     0
1002
}
  0
DIMENSION
  5
15D8
330
1F
100
AcDbEntity
  8
11100_LEFT_DIM
  6
Continuous
370
    13
100
AcDbDimension
  2
*D6
 10
924.8251813101914
 20
-512.8517671146493
 30
0.0
 11
904.8251813101915
 21
-512.8517671146493
 31
0.0
 70
   160
 71
     5
 42
38.49999999999989
  3
DSTYLE1
100
AcDbAlignedDimension
 13
886.3251813101914
 23
-560.0017671146494
 33
0.0
 14
924.8251813101914
 24
-535.8517671146493
 34
0.0
 50
180.0
100
AcDbRotatedDimension
1001
ACAD
1000
DSTYLE
1002
{
1070
    41
1040
3.5
1070
    42
1040
1.0
1070
    43
1040
1.0
1070
    47
1040
0.005
1070
    48
1040
-0.005
1070
    78
1070
     0
1070
   140
1040
3.5
1070
   143
1040
25.4
1070
   171
1070
     0
1070
   172
1070
     1
1070
   271
1070
     0
1070
   272
1070
     1
1070
   277
1070
     6
1070
   279
1070
     0
1002
}
  0
DIMENSION
  5
15D9
330
1F
100
AcDbEntity
  8
11100_LEFT_DIM
  6
Continuous
370
    13
100
AcDbDimension
  2
*D7
 10
947.8251813101911
 20
-602.9948151146494
 30
0.0
 11
947.8251813101913
 21
-599.5236223324216
 31
0.0
 70
   160
 71
     5
 42
10.5
  3
DSTYLE1
100
AcDbAlignedDimension
 13
920.3104113101913
 23
-592.4948151146494
 33
0.0
 14
920.3104113101913
 24
-602.9948151146494
 34
0.0
 50
90.0
100
AcDbRotatedDimension
1001
ACAD
1000
DSTYLE
1002
{
1070
    41
1040
3.5
1070
    42
1040
1.0
1070
    43
1040
1.0
1070
    47
1040
0.005
1070
    48
1040
-0.005
1070
    78
1070
     0
1070
   140
1040
3.5
1070
   143
1040
25.4
1070
   171
1070
     0
1070
   172
1070
     1
1070
   271
1070
     0
1070
   272
1070
     1
1070
   277
1070
     6
1070
   279
1070
     0
1002
}
  0
DIMENSION
  5
15DA
330
1F
100
AcDbEntity
  8
11100_LEFT_DIM
  6
Continuous
370
    13
100
AcDbDimension
  2
*D8
 10
937.8251813101913
 20
-594.9948151146494
 30
0.0
 11
937.8251813101913
 21
-597.7448151146493
 31
0.0
 70
   160
 71
     5
 42
5.5
  3
DSTYLE1
100
AcDbAlignedDimension
 13
920.3104113101913
 23
-600.4948151146494
 33
0.0
 14
920.3104113101913
 24
-594.9948151146494
 34
0.0
 50
90.0
100
AcDbRotatedDimension
1001
ACAD
1000
DSTYLE
1002
{
1070
    41
1040
3.5
1070
    42
1040
1.0
1070
    43
1040
1.0
1070
    47
1040
0.005
1070
    48
1040
-0.005
1070
    78
1070
     0
1070
   140
1040
3.5
1070
   143
1040
25.4
1070
   171
1070
     0
1070
   172
1070
     1
1070
   271
1070
     0
1070
   272
1070
     1
1070
   277
1070
     6
1070
   279
1070
     0
1002
}
  0
DIMENSION
  5
15DB
330
1F
100
AcDbEntity
  8
11100_LEFT_DIM
  6
Continuous
370
    13
100
AcDbDimension
  2
*D9
 10
957.8251813101912
 20
-605.8517721146493
 30
0.0
 11
957.8251813101914
 21
-559.9201646856118
 31
0.0
 70
   160
 71
     5
 42
70.0000050000001
  3
DSTYLE1
100
AcDbAlignedDimension
 13
924.8251813101914
 23
-535.8517671146493
 33
0.0
 14
924.8251813101914
 24
-605.8517721146493
 34
0.0
 50
90.0
100
AcDbRotatedDimension
1001
ACAD
1000
DSTYLE
1002
{
1070
    41
1040
3.5
1070
    42
1040
1.0
1070
    43
1040
1.0
1070
    47
1040
0.005
1070
    48
1040
-0.005
1070
    78
1070
     0
1070
   140
1040
3.5
1070
   143
1040
25.4
1070
   171
1070
     0
1070
   172
1070
     1
1070
   271
1070
     0
1070
   272
1070
     1
1070
   277
1070
     6
1070
   279
1070
     0
1002
}
  0
DIMENSION
  5
15DC
330
1F
100
AcDbEntity
  8
10100_FRONT_DIM
  6
Continuous
370
    13
100
AcDbDimension
  2
*D10
 10
757.0573564788597
 20
-597.8517721146491
 30
0.0
 11
757.0573564788599
 21
-570.8517721146494
 31
0.0
 70
   160
 71
     5
 42
54.0
  3
DSTYLE1
100
AcDbAlignedDimension
 13
805.0573564788598
 23
-543.8517721146492
 33
0.0
 14
805.0573564788598
 24
-597.8517721146492
 34
0.0
 50
90.0
100
AcDbRotatedDimension
1001
ACAD
1000
DSTYLE
1002
{
1070
    41
1040
3.5
1070
    42
1040
1.0
1070
    43
1040
1.0
1070
    47
1040
0.005
1070
    48
1040
-0.005
1070
    78
1070
     0
1070
   140
1040
3.5
1070
   143
1040
25.4
1070
   171
1070
     0
1070
   172
1070
     1
1070
   271
1070
     0
1070
   272
1070
     1
1070
   277
1070
     6
1070
   279
1070
     0
1002
}
  0
CIRCLE
  5
15DD
330
1F
100
AcDbEntity
  8
10000_FRONT
  6
Continuous
 62
     7
370
    35
100
AcDbCircle
 10
832.0573564788597
 20
-570.8517721146493
 30
0.0
 40
2.75
  0
CIRCLE
  5
15DE
330
1F
100
AcDbEntity
  8
10000_FRONT
  6
Continuous
 62
     7
370
    35
100
AcDbCircle
 10
832.0573564788597
 20
-570.8517721146493
 30
0.0
 40
5.25
  0
CIRCLE
  5
15DF
330
1F
100
AcDbEntity
  8
10000_FRONT
  6
Continuous
 62
     7
370
    35
100
AcDbCircle
 10
805.0573564788598
 20
-543.8517721146492
 30
0.0
 40
2.75
  0
CIRCLE
  5
15E0
330
1F
100
AcDbEntity
  8
10000_FRONT
  6
Continuous
 62
     7
370
    35
100
AcDbCircle
 10
805.0573564788598
 20
-543.8517721146492
 30
0.0
 40
5.25
  0
CIRCLE
  5
15E1
330
1F
100
AcDbEntity
  8
10000_FRONT
  6
Continuous
 62
     7
370
    35
100
AcDbCircle
 10
778.0573514788597
 20
-570.8517721146493
 30
0.0
 40
2.75
  0
CIRCLE
  5
15E2
330
1F
100
AcDbEntity
  8
10000_FRONT
  6
Continuous
 62
     7
370
    35
100
AcDbCircle
 10
778.0573514788597
 20
-570.8517721146493
 30
0.0
 40
5.25
  0
CIRCLE
  5
15E3
330
1F
100
AcDbEntity
  8
10000_FRONT
  6
Continuous
 62
     7
370
    35
100
AcDbCircle
 10
805.0573564788598
 20
-597.8517721146492
 30
0.0
 40
2.75
  0
CIRCLE
  5
15E4
330
1F
100
AcDbEntity
  8
10000_FRONT
  6
Continuous
 62
     7
370
    35
100
AcDbCircle
 10
805.0573564788598
 20
-597.8517721146492
 30
0.0
 40
5.25
  0
ARC
  5
15E5
330
1F
100
AcDbEntity
  8
10000_FRONT
  6
Continuous
 62
     7
370
    35
100
AcDbCircle
 10
805.0573564788598
 20
-570.8517721146493
 30
0.0
 40
31.688356
100
AcDbArc
 50
184.6291000000016
 51
265.3709000000049
  0
ARC
  5
15E6
330
1F
100
AcDbEntity
  8
10000_FRONT
  6
Continuous
 62
     7
370
    35
100
AcDbCircle
 10
805.0573564788598
 20
-570.8517721146493
 30
0.0
 40
31.688356
100
AcDbArc
 50
94.62910199999504
 51
175.3708999999983
  0
ARC
  5
15E7
330
1F
100
AcDbEntity
  8
10000_FRONT
  6
Continuous
 62
     7
370
    35
100
AcDbCircle
 10
805.0573564788598
 20
-570.8517721146493
 30
0.0
 40
31.688356
100
AcDbArc
 50
4.629101500001665
 51
85.37089800000495
  0
LINE
  5
199E
102
{ACAD_REACTORS
330
19F9
102
}
330
1F
100
AcDbEntity
  8
11000_LEFT
  6
Continuous
 62
     7
370
    35
100
AcDbLine
 10
886.3251813101914
 20
-581.7017721146493
 30
0.0
 11
886.3251813101914
 21
-560.0017671146494
 31
0.0
  0
LINE
  5
199F
330
1F
100
AcDbEntity
  8
11000_LEFT
  6
Continuous
 62
     7
370
    35
100
AcDbLine
 10
906.3251813101913
 20
-583.3517721146494
 30
0.0
 11
906.3251813101915
 21
-558.3517671146493
 31
0.0
  0
DIMENSION
  5
19E0
102
{ACAD_XDICTIONARY
360
19EE
102
}
102
{ACAD_REACTORS
330
19F9
102
}
330
1F
100
AcDbEntity
  8
11100_LEFT_DIM
  6
Continuous
370
    13
100
AcDbDimension
  2
*D11
 10
873.3251813101915
 20
-560.0017671146494
 30
0.0
 11
870.5748368220026
 21
-570.8517696146491
 31
0.0
 70
    32
 71
     5
 42
21.70000499999992
  3
DSTYLE1
100
AcDbAlignedDimension
 13
886.3251813101914
 23
-581.7017721146493
 33
0.0
 14
886.3251813101914
 24
-560.0017671146494
 34
0.0
 50
90.0
100
AcDbRotatedDimension
1001
ACAD
1000
DSTYLE
1002
{
1070
   340
1005
11
1070
   140
1040
3.5
1070
    41
1040
3.5
1070
    42
1040
1.0
1070
    43
1040
1.0
1070
    47
1040
0.005
1070
    48
1040
-0.005
1070
    77
1070
     1
1070
    78
1070
     0
1070
   143
1040
25.4
1070
   171
1070
     0
1070
   172
1070
     1
1070
   271
1070
     0
1070
   272
1070
     1
1070
   277
1070
     6
1070
   279
1070
     0
1002
}
  0
LINE
  5
23B9
330
1F
100
AcDbEntity
  8
10000_FRONT
  6
Continuous
 62
     7
370
    35
100
AcDbLine
 10
924.8251813101914
 20
-535.8517671146493
 30
0.0
 11
924.8251813101914
 21
-605.8517721146493
 31
0.0
  0
LINE
  5
23BB
330
1F
100
AcDbEntity
  8
10000_FRONT
  6
Continuous
 62
     7
370
    35
100
AcDbLine
 10
924.8251813101914
 20
-535.8517671146493
 30
0.0
 11
923.3251813101913
 21
-535.8517671146493
 31
0.0
  0
LINE
  5
23BE
330
1F
100
AcDbEntity
  8
10000_FRONT
 62
     7
370
    35
100
AcDbLine
 10
923.3251813101913
 20
-605.8517721146493
 30
0.0
 11
924.8251813101914
 21
-605.8517721146493
 31
0.0
  0
MTEXT
  5
245D
330
1F
100
AcDbEntity
  8
92000_TITLE
100
AcDbMText
 10
892.2264960214956
 20
-657.3923204558783
 30
0.0
 40
3.5
 41
40.0
 71
     5
 72
     5
  1
{\fSiemens Logo|b0|i0|c0|p2;s}
 73
     1
 44
1.0
1001
ACAD
1000
MTEXTBEGIN
1070
    73
1070
     1
1070
    44
1040
1.0
1070
    74
1070
     0
1000
MTEXTEND
  0
LINE
  5
245E
330
1F
100
AcDbEntity
  8
92000_TITLE
100
AcDbLine
 10
867.2264960214956
 20
-669.3923204558783
 30
0.0
 11
1002.226496021495
 21
-669.3923204558783
 31
0.0
1001
GENIUS_GENREC_14
1002
{
1000
PYDIR
1011
867.2264960214956
1021
-651.3923204558783
1031
0.0
1002
}
1002
{
1000
PXDIR
1011
1002.226496021495
1021
-669.3923204558783
1031
0.0
1002
}
1002
{
1000
PORI
1011
867.2264960214956
1021
-669.3923204558783
1031
0.0
1002
}
1002
{
1000
PINS
1011
867.2264960214956
1021
-669.3923204558783
1031
0.0
1002
}
1002
{
1000
HVAL
1000
18
1002
}
1002
{
1000
H
1070
     2
1002
}
1002
{
1000
WVAL
1000
135
1002
}
1002
{
1000
W
1070
     2
1002
}
1002
{
1000
C
1070
     1
1002
}
1001
GENIUS_GENOBJ-N-REC_13
1002
{
1000
OWNER
1000
GEN
1002
}
1001
GENIUS_GENODEF_13
1002
{
1000
HIER
1070
     0
1002
}
1002
{
1000
MANEDIT
1070
     0
1002
}
1002
{
1000
NOSEL
1070
     0
1002
}
1002
{
1000
BEHIND
1070
     0
1002
}
1002
{
1000
OTHER
1070
     0
1002
}
1002
{
1000
REACTOR
1002
}
  0
LINE
  5
245F
330
1F
100
AcDbEntity
  8
92000_TITLE
100
AcDbLine
 10
1002.226496021495
 20
-651.3923204558783
 30
0.0
 11
867.2264960214956
 21
-651.3923204558783
 31
0.0
1001
GENIUS_GENREC_14
1002
{
1000
PYDIR
1011
867.2264960214956
1021
-651.3923204558783
1031
0.0
1002
}
1002
{
1000
PXDIR
1011
1002.226496021495
1021
-669.3923204558783
1031
0.0
1002
}
1002
{
1000
PORI
1011
867.2264960214956
1021
-669.3923204558783
1031
0.0
1002
}
1002
{
1000
PINS
1011
867.2264960214956
1021
-669.3923204558783
1031
0.0
1002
}
1002
{
1000
HVAL
1000
18
1002
}
1002
{
1000
H
1070
     2
1002
}
1002
{
1000
WVAL
1000
135
1002
}
1002
{
1000
W
1070
     2
1002
}
1002
{
1000
C
1070
     1
1002
}
1001
GENIUS_GENOBJ-N-REC_13
1002
{
1000
OWNER
1000
GEN
1002
}
1001
GENIUS_GENODEF_13
1002
{
1000
HIER
1070
     0
1002
}
1002
{
1000
MANEDIT
1070
     0
1002
}
1002
{
1000
NOSEL
1070
     0
1002
}
1002
{
1000
BEHIND
1070
     0
1002
}
1002
{
1000
OTHER
1070
     0
1002
}
1002
{
1000
REACTOR
1002
}
  0
LINE
  5
2460
330
1F
100
AcDbEntity
  8
92000_TITLE
100
AcDbLine
 10
1002.226496021495
 20
-663.3923204558783
 30
0.0
 11
867.2264960214956
 21
-663.3923204558783
 31
0.0
1001
GENIUS_GENREC_14
1002
{
1000
PYDIR
1011
867.2264960214956
1021
-651.3923204558783
1031
0.0
1002
}
1002
{
1000
PXDIR
1011
1002.226496021495
1021
-669.3923204558783
1031
0.0
1002
}
1002
{
1000
PORI
1011
867.2264960214956
1021
-669.3923204558783
1031
0.0
1002
}
1002
{
1000
PINS
1011
867.2264960214956
1021
-669.3923204558783
1031
0.0
1002
}
1002
{
1000
HVAL
1000
18
1002
}
1002
{
1000
H
1070
     2
1002
}
1002
{
1000
WVAL
1000
135
1002
}
1002
{
1000
W
1070
     2
1002
}
1002
{
1000
C
1070
     1
1002
}
1001
GENIUS_GENOBJ-N-REC_13
1002
{
1000
OWNER
1000
GEN
1002
}
1001
GENIUS_GENODEF_13
1002
{
1000
HIER
1070
     0
1002
}
1002
{
1000
MANEDIT
1070
     0
1002
}
1002
{
1000
NOSEL
1070
     0
1002
}
1002
{
1000
BEHIND
1070
     0
1002
}
1002
{
1000
OTHER
1070
     0
1002
}
1002
{
1000
REACTOR
1002
}
  0
TEXT
  5
2461
330
1F
100
AcDbEntity
  8
91000_TIP
  6
Continuous
 62
     7
100
AcDbText
 10
867.2358774803038
 20
-646.3207342306987
 30
0.0
 40
2.2
  1
Alle Bemassungswerte sind in Millimeter (mm) angegeben.
 41
1.185809661887181
 72
     5
 11
955.5692108136039
 21
-646.3207342306987
 31
0.0
100
AcDbText
  0
TEXT
  5
2462
330
1F
100
AcDbEntity
  8
91000_TIP
  6
Continuous
 62
     7
100
AcDbText
 10
867.2358774803038
 20
-649.4497566345445
 30
0.0
 40
2.2
  1
All dimensions are in millimeters (mm)
 41
1.379486553319133
 72
     5
 11
934.1763368790719
 21
-649.4497566345445
 31
0.0
100
AcDbText
  0
LINE
  5
2463
330
1F
100
AcDbEntity
  8
91100_TIP_SYM
 48
0.5
100
AcDbLine
 10
832.7264960214957
 20
-660.3923204558783
 30
0.0
 11
861.7264960214956
 21
-660.3923204558783
 31
0.0
  0
LINE
  5
2464
330
1F
100
AcDbEntity
  8
91200_TIP_SYMB
100
AcDbLine
 10
847.2264960214957
 20
-665.3923204558783
 30
0.0
 11
834.7264960214957
 21
-663.8923204558783
 31
0.0
  0
LINE
  5
2465
330
1F
100
AcDbEntity
  8
91200_TIP_SYMB
100
AcDbLine
 10
834.7264960214957
 20
-656.8923204558783
 30
0.0
 11
847.2264960214957
 21
-655.3923204558783
 31
0.0
  0
LINE
  5
2466
330
1F
100
AcDbEntity
  8
91200_TIP_SYMB
100
AcDbLine
 10
834.7264960214957
 20
-663.8923204558783
 30
0.0
 11
834.7264960214957
 21
-656.8923204558783
 31
0.0
  0
CIRCLE
  5
2467
330
1F
100
AcDbEntity
  8
91200_TIP_SYMB
100
AcDbCircle
 10
854.7264960214956
 20
-660.3923204558783
 30
0.0
 40
5.0
  0
LINE
  5
2468
330
1F
100
AcDbEntity
  8
91200_TIP_SYMB
100
AcDbLine
 10
847.2264960214957
 20
-655.3923204558783
 30
0.0
 11
847.2264960214957
 21
-665.3923204558783
 31
0.0
  0
CIRCLE
  5
2469
330
1F
100
AcDbEntity
  8
91200_TIP_SYMB
100
AcDbCircle
 10
854.7264960214956
 20
-660.3923204558783
 30
0.0
 40
2.0
  0
LINE
  5
246A
330
1F
100
AcDbEntity
  8
91100_TIP_SYM
 48
0.5
100
AcDbLine
 10
854.7264960214956
 20
-653.3923204558783
 30
0.0
 11
854.7264960214956
 21
-667.3923204558783
 31
0.0
  0
ATTDEF
  5
246B
330
1F
100
AcDbEntity
  8
92000_TITLE
100
AcDbText
 10
879.9764960214961
 20
-667.6423204558783
 30
0.0
 40
2.5
  1

 72
     1
 11
885.2264960214961
 21
-666.3923204558783
 31
0.0
100
AcDbAttributeDefinition
  3
Datum
  2
DATUM
 70
     0
 74
     2
  0
MTEXT
  5
246C
330
1F
100
AcDbEntity
  8
92000_TITLE
100
AcDbMText
 10
874.4764960214956
 20
-666.3923204558783
 30
0.0
 40
2.5
 41
11.0
 71
     5
 72
     5
  1
Date:
 73
     1
 44
1.0
1001
ACAD
1000
MTEXTBEGIN
1070
    73
1070
     1
1070
    44
1040
1.0
1070
    74
1070
     0
1000
MTEXTEND
  0
LINE
  5
246D
330
1F
100
AcDbEntity
  8
92000_TITLE
100
AcDbLine
 10
867.2264960214956
 20
-651.3923204558783
 30
0.0
 11
867.2264960214956
 21
-669.3923204558783
 31
0.0
1001
GENIUS_GENREC_14
1002
{
1000
PYDIR
1011
867.2264960214956
1021
-651.3923204558783
1031
0.0
1002
}
1002
{
1000
PXDIR
1011
1002.226496021495
1021
-669.3923204558783
1031
0.0
1002
}
1002
{
1000
PORI
1011
867.2264960214956
1021
-669.3923204558783
1031
0.0
1002
}
1002
{
1000
PINS
1011
867.2264960214956
1021
-669.3923204558783
1031
0.0
1002
}
1002
{
1000
HVAL
1000
18
1002
}
1002
{
1000
H
1070
     2
1002
}
1002
{
1000
WVAL
1000
135
1002
}
1002
{
1000
W
1070
     2
1002
}
1002
{
1000
C
1070
     1
1002
}
1001
GENIUS_GENOBJ-N-REC_13
1002
{
1000
OWNER
1000
GEN
1002
}
1001
GENIUS_GENODEF_13
1002
{
1000
HIER
1070
     0
1002
}
1002
{
1000
MANEDIT
1070
     0
1002
}
1002
{
1000
NOSEL
1070
     0
1002
}
1002
{
1000
BEHIND
1070
     0
1002
}
1002
{
1000
OTHER
1070
     0
1002
}
1002
{
1000
REACTOR
1002
}
  0
MTEXT
  5
246E
330
1F
100
AcDbEntity
  8
92000_TITLE
100
AcDbMText
 10
899.4764960214956
 20
-666.3923204558783
 30
0.0
 40
2.5
 41
11.0
 71
     5
 72
     5
  1
Name:
 73
     1
 44
1.0
1001
ACAD
1000
MTEXTBEGIN
1070
    73
1070
     1
1070
    44
1040
1.0
1070
    74
1070
     0
1000
MTEXTEND
  0
LINE
  5
246F
330
1F
100
AcDbEntity
  8
92000_TITLE
100
AcDbLine
 10
892.2264960214956
 20
-663.3923204558783
 30
0.0
 11
892.2264960214956
 21
-669.3923204558783
 31
0.0
1001
GENIUS_GENREC_14
1002
{
1000
PYDIR
1011
867.2264960214956
1021
-651.3923204558783
1031
0.0
1002
}
1002
{
1000
PXDIR
1011
1002.226496021495
1021
-669.3923204558783
1031
0.0
1002
}
1002
{
1000
PORI
1011
867.2264960214956
1021
-669.3923204558783
1031
0.0
1002
}
1002
{
1000
PINS
1011
867.2264960214956
1021
-669.3923204558783
1031
0.0
1002
}
1002
{
1000
HVAL
1000
18
1002
}
1002
{
1000
H
1070
     2
1002
}
1002
{
1000
WVAL
1000
135
1002
}
1002
{
1000
W
1070
     2
1002
}
1002
{
1000
C
1070
     1
1002
}
1001
GENIUS_GENOBJ-N-REC_13
1002
{
1000
OWNER
1000
GEN
1002
}
1001
GENIUS_GENODEF_13
1002
{
1000
HIER
1070
     0
1002
}
1002
{
1000
MANEDIT
1070
     0
1002
}
1002
{
1000
NOSEL
1070
     0
1002
}
1002
{
1000
BEHIND
1070
     0
1002
}
1002
{
1000
OTHER
1070
     0
1002
}
1002
{
1000
REACTOR
1002
}
  0
MTEXT
  5
2470
330
1F
100
AcDbEntity
  8
92000_TITLE
100
AcDbMText
 10
980.9764960214957
 20
-666.3923204558783
 30
0.0
 40
2.5
 41
42.5
 71
     5
 72
     5
  1
Massstab/Scale: 1:1
 73
     1
 44
1.0
1001
ACAD
1000
MTEXTBEGIN
1070
    73
1070
     1
1070
    44
1040
1.0
1070
    74
1070
     0
1000
MTEXTEND
  0
MTEXT
  5
2471
330
1F
100
AcDbEntity
  8
92000_TITLE
100
AcDbMText
 10
938.4764960214956
 20
-666.3923204558783
 30
0.0
 40
2.5
 41
42.5
 71
     5
 72
     5
  1
Format/Size: DIN A4
 73
     1
 44
1.0
1001
ACAD
1000
MTEXTBEGIN
1070
    73
1070
     1
1070
    44
1040
1.0
1070
    74
1070
     0
1000
MTEXTEND
  0
ATTDEF
  5
2472
330
1F
100
AcDbEntity
  8
92000_TITLE
100
AcDbText
 10
926.8142658647661
 20
-657.1423204558782
 30
0.0
 40
3.5
  1

 72
     1
 11
959.726496021496
 21
-655.3923204558782
 31
0.0
100
AcDbAttributeDefinition
  3
Z-Name
  2
8WD4308_00002399_000_ALL
 70
     0
 74
     2
  0
LINE
  5
2473
330
1F
100
AcDbEntity
  8
92000_TITLE
100
AcDbLine
 10
917.2264960214956
 20
-651.3923204558783
 30
0.0
 11
917.2264960214956
 21
-669.3923204558783
 31
0.0
1001
GENIUS_GENREC_14
1002
{
1000
PYDIR
1011
867.2264960214956
1021
-651.3923204558783
1031
0.0
1002
}
1002
{
1000
PXDIR
1011
1002.226496021495
1021
-669.3923204558783
1031
0.0
1002
}
1002
{
1000
PORI
1011
867.2264960214956
1021
-669.3923204558783
1031
0.0
1002
}
1002
{
1000
PINS
1011
867.2264960214956
1021
-669.3923204558783
1031
0.0
1002
}
1002
{
1000
HVAL
1000
18
1002
}
1002
{
1000
H
1070
     2
1002
}
1002
{
1000
WVAL
1000
135
1002
}
1002
{
1000
W
1070
     2
1002
}
1002
{
1000
C
1070
     1
1002
}
1001
GENIUS_GENOBJ-N-REC_13
1002
{
1000
OWNER
1000
GEN
1002
}
1001
GENIUS_GENODEF_13
1002
{
1000
HIER
1070
     0
1002
}
1002
{
1000
MANEDIT
1070
     0
1002
}
1002
{
1000
NOSEL
1070
     0
1002
}
1002
{
1000
BEHIND
1070
     0
1002
}
1002
{
1000
OTHER
1070
     0
1002
}
1002
{
1000
REACTOR
1002
}
  0
ATTDEF
  5
2474
330
1F
100
AcDbEntity
  8
92000_TITLE
100
AcDbText
 10
906.1014960214961
 20
-667.6423204558783
 30
0.0
 40
2.5
  1

 72
     1
 11
910.2264960214961
 21
-666.3923204558783
 31
0.0
100
AcDbAttributeDefinition
  3
Name
  2
NAME
 70
     0
 74
     2
  0
ATTDEF
  5
2475
330
1F
100
AcDbEntity
  8
92000_TITLE
100
AcDbText
 10
947.226496021496
 20
-662.6423204558782
 30
0.0
 40
2.5
  1

 72
     1
 11
959.726496021496
 21
-661.3923204558782
 31
0.0
100
AcDbAttributeDefinition
  3
A-Name
  2
FUß_FÜR_ROHR
 70
     0
 74
     2
  0
LINE
  5
2476
330
1F
100
AcDbEntity
  8
92000_TITLE
100
AcDbLine
 10
959.7264960214957
 20
-669.3923204558783
 30
0.0
 11
959.7264960214957
 21
-663.3923204558783
 31
0.0
1001
GENIUS_GENREC_14
1002
{
1000
PYDIR
1011
867.2264960214956
1021
-651.3923204558783
1031
0.0
1002
}
1002
{
1000
PXDIR
1011
1002.226496021495
1021
-669.3923204558783
1031
0.0
1002
}
1002
{
1000
PORI
1011
867.2264960214956
1021
-669.3923204558783
1031
0.0
1002
}
1002
{
1000
PINS
1011
867.2264960214956
1021
-669.3923204558783
1031
0.0
1002
}
1002
{
1000
HVAL
1000
18
1002
}
1002
{
1000
H
1070
     2
1002
}
1002
{
1000
WVAL
1000
135
1002
}
1002
{
1000
W
1070
     2
1002
}
1002
{
1000
C
1070
     1
1002
}
1001
GENIUS_GENOBJ-N-REC_13
1002
{
1000
OWNER
1000
GEN
1002
}
1001
GENIUS_GENODEF_13
1002
{
1000
HIER
1070
     0
1002
}
1002
{
1000
MANEDIT
1070
     0
1002
}
1002
{
1000
NOSEL
1070
     0
1002
}
1002
{
1000
BEHIND
1070
     0
1002
}
1002
{
1000
OTHER
1070
     0
1002
}
1002
{
1000
REACTOR
1002
}
  0
LINE
  5
2477
330
1F
100
AcDbEntity
  8
92000_TITLE
100
AcDbLine
 10
1002.226496021495
 20
-669.3923204558783
 30
0.0
 11
1002.226496021495
 21
-651.3923204558783
 31
0.0
1001
GENIUS_GENREC_14
1002
{
1000
PYDIR
1011
867.2264960214956
1021
-651.3923204558783
1031
0.0
1002
}
1002
{
1000
PXDIR
1011
1002.226496021495
1021
-669.3923204558783
1031
0.0
1002
}
1002
{
1000
PORI
1011
867.2264960214956
1021
-669.3923204558783
1031
0.0
1002
}
1002
{
1000
PINS
1011
867.2264960214956
1021
-669.3923204558783
1031
0.0
1002
}
1002
{
1000
HVAL
1000
18
1002
}
1002
{
1000
H
1070
     2
1002
}
1002
{
1000
WVAL
1000
135
1002
}
1002
{
1000
W
1070
     2
1002
}
1002
{
1000
C
1070
     1
1002
}
1001
GENIUS_GENOBJ-N-REC_13
1002
{
1000
OWNER
1000
GEN
1002
}
1001
GENIUS_GENODEF_13
1002
{
1000
HIER
1070
     0
1002
}
1002
{
1000
MANEDIT
1070
     0
1002
}
1002
{
1000
NOSEL
1070
     0
1002
}
1002
{
1000
BEHIND
1070
     0
1002
}
1002
{
1000
OTHER
1070
     0
1002
}
1002
{
1000
REACTOR
1002
}
  0
ENDSEC
  0
SECTION
  2
OBJECTS
  0
DICTIONARY
  5
C
330
0
100
AcDbDictionary
281
     1
  3
ACAD_COLOR
350
12EC
  3
ACAD_GROUP
350
D
  3
ACAD_LAYOUT
350
1A
  3
ACAD_MATERIAL
350
12D7
  3
ACAD_MLINESTYLE
350
17
  3
ACAD_PLOTSETTINGS
350
19
  3
ACAD_PLOTSTYLENAME
350
E
  3
ACAD_TABLESTYLE
350
12ED
  3
ACAD_VISUALSTYLE
350
12DB
  3
AcAmCatalogState
350
121
  3
AcAsAppObject
350
71
  3
ACASGREF_MASTER
350
B9
  3
AcDbVariableDictionary
350
1ED
  3
ACDMSYSVARMGR
350
43
  3
ACGREF_MASTER
350
3B
  3
ACGREFACAD_MASTER
350
66
  3
AcmDictionary
350
E9
  3
ACME_BOM_MANAGER_NAME
350
34
  3
ACME_COMMAND_HISTORY
350
2F
  3
ACME_SCOPE_NAME
350
2E
  3
ACMESTATEMGR
350
39
  3
AcmeSysVarManager
350
30
  3
AcmSystemVariableManager
350
EC
  3
AD_APPL
350
D1
  3
AD_GREF_MODULE
350
BA
  3
AD_MAPI_MODULE
350
D3
  3
ADSYSVARMGR
350
C3
  3
AmdtNamedDwgMgr
350
61
  3
AMG
350
6A
  3
AMGSNAPSETTINGS
350
133
  3
AMI_MASTER
350
69
  3
ASURF_STATIC_VARS
350
72
  3
AUTOCAD_ASSEMBLIES_PROJECT
350
DE
  3
AutoSurf_SysVars
350
73
  3
Designer_Assemblies_SysVars
350
D5
  3
DWGPROPS
350
2546
  3
GREFAM_MODULE
350
BC
  3
MAPISURF_MODULE
350
BB
  0
DICTIONARY
  5
1E2
330
1F
100
AcDbDictionary
280
     1
281
     1
  3
ACAD_INDEX
360
249E
  3
ACAD_SORTENTS
360
1755
  0
DICTIONARY
  5
19EE
330
19E0
100
AcDbDictionary
280
     1
281
     1
  3
ACAD_DIMASSOC
360
19F9
  0
DICTIONARY
  5
12EC
102
{ACAD_REACTORS
330
C
102
}
330
C
100
AcDbDictionary
281
     1
  0
DICTIONARY
  5
D
102
{ACAD_REACTORS
330
C
102
}
330
C
100
AcDbDictionary
281
     1
  0
DICTIONARY
  5
1A
102
{ACAD_REACTORS
330
C
102
}
330
C
100
AcDbDictionary
281
     1
  3
Layout1
350
1E
  3
Layout2
350
26
  3
Model
350
22
  0
DICTIONARY
  5
12D7
102
{ACAD_REACTORS
330
C
102
}
330
C
100
AcDbDictionary
281
     1
  3
ByBlock
350
12D9
  3
ByLayer
350
12D8
  3
Global
350
12DA
  0
DICTIONARY
  5
17
102
{ACAD_REACTORS
330
C
102
}
330
C
100
AcDbDictionary
281
     1
  3
Standard
350
18
  0
DICTIONARY
  5
19
102
{ACAD_REACTORS
330
C
102
}
330
C
100
AcDbDictionary
281
     1
  0
ACDBDICTIONARYWDFLT
  5
E
102
{ACAD_REACTORS
330
C
102
}
330
C
100
AcDbDictionary
281
     1
  3
Normal
350
F
100
AcDbDictionaryWithDefault
340
F
  0
DICTIONARY
  5
12ED
102
{ACAD_REACTORS
330
C
102
}
330
C
100
AcDbDictionary
281
     1
  3
Standard
350
12EE
  0
DICTIONARY
  5
12DB
102
{ACAD_REACTORS
330
C
102
}
330
C
100
AcDbDictionary
281
     1
  3
2dWireframe
350
12E1
  3
3D Hidden
350
12E3
  3
3dWireframe
350
12E2
  3
Basic
350
12E0
  3
Brighten
350
12E7
  3
ColorChange
350
12EB
  3
Conceptual
350
12E4
  3
Dim
350
12E6
  3
Facepattern
350
12EA
  3
Flat
350
12DC
  3
FlatWithEdges
350
12DD
  3
Gouraud
350
12DE
  3
GouraudWithEdges
350
12DF
  3
Linepattern
350
12E9
  3
Realistic
350
12E5
  3
Thicken
350
12E8
  0
ACAD_PROXY_OBJECT
  5
121
102
{ACAD_REACTORS
330
C
102
}
330
C
100
AcDbProxyObject
 90
      499
 91
      574
 95
       23
 70
     0
 93
      240
310
3FFFFFFFE00A028140288A19D2E283937B3B930B6B6B2AE26A22A1B400AAB0
 94
        0
1001
ACAD
1000
AcRTDxfName
1000
CATALOGSTATE
  0
ACAD_PROXY_OBJECT
  5
71
102
{ACAD_REACTORS
330
C
102
}
330
C
100
AcDbProxyObject
 90
      499
 91
      528
 95
       23
 70
     0
 93
       10
310
407F
 94
        0
1001
ACAD
1000
AcRTDxfName
1000
ASAPP
  0
ACAD_PROXY_OBJECT
  5
B9
102
{ACAD_REACTORS
330
C
102
}
330
C
100
AcDbProxyObject
 90
      499
 91
      534
 95
       23
 70
     0
 93
       34
310
010000407F
 94
        0
1001
ACAD
1000
AcRTDxfName
1000
ACASGREFMASTER
  0
DICTIONARY
  5
1ED
102
{ACAD_REACTORS
330
C
102
}
330
C
100
AcDbDictionary
281
     1
  3
CTABLESTYLE
350
1821
  3
DIMASSOC
350
1F0
  3
HIDETEXT
350
1EF
  3
INDEXCTL
350
1EE
  3
SORTENTS
350
251B
  0
ACAD_PROXY_OBJECT
  5
43
102
{ACAD_REACTORS
330
C
102
}
330
C
100
AcDbProxyObject
 90
      499
 91
      506
 95
       23
 70
     0
 93
      240
310
4C51A47A000000000000000000000000000000000000000000000000000001
330
44
330
45
330
46
330
47
330
48
330
49
330
4A
330
4E
330
4F
330
50
330
51
330
52
330
53
330
54
330
55
330
56
330
57
330
58
330
59
330
5A
330
5B
330
5C
330
5D
330
5E
330
5F
330
60
 94
        0
1001
ACAD
1000
AcRTDxfName
1000
ACIMSYSVARMAN
  0
ACAD_PROXY_OBJECT
  5
3B
102
{ACAD_REACTORS
330
C
102
}
330
C
100
AcDbProxyObject
 90
      499
 91
      515
 95
       23
 70
     0
 93
       34
310
04000042BF
 94
        0
1001
ACAD
1000
AcRTDxfName
1000
ACGREFMASTER
  0
ACAD_PROXY_OBJECT
  5
66
102
{ACAD_REACTORS
330
C
102
}
330
C
100
AcDbProxyObject
 90
      499
 91
      523
 95
       23
 70
     0
 93
      114
310
04000041C00000000000000000003F
 94
        0
1001
ACAD
1000
AcRTDxfName
1000
ACGREFACADMASTER
  0
DICTIONARY
  5
E9
102
{ACAD_REACTORS
330
C
102
}
330
C
100
AcDbDictionary
281
     1
  3
AcmBOMDATA
350
EA
  3
AcmStdDictionary
350
EE
  0
ACAD_PROXY_OBJECT
  5
34
102
{ACAD_REACTORS
330
C
102
}
330
C
100
AcDbProxyObject
 90
      499
 91
      509
 95
       23
 70
     0
 93
       50
310
0001004040003F
330
0
330
0
330
35
 94
        0
1001
ACAD
1000
AcRTDxfName
1000
ACMEDRAWINGMAN
  0
ACAD_PROXY_OBJECT
  5
2F
102
{ACAD_REACTORS
330
C
102
}
330
C
100
AcDbProxyObject
 90
      499
 91
      505
 95
       23
 70
     0
 93
     3078
310
4780505455241534580505455241534580505455241534580504434F505940405184D5347202D20436F6D6D616E642043414E43454C4C45442E014194D055915054E014115539113E014115539113E014115539113E0141935511511255201405560140556014115539113E014115539113E014115539113E0141935511511
310
2552014115539113E014115539113E014115539113E014191111151125510101461354D1C80B4810DBDB5B585B990810D05390D1531311510B8050A50524F5045525449455380505424C4F434B40405094E202D2045524153450141509313D0D2D01014253880B4811549054D140505424C4F434B40405184D5347202D2043
310
6F6D6D616E642043414E43454C4C45442E0141509313D0D2D01014253880B4811549054D140505424C4F434B40405094E202D2045524153450141509313D0D2D01014253880B4811549054D140505424C4F434B40405094E202D2045524153450141509313D0D2D01014253880B4811549054D1405045A4F4F4D8050653415
310
6454153B
 94
        0
1001
ACAD
1000
AcRTDxfName
1000
ACMECOMMANDHISTORY
  0
ACAD_PROXY_OBJECT
  5
2E
102
{ACAD_REACTORS
330
C
102
}
330
C
100
AcDbProxyObject
 90
      499
 91
      504
 95
       23
 70
     0
 93
     1250
310
060000444000000000000000000018762E0000000000000000000000000000000000000000000000000000000000000000000000000000000000000000000000000000000000000000000000000000000000000000000000000000000000000000000000000000000000000000000000000000000000000000000000000000
310
00000000000000000000000000000000000000000000000000AAA406AABF
360
31
360
32
360
33
360
35
360
3C
360
3D
360
3E
360
3F
360
40
360
41
360
44
360
45
360
46
360
47
360
48
360
49
360
4A
360
4E
360
4F
360
50
360
51
360
52
360
53
360
54
360
55
360
56
360
57
360
58
360
59
360
5A
360
5B
360
5C
360
5D
360
5E
360
5F
360
60
360
74
360
75
360
76
360
77
360
78
360
79
360
7A
360
7B
360
7C
360
7D
360
7E
360
7F
360
80
360
81
360
82
360
83
360
84
360
85
360
86
360
87
360
88
360
89
360
8A
360
8B
360
8C
360
8D
360
8E
360
8F
360
90
360
91
360
92
360
93
360
94
360
95
360
96
360
97
360
98
360
99
360
9A
360
9B
360
9C
360
9D
360
9E
360
9F
360
A0
360
A1
360
A2
360
A3
360
A4
360
A5
360
A6
360
A7
360
A8
360
A9
360
AA
360
AB
360
AC
360
AD
360
AE
360
AF
360
B0
360
B1
360
B2
360
B3
360
B4
360
B5
360
BF
360
C0
360
C1
360
C2
360
C4
360
C5
360
C6
360
C7
360
C8
360
C9
360
CA
360
CB
360
CC
360
CD
360
CE
360
CF
360
D0
360
D6
360
D7
360
D8
360
D9
360
DA
360
DB
360
DC
360
DD
360
E2
360
E3
360
E4
360
E5
360
E6
360
E7
360
ED
360
D83
 94
        0
1001
ACAD
1000
AcRTDxfName
1000
ACMESCOPE
  0
ACAD_PROXY_OBJECT
  5
39
102
{ACAD_REACTORS
330
C
102
}
330
C
100
AcDbProxyObject
 90
      499
 91
      514
 95
       23
 70
     0
 93
       50
310
060000416412BF
 94
        0
1001
ACAD
1000
AcRTDxfName
1000
ACMESTATEMGR
  0
ACAD_PROXY_OBJECT
  5
30
102
{ACAD_REACTORS
330
C
102
}
330
C
100
AcDbProxyObject
 90
      499
 91
      506
 95
       23
 70
     0
 93
       48
310
903412000000CC
330
31
330
32
330
33
 94
        0
1001
ACAD
1000
AcRTDxfName
1000
ACIMSYSVARMAN
  0
ACAD_PROXY_OBJECT
  5
EC
102
{ACAD_REACTORS
330
C
102
}
330
C
100
AcDbProxyObject
 90
      499
 91
      506
 95
       23
 70
     0
 93
       32
310
90140A007E
330
ED
 94
        0
1001
ACAD
1000
AcRTDxfName
1000
ACIMSYSVARMAN
  0
ACAD_PROXY_OBJECT
  5
D1
102
{ACAD_REACTORS
330
C
102
}
330
C
100
AcDbProxyObject
 90
      499
 91
      543
 95
       23
 70
     0
 93
       42
310
0006000043FF
330
BF
 94
        0
1001
ACAD
1000
AcRTDxfName
1000
NAMEDAPPL
  0
ACAD_PROXY_OBJECT
  5
BA
102
{ACAD_REACTORS
330
C
102
}
330
C
100
AcDbProxyObject
 90
      499
 91
      535
 95
       23
 70
     0
 93
      114
310
00000043800000000000000000003F
 94
        0
1001
ACAD
1000
AcRTDxfName
1000
ACADGREFMODULE
  0
ACAD_PROXY_OBJECT
  5
D3
102
{ACAD_REACTORS
330
C
102
}
330
C
100
AcDbProxyObject
 90
      499
 91
      545
 95
       23
 70
     0
 93
       34
310
05000044FF
 94
        0
1001
ACAD
1000
AcRTDxfName
1000
MAPIADMODULE
  0
ACAD_PROXY_OBJECT
  5
C3
102
{ACAD_REACTORS
330
C
102
}
330
C
100
AcDbProxyObject
 90
      499
 91
      506
 95
       23
 70
     0
 93
      128
310
90D4460000000000000000000000000000
330
C4
330
C5
330
C6
330
C7
330
C8
330
C9
330
CA
330
CB
330
CC
330
CD
330
CE
330
CF
330
D0
 94
        0
1001
ACAD
1000
AcRTDxfName
1000
ACIMSYSVARMAN
  0
ACAD_PROXY_OBJECT
  5
61
102
{ACAD_REACTORS
330
C
102
}
330
C
100
AcDbProxyObject
 90
      499
 91
      520
 95
       23
 70
     0
 93
       42
310
000100005AFF
330
3C
 94
        0
1001
ACAD
1000
AcRTDxfName
1000
AM_DWGMGR_NAME
  0
DICTIONARY
  5
6A
102
{ACAD_REACTORS
330
C
102
}
330
C
100
AcDbDictionary
281
     1
  3
AcMgSettings
350
6B
  3
AMGLAYCFG
350
F0
  0
DICTIONARY
  5
133
102
{ACAD_REACTORS
330
C
102
}
330
C
100
AcDbDictionary
281
     1
  3
HATCH (1)
350
134
  3
HATCH (2)
350
135
  0
ACAD_PROXY_OBJECT
  5
69
102
{ACAD_REACTORS
330
C
102
}
330
C
100
AcDbProxyObject
 90
      499
 91
      526
 95
       23
 70
     0
 93
       34
310
05000042BF
 94
        0
1001
ACAD
1000
AcRTDxfName
1000
AMIMASTER
  0
ACAD_PROXY_OBJECT
  5
72
102
{ACAD_REACTORS
330
C
102
}
330
C
100
AcDbProxyObject
 90
      499
 91
      529
 95
       23
 70
     0
 93
      424
310
585314D60000000000000000000000000000000000000000000000000000000000000000000000000000000000000000000000000000
330
85
330
86
330
87
330
88
330
89
330
8A
330
8B
330
8C
330
8D
330
8E
330
8F
330
90
330
91
330
92
330
93
330
94
330
95
330
96
330
97
330
98
330
99
330
9A
330
9B
330
9C
330
9D
330
9E
330
9F
330
A0
330
A1
330
A2
330
A3
330
A4
330
A5
330
A6
330
A7
330
A8
330
A9
330
AA
330
AB
330
AC
330
AD
330
AE
330
AF
330
B0
330
B1
330
B2
330
B3
330
B4
330
B5
 94
        0
1001
ACAD
1000
AcRTDxfName
1000
IM_STATIC_MAN
  0
ACAD_PROXY_OBJECT
  5
DE
102
{ACAD_REACTORS
330
C
102
}
330
C
100
AcDbProxyObject
 90
      499
 91
      547
 95
       23
 70
     0
 93
       74
310
0600004A40000000003F
330
E5
330
0
330
E6
330
0
330
0
 94
        0
1001
ACAD
1000
AcRTDxfName
1000
ACAMPROJECT
  0
ACAD_PROXY_OBJECT
  5
73
102
{ACAD_REACTORS
330
C
102
}
330
C
100
AcDbProxyObject
 90
      499
 91
      506
 95
       23
 70
     0
 93
      168
310
4C511456000000000000000000000000000000000000
330
74
330
75
330
76
330
77
330
78
330
79
330
7A
330
7B
330
7C
330
7D
330
7E
330
7F
330
80
330
81
330
82
330
83
330
84
 94
        0
1001
ACAD
1000
AcRTDxfName
1000
ACIMSYSVARMAN
  0
ACAD_PROXY_OBJECT
  5
D5
102
{ACAD_REACTORS
330
C
102
}
330
C
100
AcDbProxyObject
 90
      499
 91
      506
 95
       23
 70
     0
 93
       88
310
908432000000000000000000
330
D6
330
D7
330
D8
330
D9
330
DA
330
DB
330
DC
330
DD
 94
        0
1001
ACAD
1000
AcRTDxfName
1000
ACIMSYSVARMAN
  0
XRECORD
  5
2546
102
{ACAD_REACTORS
330
C
102
}
330
C
100
AcDbXrecord
280
     1
  1
DWGPROPS COOKIE
  2

  3

  4

  6

  7

  8
adfize1
  9

300
AmdtFileType=84
301
=
302
=
303
=
304
=
305
=
306
=
307
=
308
=
309
=
 40
0.6812532986111111
 41
2454179.414103252
 42
2454236.46246441
  1

 90
        1
  0
ACAD_PROXY_OBJECT
  5
BC
102
{ACAD_REACTORS
330
C
102
}
330
C
100
AcDbProxyObject
 90
      499
 91
      537
 95
       23
 70
     0
 93
        8
310
057E
 94
        0
1001
ACAD
1000
AcRTDxfName
1000
MAPIAMMOUDLE
  0
ACAD_PROXY_OBJECT
  5
BB
102
{ACAD_REACTORS
330
C
102
}
330
C
100
AcDbProxyObject
 90
      499
 91
      536
 95
       23
 70
     0
 93
        8
310
047E
 94
        0
1001
ACAD
1000
AcRTDxfName
1000
AMDTMAPISURFMOUDULE
  0
DICTIONARY
  5
249E
102
{ACAD_REACTORS
330
1E2
102
}
330
1E2
100
AcDbDictionary
281
     1
  3
*A1
350
249F
  0
SORTENTSTABLE
  5
1755
102
{ACAD_REACTORS
330
1E2
102
}
330
1E2
100
AcDbSortentsTable
330
1F
331
15C0
  5
199F
331
15E5
  5
246E
331
15CB
  5
23BB
331
2469
  5
15B1
331
15B6
  5
1753
331
23BE
  5
2477
331
2465
  5
159F
331
1594
  5
15DD
331
199F
  5
2472
331
2474
  5
15BE
331
15C9
  5
23B9
331
15B4
  5
1751
331
2463
  5
1595
331
15DF
  5
2468
331
159D
  5
174A
331
2472
  5
15BC
331
15E3
  5
246C
331
15E1
  5
246A
331
2470
  5
15BA
331
15B2
  5
174F
331
15C7
  5
19E0
331
2461
  5
1593
331
1590
  5
15DA
331
15DD
  5
2466
331
159B
  5
15E7
331
246E
  5
15B8
331
245F
  5
1590
331
15BB
  5
1759
331
15DB
  5
2464
331
2C4
  5
2C4
331
15AE
  5
174D
331
15CE
  5
245E
331
158C
  5
15D7
331
246C
  5
15B6
331
15B9
  5
1757
331
245D
  5
158C
331
15D9
  5
2462
331
2477
  5
15C5
331
246A
  5
15B2
331
15E6
  5
246F
331
2475
  5
15BF
331
1595
  5
15DE
331
15B7
  5
1754
331
15CC
  5
23BE
331
2466
  5
15A0
331
15D7
  5
2460
331
2468
  5
15A2
331
15E4
  5
246D
331
2473
  5
15BD
331
399
  5
399
331
15B5
  5
1752
331
15CA
  5
23BA
331
2464
  5
159C
331
1593
  5
15DC
331
199E
  5
2471
331
159E
  5
174B
331
2471
  5
15BB
331
15E2
  5
246B
331
15B3
  5
1750
331
19E0
  5
2473
331
23BB
  5
2476
331
2462
  5
1594
331
1591
  5
15DB
331
15DE
  5
2467
331
159C
  5
1749
331
15B1
  5
174E
331
2460
  5
1591
331
15BC
  5
199E
331
246F
  5
15B9
331
15E0
  5
2469
331
15DC
  5
2465
331
23B9
  5
2474
331
158D
  5
15D9
331
246D
  5
15B7
331
15BA
  5
1758
331
1598
  5
15DF
331
245E
  5
158D
331
15CF
  5
245F
331
15DA
  5
2463
331
246B
  5
15B5
331
15E7
  5
2470
331
15AD
  5
174C
331
2476
  5
15C0
331
15B8
  5
1756
331
15CD
  5
245D
331
2467
  5
15A1
331
15D8
  5
2461
  0
DIMASSOC
  5
19F9
102
{ACAD_REACTORS
330
19EE
102
}
330
19EE
100
AcDbDimAssoc
330
19E0
 90
        3
 70
     0
 71
     0
  1
AcDbOsnapPointRef
 72
    13
331
199E
 73
     2
 91
        0
 40
0.0
 10
0.0
 20
0.0
 30
2.000000000000000E+50
 75
     0
  1
AcDbOsnapPointRef
 72
     1
331
199E
 73
     2
 91
        0
 40
1.0
 10
0.0
 20
0.0
 30
2.000000000000000E+50
 75
     0
  0
LAYOUT
  5
1E
102
{ACAD_XDICTIONARY
360
2547
102
}
102
{ACAD_REACTORS
330
1A
102
}
330
1A
100
AcDbPlotSettings
  1

  2
Canon MP780 Series Printer
  4

  6

 40
0.0
 41
0.0
 42
0.0
 43
0.0
 44
0.0
 45
0.0
 46
0.0
 47
0.0
 48
0.0
 49
0.0
140
0.0
141
0.0
142
1.0
143
1.0
 70
   688
 72
     0
 73
     0
 74
     5
  7

 75
    16
147
1.0
148
0.0
149
0.0
100
AcDbLayout
  1
Layout1
 70
     1
 71
     1
 10
0.0
 20
0.0
 11
420.0
 21
297.0
 12
0.0
 22
0.0
 32
0.0
 14
1.000000000000000E+20
 24
1.000000000000000E+20
 34
1.000000000000000E+20
 15
-1.000000000000000E+20
 25
-1.000000000000000E+20
 35
-1.000000000000000E+20
146
0.0
 13
0.0
 23
0.0
 33
0.0
 16
1.0
 26
0.0
 36
0.0
 17
0.0
 27
1.0
 37
0.0
 76
     0
330
1B
  0
LAYOUT
  5
26
102
{ACAD_XDICTIONARY
360
254B
102
}
102
{ACAD_REACTORS
330
1A
102
}
330
1A
100
AcDbPlotSettings
  1

  2
Canon MP780 Series Printer
  4

  6

 40
0.0
 41
0.0
 42
0.0
 43
0.0
 44
0.0
 45
0.0
 46
0.0
 47
0.0
 48
0.0
 49
0.0
140
0.0
141
0.0
142
1.0
143
1.0
 70
   688
 72
     0
 73
     0
 74
     5
  7

 75
    16
147
1.0
148
0.0
149
0.0
100
AcDbLayout
  1
Layout2
 70
     1
 71
     2
 10
0.0
 20
0.0
 11
12.0
 21
9.0
 12
0.0
 22
0.0
 32
0.0
 14
0.0
 24
0.0
 34
0.0
 15
0.0
 25
0.0
 35
0.0
146
0.0
 13
0.0
 23
0.0
 33
0.0
 16
1.0
 26
0.0
 36
0.0
 17
0.0
 27
1.0
 37
0.0
 76
     0
330
23
  0
LAYOUT
  5
22
102
{ACAD_XDICTIONARY
360
2549
102
}
102
{ACAD_REACTORS
330
1A
102
}
330
1A
100
AcDbPlotSettings
  1

  2
none_device
  4
ISO_A4_(210.00_x_297.00_MM)
  6

 40
7.5
 41
20.0
 42
7.5
 43
20.0
 44
210.0
 45
297.0
 46
0.0
 47
0.0
 48
0.0
 49
0.0
140
0.0
141
0.0
142
1.0
143
1.319217649100638
 70
 11952
 72
     1
 73
     1
 74
     0
  7

 75
     0
147
0.7580250314887303
148
-417.8528091404769
149
828.5508667312953
100
AcDbLayout
  1
Model
 70
     1
 71
     0
 10
0.0
 20
0.0
 11
12.0
 21
9.0
 12
0.0
 22
0.0
 32
0.0
 14
0.0
 24
0.0
 34
0.0
 15
0.0
 25
0.0
 35
0.0
146
0.0
 13
0.0
 23
0.0
 33
0.0
 16
1.0
 26
0.0
 36
0.0
 17
0.0
 27
1.0
 37
0.0
 76
     0
330
1F
331
12D5
1001
ACAD_PSEXT
1000
Kein
1000
Kein
1000
Nicht anwendbar
1000
Das Layout wird erst geplottet, wenn ein neuer Plotter-Konfigurationsname ausgewählt wird.
1070
     0
  0
MATERIAL
  5
12D9
102
{ACAD_XDICTIONARY
360
254F
102
}
102
{ACAD_REACTORS
330
12D7
102
}
330
12D7
100
AcDbMaterial
  1
ByBlock
  0
MATERIAL
  5
12D8
102
{ACAD_XDICTIONARY
360
254D
102
}
102
{ACAD_REACTORS
330
12D7
102
}
330
12D7
100
AcDbMaterial
  1
ByLayer
  0
MATERIAL
  5
12DA
102
{ACAD_XDICTIONARY
360
2551
102
}
102
{ACAD_REACTORS
330
12D7
102
}
330
12D7
100
AcDbMaterial
  1
Global
  0
MLINESTYLE
  5
18
102
{ACAD_REACTORS
330
17
102
}
330
17
100
AcDbMlineStyle
  2
STANDARD
 70
     0
  3

 62
   256
 51
90.0
 52
90.0
 71
     2
 49
0.5
 62
   256
  6
BYLAYER
 49
-0.5
 62
   256
  6
BYLAYER
  0
ACDBPLACEHOLDER
  5
F
102
{ACAD_REACTORS
330
E
102
}
330
E
  0
TABLESTYLE
  5
12EE
102
{ACAD_XDICTIONARY
360
2553
102
}
102
{ACAD_REACTORS
330
12ED
102
}
330
12ED
100
AcDbTableStyle
  3
Standard
 70
     0
 71
     0
 40
1.5
 41
1.5
280
     0
281
     0
  7
STANDARD
140
4.5
170
     2
 62
     0
 63
     7
283
     0
274
    -2
284
     1
 64
     0
275
    -2
285
     1
 65
     0
276
    -2
286
     1
 66
     0
277
    -2
287
     1
 67
     0
278
    -2
288
     1
 68
     0
279
    -2
289
     1
 69
     0
  7
STANDARD
140
6.0
170
     5
 62
     0
 63
     7
283
     0
274
    -2
284
     1
 64
     0
275
    -2
285
     1
 65
     0
276
    -2
286
     1
 66
     0
277
    -2
287
     1
 67
     0
278
    -2
288
     1
 68
     0
279
    -2
289
     1
 69
     0
  7
STANDARD
140
4.5
170
     5
 62
     0
 63
     7
283
     0
274
    -2
284
     1
 64
     0
275
    -2
285
     1
 65
     0
276
    -2
286
     1
 66
     0
277
    -2
287
     1
 67
     0
278
    -2
288
     1
 68
     0
279
    -2
289
     1
 69
     0
  0
VISUALSTYLE
  5
12E1
102
{ACAD_REACTORS
330
12DB
102
}
330
12DB
100
AcDbVisualStyle
  2
2dWireframe
 70
     4
 71
     0
 72
     2
 73
     0
 90
        0
 40
-0.6
 41
-30.0
 62
     5
 63
     7
 74
     1
 91
        4
 64
     7
 65
   257
 75
     1
175
     1
 42
1.0
 92
        0
 66
   257
 43
1.0
 76
     1
 77
     6
 78
     2
 67
     7
 79
     5
170
     0
171
     0
290
     0
174
     0
 93
        1
 44
0.0
173
     0
291
     0
 45
0.0
1001
ACAD
1000
AcDbSavedByObjectVersion
1070
     0
  0
VISUALSTYLE
  5
12E3
102
{ACAD_REACTORS
330
12DB
102
}
330
12DB
100
AcDbVisualStyle
  2
3D Hidden
 70
     6
 71
     1
 72
     2
 73
     2
 90
        0
 40
-0.6
 41
-30.0
 62
     5
 63
     7
 74
     2
 91
        2
 64
     7
 65
   257
 75
     2
175
     1
 42
40.0
 92
        0
 66
   257
 43
1.0
 76
     1
 77
     6
 78
     2
 67
     7
 79
     3
170
     0
171
     0
290
     0
174
     0
 93
        1
 44
0.0
173
     0
291
     0
 45
0.0
1001
ACAD
1000
AcDbSavedByObjectVersion
1070
     0
  0
VISUALSTYLE
  5
12E2
102
{ACAD_REACTORS
330
12DB
102
}
330
12DB
100
AcDbVisualStyle
  2
3dWireframe
 70
     5
 71
     0
 72
     2
 73
     0
 90
        0
 40
-0.6
 41
-30.0
 62
     5
 63
     7
 74
     1
 91
        4
 64
     7
 65
   257
 75
     1
175
     1
 42
1.0
 92
        0
 66
   257
 43
1.0
 76
     1
 77
     6
 78
     2
 67
     7
 79
     5
170
     0
171
     0
290
     0
174
     0
 93
        1
 44
0.0
173
     0
291
     0
 45
0.0
1001
ACAD
1000
AcDbSavedByObjectVersion
1070
     0
  0
VISUALSTYLE
  5
12E0
102
{ACAD_REACTORS
330
12DB
102
}
330
12DB
100
AcDbVisualStyle
  2
Basic
 70
     7
 71
     1
 72
     0
 73
     1
 90
        0
 40
-0.6
 41
-30.0
 62
     5
 63
     7
 74
     0
 91
        4
 64
     7
 65
   257
 75
     1
175
     1
 42
1.0
 92
        8
 66
     7
 43
1.0
 76
     1
 77
     6
 78
     2
 67
     7
 79
     5
170
     0
171
     0
290
     0
174
     0
 93
        1
 44
0.0
173
     0
291
     1
 45
0.0
1001
ACAD
1000
AcDbSavedByObjectVersion
1070
     0
  0
VISUALSTYLE
  5
12E7
102
{ACAD_REACTORS
330
12DB
102
}
330
12DB
100
AcDbVisualStyle
  2
Brighten
 70
    12
 71
     2
 72
     2
 73
     0
 90
        0
 40
-0.6
 41
-30.0
 62
     5
 63
     7
 74
     1
 91
        4
 64
     7
 65
   257
 75
     1
175
     1
 42
1.0
 92
        8
 66
     7
 43
1.0
 76
     1
 77
     6
 78
     2
 67
     7
 79
     5
170
     0
171
     0
290
     0
174
     0
 93
        1
 44
50.0
173
     0
291
     1
 45
0.0
1001
ACAD
1000
AcDbSavedByObjectVersion
1070
     0
  0
VISUALSTYLE
  5
12EB
102
{ACAD_REACTORS
330
12DB
102
}
330
12DB
100
AcDbVisualStyle
  2
ColorChange
 70
    16
 71
     2
 72
     2
 73
     3
 90
        0
 40
-0.6
 41
-30.0
 62
     5
 63
     8
 74
     1
 91
        4
 64
     7
 65
   257
 75
     1
175
     1
 42
1.0
 92
        8
 66
     8
 43
1.0
 76
     1
 77
     6
 78
     2
 67
     7
 79
     5
170
     0
171
     0
290
     0
174
     0
 93
        1
 44
0.0
173
     0
291
     1
 45
0.0
1001
ACAD
1000
AcDbSavedByObjectVersion
1070
     0
  0
VISUALSTYLE
  5
12E4
102
{ACAD_REACTORS
330
12DB
102
}
330
12DB
100
AcDbVisualStyle
  2
Conceptual
 70
     9
 71
     3
 72
     2
 73
     0
 90
        0
 40
-0.6
 41
-30.0
 62
     5
 63
     7
 74
     2
 91
        2
 64
     7
 65
   257
 75
     1
175
     1
 42
40.0
 92
        8
 66
     7
 43
1.0
 76
     1
 77
     6
 78
     2
 67
     7
 79
     3
170
     0
171
     0
290
     0
174
     0
 93
        1
 44
0.0
173
     0
291
     0
 45
0.0
1001
ACAD
1000
AcDbSavedByObjectVersion
1070
     0
  0
VISUALSTYLE
  5
12E6
102
{ACAD_REACTORS
330
12DB
102
}
330
12DB
100
AcDbVisualStyle
  2
Dim
 70
    11
 71
     2
 72
     2
 73
     0
 90
        0
 40
-0.6
 41
-30.0
 62
     5
 63
     7
 74
     1
 91
        4
 64
     7
 65
   257
 75
     1
175
     1
 42
1.0
 92
        8
 66
     7
 43
1.0
 76
     1
 77
     6
 78
     2
 67
     7
 79
     5
170
     0
171
     0
290
     0
174
     0
 93
        1
 44
-50.0
173
     0
291
     1
 45
0.0
1001
ACAD
1000
AcDbSavedByObjectVersion
1070
     0
  0
VISUALSTYLE
  5
12EA
102
{ACAD_REACTORS
330
12DB
102
}
330
12DB
100
AcDbVisualStyle
  2
Facepattern
 70
    15
 71
     2
 72
     2
 73
     0
 90
        0
 40
-0.6
 41
-30.0
 62
     5
 63
     7
 74
     1
 91
        4
 64
     7
 65
   257
 75
     1
175
     1
 42
1.0
 92
        8
 66
     7
 43
1.0
 76
     1
 77
     6
 78
     2
 67
     7
 79
     5
170
     0
171
     0
290
     0
174
     0
 93
        1
 44
0.0
173
     0
291
     1
 45
0.0
1001
ACAD
1000
AcDbSavedByObjectVersion
1070
     0
  0
VISUALSTYLE
  5
12DC
102
{ACAD_REACTORS
330
12DB
102
}
330
12DB
100
AcDbVisualStyle
  2
Flat
 70
     0
 71
     2
 72
     1
 73
     1
 90
        2
 40
-0.6
 41
30.0
 62
     5
 63
     7
 74
     0
 91
        4
 64
     7
 65
   257
 75
     1
175
     1
 42
1.0
 92
        8
 66
     7
 43
1.0
 76
     1
 77
     6
 78
     2
 67
     7
 79
     5
170
     0
171
     0
290
     0
174
     0
 93
       13
 44
0.0
173
     0
291
     1
 45
0.0
1001
ACAD
1000
AcDbSavedByObjectVersion
1070
     0
  0
VISUALSTYLE
  5
12DD
102
{ACAD_REACTORS
330
12DB
102
}
330
12DB
100
AcDbVisualStyle
  2
FlatWithEdges
 70
     1
 71
     2
 72
     1
 73
     1
 90
        2
 40
-0.6
 41
30.0
 62
     5
 63
     7
 74
     1
 91
        4
 64
     7
 65
   257
 75
     1
175
     1
 42
1.0
 92
        0
 66
   257
 43
1.0
 76
     1
 77
     6
 78
     2
 67
     7
 79
     5
170
     0
171
     0
290
     0
174
     0
 93
       13
 44
0.0
173
     0
291
     1
 45
0.0
1001
ACAD
1000
AcDbSavedByObjectVersion
1070
     0
  0
VISUALSTYLE
  5
12DE
102
{ACAD_REACTORS
330
12DB
102
}
330
12DB
100
AcDbVisualStyle
  2
Gouraud
 70
     2
 71
     2
 72
     2
 73
     1
 90
        2
 40
-0.6
 41
30.0
 62
     5
 63
     7
 74
     0
 91
        4
 64
     7
 65
   257
 75
     1
175
     1
 42
1.0
 92
        0
 66
     7
 43
1.0
 76
     1
 77
     6
 78
     2
 67
     7
 79
     5
170
     0
171
     0
290
     0
174
     0
 93
       13
 44
0.0
173
     0
291
     1
 45
0.0
1001
ACAD
1000
AcDbSavedByObjectVersion
1070
     0
  0
VISUALSTYLE
  5
12DF
102
{ACAD_REACTORS
330
12DB
102
}
330
12DB
100
AcDbVisualStyle
  2
GouraudWithEdges
 70
     3
 71
     2
 72
     2
 73
     1
 90
        2
 40
-0.6
 41
30.0
 62
     5
 63
     7
 74
     1
 91
        4
 64
     7
 65
   257
 75
     1
175
     1
 42
1.0
 92
        0
 66
   257
 43
1.0
 76
     1
 77
     6
 78
     2
 67
     7
 79
     5
170
     0
171
     0
290
     0
174
     0
 93
       13
 44
0.0
173
     0
291
     1
 45
0.0
1001
ACAD
1000
AcDbSavedByObjectVersion
1070
     0
  0
VISUALSTYLE
  5
12E9
102
{ACAD_REACTORS
330
12DB
102
}
330
12DB
100
AcDbVisualStyle
  2
Linepattern
 70
    14
 71
     2
 72
     2
 73
     0
 90
        0
 40
-0.6
 41
-30.0
 62
     5
 63
     7
 74
     1
 91
        4
 64
     7
 65
   257
 75
     7
175
     7
 42
1.0
 92
        8
 66
     7
 43
1.0
 76
     1
 77
     6
 78
     2
 67
     7
 79
     5
170
     0
171
     0
290
     0
174
     0
 93
        1
 44
0.0
173
     0
291
     1
 45
0.0
1001
ACAD
1000
AcDbSavedByObjectVersion
1070
     0
  0
VISUALSTYLE
  5
12E5
102
{ACAD_REACTORS
330
12DB
102
}
330
12DB
100
AcDbVisualStyle
  2
Realistic
 70
     8
 71
     2
 72
     2
 73
     0
 90
        0
 40
-0.6
 41
-30.0
 62
     5
 63
     7
 74
     1
 91
        0
 64
     7
 65
   257
 75
     1
175
     1
 42
1.0
 92
        8
 66
     8
 43
1.0
 76
     1
 77
     6
 78
     2
 67
     7
 79
     5
170
     0
171
     0
290
     0
174
     0
 93
       13
 44
0.0
173
     0
291
     0
 45
0.0
1001
ACAD
1000
AcDbSavedByObjectVersion
1070
     0
  0
VISUALSTYLE
  5
12E8
102
{ACAD_REACTORS
330
12DB
102
}
330
12DB
100
AcDbVisualStyle
  2
Thicken
 70
    13
 71
     2
 72
     2
 73
     0
 90
        0
 40
-0.6
 41
-30.0
 62
     5
 63
     7
 74
     1
 91
        4
 64
     7
 65
   257
 75
     1
175
     1
 42
1.0
 92
       12
 66
     7
 43
1.0
 76
     1
 77
     6
 78
     2
 67
     7
 79
     5
170
     0
171
     0
290
     0
174
     0
 93
        1
 44
0.0
173
     0
291
     1
 45
0.0
1001
ACAD
1000
AcDbSavedByObjectVersion
1070
     0
  0
DICTIONARYVAR
  5
1821
102
{ACAD_REACTORS
330
1ED
102
}
330
1ED
100
DictionaryVariables
280
     0
  1
STANDARD
  0
DICTIONARYVAR
  5
1F0
102
{ACAD_REACTORS
330
1ED
102
}
330
1ED
100
DictionaryVariables
280
     0
  1
2
  0
DICTIONARYVAR
  5
1EF
102
{ACAD_REACTORS
330
1ED
102
}
330
1ED
100
DictionaryVariables
280
     0
  1
1
  0
DICTIONARYVAR
  5
1EE
102
{ACAD_REACTORS
330
1ED
102
}
330
1ED
100
DictionaryVariables
280
     0
  1
1
  0
DICTIONARYVAR
  5
251B
102
{ACAD_REACTORS
330
1ED
102
}
330
1ED
100
DictionaryVariables
280
     0
  1
127
  0
ACAD_PROXY_OBJECT
  5
EA
102
{ACAD_REACTORS
330
E9
102
}
330
E9
100
AcDbProxyObject
 90
      499
 91
      554
 95
       23
 70
     0
 93
      118
310
405010040CA904C415CD5B0757103B
350
EB
 94
        0
1001
ACAD
1000
AcRTDxfName
1000
ACMDATADICTIONARY
  0
DICTIONARY
  5
EE
102
{ACAD_REACTORS
330
E9
102
}
330
E9
100
AcDbDictionary
281
     1
  3
DIN
350
EF
  0
ACAD_PROXY_OBJECT
  5
31
330
0
100
AcDbProxyObject
 90
      499
 91
      507
 95
       23
 70
     0
 93
      156
310
00010143D050D351505391D5531054925390D49F
330
2E
 94
        0
1001
ACAD
1000
AcRTDxfName
1000
ACIMREALSYSVAR
  0
ACAD_PROXY_OBJECT
  5
32
330
0
100
AcDbProxyObject
 90
      499
 91
      507
 95
       23
 70
     0
 93
      148
310
000101439050D351531253915054925390D49F
330
2E
 94
        0
1001
ACAD
1000
AcRTDxfName
1000
ACIMREALSYSVAR
  0
ACAD_PROXY_OBJECT
  5
33
330
0
100
AcDbProxyObject
 90
      499
 91
      508
 95
       23
 70
     0
 93
      156
310
000101439050D35154D6535093D314D25691508F
330
2E
 94
        0
1001
ACAD
1000
AcRTDxfName
1000
ACIMINTSYSVAR
  0
ACAD_PROXY_OBJECT
  5
35
330
0
100
AcDbProxyObject
 90
      499
 91
      510
 95
       23
 70
     0
 93
      144
310
00010142D4D53710D2D31254D5114C402B00CC
330
2E
330
0
330
0
 94
        0
1001
ACAD
1000
AcRTDxfName
1000
ACMEVIEW
  0
ACAD_PROXY_OBJECT
  5
3C
330
0
100
AcDbProxyObject
 90
      499
 91
      516
 95
       23
 70
     0
 93
      390
310
0001014151185D1D5B40508362E302E31382E30014151185D1D5B40508362E302E31382E3040501000041505391D31165B
330
2E
330
3D
330
43
 94
        0
1001
ACAD
1000
AcRTDxfName
1000
AM_DRAWING_MGR
  0
ACAD_PROXY_OBJECT
  5
3D
330
0
100
AcDbProxyObject
 90
      499
 91
      517
 95
       23
 70
     0
 93
       56
310
000190240E000077
330
2E
330
3E
330
40
 94
        0
1001
ACAD
1000
AcRTDxfName
1000
AM_DWG_DOCUMENT
  0
ACAD_PROXY_OBJECT
  5
3E
330
0
100
AcDbProxyObject
 90
      499
 91
      518
 95
       23
 70
     0
 93
       48
310
0001AA000000D4
330
2E
330
1E
330
3F
330
0
 94
        0
1001
ACAD
1000
AcRTDxfName
1000
AM_DWG_SHEET
  0
ACAD_PROXY_OBJECT
  5
3F
330
0
100
AcDbProxyObject
 90
      499
 91
      519
 95
       23
 70
     0
 93
       28
310
0001AAAF
330
2E
 94
        0
1001
ACAD
1000
AcRTDxfName
1000
AM_VIEWDIMPARMAP
  0
ACAD_PROXY_OBJECT
  5
40
330
0
100
AcDbProxyObject
 90
      499
 91
      518
 95
       23
 70
     0
 93
       48
310
0001AA0000002C
330
2E
330
26
330
41
330
0
 94
        0
1001
ACAD
1000
AcRTDxfName
1000
AM_DWG_SHEET
  0
ACAD_PROXY_OBJECT
  5
41
330
0
100
AcDbProxyObject
 90
      499
 91
      519
 95
       23
 70
     0
 93
       28
310
0001AAAF
330
2E
 94
        0
1001
ACAD
1000
AcRTDxfName
1000
AM_VIEWDIMPARMAP
  0
ACAD_PROXY_OBJECT
  5
44
330
0
100
AcDbProxyObject
 90
      499
 91
      508
 95
       23
 70
     0
 93
      108
310
000101421053521310D05310D01F
330
2E
 94
        0
1001
ACAD
1000
AcRTDxfName
1000
ACIMINTSYSVAR
  0
ACAD_PROXY_OBJECT
  5
45
330
0
100
AcDbProxyObject
 90
      499
 91
      508
 95
       23
 70
     0
 93
      124
310
00010142905354915554D1511253501F
330
2E
 94
        0
1001
ACAD
1000
AcRTDxfName
1000
ACIMINTSYSVAR
  0
ACAD_PROXY_OBJECT
  5
46
330
0
100
AcDbProxyObject
 90
      499
 91
      508
 95
       23
 70
     0
 93
      132
310
00010143105354D150D51253D39112536F
330
2E
 94
        0
1001
ACAD
1000
AcRTDxfName
1000
ACIMINTSYSVAR
  0
ACAD_PROXY_OBJECT
  5
47
330
0
100
AcDbProxyObject
 90
      499
 91
      508
 95
       23
 70
     0
 93
      124
310
00010142905355941093D4911154901F
330
2E
 94
        0
1001
ACAD
1000
AcRTDxfName
1000
ACIMINTSYSVAR
  0
ACAD_PROXY_OBJECT
  5
48
330
0
100
AcDbProxyObject
 90
      499
 91
      508
 95
       23
 70
     0
 93
      116
310
0001014290535115D1D0D3D313D4AF
330
2E
 94
        0
1001
ACAD
1000
AcRTDxfName
1000
ACIMINTSYSVAR
  0
ACAD_PROXY_OBJECT
  5
49
330
0
100
AcDbProxyObject
 90
      499
 91
      508
 95
       23
 70
     0
 93
      148
310
00010143505355925155D49151949154D2101F
330
2E
 94
        0
1001
ACAD
1000
AcRTDxfName
1000
ACIMINTSYSVAR
  0
ACAD_PROXY_OBJECT
  5
4A
330
0
100
AcDbProxyObject
 90
      499
 91
      508
 95
       23
 70
     0
 93
      172
310
00010144105350539393D51154149154D1549591501F
330
2E
 94
        0
1001
ACAD
1000
AcRTDxfName
1000
ACIMINTSYSVAR
  0
ACAD_PROXY_OBJECT
  5
4E
330
0
100
AcDbProxyObject
 90
      499
 91
      508
 95
       23
 70
     0
 93
      172
310
00010144105350555513D11253505494905391D1501F
330
2E
 94
        0
1001
ACAD
1000
AcRTDxfName
1000
ACIMINTSYSVAR
  0
ACAD_PROXY_OBJECT
  5
4F
330
0
100
AcDbProxyObject
 90
      499
 91
      508
 95
       23
 70
     0
 93
      124
310
00010142D0535156151491519112536F
330
2E
 94
        0
1001
ACAD
1000
AcRTDxfName
1000
ACIMINTSYSVAR
  0
ACAD_PROXY_OBJECT
  5
50
330
0
100
AcDbProxyObject
 90
      499
 91
      508
 95
       23
 70
     0
 93
      132
310
00010142D05355105410539393D511501F
330
2E
 94
        0
1001
ACAD
1000
AcRTDxfName
1000
ACIMINTSYSVAR
  0
ACAD_PROXY_OBJECT
  5
51
330
0
100
AcDbProxyObject
 90
      499
 91
      508
 95
       23
 70
     0
 93
      108
310
00010142105350555513D0D3101F
330
2E
 94
        0
1001
ACAD
1000
AcRTDxfName
1000
ACIMINTSYSVAR
  0
ACAD_PROXY_OBJECT
  5
52
330
0
100
AcDbProxyObject
 90
      499
 91
      508
 95
       23
 70
     0
 93
      108
310
00010142105350D311915055105F
330
2E
 94
        0
1001
ACAD
1000
AcRTDxfName
1000
ACIMINTSYSVAR
  0
ACAD_PROXY_OBJECT
  5
53
330
0
100
AcDbProxyObject
 90
      499
 91
      508
 95
       23
 70
     0
 93
      108
310
00010142105350D315925155D3FF
330
2E
 94
        0
1001
ACAD
1000
AcRTDxfName
1000
ACIMINTSYSVAR
  0
ACAD_PROXY_OBJECT
  5
54
330
0
100
AcDbProxyObject
 90
      499
 91
      508
 95
       23
 70
     0
 93
      148
310
0001014350535212511156915493D11253501F
330
2E
 94
        0
1001
ACAD
1000
AcRTDxfName
1000
ACIMINTSYSVAR
  0
ACAD_PROXY_OBJECT
  5
55
330
0
100
AcDbProxyObject
 90
      499
 91
      508
 95
       23
 70
     0
 93
      124
310
00010142905352105510D21254D3D01F
330
2E
 94
        0
1001
ACAD
1000
AcRTDxfName
1000
ACIMINTSYSVAR
  0
ACAD_PROXY_OBJECT
  5
56
330
0
100
AcDbProxyObject
 90
      499
 91
      508
 95
       23
 70
     0
 93
      148
310
00010143905354D25391D3115210551310566F
330
2E
 94
        0
1001
ACAD
1000
AcRTDxfName
1000
ACIMINTSYSVAR
  0
ACAD_PROXY_OBJECT
  5
57
330
0
100
AcDbProxyObject
 90
      499
 91
      508
 95
       23
 70
     0
 93
      124
310
00010142D0535115D1D193111254D42F
330
2E
 94
        0
1001
ACAD
1000
AcRTDxfName
1000
ACIMINTSYSVAR
  0
ACAD_PROXY_OBJECT
  5
58
330
0
100
AcDbProxyObject
 90
      499
 91
      508
 95
       23
 70
     0
 93
      100
310
00010142105350555513D213AF
330
2E
 94
        0
1001
ACAD
1000
AcRTDxfName
1000
ACIMINTSYSVAR
  0
ACAD_PROXY_OBJECT
  5
59
330
0
100
AcDbProxyObject
 90
      499
 91
      508
 95
       23
 70
     0
 93
      116
310
000101425053521390D3D55395101F
330
2E
 94
        0
1001
ACAD
1000
AcRTDxfName
1000
ACIMINTSYSVAR
  0
ACAD_PROXY_OBJECT
  5
5A
330
0
100
AcDbProxyObject
 90
      499
 91
      508
 95
       23
 70
     0
 93
      108
310
0001014210535213941493D2901F
330
2E
 94
        0
1001
ACAD
1000
AcRTDxfName
1000
ACIMINTSYSVAR
  0
ACAD_PROXY_OBJECT
  5
5B
330
0
100
AcDbProxyObject
 90
      499
 91
      508
 95
       23
 70
     0
 93
      108
310
000101421053521395165411507F
330
2E
 94
        0
1001
ACAD
1000
AcRTDxfName
1000
ACIMINTSYSVAR
  0
ACAD_PROXY_OBJECT
  5
5C
330
0
100
AcDbProxyObject
 90
      499
 91
      508
 95
       23
 70
     0
 93
      108
310
000101421053521395925155D0FF
330
2E
 94
        0
1001
ACAD
1000
AcRTDxfName
1000
ACIMINTSYSVAR
  0
ACAD_PROXY_OBJECT
  5
5D
330
0
100
AcDbProxyObject
 90
      499
 91
      508
 95
       23
 70
     0
 93
      140
310
00010143505354D150D51253D390D3D4166F
330
2E
 94
        0
1001
ACAD
1000
AcRTDxfName
1000
ACIMINTSYSVAR
  0
ACAD_PROXY_OBJECT
  5
5E
330
0
100
AcDbProxyObject
 90
      499
 91
      508
 95
       23
 70
     0
 93
      108
310
00010142105350D3141493D2903F
330
2E
 94
        0
1001
ACAD
1000
AcRTDxfName
1000
ACIMINTSYSVAR
  0
ACAD_PROXY_OBJECT
  5
5F
330
0
100
AcDbProxyObject
 90
      499
 91
      507
 95
       23
 70
     0
 93
      212
310
00010143905350555513D2105510D21493D500000000000002E40F
330
2E
 94
        0
1001
ACAD
1000
AcRTDxfName
1000
ACIMREALSYSVAR
  0
ACAD_PROXY_OBJECT
  5
60
330
0
100
AcDbProxyObject
 90
      499
 91
      508
 95
       23
 70
     0
 93
      156
310
00010143905350555513D2105510D2111155101F
330
2E
 94
        0
1001
ACAD
1000
AcRTDxfName
1000
ACIMINTSYSVAR
  0
ACAD_PROXY_OBJECT
  5
74
330
0
100
AcDbProxyObject
 90
      499
 91
      508
 95
       23
 70
     0
 93
      116
310
000101425053541051D1531153919F
330
2E
 94
        0
1001
ACAD
1000
AcRTDxfName
1000
ACIMINTSYSVAR
  0
ACAD_PROXY_OBJECT
  5
75
330
0
100
AcDbProxyObject
 90
      499
 91
      508
 95
       23
 70
     0
 93
      108
310
000101421053555312539154D05F
330
2E
 94
        0
1001
ACAD
1000
AcRTDxfName
1000
ACIMINTSYSVAR
  0
ACAD_PROXY_OBJECT
  5
76
330
0
100
AcDbProxyObject
 90
      499
 91
      508
 95
       23
 70
     0
 93
      108
310
000101421053559312539154D03F
330
2E
 94
        0
1001
ACAD
1000
AcRTDxfName
1000
ACIMINTSYSVAR
  0
ACAD_PROXY_OBJECT
  5
77
330
0
100
AcDbProxyObject
 90
      499
 91
      508
 95
       23
 70
     0
 93
      140
310
00010143105354D1911254D41353D111501F
330
2E
 94
        0
1001
ACAD
1000
AcRTDxfName
1000
ACIMINTSYSVAR
  0
ACAD_PROXY_OBJECT
  5
78
330
0
100
AcDbProxyObject
 90
      499
 91
      507
 95
       23
 70
     0
 93
      172
310
00010142505354119255105391C1C052DC9A6F10440F
330
2E
 94
        0
1001
ACAD
1000
AcRTDxfName
1000
ACIMREALSYSVAR
  0
ACAD_PROXY_OBJECT
  5
79
330
0
100
AcDbProxyObject
 90
      499
 91
      507
 95
       23
 70
     0
 93
      164
310
000101421053559150D05551C000000000000E03FF
330
2E
 94
        0
1001
ACAD
1000
AcRTDxfName
1000
ACIMREALSYSVAR
  0
ACAD_PROXY_OBJECT
  5
7A
330
0
100
AcDbProxyObject
 90
      499
 91
      507
 95
       23
 70
     0
 93
      180
310
00010142905350931153911513D307B14AE47E17A843FF
330
2E
 94
        0
1001
ACAD
1000
AcRTDxfName
1000
ACIMREALSYSVAR
  0
ACAD_PROXY_OBJECT
  5
7B
330
0
100
AcDbProxyObject
 90
      499
 91
      507
 95
       23
 70
     0
 93
      172
310
0001014250535293D25391D05407B14AE47E17A843FF
330
2E
 94
        0
1001
ACAD
1000
AcRTDxfName
1000
ACIMREALSYSVAR
  0
ACAD_PROXY_OBJECT
  5
7C
330
0
100
AcDbProxyObject
 90
      499
 91
      507
 95
       23
 70
     0
 93
      172
310
000101425053541192551311538000000FC83D79741F
330
2E
 94
        0
1001
ACAD
1000
AcRTDxfName
1000
ACIMREALSYSVAR
  0
ACAD_PROXY_OBJECT
  5
7D
330
0
100
AcDbProxyObject
 90
      499
 91
      507
 95
       23
 70
     0
 93
      156
310
00010141D053559150D4D18000000000000E03FF
330
2E
 94
        0
1001
ACAD
1000
AcRTDxfName
1000
ACIMREALSYSVAR
  0
ACAD_PROXY_OBJECT
  5
7E
330
0
100
AcDbProxyObject
 90
      499
 91
      507
 95
       23
 70
     0
 93
      156
310
00010141D05354D19513D309A9999999999993FF
330
2E
 94
        0
1001
ACAD
1000
AcRTDxfName
1000
ACIMREALSYSVAR
  0
ACAD_PROXY_OBJECT
  5
7F
330
0
100
AcDbProxyObject
 90
      499
 91
      507
 95
       23
 70
     0
 93
      172
310
000101425053541192551513D307B14AE47E17A843FF
330
2E
 94
        0
1001
ACAD
1000
AcRTDxfName
1000
ACIMREALSYSVAR
  0
ACAD_PROXY_OBJECT
  5
80
330
0
100
AcDbProxyObject
 90
      499
 91
      507
 95
       23
 70
     0
 93
      188
310
00010142D05354D151D192551513D307B14AE47E17A843FF
330
2E
 94
        0
1001
ACAD
1000
AcRTDxfName
1000
ACIMREALSYSVAR
  0
ACAD_PROXY_OBJECT
  5
81
330
0
100
AcDbProxyObject
 90
      499
 91
      507
 95
       23
 70
     0
 93
      148
310
000101419053541311538000000FC83D79741F
330
2E
 94
        0
1001
ACAD
1000
AcRTDxfName
1000
ACIMREALSYSVAR
  0
ACAD_PROXY_OBJECT
  5
82
330
0
100
AcDbProxyObject
 90
      499
 91
      507
 95
       23
 70
     0
 93
      172
310
00010142505354105391D513D301C052DC9A6F10440F
330
2E
 94
        0
1001
ACAD
1000
AcRTDxfName
1000
ACIMREALSYSVAR
  0
ACAD_PROXY_OBJECT
  5
83
330
0
100
AcDbProxyObject
 90
      499
 91
      507
 95
       23
 70
     0
 93
      132
310
0001014114D2569140000000000002440F
330
2E
 94
        0
1001
ACAD
1000
AcRTDxfName
1000
ACIMREALSYSVAR
  0
ACAD_PROXY_OBJECT
  5
84
330
0
100
AcDbProxyObject
 90
      499
 91
      530
 95
       23
 70
     0
 93
      156
310
00010142905351D494149151925600503415347F
330
2E
 94
        0
1001
ACAD
1000
AcRTDxfName
1000
ACIMSTRSYSVAR
  0
ACAD_PROXY_OBJECT
  5
85
330
0
100
AcDbProxyObject
 90
      499
 91
      531
 95
       23
 70
     0
 93
      314
310
00014080509646973745363616C650000000000003C2FC000000000000F0BF0000003F20F5E5D07F
330
2E
 94
        0
1001
ACAD
1000
AcRTDxfName
1000
ACIMDBLSTATICVAR
  0
ACAD_PROXY_OBJECT
  5
86
330
0
100
AcDbProxyObject
 90
      499
 91
      531
 95
       23
 70
     0
 93
      322
310
0001408050A65646175526F74617465060B51153EC87E4FC182D4454FB2119C0060B51153EC846503F
330
2E
 94
        0
1001
ACAD
1000
AcRTDxfName
1000
ACIMDBLSTATICVAR
  0
ACAD_PROXY_OBJECT
  5
87
330
0
100
AcDbProxyObject
 90
      499
 91
      531
 95
       23
 70
     0
 93
      314
310
00014080509656461755477697374060B51153EC846500000000FC83D797C10000003F20F5E5D07F
330
2E
 94
        0
1001
ACAD
1000
AcRTDxfName
1000
ACIMDBLSTATICVAR
  0
ACAD_PROXY_OBJECT
  5
88
330
0
100
AcDbProxyObject
 90
      499
 91
      532
 95
       23
 70
     0
 93
      294
310
000140C050A656467654F75747075740144D41BDB1E5B1A5B9A594817D41BDB1E5B1A5B997
330
2E
 94
        0
1001
ACAD
1000
AcRTDxfName
1000
ACIMSTRSTATICVAR
  0
ACAD_PROXY_OBJECT
  5
89
330
0
100
AcDbProxyObject
 90
      499
 91
      533
 95
       23
 70
     0
 93
      154
310
0001404050B6564697450726576696577406407F
330
2E
 94
        0
1001
ACAD
1000
AcRTDxfName
1000
ACIMINTSTATICVAR
  0
ACAD_PROXY_OBJECT
  5
8A
330
0
100
AcDbProxyObject
 90
      499
 91
      533
 95
       23
 70
     0
 93
      170
310
0001404050A666C6F77556C696E657342A3A00C0003F
330
2E
 94
        0
1001
ACAD
1000
AcRTDxfName
1000
ACIMINTSTATICVAR
  0
ACAD_PROXY_OBJECT
  5
8B
330
0
100
AcDbProxyObject
 90
      499
 91
      533
 95
       23
 70
     0
 93
      170
310
0001404050A666C6F77566C696E657342A3A00C0003F
330
2E
 94
        0
1001
ACAD
1000
AcRTDxfName
1000
ACIMINTSTATICVAR
  0
ACAD_PROXY_OBJECT
  5
8C
330
0
100
AcDbProxyObject
 90
      499
 91
      531
 95
       23
 70
     0
 93
      322
310
0001408050A666C7366456E645261640000000000003C2FC000000000000F0BF0000003F20F5E5D07F
330
2E
 94
        0
1001
ACAD
1000
AcRTDxfName
1000
ACIMDBLSTATICVAR
  0
ACAD_PROXY_OBJECT
  5
8D
330
0
100
AcDbProxyObject
 90
      499
 91
      532
 95
       23
 70
     0
 93
      246
310
000140C05086A6E33644D6F64650143D3585B9D595B1B0817D3585B9D585B3
330
2E
 94
        0
1001
ACAD
1000
AcRTDxfName
1000
ACIMSTRSTATICVAR
  0
ACAD_PROXY_OBJECT
  5
8E
330
0
100
AcDbProxyObject
 90
      499
 91
      532
 95
       23
 70
     0
 93
      294
310
000140C050A6A6E33644F75747075740144D41BDB1E5B1A5B9A594817D41BDB1E5B1A5B997
330
2E
 94
        0
1001
ACAD
1000
AcRTDxfName
1000
ACIMSTRSTATICVAR
  0
ACAD_PROXY_OBJECT
  5
8F
330
0
100
AcDbProxyObject
 90
      499
 91
      531
 95
       23
 70
     0
 93
      306
310
000140805086C656E675065726300000000002016D002D431CEBE2361A3F0000003F20F5E5D07F
330
2E
 94
        0
1001
ACAD
1000
AcRTDxfName
1000
ACIMDBLSTATICVAR
  0
ACAD_PROXY_OBJECT
  5
90
330
0
100
AcDbProxyObject
 90
      499
 91
      531
 95
       23
 70
     0
 93
      266
310
0001408050B6D61737344656E7369747942D431CEBE2361A3F0000003F20F5E5D07F
330
2E
 94
        0
1001
ACAD
1000
AcRTDxfName
1000
ACIMDBLSTATICVAR
  0
ACAD_PROXY_OBJECT
  5
91
330
0
100
AcDbProxyObject
 90
      499
 91
      531
 95
       23
 70
     0
 93
      186
310
000140805096D617373546869636BA0000003F20F5E5D07F
330
2E
 94
        0
1001
ACAD
1000
AcRTDxfName
1000
ACIMDBLSTATICVAR
  0
ACAD_PROXY_OBJECT
  5
92
330
0
100
AcDbProxyObject
 90
      499
 91
      532
 95
       23
 70
     0
 93
      230
310
000140C05086D61737354797065014353585B9D195B0817D4DA195B1B3
330
2E
 94
        0
1001
ACAD
1000
AcRTDxfName
1000
ACIMSTRSTATICVAR
  0
ACAD_PROXY_OBJECT
  5
93
330
0
100
AcDbProxyObject
 90
      499
 91
      531
 95
       23
 70
     0
 93
      242
310
000140805086F667366446973744000000FC83D797C10000003F20F5E5D07F
330
2E
 94
        0
1001
ACAD
1000
AcRTDxfName
1000
ACIMDBLSTATICVAR
  0
ACAD_PROXY_OBJECT
  5
94
330
0
100
AcDbProxyObject
 90
      499
 91
      531
 95
       23
 70
     0
 93
      258
310
0001408050A7072696D52616469757342D431CEBE2361A3F0000003F20F5E5D07F
330
2E
 94
        0
1001
ACAD
1000
AcRTDxfName
1000
ACIMDBLSTATICVAR
  0
ACAD_PROXY_OBJECT
  5
95
330
0
100
AcDbProxyObject
 90
      499
 91
      531
 95
       23
 70
     0
 93
      194
310
0001408050A7072696D546F70526164A0000003F20F5E5D07F
330
2E
 94
        0
1001
ACAD
1000
AcRTDxfName
1000
ACIMDBLSTATICVAR
  0
ACAD_PROXY_OBJECT
  5
96
330
0
100
AcDbProxyObject
 90
      499
 91
      531
 95
       23
 70
     0
 93
      266
310
0001408050B7072696D5475626552616442D431CEBE2361A3F0000003F20F5E5D07F
330
2E
 94
        0
1001
ACAD
1000
AcRTDxfName
1000
ACIMDBLSTATICVAR
  0
ACAD_PROXY_OBJECT
  5
97
330
0
100
AcDbProxyObject
 90
      499
 91
      531
 95
       23
 70
     0
 93
      258
310
0001408050A7072696D4865696768744000000FC83D797C10000003F20F5E5D07F
330
2E
 94
        0
1001
ACAD
1000
AcRTDxfName
1000
ACIMDBLSTATICVAR
  0
ACAD_PROXY_OBJECT
  5
98
330
0
100
AcDbProxyObject
 90
      499
 91
      531
 95
       23
 70
     0
 93
      250
310
000140805097072696D5374416E678182D4454FB2119C0060B51153EC846503F
330
2E
 94
        0
1001
ACAD
1000
AcRTDxfName
1000
ACIMDBLSTATICVAR
  0
ACAD_PROXY_OBJECT
  5
99
330
0
100
AcDbProxyObject
 90
      499
 91
      531
 95
       23
 70
     0
 93
      322
310
0001408050A7072696D456E64416E67060B51153EC846500182D4454FB2119C0060B51153EC846503F
330
2E
 94
        0
1001
ACAD
1000
AcRTDxfName
1000
ACIMDBLSTATICVAR
  0
ACAD_PROXY_OBJECT
  5
9A
330
0
100
AcDbProxyObject
 90
      499
 91
      531
 95
       23
 70
     0
 93
      242
310
000140805087265765374416E678182D4454FB2119C0060B51153EC846503F
330
2E
 94
        0
1001
ACAD
1000
AcRTDxfName
1000
ACIMDBLSTATICVAR
  0
ACAD_PROXY_OBJECT
  5
9B
330
0
100
AcDbProxyObject
 90
      499
 91
      531
 95
       23
 70
     0
 93
      314
310
00014080509726576456E64416E67060B51153EC846500182D4454FB2119C0060B51153EC846503F
330
2E
 94
        0
1001
ACAD
1000
AcRTDxfName
1000
ACIMDBLSTATICVAR
  0
ACAD_PROXY_OBJECT
  5
9C
330
0
100
AcDbProxyObject
 90
      499
 91
      533
 95
       23
 70
     0
 93
      194
310
0001404050C7266736655706174636865734290139C0C0003F
330
2E
 94
        0
1001
ACAD
1000
AcRTDxfName
1000
ACIMINTSTATICVAR
  0
ACAD_PROXY_OBJECT
  5
9D
330
0
100
AcDbProxyObject
 90
      499
 91
      533
 95
       23
 70
     0
 93
      194
310
0001404050C7266736656706174636865734290139C0C0003F
330
2E
 94
        0
1001
ACAD
1000
AcRTDxfName
1000
ACIMINTSTATICVAR
  0
ACAD_PROXY_OBJECT
  5
9E
330
0
100
AcDbProxyObject
 90
      499
 91
      532
 95
       23
 70
     0
 93
      246
310
000140C0508747562654D6F64650143D3585B9D595B1B0817D3585B9D585B3
330
2E
 94
        0
1001
ACAD
1000
AcRTDxfName
1000
ACIMSTRSTATICVAR
  0
ACAD_PROXY_OBJECT
  5
9F
330
0
100
AcDbProxyObject
 90
      499
 91
      531
 95
       23
 70
     0
 93
      274
310
0001408050C747562654469616D6574657242D431CEBE2361A3F0000003F20F5E5D07F
330
2E
 94
        0
1001
ACAD
1000
AcRTDxfName
1000
ACIMDBLSTATICVAR
  0
ACAD_PROXY_OBJECT
  5
A0
330
0
100
AcDbProxyObject
 90
      499
 91
      533
 95
       23
 70
     0
 93
      130
310
00014040509696E746572506F6C79A407F
330
2E
 94
        0
1001
ACAD
1000
AcRTDxfName
1000
ACIMINTSTATICVAR
  0
ACAD_PROXY_OBJECT
  5
A1
330
0
100
AcDbProxyObject
 90
      499
 91
      533
 95
       23
 70
     0
 93
      162
310
0001404050D696E746572417567506F696E74A407F
330
2E
 94
        0
1001
ACAD
1000
AcRTDxfName
1000
ACIMINTSTATICVAR
  0
ACAD_PROXY_OBJECT
  5
A2
330
0
100
AcDbProxyObject
 90
      499
 91
      532
 95
       23
 70
     0
 93
      222
310
000140C0509696E7465727472696D0142D0995A59194817D09BDD1A3
330
2E
 94
        0
1001
ACAD
1000
AcRTDxfName
1000
ACIMSTRSTATICVAR
  0
ACAD_PROXY_OBJECT
  5
A3
330
0
100
AcDbProxyObject
 90
      499
 91
      532
 95
       23
 70
     0
 93
      238
310
000140C0509696E74657274797065014354DD1D5D1E995B8817D51C9A5B7
330
2E
 94
        0
1001
ACAD
1000
AcRTDxfName
1000
ACIMSTRSTATICVAR
  0
ACAD_PROXY_OBJECT
  5
A4
330
0
100
AcDbProxyObject
 90
      499
 91
      533
 95
       23
 70
     0
 93
      146
310
0001404050A636F726E65727472696D406407F
330
2E
 94
        0
1001
ACAD
1000
AcRTDxfName
1000
ACIMINTSTATICVAR
  0
ACAD_PROXY_OBJECT
  5
A5
330
0
100
AcDbProxyObject
 90
      499
 91
      533
 95
       23
 70
     0
 93
      130
310
000140405086F6673666B656570406407F
330
2E
 94
        0
1001
ACAD
1000
AcRTDxfName
1000
ACIMINTSTATICVAR
  0
ACAD_PROXY_OBJECT
  5
A6
330
0
100
AcDbProxyObject
 90
      499
 91
      533
 95
       23
 70
     0
 93
      146
310
0001404050A70726F6A4F757470757440A40FF
330
2E
 94
        0
1001
ACAD
1000
AcRTDxfName
1000
ACIMINTSTATICVAR
  0
ACAD_PROXY_OBJECT
  5
A7
330
0
100
AcDbProxyObject
 90
      499
 91
      532
 95
       23
 70
     0
 93
      270
310
000140C050D70726F6A446972656374696F6E0143505B9CDA58DA1D0817DD92595DF
330
2E
 94
        0
1001
ACAD
1000
AcRTDxfName
1000
ACIMSTRSTATICVAR
  0
ACAD_PROXY_OBJECT
  5
A8
330
0
100
AcDbProxyObject
 90
      499
 91
      533
 95
       23
 70
     0
 93
      130
310
0001404050870726F6A4B656570406407F
330
2E
 94
        0
1001
ACAD
1000
AcRTDxfName
1000
ACIMINTSTATICVAR
  0
ACAD_PROXY_OBJECT
  5
A9
330
0
100
AcDbProxyObject
 90
      499
 91
      532
 95
       23
 70
     0
 93
      278
310
000140C050B70726F6A53706163696E67014413DC1D1A5B585B0817D3DC1D1A5B585B3
330
2E
 94
        0
1001
ACAD
1000
AcRTDxfName
1000
ACIMSTRSTATICVAR
  0
ACAD_PROXY_OBJECT
  5
AA
330
0
100
AcDbProxyObject
 90
      499
 91
      531
 95
       23
 70
     0
 93
      250
310
0001408050970726F6A54617065728182D4454FB21F9BF060B51153EC87E4FFF
330
2E
 94
        0
1001
ACAD
1000
AcRTDxfName
1000
ACIMDBLSTATICVAR
  0
ACAD_PROXY_OBJECT
  5
AB
330
0
100
AcDbProxyObject
 90
      499
 91
      533
 95
       23
 70
     0
 93
      130
310
00014040508647261674B656570406407F
330
2E
 94
        0
1001
ACAD
1000
AcRTDxfName
1000
ACIMINTSTATICVAR
  0
ACAD_PROXY_OBJECT
  5
AC
330
0
100
AcDbProxyObject
 90
      499
 91
      532
 95
       23
 70
     0
 93
      294
310
000140C050F647261674F7269656E746174696F6E0143939BDC9B585B0817D39BDC9B585B3
330
2E
 94
        0
1001
ACAD
1000
AcRTDxfName
1000
ACIMSTRSTATICVAR
  0
ACAD_PROXY_OBJECT
  5
AD
330
0
100
AcDbProxyObject
 90
      499
 91
      532
 95
       23
 70
     0
 93
      294
310
000140C050E647261675472616E736974696F6E0143D5985C9A5858995B0817DCD0D85B197
330
2E
 94
        0
1001
ACAD
1000
AcRTDxfName
1000
ACIMSTRSTATICVAR
  0
ACAD_PROXY_OBJECT
  5
AE
330
0
100
AcDbProxyObject
 90
      499
 91
      532
 95
       23
 70
     0
 93
      310
310
000140C051061646A757374436F6E74696E756974790143D1DB391D1D195B8817D4DB5BDBDD1A3
330
2E
 94
        0
1001
ACAD
1000
AcRTDxfName
1000
ACIMSTRSTATICVAR
  0
ACAD_PROXY_OBJECT
  5
AF
330
0
100
AcDbProxyObject
 90
      499
 91
      533
 95
       23
 70
     0
 93
      138
310
0001404050A61646A7573744B656570A407F
330
2E
 94
        0
1001
ACAD
1000
AcRTDxfName
1000
ACIMINTSTATICVAR
  0
ACAD_PROXY_OBJECT
  5
B0
330
0
100
AcDbProxyObject
 90
      499
 91
      531
 95
       23
 70
     0
 93
      250
310
0001408050972756C65576964746842D431CEBE2361A3F0000003F20F5E5D07F
330
2E
 94
        0
1001
ACAD
1000
AcRTDxfName
1000
ACIMDBLSTATICVAR
  0
ACAD_PROXY_OBJECT
  5
B1
330
0
100
AcDbProxyObject
 90
      499
 91
      531
 95
       23
 70
     0
 93
      274
310
0001408050C616E616C797A65447261667421D139D28615ED8FE060B51153EC842503F
330
2E
 94
        0
1001
ACAD
1000
AcRTDxfName
1000
ACIMDBLSTATICVAR
  0
ACAD_PROXY_OBJECT
  5
B2
330
0
100
AcDbProxyObject
 90
      499
 91
      533
 95
       23
 70
     0
 93
      210
310
0001404050F616E616C797A654E756D4C696E65734163FDFC0003F
330
2E
 94
        0
1001
ACAD
1000
AcRTDxfName
1000
ACIMINTSTATICVAR
  0
ACAD_PROXY_OBJECT
  5
B3
330
0
100
AcDbProxyObject
 90
      499
 91
      533
 95
       23
 70
     0
 93
      202
310
00014040512616E616C797A65526F746174654C696E6573A407F
330
2E
 94
        0
1001
ACAD
1000
AcRTDxfName
1000
ACIMINTSTATICVAR
  0
ACAD_PROXY_OBJECT
  5
B4
330
0
100
AcDbProxyObject
 90
      499
 91
      533
 95
       23
 70
     0
 93
      210
310
00014040513616E616C797A65446973706C61794C696E6573A407F
330
2E
 94
        0
1001
ACAD
1000
AcRTDxfName
1000
ACIMINTSTATICVAR
  0
ACAD_PROXY_OBJECT
  5
B5
330
0
100
AcDbProxyObject
 90
      499
 91
      533
 95
       23
 70
     0
 93
      258
310
00014040519616E616C797A655472616E736C7563656E7453757266616365A407F
330
2E
 94
        0
1001
ACAD
1000
AcRTDxfName
1000
ACIMINTSTATICVAR
  0
ACAD_PROXY_OBJECT
  5
BF
330
0
100
AcDbProxyObject
 90
      499
 91
      539
 95
       23
 70
     0
 93
      714
310
0001000000009AA6A9AA4051E4D6F6E204D61722031392030373A35363A3333203230303720285554432901420D8B8C0B8C4E0B8D00518546875204D61722032392032313A32323A3138203230303701420D8B8C0B8C4E0B8D3F
330
2E
330
C0
330
C1
330
C3
330
0
 94
        0
1001
ACAD
1000
AcRTDxfName
1000
ADAPPL
  0
ACAD_PROXY_OBJECT
  5
C0
330
0
100
AcDbProxyObject
 90
      499
 91
      540
 95
       23
 70
     0
 93
       70
310
0001AAA80820000003
330
2E
330
C0
330
C0
 94
        0
1001
ACAD
1000
AcRTDxfName
1000
DEPMGR
  0
ACAD_PROXY_OBJECT
  5
C1
330
0
100
AcDbProxyObject
 90
      499
 91
      541
 95
       23
 70
     0
 93
       48
310
000100000000CC
330
2E
330
0
330
C2
330
0
330
0
 94
        0
1001
ACAD
1000
AcRTDxfName
1000
PARAMMGR
  0
ACAD_PROXY_OBJECT
  5
C2
330
0
100
AcDbProxyObject
 90
      499
 91
      542
 95
       23
 70
     0
 93
       40
310
000100AAAA00
330
2E
330
0
 94
        0
1001
ACAD
1000
AcRTDxfName
1000
PARAMSCOPE
  0
ACAD_PROXY_OBJECT
  5
C4
330
0
100
AcDbProxyObject
 90
      499
 91
      508
 95
       23
 70
     0
 93
      124
310
00010142905350D3D39114D414D6905F
330
2E
 94
        0
1001
ACAD
1000
AcRTDxfName
1000
ACIMINTSYSVAR
  0
ACAD_PROXY_OBJECT
  5
C5
330
0
100
AcDbProxyObject
 90
      499
 91
      508
 95
       23
 70
     0
 93
      124
310
000101429053549553115353D111501F
330
2E
 94
        0
1001
ACAD
1000
AcRTDxfName
1000
ACIMINTSYSVAR
  0
ACAD_PROXY_OBJECT
  5
C6
330
0
100
AcDbProxyObject
 90
      499
 91
      508
 95
       23
 70
     0
 93
      108
310
00010142105354D2D353D111501F
330
2E
 94
        0
1001
ACAD
1000
AcRTDxfName
1000
ACIMINTSYSVAR
  0
ACAD_PROXY_OBJECT
  5
C7
330
0
100
AcDbProxyObject
 90
      499
 91
      508
 95
       23
 70
     0
 93
      140
310
000101435053511253511254D41353D1116F
330
2E
 94
        0
1001
ACAD
1000
AcRTDxfName
1000
ACIMINTSYSVAR
  0
ACAD_PROXY_OBJECT
  5
C8
330
0
100
AcDbProxyObject
 90
      499
 91
      507
 95
       23
 70
     0
 93
      180
310
00010142905354D2D05391D513D300000000000001040F
330
2E
 94
        0
1001
ACAD
1000
AcRTDxfName
1000
ACIMREALSYSVAR
  0
ACAD_PROXY_OBJECT
  5
C9
330
0
100
AcDbProxyObject
 90
      499
 91
      530
 95
       23
 70
     0
 93
      164
310
00010142505354D2D4D516531140505434F4E542AF
330
2E
 94
        0
1001
ACAD
1000
AcRTDxfName
1000
ACIMSTRSYSVAR
  0
ACAD_PROXY_OBJECT
  5
CA
330
0
100
AcDbProxyObject
 90
      499
 91
      508
 95
       23
 70
     0
 93
      108
310
00010142105350D351111253501F
330
2E
 94
        0
1001
ACAD
1000
AcRTDxfName
1000
ACIMINTSYSVAR
  0
ACAD_PROXY_OBJECT
  5
CB
330
0
100
AcDbProxyObject
 90
      499
 91
      508
 95
       23
 70
     0
 93
      108
310
00010142105350D3D35414D5901F
330
2E
 94
        0
1001
ACAD
1000
AcRTDxfName
1000
ACIMINTSYSVAR
  0
ACAD_PROXY_OBJECT
  5
CC
330
0
100
AcDbProxyObject
 90
      499
 91
      530
 95
       23
 70
     0
 93
      164
310
0001014290535410549514D41196005045445494CF
330
2E
 94
        0
1001
ACAD
1000
AcRTDxfName
1000
ACIMSTRSYSVAR
  0
ACAD_PROXY_OBJECT
  5
CD
330
0
100
AcDbProxyObject
 90
      499
 91
      530
 95
       23
 70
     0
 93
      244
310
0001014350535513D3D31093D1165411960050B415242454954535445494CF
330
2E
 94
        0
1001
ACAD
1000
AcRTDxfName
1000
ACIMSTRSYSVAR
  0
ACAD_PROXY_OBJECT
  5
CE
330
0
100
AcDbProxyObject
 90
      499
 91
      508
 95
       23
 70
     0
 93
      116
310
000101425053511254D410D3D3901F
330
2E
 94
        0
1001
ACAD
1000
AcRTDxfName
1000
ACIMINTSYSVAR
  0
ACAD_PROXY_OBJECT
  5
CF
330
0
100
AcDbProxyObject
 90
      499
 91
      508
 95
       23
 70
     0
 93
      108
310
00010142105350D3D39114D4101F
330
2E
 94
        0
1001
ACAD
1000
AcRTDxfName
1000
ACIMINTSYSVAR
  0
ACAD_PROXY_OBJECT
  5
D0
330
0
100
AcDbProxyObject
 90
      499
 91
      508
 95
       23
 70
     0
 93
      124
310
0001014290535490511114D414D6919F
330
2E
 94
        0
1001
ACAD
1000
AcRTDxfName
1000
ACIMINTSYSVAR
  0
ACAD_PROXY_OBJECT
  5
D6
330
0
100
AcDbProxyObject
 90
      499
 91
      508
 95
       23
 70
     0
 93
      132
310
00010142D05050555513D4D3D31591501F
330
2E
 94
        0
1001
ACAD
1000
AcRTDxfName
1000
ACIMINTSYSVAR
  0
ACAD_PROXY_OBJECT
  5
D7
330
0
100
AcDbProxyObject
 90
      499
 91
      508
 95
       23
 70
     0
 93
      156
310
00010143905050555513D054D4D153509311501F
330
2E
 94
        0
1001
ACAD
1000
AcRTDxfName
1000
ACIMINTSYSVAR
  0
ACAD_PROXY_OBJECT
  5
D8
330
0
100
AcDbProxyObject
 90
      499
 91
      508
 95
       23
 70
     0
 93
      148
310
00010143505055925155D49154D513D491501F
330
2E
 94
        0
1001
ACAD
1000
AcRTDxfName
1000
ACIMINTSYSVAR
  0
ACAD_PROXY_OBJECT
  5
D9
330
0
100
AcDbProxyObject
 90
      499
 91
      508
 95
       23
 70
     0
 93
      124
310
00010142D050525394D15495105094EF
330
2E
 94
        0
1001
ACAD
1000
AcRTDxfName
1000
ACIMINTSYSVAR
  0
ACAD_PROXY_OBJECT
  5
DA
330
0
100
AcDbProxyObject
 90
      499
 91
      508
 95
       23
 70
     0
 93
      148
310
00010143505054D0D15391555411105511501F
330
2E
 94
        0
1001
ACAD
1000
AcRTDxfName
1000
ACIMINTSYSVAR
  0
ACAD_PROXY_OBJECT
  5
DB
330
0
100
AcDbProxyObject
 90
      499
 91
      530
 95
       23
 70
     0
 93
      172
310
00010143105054D5509054D4D354119600503424155F
330
2E
 94
        0
1001
ACAD
1000
AcRTDxfName
1000
ACIMSTRSYSVAR
  0
ACAD_PROXY_OBJECT
  5
DC
330
0
100
AcDbProxyObject
 90
      499
 91
      530
 95
       23
 70
     0
 93
      172
310
00010142905054D0D1539154119600505535A454E45F
330
2E
 94
        0
1001
ACAD
1000
AcRTDxfName
1000
ACIMSTRSYSVAR
  0
ACAD_PROXY_OBJECT
  5
DD
330
0
100
AcDbProxyObject
 90
      499
 91
      508
 95
       23
 70
     0
 93
      148
310
00010143505350555513D313D0D2D4D0D3901F
330
2E
 94
        0
1001
ACAD
1000
AcRTDxfName
1000
ACIMINTSYSVAR
  0
ACAD_PROXY_OBJECT
  5
E2
330
0
100
AcDbProxyObject
 90
      499
 91
      548
 95
       23
 70
     0
 93
       32
310
0001000000
330
2E
340
DF
330
E4
330
DF
 94
        0
1001
ACAD
1000
AcRTDxfName
1000
ACAMGRCOMPDEF
  0
ACAD_PROXY_OBJECT
  5
E3
330
0
100
AcDbProxyObject
 90
      499
 91
      549
 95
       23
 70
     0
 93
       18
310
0001BF
330
2E
 94
        0
1001
ACAD
1000
AcRTDxfName
1000
ACCMCONTEXT
  0
ACAD_PROXY_OBJECT
  5
E4
330
0
100
AcDbProxyObject
 90
      499
 91
      550
 95
       23
 70
     0
 93
      255
310
00010145D593D4931051D15397D04C0B504D17CC8E0C0CCC8C0C0DD050055401
330
2E
330
E2
330
E3
 94
        0
1001
ACAD
1000
AcRTDxfName
1000
ACAMCOMPDEF
  0
ACAD_PROXY_OBJECT
  5
E5
330
0
100
AcDbProxyObject
 90
      499
 91
      551
 95
       23
 70
     0
 93
       40
310
000100AAAA7E
330
2E
330
E4
 94
        0
1001
ACAD
1000
AcRTDxfName
1000
ACAMCOMPDEFMGR
  0
ACAD_PROXY_OBJECT
  5
E6
330
0
100
AcDbProxyObject
 90
      499
 91
      552
 95
       23
 70
     0
 93
      108
310
000190140A000000000000AAAAAF
330
2E
330
E7
330
E7
330
E7
330
E7
330
E7
330
0
 94
        0
1001
ACAD
1000
AcRTDxfName
1000
AMCONTEXTMGR
  0
ACAD_PROXY_OBJECT
  5
E7
330
0
100
AcDbProxyObject
 90
      499
 91
      553
 95
       23
 70
     0
 93
       51
310
00010000AAAA9F
330
2E
330
E6
330
E4
 94
        0
1001
ACAD
1000
AcRTDxfName
1000
ACAMCONTEXTMODELER
  0
ACAD_PROXY_OBJECT
  5
ED
330
0
100
AcDbProxyObject
 90
      499
 91
      530
 95
       23
 70
     0
 93
      140
310
00010142105350D55494D5110050344494EF
330
2E
 94
        0
1001
ACAD
1000
AcRTDxfName
1000
ACIMSTRSYSVAR
  0
ACAD_PROXY_OBJECT
  5
D83
330
0
100
AcDbProxyObject
 90
      499
 91
      584
 95
       23
 70
     0
 93
       28
310
0001406F
330
2E
 94
        0
1001
ACAD
1000
AcRTDxfName
1000
AMDTFORMULAUPDATEDISPATCHER
  0
DICTIONARY
  5
6B
102
{ACAD_REACTORS
330
6A
102
}
330
6A
100
AcDbDictionary
281
     1
  3
DWGSETTINGS
350
6C
  3
TRANSSETTINGS
350
70
  0
ACAD_PROXY_OBJECT
  5
F0
102
{ACAD_REACTORS
330
6A
102
}
330
6A
100
AcDbProxyObject
 90
      499
 91
      557
 95
       23
 70
     0
 93
    12938
310
41104491013041105357CC1074CA404C504414D5F31439329013241105357CC9054CA404CD04414D5F33419199013441105357CD103466404D504414D5F3540D199013641105357CD90248E404DD04414D5F37411199013841105357CE101466404E504414D5F397F641102324141505357CC4C1074CA408D10505414D5F31
310
3140D19902495041505357CC4C9074C902408C13905414D5F304E41D32902314E41505357CC5390E4CA408C93905414D5F324E41532902334E41505357CCD3906466408D13905414D5F344E40D19902354E41505357CD53903466408D93905414D5F364E40923902374E41505357CDD3904466408E13905414D5F384E40519
310
902394E41505357CE539FD90440CC9053906414D5F31304E41D3290334414E41905357CC4C5390346640D25413906414D5F31324E41D32409044B4C494E41505357D0D3101465094112539193D08414D5F50415245464111942D055241484D3541905357D093D49074C9094115925155D08414D5F56494557534051942D064
310
24548494E4441905357D253959FD90D415514905253105414D5F545240D194250348494441905357D212511074650940D59254D06414D5F56495341D324250650415244494D42505357D410549112535034650941949151911253509414D5F52454644494D4111942553411092139590139CFFFFFFFF415092139594D06424
310
548494E44CFFFFFFFF411093D48C9055241484D3540519411093D48CD055241484D3540923411093D48D5055241484D35CFFFFFFFF4110D0530C90134CFFFFFFFF4110D0530CD0134409234110D0530D5013441D324110D0530DD0134479464110D1539390137CFFFFFFFF4110D15395D0137CFFFFFFFF4110D312539044B4
310
C494ECFFFFFFFF4110D3D38C50130CFFFFFFFF4110D3D38C90131CFFFFFFFF4110D3D38CD0132CFFFFFFFF4110D3D38D10132CFFFFFFFF411111551050134CFFFFFFFF4111125051D0135CFFFFFFFF411112531250135CFFFFFFFF411112535410650415244494DCFFFFFFFF411112535490652454644494DCFFFFFFFF4111
310
91535390138CFFFFFFFF4151915354139013840CFFFFFFFF4151915354D41023441CFFFFFFFF4151915354D5102344140D1941519153559390132CFFFFFFFF4151915355951013240D194112105510D0138CFFFFFFFF411212511390133CFFFFFFFF4112125115D0133CFFFFFFFF411213125390134CFFFFFFFF411213D0D3
310
90137CFFFFFFFF411213D0D5D0137CFFFFFFFF4112539193D04494E464FCFFFFFFFF411311505110135CFFFFFFFF419397D0921395902394ECFFFFFFFF419397D0D3D38C502304ECFFFFFFFF419397D0D3D38C902314ECFFFFFFFF419397D0D3D38CD02324ECFFFFFFFF419397D0D3D38D102324ECFFFFFFFF419397D0D153
310
93902374ECFFFFFFFF419397D0D15395D02374ECFFFFFFFF419397D1125312502354ECFFFFFFFF419397D2105510D02384ECFFFFFFFF419397D2125113902334ECFFFFFFFF419397D2125115D02334ECFFFFFFFF419397D3115051102354ECFFFFFFFF419397D391D25410349504ECFFFFFFFF419397D412105390334414EC
310
FFFFFFFF419397D510D3D3902304ECFFFFFFFF419397D5121312502344ECFFFFFFFF419397D5131153902304ECFFFFFFFF419397D594131250332414ECFFFFFFFF411391D2541024950CFFFFFFFF411410530C9055241484D3540519411410530CD055241484D3540923411410530D5055241484D35CFFFFFFFF4114121053
310
9023441CFFFFFFFF411413D4D390135CFFFFFFFF411490D1D390137CFFFFFFFF411490D1D5D0137CFFFFFFFF4114D09492D0134CFFFFFFFF4114D150D510134CFFFFFFFF4114D6508CD013540923411354D6535013540923411510D3D390130CFFFFFFFF411512131250134CFFFFFFFF411512550C9055241484D354051941
310
1512550CD055241484D3540923411512550D5055241484D35CFFFFFFFF411513115390130CFFFFFFFF415514905253105545241494CCFFFFFFFF411514931250134CFFFFFFFF411516150C5013640D19411516150C9013640D19411516150CD0136CFFFFFFFF411516150D5013641D32411516150DD0136479464115925155
310
D0456494557CFFFFFFFF4115915112103484944CFFFFFFFF4115915115903564953CFFFFFFFF41159413125023241CFFFFFFFF411692569050134CFFFFFFFFAA9FD404FE429014650248D0346504465054C906465074C90E4C91E519FDBF
340
16
340
16
340
16
340
FA
340
16
340
16
340
16
340
FB
340
16
340
16
340
FB
340
FC
340
16
340
16
340
16
340
16
340
FA
340
16
340
16
340
16
340
FB
340
16
340
16
340
FB
340
FC
340
16
340
F4
340
16
340
16
340
16
340
16
340
16
340
FA
340
16
340
16
340
16
340
15
340
15
340
15
340
15
340
15
340
15
340
15
340
15
340
15
340
FD
340
15
340
15
340
15
340
15
340
15
340
15
340
15
340
15
340
15
340
15
340
15
340
15
340
15
340
16
340
15
340
15
340
15
340
15
340
FE
340
15
340
15
340
FD
340
15
340
15
340
15
340
15
340
15
340
15
340
15
340
15
340
FD
340
15
340
15
340
15
340
FE
340
15
340
15
340
15
340
15
340
15
340
15
340
15
340
15
340
15
340
15
340
15
340
15
340
15
340
15
340
FD
340
15
340
15
340
15
340
15
340
15
340
15
340
15
340
15
340
15
340
15
340
15
340
15
340
15
340
15
340
15
340
15
340
15
340
15
340
15
340
15
340
15
340
15
340
F9
 94
        0
1001
ACAD
1000
AcRTDxfName
1000
AMGOBJPROPCFG
  0
ACAD_PROXY_OBJECT
  5
134
102
{ACAD_REACTORS
330
133
102
}
330
133
100
AcDbProxyObject
 90
      499
 91
      579
 95
       23
 70
     0
 93
      133
310
43D054841544348404A9012A404A9012AF
 94
        0
1001
ACAD
1000
AcRTDxfName
1000
ACAMGFILTERDAT
  0
ACAD_PROXY_OBJECT
  5
135
102
{ACAD_REACTORS
330
133
102
}
330
133
100
AcDbProxyObject
 90
      499
 91
      579
 95
       23
 70
     0
 93
      549
310
43D044C494E4549CE0B0E138B0A8B4E0B0A8B4E138B105357CE0B105357CE138B0A8B505357CE0B0A8B505357CE139012A404A910494E534552542C535444504152543244F
 94
        0
1001
ACAD
1000
AcRTDxfName
1000
ACAMGFILTERDAT
  0
LAYER_INDEX
  5
249F
102
{ACAD_REACTORS
330
249E
102
}
330
249E
100
AcDbIndex
 40
2454236.46246441
100
AcDbLayerIndex
  8
0
360
24A0
 90
        0
  8
90100_FRAME_THICK
360
24A1
 90
        1
  8
90000_FRAME_THIN
360
24A2
 90
        1
  8
92000_TITLE
360
24A3
 90
       17
  8
91100_TIP_SYM
360
24A4
 90
        2
  8
Defpoints
360
24A5
 90
        0
  8
91000_TIP
360
24A6
 90
        2
  8
91200_TIP_SYMB
360
24A7
 90
        6
  8
10000_FRONT
360
24A8
 90
       23
  8
11000_LEFT
360
24A9
 90
       20
  8
10100_FRONT_DIM
360
24AA
 90
        1
  8
11100_LEFT_DIM
360
24AB
 90
        6
  8
10200_FRONT_SYM
360
24AC
 90
        2
  8
11200_LEFT_SYM
360
24AD
 90
        3
  8
11400_LEFT_HIDDEN
360
24AF
 90
        3
  0
DICTIONARY
  5
2547
330
1E
100
AcDbDictionary
280
     1
281
     1
  3
ACAD_XREC_ROUNDTRIP
360
2548
  0
DICTIONARY
  5
254B
330
26
100
AcDbDictionary
280
     1
281
     1
  3
ACAD_XREC_ROUNDTRIP
360
254C
  0
DICTIONARY
  5
2549
330
22
100
AcDbDictionary
280
     1
281
     1
  3
ACAD_XREC_ROUNDTRIP
360
254A
  0
DICTIONARY
  5
254F
330
12D9
100
AcDbDictionary
280
     1
281
     1
  3
ACAD_XREC_ROUNDTRIP
360
2550
  0
DICTIONARY
  5
254D
330
12D8
100
AcDbDictionary
280
     1
281
     1
  3
ACAD_XREC_ROUNDTRIP
360
254E
  0
DICTIONARY
  5
2551
330
12DA
100
AcDbDictionary
280
     1
281
     1
  3
ACAD_XREC_ROUNDTRIP
360
2552
  0
DICTIONARY
  5
2553
330
12EE
100
AcDbDictionary
280
     1
281
     1
  3
ACAD_XREC_ROUNDTRIP
360
2554
  0
ACAD_PROXY_OBJECT
  5
EB
102
{ACAD_REACTORS
330
EA
102
}
330
EA
100
AcDbProxyObject
 90
      499
 91
      555
 95
       23
 70
     0
 93
      331
310
057356C1D5C406406AA8FFFFFFFF0AE517564F524C4147454E5F41302D41345F3238303332303037405F
330
1F
330
0
330
E4
 94
        0
1001
ACAD
1000
AcRTDxfName
1000
ACMDATAENTRYBLOCK
  0
ACAD_PROXY_OBJECT
  5
EF
102
{ACAD_REACTORS
330
EE
102
}
330
EE
100
AcDbProxyObject
 90
      499
 91
      556
 95
       23
 70
     0
 93
     2377
310
5700000000000000C40D0344494E40590140902000000000000031032228821682DAC8E88AC8CECAA6E8C8812028720B1B6A9BAB9332A32BC3A29BA3220480A1282C6DA8C868CA6E8C88120286A0B1B6ABB2B63234B733A9BA3220480A1082C6DA92C8A6E8C88120285A0B1B6A230BA3AB6A9BA3220480A1282C6DA849E9AA
310
6E8C8812028820B6B23A2232BA30B4B629BCB6A9BA3220480A2282DAC8E8A6CAC6E8D2DEDCA6F2DAA6E8C88120288A0B6B23A21B2B73A32B92634B732A9BA3220480A2282DAC8E8A8D0E4CAC2C898D2DCCAA6E8C88120285A0B6B23A2737BA32A9BA3220480A1682C682DACE98C2F2A6E8C88120285A0B1A0B6B3A234B6A9B
310
A3220480A2282C682DACE90DED8CA86D0C2E4E8A6E8C88120286A0B1A0B6B3AA34BA3632A9BA3220480C817F
340
FF
360
100
360
101
360
102
360
103
360
104
360
105
360
106
360
107
360
108
360
109
360
10A
360
10B
360
111
360
112
360
11E
360
11F
 94
        0
1001
ACAD
1000
AcRTDxfName
1000
ACMSTANDARDDIN
  0
ACAD_PROXY_OBJECT
  5
6C
102
{ACAD_REACTORS
330
6B
102
}
330
6B
100
AcDbProxyObject
 90
      499
 91
      527
 95
       23
 70
     0
 93
     2340
310
4050B44574753455454494E4753A1286829C8E82A4A482B282A106660F8686AF86C608321A2A720A723A0A849A1ABE1C983E18999AA0C868A9C889282940000000000000488083A1A2A72224A0A9A0A8418983E19183E199820E868A9C8892A6A894000000000000010808321A2A72622A7250000000000000122020C868A9
310
C9E8C8C940000000000000488084A1A624A720A92920ACA0A809AA108698929C8AA8B2A082A0AB098929C8A84A22BA3AAA9A1A0A622A50A0E9882A6A89E849482A02608426A0A5A2AB24A2ABA7E8120CA0A68682988A0C00800010652455649534941501304154D0D0531150540CC4E8C50954494D455354414D504A030C4B
310
892FB23734141D5915494D253D3905414C4D4B8C0C1107B44574753455454494E4753454E447DF
 94
        0
1001
ACAD
1000
AcRTDxfName
1000
AMGSETTINGSOBJ
  0
ACAD_PROXY_OBJECT
  5
70
102
{ACAD_REACTORS
330
6B
102
}
330
6B
100
AcDbProxyObject
 90
      499
 91
      527
 95
       23
 70
     0
 93
      852
310
4050D5452414E5353455454494E4753A2488A482AE929C8EA8A4829CA69882A8929E9C0C00800050D4F524947494E414C4C595F4F4E0600400028529A7AAA921A2A620A723A0A81A222AAA12AAA0A48AA68AA4AC8A0C0080001107B44574753455454494E4753454E447DF
 94
        0
1001
ACAD
1000
AcRTDxfName
1000
AMGSETTINGSOBJ
  0
IDBUFFER
  5
24A0
330
0
100
AcDbIdBuffer
  0
IDBUFFER
  5
24A1
330
0
100
AcDbIdBuffer
330
2C4
  0
IDBUFFER
  5
24A2
330
0
100
AcDbIdBuffer
330
399
  0
IDBUFFER
  5
24A3
330
0
100
AcDbIdBuffer
330
245D
330
245E
330
245F
330
2460
330
246B
330
246C
330
246D
330
246E
330
246F
330
2470
330
2471
330
2472
330
2473
330
2474
330
2475
330
2476
330
2477
  0
IDBUFFER
  5
24A4
330
0
100
AcDbIdBuffer
330
2463
330
246A
  0
IDBUFFER
  5
24A5
330
0
100
AcDbIdBuffer
  0
IDBUFFER
  5
24A6
330
0
100
AcDbIdBuffer
330
2461
330
2462
  0
IDBUFFER
  5
24A7
330
0
100
AcDbIdBuffer
330
2464
330
2465
330
2466
330
2467
330
2468
330
2469
  0
IDBUFFER
  5
24A8
330
0
100
AcDbIdBuffer
330
15AD
330
15AE
330
15B1
330
15B2
330
15B3
330
15B4
330
15B5
330
15CE
330
15CF
330
15DD
330
15DE
330
15DF
330
15E0
330
15E1
330
15E2
330
15E3
330
15E4
330
15E5
330
15E6
330
15E7
330
23B9
330
23BB
330
23BE
  0
IDBUFFER
  5
24A9
330
0
100
AcDbIdBuffer
330
158C
330
158D
330
1590
330
1591
330
1593
330
1594
330
1595
330
1598
330
159E
330
15B6
330
15B8
330
15BB
330
15C0
330
15C9
330
15CA
330
15CB
330
15CC
330
15CD
330
199E
330
199F
  0
IDBUFFER
  5
24AA
330
0
100
AcDbIdBuffer
330
15DC
  0
IDBUFFER
  5
24AB
330
0
100
AcDbIdBuffer
330
15D7
330
15D8
330
15D9
330
15DA
330
15DB
330
19E0
  0
IDBUFFER
  5
24AC
330
0
100
AcDbIdBuffer
330
159B
330
15C7
  0
IDBUFFER
  5
24AD
330
0
100
AcDbIdBuffer
330
159C
330
15B7
330
15BC
  0
IDBUFFER
  5
24AF
330
0
100
AcDbIdBuffer
330
159D
330
15B9
330
15BA
  0
XRECORD
  5
2548
102
{ACAD_REACTORS
330
2547
102
}
330
2547
100
AcDbXrecord
280
     1
102
SHADEPLOT
 70
     0
102
SHADEPLOTRESLEVEL
 70
     2
102
SHADEPLOTCUSTOMDPI
 70
   300
  0
XRECORD
  5
254C
102
{ACAD_REACTORS
330
254B
102
}
330
254B
100
AcDbXrecord
280
     1
102
SHADEPLOT
 70
     0
102
SHADEPLOTRESLEVEL
 70
     2
102
SHADEPLOTCUSTOMDPI
 70
   300
  0
XRECORD
  5
254A
102
{ACAD_REACTORS
330
2549
102
}
330
2549
100
AcDbXrecord
280
     1
102
SHADEPLOT
 70
     0
102
SHADEPLOTRESLEVEL
 70
     2
102
SHADEPLOTCUSTOMDPI
 70
   300
  0
XRECORD
  5
2550
102
{ACAD_REACTORS
330
254F
102
}
330
254F
100
AcDbXrecord
280
     1
102
MATERIAL
148
0.0
149
0.0
149
0.0
 93
        0
 94
       63
282
     0
 72
     1
 77
     1
171
     1
175
     1
179
     1
273
     0
  0
XRECORD
  5
254E
102
{ACAD_REACTORS
330
254D
102
}
330
254D
100
AcDbXrecord
280
     1
102
MATERIAL
148
0.0
149
0.0
149
0.0
 93
        0
 94
       63
282
     0
 72
     1
 77
     1
171
     1
175
     1
179
     1
273
     0
  0
XRECORD
  5
2552
102
{ACAD_REACTORS
330
2551
102
}
330
2551
100
AcDbXrecord
280
     1
102
MATERIAL
148
0.0
149
0.0
149
0.0
 93
        0
 94
       63
282
     0
 72
     1
 77
     1
171
     1
175
     1
179
     1
273
     0
  0
XRECORD
  5
2554
102
{ACAD_REACTORS
330
2553
102
}
330
2553
100
AcDbXrecord
280
     1
102
ACAD_ROUNDTRIP_PRE2007_TABLESTYLE
 90
      512
 91
        0
  1

 92
      512
 93
        0
  2

 94
      512
 95
        0
  3

  0
ACAD_PROXY_OBJECT
  5
100
330
EF
100
AcDbProxyObject
 90
      499
 91
      558
 95
       23
 70
     0
 93
       12
310
573F
 94
        0
1001
ACAD
1000
AcRTDxfName
1000
AMDTEDGESTANDARDDIN
  0
ACAD_PROXY_OBJECT
  5
101
330
EF
100
AcDbProxyObject
 90
      499
 91
      559
 95
       23
 70
     0
 93
       96
310
572A0E80A0280A0280A0280FE9
 94
        0
1001
ACAD
1000
AcRTDxfName
1000
ACMSURFSTANDARDDIN
  0
ACAD_PROXY_OBJECT
  5
102
330
EF
100
AcDbProxyObject
 90
      499
 91
      560
 95
       23
 70
     0
 93
      272
310
5710E4050140501405014050140501405014050140D01405012C0000000000000040DC
340
10C
 94
        0
1001
ACAD
1000
AcRTDxfName
1000
ACMFCFSTANDARDDIN
  0
ACAD_PROXY_OBJECT
  5
103
330
EF
100
AcDbProxyObject
 90
      499
 91
      561
 95
       23
 70
     0
 93
      506
310
5728666666666667A67E199999999999E99FD234050140501405014050140501405014050140501405014050140501405014050140501405014050140501407F
340
10D
 94
        0
1001
ACAD
1000
AcRTDxfName
1000
ACMWELDSTANDARDDIN
  0
ACAD_PROXY_OBJECT
  5
104
330
EF
100
AcDbProxyObject
 90
      499
 91
      562
 95
       23
 70
     0
 93
       10
310
573F
 94
        0
1001
ACAD
1000
AcRTDxfName
1000
ACMIDSTANDARDDIN
  0
ACAD_PROXY_OBJECT
  5
105
330
EF
100
AcDbProxyObject
 90
      499
 91
      563
 95
       23
 70
     0
 93
      223
310
572290EA22A7D90F49F8000000000000108140000000000000420205
340
10E
340
10F
 94
        0
1001
ACAD
1000
AcRTDxfName
1000
ACMDATUMSTANDARDDIN
  0
ACAD_PROXY_OBJECT
  5
106
330
EF
100
AcDbProxyObject
 90
      499
 91
      564
 95
       23
 70
     0
 93
    12997
310
5710E411255115350141141BDCCB90140501406901000000000000091013347454E545241434F2C4445552C302C506F732E2C47454E54524154582C25732C2847454E4D53472067656E647767203232322940690120281A8AA2CA0281A0B73D2028120280A0320200000000000012202648E8A9CA8A482869E58888AAA5860
310
5882DCF4588E8A9CA8A482A8B0584AE658508E8A9C9AA68E40CECADCC8EECE406464665280D202405044E414D45405044E616D654051C40640A80000000000004E404CD1D15395149050D3CB1111554B0C0B13985B594B11D15395149055160B095CCB0A11D1539354D1C819D95B991DD9C80C8C8D8A50190A3D504152543A
310
4E414D4540480A0A888AA686A480A1884CAE6C6D0E4CAD2C4EADCCE80A3A80C81D0000000000100A2809DA3A2A72A2920A1A7962222AA9618162132B9B1B43932B4B13AB7339623A2A72A2920AA2C1612B9961423A2A726A9A39033B2B7323BB39019189B94A034809014214D510539110549110141139BDC9B50147501904
310
A000000000000125013347454E545241434F2C4445552C302C4E6F726D2C47454E54524154582C25732C2847454E4D53472067656E64776720323138294069012028426A0AA22A924A0A62028426B0BA32B934B0B62028EA0320B4389E856BD1B822A026E8E8A9CA8A482869E58888AAA5860589AC2E8CAE4D2C2D8588E8A9
310
CA8A482A8B0584AE658508E8A9C9AA68E40CECADCC8EECE406464625280D202405044E4F54454050942656D65726B756E674051D40641A80000000000003E404E11D15395149050D3CB1111554B0C0B10995B595C9ADD5B99CB11D15395149055160B095CCB0A11D1539354D1C819D95B991DD9C80C8C8D4A501240480A0CA
310
C8A9C889EA480A1298D2CACCCAE4C2DCE880A3A80C83D00000000000007C809C23A2A72A2920A1A7962222AA9618162634B2B332B930B73A1623A2A72A2920AA2C1612B9961423A2A726A9A39033B2B7323BB39019191A14A0248090141911154D0D48C9014390995CD8DA1C995A589D5B99C80C90147501908A0000000000
310
20145013C47454E545241434F2C4445552C302C426573636872656962756E6720322C47454E54524154582C25732C2847454E4D53472067656E6477672033362940490120284A9AA20A72220A92219202832737B93690192028EA03213400000000000024A026A8E8A9CA8A482869E58888AAA5860589CDEE4DA4064588E8A
310
9CA8A482A8B0584AE658508E8A9C9AA68E40CECADCC8EECE4064646052809202405094D4154455249414C324050A4D6174657269616C20324051D40642A8713D0AD7A37045404E11D15395149050D3CB1111554B0C0B13585D195C9A585B080C8B11D15395149055160B095CCB0A11D1539354D1C819D95B991DD9C80D0C0A
310
501240480A089A82A6A680A0A9AC2E6E6CA80A3A80A0485A068100000000000007C8099A3A2A72A2920A1A7962222AA96181626B0B9B9B29623A2A72A2920AA2C1612B9961423A2A726A9A39033B2B7323BB3901A1914A0221C7AA2A8B254A082A4A8749A82A6A6809014154149250D150141541C995A5CD01475014090C40
310
9020000000000000F9013347454E545241434F2C4445552C302C50726569732C47454E54524154582C25732C2847454E4D53472067656E6477672034332940490120281A224A6A0285A0B136B2B9B9BAB733B2B72028EA028121A81A040000000000001F202728E8A9CA8A482869E58888AAA58605882C4DACAE6E6EADCCEC
310
ADC588E8A9CA8A482A8B0584AE658508E8A9C9AA68E40CECADCC8EECE406868528092024050E445020000000000000510107004060000000000000F9000000000000003E4041CF4F125511534F9014060000000000000F9000000000000003E4041CF4F125511534F9014060000000000000D100000000000000344041CF4F
310
125511534F9014060000000000000D100000000000000344041CF4F125511534F90140A4040000000000003E400000000000000F901073D3C4954454D3E405063D3C5154593E4050180000000000003E400000000000000F901073D3C4954454D3E406404000000000000003E400000000000000F900000000000000082020
310
68220681A048120280C882148448820348520348452028521485214814000000000000F0BF0000000000003C2FD01409073373333333333B0FCCDCCCCCCCCCCEC3F000000000000031012034164050341105901A0000000000000620204812028098A0280F
340
0
340
0
 94
        0
1001
ACAD
1000
AcRTDxfName
1000
ACMBOMSTANDARDDIN
  0
ACAD_PROXY_OBJECT
  5
107
330
EF
100
AcDbProxyObject
 90
      499
 91
      565
 95
       23
 70
     0
 93
      848
310
57040000000000001440484F4F11115510525317D3105091530F880F11115510525317D05094D4D0D053114F91141C9A9999999999B93F26A666666666724FC000000000000E03F4000000000000004000000000000005100000000000000244041C000000000000144001
340
16
340
FF
 94
        0
1001
ACAD
1000
AcRTDxfName
1000
ACMDETAILSTANDARDDIN
  0
ACAD_PROXY_OBJECT
  5
108
330
EF
100
AcDbProxyObject
 90
      499
 91
      566
 95
       23
 70
     0
 93
      745
310
5700B00000000000002880959E9E29A2A1AA24A7A72FA620A122A62FA324A929AA1F169E29A2A1AA24A7A72FA620A122A62FA620A9AA1F00000000000004881FF41E88A0E0000000000001220000000000000028800000000000000A207F
340
4D
340
FF
 94
        0
1001
ACAD
1000
AcRTDxfName
1000
ACMSECTIONSTANDARDDIN
  0
ACAD_PROXY_OBJECT
  5
109
330
EF
100
AcDbProxyObject
 90
      499
 91
      567
 95
       23
 70
     0
 93
      151
310
57280000000000000840A3D0A5723F0BD1F201
 94
        0
1001
ACAD
1000
AcRTDxfName
1000
ACMCENTERLINESTANDARDDIN
  0
ACAD_PROXY_OBJECT
  5
10A
330
EF
100
AcDbProxyObject
 90
      499
 91
      568
 95
       23
 70
     0
 93
       14
310
5723
340
0
 94
        0
1001
ACAD
1000
AcRTDxfName
1000
ACMTHREADLINESTANDARDDIN
  0
ACAD_PROXY_OBJECT
  5
10B
330
EF
100
AcDbProxyObject
 90
      499
 91
      569
 95
       23
 70
     0
 93
     6266
310
571084050B90142A4050240509566F726C6167652031405F13D2525633C486F6C653A63746469613E2078203C486F6C653A637464657074683E20555C503C696628657175616C28486F6C653A7461707065642C223022292C222525632220486F6C653A6469612C486F6C653A6E6F6D696E616C20696628657175616C28486
310
F6C653A7461707065642C223122292C222078202220486F6C653A54617044657074682C222229293E3C696628657175616C28486F6C653A7465726D696E6174696F6E2C223022292C696628657175616C28486F6C653A7461707065642C223022292C222078202220486F6C653A64657074682C22202F202220486F6C653A6
310
465707468292C222022293E4064050340509566F726C6167652031405F23D2525633C486F6C653A63746469613E2078203C486F6C653A6374616E676C653E2525645C503C696628657175616C28486F6C653A7461707065642C223022292C222525632220486F6C653A6469612C486F6C653A6E6F6D696E616C20696628657
310
175616C28486F6C653A7461707065642C223122292C222078202220486F6C653A54617044657074682C222229293E3C696628657175616C28486F6C653A7465726D696E6174696F6E2C223022292C696628657175616C28486F6C653A7461707065642C223022292C222078202220486F6C653A64657074682C22202F20222
310
0486F6C653A6465707468292C222022293E4064050140509566F726C6167652031405CD3D3C696628657175616C28486F6C653A7461707065642C223022292C222525632220486F6C653A6469612C486F6C653A6E6F6D696E616C20696628657175616C28486F6C653A7461707065642C223122292C222078202220486F6C6
310
53A54617044657074682C222229293E3C696628657175616C28486F6C653A7465726D696E6174696F6E2C223022292C696628657175616C28486F6C653A7461707065642C223022292C222078202220486F6C653A64657074682C22202F202220486F6C653A6465707468292C222022293E4064051E40509566F726C616765
310
20314050C3D3C535444503A444553433E40640515ABF
 94
        0
1001
ACAD
1000
AcRTDxfName
1000
ACMNOTESTANDARDDIN
  0
ACAD_PROXY_OBJECT
  5
111
330
EF
100
AcDbProxyObject
 90
      499
 91
      570
 95
       23
 70
     0
 93
       20
310
57101F
340
F0
 94
        0
1001
ACAD
1000
AcRTDxfName
1000
ACAMGLAYSTD
  0
ACAD_PROXY_OBJECT
  5
112
330
EF
100
AcDbProxyObject
 90
      499
 91
      571
 95
       23
 70
     0
 93
      250
310
571020000000000000A1000000000000002440408F0F9023C3E409A0DCFFFFBF
340
113
340
0
340
0
340
114
340
115
340
116
340
117
340
118
340
11D
340
0
 94
        0
1001
ACAD
1000
AcRTDxfName
1000
ACAMGDIMSTD
  0
ACAD_PROXY_OBJECT
  5
11E
330
EF
100
AcDbProxyObject
 90
      499
 91
      572
 95
       23
 70
     0
 93
    13899
310
5711A003FFFFFFFD03030003000000000000031000903030003000000000000031000805104B6F6F7264696E6174656E6C69737465014FD1D15395149050D3CB1111554B0C0B12DBDBDC991A5B985D195B9B1A5CDD194B11D15395149055160B095CCB0A11D1539354D1C819D95B991A5B5E880CCC0A78000C000000000000
310
00000000000000000001000000000000031010240000000000000C4040A0144909BDA1C9D5B99DCD919599A5B9A5D1A5BDB8054147454E545241434F2C4445552C302C426F6872756E6773646566696E6974696F6E2C47454E54524154582C25732C2847454E4D53472067656E64696D7A20333129E0003000000000000000
310
0000000000000000040000000000000C40409000000000000031010290D44111409034110541D0C4350F4050E44D03449074510F000142155C9CDC1C9D5B99C053647454E545241434F2C4445552C302C5572737072756E672C47454E54524154582C25732C2847454E4D53472067656E64696D7A203129000101050022140
310
002822837B99700A648E8A9CA8A482869E58888AAA586058A0DEE65C588E8A9CA8A482A8B0584AE658508E8A9C9AA68E40CECADCC8D2DAF4406452029F9E9E27B934B3B4B71F1E24A31427A91424A9A12620A7259427B934B3B4B7149624A9A12620A7259424B73232BC149496111116111711149F1E24B73232BC1F008082
310
00111A000140560052F47454E545241434F2C4445552C302C582C47454E54524154582C25732C2847454E4D53472067656E64696D7A20332900010100002054000280AC80A5E8E8A9CA8A482869E58888AAA586058B2588E8A9CA8A482A8B0584AE658508E8A9C9AA68E40CECADCC8D2DAF4406852000202000040E8000501
310
72014BD1D15395149050D3CB1111554B0C0B1C8B11D15395149055160B095CCB0A11D1539354D1C819D95B991A5B5E880D8A400040400008250000A0CAA5660686868029A23A2A72A2920A1A7962222AA9618162A95981A1A1A1623A2A72A2920AA2C1612B9961423A2A726A9A39033B2B73234B6BD101B948000808180105
310
A000140C94958C053147454E545241434F2C4445552C302C2525632C47454E54524154582C25732C2847454E4D53472067656E64696D7A203829000101010020F40002862132B9B1B43932B4B13AB73380A768E8A9CA8A482869E58888AAA58605884CAE6C6D0E4CAD2C4EADCCE588E8A9CA8A482A8B0584AE658508E8A9C9
310
AA68E40CECADCC8D2DAF440646052000200080043280005044E6F726D014CD1D15395149050D3CB1111554B0C0B139BDC9B4B11D15395149055160B095CCB0A11D1539354D1C819D95B991A5B5E880C8C4A4000400100086D0000A10AAE4E6E0E4EADCCE029B23A2A72A2920A1A7962222AA9618162AB939B8393AB7339623
310
A2A72A2920AA2C1612B9961423A2A726A9A39033B2B73234B6BD10189480A026202020A0043E8000504506F732E014CD1D15395149050D3CB1111554B0C0B141BDCCB8B11D15395149055160B095CCB0A11D1539354D1C819D95B991A5B5E880C4D0A4000404140080D0000A0A92DCC8CAF0029A23A2A72A2920A1A7962222
310
AA96181624B73232BC1623A2A72A2920AA2C1612B9961423A2A726A9A39033B2B73234B6BD10189A94800080828010EA000143909BDA1C9D5B99DCDB9D5B5B595C8053D47454E545241434F2C4445552C302C426F6872756E67736E756D6D65722C47454E54524154582C25732C2847454E4D53472067656E64696D7A20313
310
72900010105002274000283A137B4393AB73380A6C8E8A9CA8A482869E58888AAA58605884DED0E4EADCCE588E8A9CA8A482A8B0584AE658508E8A9C9AA68E40CECADCC8D2DAF440626C52000202080044A8000503517479014C91D15395149050D3CB1111554B0C0B145D1E4B11D15395149055160B095CCB0A11D1539354
310
D1C819D95B991A5B5E880C4E4A400040418008A521E000000000000001CA040C00000000000034408080000000000006881010000000000000D102040000000000001A204080000000000003440818000000000000728103000000000000125020600000000004028A04000000000000003440800000000000000488100000
310
0000000000D102000000000000001A204000000000000003440818000000000000508143C0000000000000039408180000000000006881030000000000000D102060000000000001A2040C00000000000034408180000000000006881030000000000000E5020600000000000024A040C00000000008051408000000000000
310
0068810000000000000009102000000000000001A2040000000000000034408180000000000006881030000000000000A10283A2000000087800000204000000818000002080000008280000020E00000080A24000001F
340
0
340
0
340
0
340
0
 94
        0
1001
ACAD
1000
AcRTDxfName
1000
ACAMGHOLECHARTSTDDIN
  0
ACAD_PROXY_OBJECT
  5
11F
330
EF
100
AcDbProxyObject
 90
      499
 91
      573
 95
       23
 70
     0
 93
     3762
310
5719740D1125390644494E5F41334251125397D51255131151344494E5F42525F5265766973696F6E6C6973744250F4134202832393778323130206D6D294191125397D04D11141323020283432307831313839206D6D2941D1125397D04C8C10F4133202832393778343230206D6D294191125397D04CD104133312028323
310
93778383431206D6D2941D1125397D04CCC51141333020283239377831323330206D6D2941D1125397D04CCC110413231202834323078383431206D6D2941D1125397D04C8C50F4132202834323078353934206D6D294191125397D04C910413020283834317831313839206D6D294191125397D04C10F4131202835393478
310
383431206D6D294191125397D04C5014593595D1C9A5CD8DA195CC814D8DA1C9A599D19995B1910944494E5F5449544C45411145265766973696F6E737665726D65726B5F42525F44D1125397D09497D4995D9A5CDA5BDB9B1A5CDD1145265766973696F6E737665726D65726B5F54525F44D1125397D51497D4995D9A5CDA
310
5BDB9B1A5CDD1145265766973696F6E737665726D65726B5F424C5F44D1125397D09317D4995D9A5CDA5BDB9B1A5CDD1145265766973696F6E737665726D65726B5F544C5F44D1125397D51317D4995D9A5CDA5BDB9B1A5CDD3F
 94
        0
1001
ACAD
1000
AcRTDxfName
1000
ACAMGTITLESTD
  0
ENDSEC
  0
EOF
