  0
SECTION
  2
HEADER
  9
$ACADVER
  1
AC1015
  9
$ACADMAINTVER
 70
    20
  9
$DWGCODEPAGE
  3
ANSI_1252
  9
$INSBASE
 10
0.0
 20
0.0
 30
0.0
  9
$EXTMIN
 10
-16.51553697985128
 20
-15.09823614417155
 30
-0.0015258207003583
  9
$EXTMAX
 10
313.5008314613424
 20
225.0107548747806
 30
0.0000000349246037
  9
$LIMMIN
 10
0.0
 20
0.0
  9
$LIMMAX
 10
0.0
 20
0.0
  9
$ORTHOMODE
 70
     1
  9
$REGENMODE
 70
     1
  9
$FILLMODE
 70
     1
  9
$QTEXTMODE
 70
     0
  9
$MIRRTEXT
 70
     1
  9
$LTSCALE
 40
1.0
  9
$ATTMODE
 70
     1
  9
$TEXTSIZE
 40
2.5
  9
$TRACEWID
 40
1.0
  9
$TEXTSTYLE
  7
Standard
  9
$CLAYER
  8
0
  9
$CELTYPE
  6
ByLayer
  9
$CECOLOR
 62
     7
  9
$CELTSCALE
 40
1.0
  9
$DISPSILH
 70
     0
  9
$DIMSCALE
 40
0.0
  9
$DIMASZ
 40
3.5
  9
$DIMEXO
 40
0.0
  9
$DIMDLI
 40
3.75
  9
$DIMRND
 40
0.0
  9
$DIMDLE
 40
0.0
  9
$DIMEXE
 40
2.0
  9
$DIMTP
 40
0.0
  9
$DIMTM
 40
0.0
  9
$DIMTXT
 40
3.5
  9
$DIMCEN
 40
3.5
  9
$DIMTSZ
 40
0.0
  9
$DIMTOL
 70
     0
  9
$DIMLIM
 70
     0
  9
$DIMTIH
 70
     0
  9
$DIMTOH
 70
     0
  9
$DIMSE1
 70
     0
  9
$DIMSE2
 70
     0
  9
$DIMTAD
 70
     1
  9
$DIMZIN
 70
     8
  9
$DIMBLK
  1

  9
$DIMASO
 70
     1
  9
$DIMSHO
 70
     1
  9
$DIMPOST
  1

  9
$DIMAPOST
  1

  9
$DIMALT
 70
     0
  9
$DIMALTD
 70
     4
  9
$DIMALTF
 40
0.0394
  9
$DIMLFAC
 40
1.0
  9
$DIMTOFL
 70
     1
  9
$DIMTVP
 40
0.0
  9
$DIMTIX
 70
     0
  9
$DIMSOXD
 70
     0
  9
$DIMSAH
 70
     0
  9
$DIMBLK1
  1

  9
$DIMBLK2
  1

  9
$DIMSTYLE
  2
DIN 3.5
  9
$DIMCLRD
 70
     7
  9
$DIMCLRE
 70
     7
  9
$DIMCLRT
 70
     7
  9
$DIMTFAC
 40
1.0
  9
$DIMGAP
 40
1.0
  9
$DIMJUST
 70
     0
  9
$DIMSD1
 70
     0
  9
$DIMSD2
 70
     0
  9
$DIMTOLJ
 70
     1
  9
$DIMTZIN
 70
     0
  9
$DIMALTZ
 70
     8
  9
$DIMALTTZ
 70
     0
  9
$DIMUPT
 70
     0
  9
$DIMDEC
 70
     1
  9
$DIMTDEC
 70
     1
  9
$DIMALTU
 70
     8
  9
$DIMALTTD
 70
     4
  9
$DIMTXSTY
  7
Standard
  9
$DIMAUNIT
 70
     0
  9
$DIMADEC
 70
     1
  9
$DIMALTRND
 40
0.0
  9
$DIMAZIN
 70
     2
  9
$DIMDSEP
 70
    46
  9
$DIMATFIT
 70
     3
  9
$DIMFRAC
 70
     0
  9
$DIMLDRBLK
  1

  9
$DIMLUNIT
 70
     6
  9
$DIMLWD
 70
    13
  9
$DIMLWE
 70
    13
  9
$DIMTMOVE
 70
     0
  9
$LUNITS
 70
     2
  9
$LUPREC
 70
     2
  9
$SKETCHINC
 40
1.0
  9
$FILLETRAD
 40
0.0
  9
$AUNITS
 70
     0
  9
$AUPREC
 70
     0
  9
$MENU
  1
.
  9
$ELEVATION
 40
0.0
  9
$PELEVATION
 40
0.0
  9
$THICKNESS
 40
0.0
  9
$LIMCHECK
 70
     0
  9
$CHAMFERA
 40
10.0
  9
$CHAMFERB
 40
10.0
  9
$CHAMFERC
 40
20.0
  9
$CHAMFERD
 40
0.0
  9
$SKPOLY
 70
     0
  9
$TDCREATE
 40
2454454.378057118
  9
$TDUCREATE
 40
2454454.336390452
  9
$TDUPDATE
 40
2454454.714113901
  9
$TDUUPDATE
 40
2454454.672447234
  9
$TDINDWG
 40
0.3321411574
  9
$TDUSRTIMER
 40
0.3321409722
  9
$USRTIMER
 70
     1
  9
$ANGBASE
 50
0.0
  9
$ANGDIR
 70
     0
  9
$PDMODE
 70
     0
  9
$PDSIZE
 40
-1.0
  9
$PLINEWID
 40
0.0
  9
$SPLFRAME
 70
     0
  9
$SPLINETYPE
 70
     6
  9
$SPLINESEGS
 70
     8
  9
$HANDSEED
  5
6A4
  9
$SURFTAB1
 70
     6
  9
$SURFTAB2
 70
     6
  9
$SURFTYPE
 70
     6
  9
$SURFU
 70
     6
  9
$SURFV
 70
     6
  9
$UCSBASE
  2

  9
$UCSNAME
  2

  9
$UCSORG
 10
0.0
 20
0.0
 30
0.0
  9
$UCSXDIR
 10
1.0
 20
0.0
 30
0.0
  9
$UCSYDIR
 10
0.0
 20
1.0
 30
0.0
  9
$UCSORTHOREF
  2

  9
$UCSORTHOVIEW
 70
     0
  9
$UCSORGTOP
 10
0.0
 20
0.0
 30
0.0
  9
$UCSORGBOTTOM
 10
0.0
 20
0.0
 30
0.0
  9
$UCSORGLEFT
 10
0.0
 20
0.0
 30
0.0
  9
$UCSORGRIGHT
 10
0.0
 20
0.0
 30
0.0
  9
$UCSORGFRONT
 10
0.0
 20
0.0
 30
0.0
  9
$UCSORGBACK
 10
0.0
 20
0.0
 30
0.0
  9
$PUCSBASE
  2

  9
$PUCSNAME
  2

  9
$PUCSORG
 10
0.0
 20
0.0
 30
0.0
  9
$PUCSXDIR
 10
1.0
 20
0.0
 30
0.0
  9
$PUCSYDIR
 10
0.0
 20
1.0
 30
0.0
  9
$PUCSORTHOREF
  2

  9
$PUCSORTHOVIEW
 70
     0
  9
$PUCSORGTOP
 10
0.0
 20
0.0
 30
0.0
  9
$PUCSORGBOTTOM
 10
0.0
 20
0.0
 30
0.0
  9
$PUCSORGLEFT
 10
0.0
 20
0.0
 30
0.0
  9
$PUCSORGRIGHT
 10
0.0
 20
0.0
 30
0.0
  9
$PUCSORGFRONT
 10
0.0
 20
0.0
 30
0.0
  9
$PUCSORGBACK
 10
0.0
 20
0.0
 30
0.0
  9
$USERI1
 70
     0
  9
$USERI2
 70
     0
  9
$USERI3
 70
     0
  9
$USERI4
 70
     0
  9
$USERI5
 70
     0
  9
$USERR1
 40
0.0
  9
$USERR2
 40
0.0
  9
$USERR3
 40
0.0
  9
$USERR4
 40
0.0
  9
$USERR5
 40
0.0
  9
$WORLDVIEW
 70
     1
  9
$SHADEDGE
 70
     3
  9
$SHADEDIF
 70
    70
  9
$TILEMODE
 70
     1
  9
$MAXACTVP
 70
    64
  9
$PINSBASE
 10
0.0
 20
0.0
 30
0.0
  9
$PLIMCHECK
 70
     0
  9
$PEXTMIN
 10
1.000000000000000E+20
 20
1.000000000000000E+20
 30
1.000000000000000E+20
  9
$PEXTMAX
 10
-1.000000000000000E+20
 20
-1.000000000000000E+20
 30
-1.000000000000000E+20
  9
$PLIMMIN
 10
0.0
 20
0.0
  9
$PLIMMAX
 10
420.0
 20
297.0
  9
$UNITMODE
 70
     0
  9
$VISRETAIN
 70
     1
  9
$PLINEGEN
 70
     0
  9
$PSLTSCALE
 70
     1
  9
$TREEDEPTH
 70
  3020
  9
$CMLSTYLE
  2
Standard
  9
$CMLJUST
 70
     0
  9
$CMLSCALE
 40
20.0
  9
$PROXYGRAPHICS
 70
     1
  9
$MEASUREMENT
 70
     1
  9
$CELWEIGHT
370
    15
  9
$ENDCAPS
280
     0
  9
$JOINSTYLE
280
     0
  9
$LWDISPLAY
290
     1
  9
$INSUNITS
 70
     4
  9
$HYPERLINKBASE
  1

  9
$STYLESHEET
  1

  9
$XEDIT
290
     1
  9
$CEPSNTYPE
380
     0
  9
$PSTYLEMODE
290
     1
  9
$FINGERPRINTGUID
  2
{10FDDAE8-86A6-49AA-8C51-295BEC69D399}
  9
$VERSIONGUID
  2
{34C0829D-4B34-469F-9EF8-6EAD2A8D6F68}
  9
$EXTNAMES
290
     1
  9
$PSVPSCALE
 40
0.0
  9
$OLESTARTUP
290
     0
  0
ENDSEC
  0
SECTION
  2
CLASSES
  0
CLASS
  1
ACDBDICTIONARYWDFLT
  2
AcDbDictionaryWithDefault
  3
ObjectDBX Classes
 90
        0
280
     0
281
     0
  0
CLASS
  1
ACDBPLACEHOLDER
  2
AcDbPlaceHolder
  3
ObjectDBX Classes
 90
        0
280
     0
281
     0
  0
CLASS
  1
LAYOUT
  2
AcDbLayout
  3
ObjectDBX Classes
 90
        0
280
     0
281
     0
  0
CLASS
  1
MATERIAL
  2
AcDbMaterial
  3
ObjectDBX Classes
 90
     1153
280
     0
281
     0
  0
CLASS
  1
VISUALSTYLE
  2
AcDbVisualStyle
  3
ObjectDBX Classes
 90
     4095
280
     0
281
     0
  0
CLASS
  1
TABLESTYLE
  2
AcDbTableStyle
  3
ObjectDBX Classes
 90
     4095
280
     0
281
     0
  0
CLASS
  1
DICTIONARYVAR
  2
AcDbDictionaryVar
  3
ObjectDBX Classes
 90
        0
280
     0
281
     0
  0
CLASS
  1
SORTENTSTABLE
  2
AcDbSortentsTable
  3
ObjectDBX Classes
 90
        0
280
     0
281
     0
  0
ENDSEC
  0
SECTION
  2
TABLES
  0
TABLE
  2
VPORT
  5
8
330
0
100
AcDbSymbolTable
 70
     1
  0
VPORT
  5
29
330
8
100
AcDbSymbolTableRecord
100
AcDbViewportTableRecord
  2
*Active
 70
     0
 10
0.0
 20
0.0
 11
1.0
 21
1.0
 12
148.4926472407455
 22
104.9562593653045
 13
0.0
 23
0.0
 14
10.0
 24
10.0
 15
10.0
 25
10.0
 16
0.0
 26
0.0
 36
1.0
 17
0.0
 27
0.0
 37
0.0
 40
241.6886554335505
 41
2.045005488474204
 42
50.0
 43
0.0
 44
0.0
 50
0.0
 51
0.0
 71
     0
 72
  2000
 73
     1
 74
     3
 75
     0
 76
     0
 77
     0
 78
     0
281
     0
 65
     1
110
0.0
120
0.0
130
0.0
111
1.0
121
0.0
131
0.0
112
0.0
122
1.0
132
0.0
 79
     0
146
0.0
  0
ENDTAB
  0
TABLE
  2
LTYPE
  5
5
330
0
100
AcDbSymbolTable
 70
    21
  0
LTYPE
  5
14
330
5
100
AcDbSymbolTableRecord
100
AcDbLinetypeTableRecord
  2
ByBlock
 70
     0
  3

 72
    65
 73
     0
 40
0.0
  0
LTYPE
  5
15
330
5
100
AcDbSymbolTableRecord
100
AcDbLinetypeTableRecord
  2
ByLayer
 70
     0
  3

 72
    65
 73
     0
 40
0.0
  0
LTYPE
  5
16
330
5
100
AcDbSymbolTableRecord
100
AcDbLinetypeTableRecord
  2
Continuous
 70
     0
  3
Solid line
 72
    65
 73
     0
 40
0.0
  0
LTYPE
  5
1B9
330
5
100
AcDbSymbolTableRecord
100
AcDbLinetypeTableRecord
  2
AM_DIN_G_W050
 70
     0
  3
____ . ____ . ____ . ____ . ____ . ____ . ____
 72
    65
 73
     4
 40
13.75
 49
9.75
 74
     0
 49
-1.5
 74
     0
 49
1.0
 74
     0
 49
-1.5
 74
     0
  0
LTYPE
  5
1BA
330
5
100
AcDbSymbolTableRecord
100
AcDbLinetypeTableRecord
  2
AM_DIN_K_W050
 70
     0
  3
_____ . . _____ . . _____ . . ____ .. ____
 72
    65
 73
     6
 40
16.25
 49
9.75
 74
     0
 49
-1.5
 74
     0
 49
1.0
 74
     0
 49
-1.5
 74
     0
 49
1.0
 74
     0
 49
-1.5
 74
     0
  0
LTYPE
  5
1C0
330
5
100
AcDbSymbolTableRecord
100
AcDbLinetypeTableRecord
  2
ACAD_ISO10W100
 70
     0
  3
ISO Strichpunktlinie __ . __ . __ . __ . __ . _
 72
    65
 73
     4
 40
18.0
 49
12.0
 74
     0
 49
-3.0
 74
     0
 49
0.0
 74
     0
 49
-3.0
 74
     0
  0
ENDTAB
  0
TABLE
  2
LAYER
  5
2
330
0
100
AcDbSymbolTable
 70
    56
  0
LAYER
  5
10
330
2
100
AcDbSymbolTableRecord
100
AcDbLayerTableRecord
  2
0
 70
     0
 62
     7
  6
Continuous
370
    -3
390
F
  0
LAYER
  5
1C3
330
2
100
AcDbSymbolTableRecord
100
AcDbLayerTableRecord
  2
90100_FRAME_THICK
 70
     0
 62
     7
  6
Continuous
370
    50
390
F
  0
LAYER
  5
1C4
330
2
100
AcDbSymbolTableRecord
100
AcDbLayerTableRecord
  2
90000_FRAME_THIN
 70
     0
 62
     7
  6
Continuous
370
    13
390
F
  0
LAYER
  5
1C5
330
2
100
AcDbSymbolTableRecord
100
AcDbLayerTableRecord
  2
90200_FRAME_SIZE
 70
     0
 62
     3
  6
AM_DIN_K_W050
370
    13
390
F
  0
LAYER
  5
1C6
330
2
100
AcDbSymbolTableRecord
100
AcDbLayerTableRecord
  2
92000_TITLE
 70
     0
 62
     7
  6
Continuous
370
    13
390
F
  0
LAYER
  5
1C7
330
2
100
AcDbSymbolTableRecord
100
AcDbLayerTableRecord
  2
91100_TIP_SYM
 70
     0
 62
     7
  6
AM_DIN_G_W050
370
    25
390
F
  0
LAYER
  5
1C8
330
2
100
AcDbSymbolTableRecord
100
AcDbLayerTableRecord
  2
Defpoints
 70
     0
 62
     7
  6
Continuous
290
     0
370
    -3
390
F
  0
LAYER
  5
1C9
330
2
100
AcDbSymbolTableRecord
100
AcDbLayerTableRecord
  2
91000_TIP
 70
     0
 62
     7
  6
Continuous
370
    13
390
F
  0
LAYER
  5
1CA
330
2
100
AcDbSymbolTableRecord
100
AcDbLayerTableRecord
  2
91200_TIP_SYMB
 70
     0
 62
     7
  6
Continuous
370
    -3
390
F
  0
LAYER
  5
1CB
330
2
100
AcDbSymbolTableRecord
100
AcDbLayerTableRecord
  2
10000_FRONT
 70
     0
 62
     7
  6
Continuous
370
    50
390
F
  0
LAYER
  5
1CC
330
2
100
AcDbSymbolTableRecord
100
AcDbLayerTableRecord
  2
11000_LEFT
 70
     0
 62
     7
  6
Continuous
370
    50
390
F
  0
LAYER
  5
1D4
330
2
100
AcDbSymbolTableRecord
100
AcDbLayerTableRecord
  2
10100_FRONT_DIM
 70
     0
 62
     7
  6
Continuous
370
    13
390
F
  0
LAYER
  5
1D5
330
2
100
AcDbSymbolTableRecord
100
AcDbLayerTableRecord
  2
11100_LEFT_DIM
 70
     0
 62
     7
  6
Continuous
370
    13
390
F
  0
LAYER
  5
1DB
330
2
100
AcDbSymbolTableRecord
100
AcDbLayerTableRecord
  2
10200_FRONT_SYM
 70
     0
 62
     7
  6
ACAD_ISO10W100
370
    13
390
F
  0
LAYER
  5
1DC
330
2
100
AcDbSymbolTableRecord
100
AcDbLayerTableRecord
  2
11200_LEFT_SYM
 70
     0
 62
     7
  6
ACAD_ISO10W100
370
    13
390
F
  0
ENDTAB
  0
TABLE
  2
STYLE
  5
3
330
0
100
AcDbSymbolTable
 70
     4
  0
STYLE
  5
11
330
3
100
AcDbSymbolTableRecord
100
AcDbTextStyleTableRecord
  2
Standard
 70
     0
 40
0.0
 41
1.0
 50
0.0
 71
     0
 42
2.5
  3
txt
  4

  0
ENDTAB
  0
TABLE
  2
VIEW
  5
6
330
0
100
AcDbSymbolTable
 70
     0
  0
ENDTAB
  0
TABLE
  2
UCS
  5
7
330
0
100
AcDbSymbolTable
 70
     0
  0
ENDTAB
  0
TABLE
  2
APPID
  5
9
330
0
100
AcDbSymbolTable
 70
    18
  0
APPID
  5
12
330
9
100
AcDbSymbolTableRecord
100
AcDbRegAppTableRecord
  2
ACAD
 70
     0
  0
APPID
  5
207
330
9
100
AcDbSymbolTableRecord
100
AcDbRegAppTableRecord
  2
MCAD_NO_VIS
 70
     0
  0
APPID
  5
208
330
9
100
AcDbSymbolTableRecord
100
AcDbRegAppTableRecord
  2
ACAD_TEMP_GRAPHIC
 70
     0
  0
APPID
  5
209
330
9
100
AcDbSymbolTableRecord
100
AcDbRegAppTableRecord
  2
AD_DRAW
 70
     0
  0
APPID
  5
20A
330
9
100
AcDbSymbolTableRecord
100
AcDbRegAppTableRecord
  2
ACATTRIBSERVICES
 70
     0
  0
APPID
  5
20B
330
9
100
AcDbSymbolTableRecord
100
AcDbRegAppTableRecord
  2
GENIUS_GENDIM_13
 70
     0
  0
APPID
  5
20C
330
9
100
AcDbSymbolTableRecord
100
AcDbRegAppTableRecord
  2
GENIUS_GENDTOL_13
 70
     0
  0
APPID
  5
20D
330
9
100
AcDbSymbolTableRecord
100
AcDbRegAppTableRecord
  2
GENIUS_GE3DTOL_13
 70
     0
  0
APPID
  5
20E
330
9
100
AcDbSymbolTableRecord
100
AcDbRegAppTableRecord
  2
ASURF_PCURVE_APPNAME
 70
     0
  0
APPID
  5
20F
330
9
100
AcDbSymbolTableRecord
100
AcDbRegAppTableRecord
  2
AMG_3D2D_5.0
 70
     0
  0
APPID
  5
210
330
9
100
AcDbSymbolTableRecord
100
AcDbRegAppTableRecord
  2
DESIGNERASSEMBLIES
 70
     0
  0
APPID
  5
211
330
9
100
AcDbSymbolTableRecord
100
AcDbRegAppTableRecord
  2
ACADM_DIM_EDIT
 70
     0
  0
APPID
  5
212
330
9
100
AcDbSymbolTableRecord
100
AcDbRegAppTableRecord
  2
AMDT_DM_ADJ
 70
     0
  0
APPID
  5
213
330
9
100
AcDbSymbolTableRecord
100
AcDbRegAppTableRecord
  2
GENIUS_GENREC_14
 70
     0
  0
APPID
  5
214
330
9
100
AcDbSymbolTableRecord
100
AcDbRegAppTableRecord
  2
GENIUS_GENODEF_13
 70
     0
  0
APPID
  5
215
330
9
100
AcDbSymbolTableRecord
100
AcDbRegAppTableRecord
  2
GENIUS_GENOBJ-N-REC_13
 70
     0
  0
APPID
  5
216
330
9
100
AcDbSymbolTableRecord
100
AcDbRegAppTableRecord
  2
DCO15
 70
     0
  0
APPID
  5
2F9
330
9
100
AcDbSymbolTableRecord
100
AcDbRegAppTableRecord
  2
ACAD_EXEMPT_FROM_CAD_STANDARDS
 70
     0
  0
ENDTAB
  0
TABLE
  2
DIMSTYLE
  5
A
330
0
100
AcDbSymbolTable
 70
    12
100
AcDbDimStyleTable
 71
     1
340
205
  0
DIMSTYLE
105
205
102
{ACAD_REACTORS
330
30C
330
346
330
365
330
38A
330
3E0
330
42A
330
512
330
53E
330
528
330
4F3
330
4B9
330
476
330
5A5
330
5E8
330
611
102
}
330
A
100
AcDbSymbolTableRecord
100
AcDbDimStyleTableRecord
  2
DIN 3.5
 70
     0
 40
0.0
 41
3.5
 42
0.0
 43
3.75
 44
2.0
 73
     0
 74
     0
 77
     1
 78
     8
 79
     2
140
3.5
141
3.5
143
0.0394
147
1.0
171
     4
172
     1
176
     7
177
     7
178
     7
179
     1
271
     1
272
     1
273
     8
274
     4
277
     6
285
     8
340
11
371
    13
372
    13
  0
ENDTAB
  0
TABLE
  2
BLOCK_RECORD
  5
1
330
0
100
AcDbSymbolTable
 70
    27
  0
BLOCK_RECORD
  5
1F
102
{ACAD_XDICTIONARY
360
2CC
102
}
330
1
100
AcDbSymbolTableRecord
100
AcDbBlockTableRecord
  2
*Model_Space
340
22
  0
BLOCK_RECORD
  5
1B
330
1
100
AcDbSymbolTableRecord
100
AcDbBlockTableRecord
  2
*Paper_Space
340
1E
  0
BLOCK_RECORD
  5
23
330
1
100
AcDbSymbolTableRecord
100
AcDbBlockTableRecord
  2
*Paper_Space0
340
26
  0
BLOCK_RECORD
  5
121
330
1
100
AcDbSymbolTableRecord
100
AcDbBlockTableRecord
  2
Title_A4L
340
0
310
2800000020000000200000000100080000000000000400000000000000000000000000000000000000000000000080000080000000808000800000008000800080800000C0C0C000C0DCC000F0CAA6000020400000206000002080000020A0000020C0000020E00000400000004020000040400000406000004080000040A0
310
000040C0000040E00000600000006020000060400000606000006080000060A0000060C0000060E00000800000008020000080400000806000008080000080A0000080C0000080E00000A0000000A0200000A0400000A0600000A0800000A0A00000A0C00000A0E00000C0000000C0200000C0400000C0600000C0800000C0
310
A00000C0C00000C0E00000E0000000E0200000E0400000E0600000E0800000E0A00000E0C00000E0E00040000000400020004000400040006000400080004000A0004000C0004000E00040200000402020004020400040206000402080004020A0004020C0004020E000404000004040200040404000404060004040800040
310
40A0004040C0004040E00040600000406020004060400040606000406080004060A0004060C0004060E00040800000408020004080400040806000408080004080A0004080C0004080E00040A0000040A0200040A0400040A0600040A0800040A0A00040A0C00040A0E00040C0000040C0200040C0400040C0600040C08000
310
40C0A00040C0C00040C0E00040E0000040E0200040E0400040E0600040E0800040E0A00040E0C00040E0E00080000000800020008000400080006000800080008000A0008000C0008000E00080200000802020008020400080206000802080008020A0008020C0008020E00080400000804020008040400080406000804080
310
008040A0008040C0008040E00080600000806020008060400080606000806080008060A0008060C0008060E00080800000808020008080400080806000808080008080A0008080C0008080E00080A0000080A0200080A0400080A0600080A0800080A0A00080A0C00080A0E00080C0000080C0200080C0400080C0600080C0
310
800080C0A00080C0C00080C0E00080E0000080E0200080E0400080E0600080E0800080E0A00080E0C00080E0E000C0000000C0002000C0004000C0006000C0008000C000A000C000C000C000E000C0200000C0202000C0204000C0206000C0208000C020A000C020C000C020E000C0400000C0402000C0404000C0406000C0
310
408000C040A000C040C000C040E000C0600000C0602000C0604000C0606000C0608000C060A000C060C000C060E000C0800000C0802000C0804000C0806000C0808000C080A000C080C000C080E000C0A00000C0A02000C0A04000C0A06000C0A08000C0A0A000C0A0C000C0A0E000C0C00000C0C02000C0C04000C0C06000
310
C0C08000C0C0A000F0FBFF00A4A0A000808080000000FF0000FF000000FFFF00FF000000FF00FF00FFFF0000FFFFFF0000000000000000000000000000000000000000000000000000000000000000000000000000000000000000000000000000000000000000000000000000000000000000000000000000000000000000
310
00000000000000000000000000000000000000000000000000000000000000000000000000000000000000000000000000000000000000000000000000000000000000000000000000000000000000000000000000000000000000000000000000000000000000000000000000000000000000000000000000000000000000
310
00000000000000000000000000000000000000000000000000000000000000000000000000000000000000000000000000000000000000000000000000000000000000000000000000000000000000000000000000000000000000000000000000000000000000000000000000000000000000000000000000000000000000
310
000000000000000000000000000000000000000000000000000000000000000000000000000000000000000000000000000000000000000000000000000000000000000000000000000000000000000000000000000000000000FFFFFFFFFFFFFFFFFFFFFFFFFFFFFFFFFFFFFFFFFFFFFFFF000000FFFFFFFFFFFFFFFFFFFF
310
FFFFFFFFFFFFFFFFFFFFFFFFFFFFFFFFFFFFFF0000FFFFFFFFFFFFFFFFFFFFFFFFFFFFFF00000000FFFFFFFFFFFFFF000000FF00000000FFFFFF00FFFFFFFFFFFFFFFFFFFFFFFFFFFFFFFFFFFFFFFFFFFFFFFF0000000000000000FFFFFFFFFFFFFFFFFFFFFFFFFFFFFFFF00000000000000000000000000000000FFFFFF00
310
0000FFFFFFFFFFFFFF00FF0000000000000000000000000000000000000000000000000000000000000000000000000000000000000000000000000000000000000000000000000000000000000000000000000000000000000000000000000000000000000000000000000000000000000000000000000000000000000000
310
00000000000000000000000000000000000000000000000000000000000000000000000000000000000000000000000000000000000000000000000000000000000000000000000000000000000000000000000000000000000000000000000000000000000000000000000000000000000000000000000000000000000000
310
00000000000000000000000000000000000000000000000000000000000000000000000000000000000000000000000000000000000000000000000000000000000000000000000000000000000000000000000000000000000000000000000000000000000000000000000000000000000000000000000000000000000000
310
0000000000000000000000000000000000000000000000000000000000000000000000000000000000000000000000000000000000000000
102
{BLKREFS
331
242
331
24E
331
267
331
2A1
102
}
1001
ACAD
1000
DesignCenter Data
1002
{
1070
     1
1070
     4
1002
}
  0
BLOCK_RECORD
  5
30D
330
1
100
AcDbSymbolTableRecord
100
AcDbBlockTableRecord
  2
*D11
340
0
  0
BLOCK_RECORD
  5
347
330
1
100
AcDbSymbolTableRecord
100
AcDbBlockTableRecord
  2
*D12
340
0
  0
BLOCK_RECORD
  5
366
330
1
100
AcDbSymbolTableRecord
100
AcDbBlockTableRecord
  2
*D13
340
0
  0
BLOCK_RECORD
  5
38B
330
1
100
AcDbSymbolTableRecord
100
AcDbBlockTableRecord
  2
*D14
340
0
  0
BLOCK_RECORD
  5
3EF
330
1
100
AcDbSymbolTableRecord
100
AcDbBlockTableRecord
  2
*D16
340
0
  0
BLOCK_RECORD
  5
42B
330
1
100
AcDbSymbolTableRecord
100
AcDbBlockTableRecord
  2
*D17
340
0
  0
BLOCK_RECORD
  5
477
330
1
100
AcDbSymbolTableRecord
100
AcDbBlockTableRecord
  2
*D18
340
0
  0
BLOCK_RECORD
  5
4BA
330
1
100
AcDbSymbolTableRecord
100
AcDbBlockTableRecord
  2
*D19
340
0
  0
BLOCK_RECORD
  5
4F4
330
1
100
AcDbSymbolTableRecord
100
AcDbBlockTableRecord
  2
*D20
340
0
  0
BLOCK_RECORD
  5
513
330
1
100
AcDbSymbolTableRecord
100
AcDbBlockTableRecord
  2
*D21
340
0
  0
BLOCK_RECORD
  5
529
330
1
100
AcDbSymbolTableRecord
100
AcDbBlockTableRecord
  2
*D22
340
0
  0
BLOCK_RECORD
  5
53F
330
1
100
AcDbSymbolTableRecord
100
AcDbBlockTableRecord
  2
*D23
340
0
  0
BLOCK_RECORD
  5
5A6
330
1
100
AcDbSymbolTableRecord
100
AcDbBlockTableRecord
  2
*D24
340
0
  0
BLOCK_RECORD
  5
5E9
330
1
100
AcDbSymbolTableRecord
100
AcDbBlockTableRecord
  2
*D25
340
0
  0
BLOCK_RECORD
  5
612
330
1
100
AcDbSymbolTableRecord
100
AcDbBlockTableRecord
  2
*D26
340
0
  0
ENDTAB
  0
ENDSEC
  0
SECTION
  2
BLOCKS
  0
BLOCK
  5
20
330
1F
100
AcDbEntity
  8
0
100
AcDbBlockBegin
  2
*Model_Space
 70
     0
 10
0.0
 20
0.0
 30
0.0
  3
*Model_Space
  1

  0
ENDBLK
  5
21
330
1F
100
AcDbEntity
  8
0
100
AcDbBlockEnd
  0
BLOCK
  5
1C
330
1B
100
AcDbEntity
 67
     1
  8
0
100
AcDbBlockBegin
  2
*Paper_Space
 70
     0
 10
0.0
 20
0.0
 30
0.0
  3
*Paper_Space
  1

  0
ENDBLK
  5
1D
330
1B
100
AcDbEntity
 67
     1
  8
0
100
AcDbBlockEnd
  0
BLOCK
  5
24
330
23
100
AcDbEntity
 67
     1
  8
0
100
AcDbBlockBegin
  2
*Paper_Space0
 70
     0
 10
0.0
 20
0.0
 30
0.0
  3
*Paper_Space0
  1

  0
ENDBLK
  5
25
330
23
100
AcDbEntity
 67
     1
  8
0
100
AcDbBlockEnd
  0
BLOCK
  5
122
330
121
100
AcDbEntity
  8
0
100
AcDbBlockBegin
  2
Title_A4L
 70
     2
 10
0.0
 20
0.0
 30
0.0
  3
Title_A4L
  1

  4
Schriftfeld A4 quer
  0
MTEXT
  5
123
330
121
100
AcDbEntity
  8
92000_TITLE
100
AcDbMText
 10
-110.0
 20
12.0
 30
0.0
 40
3.5
 41
40.0
 71
     5
 72
     5
  1
{\fSiemens Logo|b0|i0|c0|p2;s}
 73
     1
 44
1.0
1001
ACAD
1000
MTEXTBEGIN
1070
    73
1070
     1
1070
    44
1040
1.0
1070
    74
1070
     0
1000
MTEXTEND
  0
LINE
  5
124
330
121
100
AcDbEntity
  8
92000_TITLE
100
AcDbLine
 10
-135.0
 20
0.0
 30
0.0
 11
0.0
 21
0.0
 31
0.0
1001
GENIUS_GENREC_14
1002
{
1000
PYDIR
1011
-135.0
1021
18.0
1031
0.0
1002
}
1002
{
1000
PXDIR
1011
0.0
1021
0.0
1031
0.0
1002
}
1002
{
1000
PORI
1011
-135.0
1021
0.0
1031
0.0
1002
}
1002
{
1000
PINS
1011
-135.0
1021
0.0
1031
0.0
1002
}
1002
{
1000
HVAL
1000
18
1002
}
1002
{
1000
H
1070
     2
1002
}
1002
{
1000
WVAL
1000
135
1002
}
1002
{
1000
W
1070
     2
1002
}
1002
{
1000
C
1070
     1
1002
}
1001
GENIUS_GENOBJ-N-REC_13
1002
{
1000
OWNER
1000
GEN
1002
}
1001
GENIUS_GENODEF_13
1002
{
1000
HIER
1070
     0
1002
}
1002
{
1000
MANEDIT
1070
     0
1002
}
1002
{
1000
NOSEL
1070
     0
1002
}
1002
{
1000
BEHIND
1070
     0
1002
}
1002
{
1000
OTHER
1070
     0
1002
}
1002
{
1000
REACTOR
1002
}
  0
LINE
  5
125
330
121
100
AcDbEntity
  8
92000_TITLE
100
AcDbLine
 10
0.0
 20
18.0
 30
0.0
 11
-135.0
 21
18.0
 31
0.0
1001
GENIUS_GENREC_14
1002
{
1000
PYDIR
1011
-135.0
1021
18.0
1031
0.0
1002
}
1002
{
1000
PXDIR
1011
0.0
1021
0.0
1031
0.0
1002
}
1002
{
1000
PORI
1011
-135.0
1021
0.0
1031
0.0
1002
}
1002
{
1000
PINS
1011
-135.0
1021
0.0
1031
0.0
1002
}
1002
{
1000
HVAL
1000
18
1002
}
1002
{
1000
H
1070
     2
1002
}
1002
{
1000
WVAL
1000
135
1002
}
1002
{
1000
W
1070
     2
1002
}
1002
{
1000
C
1070
     1
1002
}
1001
GENIUS_GENOBJ-N-REC_13
1002
{
1000
OWNER
1000
GEN
1002
}
1001
GENIUS_GENODEF_13
1002
{
1000
HIER
1070
     0
1002
}
1002
{
1000
MANEDIT
1070
     0
1002
}
1002
{
1000
NOSEL
1070
     0
1002
}
1002
{
1000
BEHIND
1070
     0
1002
}
1002
{
1000
OTHER
1070
     0
1002
}
1002
{
1000
REACTOR
1002
}
  0
LINE
  5
126
330
121
100
AcDbEntity
  8
92000_TITLE
100
AcDbLine
 10
0.0
 20
6.0
 30
0.0
 11
-135.0
 21
6.0
 31
0.0
1001
GENIUS_GENREC_14
1002
{
1000
PYDIR
1011
-135.0
1021
18.0
1031
0.0
1002
}
1002
{
1000
PXDIR
1011
0.0
1021
0.0
1031
0.0
1002
}
1002
{
1000
PORI
1011
-135.0
1021
0.0
1031
0.0
1002
}
1002
{
1000
PINS
1011
-135.0
1021
0.0
1031
0.0
1002
}
1002
{
1000
HVAL
1000
18
1002
}
1002
{
1000
H
1070
     2
1002
}
1002
{
1000
WVAL
1000
135
1002
}
1002
{
1000
W
1070
     2
1002
}
1002
{
1000
C
1070
     1
1002
}
1001
GENIUS_GENOBJ-N-REC_13
1002
{
1000
OWNER
1000
GEN
1002
}
1001
GENIUS_GENODEF_13
1002
{
1000
HIER
1070
     0
1002
}
1002
{
1000
MANEDIT
1070
     0
1002
}
1002
{
1000
NOSEL
1070
     0
1002
}
1002
{
1000
BEHIND
1070
     0
1002
}
1002
{
1000
OTHER
1070
     0
1002
}
1002
{
1000
REACTOR
1002
}
  0
TEXT
  5
127
330
121
100
AcDbEntity
  8
91000_TIP
  6
Continuous
 62
     7
100
AcDbText
 10
-134.9906185411919
 20
23.07158622517954
 30
0.0
 40
2.2
  1
Alle Bemassungswerte sind in Millimeter (mm) angegeben.
 41
0.8250311332499995
 72
     5
 11
-46.65728520789184
 21
23.07158622517954
 31
0.0
100
AcDbText
  0
TEXT
  5
128
330
121
100
AcDbEntity
  8
91000_TIP
  6
Continuous
 62
     7
100
AcDbText
 10
-134.9906185411919
 20
19.9425638213338
 30
0.0
 40
2.2
  1
All dimensions are in millimeters (mm)
 41
0.9608678382598306
 72
     5
 11
-68.05015914242381
 21
19.9425638213338
 31
0.0
100
AcDbText
  0
LINE
  5
129
330
121
100
AcDbEntity
  8
91100_TIP_SYM
 48
0.5
100
AcDbLine
 10
-169.5
 20
9.0
 30
0.0
 11
-140.5
 21
9.0
 31
0.0
  0
LINE
  5
12A
330
121
100
AcDbEntity
  8
91200_TIP_SYMB
100
AcDbLine
 10
-155.0
 20
4.0
 30
0.0
 11
-167.5
 21
5.5
 31
0.0
  0
LINE
  5
12B
330
121
100
AcDbEntity
  8
91200_TIP_SYMB
100
AcDbLine
 10
-167.5
 20
12.5
 30
0.0
 11
-155.0
 21
14.0
 31
0.0
  0
LINE
  5
12C
330
121
100
AcDbEntity
  8
91200_TIP_SYMB
100
AcDbLine
 10
-167.5
 20
5.5
 30
0.0
 11
-167.5
 21
12.5
 31
0.0
  0
CIRCLE
  5
12D
330
121
100
AcDbEntity
  8
91200_TIP_SYMB
100
AcDbCircle
 10
-147.5
 20
9.0
 30
0.0
 40
5.0
  0
LINE
  5
12E
330
121
100
AcDbEntity
  8
91200_TIP_SYMB
100
AcDbLine
 10
-155.0
 20
14.0
 30
0.0
 11
-155.0
 21
4.0
 31
0.0
  0
CIRCLE
  5
12F
330
121
100
AcDbEntity
  8
91200_TIP_SYMB
100
AcDbCircle
 10
-147.5
 20
9.0
 30
0.0
 40
2.0
  0
LINE
  5
130
330
121
100
AcDbEntity
  8
91100_TIP_SYM
 48
0.5
100
AcDbLine
 10
-147.5
 20
16.0
 30
0.0
 11
-147.5
 21
2.0
 31
0.0
  0
ATTDEF
  5
131
330
121
100
AcDbEntity
  8
92000_TITLE
100
AcDbText
 10
-116.9999999999995
 20
1.75
 30
0.0
 40
2.5
  1

 72
     1
 11
-116.9999999999995
 21
3.0
 31
0.0
100
AcDbAttributeDefinition
  3
Datum
  2
DATUM
 70
     0
 74
     2
  0
MTEXT
  5
132
330
121
100
AcDbEntity
  8
92000_TITLE
100
AcDbMText
 10
-127.75
 20
3.0
 30
0.0
 40
2.5
 41
11.0
 71
     5
 72
     5
  1
Date:
 73
     1
 44
1.0
1001
ACAD
1000
MTEXTBEGIN
1070
    73
1070
     1
1070
    44
1040
1.0
1070
    74
1070
     0
1000
MTEXTEND
  0
LINE
  5
133
330
121
100
AcDbEntity
  8
92000_TITLE
100
AcDbLine
 10
-135.0
 20
18.0
 30
0.0
 11
-135.0
 21
0.0
 31
0.0
1001
GENIUS_GENREC_14
1002
{
1000
PYDIR
1011
-135.0
1021
18.0
1031
0.0
1002
}
1002
{
1000
PXDIR
1011
0.0
1021
0.0
1031
0.0
1002
}
1002
{
1000
PORI
1011
-135.0
1021
0.0
1031
0.0
1002
}
1002
{
1000
PINS
1011
-135.0
1021
0.0
1031
0.0
1002
}
1002
{
1000
HVAL
1000
18
1002
}
1002
{
1000
H
1070
     2
1002
}
1002
{
1000
WVAL
1000
135
1002
}
1002
{
1000
W
1070
     2
1002
}
1002
{
1000
C
1070
     1
1002
}
1001
GENIUS_GENOBJ-N-REC_13
1002
{
1000
OWNER
1000
GEN
1002
}
1001
GENIUS_GENODEF_13
1002
{
1000
HIER
1070
     0
1002
}
1002
{
1000
MANEDIT
1070
     0
1002
}
1002
{
1000
NOSEL
1070
     0
1002
}
1002
{
1000
BEHIND
1070
     0
1002
}
1002
{
1000
OTHER
1070
     0
1002
}
1002
{
1000
REACTOR
1002
}
  0
MTEXT
  5
134
330
121
100
AcDbEntity
  8
92000_TITLE
100
AcDbMText
 10
-102.75
 20
3.0
 30
0.0
 40
2.5
 41
11.0
 71
     5
 72
     5
  1
Name:
 73
     1
 44
1.0
1001
ACAD
1000
MTEXTBEGIN
1070
    73
1070
     1
1070
    44
1040
1.0
1070
    74
1070
     0
1000
MTEXTEND
  0
LINE
  5
135
330
121
100
AcDbEntity
  8
92000_TITLE
100
AcDbLine
 10
-110.0
 20
6.0
 30
0.0
 11
-110.0
 21
0.0
 31
0.0
1001
GENIUS_GENREC_14
1002
{
1000
PYDIR
1011
-135.0
1021
18.0
1031
0.0
1002
}
1002
{
1000
PXDIR
1011
0.0
1021
0.0
1031
0.0
1002
}
1002
{
1000
PORI
1011
-135.0
1021
0.0
1031
0.0
1002
}
1002
{
1000
PINS
1011
-135.0
1021
0.0
1031
0.0
1002
}
1002
{
1000
HVAL
1000
18
1002
}
1002
{
1000
H
1070
     2
1002
}
1002
{
1000
WVAL
1000
135
1002
}
1002
{
1000
W
1070
     2
1002
}
1002
{
1000
C
1070
     1
1002
}
1001
GENIUS_GENOBJ-N-REC_13
1002
{
1000
OWNER
1000
GEN
1002
}
1001
GENIUS_GENODEF_13
1002
{
1000
HIER
1070
     0
1002
}
1002
{
1000
MANEDIT
1070
     0
1002
}
1002
{
1000
NOSEL
1070
     0
1002
}
1002
{
1000
BEHIND
1070
     0
1002
}
1002
{
1000
OTHER
1070
     0
1002
}
1002
{
1000
REACTOR
1002
}
  0
MTEXT
  5
136
330
121
100
AcDbEntity
  8
92000_TITLE
100
AcDbMText
 10
-21.25
 20
3.0
 30
0.0
 40
2.5
 41
42.5
 71
     5
 72
     5
  1
Massstab/Scale: 1:1
 73
     1
 44
1.0
1001
ACAD
1000
MTEXTBEGIN
1070
    73
1070
     1
1070
    44
1040
1.0
1070
    74
1070
     0
1000
MTEXTEND
  0
MTEXT
  5
137
330
121
100
AcDbEntity
  8
92000_TITLE
100
AcDbMText
 10
-63.75
 20
3.0
 30
0.0
 40
2.5
 41
42.5
 71
     5
 72
     5
  1
Format/Size: DIN A4
 73
     1
 44
1.0
1001
ACAD
1000
MTEXTBEGIN
1070
    73
1070
     1
1070
    44
1040
1.0
1070
    74
1070
     0
1000
MTEXTEND
  0
ATTDEF
  5
138
330
121
100
AcDbEntity
  8
92000_TITLE
100
AcDbText
 10
-42.49999999999954
 20
12.25000000000011
 30
0.0
 40
3.5
  1

 72
     1
 11
-42.49999999999954
 21
14.00000000000011
 31
0.0
100
AcDbAttributeDefinition
  3
Z-Name
  2
ZEICHNUNGSNAME
 70
     0
 74
     2
  0
LINE
  5
139
330
121
100
AcDbEntity
  8
92000_TITLE
100
AcDbLine
 10
-85.0
 20
18.0
 30
0.0
 11
-85.0
 21
0.0
 31
0.0
1001
GENIUS_GENREC_14
1002
{
1000
PYDIR
1011
-135.0
1021
18.0
1031
0.0
1002
}
1002
{
1000
PXDIR
1011
0.0
1021
0.0
1031
0.0
1002
}
1002
{
1000
PORI
1011
-135.0
1021
0.0
1031
0.0
1002
}
1002
{
1000
PINS
1011
-135.0
1021
0.0
1031
0.0
1002
}
1002
{
1000
HVAL
1000
18
1002
}
1002
{
1000
H
1070
     2
1002
}
1002
{
1000
WVAL
1000
135
1002
}
1002
{
1000
W
1070
     2
1002
}
1002
{
1000
C
1070
     1
1002
}
1001
GENIUS_GENOBJ-N-REC_13
1002
{
1000
OWNER
1000
GEN
1002
}
1001
GENIUS_GENODEF_13
1002
{
1000
HIER
1070
     0
1002
}
1002
{
1000
MANEDIT
1070
     0
1002
}
1002
{
1000
NOSEL
1070
     0
1002
}
1002
{
1000
BEHIND
1070
     0
1002
}
1002
{
1000
OTHER
1070
     0
1002
}
1002
{
1000
REACTOR
1002
}
  0
ATTDEF
  5
13A
330
121
100
AcDbEntity
  8
92000_TITLE
100
AcDbText
 10
-91.99999999999954
 20
1.75
 30
0.0
 40
2.5
  1

 72
     1
 11
-91.99999999999954
 21
3.0
 31
0.0
100
AcDbAttributeDefinition
  3
Name
  2
NAME
 70
     0
 74
     2
  0
ATTDEF
  5
13B
330
121
100
AcDbEntity
  8
92000_TITLE
100
AcDbText
 10
-42.49999999999954
 20
6.750000000000113
 30
0.0
 40
2.5
  1

 72
     1
 11
-42.49999999999954
 21
8.000000000000113
 31
0.0
100
AcDbAttributeDefinition
  3
A-Name
  2
ARTIKELNAME
 70
     0
 74
     2
  0
LINE
  5
13C
330
121
100
AcDbEntity
  8
92000_TITLE
100
AcDbLine
 10
-42.5
 20
0.0
 30
0.0
 11
-42.5
 21
6.0
 31
0.0
1001
GENIUS_GENREC_14
1002
{
1000
PYDIR
1011
-135.0
1021
18.0
1031
0.0
1002
}
1002
{
1000
PXDIR
1011
0.0
1021
0.0
1031
0.0
1002
}
1002
{
1000
PORI
1011
-135.0
1021
0.0
1031
0.0
1002
}
1002
{
1000
PINS
1011
-135.0
1021
0.0
1031
0.0
1002
}
1002
{
1000
HVAL
1000
18
1002
}
1002
{
1000
H
1070
     2
1002
}
1002
{
1000
WVAL
1000
135
1002
}
1002
{
1000
W
1070
     2
1002
}
1002
{
1000
C
1070
     1
1002
}
1001
GENIUS_GENOBJ-N-REC_13
1002
{
1000
OWNER
1000
GEN
1002
}
1001
GENIUS_GENODEF_13
1002
{
1000
HIER
1070
     0
1002
}
1002
{
1000
MANEDIT
1070
     0
1002
}
1002
{
1000
NOSEL
1070
     0
1002
}
1002
{
1000
BEHIND
1070
     0
1002
}
1002
{
1000
OTHER
1070
     0
1002
}
1002
{
1000
REACTOR
1002
}
  0
LINE
  5
13D
330
121
100
AcDbEntity
  8
92000_TITLE
100
AcDbLine
 10
0.0
 20
0.0
 30
0.0
 11
0.0
 21
18.0
 31
0.0
1001
GENIUS_GENREC_14
1002
{
1000
PYDIR
1011
-135.0
1021
18.0
1031
0.0
1002
}
1002
{
1000
PXDIR
1011
0.0
1021
0.0
1031
0.0
1002
}
1002
{
1000
PORI
1011
-135.0
1021
0.0
1031
0.0
1002
}
1002
{
1000
PINS
1011
-135.0
1021
0.0
1031
0.0
1002
}
1002
{
1000
HVAL
1000
18
1002
}
1002
{
1000
H
1070
     2
1002
}
1002
{
1000
WVAL
1000
135
1002
}
1002
{
1000
W
1070
     2
1002
}
1002
{
1000
C
1070
     1
1002
}
1001
GENIUS_GENOBJ-N-REC_13
1002
{
1000
OWNER
1000
GEN
1002
}
1001
GENIUS_GENODEF_13
1002
{
1000
HIER
1070
     0
1002
}
1002
{
1000
MANEDIT
1070
     0
1002
}
1002
{
1000
NOSEL
1070
     0
1002
}
1002
{
1000
BEHIND
1070
     0
1002
}
1002
{
1000
OTHER
1070
     0
1002
}
1002
{
1000
REACTOR
1002
}
  0
ENDBLK
  5
13E
330
121
100
AcDbEntity
  8
0
100
AcDbBlockEnd
  0
BLOCK
  5
317
330
30D
100
AcDbEntity
  8
0
 62
     7
370
    15
100
AcDbBlockBegin
  2
*D11
 70
     1
 10
0.0
 20
0.0
 30
0.0
  3
*D11
  1

  0
LINE
  5
449
330
30D
100
AcDbEntity
  8
10100_FRONT_DIM
 62
     7
370
    13
100
AcDbLine
 10
33.49390439880063
 20
129.5543570458403
 30
0.0
 11
33.49390439880063
 21
148.9243570458403
 31
0.0
  0
LINE
  5
44A
330
30D
100
AcDbEntity
  8
10100_FRONT_DIM
 62
     7
370
    13
100
AcDbLine
 10
69.69390439880067
 20
129.5543570458403
 30
0.0
 11
69.69390439880067
 21
148.9243570458403
 31
0.0
  0
LINE
  5
44B
330
30D
100
AcDbEntity
  8
10100_FRONT_DIM
 62
     7
370
    13
100
AcDbLine
 10
36.99390439880062
 20
146.9243570458403
 30
0.0
 11
66.19390439880067
 21
146.9243570458403
 31
0.0
  0
SOLID
  5
44C
330
30D
100
AcDbEntity
  8
10100_FRONT_DIM
 62
     7
370
    15
100
AcDbTrace
 10
36.99390439880062
 20
147.5076903791737
 30
0.0
 11
36.99390439880062
 21
146.341023712507
 31
0.0
 12
33.49390439880063
 22
146.9243570458403
 32
0.0
 13
33.49390439880063
 23
146.9243570458403
 33
0.0
  0
SOLID
  5
44D
330
30D
100
AcDbEntity
  8
10100_FRONT_DIM
 62
     7
370
    15
100
AcDbTrace
 10
66.19390439880067
 20
147.5076903791737
 30
0.0
 11
66.19390439880067
 21
146.341023712507
 31
0.0
 12
69.69390439880067
 22
146.9243570458403
 32
0.0
 13
69.69390439880067
 23
146.9243570458403
 33
0.0
  0
MTEXT
  5
44E
330
30D
100
AcDbEntity
  8
10100_FRONT_DIM
 62
     7
370
    18
100
AcDbMText
 10
51.59747664310065
 20
149.966023712507
 30
0.0
 40
3.5
 41
0.0
 71
     5
 72
     1
  1
\A1;36,2
 73
     1
 44
1.0
1001
ACAD
1000
MTEXTBEGIN
1070
    73
1070
     1
1070
    44
1040
1.0
1070
    74
1070
     0
1000
MTEXTEND
  0
POINT
  5
44F
330
30D
100
AcDbEntity
  8
Defpoints
 62
     0
370
    15
100
AcDbPoint
 10
33.49390439880063
 20
129.5543570458403
 30
0.0
  0
POINT
  5
450
330
30D
100
AcDbEntity
  8
Defpoints
 62
     0
370
    15
100
AcDbPoint
 10
69.69390439880067
 20
129.5543570458403
 30
0.0
  0
POINT
  5
451
330
30D
100
AcDbEntity
  8
Defpoints
 62
     0
370
    15
100
AcDbPoint
 10
69.69390439880067
 20
146.9243570458403
 30
0.0
  0
ENDBLK
  5
318
330
30D
100
AcDbEntity
  8
0
 62
     7
370
    15
100
AcDbBlockEnd
  0
BLOCK
  5
351
330
347
100
AcDbEntity
  8
0
 62
     7
370
    15
100
AcDbBlockBegin
  2
*D12
 70
     1
 10
0.0
 20
0.0
 30
0.0
  3
*D12
  1

  0
LINE
  5
46D
330
347
100
AcDbEntity
  8
11100_LEFT_DIM
 62
     7
370
    13
100
AcDbLine
 10
162.5034646671006
 20
134.5543570458403
 30
0.0
 11
162.5034646671006
 21
148.9243570458403
 31
0.0
  0
LINE
  5
46E
330
347
100
AcDbEntity
  8
11100_LEFT_DIM
 62
     7
370
    13
100
AcDbLine
 10
211.1329102817847
 20
136.9243570458403
 30
0.0
 11
211.1329102817847
 21
148.9243570458403
 31
0.0
  0
LINE
  5
46F
330
347
100
AcDbEntity
  8
11100_LEFT_DIM
 62
     7
370
    13
100
AcDbLine
 10
166.0034646671006
 20
146.9243570458403
 30
0.0
 11
207.6329102817847
 21
146.9243570458403
 31
0.0
  0
SOLID
  5
470
330
347
100
AcDbEntity
  8
11100_LEFT_DIM
 62
     7
370
    15
100
AcDbTrace
 10
166.0034646671006
 20
147.5076903791737
 30
0.0
 11
166.0034646671006
 21
146.341023712507
 31
0.0
 12
162.5034646671006
 22
146.9243570458403
 32
0.0
 13
162.5034646671006
 23
146.9243570458403
 33
0.0
  0
SOLID
  5
471
330
347
100
AcDbEntity
  8
11100_LEFT_DIM
 62
     7
370
    15
100
AcDbTrace
 10
207.6329102817847
 20
147.5076903791737
 30
0.0
 11
207.6329102817847
 21
146.341023712507
 31
0.0
 12
211.1329102817847
 22
146.9243570458403
 32
0.0
 13
211.1329102817847
 23
146.9243570458403
 33
0.0
  0
MTEXT
  5
472
330
347
100
AcDbEntity
  8
11100_LEFT_DIM
 62
     7
370
    18
100
AcDbMText
 10
186.8181874744426
 20
149.966023712507
 30
0.0
 40
3.5
 41
0.0
 71
     5
 72
     1
  1
\A1;48,6
 73
     1
 44
1.0
1001
ACAD
1000
MTEXTBEGIN
1070
    73
1070
     1
1070
    44
1040
1.0
1070
    74
1070
     0
1000
MTEXTEND
  0
POINT
  5
473
330
347
100
AcDbEntity
  8
Defpoints
 62
     0
370
    15
100
AcDbPoint
 10
162.5034646671006
 20
134.5543570458403
 30
0.0
  0
POINT
  5
474
330
347
100
AcDbEntity
  8
Defpoints
 62
     0
370
    15
100
AcDbPoint
 10
211.1329102817847
 20
136.9243570458403
 30
0.0
  0
POINT
  5
475
330
347
100
AcDbEntity
  8
Defpoints
 62
     0
370
    15
100
AcDbPoint
 10
211.1329102817847
 20
146.9243570458403
 30
0.0
  0
ENDBLK
  5
352
330
347
100
AcDbEntity
  8
0
 62
     7
370
    15
100
AcDbBlockEnd
  0
BLOCK
  5
372
330
366
100
AcDbEntity
  8
0
 62
     7
370
    15
100
AcDbBlockBegin
  2
*D13
 70
     1
 10
0.0
 20
0.0
 30
0.0
  3
*D13
  1

  0
LINE
  5
3D4
330
366
100
AcDbEntity
  8
10100_FRONT_DIM
 62
     7
370
    13
100
AcDbLine
 10
36.49747664310064
 20
77.55237220224024
 30
0.0
 11
36.49747664310064
 21
65.55237220224023
 31
0.0
  0
LINE
  5
3D5
330
366
100
AcDbEntity
  8
10100_FRONT_DIM
 62
     7
370
    13
100
AcDbLine
 10
42.14747664310062
 20
92.45237220224026
 30
0.0
 11
42.14747664310062
 21
65.55237220224023
 31
0.0
  0
LINE
  5
3D6
330
366
100
AcDbEntity
  8
10100_FRONT_DIM
 62
     7
370
    13
100
AcDbLine
 10
45.64747664310061
 20
67.55237220224024
 30
0.0
 11
49.14747664310062
 21
67.55237220224024
 31
0.0
  0
LINE
  5
3D7
330
366
100
AcDbEntity
  8
10100_FRONT_DIM
 62
     7
370
    13
100
AcDbLine
 10
32.99747664310064
 20
67.55237220224024
 30
0.0
 11
19.9141433097673
 21
67.55237220224024
 31
0.0
  0
LINE
  5
3D8
330
366
100
AcDbEntity
  8
10100_FRONT_DIM
 62
     7
370
    13
100
AcDbLine
 10
42.14747664310062
 20
67.55237220224024
 30
0.0
 11
36.49747664310064
 21
67.55237220224024
 31
0.0
  0
SOLID
  5
3D9
330
366
100
AcDbEntity
  8
10100_FRONT_DIM
 62
     7
370
    15
100
AcDbTrace
 10
45.64747664310061
 20
68.13570553557356
 30
0.0
 11
45.64747664310061
 21
66.96903886890691
 31
0.0
 12
42.14747664310062
 22
67.55237220224024
 32
0.0
 13
42.14747664310062
 23
67.55237220224024
 33
0.0
  0
SOLID
  5
3DA
330
366
100
AcDbEntity
  8
10100_FRONT_DIM
 62
     7
370
    15
100
AcDbTrace
 10
32.99747664310064
 20
68.13570553557356
 30
0.0
 11
32.99747664310064
 21
66.96903886890691
 31
0.0
 12
36.49747664310064
 22
67.55237220224024
 32
0.0
 13
36.49747664310064
 23
67.55237220224024
 33
0.0
  0
MTEXT
  5
3DB
330
366
100
AcDbEntity
  8
10100_FRONT_DIM
 62
     7
370
    15
100
AcDbMText
 10
24.70580997643397
 20
70.59403886890691
 30
0.0
 40
3.5
 41
0.0
 71
     5
 72
     1
  1
\A1;5,7
 73
     1
 44
1.0
1001
ACAD
1000
MTEXTBEGIN
1070
    73
1070
     1
1070
    44
1040
1.0
1070
    74
1070
     0
1000
MTEXTEND
  0
POINT
  5
3DC
330
366
100
AcDbEntity
  8
Defpoints
 62
     0
370
    15
100
AcDbPoint
 10
36.49747664310064
 20
77.55237220224024
 30
0.0
  0
POINT
  5
3DD
330
366
100
AcDbEntity
  8
Defpoints
 62
     0
370
    15
100
AcDbPoint
 10
42.14747664310062
 20
92.45237220224026
 30
0.0
  0
POINT
  5
3DE
330
366
100
AcDbEntity
  8
Defpoints
 62
     0
370
    15
100
AcDbPoint
 10
42.14747664310062
 20
67.55237220224024
 30
0.0
  0
ENDBLK
  5
373
330
366
100
AcDbEntity
  8
0
 62
     7
370
    15
100
AcDbBlockEnd
  0
BLOCK
  5
397
330
38B
100
AcDbEntity
  8
0
 62
     7
370
    15
100
AcDbBlockBegin
  2
*D14
 70
     1
 10
0.0
 20
0.0
 30
0.0
  3
*D14
  1

  0
LINE
  5
3C0
330
38B
100
AcDbEntity
  8
10100_FRONT_DIM
 62
     7
370
    13
100
AcDbLine
 10
42.14747664310062
 20
77.55237220224024
 30
0.0
 11
42.14747664310062
 21
65.55237220224023
 31
0.0
  0
LINE
  5
3C1
330
38B
100
AcDbEntity
  8
10100_FRONT_DIM
 62
     7
370
    13
100
AcDbLine
 10
51.59747664310066
 20
83.45237220224021
 30
0.0
 11
51.59747664310066
 21
65.55237220224023
 31
0.0
  0
LINE
  5
3C2
330
38B
100
AcDbEntity
  8
10100_FRONT_DIM
 62
     7
370
    13
100
AcDbLine
 10
45.64747664310061
 20
67.55237220224024
 30
0.0
 11
48.09747664310066
 21
67.55237220224024
 31
0.0
  0
SOLID
  5
3C3
330
38B
100
AcDbEntity
  8
10100_FRONT_DIM
 62
     7
370
    15
100
AcDbTrace
 10
45.64747664310061
 20
68.13570553557356
 30
0.0
 11
45.64747664310061
 21
66.96903886890691
 31
0.0
 12
42.14747664310062
 22
67.55237220224024
 32
0.0
 13
42.14747664310062
 23
67.55237220224024
 33
0.0
  0
SOLID
  5
3C4
330
38B
100
AcDbEntity
  8
10100_FRONT_DIM
 62
     7
370
    15
100
AcDbTrace
 10
48.09747664310066
 20
68.13570553557356
 30
0.0
 11
48.09747664310066
 21
66.96903886890691
 31
0.0
 12
51.59747664310066
 22
67.55237220224024
 32
0.0
 13
51.59747664310066
 23
67.55237220224024
 33
0.0
  0
MTEXT
  5
3C5
330
38B
100
AcDbEntity
  8
10100_FRONT_DIM
 62
     7
370
    15
100
AcDbMText
 10
46.87247664310064
 20
70.59403886890691
 30
0.0
 40
3.5
 41
0.0
 71
     5
 72
     1
  1
\A1;9,5
 73
     1
 44
1.0
1001
ACAD
1000
MTEXTBEGIN
1070
    73
1070
     1
1070
    44
1040
1.0
1070
    74
1070
     0
1000
MTEXTEND
  0
POINT
  5
3C6
330
38B
100
AcDbEntity
  8
Defpoints
 62
     0
370
    15
100
AcDbPoint
 10
42.14747664310062
 20
77.55237220224024
 30
0.0
  0
POINT
  5
3C7
330
38B
100
AcDbEntity
  8
Defpoints
 62
     0
370
    15
100
AcDbPoint
 10
51.59747664310066
 20
83.45237220224021
 30
0.0
  0
POINT
  5
3C8
330
38B
100
AcDbEntity
  8
Defpoints
 62
     0
370
    15
100
AcDbPoint
 10
51.59747664310066
 20
67.55237220224024
 30
0.0
  0
ENDBLK
  5
398
330
38B
100
AcDbEntity
  8
0
 62
     7
370
    15
100
AcDbBlockEnd
  0
BLOCK
  5
3F9
330
3EF
100
AcDbEntity
  8
0
 62
     7
370
    15
100
AcDbBlockBegin
  2
*D16
 70
     1
 10
0.0
 20
0.0
 30
0.0
  3
*D16
  1

  0
LINE
  5
421
330
3EF
100
AcDbEntity
  8
10100_FRONT_DIM
 62
     7
370
    13
100
AcDbLine
 10
36.49747664310064
 20
77.55237220224024
 30
0.0
 11
36.49747664310064
 21
58.55237220224023
 31
0.0
  0
LINE
  5
422
330
3EF
100
AcDbEntity
  8
10100_FRONT_DIM
 62
     7
370
    13
100
AcDbLine
 10
66.69747664310057
 20
77.55237220224024
 30
0.0
 11
66.69747664310057
 21
58.55237220224023
 31
0.0
  0
LINE
  5
423
330
3EF
100
AcDbEntity
  8
10100_FRONT_DIM
 62
     7
370
    13
100
AcDbLine
 10
39.99747664310064
 20
60.55237220224023
 30
0.0
 11
63.19747664310057
 21
60.55237220224023
 31
0.0
  0
SOLID
  5
424
330
3EF
100
AcDbEntity
  8
10100_FRONT_DIM
 62
     7
370
    15
100
AcDbTrace
 10
39.99747664310064
 20
61.13570553557357
 30
0.0
 11
39.99747664310064
 21
59.9690388689069
 31
0.0
 12
36.49747664310064
 22
60.55237220224023
 32
0.0
 13
36.49747664310064
 23
60.55237220224023
 33
0.0
  0
SOLID
  5
425
330
3EF
100
AcDbEntity
  8
10100_FRONT_DIM
 62
     7
370
    15
100
AcDbTrace
 10
63.19747664310057
 20
61.13570553557357
 30
0.0
 11
63.19747664310057
 21
59.9690388689069
 31
0.0
 12
66.69747664310057
 22
60.55237220224023
 32
0.0
 13
66.69747664310057
 23
60.55237220224023
 33
0.0
  0
MTEXT
  5
426
330
3EF
100
AcDbEntity
  8
10100_FRONT_DIM
 62
     7
370
    15
100
AcDbMText
 10
51.5974766431006
 20
63.5940388689069
 30
0.0
 40
3.5
 41
0.0
 71
     5
 72
     1
  1
\A1;30,2
 73
     1
 44
1.0
1001
ACAD
1000
MTEXTBEGIN
1070
    73
1070
     1
1070
    44
1040
1.0
1070
    74
1070
     0
1000
MTEXTEND
  0
POINT
  5
427
330
3EF
100
AcDbEntity
  8
Defpoints
 62
     0
370
    15
100
AcDbPoint
 10
36.49747664310064
 20
77.55237220224024
 30
0.0
  0
POINT
  5
428
330
3EF
100
AcDbEntity
  8
Defpoints
 62
     0
370
    15
100
AcDbPoint
 10
66.69747664310057
 20
77.55237220224024
 30
0.0
  0
POINT
  5
429
330
3EF
100
AcDbEntity
  8
Defpoints
 62
     0
370
    15
100
AcDbPoint
 10
66.69747664310057
 20
60.55237220224023
 30
0.0
  0
ENDBLK
  5
3FA
330
3EF
100
AcDbEntity
  8
0
 62
     7
370
    15
100
AcDbBlockEnd
  0
BLOCK
  5
435
330
42B
100
AcDbEntity
  8
0
 62
     7
370
    15
100
AcDbBlockBegin
  2
*D17
 70
     1
 10
0.0
 20
0.0
 30
0.0
  3
*D17
  1

  0
LINE
  5
66A
330
42B
100
AcDbEntity
  8
10100_FRONT_DIM
 62
     7
370
    13
100
AcDbLine
 10
24.09747664310066
 20
136.5543570458403
 30
0.0
 11
24.09747664310066
 21
155.9243570458403
 31
0.0
  0
LINE
  5
66B
330
42B
100
AcDbEntity
  8
10100_FRONT_DIM
 62
     7
370
    13
100
AcDbLine
 10
79.09747664310066
 20
137.6299273415429
 30
0.0
 11
79.09747664310066
 21
155.9243570458403
 31
0.0
  0
LINE
  5
66C
330
42B
100
AcDbEntity
  8
10100_FRONT_DIM
 62
     7
370
    13
100
AcDbLine
 10
27.59747664310066
 20
153.9243570458403
 30
0.0
 11
75.59747664310066
 21
153.9243570458403
 31
0.0
  0
SOLID
  5
66D
330
42B
100
AcDbEntity
  8
10100_FRONT_DIM
 62
     7
370
    15
100
AcDbTrace
 10
27.59747664310066
 20
154.5076903791737
 30
0.0
 11
27.59747664310066
 21
153.341023712507
 31
0.0
 12
24.09747664310066
 22
153.9243570458403
 32
0.0
 13
24.09747664310066
 23
153.9243570458403
 33
0.0
  0
SOLID
  5
66E
330
42B
100
AcDbEntity
  8
10100_FRONT_DIM
 62
     7
370
    15
100
AcDbTrace
 10
75.59747664310066
 20
154.5076903791737
 30
0.0
 11
75.59747664310066
 21
153.341023712507
 31
0.0
 12
79.09747664310066
 22
153.9243570458403
 32
0.0
 13
79.09747664310066
 23
153.9243570458403
 33
0.0
  0
MTEXT
  5
66F
330
42B
100
AcDbEntity
  8
10100_FRONT_DIM
 62
     7
370
    18
100
AcDbMText
 10
51.59747664310065
 20
156.6743570458403
 30
0.0
 40
3.5
 41
0.0
 71
     5
 72
     1
  1
\A1;55
 73
     1
 44
1.0
1001
ACAD
1000
MTEXTBEGIN
1070
    73
1070
     1
1070
    44
1040
1.0
1070
    74
1070
     0
1000
MTEXTEND
  0
POINT
  5
670
330
42B
100
AcDbEntity
  8
Defpoints
 62
     0
370
    15
100
AcDbPoint
 10
24.09747664310066
 20
136.5543570458403
 30
0.0
  0
POINT
  5
671
330
42B
100
AcDbEntity
  8
Defpoints
 62
     0
370
    15
100
AcDbPoint
 10
79.09747664310066
 20
137.6299273415429
 30
0.0
  0
POINT
  5
672
330
42B
100
AcDbEntity
  8
Defpoints
 62
     0
370
    15
100
AcDbPoint
 10
79.09747664310066
 20
153.9243570458403
 30
0.0
  0
ENDBLK
  5
436
330
42B
100
AcDbEntity
  8
0
 62
     7
370
    15
100
AcDbBlockEnd
  0
BLOCK
  5
481
330
477
100
AcDbEntity
  8
0
 62
     7
370
    15
100
AcDbBlockBegin
  2
*D18
 70
     1
 10
0.0
 20
0.0
 30
0.0
  3
*D18
  1

  0
LINE
  5
59C
330
477
100
AcDbEntity
  8
11100_LEFT_DIM
 62
     7
370
    13
100
AcDbLine
 10
162.5034646671006
 20
77.55237220224024
 30
0.0
 11
162.5034646671006
 21
65.55237220224023
 31
0.0
  0
LINE
  5
59D
330
477
100
AcDbEntity
  8
11100_LEFT_DIM
 62
     7
370
    13
100
AcDbLine
 10
194.5334375386005
 20
110.7492492336177
 30
0.0
 11
194.5334375386005
 21
65.55237220224023
 31
0.0
  0
LINE
  5
59E
330
477
100
AcDbEntity
  8
11100_LEFT_DIM
 62
     7
370
    13
100
AcDbLine
 10
166.0034646671006
 20
67.55237220224024
 30
0.0
 11
191.0334375386005
 21
67.55237220224024
 31
0.0
  0
SOLID
  5
59F
330
477
100
AcDbEntity
  8
11100_LEFT_DIM
 62
     7
370
    15
100
AcDbTrace
 10
166.0034646671006
 20
68.13570553557356
 30
0.0
 11
166.0034646671006
 21
66.96903886890691
 31
0.0
 12
162.5034646671006
 22
67.55237220224024
 32
0.0
 13
162.5034646671006
 23
67.55237220224024
 33
0.0
  0
SOLID
  5
5A0
330
477
100
AcDbEntity
  8
11100_LEFT_DIM
 62
     7
370
    15
100
AcDbTrace
 10
191.0334375386005
 20
68.13570553557356
 30
0.0
 11
191.0334375386005
 21
66.96903886890691
 31
0.0
 12
194.5334375386005
 22
67.55237220224024
 32
0.0
 13
194.5334375386005
 23
67.55237220224024
 33
0.0
  0
MTEXT
  5
5A1
330
477
100
AcDbEntity
  8
11100_LEFT_DIM
 62
     7
370
    18
100
AcDbMText
 10
178.5184511028506
 20
70.30237220224023
 30
0.0
 40
3.5
 41
0.0
 71
     5
 72
     1
  1
\A1;32
 73
     1
 44
1.0
1001
ACAD
1000
MTEXTBEGIN
1070
    73
1070
     1
1070
    44
1040
1.0
1070
    74
1070
     0
1000
MTEXTEND
  0
POINT
  5
5A2
330
477
100
AcDbEntity
  8
Defpoints
 62
     0
370
    15
100
AcDbPoint
 10
162.5034646671006
 20
77.55237220224024
 30
0.0
  0
POINT
  5
5A3
330
477
100
AcDbEntity
  8
Defpoints
 62
     0
370
    15
100
AcDbPoint
 10
194.5334375386005
 20
110.7492492336177
 30
0.0
  0
POINT
  5
5A4
330
477
100
AcDbEntity
  8
Defpoints
 62
     0
370
    15
100
AcDbPoint
 10
194.5334375386005
 20
67.55237220224024
 30
0.0
  0
ENDBLK
  5
482
330
477
100
AcDbEntity
  8
0
 62
     7
370
    15
100
AcDbBlockEnd
  0
BLOCK
  5
4C4
330
4BA
100
AcDbEntity
  8
0
 62
     7
370
    15
100
AcDbBlockBegin
  2
*D19
 70
     1
 10
0.0
 20
0.0
 30
0.0
  3
*D19
  1

  0
LINE
  5
593
330
4BA
100
AcDbEntity
  8
11100_LEFT_DIM
 62
     7
370
    13
100
AcDbLine
 10
194.5334375386005
 20
113.0543570458403
 30
0.0
 11
194.5334375386005
 21
65.55237220224023
 31
0.0
  0
LINE
  5
594
330
4BA
100
AcDbEntity
  8
11100_LEFT_DIM
 62
     7
370
    13
100
AcDbLine
 10
211.0034646671006
 20
96.55435704584034
 30
0.0
 11
211.0034646671006
 21
65.55237220224023
 31
0.0
  0
LINE
  5
595
330
4BA
100
AcDbEntity
  8
11100_LEFT_DIM
 62
     7
370
    13
100
AcDbLine
 10
198.0334375386005
 20
67.55237220224024
 30
0.0
 11
207.5034646671006
 21
67.55237220224024
 31
0.0
  0
SOLID
  5
596
330
4BA
100
AcDbEntity
  8
11100_LEFT_DIM
 62
     7
370
    15
100
AcDbTrace
 10
198.0334375386005
 20
68.13570553557356
 30
0.0
 11
198.0334375386005
 21
66.96903886890691
 31
0.0
 12
194.5334375386005
 22
67.55237220224024
 32
0.0
 13
194.5334375386005
 23
67.55237220224024
 33
0.0
  0
SOLID
  5
597
330
4BA
100
AcDbEntity
  8
11100_LEFT_DIM
 62
     7
370
    15
100
AcDbTrace
 10
207.5034646671006
 20
68.13570553557356
 30
0.0
 11
207.5034646671006
 21
66.96903886890691
 31
0.0
 12
211.0034646671006
 22
67.55237220224024
 32
0.0
 13
211.0034646671006
 23
67.55237220224024
 33
0.0
  0
MTEXT
  5
598
330
4BA
100
AcDbEntity
  8
11100_LEFT_DIM
 62
     7
370
    18
100
AcDbMText
 10
202.7684511028506
 20
70.59403886890691
 30
0.0
 40
3.5
 41
0.0
 71
     5
 72
     1
  1
\A1;16,5
 73
     1
 44
1.0
1001
ACAD
1000
MTEXTBEGIN
1070
    73
1070
     1
1070
    44
1040
1.0
1070
    74
1070
     0
1000
MTEXTEND
  0
POINT
  5
599
330
4BA
100
AcDbEntity
  8
Defpoints
 62
     0
370
    15
100
AcDbPoint
 10
194.5334375386005
 20
113.0543570458403
 30
0.0
  0
POINT
  5
59A
330
4BA
100
AcDbEntity
  8
Defpoints
 62
     0
370
    15
100
AcDbPoint
 10
211.0034646671006
 20
96.55435704584034
 30
0.0
  0
POINT
  5
59B
330
4BA
100
AcDbEntity
  8
Defpoints
 62
     0
370
    15
100
AcDbPoint
 10
211.0034646671006
 20
67.55237220224024
 30
0.0
  0
ENDBLK
  5
4C5
330
4BA
100
AcDbEntity
  8
0
 62
     7
370
    15
100
AcDbBlockEnd
  0
BLOCK
  5
4FE
330
4F4
100
AcDbEntity
  8
0
 62
     7
370
    15
100
AcDbBlockBegin
  2
*D20
 70
     1
 10
0.0
 20
0.0
 30
0.0
  3
*D20
  1

  0
LINE
  5
58A
330
4F4
100
AcDbEntity
  8
11100_LEFT_DIM
 62
     7
370
    13
100
AcDbLine
 10
211.0034646671006
 20
113.0543570458403
 30
0.0
 11
211.0034646671006
 21
65.55237220224023
 31
0.0
  0
LINE
  5
58B
330
4F4
100
AcDbEntity
  8
11100_LEFT_DIM
 62
     7
370
    13
100
AcDbLine
 10
230.4734917956007
 20
113.0543570458403
 30
0.0
 11
230.4734917956007
 21
65.55237220224023
 31
0.0
  0
LINE
  5
58C
330
4F4
100
AcDbEntity
  8
11100_LEFT_DIM
 62
     7
370
    13
100
AcDbLine
 10
214.5034646671006
 20
67.55237220224024
 30
0.0
 11
226.9734917956007
 21
67.55237220224024
 31
0.0
  0
SOLID
  5
58D
330
4F4
100
AcDbEntity
  8
11100_LEFT_DIM
 62
     7
370
    15
100
AcDbTrace
 10
214.5034646671006
 20
68.13570553557356
 30
0.0
 11
214.5034646671006
 21
66.96903886890691
 31
0.0
 12
211.0034646671006
 22
67.55237220224024
 32
0.0
 13
211.0034646671006
 23
67.55237220224024
 33
0.0
  0
SOLID
  5
58E
330
4F4
100
AcDbEntity
  8
11100_LEFT_DIM
 62
     7
370
    15
100
AcDbTrace
 10
226.9734917956007
 20
68.13570553557356
 30
0.0
 11
226.9734917956007
 21
66.96903886890691
 31
0.0
 12
230.4734917956007
 22
67.55237220224024
 32
0.0
 13
230.4734917956007
 23
67.55237220224024
 33
0.0
  0
MTEXT
  5
58F
330
4F4
100
AcDbEntity
  8
11100_LEFT_DIM
 62
     7
370
    18
100
AcDbMText
 10
219.2384782313506
 20
70.59403886890691
 30
0.0
 40
3.5
 41
0.0
 71
     5
 72
     1
  1
\A1;19,5
 73
     1
 44
1.0
1001
ACAD
1000
MTEXTBEGIN
1070
    73
1070
     1
1070
    44
1040
1.0
1070
    74
1070
     0
1000
MTEXTEND
  0
POINT
  5
590
330
4F4
100
AcDbEntity
  8
Defpoints
 62
     0
370
    15
100
AcDbPoint
 10
211.0034646671006
 20
113.0543570458403
 30
0.0
  0
POINT
  5
591
330
4F4
100
AcDbEntity
  8
Defpoints
 62
     0
370
    15
100
AcDbPoint
 10
230.4734917956007
 20
113.0543570458403
 30
0.0
  0
POINT
  5
592
330
4F4
100
AcDbEntity
  8
Defpoints
 62
     0
370
    15
100
AcDbPoint
 10
230.4734917956007
 20
67.55237220224024
 30
0.0
  0
ENDBLK
  5
4FF
330
4F4
100
AcDbEntity
  8
0
 62
     7
370
    15
100
AcDbBlockEnd
  0
BLOCK
  5
51D
330
513
100
AcDbEntity
  8
0
 62
     7
370
    15
100
AcDbBlockBegin
  2
*D21
 70
     1
 10
0.0
 20
0.0
 30
0.0
  3
*D21
  1

  0
LINE
  5
56F
330
513
100
AcDbEntity
  8
11100_LEFT_DIM
 62
     7
370
    13
100
AcDbLine
 10
162.5034646671006
 20
134.5543570458403
 30
0.0
 11
162.5034646671006
 21
155.7473259298767
 31
0.0
  0
LINE
  5
570
330
513
100
AcDbEntity
  8
11100_LEFT_DIM
 62
     7
370
    13
100
AcDbLine
 10
240.0034646671006
 20
134.5543570458403
 30
0.0
 11
240.0034646671006
 21
155.7473259298767
 31
0.0
  0
LINE
  5
571
330
513
100
AcDbEntity
  8
11100_LEFT_DIM
 62
     7
370
    13
100
AcDbLine
 10
166.0034646671006
 20
153.7473259298767
 30
0.0
 11
236.5034646671007
 21
153.7473259298767
 31
0.0
  0
SOLID
  5
572
330
513
100
AcDbEntity
  8
11100_LEFT_DIM
 62
     7
370
    15
100
AcDbTrace
 10
166.0034646671006
 20
154.3306592632101
 30
0.0
 11
166.0034646671006
 21
153.1639925965434
 31
0.0
 12
162.5034646671006
 22
153.7473259298767
 32
0.0
 13
162.5034646671006
 23
153.7473259298767
 33
0.0
  0
SOLID
  5
573
330
513
100
AcDbEntity
  8
11100_LEFT_DIM
 62
     7
370
    15
100
AcDbTrace
 10
236.5034646671007
 20
154.3306592632101
 30
0.0
 11
236.5034646671007
 21
153.1639925965434
 31
0.0
 12
240.0034646671006
 22
153.7473259298767
 32
0.0
 13
240.0034646671006
 23
153.7473259298767
 33
0.0
  0
MTEXT
  5
574
330
513
100
AcDbEntity
  8
11100_LEFT_DIM
 62
     7
370
    15
100
AcDbMText
 10
201.2534646671006
 20
156.7889925965434
 30
0.0
 40
3.5
 41
0.0
 71
     5
 72
     1
  1
\A1;77,5
 73
     1
 44
1.0
1001
ACAD
1000
MTEXTBEGIN
1070
    73
1070
     1
1070
    44
1040
1.0
1070
    74
1070
     0
1000
MTEXTEND
  0
POINT
  5
575
330
513
100
AcDbEntity
  8
Defpoints
 62
     0
370
    15
100
AcDbPoint
 10
162.5034646671006
 20
134.5543570458403
 30
0.0
  0
POINT
  5
576
330
513
100
AcDbEntity
  8
Defpoints
 62
     0
370
    15
100
AcDbPoint
 10
240.0034646671006
 20
134.5543570458403
 30
0.0
  0
POINT
  5
577
330
513
100
AcDbEntity
  8
Defpoints
 62
     0
370
    15
100
AcDbPoint
 10
240.0034646671006
 20
153.7473259298767
 30
0.0
  0
ENDBLK
  5
51E
330
513
100
AcDbEntity
  8
0
 62
     7
370
    15
100
AcDbBlockEnd
  0
BLOCK
  5
533
330
529
100
AcDbEntity
  8
0
 62
     7
370
    15
100
AcDbBlockBegin
  2
*D22
 70
     1
 10
0.0
 20
0.0
 30
0.0
  3
*D22
  1

  0
LINE
  5
581
330
529
100
AcDbEntity
  8
11100_LEFT_DIM
 62
     7
370
    13
100
AcDbLine
 10
220.2534646671006
 20
136.9243570458403
 30
0.0
 11
248.9619142743653
 21
136.9243570458403
 31
0.0
  0
LINE
  5
582
330
529
100
AcDbEntity
  8
11100_LEFT_DIM
 62
     7
370
    13
100
AcDbLine
 10
230.4734917956007
 20
113.0543570458403
 30
0.0
 11
248.9619142743653
 21
113.0543570458403
 31
0.0
  0
LINE
  5
583
330
529
100
AcDbEntity
  8
11100_LEFT_DIM
 62
     7
370
    13
100
AcDbLine
 10
246.9619142743653
 20
133.4243570458403
 30
0.0
 11
246.9619142743653
 21
116.5543570458403
 31
0.0
  0
SOLID
  5
584
330
529
100
AcDbEntity
  8
11100_LEFT_DIM
 62
     7
370
    15
100
AcDbTrace
 10
246.3785809410319
 20
133.4243570458403
 30
0.0
 11
247.5452476076986
 21
133.4243570458403
 31
0.0
 12
246.9619142743653
 22
136.9243570458403
 32
0.0
 13
246.9619142743653
 23
136.9243570458403
 33
0.0
  0
SOLID
  5
585
330
529
100
AcDbEntity
  8
11100_LEFT_DIM
 62
     7
370
    15
100
AcDbTrace
 10
246.3785809410319
 20
116.5543570458403
 30
0.0
 11
247.5452476076986
 21
116.5543570458403
 31
0.0
 12
246.9619142743653
 22
113.0543570458403
 32
0.0
 13
246.9619142743653
 23
113.0543570458403
 33
0.0
  0
MTEXT
  5
586
330
529
100
AcDbEntity
  8
11100_LEFT_DIM
 62
     7
370
    18
100
AcDbMText
 10
243.9202476076986
 20
124.9893570458403
 30
0.0
 40
3.5
 41
0.0
 71
     5
 72
     1
  1
\A1;23,9
 11
0.0000000000000001
 21
1.0
 31
0.0
 73
     1
 44
1.0
1001
ACAD
1000
MTEXTBEGIN
1070
    73
1070
     1
1070
    44
1040
1.0
1070
    74
1070
     0
1000
MTEXTEND
  0
POINT
  5
587
330
529
100
AcDbEntity
  8
Defpoints
 62
     0
370
    15
100
AcDbPoint
 10
220.2534646671006
 20
136.9243570458403
 30
0.0
  0
POINT
  5
588
330
529
100
AcDbEntity
  8
Defpoints
 62
     0
370
    15
100
AcDbPoint
 10
230.4734917956007
 20
113.0543570458403
 30
0.0
  0
POINT
  5
589
330
529
100
AcDbEntity
  8
Defpoints
 62
     0
370
    15
100
AcDbPoint
 10
246.9619142743653
 20
113.0543570458403
 30
0.0
  0
ENDBLK
  5
534
330
529
100
AcDbEntity
  8
0
 62
     7
370
    15
100
AcDbBlockEnd
  0
BLOCK
  5
549
330
53F
100
AcDbEntity
  8
0
 62
     7
370
    15
100
AcDbBlockBegin
  2
*D23
 70
     1
 10
0.0
 20
0.0
 30
0.0
  3
*D23
  1

  0
LINE
  5
578
330
53F
100
AcDbEntity
  8
11100_LEFT_DIM
 62
     7
370
    13
100
AcDbLine
 10
230.4719071496601
 20
113.0543570458403
 30
0.0
 11
248.9619142743654
 21
113.0543570458403
 31
0.0
  0
LINE
  5
579
330
53F
100
AcDbEntity
  8
11100_LEFT_DIM
 62
     7
370
    13
100
AcDbLine
 10
218.1689571960157
 20
96.73596282353265
 30
0.0
 11
248.9619142743654
 21
96.73596282353264
 31
0.0
  0
LINE
  5
57A
330
53F
100
AcDbEntity
  8
11100_LEFT_DIM
 62
     7
370
    13
100
AcDbLine
 10
246.9619142743654
 20
109.5543570458403
 30
0.0
 11
246.9619142743654
 21
100.2359628235326
 31
0.0
  0
SOLID
  5
57B
330
53F
100
AcDbEntity
  8
11100_LEFT_DIM
 62
     7
370
    15
100
AcDbTrace
 10
246.378580941032
 20
109.5543570458403
 30
0.0
 11
247.5452476076987
 21
109.5543570458403
 31
0.0
 12
246.9619142743654
 22
113.0543570458403
 32
0.0
 13
246.9619142743654
 23
113.0543570458403
 33
0.0
  0
SOLID
  5
57C
330
53F
100
AcDbEntity
  8
11100_LEFT_DIM
 62
     7
370
    15
100
AcDbTrace
 10
246.378580941032
 20
100.2359628235326
 30
0.0
 11
247.5452476076987
 21
100.2359628235326
 31
0.0
 12
246.9619142743654
 22
96.73596282353264
 32
0.0
 13
246.9619142743654
 23
96.73596282353264
 33
0.0
  0
MTEXT
  5
57D
330
53F
100
AcDbEntity
  8
11100_LEFT_DIM
 62
     7
370
    18
100
AcDbMText
 10
243.9202476076987
 20
104.8951599346865
 30
0.0
 40
3.5
 41
0.0
 71
     5
 72
     1
  1
\A1;16,3
 11
0.0000000000000001
 21
1.0
 31
0.0
 73
     1
 44
1.0
1001
ACAD
1000
MTEXTBEGIN
1070
    73
1070
     1
1070
    44
1040
1.0
1070
    74
1070
     0
1000
MTEXTEND
  0
POINT
  5
57E
330
53F
100
AcDbEntity
  8
Defpoints
 62
     0
370
    15
100
AcDbPoint
 10
230.4719071496601
 20
113.0543570458403
 30
0.0
  0
POINT
  5
57F
330
53F
100
AcDbEntity
  8
Defpoints
 62
     0
370
    15
100
AcDbPoint
 10
218.1689571960157
 20
96.73596282353265
 30
0.0
  0
POINT
  5
580
330
53F
100
AcDbEntity
  8
Defpoints
 62
     0
370
    15
100
AcDbPoint
 10
246.9619142743654
 20
96.73596282353264
 30
0.0
  0
ENDBLK
  5
54A
330
53F
100
AcDbEntity
  8
0
 62
     7
370
    15
100
AcDbBlockEnd
  0
BLOCK
  5
5B0
330
5A6
100
AcDbEntity
  8
0
 62
     7
370
    15
100
AcDbBlockBegin
  2
*D24
 70
     1
 10
0.0
 20
0.0
 30
0.0
  3
*D24
  1

  0
LINE
  5
5DF
330
5A6
100
AcDbEntity
  8
10100_FRONT_DIM
 62
     7
370
    13
100
AcDbLine
 10
60.84747664310066
 20
136.9243570458403
 30
0.0
 11
91.09747664310066
 21
136.9243570458403
 31
0.0
  0
LINE
  5
5E0
330
5A6
100
AcDbEntity
  8
10100_FRONT_DIM
 62
     7
370
    13
100
AcDbLine
 10
66.69747664310057
 20
77.55237220224024
 30
0.0
 11
91.09747664310065
 21
77.55237220224024
 31
0.0
  0
LINE
  5
5E1
330
5A6
100
AcDbEntity
  8
10100_FRONT_DIM
 62
     7
370
    13
100
AcDbLine
 10
89.09747664310065
 20
133.4243570458403
 30
0.0
 11
89.09747664310065
 21
81.05237220224024
 31
0.0
  0
SOLID
  5
5E2
330
5A6
100
AcDbEntity
  8
10100_FRONT_DIM
 62
     7
370
    15
100
AcDbTrace
 10
88.51414330976734
 20
133.4243570458403
 30
0.0
 11
89.68080997643399
 21
133.4243570458403
 31
0.0
 12
89.09747664310065
 22
136.9243570458403
 32
0.0
 13
89.09747664310065
 23
136.9243570458403
 33
0.0
  0
SOLID
  5
5E3
330
5A6
100
AcDbEntity
  8
10100_FRONT_DIM
 62
     7
370
    15
100
AcDbTrace
 10
88.51414330976732
 20
81.05237220224024
 30
0.0
 11
89.68080997643397
 21
81.05237220224024
 31
0.0
 12
89.09747664310065
 22
77.55237220224024
 32
0.0
 13
89.09747664310065
 23
77.55237220224024
 33
0.0
  0
MTEXT
  5
5E4
330
5A6
100
AcDbEntity
  8
10100_FRONT_DIM
 62
     7
370
    18
100
AcDbMText
 10
86.05580997643397
 20
107.0543570458403
 30
0.0
 40
3.5
 41
0.0
 71
     5
 72
     1
  1
\A1;59,4
 11
0.0000000000000001
 21
1.0
 31
0.0
 73
     1
 44
1.0
1001
ACAD
1000
MTEXTBEGIN
1070
    73
1070
     1
1070
    44
1040
1.0
1070
    74
1070
     0
1000
MTEXTEND
  0
POINT
  5
5E5
330
5A6
100
AcDbEntity
  8
Defpoints
 62
     0
370
    15
100
AcDbPoint
 10
60.84747664310066
 20
136.9243570458403
 30
0.0
  0
POINT
  5
5E6
330
5A6
100
AcDbEntity
  8
Defpoints
 62
     0
370
    15
100
AcDbPoint
 10
66.69747664310057
 20
77.55237220224024
 30
0.0
  0
POINT
  5
5E7
330
5A6
100
AcDbEntity
  8
Defpoints
 62
     0
370
    15
100
AcDbPoint
 10
89.09747664310065
 20
77.55237220224024
 30
0.0
  0
ENDBLK
  5
5B1
330
5A6
100
AcDbEntity
  8
0
 62
     7
370
    15
100
AcDbBlockEnd
  0
BLOCK
  5
5F3
330
5E9
100
AcDbEntity
  8
0
 62
     7
370
    15
100
AcDbBlockBegin
  2
*D25
 70
     1
 10
0.0
 20
0.0
 30
0.0
  3
*D25
  1

  0
LINE
  5
644
330
5E9
100
AcDbEntity
  8
10100_FRONT_DIM
 62
     7
370
    13
100
AcDbLine
 10
54.69703492019608
 20
86.55237220224023
 30
0.0
 11
84.09747664310065
 21
86.55237220224023
 31
0.0
  0
LINE
  5
645
330
5E9
100
AcDbEntity
  8
10100_FRONT_DIM
 62
     7
370
    13
100
AcDbLine
 10
59.69747664310057
 20
77.55237220224024
 30
0.0
 11
84.09747664310065
 21
77.55237220224024
 31
0.0
  0
LINE
  5
646
330
5E9
100
AcDbEntity
  8
10100_FRONT_DIM
 62
     7
370
    13
100
AcDbLine
 10
82.09747664310064
 20
83.05237220224023
 30
0.0
 11
82.09747664310064
 21
81.05237220224024
 31
0.0
  0
SOLID
  5
647
330
5E9
100
AcDbEntity
  8
10100_FRONT_DIM
 62
     7
370
    15
100
AcDbTrace
 10
81.51414330976733
 20
83.05237220224023
 30
0.0
 11
82.68080997643398
 21
83.05237220224023
 31
0.0
 12
82.09747664310064
 22
86.55237220224023
 32
0.0
 13
82.09747664310064
 23
86.55237220224023
 33
0.0
  0
SOLID
  5
648
330
5E9
100
AcDbEntity
  8
10100_FRONT_DIM
 62
     7
370
    15
100
AcDbTrace
 10
81.51414330976733
 20
81.05237220224024
 30
0.0
 11
82.68080997643398
 21
81.05237220224024
 31
0.0
 12
82.09747664310064
 22
77.55237220224024
 32
0.0
 13
82.09747664310064
 23
77.55237220224024
 33
0.0
  0
MTEXT
  5
649
330
5E9
100
AcDbEntity
  8
10100_FRONT_DIM
 62
     7
370
    18
100
AcDbMText
 10
79.34747664310063
 20
82.45272319239347
 30
0.0
 40
3.5
 41
0.0
 71
     5
 72
     1
  1
\A1;9
 11
0.0000000000000001
 21
1.0
 31
0.0
 73
     1
 44
1.0
1001
ACAD
1000
MTEXTBEGIN
1070
    73
1070
     1
1070
    44
1040
1.0
1070
    74
1070
     0
1000
MTEXTEND
  0
POINT
  5
64A
330
5E9
100
AcDbEntity
  8
Defpoints
 62
     0
370
    15
100
AcDbPoint
 10
54.69703492019608
 20
86.55237220224023
 30
0.0
  0
POINT
  5
64B
330
5E9
100
AcDbEntity
  8
Defpoints
 62
     0
370
    15
100
AcDbPoint
 10
59.69747664310057
 20
77.55237220224024
 30
0.0
  0
POINT
  5
64C
330
5E9
100
AcDbEntity
  8
Defpoints
 62
     0
370
    15
100
AcDbPoint
 10
82.09747664310064
 20
77.55237220224024
 30
0.0
  0
ENDBLK
  5
5F4
330
5E9
100
AcDbEntity
  8
0
 62
     7
370
    15
100
AcDbBlockEnd
  0
BLOCK
  5
61C
330
612
100
AcDbEntity
  8
0
 62
     7
370
    15
100
AcDbBlockBegin
  2
*D26
 70
     1
 10
0.0
 20
0.0
 30
0.0
  3
*D26
  1

  0
LINE
  5
658
330
612
100
AcDbEntity
  8
10100_FRONT_DIM
 62
     7
370
    13
100
AcDbLine
 10
64.14747667414272
 20
95.55237224413509
 30
0.0
 11
84.0880256394764
 21
95.55237224413509
 31
0.0
  0
LINE
  5
659
330
612
100
AcDbEntity
  8
10100_FRONT_DIM
 62
     7
370
    13
100
AcDbLine
 10
66.69747664310057
 20
86.55237220224023
 30
0.0
 11
84.0880256394764
 21
86.55237220224023
 31
0.0
  0
LINE
  5
65A
330
612
100
AcDbEntity
  8
10100_FRONT_DIM
 62
     7
370
    13
100
AcDbLine
 10
82.0880256394764
 20
92.0523722441351
 30
0.0
 11
82.0880256394764
 21
90.05237220224023
 31
0.0
  0
SOLID
  5
65B
330
612
100
AcDbEntity
  8
10100_FRONT_DIM
 62
     7
370
    15
100
AcDbTrace
 10
81.50469230614307
 20
92.0523722441351
 30
0.0
 11
82.67135897280972
 21
92.0523722441351
 31
0.0
 12
82.0880256394764
 22
95.55237224413509
 32
0.0
 13
82.0880256394764
 23
95.55237224413509
 33
0.0
  0
SOLID
  5
65C
330
612
100
AcDbEntity
  8
10100_FRONT_DIM
 62
     7
370
    15
100
AcDbTrace
 10
81.50469230614307
 20
90.05237220224023
 30
0.0
 11
82.67135897280972
 21
90.05237220224023
 31
0.0
 12
82.0880256394764
 22
86.55237220224023
 32
0.0
 13
82.0880256394764
 23
86.55237220224023
 33
0.0
  0
MTEXT
  5
65D
330
612
100
AcDbEntity
  8
10100_FRONT_DIM
 62
     7
370
    18
100
AcDbMText
 10
79.33802563947638
 20
91.07853750022332
 30
0.0
 40
3.5
 41
0.0
 71
     5
 72
     1
  1
\A1;9
 11
0.0000000000000001
 21
1.0
 31
0.0
 73
     1
 44
1.0
1001
ACAD
1000
MTEXTBEGIN
1070
    73
1070
     1
1070
    44
1040
1.0
1070
    74
1070
     0
1000
MTEXTEND
  0
POINT
  5
65E
330
612
100
AcDbEntity
  8
Defpoints
 62
     0
370
    15
100
AcDbPoint
 10
64.14747667414272
 20
95.55237224413509
 30
0.0
  0
POINT
  5
65F
330
612
100
AcDbEntity
  8
Defpoints
 62
     0
370
    15
100
AcDbPoint
 10
66.69747664310057
 20
86.55237220224023
 30
0.0
  0
POINT
  5
660
330
612
100
AcDbEntity
  8
Defpoints
 62
     0
370
    15
100
AcDbPoint
 10
82.0880256394764
 20
86.55237220224023
 30
0.0
  0
ENDBLK
  5
61D
330
612
100
AcDbEntity
  8
0
 62
     7
370
    15
100
AcDbBlockEnd
  0
ENDSEC
  0
SECTION
  2
ENTITIES
  0
LINE
  5
2F
330
1F
100
AcDbEntity
  8
10000_FRONT
  6
Continuous
 62
     7
370
    35
100
AcDbLine
 10
60.84747664310066
 20
118.0543570458403
 30
0.0
 11
60.84747664310066
 21
119.0543570458403
 31
0.0
  0
LINE
  5
30
330
1F
100
AcDbEntity
  8
10000_FRONT
  6
Continuous
 62
     7
370
    35
100
AcDbLine
 10
59.84747664310066
 20
117.0543570458403
 30
0.0
 11
59.84747664310066
 21
118.0543570458403
 31
0.0
  0
LINE
  5
31
330
1F
100
AcDbEntity
  8
10000_FRONT
  6
Continuous
 62
     7
370
    35
100
AcDbLine
 10
59.84747664310066
 20
113.5143570458403
 30
0.0
 11
59.84747664310066
 21
114.0543570458403
 31
0.0
  0
LINE
  5
32
330
1F
100
AcDbEntity
  8
10000_FRONT
  6
Continuous
 62
     7
370
    35
100
AcDbLine
 10
60.84747664310066
 20
114.0543570458403
 30
0.0
 11
60.84747664310066
 21
115.0543570458403
 31
0.0
  0
LINE
  5
33
330
1F
100
AcDbEntity
  8
10000_FRONT
  6
Continuous
 62
     7
370
    35
100
AcDbLine
 10
60.84747664310066
 20
116.0543570458403
 30
0.0
 11
60.84747664310066
 21
117.0543570458403
 31
0.0
  0
LINE
  5
34
330
1F
100
AcDbEntity
  8
10000_FRONT
  6
Continuous
 62
     7
370
    35
100
AcDbLine
 10
59.84747664310066
 20
115.0543570458403
 30
0.0
 11
59.84747664310066
 21
116.0543570458403
 31
0.0
  0
ARC
  5
35
330
1F
100
AcDbEntity
  8
10000_FRONT
  6
Continuous
 62
     7
370
    35
100
AcDbCircle
 10
64.37247664310064
 20
134.0343570458403
 30
0.0
 40
1.0
100
AcDbArc
 50
31.33225149760204
 51
90.0
  0
LINE
  5
36
330
1F
100
AcDbEntity
  8
10000_FRONT
  6
Continuous
 62
     7
370
    35
100
AcDbLine
 10
24.09747664310066
 20
134.5543570458403
 30
0.0
 11
24.09747664310066
 21
129.5543570458403
 31
0.0
  0
LINE
  5
37
330
1F
100
AcDbEntity
  8
10000_FRONT
  6
Continuous
 62
     7
370
    35
100
AcDbLine
 10
79.09747664310066
 20
129.5543570458403
 30
0.0
 11
79.09747664310066
 21
134.5543570458403
 31
0.0
  0
ARC
  5
38
330
1F
100
AcDbEntity
  8
10000_FRONT
  6
Continuous
 62
     7
370
    35
100
AcDbCircle
 10
43.62247675310061
 20
134.0343570458403
 30
0.0
 40
1.0
100
AcDbArc
 50
31.33225149760204
 51
90.0
  0
ARC
  5
39
330
1F
100
AcDbEntity
  8
10000_FRONT
  6
Continuous
 62
     7
370
    35
100
AcDbCircle
 10
38.82247675310054
 20
134.0343570458403
 30
0.0
 40
1.000000000000013
100
AcDbArc
 50
90.0
 51
148.6677485023979
  0
LINE
  5
3A
330
1F
100
AcDbEntity
  8
10000_FRONT
  6
Continuous
 62
     7
370
    35
100
AcDbLine
 10
37.22247675310064
 20
129.5543570458403
 30
0.0
 11
37.22247675310064
 21
116.0543570458403
 31
0.0
  0
LINE
  5
3B
330
1F
100
AcDbEntity
  8
10000_FRONT
  6
Continuous
 62
     7
370
    35
100
AcDbLine
 10
45.22247675310063
 20
116.0543570458403
 30
0.0
 11
45.22247675310063
 21
129.5543570458403
 31
0.0
  0
ARC
  5
3C
330
1F
100
AcDbEntity
  8
10000_FRONT
  6
Continuous
 62
     7
370
    35
100
AcDbCircle
 10
42.22247675310064
 20
116.0543570458403
 30
0.0
 40
3.0
100
AcDbArc
 50
270.0
 51
0.0
  0
ARC
  5
3D
330
1F
100
AcDbEntity
  8
10000_FRONT
  6
Continuous
 62
     7
370
    35
100
AcDbCircle
 10
40.22247675310063
 20
116.0543570458403
 30
0.0
 40
3.0
100
AcDbArc
 50
180.0
 51
270.0
  0
ARC
  5
3E
330
1F
100
AcDbEntity
  8
10000_FRONT
  6
Continuous
 62
     7
370
    35
100
AcDbCircle
 10
62.97247664310066
 20
116.0543570458403
 30
0.0
 40
3.000000000000028
100
AcDbArc
 50
270.0
 51
0.0
  0
LINE
  5
3F
330
1F
100
AcDbEntity
  8
10000_FRONT
  6
Continuous
 62
     7
370
    35
100
AcDbLine
 10
65.97247664310066
 20
116.0543570458403
 30
0.0
 11
65.97247664310066
 21
126.5543570458403
 31
0.0
  0
ARC
  5
41
330
1F
100
AcDbEntity
  8
10000_FRONT
  6
Continuous
 62
     7
370
    35
100
AcDbCircle
 10
36.59747664310066
 20
127.5543570458403
 30
0.0
 40
1.000000000000012
100
AcDbArc
 50
264.2315706075
 51
270.0
  0
ARC
  5
42
330
1F
100
AcDbEntity
  8
10000_FRONT
  6
Continuous
 62
     7
370
    35
100
AcDbCircle
 10
57.49747664310064
 20
101.0543570458403
 30
0.0
 40
4.5
100
AcDbArc
 50
270.0
 51
0.0
  0
ARC
  5
43
330
1F
100
AcDbEntity
  8
10000_FRONT
  6
Continuous
 62
     7
370
    35
100
AcDbCircle
 10
45.69747664310057
 20
101.0543570458403
 30
0.0
 40
4.5
100
AcDbArc
 50
180.0
 51
270.0
  0
LINE
  5
44
330
1F
100
AcDbEntity
  8
10000_FRONT
  6
Continuous
 62
     7
370
    35
100
AcDbLine
 10
41.19747664310057
 20
102.5543570458403
 30
0.0
 11
41.19747664310057
 21
101.0543570458403
 31
0.0
  0
LINE
  5
45
330
1F
100
AcDbEntity
  8
10000_FRONT
  6
Continuous
 62
     7
370
    35
100
AcDbLine
 10
61.99747664310064
 20
101.0543570458403
 30
0.0
 11
61.99747664310064
 21
102.5543570458403
 31
0.0
  0
LINE
  5
46
330
1F
100
AcDbEntity
  8
10000_FRONT
  6
Continuous
 62
     7
370
    35
100
AcDbLine
 10
60.84747664310066
 20
134.5543570458403
 30
0.0
 11
60.84747664310066
 21
136.9243570458403
 31
0.0
  0
LINE
  5
47
330
1F
100
AcDbEntity
  8
10000_FRONT
  6
Continuous
 62
     7
370
    35
100
AcDbLine
 10
42.34747664310066
 20
136.9243570458403
 30
0.0
 11
42.34747664310066
 21
135.0343570458403
 31
0.0
  0
LINE
  5
48
330
1F
100
AcDbEntity
  8
10000_FRONT
  6
Continuous
 62
     7
370
    35
100
AcDbLine
 10
60.84747664310066
 20
120.0543570458403
 30
0.0
 11
60.84747664310066
 21
121.0543570458403
 31
0.0
  0
LINE
  5
49
330
1F
100
AcDbEntity
  8
10000_FRONT
  6
Continuous
 62
     7
370
    35
100
AcDbLine
 10
59.84747664310066
 20
119.0543570458403
 30
0.0
 11
59.84747664310066
 21
120.0543570458403
 31
0.0
  0
LINE
  5
4A
330
1F
100
AcDbEntity
  8
10000_FRONT
  6
Continuous
 62
     7
370
    35
100
AcDbLine
 10
60.84747664310066
 20
118.0543570458403
 30
0.0
 11
45.22247675310063
 21
118.0543570458403
 31
0.0
  0
LINE
  5
4B
330
1F
100
AcDbEntity
  8
10000_FRONT
  6
Continuous
 62
     7
370
    35
100
AcDbLine
 10
60.84747664310066
 20
119.0543570458403
 30
0.0
 11
45.22247675310063
 21
119.0543570458403
 31
0.0
  0
LINE
  5
4C
330
1F
100
AcDbEntity
  8
10000_FRONT
  6
Continuous
 62
     7
370
    35
100
AcDbLine
 10
60.84747664310066
 20
115.0543570458403
 30
0.0
 11
45.05090387780057
 21
115.0543570458403
 31
0.0
  0
LINE
  5
4D
330
1F
100
AcDbEntity
  8
10000_FRONT
  6
Continuous
 62
     7
370
    35
100
AcDbLine
 10
60.84747664310066
 20
114.0543570458403
 30
0.0
 11
44.45854473060058
 21
114.0543570458403
 31
0.0
  0
LINE
  5
4E
330
1F
100
AcDbEntity
  8
10000_FRONT
  6
Continuous
 62
     7
370
    35
100
AcDbLine
 10
60.84747664310066
 20
116.0543570458403
 30
0.0
 11
45.22247675310063
 21
116.0543570458403
 31
0.0
  0
LINE
  5
4F
330
1F
100
AcDbEntity
  8
10000_FRONT
  6
Continuous
 62
     7
370
    35
100
AcDbLine
 10
60.84747664310066
 20
117.0543570458403
 30
0.0
 11
45.22247675310063
 21
117.0543570458403
 31
0.0
  0
LINE
  5
52
330
1F
100
AcDbEntity
  8
10000_FRONT
  6
Continuous
 62
     7
370
    35
100
AcDbLine
 10
62.54053653960067
 20
121.0543570458403
 30
0.0
 11
45.22247675310063
 21
121.0543570458403
 31
0.0
  0
LINE
  5
54
330
1F
100
AcDbEntity
  8
10000_FRONT
  6
Continuous
 62
     7
370
    35
100
AcDbLine
 10
50.59747664310066
 20
126.5543570458403
 30
0.0
 11
50.59747664310066
 21
121.0543570458403
 31
0.0
  0
LINE
  5
55
330
1F
100
AcDbEntity
  8
10000_FRONT
  6
Continuous
 62
     7
370
    35
100
AcDbLine
 10
52.59747664310066
 20
126.5543570458403
 30
0.0
 11
52.59747664310066
 21
121.0543570458403
 31
0.0
  0
LINE
  5
56
330
1F
100
AcDbEntity
  8
10000_FRONT
  6
Continuous
 62
     7
370
    35
100
AcDbLine
 10
61.54053653960068
 20
126.5543570458403
 30
0.0
 11
61.54053653960068
 21
121.0543570458403
 31
0.0
  0
LINE
  5
57
330
1F
100
AcDbEntity
  8
10000_FRONT
  6
Continuous
 62
     7
370
    35
100
AcDbLine
 10
62.54053653960068
 20
126.5543570458403
 30
0.0
 11
62.54053653960067
 21
121.0543570458403
 31
0.0
  0
LINE
  5
59
330
1F
100
AcDbEntity
  8
10000_FRONT
  6
Continuous
 62
     7
370
    35
100
AcDbLine
 10
69.69390439880067
 20
129.5543570458403
 30
0.0
 11
69.69390439880067
 21
114.5523722022403
 31
0.0
  0
LINE
  5
5B
330
1F
100
AcDbEntity
  8
10000_FRONT
  6
Continuous
 62
     7
370
    35
100
AcDbLine
 10
69.69390439880067
 20
127.8388686720403
 30
0.0
 11
66.69747664310057
 21
127.8388686720403
 31
0.0
  0
LINE
  5
5D
330
1F
100
AcDbEntity
  8
10000_FRONT
  6
Continuous
 62
     7
370
    35
100
AcDbLine
 10
69.69390439880067
 20
114.5523722022403
 30
0.0
 11
66.69747664310057
 21
114.5523722022403
 31
0.0
  0
LINE
  5
5F
330
1F
100
AcDbEntity
  8
10000_FRONT
  6
Continuous
 62
     7
370
    35
100
AcDbLine
 10
66.69747664310057
 20
77.55237220224024
 30
0.0
 11
66.69747664310057
 21
129.5543570458403
 31
0.0
  0
LINE
  5
61
330
1F
100
AcDbEntity
  8
10000_FRONT
  6
Continuous
 62
     7
370
    35
100
AcDbLine
 10
36.49747664310064
 20
127.8388686720403
 30
0.0
 11
33.49390439880063
 21
127.8388686720403
 31
0.0
  0
LINE
  5
63
330
1F
100
AcDbEntity
  8
10000_FRONT
  6
Continuous
 62
     7
370
    35
100
AcDbLine
 10
36.49747664310064
 20
114.5523722022403
 30
0.0
 11
33.49390439880063
 21
114.5523722022403
 31
0.0
  0
LINE
  5
65
330
1F
100
AcDbEntity
  8
10000_FRONT
  6
Continuous
 62
     7
370
    35
100
AcDbLine
 10
33.49747664310064
 20
117.8009071256402
 30
0.0
 11
33.49747664310064
 21
127.4268117136403
 31
0.0
  0
LINE
  5
67
330
1F
100
AcDbEntity
  8
0
  6
Continuous
 62
   144
370
     0
100
AcDbLine
 10
33.49390439880063
 20
117.8018718416402
 30
0.0
 11
33.49747664310064
 21
117.8009071256402
 31
0.0
  0
LINE
  5
68
330
1F
100
AcDbEntity
  8
10000_FRONT
  6
Continuous
 62
     7
370
    35
100
AcDbLine
 10
36.49747664310064
 20
129.5543570458403
 30
0.0
 11
36.49747664310064
 21
77.55237220224024
 31
0.0
  0
LINE
  5
6C
330
1F
100
AcDbEntity
  8
10000_FRONT
  6
Continuous
 62
     7
370
    35
100
AcDbLine
 10
33.49390439880063
 20
114.5523722022403
 30
0.0
 11
33.49390439880063
 21
129.5543570458403
 31
0.0
  0
LINE
  5
6F
330
1F
100
AcDbEntity
  8
10000_FRONT
  6
Continuous
 62
     7
370
    35
100
AcDbLine
 10
36.49747664310064
 20
77.55237220224024
 30
0.0
 11
66.69747664310057
 21
77.55237220224024
 31
0.0
  0
CIRCLE
  5
70
330
1F
100
AcDbEntity
  8
10000_FRONT
  6
Continuous
 62
     7
370
    35
100
AcDbCircle
 10
51.59747664310066
 20
86.55237220224023
 30
0.0
 40
3.100000000000023
  0
LINE
  5
75
330
1F
100
AcDbEntity
  8
10000_FRONT
  6
Continuous
 62
     7
370
    35
100
AcDbLine
 10
60.84747664310066
 20
135.0343570458403
 30
0.0
 11
64.37247664310064
 21
135.0343570458403
 31
0.0
  0
LINE
  5
76
330
1F
100
AcDbEntity
  8
10000_FRONT
  6
Continuous
 62
     7
370
    35
100
AcDbLine
 10
79.09747664310066
 20
129.5543570458403
 30
0.0
 11
24.09747664310066
 21
129.5543570458403
 31
0.0
  0
LINE
  5
77
330
1F
100
AcDbEntity
  8
10000_FRONT
  6
Continuous
 62
     7
370
    35
100
AcDbLine
 10
79.09747664310066
 20
134.5543570458403
 30
0.0
 11
24.09747664310066
 21
134.5543570458403
 31
0.0
  0
LINE
  5
78
330
1F
100
AcDbEntity
  8
10000_FRONT
  6
Continuous
 62
     7
370
    35
100
AcDbLine
 10
38.82247691520058
 20
135.0343570458403
 30
0.0
 11
43.62247675310061
 21
135.0343570458403
 31
0.0
  0
LINE
  5
79
330
1F
100
AcDbEntity
  8
10000_FRONT
  6
Continuous
 62
     7
370
    35
100
AcDbLine
 10
42.22247675310064
 20
113.0543570458403
 30
0.0
 11
40.22247675310063
 21
113.0543570458403
 31
0.0
  0
LINE
  5
7A
330
1F
100
AcDbEntity
  8
10000_FRONT
  6
Continuous
 62
     7
370
    35
100
AcDbLine
 10
62.97247664310066
 20
113.0543570458403
 30
0.0
 11
62.16298656930064
 21
113.0543570458403
 31
0.0
  0
LINE
  5
7B
330
1F
100
AcDbEntity
  8
10000_FRONT
  6
Continuous
 62
     7
370
    35
100
AcDbLine
 10
66.69747664310058
 20
126.5543570458403
 30
0.0
 11
45.22247675310063
 21
126.5543570458403
 31
0.0
  0
LINE
  5
7C
330
1F
100
AcDbEntity
  8
10000_FRONT
  6
Continuous
 62
     7
370
    35
100
AcDbLine
 10
37.22247675310064
 20
126.5543570458403
 30
0.0
 11
36.59747664310066
 21
126.5543570458403
 31
0.0
  0
LINE
  5
7E
330
1F
100
AcDbEntity
  8
10000_FRONT
  6
Continuous
 62
     7
370
    35
100
AcDbLine
 10
57.49747664310064
 20
96.55435704584034
 30
0.0
 11
45.69747666970056
 21
96.55435704584034
 31
0.0
  0
LINE
  5
7F
330
1F
100
AcDbEntity
  8
10000_FRONT
  6
Continuous
 62
     7
370
    35
100
AcDbLine
 10
62.16298656930064
 20
113.5143570458403
 30
0.0
 11
51.59747664310066
 21
113.5143570458403
 31
0.0
  0
LINE
  5
80
330
1F
100
AcDbEntity
  8
10000_FRONT
  6
Continuous
 62
     7
370
    35
100
AcDbLine
 10
51.59747664310066
 20
113.5143570458403
 30
0.0
 11
43.81884763730056
 21
113.5143570458403
 31
0.0
  0
LINE
  5
81
330
1F
100
AcDbEntity
  8
10000_FRONT
  6
Continuous
 62
     7
370
    35
100
AcDbLine
 10
62.16298656930064
 20
102.5543570458403
 30
0.0
 11
62.16298656930064
 21
113.5143570458403
 31
0.0
  0
LINE
  5
82
330
1F
100
AcDbEntity
  8
10000_FRONT
  6
Continuous
 62
     7
370
    35
100
AcDbLine
 10
62.16298656930064
 20
102.5543570458403
 30
0.0
 11
51.59747664310066
 21
102.5543570458403
 31
0.0
  0
LINE
  5
83
330
1F
100
AcDbEntity
  8
10000_FRONT
  6
Continuous
 62
     7
370
    35
100
AcDbLine
 10
51.59747664310066
 20
102.5543570458403
 30
0.0
 11
51.59747664310066
 21
113.5143570458403
 31
0.0
  0
LINE
  5
84
330
1F
100
AcDbEntity
  8
10000_FRONT
  6
Continuous
 62
     7
370
    35
100
AcDbLine
 10
51.59747664310066
 20
102.5543570458403
 30
0.0
 11
41.03196671700061
 21
102.5543570458403
 31
0.0
  0
LINE
  5
85
330
1F
100
AcDbEntity
  8
10000_FRONT
  6
Continuous
 62
     7
370
    35
100
AcDbLine
 10
41.03196671700061
 20
102.5543570458403
 30
0.0
 11
41.03196671700061
 21
113.0543570458403
 31
0.0
  0
LINE
  5
86
330
1F
100
AcDbEntity
  8
10000_FRONT
  6
Continuous
 62
     7
370
    35
100
AcDbLine
 10
60.84747664310066
 20
136.9243570458403
 30
0.0
 11
42.34747664310066
 21
136.9243570458403
 31
0.0
  0
LINE
  5
87
330
1F
100
AcDbEntity
  8
10000_FRONT
  6
Continuous
 62
     7
370
    35
100
AcDbLine
 10
60.84747664310066
 20
120.0543570458403
 30
0.0
 11
45.22247675310063
 21
120.0543570458403
 31
0.0
  0
LINE
  5
88
330
1F
100
AcDbEntity
  8
10000_FRONT
  6
Continuous
 62
     7
370
    35
100
AcDbLine
 10
37.22247675310064
 20
116.0543570458403
 30
0.0
 11
45.22247675310063
 21
116.0543570458403
 31
0.0
  0
LINE
  5
89
330
1F
100
AcDbEntity
  8
10000_FRONT
  6
Continuous
 62
     7
370
    35
100
AcDbLine
 10
60.84747664310066
 20
116.0543570458403
 30
0.0
 11
65.97247664310066
 21
116.0543570458403
 31
0.0
  0
LINE
  5
8A
330
1F
100
AcDbEntity
  8
10000_FRONT
  6
Continuous
 62
     7
370
    35
100
AcDbLine
 10
36.49747664310064
 20
127.5543570458403
 30
0.0
 11
37.22247675310064
 21
127.5543570458403
 31
0.0
  0
LINE
  5
8B
330
1F
100
AcDbEntity
  8
10000_FRONT
  6
Continuous
 62
     7
370
    35
100
AcDbLine
 10
45.22247675310063
 20
127.5543570458403
 30
0.0
 11
66.69747664310057
 21
127.5543570458403
 31
0.0
  0
LINE
  5
8C
330
1F
100
AcDbEntity
  8
10000_FRONT
  6
Continuous
 62
     7
370
    35
100
AcDbLine
 10
41.19747664310057
 20
101.0543570458403
 30
0.0
 11
61.99747664310064
 21
101.0543570458403
 31
0.0
  0
LINE
  5
8D
330
1F
100
AcDbEntity
  8
11000_LEFT
  6
Continuous
 62
     7
370
    35
100
AcDbLine
 10
201.7534646671006
 20
119.0543570458403
 30
0.0
 11
201.7534646671006
 21
118.0543570458403
 31
0.0
  0
LINE
  5
8E
330
1F
100
AcDbEntity
  8
11000_LEFT
  6
Continuous
 62
     7
370
    35
100
AcDbLine
 10
220.2534646671006
 20
118.0543570458403
 30
0.0
 11
220.2534646671006
 21
119.0543570458403
 31
0.0
  0
LINE
  5
8F
330
1F
100
AcDbEntity
  8
11000_LEFT
  6
Continuous
 62
     7
370
    35
100
AcDbLine
 10
202.7534646671006
 20
118.0543570458403
 30
0.0
 11
202.7534646671006
 21
117.0543570458403
 31
0.0
  0
LINE
  5
90
330
1F
100
AcDbEntity
  8
11000_LEFT
  6
Continuous
 62
     7
370
    35
100
AcDbLine
 10
219.2534646671006
 20
117.0543570458403
 30
0.0
 11
219.2534646671006
 21
118.0543570458403
 31
0.0
  0
LINE
  5
91
330
1F
100
AcDbEntity
  8
11000_LEFT
  6
Continuous
 62
     7
370
    35
100
AcDbLine
 10
202.7534646671006
 20
114.0543570458403
 30
0.0
 11
202.7534646671006
 21
113.5143570458403
 31
0.0
  0
LINE
  5
92
330
1F
100
AcDbEntity
  8
11000_LEFT
  6
Continuous
 62
     7
370
    35
100
AcDbLine
 10
219.2534646671006
 20
113.5143570458403
 30
0.0
 11
219.2534646671006
 21
114.0543570458403
 31
0.0
  0
LINE
  5
93
330
1F
100
AcDbEntity
  8
11000_LEFT
  6
Continuous
 62
     7
370
    35
100
AcDbLine
 10
201.7534646671006
 20
115.0543570458403
 30
0.0
 11
201.7534646671006
 21
114.0543570458403
 31
0.0
  0
LINE
  5
94
330
1F
100
AcDbEntity
  8
11000_LEFT
  6
Continuous
 62
     7
370
    35
100
AcDbLine
 10
220.2534646671006
 20
114.0543570458403
 30
0.0
 11
220.2534646671006
 21
115.0543570458403
 31
0.0
  0
LINE
  5
95
330
1F
100
AcDbEntity
  8
11000_LEFT
  6
Continuous
 62
     7
370
    35
100
AcDbLine
 10
201.7534646671006
 20
117.0543570458403
 30
0.0
 11
201.7534646671006
 21
116.0543570458403
 31
0.0
  0
LINE
  5
96
330
1F
100
AcDbEntity
  8
11000_LEFT
  6
Continuous
 62
     7
370
    35
100
AcDbLine
 10
220.2534646671006
 20
116.0543570458403
 30
0.0
 11
220.2534646671006
 21
117.0543570458403
 31
0.0
  0
LINE
  5
97
330
1F
100
AcDbEntity
  8
11000_LEFT
  6
Continuous
 62
     7
370
    35
100
AcDbLine
 10
202.7534646671006
 20
116.0543570458403
 30
0.0
 11
202.7534646671006
 21
115.0543570458403
 31
0.0
  0
LINE
  5
98
330
1F
100
AcDbEntity
  8
11000_LEFT
  6
Continuous
 62
     7
370
    35
100
AcDbLine
 10
219.2534646671006
 20
115.0543570458403
 30
0.0
 11
219.2534646671006
 21
116.0543570458403
 31
0.0
  0
LINE
  5
99
330
1F
100
AcDbEntity
  8
11000_LEFT
  6
Continuous
 62
     7
370
    35
100
AcDbLine
 10
223.1034646671005
 20
121.0543570458403
 30
0.0
 11
223.1034646671005
 21
125.4541208594403
 31
0.0
  0
ARC
  5
9A
330
1F
100
AcDbEntity
  8
11000_LEFT
  6
Continuous
 62
     7
370
    35
100
AcDbCircle
 10
196.9334375386006
 20
134.0343570458403
 30
0.0
 40
1.0
100
AcDbArc
 50
31.33225149759671
 51
90.0
  0
ARC
  5
9B
330
1F
100
AcDbEntity
  8
11000_LEFT
  6
Continuous
 62
     7
370
    35
100
AcDbCircle
 10
192.1334375386006
 20
134.0343570458403
 30
0.0
 40
1.0
100
AcDbArc
 50
90.0
 51
148.6677485023979
  0
LINE
  5
9C
330
1F
100
AcDbEntity
  8
11000_LEFT
  6
Continuous
 62
     7
370
    35
100
AcDbLine
 10
240.0034646671006
 20
129.5543570458403
 30
0.0
 11
240.0034646671006
 21
134.5543570458403
 31
0.0
  0
ARC
  5
9D
330
1F
100
AcDbEntity
  8
11000_LEFT
  6
Continuous
 62
     7
370
    35
100
AcDbCircle
 10
232.8734917956006
 20
134.0343570458403
 30
0.0
 40
1.0
100
AcDbArc
 50
31.33225149759671
 51
90.0
  0
ARC
  5
9E
330
1F
100
AcDbEntity
  8
11000_LEFT
  6
Continuous
 62
     7
370
    35
100
AcDbCircle
 10
228.0734917956006
 20
134.0343570458403
 30
0.0
 40
1.0
100
AcDbArc
 50
90.0
 51
148.6677485024032
  0
LINE
  5
9F
330
1F
100
AcDbEntity
  8
11000_LEFT
  6
Continuous
 62
     7
370
    35
100
AcDbLine
 10
226.4734917956007
 20
126.3571169069403
 30
0.0
 11
226.4734917956007
 21
116.0543570458403
 31
0.0
  0
LINE
  5
A0
330
1F
100
AcDbEntity
  8
11000_LEFT
  6
Continuous
 62
     7
370
    35
100
AcDbLine
 10
234.4734917956007
 20
116.0543570458403
 30
0.0
 11
234.4734917956007
 21
129.5543570458403
 31
0.0
  0
ARC
  5
A1
330
1F
100
AcDbEntity
  8
11000_LEFT
  6
Continuous
 62
     7
370
    35
100
AcDbCircle
 10
231.4734917956007
 20
116.0543570458403
 30
0.0
 40
3.0
100
AcDbArc
 50
270.0
 51
0.0
  0
ARC
  5
A2
330
1F
100
AcDbEntity
  8
11000_LEFT
  6
Continuous
 62
     7
370
    35
100
AcDbCircle
 10
229.4734917956007
 20
116.0543570458403
 30
0.0
 40
3.0
100
AcDbArc
 50
180.0
 51
270.0
  0
LINE
  5
A3
330
1F
100
AcDbEntity
  8
11000_LEFT
  6
Continuous
 62
     7
370
    35
100
AcDbLine
 10
190.5334375386005
 20
116.7270083928402
 30
0.0
 11
190.5334375386005
 21
116.0543570458403
 31
0.0
  0
LINE
  5
A4
330
1F
100
AcDbEntity
  8
11000_LEFT
  6
Continuous
 62
     7
370
    35
100
AcDbLine
 10
198.5334375386005
 20
116.0543570458403
 30
0.0
 11
198.5334375386005
 21
118.8706019323402
 31
0.0
  0
ARC
  5
A5
330
1F
100
AcDbEntity
  8
11000_LEFT
  6
Continuous
 62
     7
370
    35
100
AcDbCircle
 10
195.5334375386005
 20
116.0543570458403
 30
0.0
 40
3.0
100
AcDbArc
 50
270.0
 51
0.0
  0
ARC
  5
A6
330
1F
100
AcDbEntity
  8
11000_LEFT
  6
Continuous
 62
     7
370
    35
100
AcDbCircle
 10
193.5334375386005
 20
116.0543570458403
 30
0.0
 40
3.0
100
AcDbArc
 50
180.0
 51
270.0
  0
ARC
  5
A7
330
1F
100
AcDbEntity
  8
11000_LEFT
  6
Continuous
 62
     7
370
    35
100
AcDbCircle
 10
216.9034646671007
 20
101.0543570458403
 30
0.0
 40
4.5
100
AcDbArc
 50
270.0
 51
0.0
  0
ARC
  5
A8
330
1F
100
AcDbEntity
  8
11000_LEFT
  6
Continuous
 62
     7
370
    35
100
AcDbCircle
 10
205.1034646671005
 20
101.0543570458403
 30
0.0
 40
4.5
100
AcDbArc
 50
180.0
 51
270.0
  0
LINE
  5
A9
330
1F
100
AcDbEntity
  8
11000_LEFT
  6
Continuous
 62
     7
370
    35
100
AcDbLine
 10
200.6034646671005
 20
102.5543570458403
 30
0.0
 11
200.6034646671005
 21
101.0543570458403
 31
0.0
  0
LINE
  5
AA
330
1F
100
AcDbEntity
  8
11000_LEFT
  6
Continuous
 62
     7
370
    35
100
AcDbLine
 10
221.4034646671007
 20
101.0543570458403
 30
0.0
 11
221.4034646671007
 21
102.5543570458403
 31
0.0
  0
LINE
  5
AB
330
1F
100
AcDbEntity
  8
11000_LEFT
  6
Continuous
 62
     7
370
    35
100
AcDbLine
 10
220.2534646671006
 20
134.5543570458403
 30
0.0
 11
220.2534646671006
 21
136.9243570458403
 31
0.0
  0
LINE
  5
AC
330
1F
100
AcDbEntity
  8
11000_LEFT
  6
Continuous
 62
     7
370
    35
100
AcDbLine
 10
201.7534646671006
 20
136.9243570458403
 30
0.0
 11
201.7534646671006
 21
134.5543570458403
 31
0.0
  0
LINE
  5
AD
330
1F
100
AcDbEntity
  8
11000_LEFT
  6
Continuous
 62
     7
370
    35
100
AcDbLine
 10
220.2534646671006
 20
120.0543570458403
 30
0.0
 11
220.2534646671006
 21
121.0543570458403
 31
0.0
  0
LINE
  5
AE
330
1F
100
AcDbEntity
  8
11000_LEFT
  6
Continuous
 62
     7
370
    35
100
AcDbLine
 10
202.7534646671006
 20
120.0013547934403
 30
0.0
 11
202.7534646671006
 21
119.0543570458403
 31
0.0
  0
LINE
  5
AF
330
1F
100
AcDbEntity
  8
11000_LEFT
  6
Continuous
 62
     7
370
    35
100
AcDbLine
 10
219.2534646671006
 20
119.0543570458403
 30
0.0
 11
219.2534646671006
 21
120.0543570458403
 31
0.0
  0
LINE
  5
B0
330
1F
100
AcDbEntity
  8
11000_LEFT
  6
Continuous
 62
     7
370
    35
100
AcDbLine
 10
220.2534646671006
 20
118.0543570458403
 30
0.0
 11
201.7534646671006
 21
118.0543570458403
 31
0.0
  0
LINE
  5
B1
330
1F
100
AcDbEntity
  8
11000_LEFT
  6
Continuous
 62
     7
370
    35
100
AcDbLine
 10
220.2534646671006
 20
119.0543570458403
 30
0.0
 11
201.7534646671006
 21
119.0543570458403
 31
0.0
  0
LINE
  5
B2
330
1F
100
AcDbEntity
  8
11000_LEFT
  6
Continuous
 62
     7
370
    35
100
AcDbLine
 10
220.2534646671006
 20
116.0543570458403
 30
0.0
 11
201.7534646671006
 21
116.0543570458403
 31
0.0
  0
LINE
  5
B3
330
1F
100
AcDbEntity
  8
11000_LEFT
  6
Continuous
 62
     7
370
    35
100
AcDbLine
 10
220.2534646671006
 20
114.0543570458403
 30
0.0
 11
201.7534646671006
 21
114.0543570458403
 31
0.0
  0
LINE
  5
B4
330
1F
100
AcDbEntity
  8
11000_LEFT
  6
Continuous
 62
     7
370
    35
100
AcDbLine
 10
220.2534646671006
 20
115.0543570458403
 30
0.0
 11
201.7534646671006
 21
115.0543570458403
 31
0.0
  0
LINE
  5
B5
330
1F
100
AcDbEntity
  8
11000_LEFT
  6
Continuous
 62
     7
370
    35
100
AcDbLine
 10
220.2534646671006
 20
117.0543570458403
 30
0.0
 11
201.7534646671006
 21
117.0543570458403
 31
0.0
  0
LINE
  5
B6
330
1F
100
AcDbEntity
  8
11000_LEFT
  6
Continuous
 62
     7
370
    35
100
AcDbLine
 10
216.1667427057005
 20
121.0543570458403
 30
0.0
 11
206.6833225734006
 21
121.0543570458403
 31
0.0
  0
LINE
  5
B7
330
1F
100
AcDbEntity
  8
11000_LEFT
  6
Continuous
 62
     7
370
    35
100
AcDbLine
 10
217.8987935132006
 20
121.0543570458403
 30
0.0
 11
216.1667427057005
 21
121.0543570458403
 31
0.0
  0
LINE
  5
B8
330
1F
100
AcDbEntity
  8
11000_LEFT
  6
Continuous
 62
     7
370
    35
100
AcDbLine
 10
223.0620715518007
 20
121.0543570458403
 30
0.0
 11
217.8987935132006
 21
121.0543570458403
 31
0.0
  0
LINE
  5
B9
330
1F
100
AcDbEntity
  8
11000_LEFT
  6
Continuous
 62
     7
370
    35
100
AcDbLine
 10
223.1034646671005
 20
121.0543570458403
 30
0.0
 11
223.0620715518007
 21
121.0543570458403
 31
0.0
  0
LINE
  5
BA
330
1F
100
AcDbEntity
  8
11000_LEFT
  6
Continuous
 62
     7
370
    35
100
AcDbLine
 10
216.1667427057005
 20
123.5954318117403
 30
0.0
 11
216.1667427057005
 21
121.0543570458403
 31
0.0
  0
LINE
  5
BB
330
1F
100
AcDbEntity
  8
11000_LEFT
  6
Continuous
 62
     7
370
    35
100
AcDbLine
 10
217.8987935132006
 20
124.0595334268403
 30
0.0
 11
217.8987935132006
 21
121.0543570458403
 31
0.0
  0
LINE
  5
BC
330
1F
100
AcDbEntity
  8
11000_LEFT
  6
Continuous
 62
     7
370
    35
100
AcDbLine
 10
223.0620715518007
 20
125.4430296076403
 30
0.0
 11
223.0620715518007
 21
121.0543570458403
 31
0.0
  0
LINE
  5
BD
330
1F
100
AcDbEntity
  8
11000_LEFT
  6
Continuous
 62
     7
370
    35
100
AcDbLine
 10
182.4175847870005
 20
114.5523722022403
 30
0.0
 11
172.5034646671006
 21
77.55237220224024
 31
0.0
  0
LINE
  5
BE
330
1F
100
AcDbEntity
  8
11000_LEFT
  6
Continuous
 62
     7
370
    35
100
AcDbLine
 10
172.5034646671006
 20
77.55237220224024
 30
0.0
 11
162.5034646671006
 21
77.55237220224024
 31
0.0
  0
LINE
  5
BF
330
1F
100
AcDbEntity
  8
11000_LEFT
  6
Continuous
 62
     7
370
    35
100
AcDbLine
 10
162.5034646671006
 20
77.55237220224024
 30
0.0
 11
162.5034646671006
 21
132.5523722022403
 31
0.0
  0
LINE
  5
C0
330
1F
100
AcDbEntity
  8
11000_LEFT
  6
Continuous
 62
     7
370
    35
100
AcDbLine
 10
162.5034646671006
 20
132.5523722022403
 30
0.0
 11
191.8029653496005
 21
132.5523722022403
 31
0.0
  0
LINE
  5
C1
330
1F
100
AcDbEntity
  8
11000_LEFT
  6
Continuous
 62
     7
370
    35
100
AcDbLine
 10
194.5448825406006
 20
117.8018718416402
 30
0.0
 11
194.5448825406006
 21
129.5543570458403
 31
0.0
  0
LINE
  5
C2
330
1F
100
AcDbEntity
  8
11000_LEFT
  6
Continuous
 62
     7
370
    35
100
AcDbLine
 10
194.5448825406006
 20
117.8018718416402
 30
0.0
 11
182.4175847870005
 21
114.5523722022403
 31
0.0
  0
LINE
  5
C3
330
1F
100
AcDbEntity
  8
11000_LEFT
  6
Continuous
 62
     7
370
    35
100
AcDbLine
 10
232.0034646671006
 20
127.8388686720403
 30
0.0
 11
230.4620467936006
 21
127.4258469976403
 31
0.0
  0
LINE
  5
C4
330
1F
100
AcDbEntity
  8
11000_LEFT
  6
Continuous
 62
     7
370
    35
100
AcDbLine
 10
194.5449018591007
 20
117.8018770180403
 30
0.0
 11
230.4620274751005
 21
127.4258418212403
 31
0.0
  0
LINE
  5
C5
330
1F
100
AcDbEntity
  8
11000_LEFT
  6
Continuous
 62
     7
370
    35
100
AcDbLine
 10
232.0034646671006
 20
129.5543570458403
 30
0.0
 11
232.0034646671006
 21
127.8388686720403
 31
0.0
  0
LINE
  5
C7
330
1F
100
AcDbEntity
  8
11000_LEFT
  6
Continuous
 62
     7
370
    35
100
AcDbLine
 10
192.1334375386006
 20
135.0343570458403
 30
0.0
 11
196.9334375386006
 21
135.0343570458403
 31
0.0
  0
LINE
  5
C8
330
1F
100
AcDbEntity
  8
11000_LEFT
  6
Continuous
 62
     7
370
    35
100
AcDbLine
 10
240.0034646671006
 20
129.5543570458403
 30
0.0
 11
194.5448825406006
 21
129.5543570458403
 31
0.0
  0
LINE
  5
C9
330
1F
100
AcDbEntity
  8
11000_LEFT
  6
Continuous
 62
     7
370
    35
100
AcDbLine
 10
240.0034646671006
 20
134.5543570458403
 30
0.0
 11
233.727658055763
 21
134.5543570458403
 31
0.0
  0
LINE
  5
CA
330
1F
100
AcDbEntity
  8
11000_LEFT
  6
Continuous
 62
     7
370
    35
100
AcDbLine
 10
191.7998417957006
 20
134.5543570458403
 30
0.0
 11
162.5034646671006
 21
134.5543570458403
 31
0.0
  0
LINE
  5
CB
330
1F
100
AcDbEntity
  8
11000_LEFT
  6
Continuous
 62
     7
370
    35
100
AcDbLine
 10
191.7998417957005
 20
132.5523722022403
 30
0.0
 11
191.7998417957006
 21
134.5543570458403
 31
0.0
  0
LINE
  5
CC
330
1F
100
AcDbEntity
  8
11000_LEFT
  6
Continuous
 62
     7
370
    35
100
AcDbLine
 10
162.5034646671006
 20
132.5523922022403
 30
0.0
 11
162.5034646671006
 21
134.5543570458403
 31
0.0
  0
LINE
  5
CD
330
1F
100
AcDbEntity
  8
11000_LEFT
  6
Continuous
 62
     7
370
    35
100
AcDbLine
 10
228.0734917956006
 20
135.0343570458403
 30
0.0
 11
232.8734917956006
 21
135.0343570458403
 31
0.0
  0
LINE
  5
CE
330
1F
100
AcDbEntity
  8
11000_LEFT
  6
Continuous
 62
     7
370
    35
100
AcDbLine
 10
231.4734917956007
 20
113.0543570458403
 30
0.0
 11
229.4734917956007
 21
113.0543570458403
 31
0.0
  0
LINE
  5
CF
330
1F
100
AcDbEntity
  8
11000_LEFT
  6
Continuous
 62
     7
370
    35
100
AcDbLine
 10
195.5334375386005
 20
113.0543570458403
 30
0.0
 11
193.5334375386005
 21
113.0543570458403
 31
0.0
  0
LINE
  5
D0
330
1F
100
AcDbEntity
  8
11000_LEFT
  6
Continuous
 62
     7
370
    35
100
AcDbLine
 10
216.9034646671007
 20
96.55435704584034
 30
0.0
 11
205.1034646671005
 21
96.55435704584034
 31
0.0
  0
LINE
  5
D1
330
1F
100
AcDbEntity
  8
11000_LEFT
  6
Continuous
 62
     7
370
    35
100
AcDbLine
 10
204.9034646671007
 20
102.5543570458403
 30
0.0
 11
204.9034646671007
 21
113.5143570458403
 31
0.0
  0
LINE
  5
D2
330
1F
100
AcDbEntity
  8
11000_LEFT
  6
Continuous
 62
     7
370
    35
100
AcDbLine
 10
204.9034646671007
 20
102.5543570458403
 30
0.0
 11
198.8034646671005
 21
102.5543570458403
 31
0.0
  0
LINE
  5
D3
330
1F
100
AcDbEntity
  8
11000_LEFT
  6
Continuous
 62
     7
370
    35
100
AcDbLine
 10
198.8034646671005
 20
102.5543570458403
 30
0.0
 11
198.8034646671005
 21
113.5143570458403
 31
0.0
  0
LINE
  5
D4
330
1F
100
AcDbEntity
  8
11000_LEFT
  6
Continuous
 62
     7
370
    35
100
AcDbLine
 10
204.9034646671007
 20
113.5143570458403
 30
0.0
 11
198.8034646671005
 21
113.5143570458403
 31
0.0
  0
LINE
  5
D5
330
1F
100
AcDbEntity
  8
11000_LEFT
  6
Continuous
 62
     7
370
    35
100
AcDbLine
 10
223.2034646671007
 20
113.5143570458403
 30
0.0
 11
217.1034646671005
 21
113.5143570458403
 31
0.0
  0
LINE
  5
D6
330
1F
100
AcDbEntity
  8
11000_LEFT
  6
Continuous
 62
     7
370
    35
100
AcDbLine
 10
217.1034646671005
 20
113.5143570458403
 30
0.0
 11
204.9034646671007
 21
113.5143570458403
 31
0.0
  0
LINE
  5
D7
330
1F
100
AcDbEntity
  8
11000_LEFT
  6
Continuous
 62
     7
370
    35
100
AcDbLine
 10
217.1034646671005
 20
102.5543570458403
 30
0.0
 11
204.9034646671007
 21
102.5543570458403
 31
0.0
  0
LINE
  5
D8
330
1F
100
AcDbEntity
  8
11000_LEFT
  6
Continuous
 62
     7
370
    35
100
AcDbLine
 10
223.2034646671007
 20
102.5543570458403
 30
0.0
 11
217.1034646671005
 21
102.5543570458403
 31
0.0
  0
LINE
  5
D9
330
1F
100
AcDbEntity
  8
11000_LEFT
  6
Continuous
 62
     7
370
    35
100
AcDbLine
 10
217.1034646671005
 20
102.5543570458403
 30
0.0
 11
217.1034646671005
 21
113.5143570458403
 31
0.0
  0
LINE
  5
DA
330
1F
100
AcDbEntity
  8
11000_LEFT
  6
Continuous
 62
     7
370
    35
100
AcDbLine
 10
223.2034646671007
 20
102.5543570458403
 30
0.0
 11
223.2034646671007
 21
113.5143570458403
 31
0.0
  0
LINE
  5
DB
330
1F
100
AcDbEntity
  8
11000_LEFT
  6
Continuous
 62
     7
370
    35
100
AcDbLine
 10
220.2534646671006
 20
136.9243570458403
 30
0.0
 11
201.7534646671006
 21
136.9243570458403
 31
0.0
  0
LINE
  5
DC
330
1F
100
AcDbEntity
  8
11000_LEFT
  6
Continuous
 62
     7
370
    35
100
AcDbLine
 10
220.2534646671006
 20
120.0543570458403
 30
0.0
 11
202.9512717659006
 21
120.0543570458403
 31
0.0
  0
LINE
  5
DD
330
1F
100
AcDbEntity
  8
11000_LEFT
  6
Continuous
 62
     7
370
    35
100
AcDbLine
 10
226.4734917956007
 20
116.0543570458403
 30
0.0
 11
234.4734917956007
 21
116.0543570458403
 31
0.0
  0
LINE
  5
DE
330
1F
100
AcDbEntity
  8
11000_LEFT
  6
Continuous
 62
     7
370
    35
100
AcDbLine
 10
190.5334375386005
 20
116.0543570458403
 30
0.0
 11
198.5334375386005
 21
116.0543570458403
 31
0.0
  0
LINE
  5
DF
330
1F
100
AcDbEntity
  8
11000_LEFT
  6
Continuous
 62
     7
370
    35
100
AcDbLine
 10
200.6034646671005
 20
101.0543570458403
 30
0.0
 11
221.4034646671007
 21
101.0543570458403
 31
0.0
  0
LWPOLYLINE
  5
27B
330
1F
100
AcDbEntity
  8
90200_FRAME_SIZE
100
AcDbPolyline
 90
        4
 70
     1
 43
0.0
 10
-16.5
 20
-15.0
 10
313.5
 20
-15.0
 10
313.5
 20
225.0
 10
-16.5
 20
225.0
1001
GENIUS_GENREC_14
1002
{
1000
PYDIR
1011
-16.5
1021
225.0
1031
0.0
1002
}
1002
{
1000
PXDIR
1011
313.5
1021
-15.0
1031
0.0
1002
}
1002
{
1000
PORI
1011
-16.5
1021
-15.0
1031
0.0
1002
}
1002
{
1000
PINS
1011
-16.5
1021
-15.0
1031
0.0
1002
}
1002
{
1000
HVAL
1000
240
1002
}
1002
{
1000
H
1070
     2
1002
}
1002
{
1000
WVAL
1000
330
1002
}
1002
{
1000
W
1070
     2
1002
}
1002
{
1000
C
1070
     1
1002
}
1001
GENIUS_GENOBJ-N-REC_13
1002
{
1000
OWNER
1000
GEN
1002
}
1001
GENIUS_GENODEF_13
1002
{
1000
HIER
1070
     0
1002
}
1002
{
1000
MANEDIT
1070
     0
1002
}
1002
{
1000
NOSEL
1070
     0
1002
}
1002
{
1000
BEHIND
1070
     0
1002
}
1002
{
1000
OTHER
1070
     0
1002
}
1002
{
1000
REACTOR
1002
}
  0
LWPOLYLINE
  5
283
330
1F
100
AcDbEntity
  8
90100_FRAME_THICK
100
AcDbPolyline
 90
        4
 70
     1
 43
0.0
 10
0.0
 20
0.0
 10
297.0
 20
0.0
 10
297.0
 20
210.0
 10
0.0
 20
210.0
1001
GENIUS_GENREC_14
1002
{
1000
PYDIR
1011
0.0
1021
210.0
1031
0.0
1002
}
1002
{
1000
PXDIR
1011
297.0
1021
0.0
1031
0.0
1002
}
1002
{
1000
PORI
1011
0.0
1021
0.0
1031
0.0
1002
}
1002
{
1000
PINS
1011
0.0
1021
0.0
1031
0.0
1002
}
1002
{
1000
HVAL
1000
210
1002
}
1002
{
1000
H
1070
     2
1002
}
1002
{
1000
WVAL
1000
297
1002
}
1002
{
1000
W
1070
     2
1002
}
1002
{
1000
C
1070
     1
1002
}
1001
GENIUS_GENODEF_13
1002
{
1000
HIER
1070
     0
1002
}
1002
{
1000
MANEDIT
1070
     0
1002
}
1002
{
1000
NOSEL
1070
     0
1002
}
1002
{
1000
BEHIND
1070
     0
1002
}
1002
{
1000
OTHER
1070
     0
1002
}
1002
{
1000
REACTOR
1002
}
1001
GENIUS_GENOBJ-N-REC_13
1002
{
1000
OWNER
1000
GEN
1002
}
  0
LWPOLYLINE
  5
287
330
1F
100
AcDbEntity
  8
90000_FRAME_THIN
100
AcDbPolyline
 90
        4
 70
     1
 43
0.0
 10
5.0
 20
5.0
 10
292.0
 20
5.0
 10
292.0
 20
205.0
 10
5.0
 20
205.0
1001
GENIUS_GENREC_14
1002
{
1000
PYDIR
1011
0.0
1021
210.0
1031
0.0
1002
}
1002
{
1000
PXDIR
1011
297.0
1021
0.0
1031
0.0
1002
}
1002
{
1000
PORI
1011
0.0
1021
0.0
1031
0.0
1002
}
1002
{
1000
PINS
1011
0.0
1021
0.0
1031
0.0
1002
}
1002
{
1000
HVAL
1000
210
1002
}
1002
{
1000
H
1070
     2
1002
}
1002
{
1000
WVAL
1000
297
1002
}
1002
{
1000
W
1070
     2
1002
}
1002
{
1000
C
1070
     1
1002
}
1001
GENIUS_GENODEF_13
1002
{
1000
HIER
1070
     0
1002
}
1002
{
1000
MANEDIT
1070
     0
1002
}
1002
{
1000
NOSEL
1070
     0
1002
}
1002
{
1000
BEHIND
1070
     0
1002
}
1002
{
1000
OTHER
1070
     0
1002
}
1002
{
1000
REACTOR
1002
}
1001
GENIUS_GENOBJ-N-REC_13
1002
{
1000
OWNER
1000
GEN
1002
}
  0
INSERT
  5
2A1
330
1F
100
AcDbEntity
  8
0
100
AcDbBlockReference
 66
     1
  2
Title_A4L
 10
287.0
 20
10.0
 30
0.0
  0
ATTRIB
  5
2A2
330
2A1
100
AcDbEntity
  8
92000_TITLE
100
AcDbText
 10
170.0000000000004
 20
11.75
 30
0.0
 40
2.5
  1

 72
     1
 11
170.0000000000004
 21
13.0
 31
0.0
100
AcDbAttribute
  2
DATUM
 70
     0
 74
     2
  0
ATTRIB
  5
2A3
330
2A1
100
AcDbEntity
  8
92000_TITLE
100
AcDbText
 10
195.0000000000004
 20
11.75
 30
0.0
 40
2.5
  1

 72
     1
 11
195.0000000000004
 21
13.0
 31
0.0
100
AcDbAttribute
  2
NAME
 70
     0
 74
     2
  0
ATTRIB
  5
2A4
330
2A1
100
AcDbEntity
  8
92000_TITLE
100
AcDbText
 10
204.8333333333338
 20
22.25000000000012
 30
0.0
 40
3.5
  1
8WD4408_00002751_000_ALL.
 72
     1
 11
244.5000000000005
 21
24.00000000000011
 31
0.0
100
AcDbAttribute
  2
ZEICHNUNGSNAME
 70
     0
 74
     2
  0
ATTRIB
  5
2A5
330
2A1
100
AcDbEntity
  8
92000_TITLE
100
AcDbText
 10
216.5833333333338
 20
16.75000000000011
 30
0.0
 40
2.5
  1
Winkel für Sockelmontage
 72
     1
 11
244.5000000000005
 21
18.00000000000011
 31
0.0
100
AcDbAttribute
  2
ARTIKELNAME
 70
     0
 74
     2
  0
SEQEND
  5
2A6
330
2A1
100
AcDbEntity
  8
0
  0
ARC
  5
2F5
330
1F
100
AcDbEntity
  8
10000_FRONT
  6
Continuous
 62
     7
370
    35
100
AcDbCircle
 10
42.14747664310062
 20
95.55237220224029
 30
0.0
 40
3.100000000000023
100
AcDbArc
 50
94.60675798431605
 51
19.73127085204797
  0
ARC
  5
2F7
330
1F
100
AcDbEntity
  8
10000_FRONT
  6
Continuous
 62
     7
370
    35
100
AcDbCircle
 10
61.0474766741427
 20
95.55237224413509
 30
0.0
 40
3.100000000000023
100
AcDbArc
 50
160.2687294019622
 51
85.39324226969428
  0
LINE
  5
301
330
1F
100
AcDbEntity
  8
10200_FRONT_SYM
 62
     7
 48
0.5
370
    15
100
AcDbLine
 10
51.59747664310066
 20
139.4188339888178
 30
0.0
 11
51.59747664310066
 21
75.01055655590471
 31
0.0
  0
LINE
  5
302
330
1F
100
AcDbEntity
  8
11200_LEFT_SYM
 62
     7
 48
0.5
370
    15
100
AcDbLine
 10
230.4734917956007
 20
110.7492492336177
 30
0.0
 11
230.4620274751005
 21
127.4258418212403
 31
0.0
  0
LINE
  5
303
330
1F
100
AcDbEntity
  8
10200_FRONT_SYM
 62
     7
 48
0.25
370
    15
100
AcDbLine
 10
37.98469724127244
 20
95.55237220224029
 30
0.0
 11
46.50922040047771
 21
95.55237220224029
 31
0.0
  0
LINE
  5
304
330
1F
100
AcDbEntity
  8
10200_FRONT_SYM
 62
     7
 48
0.25
370
    15
100
AcDbLine
 10
56.90684096171207
 20
95.55237224413509
 30
0.0
 11
65.46959276153575
 21
95.55237224413509
 31
0.0
  0
LINE
  5
305
330
1F
100
AcDbEntity
  8
10200_FRONT_SYM
 62
     7
 48
0.25
370
    15
100
AcDbLine
 10
61.0474766741427
 20
91.38300178094215
 30
0.0
 11
61.0474766741427
 21
99.72174270732807
 31
0.0
  0
LINE
  5
306
330
1F
100
AcDbEntity
  8
10200_FRONT_SYM
 62
     7
 48
0.25
370
    15
100
AcDbLine
 10
42.14747664310062
 20
91.38300173904735
 30
0.0
 11
42.14747664310062
 21
99.72174266543326
 31
0.0
  0
LINE
  5
307
330
1F
100
AcDbEntity
  8
10200_FRONT_SYM
 62
     7
 48
0.25
370
    15
100
AcDbLine
 10
47.45684093067004
 20
86.55237220224023
 30
0.0
 11
56.01959273049371
 21
86.55237220224023
 31
0.0
  0
LINE
  5
308
330
1F
100
AcDbEntity
  8
11200_LEFT_SYM
 62
     7
 48
0.5
370
    15
100
AcDbLine
 10
194.5334375386005
 20
110.7492492336177
 30
0.0
 11
194.5334375386005
 21
121.9535841268907
 31
0.0
  0
LINE
  5
309
330
1F
100
AcDbEntity
  8
11200_LEFT_SYM
 62
     7
 48
0.5
370
    15
100
AcDbLine
 10
211.0034646671006
 20
93.80067263931596
 30
0.0
 11
211.1418237664146
 21
139.8938071819216
 31
0.0
  0
LINE
  5
30B
330
1F
100
AcDbEntity
  8
11000_LEFT
  6
Continuous
 62
     7
370
    35
100
AcDbLine
 10
227.2193255354381
 20
134.5543570458403
 30
0.0
 11
197.7876037987631
 21
134.5543570458403
 31
0.0
  0
DIMENSION
  5
30C
330
1F
100
AcDbEntity
  8
10100_FRONT_DIM
 62
     7
370
    18
100
AcDbDimension
  2
*D11
 10
69.69390439880067
 20
146.9243570458403
 30
0.0
 11
51.59747664310065
 21
146.9243570458403
 31
0.0
 70
   160
 71
     5
 42
36.20000000000004
  3
DIN 3.5
100
AcDbAlignedDimension
 13
33.49390439880063
 23
129.5543570458403
 33
0.0
 14
69.69390439880067
 24
129.5543570458403
 34
0.0
100
AcDbRotatedDimension
1001
ACAD
1000
DSTYLE
1002
{
1070
    40
1040
1.0
1002
}
  0
DIMENSION
  5
346
330
1F
100
AcDbEntity
  8
11100_LEFT_DIM
 62
     7
370
    18
100
AcDbDimension
  2
*D12
 10
211.1329102817847
 20
146.9243570458403
 30
0.0
 11
186.8181874744426
 21
146.9243570458403
 31
0.0
 70
   160
 71
     5
 42
48.6294456146841
  3
DIN 3.5
100
AcDbAlignedDimension
 13
162.5034646671006
 23
134.5543570458403
 33
0.0
 14
211.1329102817847
 24
136.9243570458403
 34
0.0
100
AcDbRotatedDimension
1001
ACAD
1000
DSTYLE
1002
{
1070
    40
1040
1.0
1002
}
  0
DIMENSION
  5
365
330
1F
100
AcDbEntity
  8
10100_FRONT_DIM
 62
     7
370
    15
100
AcDbDimension
  2
*D13
 10
42.14747664310062
 20
67.55237220224024
 30
0.0
 11
24.70580997643397
 21
67.55237220224024
 31
0.0
 70
   160
 71
     5
 42
5.649999999999977
  3
DIN 3.5
100
AcDbAlignedDimension
 13
36.49747664310064
 23
77.55237220224024
 33
0.0
 14
42.14747664310062
 24
92.45237220224026
 34
0.0
100
AcDbRotatedDimension
1001
ACAD
1000
DSTYLE
1002
{
1070
    40
1040
1.0
1002
}
  0
DIMENSION
  5
38A
330
1F
100
AcDbEntity
  8
10100_FRONT_DIM
 62
     7
370
    15
100
AcDbDimension
  2
*D14
 10
51.59747664310066
 20
67.55237220224024
 30
0.0
 11
46.87247664310064
 21
67.55237220224024
 31
0.0
 70
   160
 71
     5
 42
9.450000000000045
  3
DIN 3.5
100
AcDbAlignedDimension
 13
42.14747664310062
 23
77.55237220224024
 33
0.0
 14
51.59747664310066
 24
83.45237220224021
 34
0.0
100
AcDbRotatedDimension
1001
ACAD
1000
DSTYLE
1002
{
1070
    40
1040
1.0
1002
}
  0
DIMENSION
  5
3E0
330
1F
100
AcDbEntity
  8
10100_FRONT_DIM
 62
     7
370
    15
100
AcDbDimension
  2
*D16
 10
66.69747664310057
 20
60.55237220224023
 30
0.0
 11
51.5974766431006
 21
60.55237220224023
 31
0.0
 70
   160
 71
     5
 42
30.19999999999993
  3
DIN 3.5
100
AcDbAlignedDimension
 13
36.49747664310064
 23
77.55237220224024
 33
0.0
 14
66.69747664310057
 24
77.55237220224024
 34
0.0
100
AcDbRotatedDimension
1001
ACAD
1000
DSTYLE
1002
{
1070
    40
1040
1.0
1002
}
  0
DIMENSION
  5
42A
330
1F
100
AcDbEntity
  8
10100_FRONT_DIM
 62
     7
370
    18
100
AcDbDimension
  2
*D17
 10
79.09747664310066
 20
153.9243570458403
 30
0.0
 11
51.59747664310065
 21
153.9243570458403
 31
0.0
 70
   160
 71
     5
 42
55.0
  3
DIN 3.5
100
AcDbAlignedDimension
 13
24.09747664310066
 23
136.5543570458403
 33
0.0
 14
79.09747664310066
 24
137.6299273415429
 34
0.0
100
AcDbRotatedDimension
1001
ACAD
1000
DSTYLE
1002
{
1070
    40
1040
1.0
1002
}
  0
DIMENSION
  5
476
330
1F
100
AcDbEntity
  8
11100_LEFT_DIM
 62
     7
370
    18
100
AcDbDimension
  2
*D18
 10
194.5334375386005
 20
67.55237220224024
 30
0.0
 11
178.5184511028506
 21
67.55237220224024
 31
0.0
 70
   160
 71
     5
 42
32.02997287149992
  3
DIN 3.5
100
AcDbAlignedDimension
 13
162.5034646671006
 23
77.55237220224024
 33
0.0
 14
194.5334375386005
 24
110.7492492336177
 34
0.0
100
AcDbRotatedDimension
1001
ACAD
1000
DSTYLE
1002
{
1070
    40
1040
1.0
1002
}
  0
DIMENSION
  5
4B9
330
1F
100
AcDbEntity
  8
11100_LEFT_DIM
 62
     7
370
    18
100
AcDbDimension
  2
*D19
 10
211.0034646671006
 20
67.55237220224024
 30
0.0
 11
202.7684511028506
 21
67.55237220224024
 31
0.0
 70
   160
 71
     5
 42
16.47002712850008
  3
DIN 3.5
100
AcDbAlignedDimension
 13
194.5334375386005
 23
113.0543570458403
 33
0.0
 14
211.0034646671006
 24
96.55435704584034
 34
0.0
100
AcDbRotatedDimension
1001
ACAD
1000
DSTYLE
1002
{
1070
    40
1040
1.0
1002
}
  0
DIMENSION
  5
4F3
330
1F
100
AcDbEntity
  8
11100_LEFT_DIM
 62
     7
370
    18
100
AcDbDimension
  2
*D20
 10
230.4734917956007
 20
67.55237220224024
 30
0.0
 11
219.2384782313506
 21
67.55237220224024
 31
0.0
 70
   160
 71
     5
 42
19.47002712850007
  3
DIN 3.5
100
AcDbAlignedDimension
 13
211.0034646671006
 23
113.0543570458403
 33
0.0
 14
230.4734917956007
 24
113.0543570458403
 34
0.0
100
AcDbRotatedDimension
1001
ACAD
1000
DSTYLE
1002
{
1070
    40
1040
1.0
1002
}
  0
DIMENSION
  5
512
330
1F
100
AcDbEntity
  8
11100_LEFT_DIM
 62
     7
370
    15
100
AcDbDimension
  2
*D21
 10
240.0034646671006
 20
153.7473259298767
 30
0.0
 11
201.2534646671006
 21
156.7889925965434
 31
0.0
 70
    32
 71
     5
 42
77.50000000000003
  3
DIN 3.5
100
AcDbAlignedDimension
 13
162.5034646671006
 23
134.5543570458403
 33
0.0
 14
240.0034646671006
 24
134.5543570458403
 34
0.0
100
AcDbRotatedDimension
1001
ACAD
1000
DSTYLE
1002
{
1070
    40
1040
1.0
1002
}
  0
DIMENSION
  5
528
330
1F
100
AcDbEntity
  8
11100_LEFT_DIM
 62
     7
370
    18
100
AcDbDimension
  2
*D22
 10
246.9619142743653
 20
113.0543570458403
 30
0.0
 11
246.9619142743653
 21
124.9893570458403
 31
0.0
 70
   160
 71
     5
 42
23.87
  3
DIN 3.5
100
AcDbAlignedDimension
 13
220.2534646671006
 23
136.9243570458403
 33
0.0
 14
230.4734917956007
 24
113.0543570458403
 34
0.0
 50
90.0
100
AcDbRotatedDimension
1001
ACAD
1000
DSTYLE
1002
{
1070
    40
1040
1.0
1002
}
  0
DIMENSION
  5
53E
330
1F
100
AcDbEntity
  8
11100_LEFT_DIM
 62
     7
370
    18
100
AcDbDimension
  2
*D23
 10
246.9619142743654
 20
96.73596282353264
 30
0.0
 11
246.9619142743653
 21
104.8951599346865
 31
0.0
 70
   160
 71
     5
 42
16.3183942223077
  3
DIN 3.5
100
AcDbAlignedDimension
 13
230.4719071496601
 23
113.0543570458403
 33
0.0
 14
218.1689571960157
 24
96.73596282353265
 34
0.0
 50
90.0
100
AcDbRotatedDimension
1001
ACAD
1000
DSTYLE
1002
{
1070
    40
1040
1.0
1002
}
  0
DIMENSION
  5
5A5
330
1F
100
AcDbEntity
  8
10100_FRONT_DIM
 62
     7
370
    18
100
AcDbDimension
  2
*D24
 10
89.09747664310065
 20
77.55237220224024
 30
0.0
 11
89.09747664310064
 21
107.0543570458403
 31
0.0
 70
   160
 71
     5
 42
59.37198484360009
  3
DIN 3.5
100
AcDbAlignedDimension
 13
60.84747664310066
 23
136.9243570458403
 33
0.0
 14
66.69747664310057
 24
77.55237220224024
 34
0.0
 50
270.0
100
AcDbRotatedDimension
1001
ACAD
1000
DSTYLE
1002
{
1070
    40
1040
1.0
1002
}
  0
DIMENSION
  5
5E8
330
1F
100
AcDbEntity
  8
10100_FRONT_DIM
 62
     7
370
    18
100
AcDbDimension
  2
*D25
 10
82.09747664310064
 20
77.55237220224024
 30
0.0
 11
82.09747664310063
 21
82.45272319239347
 31
0.0
 70
   160
 71
     5
 42
9.0
  3
DIN 3.5
100
AcDbAlignedDimension
 13
54.69703492019608
 23
86.55237220224023
 33
0.0
 14
59.69747664310057
 24
77.55237220224024
 34
0.0
 50
270.0
100
AcDbRotatedDimension
1001
ACAD
1000
DSTYLE
1002
{
1070
    40
1040
1.0
1002
}
  0
DIMENSION
  5
611
330
1F
100
AcDbEntity
  8
10100_FRONT_DIM
 62
     7
370
    18
100
AcDbDimension
  2
*D26
 10
82.0880256394764
 20
86.55237220224023
 30
0.0
 11
82.08802563947639
 21
91.07853750022332
 31
0.0
 70
   160
 71
     5
 42
9.000000041894864
  3
DIN 3.5
100
AcDbAlignedDimension
 13
64.14747667414272
 23
95.55237224413509
 33
0.0
 14
66.69747664310057
 24
86.55237220224023
 34
0.0
 50
270.0
100
AcDbRotatedDimension
1001
ACAD
1000
DSTYLE
1002
{
1070
    40
1040
1.0
1002
}
  0
LINE
  5
673
330
1F
100
AcDbEntity
  8
10100_FRONT_DIM
 62
     7
370
    18
100
AcDbLine
 10
79.09747664310066
 20
134.5543570458403
 30
0.0
 11
79.09747664310066
 21
136.5182035263942
 31
0.0
  0
ENDSEC
  0
SECTION
  2
OBJECTS
  0
DICTIONARY
  5
C
330
0
100
AcDbDictionary
281
     1
  3
ACAD_COLOR
350
F7
  3
ACAD_GROUP
350
D
  3
ACAD_LAYOUT
350
1A
  3
ACAD_MATERIAL
350
E2
  3
ACAD_MLINESTYLE
350
17
  3
ACAD_PLOTSETTINGS
350
19
  3
ACAD_PLOTSTYLENAME
350
E
  3
ACAD_TABLESTYLE
350
F8
  3
ACAD_VISUALSTYLE
350
E6
  3
AcDbVariableDictionary
350
275
  3
DWGPROPS
350
695
  0
DICTIONARY
  5
2CC
330
1F
100
AcDbDictionary
280
     1
281
     1
  3
ACAD_SORTENTS
360
2CD
  0
DICTIONARY
  5
F7
102
{ACAD_REACTORS
330
C
102
}
330
C
100
AcDbDictionary
281
     1
  0
DICTIONARY
  5
D
102
{ACAD_REACTORS
330
C
102
}
330
C
100
AcDbDictionary
281
     1
  0
DICTIONARY
  5
1A
102
{ACAD_REACTORS
330
C
102
}
330
C
100
AcDbDictionary
281
     1
  3
Layout1
350
1E
  3
Layout2
350
26
  3
Model
350
22
  0
DICTIONARY
  5
E2
102
{ACAD_REACTORS
330
C
102
}
330
C
100
AcDbDictionary
281
     1
  3
ByBlock
350
E4
  3
ByLayer
350
E3
  3
Global
350
E5
  0
DICTIONARY
  5
17
102
{ACAD_REACTORS
330
C
102
}
330
C
100
AcDbDictionary
281
     1
  3
Standard
350
18
  0
DICTIONARY
  5
19
102
{ACAD_REACTORS
330
C
102
}
330
C
100
AcDbDictionary
281
     1
  0
ACDBDICTIONARYWDFLT
  5
E
102
{ACAD_REACTORS
330
C
102
}
330
C
100
AcDbDictionary
281
     1
  3
Normal
350
F
100
AcDbDictionaryWithDefault
340
F
  0
DICTIONARY
  5
F8
102
{ACAD_REACTORS
330
C
102
}
330
C
100
AcDbDictionary
281
     1
  3
Standard
350
F9
  0
DICTIONARY
  5
E6
102
{ACAD_REACTORS
330
C
102
}
330
C
100
AcDbDictionary
281
     1
  3
2dWireframe
350
EC
  3
3D Hidden
350
EE
  3
3dWireframe
350
ED
  3
Basic
350
EB
  3
Brighten
350
F2
  3
ColorChange
350
F6
  3
Conceptual
350
EF
  3
Dim
350
F1
  3
Facepattern
350
F5
  3
Flat
350
E7
  3
FlatWithEdges
350
E8
  3
Gouraud
350
E9
  3
GouraudWithEdges
350
EA
  3
Linepattern
350
F4
  3
Realistic
350
F0
  3
Thicken
350
F3
  0
DICTIONARY
  5
275
102
{ACAD_REACTORS
330
C
102
}
330
C
100
AcDbDictionary
281
     1
  3
CTABLESTYLE
350
276
  3
DIMASSOC
350
676
  3
INDEXCTL
350
675
  3
SORTENTS
350
674
  0
XRECORD
  5
695
102
{ACAD_REACTORS
330
C
102
}
330
C
100
AcDbXrecord
280
     1
  1
DWGPROPS COOKIE
  2

  3

  4

  6

  7

  8
adfize1
  9

300
=
301
=
302
=
303
=
304
=
305
=
306
=
307
=
308
=
309
=
 40
0.3321409722222222
 41
2454454.378057118
 42
2454454.714113901
  1

 90
        0
  0
SORTENTSTABLE
  5
2CD
102
{ACAD_REACTORS
330
2CC
102
}
330
2CC
100
AcDbSortentsTable
330
1F
331
BF
  5
BF
331
9D
  5
9D
331
68
  5
68
331
D0
  5
D2
331
AE
  5
AE
331
8C
  5
8C
331
79
  5
79
331
57
  5
57
331
46
  5
46
331
35
  5
35
331
2F7
  5
301
331
DF
  5
2AE
331
BD
  5
BD
331
9B
  5
9B
331
308
  5
30A
331
CE
  5
D0
331
AC
  5
AC
331
8A
  5
8A
331
77
  5
77
331
55
  5
55
331
44
  5
44
331
33
  5
33
331
2F5
  5
2F7
331
DD
  5
DF
331
BB
  5
BB
331
99
  5
99
331
306
  5
308
331
CC
  5
CE
331
AA
  5
AA
331
88
  5
88
331
75
  5
75
331
42
  5
42
331
31
  5
31
331
DB
  5
DD
331
B9
  5
B9
331
304
  5
306
331
CA
  5
CC
331
A8
  5
A8
331
86
  5
86
331
97
  5
97
331
D9
  5
DB
331
302
  5
303
331
C8
  5
C8
331
A6
  5
A6
331
84
  5
84
331
4F
  5
4F
331
B7
  5
B7
331
95
  5
95
331
3E
  5
3E
331
A4
  5
A4
331
82
  5
82
331
6F
  5
6F
331
4D
  5
4D
331
D7
  5
D9
331
B5
  5
B5
331
93
  5
93
331
3C
  5
3C
331
C4
  5
C4
331
A2
  5
A2
331
80
  5
80
331
4B
  5
4B
331
D5
  5
D7
331
B3
  5
B3
331
91
  5
91
331
7E
  5
7E
331
3A
  5
3A
331
C2
  5
C2
331
A0
  5
A0
331
49
  5
49
331
D3
  5
D5
331
B1
  5
B1
331
8F
  5
8F
331
7C
  5
7C
331
38
  5
38
331
C0
  5
C0
331
9E
  5
9E
331
D1
  5
D3
331
30B
  5
CB
331
AF
  5
AF
331
8D
  5
8D
331
7A
  5
7A
331
47
  5
47
331
36
  5
36
331
BE
  5
BE
331
9C
  5
9C
331
309
  5
30B
331
CF
  5
D1
331
AD
  5
AD
331
8B
  5
8B
331
78
  5
78
331
56
  5
56
331
67
  5
67
331
45
  5
45
331
34
  5
34
331
DE
  5
281
331
BC
  5
BC
331
9A
  5
9A
331
287
  5
2F5
331
307
  5
309
331
CD
  5
CF
331
AB
  5
AB
331
89
  5
89
331
76
  5
76
331
54
  5
54
331
65
  5
65
331
43
  5
43
331
32
  5
32
331
DC
  5
DE
331
BA
  5
BA
331
98
  5
98
331
305
  5
307
331
CB
  5
CD
331
A9
  5
A9
331
87
  5
87
331
52
  5
52
331
30
  5
30
331
63
  5
63
331
41
  5
41
331
2F
  5
2F
331
283
  5
2ED
331
DA
  5
DC
331
B8
  5
B8
331
303
  5
305
331
C9
  5
C9
331
A7
  5
A7
331
85
  5
85
331
96
  5
96
331
61
  5
61
331
3F
  5
3F
331
D8
  5
DA
331
301
  5
304
331
C7
  5
C7
331
A5
  5
A5
331
83
  5
83
331
70
  5
70
331
4E
  5
4E
331
B6
  5
B6
331
94
  5
94
331
5F
  5
5F
331
3D
  5
3D
331
2A1
  5
2F6
331
C5
  5
C5
331
A3
  5
A3
331
81
  5
81
331
4C
  5
4C
331
D6
  5
D8
331
B4
  5
B4
331
92
  5
92
331
7F
  5
7F
331
5D
  5
5D
331
3B
  5
3B
331
C3
  5
C3
331
A1
  5
A1
331
6C
  5
6C
331
4A
  5
4A
331
D4
  5
D6
331
B2
  5
B2
331
90
  5
90
331
5B
  5
5B
331
39
  5
39
331
27B
  5
2C6
331
C1
  5
C1
331
9F
  5
9F
331
48
  5
48
331
D2
  5
D4
331
B0
  5
B0
331
8E
  5
8E
331
7B
  5
7B
331
59
  5
59
331
37
  5
37
  0
LAYOUT
  5
1E
102
{ACAD_XDICTIONARY
360
696
102
}
102
{ACAD_REACTORS
330
1A
102
}
330
1A
100
AcDbPlotSettings
  1

  2
none_device
  4

  6

 40
0.0
 41
0.0
 42
0.0
 43
0.0
 44
0.0
 45
0.0
 46
0.0
 47
0.0
 48
0.0
 49
0.0
140
0.0
141
0.0
142
1.0
143
1.0
 70
   688
 72
     0
 73
     0
 74
     5
  7

 75
    16
147
1.0
148
0.0
149
0.0
100
AcDbLayout
  1
Layout1
 70
     1
 71
     1
 10
0.0
 20
0.0
 11
420.0
 21
297.0
 12
0.0
 22
0.0
 32
0.0
 14
1.000000000000000E+20
 24
1.000000000000000E+20
 34
1.000000000000000E+20
 15
-1.000000000000000E+20
 25
-1.000000000000000E+20
 35
-1.000000000000000E+20
146
0.0
 13
0.0
 23
0.0
 33
0.0
 16
1.0
 26
0.0
 36
0.0
 17
0.0
 27
1.0
 37
0.0
 76
     0
330
1B
  0
LAYOUT
  5
26
102
{ACAD_XDICTIONARY
360
69A
102
}
102
{ACAD_REACTORS
330
1A
102
}
330
1A
100
AcDbPlotSettings
  1

  2
none_device
  4

  6

 40
0.0
 41
0.0
 42
0.0
 43
0.0
 44
0.0
 45
0.0
 46
0.0
 47
0.0
 48
0.0
 49
0.0
140
0.0
141
0.0
142
1.0
143
1.0
 70
   688
 72
     0
 73
     0
 74
     5
  7

 75
    16
147
1.0
148
0.0
149
0.0
100
AcDbLayout
  1
Layout2
 70
     1
 71
     2
 10
0.0
 20
0.0
 11
0.0
 21
0.0
 12
0.0
 22
0.0
 32
0.0
 14
0.0
 24
0.0
 34
0.0
 15
0.0
 25
0.0
 35
0.0
146
0.0
 13
0.0
 23
0.0
 33
0.0
 16
1.0
 26
0.0
 36
0.0
 17
0.0
 27
1.0
 37
0.0
 76
     0
330
23
  0
LAYOUT
  5
22
102
{ACAD_XDICTIONARY
360
698
102
}
102
{ACAD_REACTORS
330
1A
102
}
330
1A
100
AcDbPlotSettings
  1

  2
none_device
  4

  6

 40
0.0
 41
0.0
 42
0.0
 43
0.0
 44
0.0
 45
0.0
 46
0.0
 47
0.0
 48
0.0
 49
0.0
140
0.0
141
0.0
142
1.0
143
1.0
 70
  1712
 72
     0
 73
     0
 74
     0
  7

 75
     0
147
1.0
148
0.0
149
0.0
100
AcDbLayout
  1
Model
 70
     1
 71
     0
 10
0.0
 20
0.0
 11
0.0
 21
0.0
 12
0.0
 22
0.0
 32
0.0
 14
0.0
 24
0.0
 34
0.0
 15
420.0
 25
297.0
 35
0.0
146
0.0
 13
0.0
 23
0.0
 33
0.0
 16
1.0
 26
0.0
 36
0.0
 17
0.0
 27
1.0
 37
0.0
 76
     0
330
1F
331
29
  0
MATERIAL
  5
E4
102
{ACAD_XDICTIONARY
360
69E
102
}
102
{ACAD_REACTORS
330
E2
102
}
330
E2
100
AcDbMaterial
  1
ByBlock
  0
MATERIAL
  5
E3
102
{ACAD_XDICTIONARY
360
69C
102
}
102
{ACAD_REACTORS
330
E2
102
}
330
E2
100
AcDbMaterial
  1
ByLayer
  0
MATERIAL
  5
E5
102
{ACAD_XDICTIONARY
360
6A0
102
}
102
{ACAD_REACTORS
330
E2
102
}
330
E2
100
AcDbMaterial
  1
Global
  0
MLINESTYLE
  5
18
102
{ACAD_REACTORS
330
17
102
}
330
17
100
AcDbMlineStyle
  2
STANDARD
 70
     0
  3

 62
   256
 51
90.0
 52
90.0
 71
     2
 49
0.5
 62
   256
  6
BYLAYER
 49
-0.5
 62
   256
  6
BYLAYER
  0
ACDBPLACEHOLDER
  5
F
102
{ACAD_REACTORS
330
E
102
}
330
E
  0
TABLESTYLE
  5
F9
102
{ACAD_XDICTIONARY
360
6A2
102
}
102
{ACAD_REACTORS
330
F8
102
}
330
F8
100
AcDbTableStyle
  3
Standard
 70
     0
 71
     0
 40
1.5
 41
1.5
280
     0
281
     0
  7
Standard
140
4.5
170
     2
 62
     0
 63
     7
283
     0
274
    -2
284
     1
 64
     0
275
    -2
285
     1
 65
     0
276
    -2
286
     1
 66
     0
277
    -2
287
     1
 67
     0
278
    -2
288
     1
 68
     0
279
    -2
289
     1
 69
     0
  7
Standard
140
6.0
170
     5
 62
     0
 63
     7
283
     0
274
    -2
284
     1
 64
     0
275
    -2
285
     1
 65
     0
276
    -2
286
     1
 66
     0
277
    -2
287
     1
 67
     0
278
    -2
288
     1
 68
     0
279
    -2
289
     1
 69
     0
  7
Standard
140
4.5
170
     5
 62
     0
 63
     7
283
     0
274
    -2
284
     1
 64
     0
275
    -2
285
     1
 65
     0
276
    -2
286
     1
 66
     0
277
    -2
287
     1
 67
     0
278
    -2
288
     1
 68
     0
279
    -2
289
     1
 69
     0
  0
VISUALSTYLE
  5
EC
102
{ACAD_REACTORS
330
E6
102
}
330
E6
100
AcDbVisualStyle
  2
2dWireframe
 70
     4
 71
     0
 72
     2
 73
     0
 90
        0
 40
-0.6
 41
-30.0
 62
     5
 63
     7
 74
     1
 91
        4
 64
     7
 65
   257
 75
     1
175
     1
 42
1.0
 92
        0
 66
   257
 43
1.0
 76
     1
 77
     6
 78
     2
 67
     7
 79
     5
170
     0
171
     0
290
     0
174
     0
 93
        1
 44
0.0
173
     0
291
     0
 45
0.0
1001
ACAD
1000
AcDbSavedByObjectVersion
1070
     0
  0
VISUALSTYLE
  5
EE
102
{ACAD_REACTORS
330
E6
102
}
330
E6
100
AcDbVisualStyle
  2
3D Hidden
 70
     6
 71
     1
 72
     2
 73
     2
 90
        0
 40
-0.6
 41
-30.0
 62
     5
 63
     7
 74
     2
 91
        2
 64
     7
 65
   257
 75
     2
175
     1
 42
40.0
 92
        0
 66
   257
 43
1.0
 76
     1
 77
     6
 78
     2
 67
     7
 79
     3
170
     0
171
     0
290
     0
174
     0
 93
        1
 44
0.0
173
     0
291
     0
 45
0.0
1001
ACAD
1000
AcDbSavedByObjectVersion
1070
     0
  0
VISUALSTYLE
  5
ED
102
{ACAD_REACTORS
330
E6
102
}
330
E6
100
AcDbVisualStyle
  2
3dWireframe
 70
     5
 71
     0
 72
     2
 73
     0
 90
        0
 40
-0.6
 41
-30.0
 62
     5
 63
     7
 74
     1
 91
        4
 64
     7
 65
   257
 75
     1
175
     1
 42
1.0
 92
        0
 66
   257
 43
1.0
 76
     1
 77
     6
 78
     2
 67
     7
 79
     5
170
     0
171
     0
290
     0
174
     0
 93
        1
 44
0.0
173
     0
291
     0
 45
0.0
1001
ACAD
1000
AcDbSavedByObjectVersion
1070
     0
  0
VISUALSTYLE
  5
EB
102
{ACAD_REACTORS
330
E6
102
}
330
E6
100
AcDbVisualStyle
  2
Basic
 70
     7
 71
     1
 72
     0
 73
     1
 90
        0
 40
-0.6
 41
-30.0
 62
     5
 63
     7
 74
     0
 91
        4
 64
     7
 65
   257
 75
     1
175
     1
 42
1.0
 92
        8
 66
     7
 43
1.0
 76
     1
 77
     6
 78
     2
 67
     7
 79
     5
170
     0
171
     0
290
     0
174
     0
 93
        1
 44
0.0
173
     0
291
     1
 45
0.0
1001
ACAD
1000
AcDbSavedByObjectVersion
1070
     0
  0
VISUALSTYLE
  5
F2
102
{ACAD_REACTORS
330
E6
102
}
330
E6
100
AcDbVisualStyle
  2
Brighten
 70
    12
 71
     2
 72
     2
 73
     0
 90
        0
 40
-0.6
 41
-30.0
 62
     5
 63
     7
 74
     1
 91
        4
 64
     7
 65
   257
 75
     1
175
     1
 42
1.0
 92
        8
 66
     7
 43
1.0
 76
     1
 77
     6
 78
     2
 67
     7
 79
     5
170
     0
171
     0
290
     0
174
     0
 93
        1
 44
50.0
173
     0
291
     1
 45
0.0
1001
ACAD
1000
AcDbSavedByObjectVersion
1070
     0
  0
VISUALSTYLE
  5
F6
102
{ACAD_REACTORS
330
E6
102
}
330
E6
100
AcDbVisualStyle
  2
ColorChange
 70
    16
 71
     2
 72
     2
 73
     3
 90
        0
 40
-0.6
 41
-30.0
 62
     5
 63
     8
 74
     1
 91
        4
 64
     7
 65
   257
 75
     1
175
     1
 42
1.0
 92
        8
 66
     8
 43
1.0
 76
     1
 77
     6
 78
     2
 67
     7
 79
     5
170
     0
171
     0
290
     0
174
     0
 93
        1
 44
0.0
173
     0
291
     1
 45
0.0
1001
ACAD
1000
AcDbSavedByObjectVersion
1070
     0
  0
VISUALSTYLE
  5
EF
102
{ACAD_REACTORS
330
E6
102
}
330
E6
100
AcDbVisualStyle
  2
Conceptual
 70
     9
 71
     3
 72
     2
 73
     0
 90
        0
 40
-0.6
 41
-30.0
 62
     5
 63
     7
 74
     2
 91
        2
 64
     7
 65
   257
 75
     1
175
     1
 42
40.0
 92
        8
 66
     7
 43
1.0
 76
     1
 77
     6
 78
     2
 67
     7
 79
     3
170
     0
171
     0
290
     0
174
     0
 93
        1
 44
0.0
173
     0
291
     0
 45
0.0
1001
ACAD
1000
AcDbSavedByObjectVersion
1070
     0
  0
VISUALSTYLE
  5
F1
102
{ACAD_REACTORS
330
E6
102
}
330
E6
100
AcDbVisualStyle
  2
Dim
 70
    11
 71
     2
 72
     2
 73
     0
 90
        0
 40
-0.6
 41
-30.0
 62
     5
 63
     7
 74
     1
 91
        4
 64
     7
 65
   257
 75
     1
175
     1
 42
1.0
 92
        8
 66
     7
 43
1.0
 76
     1
 77
     6
 78
     2
 67
     7
 79
     5
170
     0
171
     0
290
     0
174
     0
 93
        1
 44
-50.0
173
     0
291
     1
 45
0.0
1001
ACAD
1000
AcDbSavedByObjectVersion
1070
     0
  0
VISUALSTYLE
  5
F5
102
{ACAD_REACTORS
330
E6
102
}
330
E6
100
AcDbVisualStyle
  2
Facepattern
 70
    15
 71
     2
 72
     2
 73
     0
 90
        0
 40
-0.6
 41
-30.0
 62
     5
 63
     7
 74
     1
 91
        4
 64
     7
 65
   257
 75
     1
175
     1
 42
1.0
 92
        8
 66
     7
 43
1.0
 76
     1
 77
     6
 78
     2
 67
     7
 79
     5
170
     0
171
     0
290
     0
174
     0
 93
        1
 44
0.0
173
     0
291
     1
 45
0.0
1001
ACAD
1000
AcDbSavedByObjectVersion
1070
     0
  0
VISUALSTYLE
  5
E7
102
{ACAD_REACTORS
330
E6
102
}
330
E6
100
AcDbVisualStyle
  2
Flat
 70
     0
 71
     2
 72
     1
 73
     1
 90
        2
 40
-0.6
 41
30.0
 62
     5
 63
     7
 74
     0
 91
        4
 64
     7
 65
   257
 75
     1
175
     1
 42
1.0
 92
        8
 66
     7
 43
1.0
 76
     1
 77
     6
 78
     2
 67
     7
 79
     5
170
     0
171
     0
290
     0
174
     0
 93
       13
 44
0.0
173
     0
291
     1
 45
0.0
1001
ACAD
1000
AcDbSavedByObjectVersion
1070
     0
  0
VISUALSTYLE
  5
E8
102
{ACAD_REACTORS
330
E6
102
}
330
E6
100
AcDbVisualStyle
  2
FlatWithEdges
 70
     1
 71
     2
 72
     1
 73
     1
 90
        2
 40
-0.6
 41
30.0
 62
     5
 63
     7
 74
     1
 91
        4
 64
     7
 65
   257
 75
     1
175
     1
 42
1.0
 92
        0
 66
   257
 43
1.0
 76
     1
 77
     6
 78
     2
 67
     7
 79
     5
170
     0
171
     0
290
     0
174
     0
 93
       13
 44
0.0
173
     0
291
     1
 45
0.0
1001
ACAD
1000
AcDbSavedByObjectVersion
1070
     0
  0
VISUALSTYLE
  5
E9
102
{ACAD_REACTORS
330
E6
102
}
330
E6
100
AcDbVisualStyle
  2
Gouraud
 70
     2
 71
     2
 72
     2
 73
     1
 90
        2
 40
-0.6
 41
30.0
 62
     5
 63
     7
 74
     0
 91
        4
 64
     7
 65
   257
 75
     1
175
     1
 42
1.0
 92
        0
 66
     7
 43
1.0
 76
     1
 77
     6
 78
     2
 67
     7
 79
     5
170
     0
171
     0
290
     0
174
     0
 93
       13
 44
0.0
173
     0
291
     1
 45
0.0
1001
ACAD
1000
AcDbSavedByObjectVersion
1070
     0
  0
VISUALSTYLE
  5
EA
102
{ACAD_REACTORS
330
E6
102
}
330
E6
100
AcDbVisualStyle
  2
GouraudWithEdges
 70
     3
 71
     2
 72
     2
 73
     1
 90
        2
 40
-0.6
 41
30.0
 62
     5
 63
     7
 74
     1
 91
        4
 64
     7
 65
   257
 75
     1
175
     1
 42
1.0
 92
        0
 66
   257
 43
1.0
 76
     1
 77
     6
 78
     2
 67
     7
 79
     5
170
     0
171
     0
290
     0
174
     0
 93
       13
 44
0.0
173
     0
291
     1
 45
0.0
1001
ACAD
1000
AcDbSavedByObjectVersion
1070
     0
  0
VISUALSTYLE
  5
F4
102
{ACAD_REACTORS
330
E6
102
}
330
E6
100
AcDbVisualStyle
  2
Linepattern
 70
    14
 71
     2
 72
     2
 73
     0
 90
        0
 40
-0.6
 41
-30.0
 62
     5
 63
     7
 74
     1
 91
        4
 64
     7
 65
   257
 75
     7
175
     7
 42
1.0
 92
        8
 66
     7
 43
1.0
 76
     1
 77
     6
 78
     2
 67
     7
 79
     5
170
     0
171
     0
290
     0
174
     0
 93
        1
 44
0.0
173
     0
291
     1
 45
0.0
1001
ACAD
1000
AcDbSavedByObjectVersion
1070
     0
  0
VISUALSTYLE
  5
F0
102
{ACAD_REACTORS
330
E6
102
}
330
E6
100
AcDbVisualStyle
  2
Realistic
 70
     8
 71
     2
 72
     2
 73
     0
 90
        0
 40
-0.6
 41
-30.0
 62
     5
 63
     7
 74
     1
 91
        0
 64
     7
 65
   257
 75
     1
175
     1
 42
1.0
 92
        8
 66
     8
 43
1.0
 76
     1
 77
     6
 78
     2
 67
     7
 79
     5
170
     0
171
     0
290
     0
174
     0
 93
       13
 44
0.0
173
     0
291
     0
 45
0.0
1001
ACAD
1000
AcDbSavedByObjectVersion
1070
     0
  0
VISUALSTYLE
  5
F3
102
{ACAD_REACTORS
330
E6
102
}
330
E6
100
AcDbVisualStyle
  2
Thicken
 70
    13
 71
     2
 72
     2
 73
     0
 90
        0
 40
-0.6
 41
-30.0
 62
     5
 63
     7
 74
     1
 91
        4
 64
     7
 65
   257
 75
     1
175
     1
 42
1.0
 92
       12
 66
     7
 43
1.0
 76
     1
 77
     6
 78
     2
 67
     7
 79
     5
170
     0
171
     0
290
     0
174
     0
 93
        1
 44
0.0
173
     0
291
     1
 45
0.0
1001
ACAD
1000
AcDbSavedByObjectVersion
1070
     0
  0
DICTIONARYVAR
  5
276
102
{ACAD_REACTORS
330
275
102
}
330
275
100
DictionaryVariables
280
     0
  1
STANDARD
  0
DICTIONARYVAR
  5
676
102
{ACAD_REACTORS
330
275
102
}
330
275
100
DictionaryVariables
280
     0
  1
1
  0
DICTIONARYVAR
  5
675
102
{ACAD_REACTORS
330
275
102
}
330
275
100
DictionaryVariables
280
     0
  1
0
  0
DICTIONARYVAR
  5
674
102
{ACAD_REACTORS
330
275
102
}
330
275
100
DictionaryVariables
280
     0
  1
127
  0
DICTIONARY
  5
696
330
1E
100
AcDbDictionary
280
     1
281
     1
  3
ACAD_XREC_ROUNDTRIP
360
697
  0
DICTIONARY
  5
69A
330
26
100
AcDbDictionary
280
     1
281
     1
  3
ACAD_XREC_ROUNDTRIP
360
69B
  0
DICTIONARY
  5
698
330
22
100
AcDbDictionary
280
     1
281
     1
  3
ACAD_XREC_ROUNDTRIP
360
699
  0
DICTIONARY
  5
69E
330
E4
100
AcDbDictionary
280
     1
281
     1
  3
ACAD_XREC_ROUNDTRIP
360
69F
  0
DICTIONARY
  5
69C
330
E3
100
AcDbDictionary
280
     1
281
     1
  3
ACAD_XREC_ROUNDTRIP
360
69D
  0
DICTIONARY
  5
6A0
330
E5
100
AcDbDictionary
280
     1
281
     1
  3
ACAD_XREC_ROUNDTRIP
360
6A1
  0
DICTIONARY
  5
6A2
330
F9
100
AcDbDictionary
280
     1
281
     1
  3
ACAD_XREC_ROUNDTRIP
360
6A3
  0
XRECORD
  5
697
102
{ACAD_REACTORS
330
696
102
}
330
696
100
AcDbXrecord
280
     1
102
SHADEPLOT
 70
     0
102
SHADEPLOTRESLEVEL
 70
     2
102
SHADEPLOTCUSTOMDPI
 70
   300
  0
XRECORD
  5
69B
102
{ACAD_REACTORS
330
69A
102
}
330
69A
100
AcDbXrecord
280
     1
102
SHADEPLOT
 70
     0
102
SHADEPLOTRESLEVEL
 70
     2
102
SHADEPLOTCUSTOMDPI
 70
   300
  0
XRECORD
  5
699
102
{ACAD_REACTORS
330
698
102
}
330
698
100
AcDbXrecord
280
     1
102
SHADEPLOT
 70
     0
102
SHADEPLOTRESLEVEL
 70
     2
102
SHADEPLOTCUSTOMDPI
 70
   300
  0
XRECORD
  5
69F
102
{ACAD_REACTORS
330
69E
102
}
330
69E
100
AcDbXrecord
280
     1
102
MATERIAL
148
0.0
149
0.0
149
0.0
 93
        0
 94
       63
282
     0
 72
     1
 77
     1
171
     1
175
     1
179
     1
273
     0
  0
XRECORD
  5
69D
102
{ACAD_REACTORS
330
69C
102
}
330
69C
100
AcDbXrecord
280
     1
102
MATERIAL
148
0.0
149
0.0
149
0.0
 93
        0
 94
       63
282
     0
 72
     1
 77
     1
171
     1
175
     1
179
     1
273
     0
  0
XRECORD
  5
6A1
102
{ACAD_REACTORS
330
6A0
102
}
330
6A0
100
AcDbXrecord
280
     1
102
MATERIAL
148
0.0
149
0.0
149
0.0
 93
        0
 94
       63
282
     0
 72
     1
 77
     1
171
     1
175
     1
179
     1
273
     0
  0
XRECORD
  5
6A3
102
{ACAD_REACTORS
330
6A2
102
}
330
6A2
100
AcDbXrecord
280
     1
102
ACAD_ROUNDTRIP_PRE2007_TABLESTYLE
 90
      512
 91
        0
  1

 92
      512
 93
        0
  2

 94
      512
 95
        0
  3

  0
ENDSEC
  0
EOF
