  0
SECTION
  2
HEADER
  9
$ACADVER
  1
AC1015
  9
$ACADMAINTVER
 70
    20
  9
$DWGCODEPAGE
  3
ANSI_1252
  9
$INSBASE
 10
0.0
 20
0.0
 30
0.0
  9
$EXTMIN
 10
46.41815288739531
 20
83.62641985624383
 30
-0.0000000349181948
  9
$EXTMAX
 10
316.4483651151513
 20
283.6400763595477
 30
0.0000000814935747
  9
$LIMMIN
 10
0.0
 20
0.0
  9
$LIMMAX
 10
420.0
 20
297.0
  9
$ORTHOMODE
 70
     0
  9
$REGENMODE
 70
     1
  9
$FILLMODE
 70
     1
  9
$QTEXTMODE
 70
     0
  9
$MIRRTEXT
 70
     0
  9
$LTSCALE
 40
1.0
  9
$ATTMODE
 70
     1
  9
$TEXTSIZE
 40
4.945867574227348
  9
$TRACEWID
 40
1.0
  9
$TEXTSTYLE
  7
Standard
  9
$CLAYER
  8
0
  9
$CELTYPE
  6
ByLayer
  9
$CECOLOR
 62
   256
  9
$CELTSCALE
 40
1.0
  9
$DISPSILH
 70
     0
  9
$DIMSCALE
 40
1.0
  9
$DIMASZ
 40
2.5
  9
$DIMEXO
 40
0.625
  9
$DIMDLI
 40
3.75
  9
$DIMRND
 40
0.0
  9
$DIMDLE
 40
0.0
  9
$DIMEXE
 40
1.25
  9
$DIMTP
 40
0.0
  9
$DIMTM
 40
0.0
  9
$DIMTXT
 40
2.5
  9
$DIMCEN
 40
2.5
  9
$DIMTSZ
 40
0.0
  9
$DIMTOL
 70
     0
  9
$DIMLIM
 70
     0
  9
$DIMTIH
 70
     0
  9
$DIMTOH
 70
     0
  9
$DIMSE1
 70
     0
  9
$DIMSE2
 70
     0
  9
$DIMTAD
 70
     1
  9
$DIMZIN
 70
     8
  9
$DIMBLK
  1

  9
$DIMASO
 70
     1
  9
$DIMSHO
 70
     1
  9
$DIMPOST
  1

  9
$DIMAPOST
  1

  9
$DIMALT
 70
     0
  9
$DIMALTD
 70
     3
  9
$DIMALTF
 40
0.03937007874016
  9
$DIMLFAC
 40
1.0
  9
$DIMTOFL
 70
     1
  9
$DIMTVP
 40
0.0
  9
$DIMTIX
 70
     0
  9
$DIMSOXD
 70
     0
  9
$DIMSAH
 70
     0
  9
$DIMBLK1
  1

  9
$DIMBLK2
  1

  9
$DIMSTYLE
  2
ISO-25
  9
$DIMCLRD
 70
     0
  9
$DIMCLRE
 70
     0
  9
$DIMCLRT
 70
     0
  9
$DIMTFAC
 40
1.0
  9
$DIMGAP
 40
0.625
  9
$DIMJUST
 70
     0
  9
$DIMSD1
 70
     0
  9
$DIMSD2
 70
     0
  9
$DIMTOLJ
 70
     0
  9
$DIMTZIN
 70
     8
  9
$DIMALTZ
 70
     0
  9
$DIMALTTZ
 70
     0
  9
$DIMUPT
 70
     0
  9
$DIMDEC
 70
     2
  9
$DIMTDEC
 70
     2
  9
$DIMALTU
 70
     2
  9
$DIMALTTD
 70
     3
  9
$DIMTXSTY
  7
Standard
  9
$DIMAUNIT
 70
     0
  9
$DIMADEC
 70
     0
  9
$DIMALTRND
 40
0.0
  9
$DIMAZIN
 70
     0
  9
$DIMDSEP
 70
    44
  9
$DIMATFIT
 70
     3
  9
$DIMFRAC
 70
     0
  9
$DIMLDRBLK
  1

  9
$DIMLUNIT
 70
     2
  9
$DIMLWD
 70
    -2
  9
$DIMLWE
 70
    -2
  9
$DIMTMOVE
 70
     0
  9
$LUNITS
 70
     2
  9
$LUPREC
 70
     4
  9
$SKETCHINC
 40
1.0
  9
$FILLETRAD
 40
10.0
  9
$AUNITS
 70
     0
  9
$AUPREC
 70
     0
  9
$MENU
  1
.
  9
$ELEVATION
 40
0.0
  9
$PELEVATION
 40
0.0
  9
$THICKNESS
 40
0.0
  9
$LIMCHECK
 70
     0
  9
$CHAMFERA
 40
10.0
  9
$CHAMFERB
 40
10.0
  9
$CHAMFERC
 40
20.0
  9
$CHAMFERD
 40
0.0
  9
$SKPOLY
 70
     0
  9
$TDCREATE
 40
2453453.687577789
  9
$TDUCREATE
 40
2453453.604244456
  9
$TDUPDATE
 40
2453622.598440833
  9
$TDUUPDATE
 40
2453622.515107500
  9
$TDINDWG
 40
0.0523603588
  9
$TDUSRTIMER
 40
0.0523603588
  9
$USRTIMER
 70
     1
  9
$ANGBASE
 50
0.0
  9
$ANGDIR
 70
     0
  9
$PDMODE
 70
     0
  9
$PDSIZE
 40
0.0
  9
$PLINEWID
 40
0.0
  9
$SPLFRAME
 70
     0
  9
$SPLINETYPE
 70
     6
  9
$SPLINESEGS
 70
     8
  9
$HANDSEED
  5
2EF3
  9
$SURFTAB1
 70
     6
  9
$SURFTAB2
 70
     6
  9
$SURFTYPE
 70
     6
  9
$SURFU
 70
     6
  9
$SURFV
 70
     6
  9
$UCSBASE
  2

  9
$UCSNAME
  2

  9
$UCSORG
 10
0.0
 20
0.0
 30
0.0
  9
$UCSXDIR
 10
1.0
 20
0.0
 30
0.0
  9
$UCSYDIR
 10
0.0
 20
1.0
 30
0.0
  9
$UCSORTHOREF
  2

  9
$UCSORTHOVIEW
 70
     0
  9
$UCSORGTOP
 10
0.0
 20
0.0
 30
0.0
  9
$UCSORGBOTTOM
 10
0.0
 20
0.0
 30
0.0
  9
$UCSORGLEFT
 10
0.0
 20
0.0
 30
0.0
  9
$UCSORGRIGHT
 10
0.0
 20
0.0
 30
0.0
  9
$UCSORGFRONT
 10
0.0
 20
0.0
 30
0.0
  9
$UCSORGBACK
 10
0.0
 20
0.0
 30
0.0
  9
$PUCSBASE
  2

  9
$PUCSNAME
  2

  9
$PUCSORG
 10
0.0
 20
0.0
 30
0.0
  9
$PUCSXDIR
 10
1.0
 20
0.0
 30
0.0
  9
$PUCSYDIR
 10
0.0
 20
1.0
 30
0.0
  9
$PUCSORTHOREF
  2

  9
$PUCSORTHOVIEW
 70
     0
  9
$PUCSORGTOP
 10
0.0
 20
0.0
 30
0.0
  9
$PUCSORGBOTTOM
 10
0.0
 20
0.0
 30
0.0
  9
$PUCSORGLEFT
 10
0.0
 20
0.0
 30
0.0
  9
$PUCSORGRIGHT
 10
0.0
 20
0.0
 30
0.0
  9
$PUCSORGFRONT
 10
0.0
 20
0.0
 30
0.0
  9
$PUCSORGBACK
 10
0.0
 20
0.0
 30
0.0
  9
$USERI1
 70
     0
  9
$USERI2
 70
     0
  9
$USERI3
 70
     0
  9
$USERI4
 70
     0
  9
$USERI5
 70
     0
  9
$USERR1
 40
0.0
  9
$USERR2
 40
0.0
  9
$USERR3
 40
0.0
  9
$USERR4
 40
0.0
  9
$USERR5
 40
0.0
  9
$WORLDVIEW
 70
     1
  9
$SHADEDGE
 70
     3
  9
$SHADEDIF
 70
    70
  9
$TILEMODE
 70
     1
  9
$MAXACTVP
 70
    64
  9
$PINSBASE
 10
0.0
 20
0.0
 30
0.0
  9
$PLIMCHECK
 70
     0
  9
$PEXTMIN
 10
0.0
 20
0.0
 30
0.0
  9
$PEXTMAX
 10
0.0
 20
0.0
 30
0.0
  9
$PLIMMIN
 10
0.0
 20
0.0
  9
$PLIMMAX
 10
12.0
 20
9.0
  9
$UNITMODE
 70
     0
  9
$VISRETAIN
 70
     1
  9
$PLINEGEN
 70
     0
  9
$PSLTSCALE
 70
     1
  9
$TREEDEPTH
 70
  3020
  9
$CMLSTYLE
  2
Standard
  9
$CMLJUST
 70
     0
  9
$CMLSCALE
 40
20.0
  9
$PROXYGRAPHICS
 70
     1
  9
$MEASUREMENT
 70
     1
  9
$CELWEIGHT
370
    -1
  9
$ENDCAPS
280
     0
  9
$JOINSTYLE
280
     0
  9
$LWDISPLAY
290
     0
  9
$INSUNITS
 70
     4
  9
$HYPERLINKBASE
  1

  9
$STYLESHEET
  1

  9
$XEDIT
290
     1
  9
$CEPSNTYPE
380
     0
  9
$PSTYLEMODE
290
     1
  9
$FINGERPRINTGUID
  2
{FDEAD578-A652-11D2-9A35-0060089B3A3F}
  9
$VERSIONGUID
  2
{23C43B0E-C875-4E73-A61B-B1970AB47D8C}
  9
$EXTNAMES
290
     1
  9
$PSVPSCALE
 40
0.0
  9
$OLESTARTUP
290
     0
  0
ENDSEC
  0
SECTION
  2
CLASSES
  0
CLASS
  1
ACDBDICTIONARYWDFLT
  2
AcDbDictionaryWithDefault
  3
ObjectDBX Classes
 90
        0
280
     0
281
     0
  0
CLASS
  1
DICTIONARYVAR
  2
AcDbDictionaryVar
  3
ObjectDBX Classes
 90
        0
280
     0
281
     0
  0
CLASS
  1
DIMASSOC
  2
AcDbDimAssoc
  3
"AcDbDimAssoc|Product Desc:     AcDim ARX App For Dimension|Company:          Autodesk, Inc.|WEB Address:      www.autodesk.com"
 90
        0
280
     0
281
     0
  0
CLASS
  1
ACDBPLACEHOLDER
  2
AcDbPlaceHolder
  3
ObjectDBX Classes
 90
        0
280
     0
281
     0
  0
CLASS
  1
LAYOUT
  2
AcDbLayout
  3
ObjectDBX Classes
 90
        0
280
     0
281
     0
  0
ENDSEC
  0
SECTION
  2
TABLES
  0
TABLE
  2
VPORT
  5
8
330
0
100
AcDbSymbolTable
 70
     4
  0
VPORT
  5
2EE8
330
8
100
AcDbSymbolTableRecord
100
AcDbViewportTableRecord
  2
*Active
 70
     0
 10
0.0
 20
0.0
 11
1.0
 21
1.0
 12
181.4332590012733
 22
183.6332481078958
 13
0.0
 23
0.0
 14
10.0
 24
10.0
 15
10.0
 25
10.0
 16
0.0
 26
0.0
 36
1.0
 17
0.0
 27
0.0
 37
0.0
 40
201.8347216611488
 41
1.384498480243161
 42
50.0
 43
0.0
 44
0.0
 50
0.0
 51
0.0
 71
     0
 72
  1000
 73
     1
 74
     3
 75
     0
 76
     0
 77
     0
 78
     0
281
     0
 65
     1
110
0.0
120
0.0
130
0.0
111
1.0
121
0.0
131
0.0
112
0.0
122
1.0
132
0.0
 79
     0
146
0.0
  0
ENDTAB
  0
TABLE
  2
LTYPE
  5
5
330
0
100
AcDbSymbolTable
 70
     3
  0
LTYPE
  5
14
330
5
100
AcDbSymbolTableRecord
100
AcDbLinetypeTableRecord
  2
ByBlock
 70
     0
  3

 72
    65
 73
     0
 40
0.0
  0
LTYPE
  5
15
330
5
100
AcDbSymbolTableRecord
100
AcDbLinetypeTableRecord
  2
ByLayer
 70
     0
  3

 72
    65
 73
     0
 40
0.0
  0
LTYPE
  5
16
330
5
100
AcDbSymbolTableRecord
100
AcDbLinetypeTableRecord
  2
Continuous
 70
     0
  3
Solid line
 72
    65
 73
     0
 40
0.0
  0
LTYPE
  5
1793
330
5
100
AcDbSymbolTableRecord
100
AcDbLinetypeTableRecord
  2
ACAD_ISO10W100
 70
     0
  3
ISO Strichpunktlinie __ . __ . __ . __ . __ . _
 72
    65
 73
     4
 40
18.0
 49
12.0
 74
     0
 49
-3.0
 74
     0
 49
0.0
 74
     0
 49
-3.0
 74
     0
  0
LTYPE
  5
2BDE
330
5
100
AcDbSymbolTableRecord
100
AcDbLinetypeTableRecord
  2
CENTER
 70
     0
  3
____ _ ____ _ ____ _ ____ _ ____ _ ____ _ ____
 72
    65
 73
     4
 40
2.0
 49
1.25
 74
     0
 49
-0.25
 74
     0
 49
0.25
 74
     0
 49
-0.25
 74
     0
  0
ENDTAB
  0
TABLE
  2
LAYER
  5
2
330
0
100
AcDbSymbolTable
 70
    10
  0
LAYER
  5
10
330
2
100
AcDbSymbolTableRecord
100
AcDbLayerTableRecord
  2
0
 70
     0
 62
     7
  6
Continuous
370
    -3
390
F
  0
LAYER
  5
171B
330
2
100
AcDbSymbolTableRecord
100
AcDbLayerTableRecord
  2
Defpoints
 70
     0
 62
     7
  6
Continuous
290
     0
370
    -3
390
F
  0
LAYER
  5
2BDF
330
2
100
AcDbSymbolTableRecord
100
AcDbLayerTableRecord
  2
90000_FRAME
 70
     0
 62
     7
  6
Continuous
370
    -3
390
F
  0
LAYER
  5
2BE0
330
2
100
AcDbSymbolTableRecord
100
AcDbLayerTableRecord
  2
91000_TIP
 70
     0
 62
     7
  6
Continuous
370
    -3
390
F
  0
LAYER
  5
2D47
330
2
100
AcDbSymbolTableRecord
100
AcDbLayerTableRecord
  2
10000_Front
 70
     0
 62
     7
  6
Continuous
370
    -3
390
F
  0
LAYER
  5
2D48
330
2
100
AcDbSymbolTableRecord
100
AcDbLayerTableRecord
  2
10100_Front_Dim
 70
     0
 62
     7
  6
Continuous
370
    -3
390
F
  0
LAYER
  5
2D49
330
2
100
AcDbSymbolTableRecord
100
AcDbLayerTableRecord
  2
13000_Top
 70
     0
 62
     7
  6
Continuous
370
    -3
390
F
  0
LAYER
  5
2D4A
330
2
100
AcDbSymbolTableRecord
100
AcDbLayerTableRecord
  2
13100_Top_Dim
 70
     0
 62
     7
  6
Continuous
370
    -3
390
F
  0
LAYER
  5
2D4B
330
2
100
AcDbSymbolTableRecord
100
AcDbLayerTableRecord
  2
14000_Bottom
 70
     0
 62
     7
  6
Continuous
370
    -3
390
F
  0
LAYER
  5
2D4C
330
2
100
AcDbSymbolTableRecord
100
AcDbLayerTableRecord
  2
14100_Bottom_Dim
 70
     0
 62
     7
  6
Continuous
370
    -3
390
F
  0
ENDTAB
  0
TABLE
  2
STYLE
  5
3
330
0
100
AcDbSymbolTable
 70
     1
  0
STYLE
  5
11
330
3
100
AcDbSymbolTableRecord
100
AcDbTextStyleTableRecord
  2
Standard
 70
     0
 40
0.0
 41
1.0
 50
0.0
 71
     0
 42
4.945867574227348
  3
txt
  4

  0
ENDTAB
  0
TABLE
  2
VIEW
  5
6
330
0
100
AcDbSymbolTable
 70
     0
  0
ENDTAB
  0
TABLE
  2
UCS
  5
7
330
0
100
AcDbSymbolTable
 70
     0
  0
ENDTAB
  0
TABLE
  2
APPID
  5
9
330
0
100
AcDbSymbolTable
 70
     1
  0
APPID
  5
12
330
9
100
AcDbSymbolTableRecord
100
AcDbRegAppTableRecord
  2
ACAD
 70
     0
  0
ENDTAB
  0
TABLE
  2
DIMSTYLE
  5
A
330
0
100
AcDbSymbolTable
 70
     1
100
AcDbDimStyleTable
 71
     1
340
27
  0
DIMSTYLE
105
27
102
{ACAD_REACTORS
330
2C76
330
D74
330
D73
330
2C5E
330
2C97
102
}
330
A
100
AcDbSymbolTableRecord
100
AcDbDimStyleTableRecord
  2
ISO-25
 70
     0
 41
2.5
 42
0.625
 43
3.75
 44
1.25
 73
     0
 74
     0
 77
     1
 78
     8
140
2.5
141
2.5
143
0.03937007874016
147
0.625
171
     3
172
     1
271
     2
272
     2
274
     3
278
    44
283
     0
284
     8
340
11
  0
ENDTAB
  0
TABLE
  2
BLOCK_RECORD
  5
1
330
0
100
AcDbSymbolTable
 70
     7
  0
BLOCK_RECORD
  5
1F
330
1
100
AcDbSymbolTableRecord
100
AcDbBlockTableRecord
  2
*Model_Space
340
22
  0
BLOCK_RECORD
  5
50
330
1
100
AcDbSymbolTableRecord
100
AcDbBlockTableRecord
  2
*Paper_Space
340
51
  0
BLOCK_RECORD
  5
55
330
1
100
AcDbSymbolTableRecord
100
AcDbBlockTableRecord
  2
*Paper_Space0
340
56
  0
BLOCK_RECORD
  5
171C
330
1
100
AcDbSymbolTableRecord
100
AcDbBlockTableRecord
  2
*D1
340
0
  0
BLOCK_RECORD
  5
1728
330
1
100
AcDbSymbolTableRecord
100
AcDbBlockTableRecord
  2
*D2
340
0
  0
BLOCK_RECORD
  5
2B73
330
1
100
AcDbSymbolTableRecord
100
AcDbBlockTableRecord
  2
SIEMENS_OUTLINE_BL0
340
0
102
{BLKREFS
331
2BFF
102
}
  0
BLOCK_RECORD
  5
2C5F
330
1
100
AcDbSymbolTableRecord
100
AcDbBlockTableRecord
  2
*D4
340
0
  0
BLOCK_RECORD
  5
2C77
330
1
100
AcDbSymbolTableRecord
100
AcDbBlockTableRecord
  2
*D5
340
0
  0
BLOCK_RECORD
  5
2C98
330
1
100
AcDbSymbolTableRecord
100
AcDbBlockTableRecord
  2
*D6
340
0
  0
ENDTAB
  0
ENDSEC
  0
SECTION
  2
BLOCKS
  0
BLOCK
  5
20
330
1F
100
AcDbEntity
  8
0
100
AcDbBlockBegin
  2
*Model_Space
 70
     0
 10
0.0
 20
0.0
 30
0.0
  3
*Model_Space
  1

  0
ENDBLK
  5
21
330
1F
100
AcDbEntity
  8
0
100
AcDbBlockEnd
  0
BLOCK
  5
52
330
50
100
AcDbEntity
 67
     1
  8
0
100
AcDbBlockBegin
  2
*Paper_Space
 70
     0
 10
0.0
 20
0.0
 30
0.0
  3
*Paper_Space
  1

  0
ENDBLK
  5
53
330
50
100
AcDbEntity
 67
     1
  8
0
100
AcDbBlockEnd
  0
BLOCK
  5
57
330
55
100
AcDbEntity
  8
0
100
AcDbBlockBegin
  2
*Paper_Space0
 70
     0
 10
0.0
 20
0.0
 30
0.0
  3
*Paper_Space0
  1

  0
ENDBLK
  5
58
330
55
100
AcDbEntity
  8
0
100
AcDbBlockEnd
  0
BLOCK
  5
1726
330
171C
100
AcDbEntity
  8
0
100
AcDbBlockBegin
  2
*D1
 70
     1
 10
0.0
 20
0.0
 30
0.0
  3
*D1
  1

  0
LINE
  5
2EB4
330
171C
100
AcDbEntity
  8
10100_Front_Dim
  6
Continuous
 62
     0
370
    -2
100
AcDbLine
 10
215.6728886507722
 20
230.3826873350079
 30
0.0
 11
225.3395786507721
 21
230.3826873350079
 31
0.0
  0
LINE
  5
2EB5
330
171C
100
AcDbEntity
  8
10100_Front_Dim
  6
Continuous
 62
     0
370
    -2
100
AcDbLine
 10
215.6728886507722
 20
160.3826773350079
 30
0.0
 11
225.3395786507721
 21
160.3826773350079
 31
0.0
  0
LINE
  5
2EB6
330
171C
100
AcDbEntity
  8
10100_Front_Dim
  6
Continuous
 62
     0
370
    -2
100
AcDbLine
 10
224.0895786507721
 20
227.8826873350079
 30
0.0
 11
224.0895786507721
 21
199.7576873350078
 31
0.0
  0
LINE
  5
2EB7
330
171C
100
AcDbEntity
  8
10100_Front_Dim
  6
Continuous
 62
     0
370
    -2
100
AcDbLine
 10
224.0895786507721
 20
162.8826773350079
 30
0.0
 11
224.0895786507721
 21
191.0076873350078
 31
0.0
  0
SOLID
  5
2EB8
330
171C
100
AcDbEntity
  8
10100_Front_Dim
  6
Continuous
 62
     0
100
AcDbTrace
 10
223.6729119841055
 20
227.8826873350079
 30
0.0
 11
224.5062453174388
 21
227.8826873350079
 31
0.0
 12
224.0895786507721
 22
230.3826873350079
 32
0.0
 13
224.0895786507721
 23
230.3826873350079
 33
0.0
  0
SOLID
  5
2EB9
330
171C
100
AcDbEntity
  8
10100_Front_Dim
  6
Continuous
 62
     0
100
AcDbTrace
 10
223.6729119841054
 20
162.8826773350079
 30
0.0
 11
224.5062453174388
 21
162.8826773350079
 31
0.0
 12
224.0895786507721
 22
160.3826773350079
 32
0.0
 13
224.0895786507721
 23
160.3826773350079
 33
0.0
  0
MTEXT
  5
2EBA
330
171C
100
AcDbEntity
  8
10100_Front_Dim
  6
Continuous
 62
     0
370
    13
100
AcDbMText
 10
224.0895786507721
 20
195.3826873350079
 30
0.0
 40
5.0
 41
0.0
 71
     5
 72
     1
  1
70
 11
0.0000000000000001
 21
1.0
 31
0.0
 73
     1
 44
1.0
1001
ACAD
1000
MTEXTBEGIN
1070
    73
1070
     1
1070
    44
1040
1.0
1070
    74
1070
     0
1000
MTEXTEND
  0
POINT
  5
2EBB
330
171C
100
AcDbEntity
  8
Defpoints
  6
Continuous
 62
     0
100
AcDbPoint
 10
215.0478886507722
 20
230.3826873350079
 30
0.0
  0
POINT
  5
2EBC
330
171C
100
AcDbEntity
  8
Defpoints
  6
Continuous
 62
     0
100
AcDbPoint
 10
215.0478886507722
 20
160.3826773350079
 30
0.0
  0
POINT
  5
2EBD
330
171C
100
AcDbEntity
  8
Defpoints
  6
Continuous
 62
     0
100
AcDbPoint
 10
224.0895786507721
 20
160.3826773350079
 30
0.0
  0
ENDBLK
  5
1727
330
171C
100
AcDbEntity
  8
0
100
AcDbBlockEnd
  0
BLOCK
  5
1732
330
1728
100
AcDbEntity
  8
0
100
AcDbBlockBegin
  2
*D2
 70
     1
 10
0.0
 20
0.0
 30
0.0
  3
*D2
  1

  0
LINE
  5
2EAA
330
1728
100
AcDbEntity
  8
10100_Front_Dim
  6
Continuous
 62
     0
370
    -2
100
AcDbLine
 10
143.0478886507721
 20
162.7576773350078
 30
0.0
 11
143.0478886507721
 21
149.2304004033889
 31
0.0
  0
LINE
  5
2EAB
330
1728
100
AcDbEntity
  8
10100_Front_Dim
  6
Continuous
 62
     0
370
    -2
100
AcDbLine
 10
215.0478886507722
 20
164.4467873350079
 30
0.0
 11
215.0478886507722
 21
149.2304004033889
 31
0.0
  0
LINE
  5
2EAC
330
1728
100
AcDbEntity
  8
10100_Front_Dim
  6
Continuous
 62
     0
370
    -2
100
AcDbLine
 10
145.5478886507721
 20
150.4804004033889
 30
0.0
 11
175.707470484814
 21
150.4804004033889
 31
0.0
  0
LINE
  5
2EAD
330
1728
100
AcDbEntity
  8
10100_Front_Dim
  6
Continuous
 62
     0
370
    -2
100
AcDbLine
 10
212.5478886507722
 20
150.4804004033889
 30
0.0
 11
185.2908038181473
 21
150.4804004033889
 31
0.0
  0
SOLID
  5
2EAE
330
1728
100
AcDbEntity
  8
10100_Front_Dim
  6
Continuous
 62
     0
100
AcDbTrace
 10
145.5478886507721
 20
150.8970670700555
 30
0.0
 11
145.5478886507721
 21
150.0637337367222
 31
0.0
 12
143.0478886507721
 22
150.4804004033889
 32
0.0
 13
143.0478886507721
 23
150.4804004033889
 33
0.0
  0
SOLID
  5
2EAF
330
1728
100
AcDbEntity
  8
10100_Front_Dim
  6
Continuous
 62
     0
100
AcDbTrace
 10
212.5478886507722
 20
150.8970670700555
 30
0.0
 11
212.5478886507722
 21
150.0637337367222
 31
0.0
 12
215.0478886507722
 22
150.4804004033889
 32
0.0
 13
215.0478886507722
 23
150.4804004033889
 33
0.0
  0
MTEXT
  5
2EB0
330
1728
100
AcDbEntity
  8
10100_Front_Dim
  6
Continuous
 62
     0
370
    13
100
AcDbMText
 10
180.4991371514807
 20
150.4804004033889
 30
0.0
 40
5.0
 41
0.0
 71
     5
 72
     1
  1
72
 73
     1
 44
1.0
1001
ACAD
1000
MTEXTBEGIN
1070
    73
1070
     1
1070
    44
1040
1.0
1070
    74
1070
     0
1000
MTEXTEND
  0
POINT
  5
2EB1
330
1728
100
AcDbEntity
  8
Defpoints
  6
Continuous
 62
     0
100
AcDbPoint
 10
143.0478886507721
 20
163.3826773350079
 30
0.0
  0
POINT
  5
2EB2
330
1728
100
AcDbEntity
  8
Defpoints
  6
Continuous
 62
     0
100
AcDbPoint
 10
215.0478886507722
 20
165.0717873350079
 30
0.0
  0
POINT
  5
2EB3
330
1728
100
AcDbEntity
  8
Defpoints
  6
Continuous
 62
     0
100
AcDbPoint
 10
215.0478886507722
 20
150.4804004033889
 30
0.0
  0
ENDBLK
  5
1733
330
1728
100
AcDbEntity
  8
0
100
AcDbBlockEnd
  0
BLOCK
  5
2B74
330
2B73
100
AcDbEntity
  8
0
  6
Continuous
 62
     7
100
AcDbBlockBegin
  2
SIEMENS_OUTLINE_BL0
 70
     0
 10
0.0
 20
0.0
 30
0.0
  3
SIEMENS_OUTLINE_BL0
  1

  0
LINE
  5
2B75
330
2B73
100
AcDbEntity
  8
0
  6
Continuous
 62
     7
100
AcDbLine
 10
79.186200508
 20
21.4145478991
 30
0.0
 11
79.186200508
 21
16.6612788158
 31
0.0
  0
LINE
  5
2B76
330
2B73
100
AcDbEntity
  8
0
  6
Continuous
 62
     7
100
AcDbLine
 10
80.61218123299999
 20
21.4145478991
 30
0.0
 11
80.61218123299999
 21
16.6612788158
 31
0.0
  0
LINE
  5
2B77
330
2B73
100
AcDbEntity
  8
0
  6
Continuous
 62
     7
100
AcDbLine
 10
79.186200508
 20
16.6612788158
 30
0.0
 11
80.61218123299999
 21
16.6612788158
 31
0.0
  0
LINE
  5
2B78
330
2B73
100
AcDbEntity
  8
0
  6
Continuous
 62
     7
100
AcDbLine
 10
79.186200508
 20
21.4145478991
 30
0.0
 11
80.61218123299999
 21
21.4145478991
 31
0.0
  0
LINE
  5
2B79
330
2B73
100
AcDbEntity
  8
0
  6
Continuous
 62
     7
100
AcDbLine
 10
81.7054331221
 20
21.4145478991
 30
0.0
 11
81.7054331221
 21
16.6612788158
 31
0.0
  0
LINE
  5
2B7A
330
2B73
100
AcDbEntity
  8
0
  6
Continuous
 62
     7
100
AcDbLine
 10
81.7054331221
 20
16.6612788158
 30
0.0
 11
85.2703849346
 21
16.6612788158
 31
0.0
  0
LINE
  5
2B7B
330
2B73
100
AcDbEntity
  8
0
  6
Continuous
 62
     7
100
AcDbLine
 10
85.2703849346
 20
17.5643999417
 30
0.0
 11
83.0838811563
 21
17.5643999417
 31
0.0
  0
LINE
  5
2B7C
330
2B73
100
AcDbEntity
  8
0
  6
Continuous
 62
     7
100
AcDbLine
 10
85.2703849346
 20
17.5643999417
 30
0.0
 11
85.2703849346
 21
16.6612788158
 31
0.0
  0
LINE
  5
2B7D
330
2B73
100
AcDbEntity
  8
0
  6
Continuous
 62
     7
100
AcDbLine
 10
85.2228522438
 20
21.4145478991
 30
0.0
 11
81.7054331221
 21
21.4145478991
 31
0.0
  0
LINE
  5
2B7E
330
2B73
100
AcDbEntity
  8
0
  6
Continuous
 62
     7
100
AcDbLine
 10
85.2228522438
 20
20.5351931187
 30
0.0
 11
83.0838811563
 21
20.5351931187
 31
0.0
  0
LINE
  5
2B7F
330
2B73
100
AcDbEntity
  8
0
  6
Continuous
 62
     7
100
AcDbLine
 10
85.2228522438
 20
21.4145478991
 30
0.0
 11
85.2228522438
 21
20.5351931187
 31
0.0
  0
LINE
  5
2B80
330
2B73
100
AcDbEntity
  8
0
  6
Continuous
 62
     7
100
AcDbLine
 10
84.9376560988
 20
18.68141817619999
 30
0.0
 11
83.0838811563
 21
18.68141817619999
 31
0.0
  0
LINE
  5
2B81
330
2B73
100
AcDbEntity
  8
0
  6
Continuous
 62
     7
100
AcDbLine
 10
84.9376560988
 20
19.465707575
 30
0.0
 11
84.9376560988
 21
18.68141817619999
 31
0.0
  0
LINE
  5
2B82
330
2B73
100
AcDbEntity
  8
0
  6
Continuous
 62
     7
100
AcDbLine
 10
84.9376560988
 20
19.465707575
 30
0.0
 11
83.0838811563
 21
19.465707575
 31
0.0
  0
LINE
  5
2B83
330
2B73
100
AcDbEntity
  8
0
  6
Continuous
 62
     7
100
AcDbLine
 10
83.0838811563
 20
20.5351931187
 30
0.0
 11
83.0838811563
 21
19.465707575
 31
0.0
  0
LINE
  5
2B84
330
2B73
100
AcDbEntity
  8
0
  6
Continuous
 62
     7
100
AcDbLine
 10
83.0838811563
 20
18.68141817619999
 30
0.0
 11
83.0838811563
 21
17.5643999417
 31
0.0
  0
LINE
  5
2B85
330
2B73
100
AcDbEntity
  8
0
  6
Continuous
 62
     7
100
AcDbLine
 10
86.0784406788
 20
16.6612788158
 30
0.0
 11
86.0784406788
 21
21.4145478991
 31
0.0
  0
LINE
  5
2B86
330
2B73
100
AcDbEntity
  8
0
  6
Continuous
 62
     7
100
AcDbLine
 10
86.0784406788
 20
16.6612788158
 30
0.0
 11
87.02909449539999
 21
16.6612788158
 31
0.0
  0
LINE
  5
2B87
330
2B73
100
AcDbEntity
  8
0
  6
Continuous
 62
     7
100
AcDbLine
 10
91.92496165120001
 20
21.4145478991
 30
0.0
 11
91.92496165120001
 21
16.6612788158
 31
0.0
  0
LINE
  5
2B88
330
2B73
100
AcDbEntity
  8
0
  6
Continuous
 62
     7
100
AcDbLine
 10
91.92496165120001
 20
16.6612788158
 30
0.0
 11
90.54651361700001
 21
16.6612788158
 31
0.0
  0
LINE
  5
2B89
330
2B73
100
AcDbEntity
  8
0
  6
Continuous
 62
     7
100
AcDbLine
 10
88.3600098387
 20
16.613746125
 30
0.0
 11
89.21559827370002
 21
16.613746125
 31
0.0
  0
LINE
  5
2B8A
330
2B73
100
AcDbEntity
  8
0
  6
Continuous
 62
     7
100
AcDbLine
 10
88.3600098387
 20
16.613746125
 30
0.0
 11
87.02909449539999
 21
19.7033710291
 31
0.0
  0
LINE
  5
2B8B
330
2B73
100
AcDbEntity
  8
0
  6
Continuous
 62
     7
100
AcDbLine
 10
87.02909449539999
 20
16.6612788158
 30
0.0
 11
87.02909449539999
 21
19.7033710291
 31
0.0
  0
LINE
  5
2B8C
330
2B73
100
AcDbEntity
  8
0
  6
Continuous
 62
     7
100
AcDbLine
 10
90.54651361700001
 20
19.75090372
 30
0.0
 11
89.21559827370002
 21
16.613746125
 31
0.0
  0
LINE
  5
2B8D
330
2B73
100
AcDbEntity
  8
0
  6
Continuous
 62
     7
100
AcDbLine
 10
87.78961754870001
 20
21.4145478991
 30
0.0
 11
86.0784406788
 21
21.4145478991
 31
0.0
  0
LINE
  5
2B8E
330
2B73
100
AcDbEntity
  8
0
  6
Continuous
 62
     7
100
AcDbLine
 10
91.92496165120001
 20
21.4145478991
 30
0.0
 11
90.2137847812
 21
21.4145478991
 31
0.0
  0
LINE
  5
2B8F
330
2B73
100
AcDbEntity
  8
0
  6
Continuous
 62
     7
100
AcDbLine
 10
87.78961754870001
 20
21.4145478991
 30
0.0
 11
89.0254675104
 21
18.5150537583
 31
0.0
  0
LINE
  5
2B90
330
2B73
100
AcDbEntity
  8
0
  6
Continuous
 62
     7
100
AcDbLine
 10
90.2137847812
 20
21.4145478991
 30
0.0
 11
89.0254675104
 21
18.5150537583
 31
0.0
  0
LINE
  5
2B91
330
2B73
100
AcDbEntity
  8
0
  6
Continuous
 62
     7
100
AcDbLine
 10
90.54651361700001
 20
19.75090372
 30
0.0
 11
90.54651361700001
 21
16.6612788158
 31
0.0
  0
LINE
  5
2B92
330
2B73
100
AcDbEntity
  8
0
  6
Continuous
 62
     7
100
AcDbLine
 10
93.01821354030002
 20
21.4145478991
 30
0.0
 11
93.01821354030002
 21
16.6612788158
 31
0.0
  0
LINE
  5
2B93
330
2B73
100
AcDbEntity
  8
0
  6
Continuous
 62
     7
100
AcDbLine
 10
93.01821354030002
 20
16.6612788158
 30
0.0
 11
96.5831653528
 21
16.6612788158
 31
0.0
  0
LINE
  5
2B94
330
2B73
100
AcDbEntity
  8
0
  6
Continuous
 62
     7
100
AcDbLine
 10
96.5831653528
 20
17.5643999417
 30
0.0
 11
94.3966615745
 21
17.5643999417
 31
0.0
  0
LINE
  5
2B95
330
2B73
100
AcDbEntity
  8
0
  6
Continuous
 62
     7
100
AcDbLine
 10
96.5831653528
 20
17.5643999417
 30
0.0
 11
96.5831653528
 21
16.6612788158
 31
0.0
  0
LINE
  5
2B96
330
2B73
100
AcDbEntity
  8
0
  6
Continuous
 62
     7
100
AcDbLine
 10
96.53563266200002
 20
21.4145478991
 30
0.0
 11
93.01821354030002
 21
21.4145478991
 31
0.0
  0
LINE
  5
2B97
330
2B73
100
AcDbEntity
  8
0
  6
Continuous
 62
     7
100
AcDbLine
 10
96.53563266200002
 20
20.5351931187
 30
0.0
 11
94.3966615745
 21
20.5351931187
 31
0.0
  0
LINE
  5
2B98
330
2B73
100
AcDbEntity
  8
0
  6
Continuous
 62
     7
100
AcDbLine
 10
96.53563266200002
 20
21.4145478991
 30
0.0
 11
96.53563266200002
 21
20.5351931187
 31
0.0
  0
LINE
  5
2B99
330
2B73
100
AcDbEntity
  8
0
  6
Continuous
 62
     7
100
AcDbLine
 10
96.25043651700002
 20
18.68141817619999
 30
0.0
 11
94.3966615745
 21
18.68141817619999
 31
0.0
  0
LINE
  5
2B9A
330
2B73
100
AcDbEntity
  8
0
  6
Continuous
 62
     7
100
AcDbLine
 10
96.25043651700002
 20
19.465707575
 30
0.0
 11
96.25043651700002
 21
18.68141817619999
 31
0.0
  0
LINE
  5
2B9B
330
2B73
100
AcDbEntity
  8
0
  6
Continuous
 62
     7
100
AcDbLine
 10
96.25043651700002
 20
19.465707575
 30
0.0
 11
94.3966615745
 21
19.465707575
 31
0.0
  0
LINE
  5
2B9C
330
2B73
100
AcDbEntity
  8
0
  6
Continuous
 62
     7
100
AcDbLine
 10
94.3966615745
 20
20.5351931187
 30
0.0
 11
94.3966615745
 21
19.465707575
 31
0.0
  0
LINE
  5
2B9D
330
2B73
100
AcDbEntity
  8
0
  6
Continuous
 62
     7
100
AcDbLine
 10
94.3966615745
 20
18.68141817619999
 30
0.0
 11
94.3966615745
 21
17.5643999417
 31
0.0
  0
LINE
  5
2B9E
330
2B73
100
AcDbEntity
  8
0
  6
Continuous
 62
     7
100
AcDbLine
 10
97.3674547515
 20
16.6612788158
 30
0.0
 11
97.3674547515
 21
21.4145478991
 31
0.0
  0
LINE
  5
2B9F
330
2B73
100
AcDbEntity
  8
0
  6
Continuous
 62
     7
100
AcDbLine
 10
101.5503315448
 20
21.4145478991
 30
0.0
 11
101.5503315448
 21
16.6612788158
 31
0.0
  0
LINE
  5
2BA0
330
2B73
100
AcDbEntity
  8
0
  6
Continuous
 62
     7
100
AcDbLine
 10
97.3674547515
 20
16.6612788158
 30
0.0
 11
98.3181085682
 21
16.6612788158
 31
0.0
  0
LINE
  5
2BA1
330
2B73
100
AcDbEntity
  8
0
  6
Continuous
 62
     7
100
AcDbLine
 10
101.5503315448
 20
21.4145478991
 30
0.0
 11
100.5996777282
 21
21.4145478991
 31
0.0
  0
LINE
  5
2BA2
330
2B73
100
AcDbEntity
  8
0
  6
Continuous
 62
     7
100
AcDbLine
 10
98.91226720360002
 20
21.4145478991
 30
0.0
 11
97.3674547515
 21
21.4145478991
 31
0.0
  0
LINE
  5
2BA3
330
2B73
100
AcDbEntity
  8
0
  6
Continuous
 62
     7
100
AcDbLine
 10
101.5503315448
 20
16.6612788158
 30
0.0
 11
100.0292854382
 21
16.6612788158
 31
0.0
  0
LINE
  5
2BA4
330
2B73
100
AcDbEntity
  8
0
  6
Continuous
 62
     7
100
AcDbLine
 10
100.0292854382
 20
16.6612788158
 30
0.0
 11
98.3181085682
 21
19.7033710291
 31
0.0
  0
LINE
  5
2BA5
330
2B73
100
AcDbEntity
  8
0
  6
Continuous
 62
     7
100
AcDbLine
 10
98.91226720360002
 20
21.4145478991
 30
0.0
 11
100.5996777282
 21
18.4675210675
 31
0.0
  0
LINE
  5
2BA6
330
2B73
100
AcDbEntity
  8
0
  6
Continuous
 62
     7
100
AcDbLine
 10
100.5996777282
 20
21.4145478991
 30
0.0
 11
100.5996777282
 21
18.4675210675
 31
0.0
  0
LINE
  5
2BA7
330
2B73
100
AcDbEntity
  8
0
  6
Continuous
 62
     7
100
AcDbLine
 10
98.3181085682
 20
16.6612788158
 30
0.0
 11
98.3181085682
 21
19.7033710291
 31
0.0
  0
LINE
  5
2BA8
330
2B73
100
AcDbEntity
  8
0
  6
Continuous
 62
     7
100
AcDbLine
 10
102.358387289
 20
16.7563441975
 30
0.0
 11
102.358387289
 21
17.7069980142
 31
0.0
  0
LINE
  5
2BA9
330
2B73
100
AcDbEntity
  8
0
  6
Continuous
 62
     7
100
AcDbLine
 10
105.6856756473
 20
20.4163613916
 30
0.0
 11
105.6856756473
 21
21.3670152083
 31
0.0
  0
ARC
  5
2BAA
330
2B73
100
AcDbEntity
  8
0
  6
Continuous
 62
     7
100
AcDbCircle
 10
104.063028414
 20
18.6184373609
 30
0.0
 40
1.111619360599997
100
AcDbArc
 50
277.7099956934
 51
295.6884927746
  0
ARC
  5
2BAB
330
2B73
100
AcDbEntity
  8
0
  6
Continuous
 62
     7
100
AcDbCircle
 10
104.3473383967
 20
17.8936115972
 30
0.0
 40
0.3401689265
100
AcDbArc
 50
305.503221255
 51
72.46528985229999
  0
ARC
  5
2BAC
330
2B73
100
AcDbEntity
  8
0
  6
Continuous
 62
     7
100
AcDbCircle
 10
103.7813445886
 20
21.2953185068
 30
0.0
 40
4.756794641099999
100
AcDbArc
 50
252.5939200548001
 51
280.9816604256
  0
ARC
  5
2BAD
330
2B73
100
AcDbEntity
  8
0
  6
Continuous
 62
     7
100
AcDbCircle
 10
104.2361799517
 20
18.6773047703
 30
0.0
 40
2.100726595299998
100
AcDbArc
 50
282.405835852
 51
311.8644433928
  0
ARC
  5
2BAE
330
2B73
100
AcDbEntity
  8
0
  6
Continuous
 62
     7
100
AcDbCircle
 10
103.9626156046
 20
20.2856464918
 30
0.0
 40
0.3029626476
100
AcDbArc
 50
154.4400348282
 51
221.8201698801
  0
ARC
  5
2BAF
330
2B73
100
AcDbEntity
  8
0
  6
Continuous
 62
     7
100
AcDbCircle
 10
104.0418367559
 20
20.2064253405
 30
0.0
 40
0.4103089737
100
AcDbArc
 50
102.8287828681
 51
149.2259639003
  0
ARC
  5
2BB0
330
2B73
100
AcDbEntity
  8
0
  6
Continuous
 62
     7
100
AcDbCircle
 10
104.4588635916
 20
18.4640900106
 30
0.0
 40
2.201836557
100
AcDbArc
 50
84.0400061857
 51
103.3427657870999
  0
ARC
  5
2BB1
330
2B73
100
AcDbEntity
  8
0
  6
Continuous
 62
     7
100
AcDbCircle
 10
104.1178997669
 20
16.0467260867
 30
0.0
 40
4.642373736499997
100
AcDbArc
 50
70.2625858546
 51
82.95241863799999
  0
ARC
  5
2BB2
330
2B73
100
AcDbEntity
  8
0
  6
Continuous
 62
     7
100
AcDbCircle
 10
103.6038815647
 20
20.7183489764
 30
0.0
 40
3.258755990899997
100
AcDbArc
 50
247.5300206145
 51
280.7579522143
  0
ARC
  5
2BB3
330
2B73
100
AcDbEntity
  8
0
  6
Continuous
 62
     7
100
AcDbCircle
 10
97.21891509270001
 20
2.4668290159
 30
0.0
 40
17.3316084133
100
AcDbArc
 50
65.34146746500001
 51
67.39977707359999
  0
ARC
  5
2BB4
330
2B73
100
AcDbEntity
  8
0
  6
Continuous
 62
     7
100
AcDbCircle
 10
108.0147774981
 20
28.259255379
 30
0.0
 40
10.6291642039
100
AcDbArc
 50
242.8620101252001
 51
247.1042029186
  0
ARC
  5
2BB5
330
2B73
100
AcDbEntity
  8
0
  6
Continuous
 62
     7
100
AcDbCircle
 10
104.1598762715
 20
20.725323882
 30
0.0
 40
2.166291629199998
100
AcDbArc
 50
227.3119280794
 51
242.7040315235
  0
ARC
  5
2BB6
330
2B73
100
AcDbEntity
  8
0
  6
Continuous
 62
     7
100
AcDbCircle
 10
103.5558454619
 20
20.0196462412
 30
0.0
 40
1.238521734
100
AcDbArc
 50
194.7952194236
 51
225.7176549047
  0
ARC
  5
2BB7
330
2B73
100
AcDbEntity
  8
0
  6
Continuous
 62
     7
100
AcDbCircle
 10
103.6180035961
 20
20.0598662104
 30
0.0
 40
1.309092072899999
100
AcDbArc
 50
164.1974860461
 51
195.8025139539
  0
ARC
  5
2BB8
330
2B73
100
AcDbEntity
  8
0
  6
Continuous
 62
     7
100
AcDbCircle
 10
104.1750273167
 20
19.1715990505
 30
0.0
 40
2.366924815299999
100
AcDbArc
 50
86.22180229280001
 51
120.4272602309
  0
ARC
  5
2BB9
330
2B73
100
AcDbEntity
  8
0
  6
Continuous
 62
     7
100
AcDbCircle
 10
103.9061705342
 20
12.4754312294
 30
0.0
 40
9.0679051661
100
AcDbArc
 50
78.68270492259998
 51
87.3147599624
  0
ARC
  5
2BBA
330
2B73
100
AcDbEntity
  8
0
  6
Continuous
 62
     7
100
AcDbCircle
 10
103.4501013558
 20
20.1673739729
 30
0.0
 40
1.119747444
100
AcDbArc
 50
142.813917903
 51
167.1522951417
  0
ARC
  5
2BBB
330
2B73
100
AcDbEntity
  8
0
  6
Continuous
 62
     7
100
AcDbCircle
 10
103.7954106974
 20
19.8607922762
 30
0.0
 40
1.580546684499998
100
AcDbArc
 50
121.2140948535
 51
141.5254768286
  0
ARC
  5
2BBC
330
2B73
100
AcDbEntity
  8
0
  6
Continuous
 62
     7
100
AcDbCircle
 10
104.372585063
 20
20.6718496049
 30
0.0
 40
0.8661276051999998
100
AcDbArc
 50
222.7760387596
 51
239.0362434679
  0
ARC
  5
2BBD
330
2B73
100
AcDbEntity
  8
0
  6
Continuous
 62
     7
100
AcDbCircle
 10
101.8658754847
 20
13.3415774063
 30
0.0
 40
6.858773576299999
100
AcDbArc
 50
59.90202725600001
 51
68.2036481279
  0
ARC
  5
2BBE
330
2B73
100
AcDbEntity
  8
0
  6
Continuous
 62
     7
100
AcDbCircle
 10
105.2743699785
 20
22.2674639135
 30
0.0
 40
2.698741017099999
100
AcDbArc
 50
240.0481997804
 51
251.3779673736999
  0
ARC
  5
2BBF
330
2B73
100
AcDbEntity
  8
0
  6
Continuous
 62
     7
100
AcDbCircle
 10
104.6089128117
 20
18.1105652982
 30
0.0
 40
1.4334474881
100
AcDbArc
 50
315.8904553224
 51
333.5229264373
  0
ARC
  5
2BC0
330
2B73
100
AcDbEntity
  8
0
  6
Continuous
 62
     7
100
AcDbCircle
 10
104.6135510555
 20
18.057158148
 30
0.0
 40
1.406228711899998
100
AcDbArc
 50
335.3867972702
 51
24.3915119402
  0
ARC
  5
2BC1
330
2B73
100
AcDbEntity
  8
0
  6
Continuous
 62
     7
100
AcDbCircle
 10
104.5413461519
 20
17.9793014562
 30
0.0
 40
1.504702514799999
100
AcDbArc
 50
25.95629166050001
 51
59.4834829668
  0
LINE
  5
2BC2
330
2B73
100
AcDbEntity
  8
0
  6
Continuous
 62
     7
100
AcDbLine
 10
74.7656602606
 20
16.7563441975
 30
0.0
 11
74.7656602606
 21
17.7069980142
 31
0.0
  0
LINE
  5
2BC3
330
2B73
100
AcDbEntity
  8
0
  6
Continuous
 62
     7
100
AcDbLine
 10
78.09294861879997
 20
20.4163613916
 30
0.0
 11
78.09294861879997
 21
21.3670152083
 31
0.0
  0
ARC
  5
2BC4
330
2B73
100
AcDbEntity
  8
0
  6
Continuous
 62
     7
100
AcDbCircle
 10
76.4703013855
 20
18.6184373609
 30
0.0
 40
1.111619360599997
100
AcDbArc
 50
277.7099956934
 51
295.6884927746
  0
ARC
  5
2BC5
330
2B73
100
AcDbEntity
  8
0
  6
Continuous
 62
     7
100
AcDbCircle
 10
76.7546113683
 20
17.8936115972
 30
0.0
 40
0.3401689265
100
AcDbArc
 50
305.5032212556
 51
72.4652898515
  0
ARC
  5
2BC6
330
2B73
100
AcDbEntity
  8
0
  6
Continuous
 62
     7
100
AcDbCircle
 10
76.1886175602
 20
21.2953185068
 30
0.0
 40
4.756794641099999
100
AcDbArc
 50
252.5939200545
 51
280.9816604253
  0
ARC
  5
2BC7
330
2B73
100
AcDbEntity
  8
0
  6
Continuous
 62
     7
100
AcDbCircle
 10
76.64345292330001
 20
18.6773047703
 30
0.0
 40
2.100726595299998
100
AcDbArc
 50
282.4058358513
 51
311.8644433923
  0
ARC
  5
2BC8
330
2B73
100
AcDbEntity
  8
0
  6
Continuous
 62
     7
100
AcDbCircle
 10
76.3698885762
 20
20.2856464918
 30
0.0
 40
0.3029626476
100
AcDbArc
 50
154.4400348282
 51
221.8201698801
  0
ARC
  5
2BC9
330
2B73
100
AcDbEntity
  8
0
  6
Continuous
 62
     7
100
AcDbCircle
 10
76.4491097276
 20
20.2064253405
 30
0.0
 40
0.4103089737
100
AcDbArc
 50
102.8287828727
 51
149.2259639027
  0
ARC
  5
2BCA
330
2B73
100
AcDbEntity
  8
0
  6
Continuous
 62
     7
100
AcDbCircle
 10
76.8661365632
 20
18.4640900106
 30
0.0
 40
2.201836557
100
AcDbArc
 50
84.0400061859
 51
103.3427657872
  0
ARC
  5
2BCB
330
2B73
100
AcDbEntity
  8
0
  6
Continuous
 62
     7
100
AcDbCircle
 10
76.5251727384
 20
16.0467260867
 30
0.0
 40
4.642373736499997
100
AcDbArc
 50
70.2625858546
 51
82.9524186379
  0
ARC
  5
2BCC
330
2B73
100
AcDbEntity
  8
0
  6
Continuous
 62
     7
100
AcDbCircle
 10
76.0111545363
 20
20.7183489764
 30
0.0
 40
3.258755990899997
100
AcDbArc
 50
247.5300206148
 51
280.7579522145
  0
ARC
  5
2BCD
330
2B73
100
AcDbEntity
  8
0
  6
Continuous
 62
     7
100
AcDbCircle
 10
69.6261880643
 20
2.4668290159
 30
0.0
 40
17.3316084133
100
AcDbArc
 50
65.34146746500001
 51
67.39977707359999
  0
ARC
  5
2BCE
330
2B73
100
AcDbEntity
  8
0
  6
Continuous
 62
     7
100
AcDbCircle
 10
80.4220504697
 20
28.259255379
 30
0.0
 40
10.6291642039
100
AcDbArc
 50
242.8620101252001
 51
247.1042029185
  0
ARC
  5
2BCF
330
2B73
100
AcDbEntity
  8
0
  6
Continuous
 62
     7
100
AcDbCircle
 10
76.56714924310001
 20
20.725323882
 30
0.0
 40
2.166291629199998
100
AcDbArc
 50
227.3119280794
 51
242.7040315235
  0
ARC
  5
2BD0
330
2B73
100
AcDbEntity
  8
0
  6
Continuous
 62
     7
100
AcDbCircle
 10
75.9631184335
 20
20.0196462412
 30
0.0
 40
1.238521734
100
AcDbArc
 50
194.7952194234
 51
225.7176549042
  0
ARC
  5
2BD1
330
2B73
100
AcDbEntity
  8
0
  6
Continuous
 62
     7
100
AcDbCircle
 10
76.58230028830002
 20
19.1715990505
 30
0.0
 40
2.366924815299999
100
AcDbArc
 50
86.22180229280001
 51
120.4272602309
  0
ARC
  5
2BD2
330
2B73
100
AcDbEntity
  8
0
  6
Continuous
 62
     7
100
AcDbCircle
 10
76.3134435058
 20
12.4754312294
 30
0.0
 40
9.0679051661
100
AcDbArc
 50
78.68270492259998
 51
87.3147599624
  0
ARC
  5
2BD3
330
2B73
100
AcDbEntity
  8
0
  6
Continuous
 62
     7
100
AcDbCircle
 10
76.20268366899998
 20
19.8607922762
 30
0.0
 40
1.580546684599998
100
AcDbArc
 50
121.2140948541
 51
141.525476829
  0
ARC
  5
2BD4
330
2B73
100
AcDbEntity
  8
0
  6
Continuous
 62
     7
100
AcDbCircle
 10
76.7798580346
 20
20.6718496049
 30
0.0
 40
0.8661276051999998
100
AcDbArc
 50
222.7760387596
 51
239.0362434679
  0
ARC
  5
2BD5
330
2B73
100
AcDbEntity
  8
0
  6
Continuous
 62
     7
100
AcDbCircle
 10
74.2731484563
 20
13.3415774063
 30
0.0
 40
6.858773576299999
100
AcDbArc
 50
59.90202725620001
 51
68.20364812820002
  0
ARC
  5
2BD6
330
2B73
100
AcDbEntity
  8
0
  6
Continuous
 62
     7
100
AcDbCircle
 10
77.6816429501
 20
22.2674639135
 30
0.0
 40
2.698741017099999
100
AcDbArc
 50
240.0481997804
 51
251.3779673734
  0
ARC
  5
2BD7
330
2B73
100
AcDbEntity
  8
0
  6
Continuous
 62
     7
100
AcDbCircle
 10
77.0161857833
 20
18.1105652982
 30
0.0
 40
1.4334474881
100
AcDbArc
 50
315.8904553226
 51
333.5229264375
  0
ARC
  5
2BD8
330
2B73
100
AcDbEntity
  8
0
  6
Continuous
 62
     7
100
AcDbCircle
 10
77.020824027
 20
18.057158148
 30
0.0
 40
1.406228711899998
100
AcDbArc
 50
335.3867972703
 51
24.3915119403
  0
ARC
  5
2BD9
330
2B73
100
AcDbEntity
  8
0
  6
Continuous
 62
     7
100
AcDbCircle
 10
76.94861912350001
 20
17.9793014562
 30
0.0
 40
1.504702514699999
100
AcDbArc
 50
25.9562916611
 51
59.4834829676
  0
LINE
  5
2BDA
330
2B73
100
AcDbEntity
  8
0
  6
Continuous
 62
     7
100
AcDbLine
 10
74.9574888499
 20
20.8337423583
 30
0.0
 11
75.2315546745
 21
21.1078154358
 31
0.0
  0
ARC
  5
2BDB
330
2B73
100
AcDbEntity
  8
0
  6
Continuous
 62
     7
100
AcDbCircle
 10
76.0252765676
 20
20.0598662104
 30
0.0
 40
1.309092072899999
100
AcDbArc
 50
164.1974860461
 51
195.8025139539
  0
ARC
  5
2BDC
330
2B73
100
AcDbEntity
  8
0
  6
Continuous
 62
     7
100
AcDbCircle
 10
75.8573743274
 20
20.1673739729
 30
0.0
 40
1.119747444
100
AcDbArc
 50
142.813917903
 51
167.1522951417
  0
ENDBLK
  5
2BDD
330
2B73
100
AcDbEntity
  8
0
100
AcDbBlockEnd
  0
BLOCK
  5
2C69
330
2C5F
100
AcDbEntity
  8
0
100
AcDbBlockBegin
  2
*D4
 70
     1
 10
0.0
 20
0.0
 30
0.0
  3
*D4
  1

  0
LINE
  5
2EA0
330
2C5F
100
AcDbEntity
  8
13100_Top_Dim
  6
Continuous
 62
     0
370
    -2
100
AcDbLine
 10
95.22510025013479
 20
227.6726022429512
 30
0.0
 11
54.26399080770194
 21
227.6726022429512
 31
0.0
  0
LINE
  5
2EA1
330
2C5F
100
AcDbEntity
  8
13100_Top_Dim
  6
Continuous
 62
     0
370
    -2
100
AcDbLine
 10
95.22510025013479
 20
163.6726022429511
 30
0.0
 11
54.26399080770193
 21
163.6726022429511
 31
0.0
  0
LINE
  5
2EA2
330
2C5F
100
AcDbEntity
  8
13100_Top_Dim
  6
Continuous
 62
     0
370
    -2
100
AcDbLine
 10
55.51399080770194
 20
225.1726022429512
 30
0.0
 11
55.51399080770194
 21
200.4642689096179
 31
0.0
  0
LINE
  5
2EA3
330
2C5F
100
AcDbEntity
  8
13100_Top_Dim
  6
Continuous
 62
     0
370
    -2
100
AcDbLine
 10
55.51399080770193
 20
166.1726022429512
 30
0.0
 11
55.51399080770194
 21
190.8809355762846
 31
0.0
  0
SOLID
  5
2EA4
330
2C5F
100
AcDbEntity
  8
13100_Top_Dim
  6
Continuous
 62
     0
100
AcDbTrace
 10
55.09732414103527
 20
225.1726022429512
 30
0.0
 11
55.93065747436861
 21
225.1726022429512
 31
0.0
 12
55.51399080770194
 22
227.6726022429512
 32
0.0
 13
55.51399080770194
 23
227.6726022429512
 33
0.0
  0
SOLID
  5
2EA5
330
2C5F
100
AcDbEntity
  8
13100_Top_Dim
  6
Continuous
 62
     0
100
AcDbTrace
 10
55.09732414103527
 20
166.1726022429512
 30
0.0
 11
55.9306574743686
 21
166.1726022429512
 31
0.0
 12
55.51399080770193
 22
163.6726022429511
 32
0.0
 13
55.51399080770193
 23
163.6726022429511
 33
0.0
  0
MTEXT
  5
2EA6
330
2C5F
100
AcDbEntity
  8
13100_Top_Dim
  6
Continuous
 62
     0
370
    13
100
AcDbMText
 10
55.5139908077019
 20
195.6726022429512
 30
0.0
 40
5.0
 41
0.0
 71
     5
 72
     1
  1
64
 11
0.0000000000000001
 21
1.0
 31
0.0
 73
     1
 44
1.0
1001
ACAD
1000
MTEXTBEGIN
1070
    73
1070
     1
1070
    44
1040
1.0
1070
    74
1070
     0
1000
MTEXTEND
  0
POINT
  5
2EA7
330
2C5F
100
AcDbEntity
  8
Defpoints
  6
Continuous
 62
     0
100
AcDbPoint
 10
95.85010025013479
 20
227.6726022429512
 30
0.0
  0
POINT
  5
2EA8
330
2C5F
100
AcDbEntity
  8
Defpoints
  6
Continuous
 62
     0
100
AcDbPoint
 10
95.85010025013479
 20
163.6726022429511
 30
0.0
  0
POINT
  5
2EA9
330
2C5F
100
AcDbEntity
  8
Defpoints
  6
Continuous
 62
     0
100
AcDbPoint
 10
55.51399080770193
 20
163.6726022429511
 30
0.0
  0
ENDBLK
  5
2C6A
330
2C5F
100
AcDbEntity
  8
0
100
AcDbBlockEnd
  0
BLOCK
  5
2C81
330
2C77
100
AcDbEntity
  8
0
100
AcDbBlockBegin
  2
*D5
 70
     1
 10
0.0
 20
0.0
 30
0.0
  3
*D5
  1

  0
LINE
  5
2E96
330
2C77
100
AcDbEntity
  8
14100_Bottom_Dim
  6
Continuous
 62
     0
370
    -2
100
AcDbLine
 10
253.3834026507896
 20
195.0476022429512
 30
0.0
 11
253.3834026507896
 21
149.1283173350079
 31
0.0
  0
LINE
  5
2E97
330
2C77
100
AcDbEntity
  8
14100_Bottom_Dim
  6
Continuous
 62
     0
370
    -2
100
AcDbLine
 10
287.3834026507895
 20
195.0476022429512
 30
0.0
 11
287.3834026507895
 21
149.1283173350079
 31
0.0
  0
LINE
  5
2E98
330
2C77
100
AcDbEntity
  8
14100_Bottom_Dim
  6
Continuous
 62
     0
370
    -2
100
AcDbLine
 10
255.8834026507895
 20
150.3783173350079
 30
0.0
 11
265.5917359841229
 21
150.3783173350079
 31
0.0
  0
LINE
  5
2E99
330
2C77
100
AcDbEntity
  8
14100_Bottom_Dim
  6
Continuous
 62
     0
370
    -2
100
AcDbLine
 10
284.8834026507897
 20
150.3783173350079
 30
0.0
 11
275.1750693174563
 21
150.3783173350079
 31
0.0
  0
SOLID
  5
2E9A
330
2C77
100
AcDbEntity
  8
14100_Bottom_Dim
  6
Continuous
 62
     0
100
AcDbTrace
 10
255.8834026507895
 20
150.7949840016745
 30
0.0
 11
255.8834026507895
 21
149.9616506683411
 31
0.0
 12
253.3834026507896
 22
150.3783173350079
 32
0.0
 13
253.3834026507896
 23
150.3783173350079
 33
0.0
  0
SOLID
  5
2E9B
330
2C77
100
AcDbEntity
  8
14100_Bottom_Dim
  6
Continuous
 62
     0
100
AcDbTrace
 10
284.8834026507897
 20
150.7949840016745
 30
0.0
 11
284.8834026507897
 21
149.9616506683411
 31
0.0
 12
287.3834026507895
 22
150.3783173350079
 32
0.0
 13
287.3834026507895
 23
150.3783173350079
 33
0.0
  0
MTEXT
  5
2E9C
330
2C77
100
AcDbEntity
  8
14100_Bottom_Dim
  6
Continuous
 62
     0
370
    13
100
AcDbMText
 10
270.3834026507895
 20
150.3783173350079
 30
0.0
 40
5.0
 41
0.0
 71
     5
 72
     1
  1
34
 73
     1
 44
1.0
1001
ACAD
1000
MTEXTBEGIN
1070
    73
1070
     1
1070
    44
1040
1.0
1070
    74
1070
     0
1000
MTEXTEND
  0
POINT
  5
2E9D
330
2C77
100
AcDbEntity
  8
Defpoints
  6
Continuous
 62
     0
100
AcDbPoint
 10
253.3834026507896
 20
195.6726022429512
 30
0.0
  0
POINT
  5
2E9E
330
2C77
100
AcDbEntity
  8
Defpoints
  6
Continuous
 62
     0
100
AcDbPoint
 10
287.3834026507895
 20
195.6726022429512
 30
0.0
  0
POINT
  5
2E9F
330
2C77
100
AcDbEntity
  8
Defpoints
  6
Continuous
 62
     0
100
AcDbPoint
 10
287.3834026507895
 20
150.3783173350079
 30
0.0
  0
ENDBLK
  5
2C82
330
2C77
100
AcDbEntity
  8
0
100
AcDbBlockEnd
  0
BLOCK
  5
2C9F
330
2C98
100
AcDbEntity
  8
0
100
AcDbBlockBegin
  2
*D6
 70
     1
 10
0.0
 20
0.0
 30
0.0
  3
*D6
  1

  0
LINE
  5
2E8F
330
2C98
100
AcDbEntity
  8
14100_Bottom_Dim
  6
Continuous
 62
     0
370
    -2
100
AcDbLine
 10
260.2773292901225
 20
197.9167670077335
 30
0.0
 11
257.9001132075937
 21
197.142917088843
 31
0.0
  0
MTEXT
  5
2E90
330
2C98
100
AcDbEntity
  8
14100_Bottom_Dim
  6
Continuous
 62
     0
370
    13
100
AcDbMText
 10
264.8336601149691
 20
199.3999793522736
 30
0.0
 40
5.0
 41
0.0
 71
     5
 72
     1
  1
R2
 11
0.950886433011483
 21
0.3095399675562083
 31
0.0
 73
     1
 44
1.0
1001
ACAD
1000
MTEXTBEGIN
1070
    73
1070
     1
1070
    44
1040
1.0
1070
    74
1070
     0
1000
MTEXTEND
  0
SOLID
  5
2E91
330
2C98
100
AcDbEntity
  8
14100_Bottom_Dim
  6
Continuous
 62
     0
100
AcDbTrace
 10
257.771138221112
 20
197.5391197692644
 30
0.0
 11
258.0290881940755
 21
196.7467144084216
 31
0.0
 12
255.522897125065
 22
196.3690671699525
 32
0.0
 13
255.522897125065
 23
196.3690671699525
 33
0.0
  0
LINE
  5
2E92
330
2C98
100
AcDbEntity
  8
14100_Bottom_Dim
  6
Continuous
 62
     0
370
    -2
100
AcDbLine
 10
250.8834026507896
 20
195.6726022429512
 30
0.0
 11
255.8834026507895
 21
195.6726022429512
 31
0.0
  0
LINE
  5
2E93
330
2C98
100
AcDbEntity
  8
14100_Bottom_Dim
  6
Continuous
 62
     0
370
    -2
100
AcDbLine
 10
253.3834026507896
 20
193.1726022429512
 30
0.0
 11
253.3834026507896
 21
198.1726022429512
 31
0.0
  0
POINT
  5
2E94
330
2C98
100
AcDbEntity
  8
Defpoints
  6
Continuous
 62
     0
100
AcDbPoint
 10
255.522897125065
 20
196.3690671699525
 30
0.0
  0
POINT
  5
2E95
330
2C98
100
AcDbEntity
  8
Defpoints
  6
Continuous
 62
     0
100
AcDbPoint
 10
253.3834026507896
 20
195.6726022429512
 30
0.0
  0
ENDBLK
  5
2CA0
330
2C98
100
AcDbEntity
  8
0
100
AcDbBlockEnd
  0
ENDSEC
  0
SECTION
  2
ENTITIES
  0
DIMENSION
  5
D73
330
1F
100
AcDbEntity
  8
10100_Front_Dim
  6
Continuous
 62
     7
370
    13
100
AcDbDimension
  2
*D1
 10
224.0895786507721
 20
160.3826773350079
 30
0.0
 11
224.0895786507721
 21
195.3826873350079
 31
0.0
 70
   160
 71
     5
 42
70.00001000000001
  3
ISO-25
100
AcDbAlignedDimension
 13
215.0478886507722
 23
230.3826873350079
 33
0.0
 14
215.0478886507722
 24
160.3826773350079
 34
0.0
 50
90.0
100
AcDbRotatedDimension
1001
ACAD
1000
DSTYLE
1002
{
1070
    77
1070
     0
1070
   140
1040
5.0
1070
   172
1070
     0
1070
   271
1070
     0
1002
}
  0
DIMENSION
  5
D74
330
1F
100
AcDbEntity
  8
10100_Front_Dim
  6
Continuous
 62
     7
370
    13
100
AcDbDimension
  2
*D2
 10
215.0478886507722
 20
150.4804004033889
 30
0.0
 11
180.4991371514807
 21
150.4804004033889
 31
0.0
 70
   160
 71
     5
 42
72.0
  3
ISO-25
100
AcDbAlignedDimension
 13
143.0478886507721
 23
163.3826773350079
 33
0.0
 14
215.0478886507722
 24
165.0717873350079
 34
0.0
100
AcDbRotatedDimension
1001
ACAD
1000
DSTYLE
1002
{
1070
    77
1070
     0
1070
   140
1040
5.0
1070
   172
1070
     0
1070
   271
1070
     0
1002
}
  0
LINE
  5
D83
330
1F
100
AcDbEntity
  8
10000_Front
  6
Continuous
 62
     7
370
    13
100
AcDbLine
 10
192.2780886507721
 20
201.6937673350079
 30
0.0
 11
192.2780886507721
 21
201.1937673350079
 31
0.0
  0
LINE
  5
D84
330
1F
100
AcDbEntity
  8
10000_Front
  6
Continuous
 62
     7
370
    13
100
AcDbLine
 10
192.2780886507721
 20
201.6937673350079
 30
0.0
 11
191.7780886507721
 21
201.6937673350079
 31
0.0
  0
LINE
  5
D85
330
1F
100
AcDbEntity
  8
10000_Front
  6
Continuous
 62
     7
370
    13
100
AcDbLine
 10
191.7780886507721
 20
202.1937673350079
 30
0.0
 11
191.7780886507721
 21
201.6937673350079
 31
0.0
  0
LINE
  5
D86
330
1F
100
AcDbEntity
  8
10000_Front
  6
Continuous
 62
     7
370
    13
100
AcDbLine
 10
192.2780886507721
 20
202.1937673350079
 30
0.0
 11
191.7780886507721
 21
202.1937673350079
 31
0.0
  0
LINE
  5
D87
330
1F
100
AcDbEntity
  8
10000_Front
  6
Continuous
 62
     7
370
    13
100
AcDbLine
 10
192.2780886507721
 20
202.6937673350079
 30
0.0
 11
192.2780886507721
 21
202.1937673350079
 31
0.0
  0
LINE
  5
D89
330
1F
100
AcDbEntity
  8
10000_Front
  6
Continuous
 62
     7
370
    13
100
AcDbLine
 10
191.7780886507721
 20
203.1937673350079
 30
0.0
 11
191.7780886507721
 21
202.6937673350079
 31
0.0
  0
LINE
  5
D8A
330
1F
100
AcDbEntity
  8
10000_Front
  6
Continuous
 62
     7
370
    13
100
AcDbLine
 10
192.2780886507721
 20
203.1937673350079
 30
0.0
 11
191.7780886507721
 21
203.1937673350079
 31
0.0
  0
LINE
  5
D8B
330
1F
100
AcDbEntity
  8
10000_Front
  6
Continuous
 62
     7
370
    13
100
AcDbLine
 10
192.2780886507721
 20
203.6937673350079
 30
0.0
 11
192.2780886507721
 21
203.1937673350079
 31
0.0
  0
ARC
  5
D93
330
1F
100
AcDbEntity
  8
10000_Front
  6
Continuous
 62
     7
370
    13
100
AcDbCircle
 10
198.9954486507721
 20
176.1478273350079
 30
0.0
 40
1.0
100
AcDbArc
 50
270.0
 51
0.0
  0
ARC
  5
D94
330
1F
100
AcDbEntity
  8
10000_Front
  6
Continuous
 62
     7
370
    13
100
AcDbCircle
 10
175.9954486507721
 20
176.1478273350079
 30
0.0
 40
1.0
100
AcDbArc
 50
180.0
 51
270.0
  0
ARC
  5
D95
330
1F
100
AcDbEntity
  8
10000_Front
  6
Continuous
 62
     7
370
    13
100
AcDbCircle
 10
175.9954486507721
 20
214.1478273350079
 30
0.0
 40
1.0
100
AcDbArc
 50
90.0
 51
180.0
  0
ARC
  5
D96
330
1F
100
AcDbEntity
  8
10000_Front
  6
Continuous
 62
     7
370
    13
100
AcDbCircle
 10
198.9954486507721
 20
214.1478273350079
 30
0.0
 40
1.0
100
AcDbArc
 50
0.0
 51
90.0
  0
LINE
  5
D98
330
1F
100
AcDbEntity
  8
10000_Front
  6
Continuous
 62
     7
370
    13
100
AcDbLine
 10
190.519248650772
 20
194.1191673350079
 30
0.0
 11
192.9192486507721
 21
192.9191673350078
 31
0.0
  0
LINE
  5
D99
330
1F
100
AcDbEntity
  8
10000_Front
  6
Continuous
 62
     7
370
    13
100
AcDbLine
 10
190.519248650772
 20
194.1191673350079
 30
0.0
 11
191.1192486507721
 21
189.9191673350078
 31
0.0
  0
LINE
  5
D9A
330
1F
100
AcDbEntity
  8
10000_Front
  6
Continuous
 62
     7
370
    13
100
AcDbLine
 10
192.3192486507721
 20
189.9191673350078
 30
0.0
 11
192.9192486507721
 21
192.9191673350078
 31
0.0
  0
LINE
  5
D9B
330
1F
100
AcDbEntity
  8
10000_Front
  6
Continuous
 62
     7
370
    13
100
AcDbLine
 10
190.519248650772
 20
189.9191673350078
 30
0.0
 11
192.9192486507721
 21
189.9191673350078
 31
0.0
  0
LINE
  5
D9C
330
1F
100
AcDbEntity
  8
10000_Front
  6
Continuous
 62
     7
370
    13
100
AcDbLine
 10
190.519248650772
 20
187.5191673350079
 30
0.0
 11
190.519248650772
 21
189.9191673350078
 31
0.0
  0
LINE
  5
D9D
330
1F
100
AcDbEntity
  8
10000_Front
  6
Continuous
 62
     7
370
    13
100
AcDbLine
 10
192.9192486507721
 20
187.5191673350079
 30
0.0
 11
192.9192486507721
 21
189.9191673350078
 31
0.0
  0
LINE
  5
D9E
330
1F
100
AcDbEntity
  8
10000_Front
  6
Continuous
 62
     7
370
    13
100
AcDbLine
 10
190.519248650772
 20
187.5191673350079
 30
0.0
 11
192.9192486507721
 21
187.5191673350079
 31
0.0
  0
LINE
  5
D9F
330
1F
100
AcDbEntity
  8
10000_Front
  6
Continuous
 62
     7
370
    13
100
AcDbLine
 10
192.9192486507721
 20
194.9969273350079
 30
0.0
 11
192.9192486507721
 21
195.7469273350079
 31
0.0
  0
LINE
  5
DA0
330
1F
100
AcDbEntity
  8
10000_Front
  6
Continuous
 62
     7
370
    13
100
AcDbLine
 10
191.3481986507721
 20
195.7469273350079
 30
0.0
 11
192.9192486507721
 21
195.7469273350079
 31
0.0
  0
LINE
  5
DA1
330
1F
100
AcDbEntity
  8
10000_Front
  6
Continuous
 62
     7
370
    13
100
AcDbLine
 10
191.3481986507721
 20
195.7469273350079
 30
0.0
 11
191.3481986507721
 21
196.4969273350078
 31
0.0
  0
LINE
  5
DA2
330
1F
100
AcDbEntity
  8
10000_Front
  6
Continuous
 62
     7
370
    13
100
AcDbLine
 10
191.3481986507721
 20
196.4969273350078
 30
0.0
 11
192.9192486507721
 21
196.4969273350078
 31
0.0
  0
LINE
  5
DA3
330
1F
100
AcDbEntity
  8
10000_Front
  6
Continuous
 62
     7
370
    13
100
AcDbLine
 10
192.9192486507721
 20
196.4969273350078
 30
0.0
 11
192.9192486507721
 21
197.2469273350078
 31
0.0
  0
LINE
  5
DA4
330
1F
100
AcDbEntity
  8
10000_Front
  6
Continuous
 62
     7
370
    13
100
AcDbLine
 10
191.3481986507721
 20
197.2469273350078
 30
0.0
 11
192.9192486507721
 21
197.2469273350078
 31
0.0
  0
LINE
  5
DA5
330
1F
100
AcDbEntity
  8
10000_Front
  6
Continuous
 62
     7
370
    13
100
AcDbLine
 10
191.3481986507721
 20
197.2469273350078
 30
0.0
 11
191.3481986507721
 21
197.9969273350079
 31
0.0
  0
LINE
  5
DA6
330
1F
100
AcDbEntity
  8
10000_Front
  6
Continuous
 62
     7
370
    13
100
AcDbLine
 10
192.9192486507721
 20
197.9969273350079
 30
0.0
 11
192.9192486507721
 21
198.7469273350079
 31
0.0
  0
LINE
  5
DA7
330
1F
100
AcDbEntity
  8
10000_Front
  6
Continuous
 62
     7
370
    13
100
AcDbLine
 10
191.3481986507721
 20
197.9969273350079
 30
0.0
 11
192.9192486507721
 21
197.9969273350079
 31
0.0
  0
TEXT
  5
DAC
330
1F
100
AcDbEntity
  8
10000_Front
  6
Continuous
 62
     7
370
    13
100
AcDbText
 10
188.392318650772
 20
176.1411973350079
 30
0.0
 40
1.5
  1
DIN VDE 0660 T200 IEC EN 60947-5-1
 50
90.0
 41
0.65
100
AcDbText
  0
TEXT
  5
DAD
330
1F
100
AcDbEntity
  8
10000_Front
  6
Continuous
 62
     7
370
    13
100
AcDbText
 10
184.9756986507721
 20
175.9294073350079
 30
0.0
 40
3.6
  1
8WD4 420-0FA
 50
90.0
 41
0.6
100
AcDbText
  0
LINE
  5
DAF
330
1F
100
AcDbEntity
  8
10000_Front
  6
Continuous
 62
     7
370
    13
100
AcDbLine
 10
199.9954486507721
 20
214.1478273350079
 30
0.0
 11
199.9954486507721
 21
176.1478273350079
 31
0.0
  0
LINE
  5
DB0
330
1F
100
AcDbEntity
  8
10000_Front
  6
Continuous
 62
     7
370
    13
100
AcDbLine
 10
175.9954486507721
 20
175.1478273350079
 30
0.0
 11
198.9954486507721
 21
175.1478273350079
 31
0.0
  0
LINE
  5
DB1
330
1F
100
AcDbEntity
  8
10000_Front
  6
Continuous
 62
     7
370
    13
100
AcDbLine
 10
175.9954486507721
 20
215.1478273350079
 30
0.0
 11
198.9954486507721
 21
215.1478273350079
 31
0.0
  0
LINE
  5
DB2
330
1F
100
AcDbEntity
  8
10000_Front
  6
Continuous
 62
     7
370
    13
100
AcDbLine
 10
174.9954486507721
 20
214.1478273350079
 30
0.0
 11
174.9954486507721
 21
176.1478273350079
 31
0.0
  0
LINE
  5
DC3
330
1F
100
AcDbEntity
  8
10000_Front
  6
Continuous
 62
     7
370
    13
100
AcDbLine
 10
172.1193286507721
 20
166.3826773350079
 30
0.0
 11
205.0478886507721
 21
166.3826773350079
 31
0.0
  0
LINE
  5
DC4
330
1F
100
AcDbEntity
  8
10000_Front
  6
Continuous
 62
     7
370
    13
100
AcDbLine
 10
173.1768486507722
 20
162.5763473350079
 30
0.0
 11
172.1193286507721
 21
166.3826773350079
 31
0.0
  0
LINE
  5
DC6
330
1F
100
AcDbEntity
  8
10000_Front
  6
Continuous
 62
     7
370
    50
100
AcDbLine
 10
175.0478886507721
 20
162.1326773350079
 30
0.0
 11
174.5478886507721
 21
162.1326773350079
 31
0.0
  0
LINE
  5
DC8
330
1F
100
AcDbEntity
  8
10000_Front
  6
Continuous
 62
     7
370
    50
100
AcDbLine
 10
177.5478886507722
 20
162.1326773350079
 30
0.0
 11
177.0478886507721
 21
162.1326773350079
 31
0.0
  0
LINE
  5
DCA
330
1F
100
AcDbEntity
  8
10000_Front
  6
Continuous
 62
     7
370
    50
100
AcDbLine
 10
180.0478886507722
 20
162.1326773350079
 30
0.0
 11
179.5478786507721
 21
162.1326773350079
 31
0.0
  0
LINE
  5
DCC
330
1F
100
AcDbEntity
  8
10000_Front
  6
Continuous
 62
     7
370
    50
100
AcDbLine
 10
182.5478886507721
 20
162.1326773350079
 30
0.0
 11
182.047878650772
 21
162.1326773350079
 31
0.0
  0
LINE
  5
DCE
330
1F
100
AcDbEntity
  8
10000_Front
  6
Continuous
 62
     7
370
    50
100
AcDbLine
 10
185.0478886507722
 20
162.1326773350079
 30
0.0
 11
184.5478786507721
 21
162.1326773350079
 31
0.0
  0
LINE
  5
DD0
330
1F
100
AcDbEntity
  8
10000_Front
  6
Continuous
 62
     7
370
    50
100
AcDbLine
 10
187.5478886507721
 20
162.1326773350079
 30
0.0
 11
187.0478786507721
 21
162.1326773350079
 31
0.0
  0
LINE
  5
DD2
330
1F
100
AcDbEntity
  8
10000_Front
  6
Continuous
 62
     7
370
    50
100
AcDbLine
 10
190.0478886507722
 20
162.1326773350079
 30
0.0
 11
189.547878650772
 21
162.1326773350079
 31
0.0
  0
LINE
  5
DD4
330
1F
100
AcDbEntity
  8
10000_Front
  6
Continuous
 62
     7
370
    50
100
AcDbLine
 10
192.5478886507722
 20
162.1326773350079
 30
0.0
 11
192.0478786507721
 21
162.1326773350079
 31
0.0
  0
LINE
  5
DD6
330
1F
100
AcDbEntity
  8
10000_Front
  6
Continuous
 62
     7
370
    50
100
AcDbLine
 10
195.0478886507721
 20
162.1326773350079
 30
0.0
 11
194.547878650772
 21
162.1326773350079
 31
0.0
  0
LINE
  5
DD8
330
1F
100
AcDbEntity
  8
10000_Front
  6
Continuous
 62
     7
370
    50
100
AcDbLine
 10
197.5478886507722
 20
162.1326773350079
 30
0.0
 11
197.0478886507721
 21
162.1326773350079
 31
0.0
  0
ARC
  5
DD9
330
1F
100
AcDbEntity
  8
10000_Front
  6
Continuous
 62
     7
370
    50
100
AcDbCircle
 10
198.5478886507721
 20
161.3826773350079
 30
0.0
 40
1.24999999999999
100
AcDbArc
 50
36.86989100000018
 51
143.1301100000001
  0
LINE
  5
DDA
330
1F
100
AcDbEntity
  8
10000_Front
  6
Continuous
 62
     7
370
    50
100
AcDbLine
 10
200.0478886507722
 20
162.1326773350079
 30
0.0
 11
199.5478886507721
 21
162.1326773350079
 31
0.0
  0
LINE
  5
DDC
330
1F
100
AcDbEntity
  8
10000_Front
  6
Continuous
 62
     7
370
    13
100
AcDbLine
 10
203.0478886507722
 20
161.3826773350079
 30
0.0
 11
202.2978886507722
 21
161.3826773350079
 31
0.0
  0
LINE
  5
DDD
330
1F
100
AcDbEntity
  8
10000_Front
  6
Continuous
 62
     7
370
    50
100
AcDbLine
 10
203.0478886507722
 20
160.3826773350079
 30
0.0
 11
203.0478886507722
 21
161.3826773350079
 31
0.0
  0
LINE
  5
DDE
330
1F
100
AcDbEntity
  8
10000_Front
  6
Continuous
 62
     7
370
    13
100
AcDbLine
 10
215.0478886507722
 20
160.3826773350079
 30
0.0
 11
203.0478886507722
 21
160.3826773350079
 31
0.0
  0
LINE
  5
DE0
330
1F
100
AcDbEntity
  8
10000_Front
  6
Continuous
 62
     7
370
    13
100
AcDbLine
 10
205.0478886507721
 20
163.3826773350079
 30
0.0
 11
215.0478886507722
 21
163.3826773350079
 31
0.0
  0
LINE
  5
DE1
330
1F
100
AcDbEntity
  8
10000_Front
  6
Continuous
 62
     7
370
    13
100
AcDbLine
 10
205.0478886507721
 20
166.3826773350079
 30
0.0
 11
205.0478886507721
 21
163.3826773350079
 31
0.0
  0
LINE
  5
DE6
330
1F
100
AcDbEntity
  8
10000_Front
  6
Continuous
 62
     7
370
    13
100
AcDbLine
 10
202.2978886507722
 20
229.3826873350079
 30
0.0
 11
203.0478886507722
 21
229.3826873350079
 31
0.0
  0
LINE
  5
DE8
330
1F
100
AcDbEntity
  8
10000_Front
  6
Continuous
 62
     7
370
    50
100
AcDbLine
 10
199.5478886507721
 20
228.6326873350079
 30
0.0
 11
200.0478786507721
 21
228.6326873350079
 31
0.0
  0
LINE
  5
DEA
330
1F
100
AcDbEntity
  8
10000_Front
  6
Continuous
 62
     7
370
    50
100
AcDbLine
 10
197.0478886507721
 20
228.6326873350079
 30
0.0
 11
197.5478786507721
 21
228.6326873350079
 31
0.0
  0
LINE
  5
DEC
330
1F
100
AcDbEntity
  8
10000_Front
  6
Continuous
 62
     7
370
    50
100
AcDbLine
 10
194.5478886507721
 20
228.6326873350079
 30
0.0
 11
195.0478786507721
 21
228.6326873350079
 31
0.0
  0
LINE
  5
DEE
330
1F
100
AcDbEntity
  8
10000_Front
  6
Continuous
 62
     7
370
    50
100
AcDbLine
 10
192.0478886507721
 20
228.6326873350079
 30
0.0
 11
192.5478786507721
 21
228.6326873350079
 31
0.0
  0
ARC
  5
DEF
330
1F
100
AcDbEntity
  8
10000_Front
  6
Continuous
 62
     7
370
    13
100
AcDbCircle
 10
191.0478886507721
 20
229.3826773350079
 30
0.0
 40
1.2500016
100
AcDbArc
 50
216.8696499999999
 51
323.13035
  0
LINE
  5
DF0
330
1F
100
AcDbEntity
  8
10000_Front
  6
Continuous
 62
     7
370
    50
100
AcDbLine
 10
189.5478886507721
 20
228.6326873350079
 30
0.0
 11
190.0478786507721
 21
228.6326873350079
 31
0.0
  0
LINE
  5
DF2
330
1F
100
AcDbEntity
  8
10000_Front
  6
Continuous
 62
     7
370
    50
100
AcDbLine
 10
187.0478886507721
 20
228.6326873350079
 30
0.0
 11
187.547878650772
 21
228.6326873350079
 31
0.0
  0
LINE
  5
DF4
330
1F
100
AcDbEntity
  8
10000_Front
  6
Continuous
 62
     7
370
    50
100
AcDbLine
 10
184.5478886507721
 20
228.6326873350079
 30
0.0
 11
185.0478786507721
 21
228.6326873350079
 31
0.0
  0
LINE
  5
DF6
330
1F
100
AcDbEntity
  8
10000_Front
  6
Continuous
 62
     7
370
    50
100
AcDbLine
 10
182.0478886507721
 20
228.6326873350079
 30
0.0
 11
182.5478786507721
 21
228.6326873350079
 31
0.0
  0
LINE
  5
DF8
330
1F
100
AcDbEntity
  8
10000_Front
  6
Continuous
 62
     7
370
    50
100
AcDbLine
 10
179.5478886507721
 20
228.6326873350079
 30
0.0
 11
180.0478786507721
 21
228.6326873350079
 31
0.0
  0
LINE
  5
DFA
330
1F
100
AcDbEntity
  8
10000_Front
  6
Continuous
 62
     7
370
    50
100
AcDbLine
 10
177.0478886507721
 20
228.6326873350079
 30
0.0
 11
177.5478886507722
 21
228.6326873350079
 31
0.0
  0
LINE
  5
DFC
330
1F
100
AcDbEntity
  8
10000_Front
  6
Continuous
 62
     7
370
    13
100
AcDbLine
 10
173.3324586507722
 20
224.3826873350079
 30
0.0
 11
175.0478886507721
 21
228.6326873350079
 31
0.0
  0
LINE
  5
DFD
330
1F
100
AcDbEntity
  8
10000_Front
  6
Continuous
 62
     7
370
    13
100
AcDbLine
 10
205.0478886507721
 20
224.3826873350079
 30
0.0
 11
173.3324586507722
 21
224.3826873350079
 31
0.0
  0
LINE
  5
DFE
330
1F
100
AcDbEntity
  8
10000_Front
  6
Continuous
 62
     7
370
    13
100
AcDbLine
 10
205.0478886507721
 20
227.3826873350079
 30
0.0
 11
205.0478886507721
 21
224.3826873350079
 31
0.0
  0
LINE
  5
DFF
330
1F
100
AcDbEntity
  8
10000_Front
  6
Continuous
 62
     7
370
    13
100
AcDbLine
 10
215.0478886507722
 20
227.3826873350079
 30
0.0
 11
205.0478886507721
 21
227.3826873350079
 31
0.0
  0
LINE
  5
E01
330
1F
100
AcDbEntity
  8
10000_Front
  6
Continuous
 62
     7
370
    13
100
AcDbLine
 10
203.0478886507722
 20
230.3826873350079
 30
0.0
 11
215.0478886507722
 21
230.3826873350079
 31
0.0
  0
LINE
  5
E04
330
1F
100
AcDbEntity
  8
10000_Front
  6
Continuous
 62
     7
370
    13
100
AcDbLine
 10
205.0478886507721
 20
166.3826773350079
 30
0.0
 11
172.1193286507721
 21
166.3826773350079
 31
0.0
  0
LINE
  5
E05
330
1F
100
AcDbEntity
  8
10000_Front
  6
Continuous
 62
     7
370
    13
100
AcDbLine
 10
205.0478886507721
 20
224.3826873350079
 30
0.0
 11
173.3324586507722
 21
224.3826873350079
 31
0.0
  0
LINE
  5
E06
330
1F
100
AcDbEntity
  8
10000_Front
  6
Continuous
 62
     7
370
    13
100
AcDbLine
 10
174.5478886507721
 20
228.6326873350079
 30
0.0
 11
174.5478886507721
 21
227.3939273350079
 31
0.0
  0
LINE
  5
E07
330
1F
100
AcDbEntity
  8
10000_Front
  6
Continuous
 62
     7
370
    13
100
AcDbLine
 10
172.5478886507722
 20
228.6326873350079
 30
0.0
 11
172.5478886507722
 21
222.4388773350079
 31
0.0
  0
LINE
  5
E08
330
1F
100
AcDbEntity
  8
10000_Front
  6
Continuous
 62
     7
370
    13
100
AcDbLine
 10
172.0478886507721
 20
228.6326873350079
 30
0.0
 11
172.0478886507721
 21
221.2001173350079
 31
0.0
  0
LINE
  5
E09
330
1F
100
AcDbEntity
  8
10000_Front
  6
Continuous
 62
     7
370
    13
100
AcDbLine
 10
170.0478886507721
 20
212.7292173350079
 30
0.0
 11
170.0478886507721
 21
179.9223673350079
 31
0.0
  0
LINE
  5
E0A
330
1F
100
AcDbEntity
  8
10000_Front
  6
Continuous
 62
     7
370
    13
100
AcDbLine
 10
170.0478886507721
 20
216.2450673350079
 30
0.0
 11
170.0478886507721
 21
228.6326873350079
 31
0.0
  0
LINE
  5
E0B
330
1F
100
AcDbEntity
  8
10000_Front
  6
Continuous
 62
     7
370
    13
100
AcDbLine
 10
169.5478886507721
 20
175.6380773350079
 30
0.0
 11
169.5478886507721
 21
228.6326873350079
 31
0.0
  0
LINE
  5
E0C
330
1F
100
AcDbEntity
  8
10000_Front
  6
Continuous
 62
     7
370
    13
100
AcDbLine
 10
169.5478886507721
 20
175.6380773350079
 30
0.0
 11
169.5478886507721
 21
162.1326773350079
 31
0.0
  0
LINE
  5
E0D
330
1F
100
AcDbEntity
  8
10000_Front
  6
Continuous
 62
     7
370
    13
100
AcDbLine
 10
170.0478886507721
 20
173.8384273350078
 30
0.0
 11
170.0478886507721
 21
162.1326773350079
 31
0.0
  0
LINE
  5
E0E
330
1F
100
AcDbEntity
  8
10000_Front
  6
Continuous
 62
     7
370
    13
100
AcDbLine
 10
172.0478886507721
 20
166.6398373350079
 30
0.0
 11
172.0478886507721
 21
162.1326773350079
 31
0.0
  0
LINE
  5
E0F
330
1F
100
AcDbEntity
  8
10000_Front
  6
Continuous
 62
     7
370
    13
100
AcDbLine
 10
172.5478886507722
 20
164.8401873350078
 30
0.0
 11
172.5478886507722
 21
162.1326773350079
 31
0.0
  0
LINE
  5
E10
330
1F
100
AcDbEntity
  8
10000_Front
  6
Continuous
 62
     7
370
    13
100
AcDbLine
 10
169.5478886507721
 20
175.6380773350079
 30
0.0
 11
173.1768486507722
 21
162.5763473350079
 31
0.0
  0
LINE
  5
E11
330
1F
100
AcDbEntity
  8
10000_Front
  6
Continuous
 62
     7
370
    13
100
AcDbLine
 10
172.5478886507722
 20
201.3438073350079
 30
0.0
 11
169.5478886507721
 21
175.6380773350079
 31
0.0
  0
LINE
  5
E12
330
1F
100
AcDbEntity
  8
10000_Front
  6
Continuous
 62
     7
370
    13
100
AcDbLine
 10
169.5478886507721
 20
215.0063073350079
 30
0.0
 11
172.5478886507722
 21
201.3438073350079
 31
0.0
  0
LINE
  5
E13
330
1F
100
AcDbEntity
  8
10000_Front
  6
Continuous
 62
     7
370
    13
100
AcDbLine
 10
175.0478886507721
 20
228.6326873350079
 30
0.0
 11
169.5478886507721
 21
215.0063073350079
 31
0.0
  0
LINE
  5
E59
330
1F
100
AcDbEntity
  8
10000_Front
  6
Continuous
 62
     7
370
    13
100
AcDbLine
 10
159.0478886507721
 20
227.3826873350079
 30
0.0
 11
156.6478886507721
 21
227.3826773350079
 31
0.0
  0
LINE
  5
E5A
330
1F
100
AcDbEntity
  8
10000_Front
  6
Continuous
 62
     7
370
    50
100
AcDbLine
 10
159.0478886507721
 20
161.3826773350079
 30
0.0
 11
159.7978886507721
 21
161.3826773350079
 31
0.0
  0
LINE
  5
E5B
330
1F
100
AcDbEntity
  8
10000_Front
  6
Continuous
 62
     7
370
    50
100
AcDbLine
 10
159.7978886507721
 20
229.3826873350079
 30
0.0
 11
159.0478886507721
 21
229.3826873350079
 31
0.0
  0
LINE
  5
E5C
330
1F
100
AcDbEntity
  8
10000_Front
  6
Continuous
 62
     7
370
    13
100
AcDbLine
 10
165.5478886507721
 20
177.3116373350078
 30
0.0
 11
165.5478886507721
 21
179.4766973350079
 31
0.0
  0
LINE
  5
E5D
330
1F
100
AcDbEntity
  8
10000_Front
  6
Continuous
 62
     7
370
    13
100
AcDbLine
 10
159.7978886507721
 20
177.3116373350078
 30
0.0
 11
165.5478886507721
 21
177.3116373350078
 31
0.0
  0
LINE
  5
E5E
330
1F
100
AcDbEntity
  8
10000_Front
  6
Continuous
 62
     7
370
    13
100
AcDbLine
 10
165.5478886507721
 20
180.0499273350079
 30
0.0
 11
165.5478886507721
 21
179.4766973350079
 31
0.0
  0
LINE
  5
E5F
330
1F
100
AcDbEntity
  8
10000_Front
  6
Continuous
 62
     7
370
    13
100
AcDbLine
 10
165.5478886507721
 20
179.4766973350079
 30
0.0
 11
159.7978886507721
 21
179.4766973350079
 31
0.0
  0
ARC
  5
EB1
330
1F
100
AcDbEntity
  8
10000_Front
  6
Continuous
 62
     7
370
    50
100
AcDbCircle
 10
161.0478886507721
 20
161.3826773350079
 30
0.0
 40
1.2500013
100
AcDbArc
 50
36.869847
 51
180.0
  0
ARC
  5
EB2
330
1F
100
AcDbEntity
  8
10000_Front
  6
Continuous
 62
     7
370
    50
100
AcDbCircle
 10
161.0478886507721
 20
229.3826773350079
 30
0.0
 40
1.2499978
100
AcDbArc
 50
179.99985
 51
323.13027
  0
LINE
  5
EB5
330
1F
100
AcDbEntity
  8
10000_Front
  6
Continuous
 62
     7
370
    13
100
AcDbLine
 10
159.7978873507721
 20
161.3826773350079
 30
0.0
 11
159.7978886507721
 21
229.3826873350079
 31
0.0
  0
LINE
  5
F1B
330
1F
100
AcDbEntity
  8
10000_Front
  6
Continuous
 62
     7
370
    13
100
AcDbLine
 10
159.7978886507721
 20
177.6869073350079
 30
0.0
 11
165.5478886507721
 21
177.6869073350079
 31
0.0
  0
LINE
  5
F1C
330
1F
100
AcDbEntity
  8
10000_Front
  6
Continuous
 62
     7
370
    50
100
AcDbLine
 10
162.0478886507721
 20
162.1326773350079
 30
0.0
 11
162.5478886507721
 21
162.1326773350079
 31
0.0
  0
LINE
  5
F1D
330
1F
100
AcDbEntity
  8
10000_Front
  6
Continuous
 62
     7
370
    50
100
AcDbLine
 10
162.5478886507721
 20
228.6326873350079
 30
0.0
 11
162.0478886507721
 21
228.6326873350079
 31
0.0
  0
LINE
  5
F1E
330
1F
100
AcDbEntity
  8
10000_Front
  6
Continuous
 62
     7
370
    13
100
AcDbLine
 10
162.0478886507721
 20
228.6326873350079
 30
0.0
 11
162.0478886507721
 21
179.8519773350079
 31
0.0
  0
LINE
  5
F20
330
1F
100
AcDbEntity
  8
10000_Front
  6
Continuous
 62
     7
370
    13
100
AcDbLine
 10
162.0478886507721
 20
177.3116373350078
 30
0.0
 11
162.0478886507721
 21
162.1326773350079
 31
0.0
  0
LINE
  5
F22
330
1F
100
AcDbEntity
  8
10000_Front
  6
Continuous
 62
     7
370
    13
100
AcDbLine
 10
162.5478886507721
 20
179.8519773350079
 30
0.0
 11
162.0478886507721
 21
179.8519773350079
 31
0.0
  0
ARC
  5
F74
330
1F
100
AcDbEntity
  8
10000_Front
  6
Continuous
 62
     7
370
    50
100
AcDbCircle
 10
163.5478886507721
 20
161.3826773350079
 30
0.0
 40
1.2500008
100
AcDbArc
 50
36.869863
 51
143.13006
  0
ARC
  5
F75
330
1F
100
AcDbEntity
  8
10000_Front
  6
Continuous
 62
     7
370
    50
100
AcDbCircle
 10
163.5478886507721
 20
229.3826773350079
 30
0.0
 40
1.249996699999998
100
AcDbArc
 50
216.8698200000001
 51
323.13026
  0
LINE
  5
F77
330
1F
100
AcDbEntity
  8
10000_Front
  6
Continuous
 62
     7
370
    13
100
AcDbLine
 10
162.5478886507721
 20
162.1326773350079
 30
0.0
 11
162.5478886507721
 21
177.3116373350078
 31
0.0
  0
LINE
  5
F79
330
1F
100
AcDbEntity
  8
10000_Front
  6
Continuous
 62
     7
370
    13
100
AcDbLine
 10
162.5478886507721
 20
179.8519773350079
 30
0.0
 11
162.5478886507721
 21
228.6326873350079
 31
0.0
  0
LINE
  5
FCB
330
1F
100
AcDbEntity
  8
10000_Front
  6
Continuous
 62
     7
370
    13
100
AcDbLine
 10
164.5478886507721
 20
177.6869073350079
 30
0.0
 11
165.0478886507722
 21
177.6869073350079
 31
0.0
  0
LINE
  5
FCC
330
1F
100
AcDbEntity
  8
10000_Front
  6
Continuous
 62
     7
370
    50
100
AcDbLine
 10
164.5478886507721
 20
162.1326773350079
 30
0.0
 11
165.0478886507722
 21
162.1326773350079
 31
0.0
  0
LINE
  5
FCD
330
1F
100
AcDbEntity
  8
10000_Front
  6
Continuous
 62
     7
370
    50
100
AcDbLine
 10
165.0478886507722
 20
228.6326873350079
 30
0.0
 11
164.5478886507721
 21
228.6326873350079
 31
0.0
  0
LINE
  5
FCE
330
1F
100
AcDbEntity
  8
10000_Front
  6
Continuous
 62
     7
370
    13
100
AcDbLine
 10
164.5478886507721
 20
228.6326873350079
 30
0.0
 11
164.5478886507721
 21
179.8519773350079
 31
0.0
  0
LINE
  5
FD0
330
1F
100
AcDbEntity
  8
10000_Front
  6
Continuous
 62
     7
370
    13
100
AcDbLine
 10
164.5478886507721
 20
177.3116373350078
 30
0.0
 11
164.5478886507721
 21
162.1326773350079
 31
0.0
  0
LINE
  5
FD2
330
1F
100
AcDbEntity
  8
10000_Front
  6
Continuous
 62
     7
370
    13
100
AcDbLine
 10
165.0478886507722
 20
179.8519773350079
 30
0.0
 11
164.5478886507721
 21
179.8519773350079
 31
0.0
  0
ARC
  5
FFC
330
1F
100
AcDbEntity
  8
10000_Front
  6
Continuous
 62
     7
370
    50
100
AcDbCircle
 10
166.0478886507721
 20
161.3826773350079
 30
0.0
 40
1.250000399999998
100
AcDbArc
 50
36.869878
 51
143.1300799999999
  0
ARC
  5
FFD
330
1F
100
AcDbEntity
  8
10000_Front
  6
Continuous
 62
     7
370
    50
100
AcDbCircle
 10
166.0478886507721
 20
229.3826773350079
 30
0.0
 40
1.249997199999999
100
AcDbArc
 50
216.8698
 51
323.13024
  0
LINE
  5
FFF
330
1F
100
AcDbEntity
  8
10000_Front
  6
Continuous
 62
     7
370
    13
100
AcDbLine
 10
165.0478886507722
 20
162.1326773350079
 30
0.0
 11
165.0478886507722
 21
177.3116373350078
 31
0.0
  0
LINE
  5
1001
330
1F
100
AcDbEntity
  8
10000_Front
  6
Continuous
 62
     7
370
    13
100
AcDbLine
 10
165.0478886507722
 20
179.8519773350079
 30
0.0
 11
165.0478886507722
 21
228.6326873350079
 31
0.0
  0
LINE
  5
102B
330
1F
100
AcDbEntity
  8
10000_Front
  6
Continuous
 62
     7
370
    50
100
AcDbLine
 10
203.0478786507721
 20
229.3826873350079
 30
0.0
 11
202.2978786507721
 21
229.3826873350079
 31
0.0
  0
LINE
  5
102C
330
1F
100
AcDbEntity
  8
10000_Front
  6
Continuous
 62
     7
370
    50
100
AcDbLine
 10
202.2978786507721
 20
161.3826773350079
 30
0.0
 11
203.0478786507721
 21
161.3826773350079
 31
0.0
  0
ARC
  5
102D
330
1F
100
AcDbEntity
  8
10000_Front
  6
Continuous
 62
     7
370
    50
100
AcDbCircle
 10
201.0478886507722
 20
229.3826773350079
 30
0.0
 40
1.25
100
AcDbArc
 50
216.8699
 51
0.0
  0
ARC
  5
1030
330
1F
100
AcDbEntity
  8
10000_Front
  6
Continuous
 62
     7
370
    50
100
AcDbCircle
 10
201.0478886507721
 20
161.3826773350079
 30
0.0
 40
1.250000000000027
100
AcDbArc
 50
359.9999999999987
 51
143.1301000000004
  0
LINE
  5
1031
330
1F
100
AcDbEntity
  8
10000_Front
  6
Continuous
 62
     7
370
    50
100
AcDbLine
 10
167.5478886507721
 20
228.6326873350079
 30
0.0
 11
167.0478886507721
 21
228.6326873350079
 31
0.0
  0
LINE
  5
1032
330
1F
100
AcDbEntity
  8
10000_Front
  6
Continuous
 62
     7
370
    13
100
AcDbLine
 10
167.0478886507721
 20
228.6326873350079
 30
0.0
 11
167.0478886507721
 21
178.7576773350079
 31
0.0
  0
LINE
  5
1033
330
1F
100
AcDbEntity
  8
10000_Front
  6
Continuous
 62
     7
370
    13
100
AcDbLine
 10
167.0478886507721
 20
178.7576773350079
 30
0.0
 11
167.0478886507721
 21
162.1326773350079
 31
0.0
  0
LINE
  5
1034
330
1F
100
AcDbEntity
  8
10000_Front
  6
Continuous
 62
     7
370
    50
100
AcDbLine
 10
167.0478886507721
 20
162.1326773350079
 30
0.0
 11
167.5478886507721
 21
162.1326773350079
 31
0.0
  0
ARC
  5
1035
330
1F
100
AcDbEntity
  8
10000_Front
  6
Continuous
 62
     7
370
    50
100
AcDbCircle
 10
168.5478886507721
 20
229.3826773350079
 30
0.0
 40
1.2499976
100
AcDbArc
 50
216.86979
 51
323.13023
  0
LINE
  5
1036
330
1F
100
AcDbEntity
  8
10000_Front
  6
Continuous
 62
     7
370
    13
100
AcDbLine
 10
167.5478886507721
 20
162.1326773350079
 30
0.0
 11
167.5478886507721
 21
178.7576773350079
 31
0.0
  0
LINE
  5
1037
330
1F
100
AcDbEntity
  8
10000_Front
  6
Continuous
 62
     7
370
    13
100
AcDbLine
 10
167.5478886507721
 20
178.7576773350079
 30
0.0
 11
167.5478886507721
 21
228.6326873350079
 31
0.0
  0
ARC
  5
1038
330
1F
100
AcDbEntity
  8
10000_Front
  6
Continuous
 62
     7
370
    50
100
AcDbCircle
 10
168.5478886507721
 20
161.3826773350079
 30
0.0
 40
1.249999899999999
100
AcDbArc
 50
36.86989300000003
 51
143.1301
  0
LINE
  5
1039
330
1F
100
AcDbEntity
  8
10000_Front
  6
Continuous
 62
     7
370
    50
100
AcDbLine
 10
170.0478886507721
 20
228.6326873350079
 30
0.0
 11
169.5478886507721
 21
228.6326873350079
 31
0.0
  0
LINE
  5
103A
330
1F
100
AcDbEntity
  8
10000_Front
  6
Continuous
 62
     7
370
    13
100
AcDbLine
 10
169.5478886507721
 20
228.6326873350079
 30
0.0
 11
169.5478886507721
 21
178.7576773350079
 31
0.0
  0
LINE
  5
103B
330
1F
100
AcDbEntity
  8
10000_Front
  6
Continuous
 62
     7
370
    13
100
AcDbLine
 10
169.5478886507721
 20
178.7576773350079
 30
0.0
 11
169.5478886507721
 21
162.1326773350079
 31
0.0
  0
LINE
  5
103C
330
1F
100
AcDbEntity
  8
10000_Front
  6
Continuous
 62
     7
370
    50
100
AcDbLine
 10
169.5478886507721
 20
162.1326773350079
 30
0.0
 11
170.0478886507721
 21
162.1326773350079
 31
0.0
  0
ARC
  5
103D
330
1F
100
AcDbEntity
  8
10000_Front
  6
Continuous
 62
     7
370
    50
100
AcDbCircle
 10
171.0478886507721
 20
229.3826773350079
 30
0.0
 40
1.249997999999999
100
AcDbArc
 50
216.86977
 51
323.1302100000001
  0
ARC
  5
1040
330
1F
100
AcDbEntity
  8
10000_Front
  6
Continuous
 62
     7
370
    50
100
AcDbCircle
 10
171.0478886507721
 20
161.3826773350079
 30
0.0
 40
1.2499995
100
AcDbArc
 50
36.86990800000001
 51
143.1301
  0
LINE
  5
1041
330
1F
100
AcDbEntity
  8
10000_Front
  6
Continuous
 62
     7
370
    50
100
AcDbLine
 10
172.5478886507722
 20
228.6326873350079
 30
0.0
 11
172.0478886507721
 21
228.6326873350079
 31
0.0
  0
LINE
  5
1044
330
1F
100
AcDbEntity
  8
10000_Front
  6
Continuous
 62
     7
370
    50
100
AcDbLine
 10
172.0478886507721
 20
162.1326773350079
 30
0.0
 11
172.5478886507722
 21
162.1326773350079
 31
0.0
  0
ARC
  5
1045
330
1F
100
AcDbEntity
  8
10000_Front
  6
Continuous
 62
     7
370
    50
100
AcDbCircle
 10
173.5478886507721
 20
229.3826773350079
 30
0.0
 40
1.2499985
100
AcDbArc
 50
216.86975
 51
323.1302
  0
ARC
  5
1048
330
1F
100
AcDbEntity
  8
10000_Front
  6
Continuous
 62
     7
370
    50
100
AcDbCircle
 10
173.5478886507721
 20
161.3826773350079
 30
0.0
 40
1.2499991
100
AcDbArc
 50
36.86992300000001
 51
143.1301
  0
LINE
  5
1049
330
1F
100
AcDbEntity
  8
10000_Front
  6
Continuous
 62
     7
370
    50
100
AcDbLine
 10
175.0478886507721
 20
228.6326873350079
 30
0.0
 11
174.5478886507721
 21
228.6326873350079
 31
0.0
  0
LINE
  5
104C
330
1F
100
AcDbEntity
  8
10000_Front
  6
Continuous
 62
     7
370
    50
100
AcDbLine
 10
174.5478886507721
 20
162.1326773350079
 30
0.0
 11
175.0478886507721
 21
162.1326773350079
 31
0.0
  0
ARC
  5
104D
330
1F
100
AcDbEntity
  8
10000_Front
  6
Continuous
 62
     7
370
    50
100
AcDbCircle
 10
176.0478886507721
 20
229.3826773350079
 30
0.0
 40
1.2499989
100
AcDbArc
 50
216.86974
 51
323.13018
  0
ARC
  5
1050
330
1F
100
AcDbEntity
  8
10000_Front
  6
Continuous
 62
     7
370
    50
100
AcDbCircle
 10
176.0478886507721
 20
161.3826773350079
 30
0.0
 40
1.2499986
100
AcDbArc
 50
36.86993799999998
 51
143.1301
  0
LINE
  5
1051
330
1F
100
AcDbEntity
  8
10000_Front
  6
Continuous
 62
     7
370
    50
100
AcDbLine
 10
177.5478886507722
 20
228.6326873350079
 30
0.0
 11
177.0478886507721
 21
228.6326873350079
 31
0.0
  0
LINE
  5
1054
330
1F
100
AcDbEntity
  8
10000_Front
  6
Continuous
 62
     7
370
    50
100
AcDbLine
 10
177.0478886507721
 20
162.1326773350079
 30
0.0
 11
177.5478886507722
 21
162.1326773350079
 31
0.0
  0
ARC
  5
1055
330
1F
100
AcDbEntity
  8
10000_Front
  6
Continuous
 62
     7
370
    50
100
AcDbCircle
 10
178.5478886507721
 20
229.3826773350079
 30
0.0
 40
1.249999399999998
100
AcDbArc
 50
216.86972
 51
323.13017
  0
ARC
  5
1058
330
1F
100
AcDbEntity
  8
10000_Front
  6
Continuous
 62
     7
370
    50
100
AcDbCircle
 10
178.5478886507721
 20
161.3826773350079
 30
0.0
 40
1.2499982
100
AcDbArc
 50
36.86995400000002
 51
143.1301
  0
LINE
  5
1059
330
1F
100
AcDbEntity
  8
10000_Front
  6
Continuous
 62
     7
370
    50
100
AcDbLine
 10
180.0478786507721
 20
228.6326873350079
 30
0.0
 11
179.5478786507721
 21
228.6326873350079
 31
0.0
  0
LINE
  5
105C
330
1F
100
AcDbEntity
  8
10000_Front
  6
Continuous
 62
     7
370
    50
100
AcDbLine
 10
179.5478786507721
 20
162.1326773350079
 30
0.0
 11
180.0478886507722
 21
162.1326773350079
 31
0.0
  0
ARC
  5
105D
330
1F
100
AcDbEntity
  8
10000_Front
  6
Continuous
 62
     7
370
    50
100
AcDbCircle
 10
181.0478886507721
 20
229.3826773350079
 30
0.0
 40
1.249999799999998
100
AcDbArc
 50
216.86971
 51
323.13015
  0
ARC
  5
1060
330
1F
100
AcDbEntity
  8
10000_Front
  6
Continuous
 62
     7
370
    50
100
AcDbCircle
 10
181.0478886507721
 20
161.3826773350079
 30
0.0
 40
1.249997699999998
100
AcDbArc
 50
36.86996900000001
 51
143.1301
  0
LINE
  5
1061
330
1F
100
AcDbEntity
  8
10000_Front
  6
Continuous
 62
     7
370
    50
100
AcDbLine
 10
182.5478786507721
 20
228.6326873350079
 30
0.0
 11
182.047878650772
 21
228.6326873350079
 31
0.0
  0
LINE
  5
1064
330
1F
100
AcDbEntity
  8
10000_Front
  6
Continuous
 62
     7
370
    50
100
AcDbLine
 10
182.047878650772
 20
162.1326773350079
 30
0.0
 11
182.5478886507721
 21
162.1326773350079
 31
0.0
  0
ARC
  5
1065
330
1F
100
AcDbEntity
  8
10000_Front
  6
Continuous
 62
     7
370
    50
100
AcDbCircle
 10
183.5478886507721
 20
229.3826773350079
 30
0.0
 40
1.2500002
100
AcDbArc
 50
216.86969
 51
323.13014
  0
ARC
  5
1068
330
1F
100
AcDbEntity
  8
10000_Front
  6
Continuous
 62
     7
370
    50
100
AcDbCircle
 10
183.5478886507721
 20
161.3826773350079
 30
0.0
 40
1.249997299999998
100
AcDbArc
 50
36.86998399999999
 51
143.1301
  0
LINE
  5
1069
330
1F
100
AcDbEntity
  8
10000_Front
  6
Continuous
 62
     7
370
    50
100
AcDbLine
 10
185.0478786507721
 20
228.6326873350079
 30
0.0
 11
184.5478786507721
 21
228.6326873350079
 31
0.0
  0
LINE
  5
106C
330
1F
100
AcDbEntity
  8
10000_Front
  6
Continuous
 62
     7
370
    50
100
AcDbLine
 10
184.5478786507721
 20
162.1326773350079
 30
0.0
 11
185.0478886507722
 21
162.1326773350079
 31
0.0
  0
ARC
  5
106D
330
1F
100
AcDbEntity
  8
10000_Front
  6
Continuous
 62
     7
370
    50
100
AcDbCircle
 10
186.0478886507721
 20
229.3826773350079
 30
0.0
 40
1.250000699999998
100
AcDbArc
 50
216.86968
 51
323.13012
  0
ARC
  5
1070
330
1F
100
AcDbEntity
  8
10000_Front
  6
Continuous
 62
     7
370
    50
100
AcDbCircle
 10
186.0478886507721
 20
161.3826773350079
 30
0.0
 40
1.2499968
100
AcDbArc
 50
36.86999900000002
 51
143.1301
  0
LINE
  5
1071
330
1F
100
AcDbEntity
  8
10000_Front
  6
Continuous
 62
     7
370
    50
100
AcDbLine
 10
187.547878650772
 20
228.6326873350079
 30
0.0
 11
187.0478786507721
 21
228.6326873350079
 31
0.0
  0
LINE
  5
1074
330
1F
100
AcDbEntity
  8
10000_Front
  6
Continuous
 62
     7
370
    50
100
AcDbLine
 10
187.0478786507721
 20
162.1326773350079
 30
0.0
 11
187.5478886507721
 21
162.1326773350079
 31
0.0
  0
ARC
  5
1075
330
1F
100
AcDbEntity
  8
10000_Front
  6
Continuous
 62
     7
370
    50
100
AcDbCircle
 10
188.5478886507721
 20
229.3826773350079
 30
0.0
 40
1.250001099999998
100
AcDbArc
 50
216.86966
 51
323.13011
  0
ARC
  5
1078
330
1F
100
AcDbEntity
  8
10000_Front
  6
Continuous
 62
     7
370
    50
100
AcDbCircle
 10
188.5478886507721
 20
161.3826773350079
 30
0.0
 40
1.249996399999999
100
AcDbArc
 50
36.87001400000003
 51
143.1301
  0
LINE
  5
1079
330
1F
100
AcDbEntity
  8
10000_Front
  6
Continuous
 62
     7
370
    50
100
AcDbLine
 10
190.0478786507721
 20
228.6326873350079
 30
0.0
 11
189.547878650772
 21
228.6326873350079
 31
0.0
  0
LINE
  5
107C
330
1F
100
AcDbEntity
  8
10000_Front
  6
Continuous
 62
     7
370
    50
100
AcDbLine
 10
189.547878650772
 20
162.1326773350079
 30
0.0
 11
190.0478886507722
 21
162.1326773350079
 31
0.0
  0
ARC
  5
107D
330
1F
100
AcDbEntity
  8
10000_Front
  6
Continuous
 62
     7
370
    13
100
AcDbCircle
 10
191.0478886507721
 20
229.3826773350079
 30
0.0
 40
1.2500016
100
AcDbArc
 50
216.8696499999999
 51
323.13009
  0
ARC
  5
1080
330
1F
100
AcDbEntity
  8
10000_Front
  6
Continuous
 62
     7
370
    50
100
AcDbCircle
 10
191.0478886507721
 20
161.3826773350079
 30
0.0
 40
1.249995999999975
100
AcDbArc
 50
36.87002900000111
 51
143.1301000000004
  0
LINE
  5
1081
330
1F
100
AcDbEntity
  8
10000_Front
  6
Continuous
 62
     7
370
    50
100
AcDbLine
 10
192.5478786507721
 20
228.6326873350079
 30
0.0
 11
192.0478786507721
 21
228.6326873350079
 31
0.0
  0
LINE
  5
1084
330
1F
100
AcDbEntity
  8
10000_Front
  6
Continuous
 62
     7
370
    50
100
AcDbLine
 10
192.0478786507721
 20
162.1326773350079
 30
0.0
 11
192.5478886507722
 21
162.1326773350079
 31
0.0
  0
ARC
  5
1085
330
1F
100
AcDbEntity
  8
10000_Front
  6
Continuous
 62
     7
370
    50
100
AcDbCircle
 10
193.5478886507721
 20
229.3826773350079
 30
0.0
 40
1.250002
100
AcDbArc
 50
216.86963
 51
323.13008
  0
ARC
  5
1088
330
1F
100
AcDbEntity
  8
10000_Front
  6
Continuous
 62
     7
370
    50
100
AcDbCircle
 10
193.5478886507721
 20
161.3826773350079
 30
0.0
 40
1.249995500000024
100
AcDbArc
 50
36.87004399999895
 51
143.130099999999
  0
LINE
  5
1089
330
1F
100
AcDbEntity
  8
10000_Front
  6
Continuous
 62
     7
370
    50
100
AcDbLine
 10
195.0478786507721
 20
228.6326873350079
 30
0.0
 11
194.547878650772
 21
228.6326873350079
 31
0.0
  0
LINE
  5
108C
330
1F
100
AcDbEntity
  8
10000_Front
  6
Continuous
 62
     7
370
    50
100
AcDbLine
 10
194.547878650772
 20
162.1326773350079
 30
0.0
 11
195.0478886507721
 21
162.1326773350079
 31
0.0
  0
ARC
  5
108D
330
1F
100
AcDbEntity
  8
10000_Front
  6
Continuous
 62
     7
370
    50
100
AcDbCircle
 10
196.0478886507721
 20
229.3826773350079
 30
0.0
 40
1.250002399999998
100
AcDbArc
 50
216.86962
 51
323.1301
  0
ARC
  5
1090
330
1F
100
AcDbEntity
  8
10000_Front
  6
Continuous
 62
     7
370
    50
100
AcDbCircle
 10
196.0478886507721
 20
161.3826773350079
 30
0.0
 40
1.249999999999977
100
AcDbArc
 50
36.86989799999881
 51
143.1301000000012
  0
LINE
  5
1091
330
1F
100
AcDbEntity
  8
10000_Front
  6
Continuous
 62
     7
370
    50
100
AcDbLine
 10
197.5478786507721
 20
228.6326873350079
 30
0.0
 11
197.0478786507721
 21
228.6326873350079
 31
0.0
  0
LINE
  5
1094
330
1F
100
AcDbEntity
  8
10000_Front
  6
Continuous
 62
     7
370
    50
100
AcDbLine
 10
197.0478786507721
 20
162.1326773350079
 30
0.0
 11
197.5478786507721
 21
162.1326773350079
 31
0.0
  0
ARC
  5
1095
330
1F
100
AcDbEntity
  8
10000_Front
  6
Continuous
 62
     7
370
    50
100
AcDbCircle
 10
198.5478886507721
 20
229.3826773350079
 30
0.0
 40
1.25
100
AcDbArc
 50
216.8699
 51
323.1301
  0
LINE
  5
1099
330
1F
100
AcDbEntity
  8
10000_Front
  6
Continuous
 62
     7
370
    50
100
AcDbLine
 10
200.0478786507721
 20
228.6326873350079
 30
0.0
 11
199.5478786507721
 21
228.6326873350079
 31
0.0
  0
LINE
  5
109C
330
1F
100
AcDbEntity
  8
10000_Front
  6
Continuous
 62
     7
370
    50
100
AcDbLine
 10
199.5478786507721
 20
162.1326773350079
 30
0.0
 11
200.0478786507721
 21
162.1326773350079
 31
0.0
  0
LINE
  5
1135
330
1F
100
AcDbEntity
  8
10000_Front
  6
Continuous
 62
     7
370
    13
100
AcDbLine
 10
205.0478786507721
 20
163.3826773350079
 30
0.0
 11
215.0478986507721
 21
163.3826773350079
 31
0.0
  0
LINE
  5
1137
330
1F
100
AcDbEntity
  8
10000_Front
  6
Continuous
 62
     7
370
    13
100
AcDbLine
 10
215.0478986507721
 20
227.3826873350079
 30
0.0
 11
205.0478786507721
 21
227.3826873350079
 31
0.0
  0
LINE
  5
1138
330
1F
100
AcDbEntity
  8
10000_Front
  6
Continuous
 62
     7
370
    13
100
AcDbLine
 10
149.0478886507721
 20
163.3826773350079
 30
0.0
 11
159.0478886507721
 21
163.3826773350078
 31
0.0
  0
LINE
  5
1139
330
1F
100
AcDbEntity
  8
10000_Front
  6
Continuous
 62
     7
370
    13
100
AcDbLine
 10
156.5478886507721
 20
227.3826773350079
 30
0.0
 11
149.0478886507721
 21
227.3826773350079
 31
0.0
  0
LINE
  5
113A
330
1F
100
AcDbEntity
  8
10000_Front
  6
Continuous
 62
     7
370
    13
100
AcDbLine
 10
149.0478886507721
 20
227.3826773350079
 30
0.0
 11
149.0478886507721
 21
163.3826773350079
 31
0.0
  0
LINE
  5
11A1
330
1F
100
AcDbEntity
  8
10000_Front
  6
Continuous
 62
     7
370
    13
100
AcDbLine
 10
164.0478886507722
 20
197.6326773350079
 30
0.0
 11
159.7978886507721
 21
197.6326773350079
 31
0.0
  0
LINE
  5
11A2
330
1F
100
AcDbEntity
  8
10000_Front
  6
Continuous
 62
     7
370
    13
100
AcDbLine
 10
164.0478886507722
 20
193.1326773350079
 30
0.0
 11
164.0478886507722
 21
197.4218773350079
 31
0.0
  0
LINE
  5
11A3
330
1F
100
AcDbEntity
  8
10000_Front
  6
Continuous
 62
     7
370
    13
100
AcDbLine
 10
164.0478886507722
 20
197.4218773350079
 30
0.0
 11
164.0478886507722
 21
197.6326773350079
 31
0.0
  0
LINE
  5
11A4
330
1F
100
AcDbEntity
  8
10000_Front
  6
Continuous
 62
     7
370
    13
100
AcDbLine
 10
159.7978886507721
 20
193.1326773350079
 30
0.0
 11
164.0478886507722
 21
193.1326773350079
 31
0.0
  0
LINE
  5
11BD
330
1F
100
AcDbEntity
  8
10000_Front
  6
Continuous
 62
     7
370
    50
100
AcDbLine
 10
215.0478986507721
 20
230.3826873350079
 30
0.0
 11
203.0478786507721
 21
230.3826873350079
 31
0.0
  0
LINE
  5
11C1
330
1F
100
AcDbEntity
  8
10000_Front
  6
Continuous
 62
     7
370
    50
100
AcDbLine
 10
203.0478886507722
 20
229.3826873350079
 30
0.0
 11
203.0478886507722
 21
230.3826873350079
 31
0.0
  0
LINE
  5
11EB
330
1F
100
AcDbEntity
  8
10000_Front
  6
Continuous
 62
     7
370
    50
100
AcDbLine
 10
215.0478986507721
 20
160.3826773350079
 30
0.0
 11
203.0478786507721
 21
160.3826773350079
 31
0.0
  0
LINE
  5
11F2
330
1F
100
AcDbEntity
  8
10000_Front
  6
Continuous
 62
     7
370
    13
100
AcDbLine
 10
145.0478886507721
 20
163.3826773350079
 30
0.0
 11
149.0478886507721
 21
163.3826773350079
 31
0.0
  0
LINE
  5
11F3
330
1F
100
AcDbEntity
  8
10000_Front
  6
Continuous
 62
     7
370
    13
100
AcDbLine
 10
149.0478886507721
 20
227.3826773350079
 30
0.0
 11
145.0478886507721
 21
227.3826773350079
 31
0.0
  0
LINE
  5
11F4
330
1F
100
AcDbEntity
  8
10000_Front
  6
Continuous
 62
     7
370
    13
100
AcDbLine
 10
156.6478886507721
 20
227.3826773350079
 30
0.0
 11
156.5478886507721
 21
227.3826773350079
 31
0.0
  0
LINE
  5
11F5
330
1F
100
AcDbEntity
  8
10000_Front
  6
Continuous
 62
     7
370
    50
100
AcDbLine
 10
146.0478886507721
 20
160.3826773350079
 30
0.0
 11
159.0478886507721
 21
160.3826773350079
 31
0.0
  0
LINE
  5
11F6
330
1F
100
AcDbEntity
  8
10000_Front
  6
Continuous
 62
     7
370
    50
100
AcDbLine
 10
146.0478886507721
 20
230.3826773350079
 30
0.0
 11
159.0478886507721
 21
230.3826773350079
 31
0.0
  0
ARC
  5
11F7
330
1F
100
AcDbEntity
  8
10000_Front
  6
Continuous
 62
     7
370
    50
100
AcDbCircle
 10
146.0478886507721
 20
163.3826773350079
 30
0.0
 40
3.0
100
AcDbArc
 50
180.0
 51
270.0001
  0
LINE
  5
11F8
330
1F
100
AcDbEntity
  8
10000_Front
  6
Continuous
 62
     7
370
    13
100
AcDbLine
 10
146.0478886507721
 20
230.3826773350079
 30
0.0
 11
146.0478886507721
 21
160.3826773350079
 31
0.0
  0
ARC
  5
11F9
330
1F
100
AcDbEntity
  8
10000_Front
  6
Continuous
 62
     7
370
    50
100
AcDbCircle
 10
146.0478886507721
 20
227.3826773350079
 30
0.0
 40
3.0
100
AcDbArc
 50
90.0
 51
180.0
  0
LINE
  5
11FA
330
1F
100
AcDbEntity
  8
10000_Front
  6
Continuous
 62
     7
370
    13
100
AcDbLine
 10
159.0478886507721
 20
161.3826773350079
 30
0.0
 11
159.0478886507721
 21
229.3826873350079
 31
0.0
  0
LINE
  5
11FB
330
1F
100
AcDbEntity
  8
10000_Front
  6
Continuous
 62
     7
370
    13
100
AcDbLine
 10
145.0478886507721
 20
163.3826773350079
 30
0.0
 11
145.0478886507721
 21
227.3826773350079
 31
0.0
  0
LINE
  5
11FC
330
1F
100
AcDbEntity
  8
10000_Front
  6
Continuous
 62
     7
370
    50
100
AcDbLine
 10
143.0478886507721
 20
163.3826773350079
 30
0.0
 11
143.0478886507721
 21
227.3826773350079
 31
0.0
  0
LINE
  5
1386
330
1F
100
AcDbEntity
  8
14000_Bottom
  6
Continuous
 62
     7
370
    13
100
AcDbLine
 10
294.0022526507894
 20
183.1142422429512
 30
0.0
 11
295.2738526507894
 21
182.4381222429512
 31
0.0
  0
LINE
  5
1387
330
1F
100
AcDbEntity
  8
14000_Bottom
  6
Continuous
 62
     7
370
    13
100
AcDbLine
 10
291.5741426507897
 20
184.4052922429512
 30
0.0
 11
292.6778226507895
 21
183.8184522429512
 31
0.0
  0
LINE
  5
1388
330
1F
100
AcDbEntity
  8
14000_Bottom
  6
Continuous
 62
     7
370
    13
100
AcDbLine
 10
293.0686826507895
 20
209.8479422429512
 30
0.0
 11
294.2900326507895
 21
210.6111222429512
 31
0.0
  0
LINE
  5
1389
330
1F
100
AcDbEntity
  8
14000_Bottom
  6
Continuous
 62
     7
370
    13
100
AcDbLine
 10
290.7365526507895
 20
208.3906722429512
 30
0.0
 11
291.7966126507895
 21
209.0530722429512
 31
0.0
  0
LINE
  5
138A
330
1F
100
AcDbEntity
  8
14000_Bottom
  6
Continuous
 62
     7
370
    13
100
AcDbLine
 10
269.5458126507895
 20
219.6579822429512
 30
0.0
 11
269.5021926507895
 21
220.9072222429512
 31
0.0
  0
LINE
  5
138B
330
1F
100
AcDbEntity
  8
14000_Bottom
  6
Continuous
 62
     7
370
    13
100
AcDbLine
 10
269.4498426507896
 20
222.4063122429512
 30
0.0
 11
269.3995726507894
 21
223.8456122429512
 31
0.0
  0
LINE
  5
138C
330
1F
100
AcDbEntity
  8
14000_Bottom
  6
Continuous
 62
     7
370
    13
100
AcDbLine
 10
249.1926626507896
 20
206.9399222429512
 30
0.0
 11
248.0889726507895
 21
207.5267622429512
 31
0.0
  0
LINE
  5
138D
330
1F
100
AcDbEntity
  8
14000_Bottom
  6
Continuous
 62
     7
370
    13
100
AcDbLine
 10
246.7645526507895
 20
208.2309722429512
 30
0.0
 11
245.4929526507894
 21
208.9070922429512
 31
0.0
  0
LINE
  5
138E
330
1F
100
AcDbEntity
  8
14000_Bottom
  6
Continuous
 62
     7
370
    13
100
AcDbLine
 10
250.0302426507896
 20
182.9545422429512
 30
0.0
 11
248.9701826507895
 21
182.2921422429512
 31
0.0
  0
LINE
  5
138F
330
1F
100
AcDbEntity
  8
14000_Bottom
  6
Continuous
 62
     7
370
    13
100
AcDbLine
 10
247.6981126507894
 20
181.4972622429512
 30
0.0
 11
246.4767726507895
 21
180.7340822429512
 31
0.0
  0
LINE
  5
1390
330
1F
100
AcDbEntity
  8
14000_Bottom
  6
Continuous
 62
     7
370
    13
100
AcDbLine
 10
271.2209926507896
 20
171.6872222429512
 30
0.0
 11
271.2646126507896
 21
170.4379922429512
 31
0.0
  0
LINE
  5
1391
330
1F
100
AcDbEntity
  8
14000_Bottom
  6
Continuous
 62
     7
370
    13
100
AcDbLine
 10
271.3169626507895
 20
168.9389022429512
 30
0.0
 11
271.3672226507895
 21
167.4996022429511
 31
0.0
  0
CIRCLE
  5
1392
330
1F
100
AcDbEntity
  8
14000_Bottom
  6
Continuous
 62
     7
370
    13
100
AcDbCircle
 10
289.5526126507895
 20
213.2379522429512
 30
0.0
 40
0.75
  0
ARC
  5
1393
330
1F
100
AcDbEntity
  8
14000_Bottom
  6
Continuous
 62
     7
370
    13
100
AcDbCircle
 10
270.3834026507895
 20
195.6726022429512
 30
0.0
 40
25.25
100
AcDbArc
 50
31.99999999999999
 51
35.50000000000002
  0
ARC
  5
1394
330
1F
100
AcDbEntity
  8
14000_Bottom
  6
Continuous
 62
     7
370
    13
100
AcDbCircle
 10
291.5504026507895
 20
210.7708822429512
 30
0.0
 40
0.75
100
AcDbArc
 50
35.49999900000001
 51
215.5
  0
ARC
  5
1395
330
1F
100
AcDbEntity
  8
14000_Bottom
  6
Continuous
 62
     7
370
    13
100
AcDbCircle
 10
270.3834026507895
 20
195.6726022429512
 30
0.0
 40
26.75
100
AcDbArc
 50
31.99999999999999
 51
35.50000000000002
  0
ARC
  5
1396
330
1F
100
AcDbEntity
  8
14000_Bottom
  6
Continuous
 62
     7
370
    13
100
AcDbCircle
 10
270.3834026507895
 20
195.6726022429512
 30
0.0
 40
26.75
100
AcDbArc
 50
91.99999999999995
 51
95.49999999999995
  0
ARC
  5
1397
330
1F
100
AcDbEntity
  8
14000_Bottom
  6
Continuous
 62
     7
370
    13
100
AcDbCircle
 10
270.3834026507895
 20
195.6726022429512
 30
0.0
 40
25.25
100
AcDbArc
 50
91.99999999999995
 51
95.49999999999995
  0
ARC
  5
1398
330
1F
100
AcDbEntity
  8
14000_Bottom
  6
Continuous
 62
     7
370
    13
100
AcDbCircle
 10
267.8914126507895
 20
221.5529022429512
 30
0.0
 40
0.75
100
AcDbArc
 50
95.49999999999995
 51
275.5
  0
CIRCLE
  5
1399
330
1F
100
AcDbEntity
  8
14000_Bottom
  6
Continuous
 62
     7
370
    13
100
AcDbCircle
 10
264.7559726507895
 20
221.0563022429512
 30
0.0
 40
0.75
  0
ARC
  5
139A
330
1F
100
AcDbEntity
  8
14000_Bottom
  6
Continuous
 62
     7
370
    13
100
AcDbCircle
 10
246.7244026507894
 20
206.4546322429512
 30
0.0
 40
0.75
100
AcDbArc
 50
155.5
 51
335.4999999999999
  0
ARC
  5
139B
330
1F
100
AcDbEntity
  8
14000_Bottom
  6
Continuous
 62
     7
370
    13
100
AcDbCircle
 10
270.3834026507895
 20
195.6726022429512
 30
0.0
 40
26.75
100
AcDbArc
 50
152.0
 51
155.5
  0
ARC
  5
139C
330
1F
100
AcDbEntity
  8
14000_Bottom
  6
Continuous
 62
     7
370
    13
100
AcDbCircle
 10
270.3834026507895
 20
195.6726022429512
 30
0.0
 40
25.25
100
AcDbArc
 50
152.0
 51
155.5
  0
CIRCLE
  5
139D
330
1F
100
AcDbEntity
  8
14000_Bottom
  6
Continuous
 62
     7
370
    13
100
AcDbCircle
 10
245.5867626507895
 20
203.4909522429512
 30
0.0
 40
0.75
  0
ARC
  5
139E
330
1F
100
AcDbEntity
  8
14000_Bottom
  6
Continuous
 62
     7
370
    13
100
AcDbCircle
 10
270.3834026507895
 20
195.6726022429512
 30
0.0
 40
26.75
100
AcDbArc
 50
212.0
 51
215.5
  0
ARC
  5
139F
330
1F
100
AcDbEntity
  8
14000_Bottom
  6
Continuous
 62
     7
370
    13
100
AcDbCircle
 10
270.3834026507895
 20
195.6726022429512
 30
0.0
 40
25.25
100
AcDbArc
 50
212.0
 51
215.5
  0
ARC
  5
13A0
330
1F
100
AcDbEntity
  8
14000_Bottom
  6
Continuous
 62
     7
370
    13
100
AcDbCircle
 10
249.2163926507895
 20
180.5743322429512
 30
0.0
 40
0.75
100
AcDbArc
 50
215.5
 51
35.50000000000004
  0
CIRCLE
  5
13A1
330
1F
100
AcDbEntity
  8
14000_Bottom
  6
Continuous
 62
     7
370
    13
100
AcDbCircle
 10
251.2141926507895
 20
178.1072622429512
 30
0.0
 40
0.75
  0
ARC
  5
13A2
330
1F
100
AcDbEntity
  8
14000_Bottom
  6
Continuous
 62
     7
370
    13
100
AcDbCircle
 10
272.8753926507895
 20
169.7923022429512
 30
0.0
 40
0.75
100
AcDbArc
 50
275.49999
 51
95.49999999999995
  0
ARC
  5
13A3
330
1F
100
AcDbEntity
  8
14000_Bottom
  6
Continuous
 62
     7
370
    13
100
AcDbCircle
 10
270.3834026507895
 20
195.6726022429512
 30
0.0
 40
26.75
100
AcDbArc
 50
272.0
 51
275.5
  0
ARC
  5
13A4
330
1F
100
AcDbEntity
  8
14000_Bottom
  6
Continuous
 62
     7
370
    13
100
AcDbCircle
 10
270.3834026507895
 20
195.6726022429512
 30
0.0
 40
25.25
100
AcDbArc
 50
272.0
 51
275.5
  0
CIRCLE
  5
13A5
330
1F
100
AcDbEntity
  8
14000_Bottom
  6
Continuous
 62
     7
370
    13
100
AcDbCircle
 10
276.0108326507896
 20
170.2889122429511
 30
0.0
 40
0.75
  0
ARC
  5
13A6
330
1F
100
AcDbEntity
  8
14000_Bottom
  6
Continuous
 62
     7
370
    13
100
AcDbCircle
 10
270.3834026507895
 20
195.6726022429512
 30
0.0
 40
25.25
100
AcDbArc
 50
331.9999999999999
 51
335.4999999999999
  0
ARC
  5
13A7
330
1F
100
AcDbEntity
  8
14000_Bottom
  6
Continuous
 62
     7
370
    13
100
AcDbCircle
 10
270.3834026507895
 20
195.6726022429512
 30
0.0
 40
26.75
100
AcDbArc
 50
331.9999999999999
 51
335.4999999999999
  0
ARC
  5
13A8
330
1F
100
AcDbEntity
  8
14000_Bottom
  6
Continuous
 62
     7
370
    13
100
AcDbCircle
 10
294.0423926507894
 20
184.8905822429512
 30
0.0
 40
0.75
100
AcDbArc
 50
335.4999999999999
 51
155.5
  0
CIRCLE
  5
13A9
330
1F
100
AcDbEntity
  8
14000_Bottom
  6
Continuous
 62
     7
370
    13
100
AcDbCircle
 10
295.1800426507896
 20
187.8542522429512
 30
0.0
 40
0.75
  0
LINE
  5
13AA
330
1F
100
AcDbEntity
  8
14000_Bottom
  6
Continuous
 62
     7
370
    13
100
AcDbLine
 10
242.6229426507896
 20
199.3273422429512
 30
0.0
 11
241.4937526507895
 21
198.2001222429512
 31
0.0
  0
LINE
  5
13AB
330
1F
100
AcDbEntity
  8
14000_Bottom
  6
Continuous
 62
     7
370
    13
100
AcDbLine
 10
241.8239726507895
 20
200.7084022429512
 30
0.0
 11
242.6229426507896
 21
199.3273422429512
 31
0.0
  0
LINE
  5
13AC
330
1F
100
AcDbEntity
  8
14000_Bottom
  6
Continuous
 62
     7
370
    13
100
AcDbLine
 10
242.4100526507896
 20
194.4512622429512
 30
0.0
 11
241.4937526507895
 21
193.1450922429512
 31
0.0
  0
LINE
  5
13AD
330
1F
100
AcDbEntity
  8
14000_Bottom
  6
Continuous
 62
     7
370
    13
100
AcDbLine
 10
241.3834026507895
 20
195.6726022429512
 30
0.0
 11
242.4100526507896
 21
194.4512622429512
 31
0.0
  0
LINE
  5
13AE
330
1F
100
AcDbEntity
  8
14000_Bottom
  6
Continuous
 62
     7
370
    13
100
AcDbLine
 10
243.0471126507895
 20
189.6122922429512
 30
0.0
 11
242.3715526507895
 21
188.1668522429512
 31
0.0
  0
LINE
  5
13AF
330
1F
100
AcDbEntity
  8
14000_Bottom
  6
Continuous
 62
     7
370
    13
100
AcDbLine
 10
241.8239726507895
 20
190.6368122429512
 30
0.0
 11
243.0471126507895
 21
189.6122922429512
 31
0.0
  0
LINE
  5
13B0
330
1F
100
AcDbEntity
  8
14000_Bottom
  6
Continuous
 62
     7
370
    13
100
AcDbLine
 10
244.5147726507895
 20
184.9574722429512
 30
0.0
 11
244.1004726507895
 21
183.4166722429512
 31
0.0
  0
LINE
  5
13B1
330
1F
100
AcDbEntity
  8
14000_Bottom
  6
Continuous
 62
     7
370
    13
100
AcDbLine
 10
243.1323126507896
 20
185.7540222429512
 30
0.0
 11
244.5147726507895
 21
184.9574722429512
 31
0.0
  0
LINE
  5
13B2
330
1F
100
AcDbEntity
  8
14000_Bottom
  6
Continuous
 62
     7
370
    13
100
AcDbLine
 10
253.3380826507895
 20
173.4587122429512
 30
0.0
 11
253.7496826507895
 21
171.9171922429512
 31
0.0
  0
LINE
  5
13B3
330
1F
100
AcDbEntity
  8
14000_Bottom
  6
Continuous
 62
     7
370
    13
100
AcDbLine
 10
251.7425626507895
 20
173.4573122429512
 30
0.0
 11
253.3380826507895
 21
173.4587122429512
 31
0.0
  0
LINE
  5
13B4
330
1F
100
AcDbEntity
  8
14000_Bottom
  6
Continuous
 62
     7
370
    13
100
AcDbLine
 10
257.4544426507896
 20
170.8363022429512
 30
0.0
 11
258.1274726507895
 21
169.3896822429512
 31
0.0
  0
LINE
  5
13B5
330
1F
100
AcDbEntity
  8
14000_Bottom
  6
Continuous
 62
     7
370
    13
100
AcDbLine
 10
255.8834026507895
 20
170.5578722429512
 30
0.0
 11
257.4544426507896
 21
170.8363022429512
 31
0.0
  0
LINE
  5
13B6
330
1F
100
AcDbEntity
  8
14000_Bottom
  6
Continuous
 62
     7
370
    13
100
AcDbLine
 10
261.9636426507895
 20
168.9685322429511
 30
0.0
 11
262.8776526507895
 21
167.6607522429512
 31
0.0
  0
LINE
  5
13B7
330
1F
100
AcDbEntity
  8
14000_Bottom
  6
Continuous
 62
     7
370
    13
100
AcDbLine
 10
260.4648126507896
 20
168.4215222429511
 30
0.0
 11
261.9636426507895
 21
168.9685322429511
 31
0.0
  0
LINE
  5
13B8
330
1F
100
AcDbEntity
  8
14000_Bottom
  6
Continuous
 62
     7
370
    13
100
AcDbLine
 10
266.7286626507896
 20
167.9121522429511
 30
0.0
 11
267.8558826507895
 21
166.7829622429512
 31
0.0
  0
LINE
  5
13B9
330
1F
100
AcDbEntity
  8
14000_Bottom
  6
Continuous
 62
     7
370
    13
100
AcDbLine
 10
265.3476026507894
 20
167.1131822429512
 30
0.0
 11
266.7286626507896
 21
167.9121522429511
 31
0.0
  0
LINE
  5
13BA
330
1F
100
AcDbEntity
  8
14000_Bottom
  6
Continuous
 62
     7
370
    13
100
AcDbLine
 10
281.0985326507896
 20
169.8039822429512
 30
0.0
 11
282.6393326507897
 21
169.3896822429512
 31
0.0
  0
LINE
  5
13BB
330
1F
100
AcDbEntity
  8
14000_Bottom
  6
Continuous
 62
     7
370
    13
100
AcDbLine
 10
280.3019826507896
 20
168.4215222429511
 30
0.0
 11
281.0985326507896
 21
169.8039822429512
 31
0.0
  0
LINE
  5
13BC
330
1F
100
AcDbEntity
  8
14000_Bottom
  6
Continuous
 62
     7
370
    13
100
AcDbLine
 10
285.4277926507896
 20
172.0576422429512
 30
0.0
 11
287.0171126507896
 21
171.9171922429512
 31
0.0
  0
LINE
  5
13BD
330
1F
100
AcDbEntity
  8
14000_Bottom
  6
Continuous
 62
     7
370
    13
100
AcDbLine
 10
284.8834026507897
 20
170.5578722429512
 30
0.0
 11
285.4277926507896
 21
172.0576422429512
 31
0.0
  0
LINE
  5
13BE
330
1F
100
AcDbEntity
  8
14000_Bottom
  6
Continuous
 62
     7
370
    13
100
AcDbLine
 10
289.2999226507896
 20
175.0288422429512
 30
0.0
 11
290.8894926507894
 21
175.1665122429512
 31
0.0
  0
LINE
  5
13BF
330
1F
100
AcDbEntity
  8
14000_Bottom
  6
Continuous
 62
     7
370
    13
100
AcDbLine
 10
289.0242426507896
 20
173.4573122429512
 30
0.0
 11
289.2999226507896
 21
175.0288422429512
 31
0.0
  0
LINE
  5
13C0
330
1F
100
AcDbEntity
  8
14000_Bottom
  6
Continuous
 62
     7
370
    13
100
AcDbLine
 10
292.5972926507895
 20
178.6272822429512
 30
0.0
 11
294.1388126507895
 21
179.0388922429512
 31
0.0
  0
LINE
  5
13C1
330
1F
100
AcDbEntity
  8
14000_Bottom
  6
Continuous
 62
     7
370
    13
100
AcDbLine
 10
292.5986926507897
 20
177.0317622429512
 30
0.0
 11
292.5972926507895
 21
178.6272822429512
 31
0.0
  0
LINE
  5
13C2
330
1F
100
AcDbEntity
  8
14000_Bottom
  6
Continuous
 62
     7
370
    13
100
AcDbLine
 10
298.1438526507895
 20
192.0178722429512
 30
0.0
 11
299.2730426507894
 21
193.1450922429512
 31
0.0
  0
LINE
  5
13C3
330
1F
100
AcDbEntity
  8
14000_Bottom
  6
Continuous
 62
     7
370
    13
100
AcDbLine
 10
298.9428226507897
 20
190.6368122429512
 30
0.0
 11
298.1438526507895
 21
192.0178722429512
 31
0.0
  0
LINE
  5
13C4
330
1F
100
AcDbEntity
  8
14000_Bottom
  6
Continuous
 62
     7
370
    13
100
AcDbLine
 10
298.3567526507895
 20
196.8939522429512
 30
0.0
 11
299.2730426507894
 21
198.2001222429512
 31
0.0
  0
LINE
  5
13C5
330
1F
100
AcDbEntity
  8
14000_Bottom
  6
Continuous
 62
     7
370
    13
100
AcDbLine
 10
299.3834026507895
 20
195.6726022429512
 30
0.0
 11
298.3567526507895
 21
196.8939522429512
 31
0.0
  0
LINE
  5
13C6
330
1F
100
AcDbEntity
  8
14000_Bottom
  6
Continuous
 62
     7
370
    13
100
AcDbLine
 10
297.7196926507895
 20
201.7329122429512
 30
0.0
 11
298.3952526507894
 21
203.1783622429512
 31
0.0
  0
LINE
  5
13C7
330
1F
100
AcDbEntity
  8
14000_Bottom
  6
Continuous
 62
     7
370
    13
100
AcDbLine
 10
298.9428226507897
 20
200.7084022429512
 30
0.0
 11
297.7196926507895
 21
201.7329122429512
 31
0.0
  0
LINE
  5
13C8
330
1F
100
AcDbEntity
  8
14000_Bottom
  6
Continuous
 62
     7
370
    13
100
AcDbLine
 10
296.2520226507895
 20
206.3877422429512
 30
0.0
 11
296.6663226507894
 21
207.9285322429512
 31
0.0
  0
LINE
  5
13C9
330
1F
100
AcDbEntity
  8
14000_Bottom
  6
Continuous
 62
     7
370
    13
100
AcDbLine
 10
297.6344826507897
 20
205.5911922429512
 30
0.0
 11
296.2520226507895
 21
206.3877422429512
 31
0.0
  0
LINE
  5
13CA
330
1F
100
AcDbEntity
  8
14000_Bottom
  6
Continuous
 62
     7
370
    13
100
AcDbLine
 10
287.4287226507895
 20
217.8865022429512
 30
0.0
 11
287.0171126507896
 21
219.4280122429512
 31
0.0
  0
LINE
  5
13CB
330
1F
100
AcDbEntity
  8
14000_Bottom
  6
Continuous
 62
     7
370
    13
100
AcDbLine
 10
289.0242426507896
 20
217.8878922429512
 30
0.0
 11
287.4287226507895
 21
217.8865022429512
 31
0.0
  0
LINE
  5
13CC
330
1F
100
AcDbEntity
  8
14000_Bottom
  6
Continuous
 62
     7
370
    13
100
AcDbLine
 10
283.3123626507895
 20
220.5089122429512
 30
0.0
 11
282.6393326507897
 21
221.9555322429512
 31
0.0
  0
LINE
  5
13CD
330
1F
100
AcDbEntity
  8
14000_Bottom
  6
Continuous
 62
     7
370
    13
100
AcDbLine
 10
284.8834026507897
 20
220.7873422429512
 30
0.0
 11
283.3123626507895
 21
220.5089122429512
 31
0.0
  0
LINE
  5
13CE
330
1F
100
AcDbEntity
  8
14000_Bottom
  6
Continuous
 62
     7
370
    13
100
AcDbLine
 10
278.8031626507895
 20
222.3766822429512
 30
0.0
 11
277.8891526507896
 21
223.6844522429512
 31
0.0
  0
LINE
  5
13CF
330
1F
100
AcDbEntity
  8
14000_Bottom
  6
Continuous
 62
     7
370
    13
100
AcDbLine
 10
280.3019826507896
 20
222.9236922429512
 30
0.0
 11
278.8031626507895
 21
222.3766822429512
 31
0.0
  0
LINE
  5
13D0
330
1F
100
AcDbEntity
  8
14000_Bottom
  6
Continuous
 62
     7
370
    13
100
AcDbLine
 10
274.0381326507895
 20
223.4330622429512
 30
0.0
 11
272.9109126507895
 21
224.5622522429512
 31
0.0
  0
LINE
  5
13D1
330
1F
100
AcDbEntity
  8
14000_Bottom
  6
Continuous
 62
     7
370
    13
100
AcDbLine
 10
275.4192026507896
 20
224.2320322429512
 30
0.0
 11
274.0381326507895
 21
223.4330622429512
 31
0.0
  0
LINE
  5
13D2
330
1F
100
AcDbEntity
  8
14000_Bottom
  6
Continuous
 62
     7
370
    13
100
AcDbLine
 10
259.6682626507895
 20
221.5412322429512
 30
0.0
 11
258.1274726507895
 21
221.9555322429512
 31
0.0
  0
LINE
  5
13D3
330
1F
100
AcDbEntity
  8
14000_Bottom
  6
Continuous
 62
     7
370
    13
100
AcDbLine
 10
260.4648126507896
 20
222.9236922429512
 30
0.0
 11
259.6682626507895
 21
221.5412322429512
 31
0.0
  0
LINE
  5
13D4
330
1F
100
AcDbEntity
  8
14000_Bottom
  6
Continuous
 62
     7
370
    13
100
AcDbLine
 10
255.3390126507895
 20
219.2875622429512
 30
0.0
 11
253.7496826507895
 21
219.4280122429512
 31
0.0
  0
LINE
  5
13D5
330
1F
100
AcDbEntity
  8
14000_Bottom
  6
Continuous
 62
     7
370
    13
100
AcDbLine
 10
255.8834026507895
 20
220.7873422429512
 30
0.0
 11
255.3390126507895
 21
219.2875622429512
 31
0.0
  0
LINE
  5
13D6
330
1F
100
AcDbEntity
  8
14000_Bottom
  6
Continuous
 62
     7
370
    13
100
AcDbLine
 10
251.4668726507896
 20
216.3163722429512
 30
0.0
 11
249.8773026507895
 21
216.1787022429512
 31
0.0
  0
LINE
  5
13D7
330
1F
100
AcDbEntity
  8
14000_Bottom
  6
Continuous
 62
     7
370
    13
100
AcDbLine
 10
251.7425626507895
 20
217.8878922429512
 30
0.0
 11
251.4668726507896
 21
216.3163722429512
 31
0.0
  0
LINE
  5
13D8
330
1F
100
AcDbEntity
  8
14000_Bottom
  6
Continuous
 62
     7
370
    13
100
AcDbLine
 10
248.1695026507896
 20
212.7179222429512
 30
0.0
 11
246.6279926507896
 21
212.3063222429512
 31
0.0
  0
LINE
  5
13D9
330
1F
100
AcDbEntity
  8
14000_Bottom
  6
Continuous
 62
     7
370
    13
100
AcDbLine
 10
248.1681126507894
 20
214.3134422429512
 30
0.0
 11
248.1695026507896
 21
212.7179222429512
 31
0.0
  0
LINE
  5
13DA
330
1F
100
AcDbEntity
  8
14000_Bottom
  6
Continuous
 62
     7
370
    13
100
AcDbLine
 10
246.6279926507896
 20
212.3063222429512
 30
0.0
 11
246.7684426507894
 21
210.7169922429512
 31
0.0
  0
LINE
  5
13DB
330
1F
100
AcDbEntity
  8
14000_Bottom
  6
Continuous
 62
     7
370
    13
100
AcDbLine
 10
246.7684426507894
 20
210.7169922429512
 30
0.0
 11
245.2686626507896
 21
210.1726022429512
 31
0.0
  0
LINE
  5
13DD
330
1F
100
AcDbEntity
  8
14000_Bottom
  6
Continuous
 62
     7
370
    13
100
AcDbLine
 10
249.7396326507896
 20
214.5891322429512
 30
0.0
 11
248.1681126507894
 21
214.3134422429512
 31
0.0
  0
LINE
  5
13DE
330
1F
100
AcDbEntity
  8
14000_Bottom
  6
Continuous
 62
     7
370
    13
100
AcDbLine
 10
253.7496826507895
 20
219.4280122429512
 30
0.0
 11
253.3380826507895
 21
217.8865022429512
 31
0.0
  0
LINE
  5
13DF
330
1F
100
AcDbEntity
  8
14000_Bottom
  6
Continuous
 62
     7
370
    13
100
AcDbLine
 10
253.3380826507895
 20
217.8865022429512
 30
0.0
 11
251.7425626507895
 21
217.8878922429512
 31
0.0
  0
LINE
  5
13E0
330
1F
100
AcDbEntity
  8
14000_Bottom
  6
Continuous
 62
     7
370
    13
100
AcDbLine
 10
258.1274726507895
 20
221.9555322429512
 30
0.0
 11
257.4544426507896
 21
220.5089122429512
 31
0.0
  0
LINE
  5
13E1
330
1F
100
AcDbEntity
  8
14000_Bottom
  6
Continuous
 62
     7
370
    13
100
AcDbLine
 10
257.4544426507896
 20
220.5089122429512
 30
0.0
 11
255.8834026507895
 21
220.7873422429512
 31
0.0
  0
LINE
  5
13E2
330
1F
100
AcDbEntity
  8
14000_Bottom
  6
Continuous
 62
     7
370
    13
100
AcDbLine
 10
261.9636426507895
 20
222.3766822429512
 30
0.0
 11
260.4648126507896
 21
222.9236922429512
 31
0.0
  0
LINE
  5
13E3
330
1F
100
AcDbEntity
  8
14000_Bottom
  6
Continuous
 62
     7
370
    13
100
AcDbLine
 10
272.9109126507895
 20
224.5622522429512
 30
0.0
 11
271.6047426507896
 21
223.6459522429512
 31
0.0
  0
LINE
  5
13E4
330
1F
100
AcDbEntity
  8
14000_Bottom
  6
Continuous
 62
     7
370
    13
100
AcDbLine
 10
271.6047426507896
 20
223.6459522429512
 30
0.0
 11
270.3834026507895
 21
224.6726022429512
 31
0.0
  0
LINE
  5
13E5
330
1F
100
AcDbEntity
  8
14000_Bottom
  6
Continuous
 62
     7
370
    13
100
AcDbLine
 10
277.8891526507896
 20
223.6844522429512
 30
0.0
 11
276.4437126507894
 21
223.0088922429512
 31
0.0
  0
LINE
  5
13E6
330
1F
100
AcDbEntity
  8
14000_Bottom
  6
Continuous
 62
     7
370
    13
100
AcDbLine
 10
276.4437126507894
 20
223.0088922429512
 30
0.0
 11
275.4192026507896
 21
224.2320322429512
 31
0.0
  0
LINE
  5
13E7
330
1F
100
AcDbEntity
  8
14000_Bottom
  6
Continuous
 62
     7
370
    13
100
AcDbLine
 10
282.6393326507897
 20
221.9555322429512
 30
0.0
 11
281.0985326507896
 21
221.5412322429512
 31
0.0
  0
LINE
  5
13E8
330
1F
100
AcDbEntity
  8
14000_Bottom
  6
Continuous
 62
     7
370
    13
100
AcDbLine
 10
281.0985326507896
 20
221.5412322429512
 30
0.0
 11
280.3019826507896
 21
222.9236922429512
 31
0.0
  0
LINE
  5
13E9
330
1F
100
AcDbEntity
  8
14000_Bottom
  6
Continuous
 62
     7
370
    13
100
AcDbLine
 10
287.0171126507896
 20
219.4280122429512
 30
0.0
 11
285.4277926507896
 21
219.2875622429512
 31
0.0
  0
LINE
  5
13EA
330
1F
100
AcDbEntity
  8
14000_Bottom
  6
Continuous
 62
     7
370
    13
100
AcDbLine
 10
285.4277926507896
 20
219.2875622429512
 30
0.0
 11
284.8834026507897
 21
220.7873422429512
 31
0.0
  0
LINE
  5
13EB
330
1F
100
AcDbEntity
  8
14000_Bottom
  6
Continuous
 62
     7
370
    13
100
AcDbLine
 10
289.2999226507896
 20
216.3163722429512
 30
0.0
 11
289.0242426507896
 21
217.8878922429512
 31
0.0
  0
LINE
  5
13EC
330
1F
100
AcDbEntity
  8
14000_Bottom
  6
Continuous
 62
     7
370
    13
100
AcDbLine
 10
296.6663226507894
 20
207.9285322429512
 30
0.0
 11
295.2197026507895
 21
208.6015622429512
 31
0.0
  0
LINE
  5
13ED
330
1F
100
AcDbEntity
  8
14000_Bottom
  6
Continuous
 62
     7
370
    13
100
AcDbLine
 10
295.2197026507895
 20
208.6015622429512
 30
0.0
 11
295.4981326507896
 21
210.1726022429512
 31
0.0
  0
LINE
  5
13EE
330
1F
100
AcDbEntity
  8
14000_Bottom
  6
Continuous
 62
     7
370
    13
100
AcDbLine
 10
298.3952526507894
 20
203.1783622429512
 30
0.0
 11
297.0874726507895
 21
204.0923722429512
 31
0.0
  0
LINE
  5
13EF
330
1F
100
AcDbEntity
  8
14000_Bottom
  6
Continuous
 62
     7
370
    13
100
AcDbLine
 10
297.0874726507895
 20
204.0923722429512
 30
0.0
 11
297.6344826507897
 21
205.5911922429512
 31
0.0
  0
LINE
  5
13F0
330
1F
100
AcDbEntity
  8
14000_Bottom
  6
Continuous
 62
     7
370
    13
100
AcDbLine
 10
299.2730426507894
 20
198.2001222429512
 30
0.0
 11
298.1438526507895
 21
199.3273422429512
 31
0.0
  0
LINE
  5
13F1
330
1F
100
AcDbEntity
  8
14000_Bottom
  6
Continuous
 62
     7
370
    13
100
AcDbLine
 10
298.1438526507895
 20
199.3273422429512
 30
0.0
 11
298.9428226507897
 21
200.7084022429512
 31
0.0
  0
LINE
  5
13F2
330
1F
100
AcDbEntity
  8
14000_Bottom
  6
Continuous
 62
     7
370
    13
100
AcDbLine
 10
299.2730426507894
 20
193.1450922429512
 30
0.0
 11
298.3567526507895
 21
194.4512622429512
 31
0.0
  0
LINE
  5
13F3
330
1F
100
AcDbEntity
  8
14000_Bottom
  6
Continuous
 62
     7
370
    13
100
AcDbLine
 10
298.3567526507895
 20
194.4512622429512
 30
0.0
 11
299.3834026507895
 21
195.6726022429512
 31
0.0
  0
LINE
  5
13F4
330
1F
100
AcDbEntity
  8
14000_Bottom
  6
Continuous
 62
     7
370
    13
100
AcDbLine
 10
297.7196926507895
 20
189.6122922429512
 30
0.0
 11
298.9428226507897
 21
190.6368122429512
 31
0.0
  0
LINE
  5
13F5
330
1F
100
AcDbEntity
  8
14000_Bottom
  6
Continuous
 62
     7
370
    13
100
AcDbLine
 10
294.1388126507895
 20
179.0388922429512
 30
0.0
 11
293.9983626507894
 21
180.6282122429512
 31
0.0
  0
LINE
  5
13F6
330
1F
100
AcDbEntity
  8
14000_Bottom
  6
Continuous
 62
     7
370
    13
100
AcDbLine
 10
293.9983626507894
 20
180.6282122429512
 30
0.0
 11
295.4981326507896
 21
181.1726022429512
 31
0.0
  0
LINE
  5
13F7
330
1F
100
AcDbEntity
  8
14000_Bottom
  6
Continuous
 62
     7
370
    13
100
AcDbLine
 10
290.8894926507894
 20
175.1665122429512
 30
0.0
 11
291.0271626507895
 21
176.7560822429512
 31
0.0
  0
LINE
  5
13F8
330
1F
100
AcDbEntity
  8
14000_Bottom
  6
Continuous
 62
     7
370
    13
100
AcDbLine
 10
291.0271626507895
 20
176.7560822429512
 30
0.0
 11
292.5986926507897
 21
177.0317622429512
 31
0.0
  0
LINE
  5
13F9
330
1F
100
AcDbEntity
  8
14000_Bottom
  6
Continuous
 62
     7
370
    13
100
AcDbLine
 10
287.0171126507896
 20
171.9171922429512
 30
0.0
 11
287.4287226507895
 21
173.4587122429512
 31
0.0
  0
LINE
  5
13FA
330
1F
100
AcDbEntity
  8
14000_Bottom
  6
Continuous
 62
     7
370
    13
100
AcDbLine
 10
287.4287226507895
 20
173.4587122429512
 30
0.0
 11
289.0242426507896
 21
173.4573122429512
 31
0.0
  0
LINE
  5
13FB
330
1F
100
AcDbEntity
  8
14000_Bottom
  6
Continuous
 62
     7
370
    13
100
AcDbLine
 10
282.6393326507897
 20
169.3896822429512
 30
0.0
 11
283.3123626507895
 21
170.8363022429512
 31
0.0
  0
LINE
  5
13FC
330
1F
100
AcDbEntity
  8
14000_Bottom
  6
Continuous
 62
     7
370
    13
100
AcDbLine
 10
283.3123626507895
 20
170.8363022429512
 30
0.0
 11
284.8834026507897
 21
170.5578722429512
 31
0.0
  0
LINE
  5
13FD
330
1F
100
AcDbEntity
  8
14000_Bottom
  6
Continuous
 62
     7
370
    13
100
AcDbLine
 10
278.8031626507895
 20
168.9685322429511
 30
0.0
 11
280.3019826507896
 21
168.4215222429511
 31
0.0
  0
LINE
  5
13FE
330
1F
100
AcDbEntity
  8
14000_Bottom
  6
Continuous
 62
     7
370
    13
100
AcDbLine
 10
267.8558826507895
 20
166.7829622429512
 30
0.0
 11
269.1620626507895
 21
167.6992522429512
 31
0.0
  0
LINE
  5
13FF
330
1F
100
AcDbEntity
  8
14000_Bottom
  6
Continuous
 62
     7
370
    13
100
AcDbLine
 10
269.1620626507895
 20
167.6992522429512
 30
0.0
 11
270.3834026507895
 21
166.6726022429511
 31
0.0
  0
LINE
  5
1400
330
1F
100
AcDbEntity
  8
14000_Bottom
  6
Continuous
 62
     7
370
    13
100
AcDbLine
 10
262.8776526507895
 20
167.6607522429512
 30
0.0
 11
264.3230926507895
 21
168.3363222429512
 31
0.0
  0
LINE
  5
1401
330
1F
100
AcDbEntity
  8
14000_Bottom
  6
Continuous
 62
     7
370
    13
100
AcDbLine
 10
264.3230926507895
 20
168.3363222429512
 30
0.0
 11
265.3476026507894
 21
167.1131822429512
 31
0.0
  0
LINE
  5
1402
330
1F
100
AcDbEntity
  8
14000_Bottom
  6
Continuous
 62
     7
370
    13
100
AcDbLine
 10
258.1274726507895
 20
169.3896822429512
 30
0.0
 11
259.6682626507895
 21
169.8039822429512
 31
0.0
  0
LINE
  5
1403
330
1F
100
AcDbEntity
  8
14000_Bottom
  6
Continuous
 62
     7
370
    13
100
AcDbLine
 10
259.6682626507895
 20
169.8039822429512
 30
0.0
 11
260.4648126507896
 21
168.4215222429511
 31
0.0
  0
LINE
  5
1404
330
1F
100
AcDbEntity
  8
14000_Bottom
  6
Continuous
 62
     7
370
    13
100
AcDbLine
 10
253.7496826507895
 20
171.9171922429512
 30
0.0
 11
255.3390126507895
 21
172.0576422429512
 31
0.0
  0
LINE
  5
1405
330
1F
100
AcDbEntity
  8
14000_Bottom
  6
Continuous
 62
     7
370
    13
100
AcDbLine
 10
255.3390126507895
 20
172.0576422429512
 30
0.0
 11
255.8834026507895
 21
170.5578722429512
 31
0.0
  0
LINE
  5
1406
330
1F
100
AcDbEntity
  8
14000_Bottom
  6
Continuous
 62
     7
370
    13
100
AcDbLine
 10
251.4668726507896
 20
175.0288422429512
 30
0.0
 11
251.7425626507895
 21
173.4573122429512
 31
0.0
  0
LINE
  5
1407
330
1F
100
AcDbEntity
  8
14000_Bottom
  6
Continuous
 62
     7
370
    13
100
AcDbLine
 10
244.1004726507895
 20
183.4166722429512
 30
0.0
 11
245.5470926507895
 21
182.7436422429512
 31
0.0
  0
LINE
  5
1408
330
1F
100
AcDbEntity
  8
14000_Bottom
  6
Continuous
 62
     7
370
    13
100
AcDbLine
 10
245.5470926507895
 20
182.7436422429512
 30
0.0
 11
245.2686626507896
 21
181.1726022429512
 31
0.0
  0
LINE
  5
1409
330
1F
100
AcDbEntity
  8
14000_Bottom
  6
Continuous
 62
     7
370
    13
100
AcDbLine
 10
242.3715526507895
 20
188.1668522429512
 30
0.0
 11
243.6793226507896
 21
187.2528422429512
 31
0.0
  0
LINE
  5
140A
330
1F
100
AcDbEntity
  8
14000_Bottom
  6
Continuous
 62
     7
370
    13
100
AcDbLine
 10
243.6793226507896
 20
187.2528422429512
 30
0.0
 11
243.1323126507896
 21
185.7540222429512
 31
0.0
  0
LINE
  5
140B
330
1F
100
AcDbEntity
  8
14000_Bottom
  6
Continuous
 62
     7
370
    13
100
AcDbLine
 10
241.4937526507895
 20
193.1450922429512
 30
0.0
 11
242.6229426507896
 21
192.0178722429512
 31
0.0
  0
LINE
  5
140C
330
1F
100
AcDbEntity
  8
14000_Bottom
  6
Continuous
 62
     7
370
    13
100
AcDbLine
 10
242.6229426507896
 20
192.0178722429512
 30
0.0
 11
241.8239726507895
 21
190.6368122429512
 31
0.0
  0
LINE
  5
140D
330
1F
100
AcDbEntity
  8
14000_Bottom
  6
Continuous
 62
     7
370
    13
100
AcDbLine
 10
241.4937526507895
 20
198.2001222429512
 30
0.0
 11
242.4100526507896
 21
196.8939522429512
 31
0.0
  0
LINE
  5
140E
330
1F
100
AcDbEntity
  8
14000_Bottom
  6
Continuous
 62
     7
370
    13
100
AcDbLine
 10
242.4100526507896
 20
196.8939522429512
 30
0.0
 11
241.3834026507895
 21
195.6726022429512
 31
0.0
  0
LINE
  5
140F
330
1F
100
AcDbEntity
  8
14000_Bottom
  6
Continuous
 62
     7
370
    13
100
AcDbLine
 10
243.0471126507895
 20
201.7329122429512
 30
0.0
 11
241.8239726507895
 21
200.7084022429512
 31
0.0
  0
CIRCLE
  5
1411
102
{ACAD_REACTORS
330
2C8D
102
}
330
1F
100
AcDbEntity
  8
14000_Bottom
  6
Continuous
 62
     7
370
    13
100
AcDbCircle
 10
253.3834026507896
 20
195.6726022429512
 30
0.0
 40
2.75
  0
CIRCLE
  5
1412
102
{ACAD_REACTORS
330
2C8D
102
}
330
1F
100
AcDbEntity
  8
14000_Bottom
  6
Continuous
 62
     7
370
    13
100
AcDbCircle
 10
287.3834026507895
 20
195.6726022429512
 30
0.0
 40
2.75
  0
CIRCLE
  5
1413
330
1F
100
AcDbEntity
  8
14000_Bottom
  6
Continuous
 62
     7
370
    13
100
AcDbCircle
 10
251.0648826507895
 20
200.8489822429512
 30
0.0
 40
2.0
  0
CIRCLE
  5
1414
330
1F
100
AcDbEntity
  8
14000_Bottom
  6
Continuous
 62
     7
370
    13
100
AcDbCircle
 10
270.3834026507895
 20
195.6726022429512
 30
0.0
 40
23.0
  0
ARC
  5
1415
330
1F
100
AcDbEntity
  8
14000_Bottom
  6
Continuous
 62
     7
370
    13
100
AcDbCircle
 10
270.3834026507895
 20
195.6726022429512
 30
0.0
 40
24.0
100
AcDbArc
 50
272.0
 51
286.0
  0
ARC
  5
1416
330
1F
100
AcDbEntity
  8
14000_Bottom
  6
Continuous
 62
     7
370
    13
100
AcDbCircle
 10
270.3834026507895
 20
195.6726022429512
 30
0.0
 40
24.0
100
AcDbArc
 50
212.0
 51
226.0
  0
ARC
  5
1417
330
1F
100
AcDbEntity
  8
14000_Bottom
  6
Continuous
 62
     7
370
    13
100
AcDbCircle
 10
270.3834026507895
 20
195.6726022429512
 30
0.0
 40
24.0
100
AcDbArc
 50
152.0
 51
165.9999999999999
  0
ARC
  5
1418
330
1F
100
AcDbEntity
  8
14000_Bottom
  6
Continuous
 62
     7
370
    13
100
AcDbCircle
 10
270.3834026507895
 20
195.6726022429512
 30
0.0
 40
24.0
100
AcDbArc
 50
91.99999999999995
 51
106.0
  0
ARC
  5
1419
330
1F
100
AcDbEntity
  8
14000_Bottom
  6
Continuous
 62
     7
370
    13
100
AcDbCircle
 10
270.3834026507895
 20
195.6726022429512
 30
0.0
 40
24.0
100
AcDbArc
 50
31.99999999999999
 51
45.99999999999999
  0
ARC
  5
141A
330
1F
100
AcDbEntity
  8
14000_Bottom
  6
Continuous
 62
     7
370
    13
100
AcDbCircle
 10
270.3834026507895
 20
195.6726022429512
 30
0.0
 40
24.0
100
AcDbArc
 50
331.9999999999999
 51
346.0
  0
LINE
  5
141B
330
1F
100
AcDbEntity
  8
14000_Bottom
  6
Continuous
 62
     7
370
    13
100
AcDbLine
 10
278.2624926507895
 20
168.1949422429512
 30
0.0
 11
276.9986926507895
 21
172.6023222429512
 31
0.0
  0
LINE
  5
141C
330
1F
100
AcDbEntity
  8
14000_Bottom
  6
Continuous
 62
     7
370
    13
100
AcDbLine
 10
250.5265926507895
 20
175.1102722429512
 30
0.0
 11
253.7116026507895
 21
178.4084522429512
 31
0.0
  0
LINE
  5
141D
330
1F
100
AcDbEntity
  8
14000_Bottom
  6
Continuous
 62
     7
370
    13
100
AcDbLine
 10
242.6474926507895
 20
202.5879422429512
 30
0.0
 11
247.0963026507895
 21
201.4787322429512
 31
0.0
  0
LINE
  5
141E
330
1F
100
AcDbEntity
  8
14000_Bottom
  6
Continuous
 62
     7
370
    13
100
AcDbLine
 10
262.5043026507894
 20
223.1502722429512
 30
0.0
 11
263.7681026507896
 21
218.7428822429512
 31
0.0
  0
LINE
  5
141F
330
1F
100
AcDbEntity
  8
14000_Bottom
  6
Continuous
 62
     7
370
    13
100
AcDbLine
 10
290.2402126507896
 20
216.2349322429512
 30
0.0
 11
287.0552026507896
 21
212.9367622429512
 31
0.0
  0
LINE
  5
1420
330
1F
100
AcDbEntity
  8
14000_Bottom
  6
Continuous
 62
     7
370
    13
100
AcDbLine
 10
298.1193026507895
 20
188.7572722429512
 30
0.0
 11
293.6705026507896
 21
189.8664822429512
 31
0.0
  0
LINE
  5
1421
330
1F
100
AcDbEntity
  8
14000_Bottom
  6
Continuous
 62
     7
370
    13
100
AcDbLine
 10
244.5147726507895
 20
206.3877422429512
 30
0.0
 11
243.1323126507896
 21
205.5911922429512
 31
0.0
  0
LINE
  5
1422
330
1F
100
AcDbEntity
  8
14000_Bottom
  6
Continuous
 62
     7
370
    13
100
AcDbLine
 10
245.2686626507896
 20
210.1726022429512
 30
0.0
 11
245.5470926507895
 21
208.6015622429512
 31
0.0
  0
LINE
  5
1423
330
1F
100
AcDbEntity
  8
14000_Bottom
  6
Continuous
 62
     7
370
    13
100
AcDbLine
 10
244.1004726507895
 20
207.9285322429512
 30
0.0
 11
244.5147726507895
 21
206.3877422429512
 31
0.0
  0
LINE
  5
1424
330
1F
100
AcDbEntity
  8
14000_Bottom
  6
Continuous
 62
     7
370
    13
100
AcDbLine
 10
245.5470926507895
 20
208.6015622429512
 30
0.0
 11
244.1004726507895
 21
207.9285322429512
 31
0.0
  0
LINE
  5
1425
330
1F
100
AcDbEntity
  8
14000_Bottom
  6
Continuous
 62
     7
370
    13
100
AcDbLine
 10
242.3715526507895
 20
203.1783622429512
 30
0.0
 11
243.0471126507895
 21
201.7329122429512
 31
0.0
  0
LINE
  5
1426
330
1F
100
AcDbEntity
  8
14000_Bottom
  6
Continuous
 62
     7
370
    13
100
AcDbLine
 10
248.1695026507896
 20
178.6272822429512
 30
0.0
 11
248.1681126507894
 21
177.0317622429512
 31
0.0
  0
LINE
  5
1427
330
1F
100
AcDbEntity
  8
14000_Bottom
  6
Continuous
 62
     7
370
    13
100
AcDbLine
 10
246.6279926507896
 20
179.0388922429512
 30
0.0
 11
248.1695026507896
 21
178.6272822429512
 31
0.0
  0
LINE
  5
1428
330
1F
100
AcDbEntity
  8
14000_Bottom
  6
Continuous
 62
     7
370
    13
100
AcDbLine
 10
249.8773026507895
 20
175.1665122429512
 30
0.0
 11
251.4668726507896
 21
175.0288422429512
 31
0.0
  0
LINE
  5
1429
330
1F
100
AcDbEntity
  8
14000_Bottom
  6
Continuous
 62
     7
370
    13
100
AcDbLine
 10
274.0381326507895
 20
167.9121522429511
 30
0.0
 11
275.4192026507896
 21
167.1131822429512
 31
0.0
  0
LINE
  5
142A
330
1F
100
AcDbEntity
  8
14000_Bottom
  6
Continuous
 62
     7
370
    13
100
AcDbLine
 10
272.9109126507895
 20
166.7829622429512
 30
0.0
 11
274.0381326507895
 21
167.9121522429511
 31
0.0
  0
LINE
  5
142B
330
1F
100
AcDbEntity
  8
14000_Bottom
  6
Continuous
 62
     7
370
    13
100
AcDbLine
 10
277.8891526507896
 20
167.6607522429512
 30
0.0
 11
278.8031626507895
 21
168.9685322429511
 31
0.0
  0
LINE
  5
142C
330
1F
100
AcDbEntity
  8
14000_Bottom
  6
Continuous
 62
     7
370
    13
100
AcDbLine
 10
296.2520226507895
 20
184.9574722429512
 30
0.0
 11
297.6344826507897
 21
185.7540222429512
 31
0.0
  0
LINE
  5
142D
330
1F
100
AcDbEntity
  8
14000_Bottom
  6
Continuous
 62
     7
370
    13
100
AcDbLine
 10
296.6663226507894
 20
183.4166722429512
 30
0.0
 11
296.2520226507895
 21
184.9574722429512
 31
0.0
  0
LINE
  5
142E
330
1F
100
AcDbEntity
  8
14000_Bottom
  6
Continuous
 62
     7
370
    13
100
AcDbLine
 10
298.3952526507894
 20
188.1668522429512
 30
0.0
 11
297.7196926507895
 21
189.6122922429512
 31
0.0
  0
LINE
  5
142F
330
1F
100
AcDbEntity
  8
14000_Bottom
  6
Continuous
 62
     7
370
    13
100
AcDbLine
 10
292.5972926507895
 20
212.7179222429512
 30
0.0
 11
292.5986926507897
 21
214.3134422429512
 31
0.0
  0
LINE
  5
1430
330
1F
100
AcDbEntity
  8
14000_Bottom
  6
Continuous
 62
     7
370
    13
100
AcDbLine
 10
294.1388126507895
 20
212.3063222429512
 30
0.0
 11
292.5972926507895
 21
212.7179222429512
 31
0.0
  0
LINE
  5
1431
330
1F
100
AcDbEntity
  8
14000_Bottom
  6
Continuous
 62
     7
370
    13
100
AcDbLine
 10
290.8894926507894
 20
216.1787022429512
 30
0.0
 11
289.2999226507896
 21
216.3163722429512
 31
0.0
  0
LINE
  5
1432
330
1F
100
AcDbEntity
  8
14000_Bottom
  6
Continuous
 62
     7
370
    13
100
AcDbLine
 10
266.7286626507896
 20
223.4330622429512
 30
0.0
 11
265.3476026507894
 21
224.2320322429512
 31
0.0
  0
LINE
  5
1433
330
1F
100
AcDbEntity
  8
14000_Bottom
  6
Continuous
 62
     7
370
    13
100
AcDbLine
 10
267.8558826507895
 20
224.5622522429512
 30
0.0
 11
266.7286626507896
 21
223.4330622429512
 31
0.0
  0
LINE
  5
1434
330
1F
100
AcDbEntity
  8
14000_Bottom
  6
Continuous
 62
     7
370
    13
100
AcDbLine
 10
262.8776526507895
 20
223.6844522429512
 30
0.0
 11
261.9636426507895
 21
222.3766822429512
 31
0.0
  0
LINE
  5
1435
330
1F
100
AcDbEntity
  8
14000_Bottom
  6
Continuous
 62
     7
370
    13
100
AcDbLine
 10
265.3476026507894
 20
224.2320322429512
 30
0.0
 11
264.3230926507895
 21
223.0088922429512
 31
0.0
  0
LINE
  5
1436
330
1F
100
AcDbEntity
  8
14000_Bottom
  6
Continuous
 62
     7
370
    13
100
AcDbLine
 10
264.3230926507895
 20
223.0088922429512
 30
0.0
 11
262.8776526507895
 21
223.6844522429512
 31
0.0
  0
LINE
  5
1437
330
1F
100
AcDbEntity
  8
14000_Bottom
  6
Continuous
 62
     7
370
    13
100
AcDbLine
 10
270.3834026507895
 20
224.6726022429512
 30
0.0
 11
269.1620626507895
 21
223.6459522429512
 31
0.0
  0
LINE
  5
1438
330
1F
100
AcDbEntity
  8
14000_Bottom
  6
Continuous
 62
     7
370
    13
100
AcDbLine
 10
269.1620626507895
 20
223.6459522429512
 30
0.0
 11
267.8558826507895
 21
224.5622522429512
 31
0.0
  0
LINE
  5
1439
330
1F
100
AcDbEntity
  8
14000_Bottom
  6
Continuous
 62
     7
370
    13
100
AcDbLine
 10
292.5986926507897
 20
214.3134422429512
 30
0.0
 11
291.0271626507895
 21
214.5891322429512
 31
0.0
  0
LINE
  5
143A
330
1F
100
AcDbEntity
  8
14000_Bottom
  6
Continuous
 62
     7
370
    13
100
AcDbLine
 10
291.0271626507895
 20
214.5891322429512
 30
0.0
 11
290.8894926507894
 21
216.1787022429512
 31
0.0
  0
LINE
  5
143B
330
1F
100
AcDbEntity
  8
14000_Bottom
  6
Continuous
 62
     7
370
    13
100
AcDbLine
 10
295.4981326507896
 20
210.1726022429512
 30
0.0
 11
293.9983626507894
 21
210.7169922429512
 31
0.0
  0
LINE
  5
143C
330
1F
100
AcDbEntity
  8
14000_Bottom
  6
Continuous
 62
     7
370
    13
100
AcDbLine
 10
293.9983626507894
 20
210.7169922429512
 30
0.0
 11
294.1388126507895
 21
212.3063222429512
 31
0.0
  0
LINE
  5
143D
330
1F
100
AcDbEntity
  8
14000_Bottom
  6
Continuous
 62
     7
370
    13
100
AcDbLine
 10
297.6344826507897
 20
185.7540222429512
 30
0.0
 11
297.0874726507895
 21
187.2528422429512
 31
0.0
  0
LINE
  5
143E
330
1F
100
AcDbEntity
  8
14000_Bottom
  6
Continuous
 62
     7
370
    13
100
AcDbLine
 10
297.0874726507895
 20
187.2528422429512
 30
0.0
 11
298.3952526507894
 21
188.1668522429512
 31
0.0
  0
LINE
  5
143F
330
1F
100
AcDbEntity
  8
14000_Bottom
  6
Continuous
 62
     7
370
    13
100
AcDbLine
 10
295.4981326507896
 20
181.1726022429512
 30
0.0
 11
295.2197026507895
 21
182.7436422429512
 31
0.0
  0
LINE
  5
1440
330
1F
100
AcDbEntity
  8
14000_Bottom
  6
Continuous
 62
     7
370
    13
100
AcDbLine
 10
295.2197026507895
 20
182.7436422429512
 30
0.0
 11
296.6663226507894
 21
183.4166722429512
 31
0.0
  0
LINE
  5
1441
330
1F
100
AcDbEntity
  8
14000_Bottom
  6
Continuous
 62
     7
370
    13
100
AcDbLine
 10
275.4192026507896
 20
167.1131822429512
 30
0.0
 11
276.4437126507894
 21
168.3363222429512
 31
0.0
  0
LINE
  5
1442
330
1F
100
AcDbEntity
  8
14000_Bottom
  6
Continuous
 62
     7
370
    13
100
AcDbLine
 10
276.4437126507894
 20
168.3363222429512
 30
0.0
 11
277.8891526507896
 21
167.6607522429512
 31
0.0
  0
LINE
  5
1443
330
1F
100
AcDbEntity
  8
14000_Bottom
  6
Continuous
 62
     7
370
    13
100
AcDbLine
 10
270.3834026507895
 20
166.6726022429511
 30
0.0
 11
271.6047426507896
 21
167.6992522429512
 31
0.0
  0
LINE
  5
1444
330
1F
100
AcDbEntity
  8
14000_Bottom
  6
Continuous
 62
     7
370
    13
100
AcDbLine
 10
271.6047426507896
 20
167.6992522429512
 30
0.0
 11
272.9109126507895
 21
166.7829622429512
 31
0.0
  0
LINE
  5
1445
330
1F
100
AcDbEntity
  8
14000_Bottom
  6
Continuous
 62
     7
370
    13
100
AcDbLine
 10
248.1681126507894
 20
177.0317622429512
 30
0.0
 11
249.7396326507896
 21
176.7560822429512
 31
0.0
  0
LINE
  5
1446
330
1F
100
AcDbEntity
  8
14000_Bottom
  6
Continuous
 62
     7
370
    13
100
AcDbLine
 10
249.7396326507896
 20
176.7560822429512
 30
0.0
 11
249.8773026507895
 21
175.1665122429512
 31
0.0
  0
LINE
  5
1447
330
1F
100
AcDbEntity
  8
14000_Bottom
  6
Continuous
 62
     7
370
    13
100
AcDbLine
 10
245.2686626507896
 20
181.1726022429512
 30
0.0
 11
246.7684426507894
 21
180.6282122429512
 31
0.0
  0
LINE
  5
1448
330
1F
100
AcDbEntity
  8
14000_Bottom
  6
Continuous
 62
     7
370
    13
100
AcDbLine
 10
246.7684426507894
 20
180.6282122429512
 30
0.0
 11
246.6279926507896
 21
179.0388922429512
 31
0.0
  0
LINE
  5
1449
330
1F
100
AcDbEntity
  8
14000_Bottom
  6
Continuous
 62
     7
370
    13
100
AcDbLine
 10
243.1323126507896
 20
205.5911922429512
 30
0.0
 11
243.6793226507896
 21
204.0923722429512
 31
0.0
  0
LINE
  5
144A
330
1F
100
AcDbEntity
  8
14000_Bottom
  6
Continuous
 62
     7
370
    13
100
AcDbLine
 10
243.6793226507896
 20
204.0923722429512
 30
0.0
 11
242.3715526507895
 21
203.1783622429512
 31
0.0
  0
CIRCLE
  5
144B
330
1F
100
AcDbEntity
  8
14000_Bottom
  6
Continuous
 62
     7
370
    13
100
AcDbCircle
 10
287.3834026507895
 20
195.6726022429512
 30
0.0
 40
2.25
  0
CIRCLE
  5
144C
102
{ACAD_REACTORS
330
2CA8
102
}
330
1F
100
AcDbEntity
  8
14000_Bottom
  6
Continuous
 62
     7
370
    13
100
AcDbCircle
 10
253.3834026507896
 20
195.6726022429512
 30
0.0
 40
2.25
  0
CIRCLE
  5
1617
330
1F
100
AcDbEntity
  8
14000_Bottom
  6
Continuous
 62
     7
370
    13
100
AcDbCircle
 10
270.3834026507895
 20
195.6726022429512
 30
0.0
 40
32.0
  0
CIRCLE
  5
1618
330
1F
100
AcDbEntity
  8
14000_Bottom
  6
Continuous
 62
     7
370
    50
100
AcDbCircle
 10
270.3834026507895
 20
195.6726022429512
 30
0.0
 40
35.0
  0
CIRCLE
  5
16A4
102
{ACAD_REACTORS
330
2C75
102
}
330
1F
100
AcDbEntity
  8
13000_Top
  6
Continuous
 62
     7
370
    13
100
AcDbCircle
 10
95.85010025013479
 20
195.6726022429512
 30
0.0
 40
32.0
  0
ARC
  5
177C
330
1F
100
AcDbEntity
  8
10000_Front
  6
Continuous
 62
     7
370
    13
100
AcDbCircle
 10
161.2338166809583
 20
177.8001610721672
 30
0.0
 40
2.207410960490635
100
AcDbArc
 50
68.35896258734374
 51
130.579556418497
  0
ARC
  5
177D
330
1F
100
AcDbEntity
  8
10000_Front
  6
Continuous
 62
     7
370
    13
100
AcDbCircle
 10
163.5478886507721
 20
177.9875636409054
 30
0.0
 40
2.115665007215665
100
AcDbArc
 50
61.79259762993412
 51
118.207402370068
  0
ARC
  5
177E
330
1F
100
AcDbEntity
  8
10000_Front
  6
Continuous
 62
     7
370
    13
100
AcDbCircle
 10
165.51880528404
 20
179.392941137059
 30
0.0
 40
0.657629611951696
100
AcDbArc
 50
87.46529384510131
 51
135.7319315038191
  0
LINE
  5
177F
330
1F
100
AcDbEntity
  8
10000_Front
  6
ACAD_ISO10W100
 62
     7
370
     9
100
AcDbLine
 10
214.6042339007721
 20
160.3826825850079
 30
0.0
 11
215.0478834007721
 21
160.8263320850079
 31
0.0
  0
LINE
  5
1780
330
1F
100
AcDbEntity
  8
10000_Front
  6
ACAD_ISO10W100
 62
     7
370
     9
100
AcDbLine
 10
211.775806750772
 20
160.3826825850079
 30
0.0
 11
214.7758061177722
 21
163.3826819350079
 31
0.0
  0
LINE
  5
1781
330
1F
100
AcDbEntity
  8
10000_Front
  6
ACAD_ISO10W100
 62
     7
370
     9
100
AcDbLine
 10
208.9473796507721
 20
160.3826825850079
 30
0.0
 11
211.9473789507722
 21
163.3826819350079
 31
0.0
  0
LINE
  5
1782
330
1F
100
AcDbEntity
  8
10000_Front
  6
ACAD_ISO10W100
 62
     7
370
     9
100
AcDbLine
 10
206.1189525507721
 20
160.3826825850079
 30
0.0
 11
209.1189518507722
 21
163.3826819350079
 31
0.0
  0
LINE
  5
1783
330
1F
100
AcDbEntity
  8
10000_Front
  6
ACAD_ISO10W100
 62
     7
370
     9
100
AcDbLine
 10
203.2905256507721
 20
160.3826825850079
 30
0.0
 11
206.2905247507722
 21
163.3826819350079
 31
0.0
  0
LINE
  5
1784
330
1F
100
AcDbEntity
  8
10000_Front
  6
ACAD_ISO10W100
 62
     7
370
     9
100
AcDbLine
 10
202.1142676507722
 20
162.0348518350079
 30
0.0
 11
205.0478833507721
 21
164.9684677350079
 31
0.0
  0
LINE
  5
1785
330
1F
100
AcDbEntity
  8
10000_Front
  6
ACAD_ISO10W100
 62
     7
370
     9
100
AcDbLine
 10
199.4736196507721
 20
162.2226306350079
 30
0.0
 11
203.6336696507722
 21
166.3826813350079
 31
0.0
  0
LINE
  5
1786
330
1F
100
AcDbEntity
  8
10000_Front
  6
ACAD_ISO10W100
 62
     7
370
     9
100
AcDbLine
 10
196.8020816507721
 20
162.3795200350079
 30
0.0
 11
200.8052426507721
 21
166.3826813350079
 31
0.0
  0
LINE
  5
1787
330
1F
100
AcDbEntity
  8
10000_Front
  6
ACAD_ISO10W100
 62
     7
370
     9
100
AcDbLine
 10
194.0988396507721
 20
162.5047054350079
 30
0.0
 11
197.9768156507721
 21
166.3826814350079
 31
0.0
  0
LINE
  5
1788
330
1F
100
AcDbEntity
  8
10000_Front
  6
ACAD_ISO10W100
 62
     7
370
     9
100
AcDbLine
 10
191.3590386507721
 20
162.5933318350079
 30
0.0
 11
195.1483886507721
 21
166.3826815350079
 31
0.0
  0
LINE
  5
1789
330
1F
100
AcDbEntity
  8
10000_Front
  6
ACAD_ISO10W100
 62
     7
370
     9
100
AcDbLine
 10
188.569767650772
 20
162.6324871350079
 30
0.0
 11
192.3199616507721
 21
166.3826815350079
 31
0.0
  0
LINE
  5
178A
330
1F
100
AcDbEntity
  8
10000_Front
  6
ACAD_ISO10W100
 62
     7
370
     9
100
AcDbLine
 10
185.688864650772
 20
162.5800117350079
 30
0.0
 11
189.4915346507721
 21
166.3826816350079
 31
0.0
  0
LINE
  5
178B
330
1F
100
AcDbEntity
  8
10000_Front
  6
ACAD_ISO10W100
 62
     7
370
     9
100
AcDbLine
 10
182.4131076507721
 20
162.1326823350079
 30
0.0
 11
186.6631076507721
 21
166.3826817350079
 31
0.0
  0
LINE
  5
178C
330
1F
100
AcDbEntity
  8
10000_Front
  6
ACAD_ISO10W100
 62
     7
370
     9
100
AcDbLine
 10
179.5846806507721
 20
162.1326822350079
 30
0.0
 11
183.8346806507721
 21
166.3826817350079
 31
0.0
  0
LINE
  5
178D
330
1F
100
AcDbEntity
  8
10000_Front
  6
ACAD_ISO10W100
 62
     7
370
     9
100
AcDbLine
 10
176.9107056507721
 20
162.2871344350079
 30
0.0
 11
181.0062536507721
 21
166.3826818350079
 31
0.0
  0
LINE
  5
178E
330
1F
100
AcDbEntity
  8
10000_Front
  6
ACAD_ISO10W100
 62
     7
370
     9
100
AcDbLine
 10
174.2271546507721
 20
162.4320100350079
 30
0.0
 11
178.1778266507721
 21
166.3826819350079
 31
0.0
  0
LINE
  5
178F
330
1F
100
AcDbEntity
  8
10000_Front
  6
ACAD_ISO10W100
 62
     7
370
     9
100
AcDbLine
 10
172.8216246507721
 20
163.8549072350079
 30
0.0
 11
175.349399650772
 21
166.3826819350079
 31
0.0
  0
LINE
  5
1794
330
1F
100
AcDbEntity
  8
10000_Front
  6
ACAD_ISO10W100
 62
     7
370
     9
100
AcDbLine
 10
212.7758100507722
 20
227.3826887350079
 30
0.0
 11
215.0478872507722
 21
229.6547659350079
 31
0.0
  0
LINE
  5
1795
330
1F
100
AcDbEntity
  8
10000_Front
  6
ACAD_ISO10W100
 62
     7
370
     9
100
AcDbLine
 10
209.9473828507721
 20
227.3826887350079
 30
0.0
 11
212.9473822307722
 21
230.3826880350079
 31
0.0
  0
LINE
  5
1796
330
1F
100
AcDbEntity
  8
10000_Front
  6
Continuous
 62
     7
370
    13
100
AcDbLine
 10
204.1189564507722
 20
224.3826893350079
 30
0.0
 11
205.0478872507722
 21
225.3116202350079
 31
0.0
  0
LINE
  5
1797
330
1F
100
AcDbEntity
  8
10000_Front
  6
ACAD_ISO10W100
 62
     7
370
     9
100
AcDbLine
 10
207.1189557507721
 20
227.3826887350079
 30
0.0
 11
210.1189551507722
 21
230.3826880350079
 31
0.0
  0
LINE
  5
1798
330
1F
100
AcDbEntity
  8
10000_Front
  6
ACAD_ISO10W100
 62
     7
370
     9
100
AcDbLine
 10
201.2905296507721
 20
224.3826893350079
 30
0.0
 11
207.2905279507721
 21
230.3826880350079
 31
0.0
  0
LINE
  5
1799
330
1F
100
AcDbEntity
  8
10000_Front
  6
ACAD_ISO10W100
 62
     7
370
     9
100
AcDbLine
 10
198.4621026507721
 20
224.3826893350079
 30
0.0
 11
204.4621008507721
 21
230.3826880350079
 31
0.0
  0
LINE
  5
179A
330
1F
100
AcDbEntity
  8
10000_Front
  6
ACAD_ISO10W100
 62
     7
370
     9
100
AcDbLine
 10
195.6336746507721
 20
224.3826893350079
 30
0.0
 11
199.8836736507721
 21
228.6326884250079
 31
0.0
  0
LINE
  5
179B
330
1F
100
AcDbEntity
  8
10000_Front
  6
ACAD_ISO10W100
 62
     7
370
     9
100
AcDbLine
 10
192.8052476507721
 20
224.3826893350079
 30
0.0
 11
196.8307646507721
 21
228.4082060950079
 31
0.0
  0
LINE
  5
179C
330
1F
100
AcDbEntity
  8
10000_Front
  6
Continuous
 62
     7
370
    50
100
AcDbLine
 10
197.0223666507721
 20
228.5998076790078
 30
0.0
 11
197.0552466507721
 21
228.6326884250079
 31
0.0
  0
LINE
  5
179D
330
1F
100
AcDbEntity
  8
10000_Front
  6
ACAD_ISO10W100
 62
     7
370
     9
100
AcDbLine
 10
189.9768206507721
 20
224.3826893350079
 30
0.0
 11
193.7419746507721
 21
228.1478428150079
 31
0.0
  0
LINE
  5
179E
330
1F
100
AcDbEntity
  8
10000_Front
  6
ACAD_ISO10W100
 62
     7
370
     9
100
AcDbLine
 10
187.1483936507721
 20
224.3826893350079
 30
0.0
 11
190.9064186507721
 21
228.1407145750079
 31
0.0
  0
LINE
  5
179F
330
1F
100
AcDbEntity
  8
10000_Front
  6
ACAD_ISO10W100
 62
     7
370
     9
100
AcDbLine
 10
184.3199666507721
 20
224.3826893350079
 30
0.0
 11
188.1387976507721
 21
228.2015208550078
 31
0.0
  0
LINE
  5
17A0
330
1F
100
AcDbEntity
  8
10000_Front
  6
ACAD_ISO10W100
 62
     7
370
     9
100
AcDbLine
 10
181.4915396507722
 20
224.3826893350079
 30
0.0
 11
185.4141146507721
 21
228.3052648450079
 31
0.0
  0
LINE
  5
17A1
330
1F
100
AcDbEntity
  8
10000_Front
  6
ACAD_ISO10W100
 62
     7
370
     9
100
AcDbLine
 10
178.6631126507721
 20
224.3826893350079
 30
0.0
 11
182.7234936507722
 21
228.4430705290079
 31
0.0
  0
LINE
  5
17A2
330
1F
100
AcDbEntity
  8
10000_Front
  6
ACAD_ISO10W100
 62
     7
370
     9
100
AcDbLine
 10
175.8346856507721
 20
224.3826893350079
 30
0.0
 11
180.0638526507721
 21
228.6118570650078
 31
0.0
  0
LINE
  5
17A3
330
1F
100
AcDbEntity
  8
10000_Front
  6
ACAD_ISO10W100
 62
     7
370
     9
100
AcDbLine
 10
173.5532436507722
 20
224.9296747350079
 30
0.0
 11
177.2562566507721
 21
228.6326884250079
 31
0.0
  0
LINE
  5
17A5
330
1F
100
AcDbEntity
  8
14000_Bottom
  6
Continuous
 62
     7
370
    13
100
AcDbLine
 10
249.7396326507896
 20
214.5891322429512
 30
0.0
 11
249.8773026507895
 21
216.1787022429512
 31
0.0
  0
LINE
  5
17A6
330
1F
100
AcDbEntity
  8
10000_Front
  6
Continuous
 62
     7
370
    13
100
AcDbLine
 10
191.7780886507721
 20
202.6937673350079
 30
0.0
 11
192.2780886507721
 21
202.6937673350079
 31
0.0
  0
TEXT
  5
17A7
330
1F
100
AcDbEntity
  8
10000_Front
  6
Continuous
 62
     7
370
    13
100
AcDbText
 10
191.3762486507721
 20
176.3799173350079
 30
0.0
 40
1.5
  1
24V
 50
90.0
 41
0.8100000000000001
100
AcDbText
  0
TEXT
  5
17A8
330
1F
100
AcDbEntity
  8
10000_Front
  6
Continuous
 62
     7
370
    13
100
AcDbText
 10
193.6262486507721
 20
176.3799173350079
 30
0.0
 40
1.5
  1
UC
 50
90.0
 41
0.8100000000000001
100
AcDbText
  0
LINE
  5
2BFE
330
1F
100
AcDbEntity
  8
90000_FRAME
  6
Continuous
 62
     7
100
AcDbLine
 10
316.4444837220524
 20
283.6397225845828
 30
0.0
 11
46.44448372205238
 21
283.6397225845828
 31
0.0
  0
INSERT
  5
2BFF
330
1F
100
AcDbEntity
  8
90000_FRAME
  6
Continuous
 62
     7
100
AcDbBlockReference
  2
SIEMENS_OUTLINE_BL0
 10
109.0903811059734
 20
78.3014633569795
 30
0.0
  0
LINE
  5
2C00
330
1F
100
AcDbEntity
  8
90000_FRAME
  6
Continuous
 62
     7
100
AcDbLine
 10
176.4444837220525
 20
88.6397225845828
 30
0.0
 11
311.4444837220524
 21
88.6397225845828
 31
0.0
  0
LINE
  5
2C01
330
1F
100
AcDbEntity
  8
90000_FRAME
  6
Continuous
 62
     7
100
AcDbLine
 10
176.4444837220525
 20
88.6397225845828
 30
0.0
 11
176.4444837220525
 21
106.6397225845828
 31
0.0
  0
LINE
  5
2C02
330
1F
100
AcDbEntity
  8
90000_FRAME
  6
Continuous
 62
     7
100
AcDbLine
 10
226.4444837220524
 20
94.63972258458278
 30
0.0
 11
311.4444837220524
 21
94.63972258458278
 31
0.0
  0
LINE
  5
2C03
330
1F
100
AcDbEntity
  8
90000_FRAME
  6
Continuous
 62
     7
100
AcDbLine
 10
176.4444837220525
 20
106.6397225845828
 30
0.0
 11
311.4444837220524
 21
106.6397225845828
 31
0.0
  0
LINE
  5
2C04
330
1F
100
AcDbEntity
  8
90000_FRAME
  6
Continuous
 62
     7
100
AcDbLine
 10
226.4444837220524
 20
88.6397225845828
 30
0.0
 11
226.4444837220524
 21
106.6397225845828
 31
0.0
  0
LINE
  5
2C05
330
1F
100
AcDbEntity
  8
90000_FRAME
  6
Continuous
 62
     7
100
AcDbLine
 10
268.9444837220526
 20
88.6397225845828
 30
0.0
 11
268.9444837220526
 21
94.63972258458278
 31
0.0
  0
LINE
  5
2C06
330
1F
100
AcDbEntity
  8
90000_FRAME
  6
Continuous
 62
     7
100
AcDbLine
 10
311.4444837220524
 20
88.6397225845828
 30
0.0
 11
311.4444837220524
 21
106.6397225845828
 31
0.0
  0
TEXT
  5
2C07
330
1F
100
AcDbEntity
  8
90000_FRAME
  6
Continuous
 62
     7
100
AcDbText
 10
227.1044837220525
 20
90.53972258458269
 30
0.0
 40
2.2
  1
Format / Size: DIN A4
 41
0.7994987468660257
 72
     5
 11
260.5235313410524
 21
90.53972258458269
 31
0.0
100
AcDbText
  0
TEXT
  5
2C08
330
1F
100
AcDbEntity
  8
90000_FRAME
  6
Continuous
 62
     7
100
AcDbText
 10
269.6044837220525
 20
90.53972258458269
 30
0.0
 40
2.2
  1
Massstab / Scale: 1:1
 41
0.7732634338148418
 72
     5
 11
300.5092456268524
 21
90.53972258458269
 31
0.0
100
AcDbText
  0
TEXT
  5
2C09
330
1F
100
AcDbEntity
  8
90000_FRAME
  6
Continuous
 62
     7
100
AcDbText
 10
239.7504082460032
 20
98.88972258458281
 30
0.0
 40
3.5
  1
8WD4420_00000811_000_ALL
 41
0.7316751156272625
 72
     5
 11
295.6625816651865
 21
98.88972258458281
 31
0.0
100
AcDbText
  0
TEXT
  5
2C0A
330
1F
100
AcDbEntity
  8
91000_TIP
  6
Continuous
 62
     7
100
AcDbText
 10
51.94479148218397
 20
95.68167073935819
 30
0.0
 40
2.5
  1
Alle Bemassungswerte sind in Millimeter (mm) angegeben.
 41
0.6056311217924577
 72
     5
 11
125.6299113002663
 21
95.68167073935819
 31
0.0
100
AcDbText
  0
TEXT
  5
2C0B
330
1F
100
AcDbEntity
  8
91000_TIP
  6
Continuous
 62
     7
100
AcDbText
 10
51.94479148218397
 20
90.4316707393581
 30
0.0
 40
2.5
  1
All dimensions are in millimeters (mm).
 41
0.7513350295680277
 72
     5
 11
112.0515938476261
 21
90.4316707393581
 31
0.0
100
AcDbText
  0
LINE
  5
2C0C
330
1F
100
AcDbEntity
  8
91000_TIP
  6
Continuous
 62
     7
100
AcDbLine
 10
151.2591538260784
 20
99.9634601069534
 30
0.0
 11
161.2591536218785
 21
102.4634600559534
 31
0.0
  0
LINE
  5
2C0D
330
1F
100
AcDbEntity
  8
91000_TIP
  6
CENTER
 62
     7
100
AcDbLine
 10
149.9796433540775
 20
97.46346015805338
 30
0.0
 11
173.5816326181774
 21
97.46346015805338
 31
0.0
  0
LINE
  5
2C0E
330
1F
100
AcDbEntity
  8
91000_TIP
  6
Continuous
 62
     7
100
AcDbLine
 10
151.2591538260784
 20
94.96346020915341
 30
0.0
 11
161.2591536218785
 21
92.46346026015327
 31
0.0
  0
LINE
  5
2C0F
330
1F
100
AcDbEntity
  8
91000_TIP
  6
Continuous
 62
     7
100
AcDbLine
 10
151.2591538260784
 20
99.9634601069534
 30
0.0
 11
151.2591538260784
 21
94.96346020915341
 31
0.0
  0
LINE
  5
2C10
330
1F
100
AcDbEntity
  8
91000_TIP
  6
Continuous
 62
     7
100
AcDbLine
 10
161.2591536218785
 20
102.4634600559534
 30
0.0
 11
161.2591536218785
 21
92.46346026015327
 31
0.0
  0
LINE
  5
2C11
330
1F
100
AcDbEntity
  8
91000_TIP
  6
CENTER
 62
     7
100
AcDbLine
 10
167.7591534890785
 20
91.74197895165336
 30
0.0
 11
167.7591534890785
 21
103.0253649516534
 31
0.0
  0
CIRCLE
  5
2C12
330
1F
100
AcDbEntity
  8
91000_TIP
  6
Continuous
 62
     7
100
AcDbCircle
 10
167.7591534890785
 20
97.46346015805338
 30
0.0
 40
4.9999998979
  0
CIRCLE
  5
2C13
330
1F
100
AcDbEntity
  8
91000_TIP
  6
Continuous
 62
     7
100
AcDbCircle
 10
167.7591534890785
 20
97.46346015805338
 30
0.0
 40
2.499999948899997
  0
LINE
  5
2C14
330
1F
100
AcDbEntity
  8
90000_FRAME
  6
Continuous
 62
     7
100
AcDbLine
 10
46.44448372205238
 20
83.6397225845828
 30
0.0
 11
46.44448372205238
 21
283.6397225845828
 31
0.0
  0
LINE
  5
2C15
330
1F
100
AcDbEntity
  8
90000_FRAME
  6
Continuous
 62
     7
100
AcDbLine
 10
316.4444837220524
 20
83.6397225845828
 30
0.0
 11
46.44448372205238
 21
83.6397225845828
 31
0.0
  0
LINE
  5
2C16
330
1F
100
AcDbEntity
  8
90000_FRAME
  6
Continuous
 62
     7
100
AcDbLine
 10
316.4444837220524
 20
83.6397225845828
 30
0.0
 11
316.4444837220526
 21
283.6397225845828
 31
0.0
  0
CIRCLE
  5
2C4F
330
1F
100
AcDbEntity
  8
13000_Top
  6
Continuous
 62
     7
370
    50
100
AcDbCircle
 10
95.85010025013479
 20
195.6726022429512
 30
0.0
 40
35.00000000000001
  0
LINE
  5
2C5C
330
1F
100
AcDbEntity
  8
10000_Front
  6
Continuous
 62
     7
370
    13
100
AcDbLine
 10
205.0478886507721
 20
224.3826873350079
 30
0.0
 11
205.0478886507721
 21
166.3826773350079
 31
0.0
  0
TEXT
  5
2C5D
330
1F
100
AcDbEntity
  8
13100_Top_Dim
  6
Continuous
 62
     7
370
    13
100
AcDbText
 10
87.67616326975735
 20
255.9022915651564
 30
0.0
 40
4.945867574227348
  1
TOP                               BOTTOM
100
AcDbText
  0
DIMENSION
  5
2C5E
102
{ACAD_XDICTIONARY
360
2C6B
102
}
102
{ACAD_REACTORS
330
2C75
102
}
330
1F
100
AcDbEntity
  8
13100_Top_Dim
  6
Continuous
 62
     7
370
    13
100
AcDbDimension
  2
*D4
 10
55.51399080770193
 20
163.6726022429511
 30
0.0
 11
55.5139908077019
 21
195.6726022429512
 31
0.0
 70
    32
 71
     5
 42
64.0
  3
ISO-25
100
AcDbAlignedDimension
 13
95.85010025013479
 23
227.6726022429512
 33
0.0
 14
95.85010025013479
 24
163.6726022429511
 34
0.0
 50
90.0
100
AcDbRotatedDimension
1001
ACAD
1000
DSTYLE
1002
{
1070
    77
1070
     0
1070
   140
1040
5.0
1070
   172
1070
     0
1070
   271
1070
     0
1002
}
  0
DIMENSION
  5
2C76
102
{ACAD_XDICTIONARY
360
2C83
102
}
102
{ACAD_REACTORS
330
2C8D
102
}
330
1F
100
AcDbEntity
  8
14100_Bottom_Dim
  6
Continuous
 62
     7
370
    13
100
AcDbDimension
  2
*D5
 10
287.3834026507895
 20
150.3783173350079
 30
0.0
 11
270.3834026507895
 21
150.3783173350079
 31
0.0
 70
    32
 71
     5
 42
34.0
  3
ISO-25
100
AcDbAlignedDimension
 13
253.3834026507896
 23
195.6726022429512
 33
0.0
 14
287.3834026507895
 24
195.6726022429512
 34
0.0
100
AcDbRotatedDimension
1001
ACAD
1000
DSTYLE
1002
{
1070
    77
1070
     0
1070
   140
1040
5.0
1070
   172
1070
     0
1070
   271
1070
     0
1002
}
  0
DIMENSION
  5
2C97
102
{ACAD_XDICTIONARY
360
2CA1
102
}
102
{ACAD_REACTORS
330
2CA8
102
}
330
1F
100
AcDbEntity
  8
14100_Bottom_Dim
  6
Continuous
 62
     7
370
    13
100
AcDbDimension
  2
*D6
 10
253.3834026507896
 20
195.6726022429512
 30
0.0
 11
264.8336601149691
 21
199.3999793522736
 31
0.0
 70
    36
 71
     5
 42
2.249999999999544
  3
ISO-25
100
AcDbRadialDimension
 15
255.522897125065
 25
196.3690671699525
 35
0.0
 40
0.0
1001
ACAD
1000
DSTYLE
1002
{
1070
    77
1070
     0
1070
   140
1040
5.0
1070
   172
1070
     0
1070
   271
1070
     0
1002
}
  0
LINE
  5
2EBE
330
1F
100
AcDbEntity
  8
10000_Front
  6
CENTER
 62
     7
370
    50
100
AcDbLine
 10
159.0478886507721
 20
161.3826773350079
 30
0.0
 11
159.0478886507721
 21
160.3826773350079
 31
0.0
  0
LINE
  5
2EBF
330
1F
100
AcDbEntity
  8
10000_Front
  6
CENTER
 62
     7
370
    50
100
AcDbLine
 10
159.0478886507721
 20
230.3826773350079
 30
0.0
 11
159.0478886507721
 21
229.3826873350079
 31
0.0
  0
LINE
  5
2EC1
330
1F
100
AcDbEntity
  8
10000_Front
  6
Continuous
 62
     7
370
    50
100
AcDbLine
 10
215.0478886507722
 20
160.3826773350079
 30
0.0
 11
215.0478886507722
 21
230.3826773350079
 31
0.0
  0
ENDSEC
  0
SECTION
  2
OBJECTS
  0
DICTIONARY
  5
C
330
0
100
AcDbDictionary
281
     1
  3
ACAD_COLOR
350
6B
  3
ACAD_GROUP
350
D
  3
ACAD_LAYOUT
350
1A
  3
ACAD_MATERIAL
350
6A
  3
ACAD_MLINESTYLE
350
17
  3
ACAD_PLOTSETTINGS
350
19
  3
ACAD_PLOTSTYLENAME
350
E
  3
ACDBHEADERROUNDTRIPXREC
350
2EEA
  3
AcDbVariableDictionary
350
5E
  3
DWGPROPS
350
2EE9
  0
DICTIONARY
  5
2C6B
330
2C5E
100
AcDbDictionary
280
     1
281
     1
  3
ACAD_DIMASSOC
360
2C75
  0
DICTIONARY
  5
2C83
330
2C76
100
AcDbDictionary
280
     1
281
     1
  3
ACAD_DIMASSOC
360
2C8D
  0
DICTIONARY
  5
2CA1
330
2C97
100
AcDbDictionary
280
     1
281
     1
  3
ACAD_DIMASSOC
360
2CA8
  0
DICTIONARY
  5
6B
102
{ACAD_REACTORS
330
C
102
}
330
C
100
AcDbDictionary
281
     1
  0
DICTIONARY
  5
D
102
{ACAD_REACTORS
330
C
102
}
330
C
100
AcDbDictionary
281
     1
  0
DICTIONARY
  5
1A
102
{ACAD_REACTORS
330
C
102
}
330
C
100
AcDbDictionary
281
     1
  3
Layout1
350
51
  3
Layout2
350
56
  3
Model
350
22
  0
DICTIONARY
  5
6A
102
{ACAD_REACTORS
330
C
102
}
330
C
100
AcDbDictionary
281
     1
  0
DICTIONARY
  5
17
102
{ACAD_REACTORS
330
C
102
}
330
C
100
AcDbDictionary
281
     1
  3
Standard
350
18
  0
DICTIONARY
  5
19
102
{ACAD_REACTORS
330
C
102
}
330
C
100
AcDbDictionary
281
     1
  0
ACDBDICTIONARYWDFLT
  5
E
102
{ACAD_REACTORS
330
C
102
}
330
C
100
AcDbDictionary
281
     1
  3
Normal
350
F
100
AcDbDictionaryWithDefault
340
F
  0
DICTIONARY
  5
2EEA
102
{ACAD_REACTORS
330
C
102
}
330
C
100
AcDbDictionary
281
     1
  3
COLORDICT
350
2EEC
  3
MATERIALDICT
350
2EEB
  0
DICTIONARY
  5
5E
102
{ACAD_REACTORS
330
C
102
}
330
C
100
AcDbDictionary
281
     1
  3
DIMASSOC
350
5F
  3
HIDETEXT
350
63
  3
PROJECTNAME
350
2C50
  0
XRECORD
  5
2EE9
102
{ACAD_REACTORS
330
C
102
}
330
C
100
AcDbXrecord
280
     1
  1
DWGPROPS COOKIE
  2

  3

  4

  6

  7

  8

  9

300
=
301
=
302
=
303
=
304
=
305
=
306
=
307
=
308
=
309
=
 40
0.0523603587962963
 41
2453453.687577789
 42
2453622.598440833
  1

 90
        0
  0
DIMASSOC
  5
2C75
102
{ACAD_REACTORS
330
2C6B
102
}
330
2C6B
100
AcDbDimAssoc
330
2C5E
 90
        3
 70
     0
 71
     0
  1
AcDbOsnapPointRef
 72
     5
331
16A4
 73
     2
 91
        0
 40
1.570796326794896
 10
0.0
 20
0.0
 30
0.0
 75
     0
  1
AcDbOsnapPointRef
 72
     5
331
16A4
 73
     2
 91
        0
 40
4.712388980384688
 10
0.0
 20
0.0
 30
0.0
 75
     0
  0
DIMASSOC
  5
2C8D
102
{ACAD_REACTORS
330
2C83
102
}
330
2C83
100
AcDbDimAssoc
330
2C76
 90
        3
 70
     0
 71
     0
  1
AcDbOsnapPointRef
 72
     3
331
1411
 73
     2
 91
        0
 40
0.0
 10
0.0
 20
0.0
 30
0.0
 75
     0
  1
AcDbOsnapPointRef
 72
     3
331
1412
 73
     2
 91
        0
 40
0.0
 10
0.0
 20
0.0
 30
0.0
 75
     0
  0
DIMASSOC
  5
2CA8
102
{ACAD_REACTORS
330
2CA1
102
}
330
2CA1
100
AcDbDimAssoc
330
2C97
 90
        2
 70
     0
 71
     0
  1
AcDbOsnapPointRef
 72
     3
331
144C
 73
     2
 91
        0
 40
0.0
 10
0.0
 20
0.0
 30
0.0
 75
     0
  0
LAYOUT
  5
51
102
{ACAD_XDICTIONARY
360
2EEF
102
}
102
{ACAD_REACTORS
330
1A
102
}
330
1A
100
AcDbPlotSettings
  1

  2
None
  4

  6

 40
0.0
 41
0.0
 42
0.0
 43
0.0
 44
0.0
 45
0.0
 46
0.0
 47
0.0
 48
0.0
 49
0.0
140
0.0
141
0.0
142
1.0
143
1.0
 70
   688
 72
     0
 73
     0
 74
     5
  7

 75
    16
147
1.0
148
0.0
149
0.0
100
AcDbLayout
  1
Layout1
 70
     1
 71
     1
 10
0.0
 20
0.0
 11
12.0
 21
9.0
 12
0.0
 22
0.0
 32
0.0
 14
0.0
 24
0.0
 34
0.0
 15
0.0
 25
0.0
 35
0.0
146
0.0
 13
0.0
 23
0.0
 33
0.0
 16
1.0
 26
0.0
 36
0.0
 17
0.0
 27
1.0
 37
0.0
 76
     0
330
50
  0
LAYOUT
  5
56
102
{ACAD_XDICTIONARY
360
2EF1
102
}
102
{ACAD_REACTORS
330
1A
102
}
330
1A
100
AcDbPlotSettings
  1

  2
None
  4

  6

 40
0.0
 41
0.0
 42
0.0
 43
0.0
 44
0.0
 45
0.0
 46
0.0
 47
0.0
 48
0.0
 49
0.0
140
0.0
141
0.0
142
1.0
143
1.0
 70
   688
 72
     0
 73
     0
 74
     5
  7

 75
    16
147
1.0
148
0.0
149
0.0
100
AcDbLayout
  1
Layout2
 70
     1
 71
     2
 10
0.0
 20
0.0
 11
12.0
 21
9.0
 12
0.0
 22
0.0
 32
0.0
 14
0.0
 24
0.0
 34
0.0
 15
0.0
 25
0.0
 35
0.0
146
0.0
 13
0.0
 23
0.0
 33
0.0
 16
1.0
 26
0.0
 36
0.0
 17
0.0
 27
1.0
 37
0.0
 76
     0
330
55
  0
LAYOUT
  5
22
102
{ACAD_XDICTIONARY
360
2EED
102
}
102
{ACAD_REACTORS
330
1A
102
}
330
1A
100
AcDbPlotSettings
  1

  2
none_device
  4
ANSI_A_(8.50_x_11.00_Inches)
  6

 40
6.349999904632567
 41
19.04999923706055
 42
6.350006103515625
 43
19.04998779296875
 44
215.8999938964844
 45
279.3999938964844
 46
0.0
 47
0.0
 48
0.0
 49
0.0
140
0.0
141
0.0
142
1.0
143
78.436453180766
 70
 11952
 72
     0
 73
     1
 74
     0
  7

 75
     0
147
0.0127491741332998
148
0.0
149
0.0
100
AcDbLayout
  1
Model
 70
     1
 71
     0
 10
0.0
 20
0.0
 11
12.0
 21
9.0
 12
0.0
 22
0.0
 32
0.0
 14
0.0
 24
0.0
 34
0.0
 15
0.0
 25
0.0
 35
0.0
146
0.0
 13
0.0
 23
0.0
 33
0.0
 16
1.0
 26
0.0
 36
0.0
 17
0.0
 27
1.0
 37
0.0
 76
     0
330
1F
  0
MLINESTYLE
  5
18
102
{ACAD_REACTORS
330
17
102
}
330
17
100
AcDbMlineStyle
  2
STANDARD
 70
     0
  3

 62
   256
 51
90.0
 52
90.0
 71
     2
 49
0.5
 62
   256
  6
BYLAYER
 49
-0.5
 62
   256
  6
BYLAYER
  0
ACDBPLACEHOLDER
  5
F
102
{ACAD_REACTORS
330
E
102
}
330
E
  0
XRECORD
  5
2EEC
102
{ACAD_REACTORS
330
2EEA
102
}
330
2EEA
100
AcDbXrecord
280
     1
340
6B
  0
XRECORD
  5
2EEB
102
{ACAD_REACTORS
330
2EEA
102
}
330
2EEA
100
AcDbXrecord
280
     1
340
6A
  0
DICTIONARYVAR
  5
5F
102
{ACAD_REACTORS
330
5E
102
}
330
5E
100
DictionaryVariables
280
     0
  1
2
  0
DICTIONARYVAR
  5
63
102
{ACAD_REACTORS
330
5E
102
}
330
5E
100
DictionaryVariables
280
     0
  1
1
  0
DICTIONARYVAR
  5
2C50
102
{ACAD_REACTORS
330
5E
102
}
330
5E
100
DictionaryVariables
280
     0
  1

  0
DICTIONARY
  5
2EEF
330
51
100
AcDbDictionary
280
     1
281
     1
  3
ACAD_XREC_ROUNDTRIP
360
2EF0
  0
DICTIONARY
  5
2EF1
330
56
100
AcDbDictionary
280
     1
281
     1
  3
ACAD_XREC_ROUNDTRIP
360
2EF2
  0
DICTIONARY
  5
2EED
330
22
100
AcDbDictionary
280
     1
281
     1
  3
ACAD_XREC_ROUNDTRIP
360
2EEE
  0
XRECORD
  5
2EF0
102
{ACAD_REACTORS
330
2EEF
102
}
330
2EEF
100
AcDbXrecord
280
     1
102
SHADEPLOT
 70
     0
102
SHADEPLOTRESLEVEL
 70
     2
102
SHADEPLOTCUSTOMDPI
 70
   300
  0
XRECORD
  5
2EF2
102
{ACAD_REACTORS
330
2EF1
102
}
330
2EF1
100
AcDbXrecord
280
     1
102
SHADEPLOT
 70
     0
102
SHADEPLOTRESLEVEL
 70
     2
102
SHADEPLOTCUSTOMDPI
 70
   300
  0
XRECORD
  5
2EEE
102
{ACAD_REACTORS
330
2EED
102
}
330
2EED
100
AcDbXrecord
280
     1
102
SHADEPLOT
 70
     0
102
SHADEPLOTRESLEVEL
 70
     2
102
SHADEPLOTCUSTOMDPI
 70
   300
  0
ENDSEC
  0
EOF
